  0
SECTION
  2
HEADER
  9
$ACADVER
  1
AC1027
  9
$ACADMAINTVER
 70
   125
  9
$DWGCODEPAGE
  3
ANSI_1252
  9
$LASTSAVEDBY
  1
Administrator
  9
$REQUIREDVERSIONS
160
                 0
  9
$INSBASE
 10
0.0
 20
0.0
 30
0.0
  9
$EXTMIN
 10
0.0
 20
0.0
 30
-1.750023
  9
$EXTMAX
 10
17.0
 20
11.0
 30
60.0
  9
$LIMMIN
 10
0.0
 20
0.0
  9
$LIMMAX
 10
17.0
 20
11.0
  9
$ORTHOMODE
 70
     0
  9
$REGENMODE
 70
     1
  9
$FILLMODE
 70
     1
  9
$QTEXTMODE
 70
     0
  9
$MIRRTEXT
 70
     0
  9
$LTSCALE
 40
0.75
  9
$ATTMODE
 70
     1
  9
$TEXTSIZE
 40
0.12
  9
$TRACEWID
 40
0.05
  9
$TEXTSTYLE
  7
Standard
  9
$CLAYER
  8
Titleblock
  9
$CELTYPE
  6
ByLayer
  9
$CECOLOR
 62
   256
  9
$CELTSCALE
 40
1.0
  9
$DISPSILH
 70
     0
  9
$DIMSCALE
 40
1.0
  9
$DIMASZ
 40
0.12
  9
$DIMEXO
 40
0.05
  9
$DIMDLI
 40
0.339411
  9
$DIMRND
 40
0.0
  9
$DIMDLE
 40
0.0
  9
$DIMEXE
 40
0.1
  9
$DIMTP
 40
0.01
  9
$DIMTM
 40
0.01
  9
$DIMTXT
 40
0.12
  9
$DIMCEN
 40
0.0
  9
$DIMTSZ
 40
0.0
  9
$DIMTOL
 70
     0
  9
$DIMLIM
 70
     0
  9
$DIMTIH
 70
     1
  9
$DIMTOH
 70
     1
  9
$DIMSE1
 70
     0
  9
$DIMSE2
 70
     0
  9
$DIMTAD
 70
     0
  9
$DIMZIN
 70
    12
  9
$DIMBLK
  1

  9
$DIMASO
 70
     1
  9
$DIMSHO
 70
     1
  9
$DIMPOST
  1
in
  9
$DIMAPOST
  1
mm
  9
$DIMALT
 70
     0
  9
$DIMALTD
 70
     2
  9
$DIMALTF
 40
25.4
  9
$DIMLFAC
 40
1.0
  9
$DIMTOFL
 70
     0
  9
$DIMTVP
 40
0.0
  9
$DIMTIX
 70
     0
  9
$DIMSOXD
 70
     0
  9
$DIMSAH
 70
     0
  9
$DIMBLK1
  1

  9
$DIMBLK2
  1

  9
$DIMSTYLE
  2
Standard
  9
$DIMCLRD
 70
   256
  9
$DIMCLRE
 70
   256
  9
$DIMCLRT
 70
   256
  9
$DIMTFAC
 40
1.0
  9
$DIMGAP
 40
0.06
  9
$DIMJUST
 70
     0
  9
$DIMSD1
 70
     0
  9
$DIMSD2
 70
     0
  9
$DIMTOLJ
 70
     1
  9
$DIMTZIN
 70
    12
  9
$DIMALTZ
 70
    12
  9
$DIMALTTZ
 70
    12
  9
$DIMUPT
 70
     0
  9
$DIMDEC
 70
     3
  9
$DIMTDEC
 70
     3
  9
$DIMALTU
 70
     2
  9
$DIMALTTD
 70
     2
  9
$DIMTXSTY
  7
Standard
  9
$DIMAUNIT
 70
     0
  9
$DIMADEC
 70
     3
  9
$DIMALTRND
 40
0.0
  9
$DIMAZIN
 70
     3
  9
$DIMDSEP
 70
    46
  9
$DIMATFIT
 70
     3
  9
$DIMFRAC
 70
     0
  9
$DIMLDRBLK
  1

  9
$DIMLUNIT
 70
     5
  9
$DIMLWD
 70
    -2
  9
$DIMLWE
 70
    -2
  9
$DIMTMOVE
 70
     0
  9
$DIMFXL
 40
1.0
  9
$DIMFXLON
 70
     0
  9
$DIMJOGANG
 40
0.785398
  9
$DIMTFILL
 70
     0
  9
$DIMTFILLCLR
 70
     0
  9
$DIMARCSYM
 70
     1
  9
$DIMLTYPE
  6

  9
$DIMLTEX1
  6

  9
$DIMLTEX2
  6

  9
$DIMTXTDIRECTION
 70
     0
  9
$LUNITS
 70
     2
  9
$LUPREC
 70
     4
  9
$SKETCHINC
 40
0.1
  9
$FILLETRAD
 40
0.0
  9
$AUNITS
 70
     0
  9
$AUPREC
 70
     0
  9
$MENU
  1
.
  9
$ELEVATION
 40
0.0
  9
$PELEVATION
 40
0.0
  9
$THICKNESS
 40
0.0
  9
$LIMCHECK
 70
     0
  9
$CHAMFERA
 40
0.0
  9
$CHAMFERB
 40
0.0
  9
$CHAMFERC
 40
0.0
  9
$CHAMFERD
 40
0.0
  9
$SKPOLY
 70
     0
  9
$TDCREATE
 40
2459326.427430556
  9
$TDUCREATE
 40
2459326.719097223
  9
$TDUPDATE
 40
2459326.427430556
  9
$TDUUPDATE
 40
2459326.719097223
  9
$TDINDWG
 40
0.0000000000
  9
$TDUSRTIMER
 40
0.0000000000
  9
$USRTIMER
 70
     1
  9
$ANGBASE
 50
0.0
  9
$ANGDIR
 70
     0
  9
$PDMODE
 70
     0
  9
$PDSIZE
 40
0.0
  9
$PLINEWID
 40
0.0
  9
$SPLFRAME
 70
     0
  9
$SPLINETYPE
 70
     6
  9
$SPLINESEGS
 70
     8
  9
$HANDSEED
  5
887
  9
$SURFTAB1
 70
     6
  9
$SURFTAB2
 70
     6
  9
$SURFTYPE
 70
     6
  9
$SURFU
 70
     6
  9
$SURFV
 70
     6
  9
$UCSBASE
  2

  9
$UCSNAME
  2

  9
$UCSORG
 10
0.0
 20
0.0
 30
0.0
  9
$UCSXDIR
 10
1.0
 20
0.0
 30
0.0
  9
$UCSYDIR
 10
0.0
 20
1.0
 30
0.0
  9
$UCSORTHOREF
  2

  9
$UCSORTHOVIEW
 70
     0
  9
$UCSORGTOP
 10
0.0
 20
0.0
 30
0.0
  9
$UCSORGBOTTOM
 10
0.0
 20
0.0
 30
0.0
  9
$UCSORGLEFT
 10
0.0
 20
0.0
 30
0.0
  9
$UCSORGRIGHT
 10
0.0
 20
0.0
 30
0.0
  9
$UCSORGFRONT
 10
0.0
 20
0.0
 30
0.0
  9
$UCSORGBACK
 10
0.0
 20
0.0
 30
0.0
  9
$PUCSBASE
  2

  9
$PUCSNAME
  2

  9
$PUCSORG
 10
0.0
 20
0.0
 30
0.0
  9
$PUCSXDIR
 10
1.0
 20
0.0
 30
0.0
  9
$PUCSYDIR
 10
0.0
 20
1.0
 30
0.0
  9
$PUCSORTHOREF
  2

  9
$PUCSORTHOVIEW
 70
     0
  9
$PUCSORGTOP
 10
0.0
 20
0.0
 30
0.0
  9
$PUCSORGBOTTOM
 10
0.0
 20
0.0
 30
0.0
  9
$PUCSORGLEFT
 10
0.0
 20
0.0
 30
0.0
  9
$PUCSORGRIGHT
 10
0.0
 20
0.0
 30
0.0
  9
$PUCSORGFRONT
 10
0.0
 20
0.0
 30
0.0
  9
$PUCSORGBACK
 10
0.0
 20
0.0
 30
0.0
  9
$USERI1
 70
     0
  9
$USERI2
 70
     0
  9
$USERI3
 70
     0
  9
$USERI4
 70
     0
  9
$USERI5
 70
     0
  9
$USERR1
 40
0.0
  9
$USERR2
 40
0.0
  9
$USERR3
 40
0.0
  9
$USERR4
 40
0.0
  9
$USERR5
 40
0.0
  9
$WORLDVIEW
 70
     1
  9
$SHADEDGE
 70
     3
  9
$SHADEDIF
 70
    70
  9
$TILEMODE
 70
     1
  9
$MAXACTVP
 70
    64
  9
$PINSBASE
 10
0.0
 20
0.0
 30
0.0
  9
$PLIMCHECK
 70
     0
  9
$PEXTMIN
 10
1.000000E+20
 20
1.000000E+20
 30
1.000000E+20
  9
$PEXTMAX
 10
-1.000000E+20
 20
-1.000000E+20
 30
-1.000000E+20
  9
$PLIMMIN
 10
0.0
 20
0.0
  9
$PLIMMAX
 10
12.0
 20
9.0
  9
$UNITMODE
 70
     0
  9
$VISRETAIN
 70
     1
  9
$PLINEGEN
 70
     0
  9
$PSLTSCALE
 70
     1
  9
$TREEDEPTH
 70
  3020
  9
$CMLSTYLE
  2
Standard
  9
$CMLJUST
 70
     0
  9
$CMLSCALE
 40
1.0
  9
$PROXYGRAPHICS
 70
     1
  9
$MEASUREMENT
 70
     0
  9
$CELWEIGHT
370
    -1
  9
$ENDCAPS
280
     0
  9
$JOINSTYLE
280
     0
  9
$LWDISPLAY
290
     0
  9
$INSUNITS
 70
     1
  9
$HYPERLINKBASE
  1

  9
$STYLESHEET
  1

  9
$XEDIT
290
     1
  9
$CEPSNTYPE
380
     0
  9
$PSTYLEMODE
290
     1
  9
$FINGERPRINTGUID
  2
{F402F6A6-AF08-5842-BF95-276290B904EC}
  9
$VERSIONGUID
  2
{85733A38-D242-B240-A99E-95D40C837CE2}
  9
$EXTNAMES
290
     1
  9
$PSVPSCALE
 40
0.0
  9
$OLESTARTUP
290
     0
  9
$SORTENTS
280
   127
  9
$INDEXCTL
280
     0
  9
$HIDETEXT
280
     1
  9
$XCLIPFRAME
280
     0
  9
$HALOGAP
280
     0
  9
$OBSCOLOR
 70
   257
  9
$OBSLTYPE
280
     0
  9
$INTERSECTIONDISPLAY
280
     0
  9
$INTERSECTIONCOLOR
 70
   257
  9
$DIMASSOC
280
     2
  9
$PROJECTNAME
  1

  9
$CAMERADISPLAY
290
     0
  9
$LENSLENGTH
 40
50.0
  9
$CAMERAHEIGHT
 40
0.0
  9
$STEPSPERSEC
 40
2.0
  9
$STEPSIZE
 40
6.0
  9
$3DDWFPREC
 40
2.0
  9
$PSOLWIDTH
 40
0.25
  9
$PSOLHEIGHT
 40
4.0
  9
$LOFTANG1
 40
1.570796
  9
$LOFTANG2
 40
1.570796
  9
$LOFTMAG1
 40
0.0
  9
$LOFTMAG2
 40
0.0
  9
$LOFTPARAM
 70
     7
  9
$LOFTNORMALS
280
     1
  9
$LATITUDE
 40
37.795
  9
$LONGITUDE
 40
-122.394
  9
$NORTHDIRECTION
 40
0.0
  9
$TIMEZONE
 70
 -8000
  9
$LIGHTGLYPHDISPLAY
280
     1
  9
$TILEMODELIGHTSYNCH
280
     1
  9
$CMATERIAL
347
11
  9
$SOLIDHIST
280
     0
  9
$SHOWHIST
280
     1
  9
$DWFFRAME
280
     2
  9
$DGNFRAME
280
     0
  9
$REALWORLDSCALE
290
     1
  9
$INTERFERECOLOR
 62
     1
  9
$INTERFEREOBJVS
345
33
  9
$INTERFEREVPVS
346
30
  9
$CSHADOW
280
     0
  9
$SHADOWPLANELOCATION
 40
0.0
  0
ENDSEC
  0
SECTION
  2
CLASSES
  0
CLASS
  1
ACDBDICTIONARYWDFLT
  2
AcDbDictionaryWithDefault
  3
ObjectDBX Classes
 90
        0
 91
        1
280
     0
281
     0
  0
CLASS
  1
MATERIAL
  2
AcDbMaterial
  3
ObjectDBX Classes
 90
     1153
 91
        3
280
     0
281
     0
  0
CLASS
  1
VISUALSTYLE
  2
AcDbVisualStyle
  3
ObjectDBX Classes
 90
     4095
 91
       24
280
     0
281
     0
  0
CLASS
  1
SCALE
  2
AcDbScale
  3
ObjectDBX Classes
 90
     1153
 91
       33
280
     0
281
     0
  0
CLASS
  1
TABLESTYLE
  2
AcDbTableStyle
  3
ObjectDBX Classes
 90
     4095
 91
        1
280
     0
281
     0
  0
CLASS
  1
MLEADERSTYLE
  2
AcDbMLeaderStyle
  3
ACDB_MLEADERSTYLE_CLASS
 90
     4095
 91
        1
280
     0
281
     0
  0
CLASS
  1
ACDBSECTIONVIEWSTYLE
  2
AcDbSectionViewStyle
  3
ObjectDBX Classes
 90
     1025
 91
        1
280
     0
281
     0
  0
CLASS
  1
ACDBDETAILVIEWSTYLE
  2
AcDbDetailViewStyle
  3
ObjectDBX Classes
 90
     1025
 91
        1
280
     0
281
     0
  0
CLASS
  1
ACMESCOPE
  2
AcMeScope
  3
AcMeServices
 90
     1024
 91
        1
280
     0
281
     0
  0
CLASS
  1
ACMECOMMANDHISTORY
  2
AcMeCommandHistory
  3
AcMeServices
 90
     1024
 91
        1
280
     0
281
     0
  0
CLASS
  1
ACIMSYSVARMAN
  2
AcImSysVarManager
  3
AcMeServices
 90
     1024
 91
        1
280
     0
281
     0
  0
CLASS
  1
ACIMINTSYSVAR
  2
AcImIntSysVar
  3
AcMeServices
 90
     1024
 91
        1
280
     0
281
     0
  0
CLASS
  1
ACMESTATEMGR
  2
AcMeStateMgr
  3
AcMeServices
 90
     1024
 91
        1
280
     0
281
     0
  0
CLASS
  1
ACGREFMASTER
  2
AcGrefMaster
  3
AcAttribServices
 90
     1024
 91
        1
280
     0
281
     0
  0
CLASS
  1
SORTENTSTABLE
  2
AcDbSortentsTable
  3
ObjectDBX Classes
 90
        0
 91
        6
280
     0
281
     0
  0
CLASS
  1
IMAGE
  2
AcDbRasterImage
  3
ISM
 90
     2175
 91
        1
280
     0
281
     1
  0
CLASS
  1
IMAGEDEF
  2
AcDbRasterImageDef
  3
ISM
 90
        0
 91
        1
280
     0
281
     0
  0
CLASS
  1
IMAGEDEF_REACTOR
  2
AcDbRasterImageDefReactor
  3
ISM
 90
        1
 91
        2
280
     0
281
     0
  0
CLASS
  1
RASTERVARIABLES
  2
AcDbRasterVariables
  3
ISM
 90
        0
 91
        1
280
     0
281
     0
  0
CLASS
  1
FIELD
  2
AcDbField
  3
ObjectDBX Classes
 90
     1152
 91
        4
280
     0
281
     0
  0
CLASS
  1
FIELDLIST
  2
AcDbFieldList
  3
ObjectDBX Classes
 90
     1152
 91
        1
280
     0
281
     0
  0
CLASS
  1
DICTIONARYVAR
  2
AcDbDictionaryVar
  3
ObjectDBX Classes
 90
        0
 91
        6
280
     0
281
     0
  0
CLASS
  1
CELLSTYLEMAP
  2
AcDbCellStyleMap
  3
ObjectDBX Classes
 90
     1152
 91
        1
280
     0
281
     0
  0
ENDSEC
  0
SECTION
  2
TABLES
  0
TABLE
  2
VPORT
  5
8
330
0
100
AcDbSymbolTable
 70
     1
1001
ACAD
1000
DbSaveVer
1071
      223
  0
VPORT
  5
57
330
8
100
AcDbSymbolTableRecord
100
AcDbViewportTableRecord
  2
*Active
 70
     0
 10
0.0
 20
0.0
 11
1.0
 21
1.0
 12
8.5
 22
5.5
 13
0.0
 23
0.0
 14
0.5
 24
0.5
 15
0.0
 25
0.0
 16
0.0
 26
0.0
 36
1.0
 17
0.0
 27
0.0
 37
0.0
 40
11.0
 41
1.779601
 42
50.0
 43
0.0
 44
0.0
 50
0.0
 51
0.0
 71
     0
 72
 20000
 73
     1
 74
     0
 75
     0
 76
     0
 77
     0
 78
     0
281
     0
 65
     1
110
0.0
120
0.0
130
0.0
111
1.0
121
0.0
131
0.0
112
0.0
122
1.0
132
0.0
 79
     0
146
0.0
348
2F
 60
     3
 61
     5
292
     1
282
     1
141
0.0
142
0.0
 63
   250
421
  3355443
  0
ENDTAB
  0
TABLE
  2
LTYPE
  5
5
330
0
100
AcDbSymbolTable
 70
    10
  0
LTYPE
  5
5B
330
5
100
AcDbSymbolTableRecord
100
AcDbLinetypeTableRecord
  2
ByBlock
 70
     0
  3

 72
    65
 73
     0
 40
0.0
  0
LTYPE
  5
5C
330
5
100
AcDbSymbolTableRecord
100
AcDbLinetypeTableRecord
  2
ByLayer
 70
     0
  3

 72
    65
 73
     0
 40
0.0
  0
LTYPE
  5
5D
330
5
100
AcDbSymbolTableRecord
100
AcDbLinetypeTableRecord
  2
Continuous
 70
     0
  3
Solid line
 72
    65
 73
     0
 40
0.0
  0
LTYPE
  5
81
330
5
100
AcDbSymbolTableRecord
100
AcDbLinetypeTableRecord
  2
HIDDEN
 70
     0
  3
Hidden __ __ __ __ __ __ __ __ __ __ __ __ __ _
 72
    65
 73
     2
 40
0.375
 49
0.25
 74
     0
 49
-0.125
 74
     0
  0
LTYPE
  5
82
330
5
100
AcDbSymbolTableRecord
100
AcDbLinetypeTableRecord
  2
PHANTOM2
 70
     0
  3
Phantom (.5x) ___ _ _ ___ _ _ ___ _ _ ___ _ _
 72
    65
 73
     6
 40
1.25
 49
0.625
 74
     0
 49
-0.125
 74
     0
 49
0.125
 74
     0
 49
-0.125
 74
     0
 49
0.125
 74
     0
 49
-0.125
 74
     0
  0
LTYPE
  5
83
330
5
100
AcDbSymbolTableRecord
100
AcDbLinetypeTableRecord
  2
CENTER
 70
     0
  3
Center ____ _ ____ _ ____ _ ____ _ ____ _ ____
 72
    65
 73
     4
 40
2.0
 49
1.25
 74
     0
 49
-0.25
 74
     0
 49
0.25
 74
     0
 49
-0.25
 74
     0
  0
LTYPE
  5
9E
330
5
100
AcDbSymbolTableRecord
100
AcDbLinetypeTableRecord
  2
CENTER2
 70
     0
  3
Center (.5x) ___ _ ___ _ ___ _ ___ _ ___ _ ___
 72
    65
 73
     4
 40
1.125
 49
0.75
 74
     0
 49
-0.125
 74
     0
 49
0.125
 74
     0
 49
-0.125
 74
     0
  0
LTYPE
  5
9F
330
5
100
AcDbSymbolTableRecord
100
AcDbLinetypeTableRecord
  2
HIDDEN2
 70
     0
  3
Hidden (.5x) _ _ _ _ _ _ _ _ _ _ _ _ _ _ _ _ _
 72
    65
 73
     2
 40
0.1875
 49
0.125
 74
     0
 49
-0.0625
 74
     0
  0
LTYPE
  5
A0
330
5
100
AcDbSymbolTableRecord
100
AcDbLinetypeTableRecord
  2
Amconstr
 70
     0
  3
_______________________
 72
    65
 73
     2
 40
9999.0
 49
9999.0
 74
     0
 49
0.0
 74
     0
  0
LTYPE
  5
A1
330
5
100
AcDbSymbolTableRecord
100
AcDbLinetypeTableRecord
  2
Amzigzag2
 70
     0
  3
/\/-/\/-/\/-/\/-/\/-/\/
 72
    65
 73
     2
 40
0.4401
 49
0.0001
 74
     4
 75
   136
340
9B
 46
0.0016
 50
0.0
 44
0.0
 45
0.0
 49
-0.44
 74
     0
  0
LTYPE
  5
A2
330
5
100
AcDbSymbolTableRecord
100
AcDbLinetypeTableRecord
  2
ACANSTGB
 70
     0
  3
__ . . __ . .
 72
    65
 73
     6
 40
0.354331
 49
0.15748
 74
     0
 49
-0.03937
 74
     0
 49
0.03937
 74
     0
 49
-0.03937
 74
     0
 49
0.03937
 74
     0
 49
-0.03937
 74
     0
  0
LTYPE
  5
A3
330
5
100
AcDbSymbolTableRecord
100
AcDbLinetypeTableRecord
  2
ACANSTGL
 70
     0
  3
_ _ _ _ _
 72
    65
 73
     2
 40
0.11811
 49
0.07874
 74
     0
 49
-0.03937
 74
     0
  0
ENDTAB
  0
TABLE
  2
LAYER
  5
2
330
0
100
AcDbSymbolTable
 70
    12
  0
LAYER
  5
54
330
2
100
AcDbSymbolTableRecord
100
AcDbLayerTableRecord
  2
0
 70
     0
 62
     7
  6
Continuous
370
    -3
390
F
347
21
348
0
1001
AcAecLayerStandard
1000

1000

  0
LAYER
  5
79
330
2
100
AcDbSymbolTableRecord
100
AcDbLayerTableRecord
  2
Defpoints
 70
     0
 62
     7
  6
Continuous
290
     0
370
    -3
390
F
347
21
348
0
1001
AcAecLayerStandard
1000

1000

  0
LAYER
  5
BD
330
2
100
AcDbSymbolTableRecord
100
AcDbLayerTableRecord
  2
Visible
 70
     0
 62
     7
  6
Continuous
370
    25
390
F
347
21
348
0
  0
LAYER
  5
13F
330
2
100
AcDbSymbolTableRecord
100
AcDbLayerTableRecord
  2
Hidden
 70
     0
 62
     7
  6
HIDDEN2
370
    13
390
F
347
21
348
0
  0
LAYER
  5
262
330
2
100
AcDbSymbolTableRecord
100
AcDbLayerTableRecord
  2
Titleblock
 70
     0
 62
     7
  6
Continuous
370
    -3
390
F
347
21
348
0
1001
AcAecLayerStandard
1000

1000

1001
AcCmTransparency
1071
        0
  0
LAYER
  5
287
330
2
100
AcDbSymbolTableRecord
100
AcDbLayerTableRecord
  2
Border
 70
     0
 62
     7
  6
Continuous
370
    -3
390
F
347
21
348
0
1001
AcAecLayerStandard
1000

1000

1001
AcCmTransparency
1071
        0
  0
LAYER
  5
2A8
330
2
100
AcDbSymbolTableRecord
100
AcDbLayerTableRecord
  2
Dimensions
 70
     0
 62
     7
  6
Continuous
370
    13
390
F
347
21
348
0
  0
LAYER
  5
311
330
2
100
AcDbSymbolTableRecord
100
AcDbLayerTableRecord
  2
Annotations
 70
     0
 62
     7
  6
Continuous
370
    13
390
F
347
21
348
0
  0
ENDTAB
  0
TABLE
  2
STYLE
  5
3
330
0
100
AcDbSymbolTable
 70
     4
  0
STYLE
  5
55
330
3
100
AcDbSymbolTableRecord
100
AcDbTextStyleTableRecord
  2
Standard
 70
     0
 40
0.0
 41
1.0
 50
0.0
 71
     0
 42
0.12
  3
arial.ttf
  4

1001
ACAD
1000
Arial
1071
       34
  0
STYLE
  5
5A
330
3
100
AcDbSymbolTableRecord
100
AcDbTextStyleTableRecord
  2
Annotative
 70
     0
 40
0.0
 41
1.0
 50
0.0
 71
     0
 42
0.2
  3
txt
  4

1001
AcadAnnotative
1000
AnnotativeData
1002
{
1070
     1
1070
     1
1002
}
  0
STYLE
  5
9B
330
3
100
AcDbSymbolTableRecord
100
AcDbTextStyleTableRecord
  2

 70
     1
 40
0.0
 41
1.0
 50
0.0
 71
     0
 42
0.12
  3
genltshp.shx
  4

  0
STYLE
  5
9C
330
3
100
AcDbSymbolTableRecord
100
AcDbTextStyleTableRecord
  2
ACANSGDT
 70
     0
 40
0.0
 41
1.0
 50
0.0
 71
     0
 42
0.12
  3
amgdt.shx
  4

  0
ENDTAB
  0
TABLE
  2
VIEW
  5
6
330
0
100
AcDbSymbolTable
 70
     0
  0
ENDTAB
  0
TABLE
  2
UCS
  5
7
330
0
100
AcDbSymbolTable
 70
     0
  0
ENDTAB
  0
TABLE
  2
APPID
  5
9
330
0
100
AcDbSymbolTable
 70
    28
  0
APPID
  5
56
330
9
100
AcDbSymbolTableRecord
100
AcDbRegAppTableRecord
  2
ACAD
 70
     0
  0
APPID
  5
5E
330
9
100
AcDbSymbolTableRecord
100
AcDbRegAppTableRecord
  2
AcadAnnotative
 70
     0
  0
APPID
  5
78
330
9
100
AcDbSymbolTableRecord
100
AcDbRegAppTableRecord
  2
ACAD_PSEXT
 70
     0
  0
APPID
  5
7A
330
9
100
AcDbSymbolTableRecord
100
AcDbRegAppTableRecord
  2
MCAD_NO_VIS
 70
     0
  0
APPID
  5
7B
330
9
100
AcDbSymbolTableRecord
100
AcDbRegAppTableRecord
  2
ACAD_TEMP_GRAPHIC
 70
     0
  0
APPID
  5
84
330
9
100
AcDbSymbolTableRecord
100
AcDbRegAppTableRecord
  2
ACAD_DSTYLE_DIMJAG
 70
     0
  0
APPID
  5
85
330
9
100
AcDbSymbolTableRecord
100
AcDbRegAppTableRecord
  2
ACAD_DSTYLE_DIMTALN
 70
     0
  0
APPID
  5
86
330
9
100
AcDbSymbolTableRecord
100
AcDbRegAppTableRecord
  2
ACAD_NAV_VCDISPLAY
 70
     0
  0
APPID
  5
87
330
9
100
AcDbSymbolTableRecord
100
AcDbRegAppTableRecord
  2
AcAecLayerStandard
 70
     0
  0
APPID
  5
88
330
9
100
AcDbSymbolTableRecord
100
AcDbRegAppTableRecord
  2
AcCmTransparency
 70
     0
  0
APPID
  5
89
330
9
100
AcDbSymbolTableRecord
100
AcDbRegAppTableRecord
  2
ACAD_DSTYLE_DIMBREAK
 70
     0
  0
APPID
  5
8A
330
9
100
AcDbSymbolTableRecord
100
AcDbRegAppTableRecord
  2
ACAD_DSTYLE_DIMRADIAL_EXTENSION
 70
     0
  0
APPID
  5
8B
330
9
100
AcDbSymbolTableRecord
100
AcDbRegAppTableRecord
  2
FUSIONTITLEBLOCK
 70
     0
  0
APPID
  5
8C
330
9
100
AcDbSymbolTableRecord
100
AcDbRegAppTableRecord
  2
FUSIONCURRENTTITLEBLOCK
 70
     0
  0
APPID
  5
8D
330
9
100
AcDbSymbolTableRecord
100
AcDbRegAppTableRecord
  2
AcSynergy
 70
     0
  0
APPID
  5
8E
330
9
100
AcDbSymbolTableRecord
100
AcDbRegAppTableRecord
  2
ACAD_VIEW_EDGE_ID
 70
     0
  0
APPID
  5
8F
330
9
100
AcDbSymbolTableRecord
100
AcDbRegAppTableRecord
  2
GENIUS_GENSCREG_15
 70
     0
  0
APPID
  5
90
330
9
100
AcDbSymbolTableRecord
100
AcDbRegAppTableRecord
  2
GENIUS_GENOBJ-N-SDF_13
 70
     0
  0
APPID
  5
91
330
9
100
AcDbSymbolTableRecord
100
AcDbRegAppTableRecord
  2
GENIUS_GENODEF_13
 70
     0
  0
APPID
  5
92
330
9
100
AcDbSymbolTableRecord
100
AcDbRegAppTableRecord
  2
ACAD_DIMASSOC_CALC_DIMLFAC
 70
     0
  0
APPID
  5
93
330
9
100
AcDbSymbolTableRecord
100
AcDbRegAppTableRecord
  2
ACAD_DIMASSOC_DIMLFAC
 70
     0
  0
APPID
  5
94
330
9
100
AcDbSymbolTableRecord
100
AcDbRegAppTableRecord
  2
ACAD_DIMASSOC_OVERRIDDEN_DIMLFAC
 70
     0
  0
APPID
  5
95
330
9
100
AcDbSymbolTableRecord
100
AcDbRegAppTableRecord
  2
FD_ATT_APPNAME
 70
     0
  0
APPID
  5
96
330
9
100
AcDbSymbolTableRecord
100
AcDbRegAppTableRecord
  2
SYNERGY_BODY_TBR_ID
 70
     0
  0
APPID
  5
97
330
9
100
AcDbSymbolTableRecord
100
AcDbRegAppTableRecord
  2
FusionCutBodyId
 70
     0
  0
APPID
  5
98
330
9
100
AcDbSymbolTableRecord
100
AcDbRegAppTableRecord
  2
ACAD_DSTYLE_DIMJAG_POSITION
 70
     0
  0
APPID
  5
99
330
9
100
AcDbSymbolTableRecord
100
AcDbRegAppTableRecord
  2
FUSIONTITLEBLOCKATTRIBUTEOVERRIDE
 70
     0
  0
APPID
  5
9A
330
9
100
AcDbSymbolTableRecord
100
AcDbRegAppTableRecord
  2
ACATTRIBSERVICES
 70
     0
  0
ENDTAB
  0
TABLE
  2
DIMSTYLE
  5
A
330
0
100
AcDbSymbolTable
 70
     2
100
AcDbDimStyleTable
 71
     1
340
58
  0
DIMSTYLE
105
58
102
{ACAD_REACTORS
330
344
330
352
330
360
330
36E
330
2A7
330
2B6
330
2C4
330
2D2
330
2E0
330
2EE
330
2FC
330
312
330
31C
330
326
330
334
102
}
330
A
100
AcDbSymbolTableRecord
100
AcDbDimStyleTableRecord
  2
Standard
 70
     0
  3
in
  4
mm
 41
0.12
 42
0.05
 43
0.339411
 44
0.1
 47
0.01
 48
0.01
 78
    12
 79
     3
 90
        1
140
0.12
141
0.0
147
0.06
176
   256
177
   256
178
   256
179
     3
271
     3
272
     3
277
     5
284
    12
285
    12
286
    12
340
55
  0
DIMSTYLE
105
59
330
A
100
AcDbSymbolTableRecord
100
AcDbDimStyleTableRecord
  2
Annotative
 70
     0
  3
in
  4
mm
 40
0.0
 43
0.339411
 78
    12
 79
     3
140
0.12
179
     3
271
     3
272
     3
277
     5
284
    12
285
    12
286
    12
340
55
1001
AcadAnnotative
1000
AnnotativeData
1002
{
1070
     1
1070
     1
1002
}
  0
ENDTAB
  0
TABLE
  2
BLOCK_RECORD
  5
1
330
0
100
AcDbSymbolTable
 70
    37
  0
BLOCK_RECORD
  5
70
102
{ACAD_XDICTIONARY
360
B6
102
}
330
1
100
AcDbSymbolTableRecord
100
AcDbBlockTableRecord
  2
*Model_Space
340
73
 70
     0
280
     1
281
     0
  0
BLOCK_RECORD
  5
6C
330
1
100
AcDbSymbolTableRecord
100
AcDbBlockTableRecord
  2
*Paper_Space
340
6F
 70
     0
280
     1
281
     0
  0
BLOCK_RECORD
  5
74
330
1
100
AcDbSymbolTableRecord
100
AcDbBlockTableRecord
  2
*Paper_Space0
340
77
 70
     0
280
     1
281
     0
  0
BLOCK_RECORD
  5
263
102
{ACAD_XDICTIONARY
360
264
102
}
330
1
100
AcDbSymbolTableRecord
100
AcDbBlockTableRecord
  2
Shower
340
0
102
{BLKREFS
331
261
102
}
 70
     1
280
     1
281
     0
1001
FUSIONTITLEBLOCK
1000
TitleBlock
  0
BLOCK_RECORD
  5
288
330
1
100
AcDbSymbolTableRecord
100
AcDbBlockTableRecord
  2
ANSI_B_SHEET
340
0
310
2800000020000000200000000100080000000000000400000000000000000000000000000000000000000000000080000080000000808000800000008000800080800000C0C0C000C0DCC000F0CAA6000020400000206000002080000020A0000020C0000020E00000400000004020000040400000406000004080000040A0
310
000040C0000040E00000600000006020000060400000606000006080000060A0000060C0000060E00000800000008020000080400000806000008080000080A0000080C0000080E00000A0000000A0200000A0400000A0600000A0800000A0A00000A0C00000A0E00000C0000000C0200000C0400000C0600000C0800000C0
310
A00000C0C00000C0E00000E0000000E0200000E0400000E0600000E0800000E0A00000E0C00000E0E00040000000400020004000400040006000400080004000A0004000C0004000E00040200000402020004020400040206000402080004020A0004020C0004020E000404000004040200040404000404060004040800040
310
40A0004040C0004040E00040600000406020004060400040606000406080004060A0004060C0004060E00040800000408020004080400040806000408080004080A0004080C0004080E00040A0000040A0200040A0400040A0600040A0800040A0A00040A0C00040A0E00040C0000040C0200040C0400040C0600040C08000
310
40C0A00040C0C00040C0E00040E0000040E0200040E0400040E0600040E0800040E0A00040E0C00040E0E00080000000800020008000400080006000800080008000A0008000C0008000E00080200000802020008020400080206000802080008020A0008020C0008020E00080400000804020008040400080406000804080
310
008040A0008040C0008040E00080600000806020008060400080606000806080008060A0008060C0008060E00080800000808020008080400080806000808080008080A0008080C0008080E00080A0000080A0200080A0400080A0600080A0800080A0A00080A0C00080A0E00080C0000080C0200080C0400080C0600080C0
310
800080C0A00080C0C00080C0E00080E0000080E0200080E0400080E0600080E0800080E0A00080E0C00080E0E000C0000000C0002000C0004000C0006000C0008000C000A000C000C000C000E000C0200000C0202000C0204000C0206000C0208000C020A000C020C000C020E000C0400000C0402000C0404000C0406000C0
310
408000C040A000C040C000C040E000C0600000C0602000C0604000C0606000C0608000C060A000C060C000C060E000C0800000C0802000C0804000C0806000C0808000C080A000C080C000C080E000C0A00000C0A02000C0A04000C0A06000C0A08000C0A0A000C0A0C000C0A0E000C0C00000C0C02000C0C04000C0C06000
310
C0C08000C0C0A000F0FBFF00A4A0A000808080000000FF0000FF000000FFFF00FF000000FF00FF00FFFF0000FFFFFF0049494949494949494949494949494949494949494949494949494949494949494949494949494949494949494949494949494949494949494949494949494949494949494949494949494949494949
310
494949494949494949494949494949494949494949494949494949494949494949494949494949494949494949494949494949494949494949494949494949494949494949494949494949494949494949494949494949494949494949494949494949494949494949494949494949494949FFFF4949494949494949494949
310
494949494949494949494949494949FFFF4949FFFFFFFFFFFFFFFFFFFFFFFFFFFFFFFFFFFFFFFFFFFFFFFFFFFFFFFFFFFF494949FF4949494949494949494949494949494949494949494949494949FF49494949FF4949494949494949494949494949494949494949494949494949FF49494949FF49494949494949494949
310
49494949494949494949494949494949FF49494949FF4949494949494949494949494949494949494949494949494949FF49494949FF4949494949494949494949494949494949494949494949494949FF49494949FF4949494949494949494949494949494949494949494949494949FF49494949FF494949494949494949
310
4949494949494949494949494949494949FF49494949FF4949494949494949494949494949494949494949494949494949FF49494949FF4949494949494949494949494949494949494949494949494949FF49494949FF4949494949494949494949494949494949494949494949494949FF49494949FF4949494949494949
310
494949494949494949494949494949494949FF49494949FF4949494949494949494949494949494949494949494949494949FF49494949FF4949494949494949494949494949494949494949494949494949FF49494949FF4949494949494949494949494949494949494949494949494949FF49494949FF49494949494949
310
49494949494949494949494949494949494949FF49494949FF4949494949494949494949494949494949494949494949494949FF494949FFFFFFFFFFFFFFFFFFFFFFFFFFFFFFFFFFFFFFFFFFFFFFFFFFFFFFFFFFFF4949FFFF4949494949494949494949494949494949494949494949494949FFFF49494949494949494949
310
49494949494949494949494949494949494949494949494949494949494949494949494949494949494949494949494949494949494949494949494949494949494949494949494949494949494949494949494949494949494949494949494949494949494949494949494949494949494949494949494949494949494949
310
4949494949494949494949494949494949494949494949494949494949494949494949494949494949494949494949494949494949494949
102
{BLKREFS
331
286
102
}
 70
     1
280
     1
281
     0
  0
BLOCK_RECORD
  5
2A9
330
1
100
AcDbSymbolTableRecord
100
AcDbBlockTableRecord
  2
*D6
340
0
 70
     0
280
     1
281
     0
  0
BLOCK_RECORD
  5
2B7
330
1
100
AcDbSymbolTableRecord
100
AcDbBlockTableRecord
  2
*D7
340
0
 70
     0
280
     1
281
     0
  0
BLOCK_RECORD
  5
2C5
330
1
100
AcDbSymbolTableRecord
100
AcDbBlockTableRecord
  2
*D8
340
0
 70
     0
280
     1
281
     0
  0
BLOCK_RECORD
  5
2D3
330
1
100
AcDbSymbolTableRecord
100
AcDbBlockTableRecord
  2
*D9
340
0
 70
     0
280
     1
281
     0
  0
BLOCK_RECORD
  5
2E1
330
1
100
AcDbSymbolTableRecord
100
AcDbBlockTableRecord
  2
*D10
340
0
 70
     0
280
     1
281
     0
  0
BLOCK_RECORD
  5
2EF
330
1
100
AcDbSymbolTableRecord
100
AcDbBlockTableRecord
  2
*D11
340
0
 70
     0
280
     1
281
     0
  0
BLOCK_RECORD
  5
2FD
330
1
100
AcDbSymbolTableRecord
100
AcDbBlockTableRecord
  2
*D12
340
0
 70
     0
280
     1
281
     0
  0
BLOCK_RECORD
  5
313
330
1
100
AcDbSymbolTableRecord
100
AcDbBlockTableRecord
  2
*D13
340
0
 70
     0
280
     1
281
     0
  0
BLOCK_RECORD
  5
31D
330
1
100
AcDbSymbolTableRecord
100
AcDbBlockTableRecord
  2
*D14
340
0
 70
     0
280
     1
281
     0
  0
BLOCK_RECORD
  5
327
330
1
100
AcDbSymbolTableRecord
100
AcDbBlockTableRecord
  2
*D15
340
0
 70
     0
280
     1
281
     0
  0
BLOCK_RECORD
  5
335
330
1
100
AcDbSymbolTableRecord
100
AcDbBlockTableRecord
  2
*D16
340
0
 70
     0
280
     1
281
     0
  0
BLOCK_RECORD
  5
345
330
1
100
AcDbSymbolTableRecord
100
AcDbBlockTableRecord
  2
*D17
340
0
 70
     0
280
     1
281
     0
  0
BLOCK_RECORD
  5
353
330
1
100
AcDbSymbolTableRecord
100
AcDbBlockTableRecord
  2
*D18
340
0
 70
     0
280
     1
281
     0
  0
BLOCK_RECORD
  5
361
330
1
100
AcDbSymbolTableRecord
100
AcDbBlockTableRecord
  2
*D19
340
0
 70
     0
280
     1
281
     0
  0
BLOCK_RECORD
  5
36F
330
1
100
AcDbSymbolTableRecord
100
AcDbBlockTableRecord
  2
*D20
340
0
 70
     0
280
     1
281
     0
  0
BLOCK_RECORD
  5
386
330
1
100
AcDbSymbolTableRecord
100
AcDbBlockTableRecord
  2
*D22
340
0
 70
     0
280
     1
281
     0
  0
BLOCK_RECORD
  5
393
330
1
100
AcDbSymbolTableRecord
100
AcDbBlockTableRecord
  2
*D23
340
0
 70
     0
280
     1
281
     0
  0
BLOCK_RECORD
  5
3A0
330
1
100
AcDbSymbolTableRecord
100
AcDbBlockTableRecord
  2
*D24
340
0
 70
     0
280
     1
281
     0
  0
BLOCK_RECORD
  5
3AD
330
1
100
AcDbSymbolTableRecord
100
AcDbBlockTableRecord
  2
*D25
340
0
 70
     0
280
     1
281
     0
  0
BLOCK_RECORD
  5
3BA
330
1
100
AcDbSymbolTableRecord
100
AcDbBlockTableRecord
  2
*D26
340
0
 70
     0
280
     1
281
     0
  0
BLOCK_RECORD
  5
3C7
330
1
100
AcDbSymbolTableRecord
100
AcDbBlockTableRecord
  2
*D27
340
0
 70
     0
280
     1
281
     0
  0
BLOCK_RECORD
  5
3D4
330
1
100
AcDbSymbolTableRecord
100
AcDbBlockTableRecord
  2
*D28
340
0
 70
     0
280
     1
281
     0
  0
BLOCK_RECORD
  5
3E1
330
1
100
AcDbSymbolTableRecord
100
AcDbBlockTableRecord
  2
*D29
340
0
 70
     0
280
     1
281
     0
  0
BLOCK_RECORD
  5
3EA
330
1
100
AcDbSymbolTableRecord
100
AcDbBlockTableRecord
  2
*D30
340
0
 70
     0
280
     1
281
     0
  0
BLOCK_RECORD
  5
3F3
330
1
100
AcDbSymbolTableRecord
100
AcDbBlockTableRecord
  2
*D31
340
0
 70
     0
280
     1
281
     0
  0
BLOCK_RECORD
  5
400
330
1
100
AcDbSymbolTableRecord
100
AcDbBlockTableRecord
  2
*D32
340
0
 70
     0
280
     1
281
     0
  0
BLOCK_RECORD
  5
40D
330
1
100
AcDbSymbolTableRecord
100
AcDbBlockTableRecord
  2
*D33
340
0
 70
     0
280
     1
281
     0
  0
BLOCK_RECORD
  5
41A
330
1
100
AcDbSymbolTableRecord
100
AcDbBlockTableRecord
  2
*D34
340
0
 70
     0
280
     1
281
     0
  0
BLOCK_RECORD
  5
427
330
1
100
AcDbSymbolTableRecord
100
AcDbBlockTableRecord
  2
*D35
340
0
 70
     0
280
     1
281
     0
  0
BLOCK_RECORD
  5
434
330
1
100
AcDbSymbolTableRecord
100
AcDbBlockTableRecord
  2
*D36
340
0
 70
     0
280
     1
281
     0
  0
ENDTAB
  0
ENDSEC
  0
SECTION
  2
BLOCKS
  0
BLOCK
  5
71
330
70
100
AcDbEntity
  8
0
100
AcDbBlockBegin
  2
*Model_Space
 70
     0
 10
0.0
 20
0.0
 30
0.0
  3
*Model_Space
  1

  0
ENDBLK
  5
72
330
70
100
AcDbEntity
  8
0
100
AcDbBlockEnd
  0
BLOCK
  5
6D
330
6C
100
AcDbEntity
 67
     1
  8
0
100
AcDbBlockBegin
  2
*Paper_Space
 70
     0
 10
0.0
 20
0.0
 30
0.0
  3
*Paper_Space
  1

  0
ENDBLK
  5
6E
330
6C
100
AcDbEntity
 67
     1
  8
0
100
AcDbBlockEnd
  0
BLOCK
  5
75
330
74
100
AcDbEntity
 67
     1
  8
0
100
AcDbBlockBegin
  2
*Paper_Space0
 70
     0
 10
0.0
 20
0.0
 30
0.0
  3
*Paper_Space0
  1

  0
ENDBLK
  5
76
330
74
100
AcDbEntity
 67
     1
  8
0
100
AcDbBlockEnd
  0
BLOCK
  5
266
330
263
100
AcDbEntity
  8
0
100
AcDbBlockBegin
  2
Shower
 70
     2
 10
0.0
 20
0.0
 30
0.0
  3
Shower
  1

  0
LWPOLYLINE
  5
267
330
263
100
AcDbEntity
  8
Titleblock
100
AcDbPolyline
 90
        4
 70
     1
 43
0.0
 10
0.0
 20
0.0
 10
-4.9375
 20
0.0
 10
-4.9375
 20
2.5
 10
0.0
 20
2.5
  0
IMAGE
  5
268
330
263
100
AcDbEntity
  8
Titleblock
  6
Continuous
160
               140
310
8C0000000100000084000000060000000500000000000000008013C000B87FA8928AB03F000000000000000000000000008013C035B4911D6523F03F000000000000000001000000008001C035B4911D6523F03F000000000000000001000000008001C000B87FA8928AB03F000000000000000000000000008013C000B87F
310
A8928AB03F0000000000000000
370
     0
100
AcDbRasterImage
 90
        0
 10
-4.875
 20
0.064614
 30
0.0
 11
0.0028349156118143
 21
0.0
 31
0.0
 12
0.0
 22
0.0028349156118143
 32
0.0
 13
948.0
 23
333.0
340
269
 70
    15
280
     0
281
    50
282
    50
283
     0
290
     0
360
26B
 71
     1
 91
        2
 14
-0.5
 24
-0.5
 14
947.5
 24
332.5
  0
LWPOLYLINE
  5
26D
330
263
100
AcDbEntity
  8
Titleblock
  6
Continuous
370
    25
100
AcDbPolyline
 90
        4
 70
     1
 43
0.0
 10
0.0
 20
1.0625
 10
-4.9375
 20
1.061638
 10
-4.9375
 20
0.0
 10
0.0
 20
0.0
  0
LWPOLYLINE
  5
26E
330
263
100
AcDbEntity
  8
Titleblock
  6
Continuous
370
    25
100
AcDbPolyline
 90
        4
 70
     1
 43
0.0
 10
-1.75
 20
2.5
 10
0.0
 20
2.5
 10
0.0
 20
2.5
 10
-1.75
 20
2.5
  0
ATTDEF
  5
26F
330
263
100
AcDbEntity
  8
Titleblock
  6
Continuous
370
    25
100
AcDbText
 10
-3.6875
 20
2.3125
 30
0.0
 40
0.12
  1

100
AcDbAttributeDefinition
280
     0
  3

  2
PROJECT
 70
     0
280
     1
  0
MTEXT
  5
270
330
263
100
AcDbEntity
  8
Titleblock
  6
Continuous
370
    25
100
AcDbMText
 10
-4.875
 20
1.653875
 30
0.0
 40
0.12
 41
0.6875
 46
0.0
 71
     1
 72
     5
  1
Description:
 73
     1
 44
1.0
1001
ACAD
1000
ACAD_MTEXT_COLUMN_INFO_BEGIN
1070
    75
1070
     2
1070
    79
1070
     0
1070
    76
1070
     1
1070
    78
1070
     0
1070
    48
1040
0.6875
1070
    49
1040
0.6
1070
    50
1070
     1
1040
0.0
1000
ACAD_MTEXT_COLUMN_INFO_END
  0
ATTDEF
  5
271
330
263
100
AcDbEntity
  8
Titleblock
  6
Continuous
370
    25
100
AcDbText
 10
-1.6875
 20
0.6875
 30
0.0
 40
0.12
  1

100
AcDbAttributeDefinition
280
     0
  3

  2
DRAWN_DATE
 70
     0
280
     1
  0
ATTDEF
  5
272
330
263
100
AcDbEntity
  8
Titleblock
  6
Continuous
370
    25
100
AcDbText
 10
-4.3125
 20
1.8125
 30
0.0
 40
0.3048
  1

100
AcDbAttributeDefinition
280
     0
  3

  2
TITLE_1
 70
     0
280
     1
  0
ATTDEF
  5
273
330
263
100
AcDbEntity
  8
Titleblock
  6
Continuous
370
    25
100
AcDbText
 10
-1.6875
 20
0.91994
 30
0.0
 40
0.12
  1

100
AcDbAttributeDefinition
280
     0
  3

  2
SCALE
 70
     0
280
     1
  0
LWPOLYLINE
  5
274
330
263
100
AcDbEntity
  8
Titleblock
  6
Continuous
370
    25
100
AcDbPolyline
 90
        4
 70
     1
 43
0.0
 10
0.0
 20
1.0625
 10
0.0
 20
1.0625
 10
0.0
 20
0.0
 10
0.0
 20
0.0
  0
LWPOLYLINE
  5
275
330
263
100
AcDbEntity
  8
Titleblock
  6
Continuous
370
    25
100
AcDbPolyline
 90
        4
 70
     1
 43
0.0
 10
0.0
 20
1.0625
 10
0.0
 20
1.0625
 10
0.0
 20
0.0
 10
0.0
 20
0.0
  0
LINE
  5
276
330
263
100
AcDbEntity
  8
Titleblock
  6
Continuous
370
    25
100
AcDbLine
 10
-2.125
 20
1.062165
 30
0.0
 11
-2.125
 21
0.0
 31
0.0
  0
LWPOLYLINE
  5
277
330
263
100
AcDbEntity
  8
Titleblock
  6
Continuous
370
    25
100
AcDbPolyline
 90
        4
 70
     1
 43
0.0
 10
-4.9375
 20
2.5
 10
0.0
 20
2.5
 10
0.0
 20
2.5
 10
-4.9375
 20
2.5
  0
LINE
  5
278
330
263
100
AcDbEntity
  8
Titleblock
  6
Continuous
370
    25
100
AcDbLine
 10
-4.9375
 20
2.25
 30
0.0
 11
0.0
 21
2.25
 31
0.0
  0
LINE
  5
279
330
263
100
AcDbEntity
  8
Titleblock
  6
Continuous
370
    25
100
AcDbLine
 10
-4.9375
 20
1.6875
 30
0.0
 11
0.0
 21
1.6875
 31
0.0
  0
MTEXT
  5
27A
330
263
100
AcDbEntity
  8
Titleblock
100
AcDbMText
 10
-4.875
 20
2.467284
 30
0.0
 40
0.12
 41
0.375
 46
0.0
 71
     1
 72
     5
  1
Project:
 73
     1
 44
1.0
1001
ACAD
1000
ACAD_MTEXT_COLUMN_INFO_BEGIN
1070
    75
1070
     2
1070
    79
1070
     0
1070
    76
1070
     1
1070
    78
1070
     0
1070
    48
1040
0.375
1070
    49
1040
0.6
1070
    50
1070
     1
1040
0.0
1000
ACAD_MTEXT_COLUMN_INFO_END
  0
MTEXT
  5
27B
330
263
100
AcDbEntity
  8
Titleblock
100
AcDbMText
 10
-2.0625
 20
1.045477
 30
0.0
 40
0.075
 41
0.375
 46
0.0
 71
     1
 72
     5
  1
Scale:
 73
     1
 44
1.0
1001
ACAD
1000
ACAD_MTEXT_COLUMN_INFO_BEGIN
1070
    75
1070
     2
1070
    79
1070
     0
1070
    76
1070
     1
1070
    78
1070
     0
1070
    48
1040
0.375
1070
    49
1040
0.6
1070
    50
1070
     1
1040
0.0
1000
ACAD_MTEXT_COLUMN_INFO_END
  0
MTEXT
  5
27C
330
263
100
AcDbEntity
  8
Titleblock
100
AcDbMText
 10
-2.0625
 20
0.857735
 30
0.0
 40
0.075
 41
0.375
 46
0.0
 71
     1
 72
     5
  1
Date Drawn:
 73
     1
 44
1.0
1001
ACAD
1000
ACAD_MTEXT_COLUMN_INFO_BEGIN
1070
    75
1070
     2
1070
    79
1070
     0
1070
    76
1070
     1
1070
    78
1070
     0
1070
    48
1040
0.375
1070
    49
1040
0.6
1070
    50
1070
     1
1040
0.0
1000
ACAD_MTEXT_COLUMN_INFO_END
  0
LINE
  5
27D
330
263
100
AcDbEntity
  8
Titleblock
100
AcDbLine
 10
-2.125
 20
0.875
 30
0.0
 11
0.0
 21
0.875
 31
0.0
  0
LINE
  5
27E
330
263
100
AcDbEntity
  8
Titleblock
100
AcDbLine
 10
-2.125
 20
0.625
 30
0.0
 11
0.0
 21
0.625
 31
0.0
  0
MTEXT
  5
27F
330
263
100
AcDbEntity
  8
Titleblock
100
AcDbMText
 10
-4.875
 20
2.220603
 30
0.0
 40
0.12
 41
0.625
 46
0.0
 71
     1
 72
     5
  1
Title:
 73
     1
 44
1.0
1001
ACAD
1000
ACAD_MTEXT_COLUMN_INFO_BEGIN
1070
    75
1070
     2
1070
    79
1070
     0
1070
    76
1070
     1
1070
    78
1070
     0
1070
    48
1040
0.625
1070
    49
1040
0.6
1070
    50
1070
     1
1040
0.0
1000
ACAD_MTEXT_COLUMN_INFO_END
  0
ENDBLK
  5
280
330
263
100
AcDbEntity
  8
0
100
AcDbBlockEnd
  0
BLOCK
  5
289
330
288
100
AcDbEntity
  8
0
100
AcDbBlockBegin
  2
ANSI_B_SHEET
 70
     0
 10
0.0
 20
0.0
 30
0.0
  3
ANSI_B_SHEET
  1

  0
LINE
  5
28A
330
288
100
AcDbEntity
  8
Border
100
AcDbLine
 10
0.0
 20
0.0
 30
0.0
 11
0.5
 21
0.0
 31
0.0
  0
LINE
  5
28B
330
288
100
AcDbEntity
  8
Border
100
AcDbLine
 10
16.5
 20
0.0
 30
0.0
 11
17.0
 21
0.0
 31
0.0
  0
LINE
  5
28C
330
288
100
AcDbEntity
  8
Border
100
AcDbLine
 10
0.62
 20
0.38
 30
0.0
 11
16.38
 21
0.38
 31
0.0
  0
LINE
  5
28D
330
288
100
AcDbEntity
  8
Border
100
AcDbLine
 10
17.0
 20
0.0
 30
0.0
 11
17.0
 21
0.5
 31
0.0
  0
LINE
  5
28E
330
288
100
AcDbEntity
  8
Border
100
AcDbLine
 10
17.0
 20
10.5
 30
0.0
 11
17.0
 21
11.0
 31
0.0
  0
LINE
  5
28F
330
288
100
AcDbEntity
  8
Border
100
AcDbLine
 10
16.38
 20
0.38
 30
0.0
 11
16.38
 21
10.62
 31
0.0
  0
LINE
  5
290
330
288
100
AcDbEntity
  8
Border
100
AcDbLine
 10
17.0
 20
11.0
 30
0.0
 11
16.5
 21
11.0
 31
0.0
  0
LINE
  5
291
330
288
100
AcDbEntity
  8
Border
100
AcDbLine
 10
0.5
 20
11.0
 30
0.0
 11
0.0
 21
11.0
 31
0.0
  0
LINE
  5
292
330
288
100
AcDbEntity
  8
Border
100
AcDbLine
 10
16.38
 20
10.62
 30
0.0
 11
0.62
 21
10.62
 31
0.0
  0
LINE
  5
293
330
288
100
AcDbEntity
  8
Border
100
AcDbLine
 10
0.0
 20
11.0
 30
0.0
 11
0.0
 21
10.5
 31
0.0
  0
LINE
  5
294
330
288
100
AcDbEntity
  8
Border
100
AcDbLine
 10
0.0
 20
0.5
 30
0.0
 11
0.0
 21
0.0
 31
0.0
  0
LINE
  5
295
330
288
100
AcDbEntity
  8
Border
100
AcDbLine
 10
0.62
 20
10.62
 30
0.0
 11
0.62
 21
0.38
 31
0.0
  0
LINE
  5
296
330
288
100
AcDbEntity
  8
Border
100
AcDbLine
 10
8.413397
 20
0.23
 30
0.0
 11
8.586603
 21
0.23
 31
0.0
  0
LINE
  5
297
330
288
100
AcDbEntity
  8
Border
100
AcDbLine
 10
8.5
 20
0.38
 30
0.0
 11
8.5
 21
0.13
 31
0.0
  0
LINE
  5
298
330
288
100
AcDbEntity
  8
Border
100
AcDbLine
 10
8.5
 20
0.38
 30
0.0
 11
8.413397
 21
0.23
 31
0.0
  0
LINE
  5
299
330
288
100
AcDbEntity
  8
Border
100
AcDbLine
 10
8.5
 20
0.38
 30
0.0
 11
8.586603
 21
0.23
 31
0.0
  0
LINE
  5
29A
330
288
100
AcDbEntity
  8
Border
100
AcDbLine
 10
0.47
 20
5.586603
 30
0.0
 11
0.47
 21
5.413397
 31
0.0
  0
LINE
  5
29B
330
288
100
AcDbEntity
  8
Border
100
AcDbLine
 10
0.62
 20
5.5
 30
0.0
 11
0.37
 21
5.5
 31
0.0
  0
LINE
  5
29C
330
288
100
AcDbEntity
  8
Border
100
AcDbLine
 10
0.62
 20
5.5
 30
0.0
 11
0.47
 21
5.586603
 31
0.0
  0
LINE
  5
29D
330
288
100
AcDbEntity
  8
Border
100
AcDbLine
 10
0.62
 20
5.5
 30
0.0
 11
0.47
 21
5.413397
 31
0.0
  0
LINE
  5
29E
330
288
100
AcDbEntity
  8
Border
100
AcDbLine
 10
16.53
 20
5.586603
 30
0.0
 11
16.53
 21
5.413397
 31
0.0
  0
LINE
  5
29F
330
288
100
AcDbEntity
  8
Border
100
AcDbLine
 10
16.38
 20
5.5
 30
0.0
 11
16.63
 21
5.5
 31
0.0
  0
LINE
  5
2A0
330
288
100
AcDbEntity
  8
Border
100
AcDbLine
 10
16.38
 20
5.5
 30
0.0
 11
16.53
 21
5.586603
 31
0.0
  0
LINE
  5
2A1
330
288
100
AcDbEntity
  8
Border
100
AcDbLine
 10
16.38
 20
5.5
 30
0.0
 11
16.53
 21
5.413397
 31
0.0
  0
LINE
  5
2A2
330
288
100
AcDbEntity
  8
Border
100
AcDbLine
 10
8.413397
 20
10.77
 30
0.0
 11
8.586603
 21
10.77
 31
0.0
  0
LINE
  5
2A3
330
288
100
AcDbEntity
  8
Border
100
AcDbLine
 10
8.5
 20
10.62
 30
0.0
 11
8.5
 21
10.87
 31
0.0
  0
LINE
  5
2A4
330
288
100
AcDbEntity
  8
Border
100
AcDbLine
 10
8.5
 20
10.62
 30
0.0
 11
8.413397
 21
10.77
 31
0.0
  0
LINE
  5
2A5
330
288
100
AcDbEntity
  8
Border
100
AcDbLine
 10
8.5
 20
10.62
 30
0.0
 11
8.586603
 21
10.77
 31
0.0
  0
ENDBLK
  5
2A6
330
288
100
AcDbEntity
  8
0
100
AcDbBlockEnd
  0
BLOCK
  5
2AA
330
2A9
100
AcDbEntity
  8
0
100
AcDbBlockBegin
  2
*D6
 70
     1
 10
0.0
 20
0.0
 30
0.0
  3
*D6
  1

  0
LINE
  5
2AB
330
2A9
100
AcDbEntity
  8
Dimensions
440
 16777216
370
    -2
100
AcDbLine
 10
9.626687
 20
6.944067
 30
0.0
 11
9.626687
 21
7.728791
 31
0.0
  0
LINE
  5
2AC
330
2A9
100
AcDbEntity
  8
Dimensions
440
 16777216
370
    -2
100
AcDbLine
 10
7.126687
 20
6.944067
 30
0.0
 11
7.126687
 21
7.728791
 31
0.0
  0
LINE
  5
2AD
330
2A9
100
AcDbEntity
  8
Dimensions
440
 16777216
370
    -2
100
AcDbLine
 10
9.506687
 20
7.628791
 30
0.0
 11
8.584068
 21
7.628791
 31
0.0
  0
LINE
  5
2AE
330
2A9
100
AcDbEntity
  8
Dimensions
440
 16777216
370
    -2
100
AcDbLine
 10
7.246687
 20
7.628791
 30
0.0
 11
8.169307
 21
7.628791
 31
0.0
  0
SOLID
  5
2AF
330
2A9
100
AcDbEntity
  8
Dimensions
440
 16777216
100
AcDbTrace
 10
9.506687
 20
7.648791
 30
0.0
 11
9.506687
 21
7.608791
 31
0.0
 12
9.626687
 22
7.628791
 32
0.0
 13
9.626687
 23
7.628791
 33
0.0
  0
SOLID
  5
2B0
330
2A9
100
AcDbEntity
  8
Dimensions
440
 16777216
100
AcDbTrace
 10
7.246687
 20
7.648791
 30
0.0
 11
7.246687
 21
7.608791
 31
0.0
 12
7.126687
 22
7.628791
 32
0.0
 13
7.126687
 23
7.628791
 33
0.0
  0
MTEXT
  5
2B1
330
2A9
100
AcDbEntity
  8
Dimensions
440
 16777216
100
AcDbMText
 10
8.376687
 20
7.628791
 30
0.0
 40
0.12
 41
0.0
 46
0.0
 71
     5
 72
     1
  1
\A1;2{\H1x;\S1/2;}in
 73
     1
 44
1.0
  0
POINT
  5
2B2
330
2A9
100
AcDbEntity
  8
Defpoints
 62
     0
440
 16777216
100
AcDbPoint
 10
9.626687
 20
6.894067
 30
0.0
  0
POINT
  5
2B3
330
2A9
100
AcDbEntity
  8
Defpoints
 62
     0
440
 16777216
100
AcDbPoint
 10
7.126687
 20
6.894067
 30
0.0
  0
POINT
  5
2B4
330
2A9
100
AcDbEntity
  8
Defpoints
 62
     0
440
 16777216
100
AcDbPoint
 10
7.126687
 20
7.628791
 30
0.0
  0
ENDBLK
  5
2B5
330
2A9
100
AcDbEntity
  8
0
100
AcDbBlockEnd
  0
BLOCK
  5
2B8
330
2B7
100
AcDbEntity
  8
0
100
AcDbBlockBegin
  2
*D7
 70
     1
 10
0.0
 20
0.0
 30
0.0
  3
*D7
  1

  0
LINE
  5
2B9
330
2B7
100
AcDbEntity
  8
Dimensions
440
 16777216
370
    -2
100
AcDbLine
 10
7.201687
 20
7.019067
 30
0.0
 11
5.602305
 21
7.019067
 31
0.0
  0
LINE
  5
2BA
330
2B7
100
AcDbEntity
  8
Dimensions
440
 16777216
370
    -2
100
AcDbLine
 10
7.076687
 20
2.904067
 30
0.0
 11
5.602305
 21
2.904067
 31
0.0
  0
LINE
  5
2BB
330
2B7
100
AcDbEntity
  8
Dimensions
440
 16777216
370
    -2
100
AcDbLine
 10
5.702305
 20
6.899067
 30
0.0
 11
5.702305
 21
5.163081
 31
0.0
  0
LINE
  5
2BC
330
2B7
100
AcDbEntity
  8
Dimensions
440
 16777216
370
    -2
100
AcDbLine
 10
5.702305
 20
3.024067
 30
0.0
 11
5.702305
 21
4.760052
 31
0.0
  0
SOLID
  5
2BD
330
2B7
100
AcDbEntity
  8
Dimensions
440
 16777216
100
AcDbTrace
 10
5.682305
 20
6.899067
 30
0.0
 11
5.722305
 21
6.899067
 31
0.0
 12
5.702305
 22
7.019067
 32
0.0
 13
5.702305
 23
7.019067
 33
0.0
  0
SOLID
  5
2BE
330
2B7
100
AcDbEntity
  8
Dimensions
440
 16777216
100
AcDbTrace
 10
5.682305
 20
3.024067
 30
0.0
 11
5.722305
 21
3.024067
 31
0.0
 12
5.702305
 22
2.904067
 32
0.0
 13
5.702305
 23
2.904067
 33
0.0
  0
MTEXT
  5
2BF
330
2B7
100
AcDbEntity
  8
Dimensions
440
 16777216
100
AcDbMText
 10
5.702305
 20
4.961567
 30
0.0
 40
0.12
 41
0.0
 46
0.0
 71
     5
 72
     1
  1
\A1;4{\H1x;\S1/8;}in
 73
     1
 44
1.0
  0
POINT
  5
2C0
330
2B7
100
AcDbEntity
  8
Defpoints
 62
     0
440
 16777216
100
AcDbPoint
 10
7.251687
 20
7.019067
 30
0.0
  0
POINT
  5
2C1
330
2B7
100
AcDbEntity
  8
Defpoints
 62
     0
440
 16777216
100
AcDbPoint
 10
7.126687
 20
2.904067
 30
0.0
  0
POINT
  5
2C2
330
2B7
100
AcDbEntity
  8
Defpoints
 62
     0
440
 16777216
100
AcDbPoint
 10
5.702305
 20
2.904067
 30
0.0
  0
ENDBLK
  5
2C3
330
2B7
100
AcDbEntity
  8
0
100
AcDbBlockEnd
  0
BLOCK
  5
2C6
330
2C5
100
AcDbEntity
  8
0
100
AcDbBlockBegin
  2
*D8
 70
     1
 10
0.0
 20
0.0
 30
0.0
  3
*D8
  1

  0
LINE
  5
2C7
330
2C5
100
AcDbEntity
  8
Dimensions
440
 16777216
370
    -2
100
AcDbLine
 10
2.4999
 20
9.008873
 30
0.0
 11
2.498442
 21
9.737694
 31
0.0
  0
LINE
  5
2C8
330
2C5
100
AcDbEntity
  8
Dimensions
440
 16777216
370
    -2
100
AcDbLine
 10
14.4999
 20
9.032875
 30
0.0
 11
14.498442
 21
9.761696
 31
0.0
  0
LINE
  5
2C9
330
2C5
100
AcDbEntity
  8
Dimensions
440
 16777216
370
    -2
100
AcDbLine
 10
2.618642
 20
9.637934
 30
0.0
 11
8.248451
 21
9.649195
 31
0.0
  0
LINE
  5
2CA
330
2C5
100
AcDbEntity
  8
Dimensions
440
 16777216
370
    -2
100
AcDbLine
 10
14.378642
 20
9.661456
 30
0.0
 11
8.748833
 21
9.650196
 31
0.0
  0
SOLID
  5
2CB
330
2C5
100
AcDbEntity
  8
Dimensions
440
 16777216
100
AcDbTrace
 10
2.618602
 20
9.657934
 30
0.0
 11
2.618682
 21
9.617934
 31
0.0
 12
2.498642
 22
9.637694
 32
0.0
 13
2.498642
 23
9.637694
 33
0.0
  0
SOLID
  5
2CC
330
2C5
100
AcDbEntity
  8
Dimensions
440
 16777216
100
AcDbTrace
 10
14.378602
 20
9.681456
 30
0.0
 11
14.378682
 21
9.641457
 31
0.0
 12
14.498642
 22
9.661697
 32
0.0
 13
14.498642
 23
9.661697
 33
0.0
  0
MTEXT
  5
2CD
330
2C5
100
AcDbEntity
  8
Dimensions
440
 16777216
100
AcDbMText
 10
8.498642
 20
9.649695
 30
0.0
 40
0.12
 41
0.0
 46
0.0
 71
     5
 72
     1
  1
\A1;120in
 73
     1
 44
1.0
  0
POINT
  5
2CE
330
2C5
100
AcDbEntity
  8
Defpoints
 62
     0
440
 16777216
100
AcDbPoint
 10
2.5
 20
8.958873
 30
0.0
  0
POINT
  5
2CF
330
2C5
100
AcDbEntity
  8
Defpoints
 62
     0
440
 16777216
100
AcDbPoint
 10
14.5
 20
8.982875
 30
0.0
  0
POINT
  5
2D0
330
2C5
100
AcDbEntity
  8
Defpoints
 62
     0
440
 16777216
100
AcDbPoint
 10
14.498642
 20
9.661697
 30
0.0
  0
ENDBLK
  5
2D1
330
2C5
100
AcDbEntity
  8
0
100
AcDbBlockEnd
  0
BLOCK
  5
2D4
330
2D3
100
AcDbEntity
  8
0
100
AcDbBlockBegin
  2
*D9
 70
     1
 10
0.0
 20
0.0
 30
0.0
  3
*D9
  1

  0
LINE
  5
2D5
330
2D3
100
AcDbEntity
  8
Dimensions
440
 16777216
370
    -2
100
AcDbLine
 10
3.1
 20
8.907875
 30
0.0
 11
3.1
 21
9.290362
 31
0.0
  0
LINE
  5
2D6
330
2D3
100
AcDbEntity
  8
Dimensions
440
 16777216
370
    -2
100
AcDbLine
 10
2.5
 20
9.032875
 30
0.0
 11
2.5
 21
9.290362
 31
0.0
  0
LINE
  5
2D7
330
2D3
100
AcDbEntity
  8
Dimensions
440
 16777216
370
    -2
100
AcDbLine
 10
2.98
 20
9.190362
 30
0.0
 11
2.957124
 21
9.190362
 31
0.0
  0
LINE
  5
2D8
330
2D3
100
AcDbEntity
  8
Dimensions
440
 16777216
370
    -2
100
AcDbLine
 10
2.62
 20
9.190362
 30
0.0
 11
2.631257
 21
9.190362
 31
0.0
  0
SOLID
  5
2D9
330
2D3
100
AcDbEntity
  8
Dimensions
440
 16777216
100
AcDbTrace
 10
2.98
 20
9.210362
 30
0.0
 11
2.98
 21
9.170362
 31
0.0
 12
3.1
 22
9.190362
 32
0.0
 13
3.1
 23
9.190362
 33
0.0
  0
SOLID
  5
2DA
330
2D3
100
AcDbEntity
  8
Dimensions
440
 16777216
100
AcDbTrace
 10
2.62
 20
9.210362
 30
0.0
 11
2.62
 21
9.170362
 31
0.0
 12
2.5
 22
9.190362
 32
0.0
 13
2.5
 23
9.190362
 33
0.0
  0
MTEXT
  5
2DB
330
2D3
100
AcDbEntity
  8
Dimensions
440
 16777216
100
AcDbMText
 10
2.79419
 20
9.190362
 30
0.0
 40
0.12
 41
0.0
 46
0.0
 71
     5
 72
     1
  1
\A1;6in
 73
     1
 44
1.0
  0
POINT
  5
2DC
330
2D3
100
AcDbEntity
  8
Defpoints
 62
     0
440
 16777216
100
AcDbPoint
 10
3.1
 20
8.857875
 30
0.0
  0
POINT
  5
2DD
330
2D3
100
AcDbEntity
  8
Defpoints
 62
     0
440
 16777216
100
AcDbPoint
 10
2.5
 20
8.982875
 30
0.0
  0
POINT
  5
2DE
330
2D3
100
AcDbEntity
  8
Defpoints
 62
     0
440
 16777216
100
AcDbPoint
 10
2.5
 20
9.190362
 30
0.0
  0
ENDBLK
  5
2DF
330
2D3
100
AcDbEntity
  8
0
100
AcDbBlockEnd
  0
BLOCK
  5
2E2
330
2E1
100
AcDbEntity
  8
0
100
AcDbBlockBegin
  2
*D10
 70
     1
 10
0.0
 20
0.0
 30
0.0
  3
*D10
  1

  0
LINE
  5
2E3
330
2E1
100
AcDbEntity
  8
Dimensions
440
 16777216
370
    -2
100
AcDbLine
 10
4.3
 20
8.907875
 30
0.0
 11
4.3
 21
9.487885
 31
0.0
  0
LINE
  5
2E4
330
2E1
100
AcDbEntity
  8
Dimensions
440
 16777216
370
    -2
100
AcDbLine
 10
3.1
 20
8.907875
 30
0.0
 11
3.1
 21
9.487885
 31
0.0
  0
LINE
  5
2E5
330
2E1
100
AcDbEntity
  8
Dimensions
440
 16777216
370
    -2
100
AcDbLine
 10
4.18
 20
9.387885
 30
0.0
 11
3.903574
 21
9.387885
 31
0.0
  0
LINE
  5
2E6
330
2E1
100
AcDbEntity
  8
Dimensions
440
 16777216
370
    -2
100
AcDbLine
 10
3.22
 20
9.387885
 30
0.0
 11
3.496426
 21
9.387885
 31
0.0
  0
SOLID
  5
2E7
330
2E1
100
AcDbEntity
  8
Dimensions
440
 16777216
100
AcDbTrace
 10
4.18
 20
9.407885
 30
0.0
 11
4.18
 21
9.367885
 31
0.0
 12
4.3
 22
9.387885
 32
0.0
 13
4.3
 23
9.387885
 33
0.0
  0
SOLID
  5
2E8
330
2E1
100
AcDbEntity
  8
Dimensions
440
 16777216
100
AcDbTrace
 10
3.22
 20
9.407885
 30
0.0
 11
3.22
 21
9.367885
 31
0.0
 12
3.1
 22
9.387885
 32
0.0
 13
3.1
 23
9.387885
 33
0.0
  0
MTEXT
  5
2E9
330
2E1
100
AcDbEntity
  8
Dimensions
440
 16777216
100
AcDbMText
 10
3.7
 20
9.387885
 30
0.0
 40
0.12
 41
0.0
 46
0.0
 71
     5
 72
     1
  1
\A1;12in
 73
     1
 44
1.0
  0
POINT
  5
2EA
330
2E1
100
AcDbEntity
  8
Defpoints
 62
     0
440
 16777216
100
AcDbPoint
 10
4.3
 20
8.857875
 30
0.0
  0
POINT
  5
2EB
330
2E1
100
AcDbEntity
  8
Defpoints
 62
     0
440
 16777216
100
AcDbPoint
 10
3.1
 20
8.857875
 30
0.0
  0
POINT
  5
2EC
330
2E1
100
AcDbEntity
  8
Defpoints
 62
     0
440
 16777216
100
AcDbPoint
 10
3.1
 20
9.387885
 30
0.0
  0
ENDBLK
  5
2ED
330
2E1
100
AcDbEntity
  8
0
100
AcDbBlockEnd
  0
BLOCK
  5
2F0
330
2EF
100
AcDbEntity
  8
0
100
AcDbBlockBegin
  2
*D11
 70
     1
 10
0.0
 20
0.0
 30
0.0
  3
*D11
  1

  0
LINE
  5
2F1
330
2EF
100
AcDbEntity
  8
Dimensions
440
 16777216
370
    -2
100
AcDbLine
 10
13.9
 20
8.907875
 30
0.0
 11
13.9
 21
9.478387
 31
0.0
  0
LINE
  5
2F2
330
2EF
100
AcDbEntity
  8
Dimensions
440
 16777216
370
    -2
100
AcDbLine
 10
12.7
 20
8.907875
 30
0.0
 11
12.7
 21
9.478387
 31
0.0
  0
LINE
  5
2F3
330
2EF
100
AcDbEntity
  8
Dimensions
440
 16777216
370
    -2
100
AcDbLine
 10
13.78
 20
9.378387
 30
0.0
 11
13.503574
 21
9.378387
 31
0.0
  0
LINE
  5
2F4
330
2EF
100
AcDbEntity
  8
Dimensions
440
 16777216
370
    -2
100
AcDbLine
 10
12.82
 20
9.378387
 30
0.0
 11
13.096426
 21
9.378387
 31
0.0
  0
SOLID
  5
2F5
330
2EF
100
AcDbEntity
  8
Dimensions
440
 16777216
100
AcDbTrace
 10
13.78
 20
9.398387
 30
0.0
 11
13.78
 21
9.358387
 31
0.0
 12
13.9
 22
9.378387
 32
0.0
 13
13.9
 23
9.378387
 33
0.0
  0
SOLID
  5
2F6
330
2EF
100
AcDbEntity
  8
Dimensions
440
 16777216
100
AcDbTrace
 10
12.82
 20
9.398387
 30
0.0
 11
12.82
 21
9.358387
 31
0.0
 12
12.7
 22
9.378387
 32
0.0
 13
12.7
 23
9.378387
 33
0.0
  0
MTEXT
  5
2F7
330
2EF
100
AcDbEntity
  8
Dimensions
440
 16777216
100
AcDbMText
 10
13.3
 20
9.378387
 30
0.0
 40
0.12
 41
0.0
 46
0.0
 71
     5
 72
     1
  1
\A1;12in
 73
     1
 44
1.0
  0
POINT
  5
2F8
330
2EF
100
AcDbEntity
  8
Defpoints
 62
     0
440
 16777216
100
AcDbPoint
 10
13.9
 20
8.857875
 30
0.0
  0
POINT
  5
2F9
330
2EF
100
AcDbEntity
  8
Defpoints
 62
     0
440
 16777216
100
AcDbPoint
 10
12.7
 20
8.857875
 30
0.0
  0
POINT
  5
2FA
330
2EF
100
AcDbEntity
  8
Defpoints
 62
     0
440
 16777216
100
AcDbPoint
 10
12.7
 20
9.378387
 30
0.0
  0
ENDBLK
  5
2FB
330
2EF
100
AcDbEntity
  8
0
100
AcDbBlockEnd
  0
BLOCK
  5
2FE
330
2FD
100
AcDbEntity
  8
0
100
AcDbBlockBegin
  2
*D12
 70
     1
 10
0.0
 20
0.0
 30
0.0
  3
*D12
  1

  0
LINE
  5
2FF
330
2FD
100
AcDbEntity
  8
Dimensions
440
 16777216
370
    -2
100
AcDbLine
 10
13.9
 20
8.907875
 30
0.0
 11
13.9
 21
9.255084
 31
0.0
  0
LINE
  5
300
330
2FD
100
AcDbEntity
  8
Dimensions
440
 16777216
370
    -2
100
AcDbLine
 10
14.5
 20
9.020375
 30
0.0
 11
14.5
 21
9.255084
 31
0.0
  0
LINE
  5
301
330
2FD
100
AcDbEntity
  8
Dimensions
440
 16777216
370
    -2
100
AcDbLine
 10
14.02
 20
9.155084
 30
0.0
 11
14.038496
 21
9.155084
 31
0.0
  0
LINE
  5
302
330
2FD
100
AcDbEntity
  8
Dimensions
440
 16777216
370
    -2
100
AcDbLine
 10
14.38
 20
9.155084
 30
0.0
 11
14.364362
 21
9.155084
 31
0.0
  0
SOLID
  5
303
330
2FD
100
AcDbEntity
  8
Dimensions
440
 16777216
100
AcDbTrace
 10
14.02
 20
9.175084
 30
0.0
 11
14.02
 21
9.135084
 31
0.0
 12
13.9
 22
9.155084
 32
0.0
 13
13.9
 23
9.155084
 33
0.0
  0
SOLID
  5
304
330
2FD
100
AcDbEntity
  8
Dimensions
440
 16777216
100
AcDbTrace
 10
14.38
 20
9.175084
 30
0.0
 11
14.38
 21
9.135084
 31
0.0
 12
14.5
 22
9.155084
 32
0.0
 13
14.5
 23
9.155084
 33
0.0
  0
MTEXT
  5
305
330
2FD
100
AcDbEntity
  8
Dimensions
440
 16777216
100
AcDbMText
 10
14.201429
 20
9.155084
 30
0.0
 40
0.12
 41
0.0
 46
0.0
 71
     5
 72
     1
  1
\A1;6in
 73
     1
 44
1.0
  0
POINT
  5
306
330
2FD
100
AcDbEntity
  8
Defpoints
 62
     0
440
 16777216
100
AcDbPoint
 10
13.9
 20
8.857875
 30
0.0
  0
POINT
  5
307
330
2FD
100
AcDbEntity
  8
Defpoints
 62
     0
440
 16777216
100
AcDbPoint
 10
14.5
 20
8.970375
 30
0.0
  0
POINT
  5
308
330
2FD
100
AcDbEntity
  8
Defpoints
 62
     0
440
 16777216
100
AcDbPoint
 10
14.5
 20
9.155084
 30
0.0
  0
ENDBLK
  5
309
330
2FD
100
AcDbEntity
  8
0
100
AcDbBlockEnd
  0
BLOCK
  5
314
330
313
100
AcDbEntity
  8
0
100
AcDbBlockBegin
  2
*D13
 70
     1
 10
0.0
 20
0.0
 30
0.0
  3
*D13
  1

  0
LINE
  5
315
330
313
100
AcDbEntity
  8
Dimensions
440
 16777216
370
    -2
100
AcDbLine
 10
2.789328
 20
6.190446
 30
0.0
 11
2.909328
 21
6.190446
 31
0.0
  0
LINE
  5
316
330
313
100
AcDbEntity
  8
Dimensions
440
 16777216
370
    -2
100
AcDbLine
 10
2.909328
 20
6.190446
 30
0.0
 11
3.137664
 21
5.952346
 31
0.0
  0
MTEXT
  5
317
330
313
100
AcDbEntity
  8
Dimensions
440
 16777216
100
AcDbMText
 10
2.564512
 20
6.190446
 30
0.0
 40
0.12
 41
0.0
 46
0.0
 71
     5
 72
     1
  1
\A1;∅{\H1x;\S7/8;}in
 73
     1
 44
1.0
  0
SOLID
  5
318
330
313
100
AcDbEntity
  8
Dimensions
440
 16777216
100
AcDbTrace
 10
3.152099
 20
5.966189
 30
0.0
 11
3.123229
 21
5.938503
 31
0.0
 12
3.220723
 22
5.865736
 32
0.0
 13
3.220723
 23
5.865736
 33
0.0
  0
POINT
  5
319
330
313
100
AcDbEntity
  8
Defpoints
 62
     0
440
 16777216
100
AcDbPoint
 10
3.220723
 20
5.865736
 30
0.0
  0
POINT
  5
31A
330
313
100
AcDbEntity
  8
Defpoints
 62
     0
440
 16777216
100
AcDbPoint
 10
3.826357
 20
5.234205
 30
0.0
  0
ENDBLK
  5
31B
330
313
100
AcDbEntity
  8
0
100
AcDbBlockEnd
  0
BLOCK
  5
31E
330
31D
100
AcDbEntity
  8
0
100
AcDbBlockBegin
  2
*D14
 70
     1
 10
0.0
 20
0.0
 30
0.0
  3
*D14
  1

  0
LINE
  5
31F
330
31D
100
AcDbEntity
  8
Dimensions
440
 16777216
370
    -2
100
AcDbLine
 10
2.839731
 20
5.744243
 30
0.0
 11
2.959731
 21
5.744243
 31
0.0
  0
LINE
  5
320
330
31D
100
AcDbEntity
  8
Dimensions
440
 16777216
370
    -2
100
AcDbLine
 10
2.959731
 20
5.744243
 30
0.0
 11
3.17467
 21
5.670181
 31
0.0
  0
MTEXT
  5
321
330
31D
100
AcDbEntity
  8
Dimensions
440
 16777216
100
AcDbMText
 10
2.614711
 20
5.744243
 30
0.0
 40
0.12
 41
0.0
 46
0.0
 71
     5
 72
     1
  1
\A1;∅{\H1x;\S1/2;}in
 73
     1
 44
1.0
  0
SOLID
  5
322
330
31D
100
AcDbEntity
  8
Dimensions
440
 16777216
100
AcDbTrace
 10
3.181185
 20
5.68909
 30
0.0
 11
3.168154
 21
5.651272
 31
0.0
 12
3.288123
 22
5.631088
 32
0.0
 13
3.288123
 23
5.631088
 33
0.0
  0
POINT
  5
323
330
31D
100
AcDbEntity
  8
Defpoints
 62
     0
440
 16777216
100
AcDbPoint
 10
3.288123
 20
5.631088
 30
0.0
  0
POINT
  5
324
330
31D
100
AcDbEntity
  8
Defpoints
 62
     0
440
 16777216
100
AcDbPoint
 10
3.758956
 20
5.468853
 30
0.0
  0
ENDBLK
  5
325
330
31D
100
AcDbEntity
  8
0
100
AcDbBlockEnd
  0
BLOCK
  5
328
330
327
100
AcDbEntity
  8
0
100
AcDbBlockBegin
  2
*D15
 70
     1
 10
0.0
 20
0.0
 30
0.0
  3
*D15
  1

  0
LINE
  5
329
330
327
100
AcDbEntity
  8
Dimensions
440
 16777216
370
    -2
100
AcDbLine
 10
7.939187
 20
3.719869
 30
0.0
 11
7.939187
 21
5.384099
 31
0.0
  0
LINE
  5
32A
330
327
100
AcDbEntity
  8
Dimensions
440
 16777216
370
    -2
100
AcDbLine
 10
8.814187
 20
3.719869
 30
0.0
 11
8.814187
 21
5.384099
 31
0.0
  0
LINE
  5
32B
330
327
100
AcDbEntity
  8
Dimensions
440
 16777216
370
    -2
100
AcDbLine
 10
8.059187
 20
5.284099
 30
0.0
 11
8.213672
 21
5.284099
 31
0.0
  0
LINE
  5
32C
330
327
100
AcDbEntity
  8
Dimensions
440
 16777216
370
    -2
100
AcDbLine
 10
8.694187
 20
5.284099
 30
0.0
 11
8.539702
 21
5.284099
 31
0.0
  0
SOLID
  5
32D
330
327
100
AcDbEntity
  8
Dimensions
440
 16777216
100
AcDbTrace
 10
8.059187
 20
5.304099
 30
0.0
 11
8.059187
 21
5.264099
 31
0.0
 12
7.939187
 22
5.284099
 32
0.0
 13
7.939187
 23
5.284099
 33
0.0
  0
SOLID
  5
32E
330
327
100
AcDbEntity
  8
Dimensions
440
 16777216
100
AcDbTrace
 10
8.694187
 20
5.304099
 30
0.0
 11
8.694187
 21
5.264099
 31
0.0
 12
8.814187
 22
5.284099
 32
0.0
 13
8.814187
 23
5.284099
 33
0.0
  0
MTEXT
  5
32F
330
327
100
AcDbEntity
  8
Dimensions
440
 16777216
100
AcDbMText
 10
8.376687
 20
5.284099
 30
0.0
 40
0.12
 41
0.0
 46
0.0
 71
     5
 72
     1
  1
\A1;{\H1x;\S7/8;}in
 73
     1
 44
1.0
  0
POINT
  5
330
330
327
100
AcDbEntity
  8
Defpoints
 62
     0
440
 16777216
100
AcDbPoint
 10
7.939187
 20
3.669869
 30
0.0
  0
POINT
  5
331
330
327
100
AcDbEntity
  8
Defpoints
 62
     0
440
 16777216
100
AcDbPoint
 10
8.814187
 20
3.669869
 30
0.0
  0
POINT
  5
332
330
327
100
AcDbEntity
  8
Defpoints
 62
     0
440
 16777216
100
AcDbPoint
 10
8.814187
 20
5.284099
 30
0.0
  0
ENDBLK
  5
333
330
327
100
AcDbEntity
  8
0
100
AcDbBlockEnd
  0
BLOCK
  5
336
330
335
100
AcDbEntity
  8
0
100
AcDbBlockBegin
  2
*D16
 70
     1
 10
0.0
 20
0.0
 30
0.0
  3
*D16
  1

  0
LINE
  5
337
330
335
100
AcDbEntity
  8
Dimensions
440
 16777216
370
    -2
100
AcDbLine
 10
8.127687
 20
3.256567
 30
0.0
 11
8.127687
 21
4.460839
 31
0.0
  0
LINE
  5
338
330
335
100
AcDbEntity
  8
Dimensions
440
 16777216
370
    -2
100
AcDbLine
 10
8.625687
 20
3.256567
 30
0.0
 11
8.625687
 21
4.460839
 31
0.0
  0
LINE
  5
339
330
335
100
AcDbEntity
  8
Dimensions
440
 16777216
370
    -2
100
AcDbLine
 10
8.007687
 20
4.360839
 30
0.0
 11
7.887687
 21
4.360839
 31
0.0
  0
LINE
  5
33A
330
335
100
AcDbEntity
  8
Dimensions
440
 16777216
370
    -2
100
AcDbLine
 10
8.745687
 20
4.360839
 30
0.0
 11
8.865687
 21
4.360839
 31
0.0
  0
SOLID
  5
33B
330
335
100
AcDbEntity
  8
Dimensions
440
 16777216
100
AcDbTrace
 10
8.007687
 20
4.380839
 30
0.0
 11
8.007687
 21
4.340839
 31
0.0
 12
8.127687
 22
4.360839
 32
0.0
 13
8.127687
 23
4.360839
 33
0.0
  0
SOLID
  5
33C
330
335
100
AcDbEntity
  8
Dimensions
440
 16777216
100
AcDbTrace
 10
8.745687
 20
4.380839
 30
0.0
 11
8.745687
 21
4.340839
 31
0.0
 12
8.625687
 22
4.360839
 32
0.0
 13
8.625687
 23
4.360839
 33
0.0
  0
MTEXT
  5
33D
330
335
100
AcDbEntity
  8
Dimensions
440
 16777216
100
AcDbMText
 10
8.3924
 20
4.360839
 30
0.0
 40
0.12
 41
0.0
 46
0.0
 71
     5
 72
     1
  1
\A1;{\H1x;\S1/2;}in
 73
     1
 44
1.0
  0
POINT
  5
33E
330
335
100
AcDbEntity
  8
Defpoints
 62
     0
440
 16777216
100
AcDbPoint
 10
8.127687
 20
3.206567
 30
0.0
  0
POINT
  5
33F
330
335
100
AcDbEntity
  8
Defpoints
 62
     0
440
 16777216
100
AcDbPoint
 10
8.625687
 20
3.206567
 30
0.0
  0
POINT
  5
340
330
335
100
AcDbEntity
  8
Defpoints
 62
     0
440
 16777216
100
AcDbPoint
 10
8.625687
 20
4.360839
 30
0.0
  0
ENDBLK
  5
341
330
335
100
AcDbEntity
  8
0
100
AcDbBlockEnd
  0
BLOCK
  5
346
330
345
100
AcDbEntity
  8
0
100
AcDbBlockBegin
  2
*D17
 70
     1
 10
0.0
 20
0.0
 30
0.0
  3
*D17
  1

  0
LINE
  5
347
330
345
100
AcDbEntity
  8
Dimensions
440
 16777216
370
    -2
100
AcDbLine
 10
7.536687
 20
6.509067
 30
0.0
 11
7.536687
 21
6.908989
 31
0.0
  0
LINE
  5
348
330
345
100
AcDbEntity
  8
Dimensions
440
 16777216
370
    -2
100
AcDbLine
 10
9.216687
 20
6.509067
 30
0.0
 11
9.216687
 21
6.908989
 31
0.0
  0
LINE
  5
349
330
345
100
AcDbEntity
  8
Dimensions
440
 16777216
370
    -2
100
AcDbLine
 10
7.656687
 20
6.808989
 30
0.0
 11
8.135459
 21
6.808989
 31
0.0
  0
LINE
  5
34A
330
345
100
AcDbEntity
  8
Dimensions
440
 16777216
370
    -2
100
AcDbLine
 10
9.096687
 20
6.808989
 30
0.0
 11
8.617915
 21
6.808989
 31
0.0
  0
SOLID
  5
34B
330
345
100
AcDbEntity
  8
Dimensions
440
 16777216
100
AcDbTrace
 10
7.656687
 20
6.828989
 30
0.0
 11
7.656687
 21
6.788989
 31
0.0
 12
7.536687
 22
6.808989
 32
0.0
 13
7.536687
 23
6.808989
 33
0.0
  0
SOLID
  5
34C
330
345
100
AcDbEntity
  8
Dimensions
440
 16777216
100
AcDbTrace
 10
9.096687
 20
6.828989
 30
0.0
 11
9.096687
 21
6.788989
 31
0.0
 12
9.216687
 22
6.808989
 32
0.0
 13
9.216687
 23
6.808989
 33
0.0
  0
MTEXT
  5
34D
330
345
100
AcDbEntity
  8
Dimensions
440
 16777216
100
AcDbMText
 10
8.376687
 20
6.808989
 30
0.0
 40
0.12
 41
0.0
 46
0.0
 71
     5
 72
     1
  1
\A1;1{\H1x;\S11/16;}in
 73
     1
 44
1.0
  0
POINT
  5
34E
330
345
100
AcDbEntity
  8
Defpoints
 62
     0
440
 16777216
100
AcDbPoint
 10
7.536687
 20
6.459067
 30
0.0
  0
POINT
  5
34F
330
345
100
AcDbEntity
  8
Defpoints
 62
     0
440
 16777216
100
AcDbPoint
 10
9.216687
 20
6.459067
 30
0.0
  0
POINT
  5
350
330
345
100
AcDbEntity
  8
Defpoints
 62
     0
440
 16777216
100
AcDbPoint
 10
9.216687
 20
6.808989
 30
0.0
  0
ENDBLK
  5
351
330
345
100
AcDbEntity
  8
0
100
AcDbBlockEnd
  0
BLOCK
  5
354
330
353
100
AcDbEntity
  8
0
100
AcDbBlockBegin
  2
*D18
 70
     1
 10
0.0
 20
0.0
 30
0.0
  3
*D18
  1

  0
LINE
  5
355
330
353
100
AcDbEntity
  8
Dimensions
 62
     0
440
 16777216
370
    -2
100
AcDbLine
 10
7.086687
 20
2.894067
 30
0.0
 11
6.802898
 21
2.894067
 31
0.0
  0
LINE
  5
356
330
353
100
AcDbEntity
  8
Dimensions
 62
     0
440
 16777216
370
    -2
100
AcDbLine
 10
7.924187
 20
3.206567
 30
0.0
 11
6.802898
 21
3.206567
 31
0.0
  0
LINE
  5
357
330
353
100
AcDbEntity
  8
Dimensions
 62
     0
440
 16777216
370
    -2
100
AcDbLine
 10
6.902898
 20
2.774067
 30
0.0
 11
6.902898
 21
2.654067
 31
0.0
  0
LINE
  5
358
330
353
100
AcDbEntity
  8
Dimensions
 62
     0
440
 16777216
370
    -2
100
AcDbLine
 10
6.902898
 20
3.326567
 30
0.0
 11
6.902898
 21
3.446567
 31
0.0
  0
SOLID
  5
359
330
353
100
AcDbEntity
  8
Dimensions
 62
     0
440
 16777216
100
AcDbTrace
 10
6.882898
 20
2.774067
 30
0.0
 11
6.922898
 21
2.774067
 31
0.0
 12
6.902898
 22
2.894067
 32
0.0
 13
6.902898
 23
2.894067
 33
0.0
  0
SOLID
  5
35A
330
353
100
AcDbEntity
  8
Dimensions
 62
     0
440
 16777216
100
AcDbTrace
 10
6.882898
 20
3.326567
 30
0.0
 11
6.922898
 21
3.326567
 31
0.0
 12
6.902898
 22
3.206567
 32
0.0
 13
6.902898
 23
3.206567
 33
0.0
  0
MTEXT
  5
35B
330
353
100
AcDbEntity
  8
Dimensions
440
 16777216
100
AcDbMText
 10
6.902898
 20
3.050317
 30
0.0
 40
0.12
 41
0.0
 46
0.0
 71
     5
 72
     1
  1
\A1;{\H1x;\S3/8;}in
 73
     1
 44
1.0
  0
POINT
  5
35C
330
353
100
AcDbEntity
  8
Defpoints
 62
     0
440
 16777216
100
AcDbPoint
 10
7.136687
 20
2.894067
 30
0.0
  0
POINT
  5
35D
330
353
100
AcDbEntity
  8
Defpoints
 62
     0
440
 16777216
100
AcDbPoint
 10
7.974187
 20
3.206567
 30
0.0
  0
POINT
  5
35E
330
353
100
AcDbEntity
  8
Defpoints
 62
     0
440
 16777216
100
AcDbPoint
 10
6.902898
 20
3.206567
 30
0.0
  0
ENDBLK
  5
35F
330
353
100
AcDbEntity
  8
0
100
AcDbBlockEnd
  0
BLOCK
  5
362
330
361
100
AcDbEntity
  8
0
100
AcDbBlockBegin
  2
*D19
 70
     1
 10
0.0
 20
0.0
 30
0.0
  3
*D19
  1

  0
LINE
  5
363
330
361
100
AcDbEntity
  8
Dimensions
440
 16777216
370
    -2
100
AcDbLine
 10
8.331687
 20
3.644067
 30
0.0
 11
6.463486
 21
3.644067
 31
0.0
  0
LINE
  5
364
330
361
100
AcDbEntity
  8
Dimensions
440
 16777216
370
    -2
100
AcDbLine
 10
7.924187
 20
3.206567
 30
0.0
 11
6.463486
 21
3.206567
 31
0.0
  0
LINE
  5
365
330
361
100
AcDbEntity
  8
Dimensions
440
 16777216
370
    -2
100
AcDbLine
 10
6.563486
 20
3.764067
 30
0.0
 11
6.563486
 21
3.884067
 31
0.0
  0
LINE
  5
366
330
361
100
AcDbEntity
  8
Dimensions
440
 16777216
370
    -2
100
AcDbLine
 10
6.563486
 20
3.086567
 30
0.0
 11
6.563486
 21
2.966567
 31
0.0
  0
SOLID
  5
367
330
361
100
AcDbEntity
  8
Dimensions
440
 16777216
100
AcDbTrace
 10
6.543486
 20
3.764067
 30
0.0
 11
6.583486
 21
3.764067
 31
0.0
 12
6.563486
 22
3.644067
 32
0.0
 13
6.563486
 23
3.644067
 33
0.0
  0
SOLID
  5
368
330
361
100
AcDbEntity
  8
Dimensions
440
 16777216
100
AcDbTrace
 10
6.543486
 20
3.086567
 30
0.0
 11
6.583486
 21
3.086567
 31
0.0
 12
6.563486
 22
3.206567
 32
0.0
 13
6.563486
 23
3.206567
 33
0.0
  0
MTEXT
  5
369
330
361
100
AcDbEntity
  8
Dimensions
440
 16777216
100
AcDbMText
 10
6.563486
 20
3.425317
 30
0.0
 40
0.12
 41
0.0
 46
0.0
 71
     5
 72
     1
  1
\A1;{\H1x;\S1/2;}in
 73
     1
 44
1.0
  0
POINT
  5
36A
330
361
100
AcDbEntity
  8
Defpoints
 62
     0
440
 16777216
100
AcDbPoint
 10
8.381687
 20
3.644067
 30
0.0
  0
POINT
  5
36B
330
361
100
AcDbEntity
  8
Defpoints
 62
     0
440
 16777216
100
AcDbPoint
 10
7.974187
 20
3.206567
 30
0.0
  0
POINT
  5
36C
330
361
100
AcDbEntity
  8
Defpoints
 62
     0
440
 16777216
100
AcDbPoint
 10
6.563486
 20
3.206567
 30
0.0
  0
ENDBLK
  5
36D
330
361
100
AcDbEntity
  8
0
100
AcDbBlockEnd
  0
BLOCK
  5
370
330
36F
100
AcDbEntity
  8
0
100
AcDbBlockBegin
  2
*D20
 70
     1
 10
0.0
 20
0.0
 30
0.0
  3
*D20
  1

  0
LINE
  5
371
330
36F
100
AcDbEntity
  8
Dimensions
440
 16777216
370
    -2
100
AcDbLine
 10
8.331687
 20
3.644067
 30
0.0
 11
6.125393
 21
3.644067
 31
0.0
  0
LINE
  5
372
330
36F
100
AcDbEntity
  8
Dimensions
440
 16777216
370
    -2
100
AcDbLine
 10
9.091687
 20
2.894067
 30
0.0
 11
6.125393
 21
2.894067
 31
0.0
  0
LINE
  5
373
330
36F
100
AcDbEntity
  8
Dimensions
440
 16777216
370
    -2
100
AcDbLine
 10
6.225393
 20
3.524067
 30
0.0
 11
6.225393
 21
3.470376
 31
0.0
  0
LINE
  5
374
330
36F
100
AcDbEntity
  8
Dimensions
440
 16777216
370
    -2
100
AcDbLine
 10
6.225393
 20
3.014067
 30
0.0
 11
6.225393
 21
3.067757
 31
0.0
  0
SOLID
  5
375
330
36F
100
AcDbEntity
  8
Dimensions
440
 16777216
100
AcDbTrace
 10
6.205393
 20
3.524067
 30
0.0
 11
6.245393
 21
3.524067
 31
0.0
 12
6.225393
 22
3.644067
 32
0.0
 13
6.225393
 23
3.644067
 33
0.0
  0
SOLID
  5
376
330
36F
100
AcDbEntity
  8
Dimensions
440
 16777216
100
AcDbTrace
 10
6.205393
 20
3.014067
 30
0.0
 11
6.245393
 21
3.014067
 31
0.0
 12
6.225393
 22
2.894067
 32
0.0
 13
6.225393
 23
2.894067
 33
0.0
  0
MTEXT
  5
377
330
36F
100
AcDbEntity
  8
Dimensions
440
 16777216
100
AcDbMText
 10
6.225393
 20
3.269067
 30
0.0
 40
0.12
 41
0.0
 46
0.0
 71
     5
 72
     1
  1
\A1;{\H1x;\S3/4;}in
 73
     1
 44
1.0
  0
POINT
  5
378
330
36F
100
AcDbEntity
  8
Defpoints
 62
     0
440
 16777216
100
AcDbPoint
 10
8.381687
 20
3.644067
 30
0.0
  0
POINT
  5
379
330
36F
100
AcDbEntity
  8
Defpoints
 62
     0
440
 16777216
100
AcDbPoint
 10
9.141687
 20
2.894067
 30
0.0
  0
POINT
  5
37A
330
36F
100
AcDbEntity
  8
Defpoints
 62
     0
440
 16777216
100
AcDbPoint
 10
6.225393
 20
2.894067
 30
0.0
  0
ENDBLK
  5
37B
330
36F
100
AcDbEntity
  8
0
100
AcDbBlockEnd
  0
BLOCK
  5
387
330
386
100
AcDbEntity
  8
0
100
AcDbBlockBegin
  2
*D22
 70
     1
 10
0.0
 20
0.0
 30
0.0
  3
*D22
  1

  0
LINE
  5
7F9
330
386
100
AcDbEntity
  8
Dimensions
440
 16777216
370
    -2
100
AcDbLine
 10
9.626687
 20
6.944067
 30
0.0
 11
9.626687
 21
7.728791
 31
0.0
  0
LINE
  5
7FA
330
386
100
AcDbEntity
  8
Dimensions
440
 16777216
370
    -2
100
AcDbLine
 10
7.126687
 20
6.944067
 30
0.0
 11
7.126687
 21
7.728791
 31
0.0
  0
LINE
  5
7FB
330
386
100
AcDbEntity
  8
Dimensions
440
 16777216
370
    -2
100
AcDbLine
 10
9.506687
 20
7.628791
 30
0.0
 11
8.584068
 21
7.628791
 31
0.0
  0
LINE
  5
7FC
330
386
100
AcDbEntity
  8
Dimensions
440
 16777216
370
    -2
100
AcDbLine
 10
7.246687
 20
7.628791
 30
0.0
 11
8.169307
 21
7.628791
 31
0.0
  0
SOLID
  5
7FD
330
386
100
AcDbEntity
  8
Dimensions
440
 16777216
100
AcDbTrace
 10
9.506687
 20
7.648791
 30
0.0
 11
9.506687
 21
7.608791
 31
0.0
 12
9.626687
 22
7.628791
 32
0.0
 13
9.626687
 23
7.628791
 33
0.0
  0
SOLID
  5
7FE
330
386
100
AcDbEntity
  8
Dimensions
440
 16777216
100
AcDbTrace
 10
7.246687
 20
7.648791
 30
0.0
 11
7.246687
 21
7.608791
 31
0.0
 12
7.126687
 22
7.628791
 32
0.0
 13
7.126687
 23
7.628791
 33
0.0
  0
MTEXT
  5
7FF
330
386
100
AcDbEntity
  8
Dimensions
440
 16777216
100
AcDbMText
 10
8.376687
 20
7.628791
 30
0.0
 40
0.12
 41
0.0
 46
0.0
 71
     5
 72
     1
  1
\A1;2{\H1x;\S1/2;}in
 73
     1
 44
1.0
  0
POINT
  5
800
330
386
100
AcDbEntity
  8
Defpoints
 62
     0
440
 16777216
100
AcDbPoint
 10
9.626687
 20
6.894067
 30
0.0
  0
POINT
  5
801
330
386
100
AcDbEntity
  8
Defpoints
 62
     0
440
 16777216
100
AcDbPoint
 10
7.126687
 20
6.894067
 30
0.0
  0
POINT
  5
802
330
386
100
AcDbEntity
  8
Defpoints
 62
     0
440
 16777216
100
AcDbPoint
 10
7.126687
 20
7.628791
 30
0.0
  0
ENDBLK
  5
388
330
386
100
AcDbEntity
  8
0
100
AcDbBlockEnd
  0
BLOCK
  5
394
330
393
100
AcDbEntity
  8
0
100
AcDbBlockBegin
  2
*D23
 70
     1
 10
0.0
 20
0.0
 30
0.0
  3
*D23
  1

  0
LINE
  5
803
330
393
100
AcDbEntity
  8
Dimensions
440
 16777216
370
    -2
100
AcDbLine
 10
7.201687
 20
7.019067
 30
0.0
 11
5.602305
 21
7.019067
 31
0.0
  0
LINE
  5
804
330
393
100
AcDbEntity
  8
Dimensions
440
 16777216
370
    -2
100
AcDbLine
 10
7.076687
 20
2.904067
 30
0.0
 11
5.602305
 21
2.904067
 31
0.0
  0
LINE
  5
805
330
393
100
AcDbEntity
  8
Dimensions
440
 16777216
370
    -2
100
AcDbLine
 10
5.702305
 20
6.899067
 30
0.0
 11
5.702305
 21
5.163081
 31
0.0
  0
LINE
  5
806
330
393
100
AcDbEntity
  8
Dimensions
440
 16777216
370
    -2
100
AcDbLine
 10
5.702305
 20
3.024067
 30
0.0
 11
5.702305
 21
4.760052
 31
0.0
  0
SOLID
  5
807
330
393
100
AcDbEntity
  8
Dimensions
440
 16777216
100
AcDbTrace
 10
5.682305
 20
6.899067
 30
0.0
 11
5.722305
 21
6.899067
 31
0.0
 12
5.702305
 22
7.019067
 32
0.0
 13
5.702305
 23
7.019067
 33
0.0
  0
SOLID
  5
808
330
393
100
AcDbEntity
  8
Dimensions
440
 16777216
100
AcDbTrace
 10
5.682305
 20
3.024067
 30
0.0
 11
5.722305
 21
3.024067
 31
0.0
 12
5.702305
 22
2.904067
 32
0.0
 13
5.702305
 23
2.904067
 33
0.0
  0
MTEXT
  5
809
330
393
100
AcDbEntity
  8
Dimensions
440
 16777216
100
AcDbMText
 10
5.702305
 20
4.961567
 30
0.0
 40
0.12
 41
0.0
 46
0.0
 71
     5
 72
     1
  1
\A1;4{\H1x;\S1/8;}in
 73
     1
 44
1.0
  0
POINT
  5
80A
330
393
100
AcDbEntity
  8
Defpoints
 62
     0
440
 16777216
100
AcDbPoint
 10
7.251687
 20
7.019067
 30
0.0
  0
POINT
  5
80B
330
393
100
AcDbEntity
  8
Defpoints
 62
     0
440
 16777216
100
AcDbPoint
 10
7.126687
 20
2.904067
 30
0.0
  0
POINT
  5
80C
330
393
100
AcDbEntity
  8
Defpoints
 62
     0
440
 16777216
100
AcDbPoint
 10
5.702305
 20
2.904067
 30
0.0
  0
ENDBLK
  5
395
330
393
100
AcDbEntity
  8
0
100
AcDbBlockEnd
  0
BLOCK
  5
3A1
330
3A0
100
AcDbEntity
  8
0
100
AcDbBlockBegin
  2
*D24
 70
     1
 10
0.0
 20
0.0
 30
0.0
  3
*D24
  1

  0
LINE
  5
80D
330
3A0
100
AcDbEntity
  8
Dimensions
440
 16777216
370
    -2
100
AcDbLine
 10
2.4999
 20
9.008873
 30
0.0
 11
2.498442
 21
9.737694
 31
0.0
  0
LINE
  5
80E
330
3A0
100
AcDbEntity
  8
Dimensions
440
 16777216
370
    -2
100
AcDbLine
 10
14.4999
 20
9.032875
 30
0.0
 11
14.498442
 21
9.761696
 31
0.0
  0
LINE
  5
80F
330
3A0
100
AcDbEntity
  8
Dimensions
440
 16777216
370
    -2
100
AcDbLine
 10
2.618642
 20
9.637934
 30
0.0
 11
8.248451
 21
9.649195
 31
0.0
  0
LINE
  5
810
330
3A0
100
AcDbEntity
  8
Dimensions
440
 16777216
370
    -2
100
AcDbLine
 10
14.378642
 20
9.661456
 30
0.0
 11
8.748833
 21
9.650196
 31
0.0
  0
SOLID
  5
811
330
3A0
100
AcDbEntity
  8
Dimensions
440
 16777216
100
AcDbTrace
 10
2.618602
 20
9.657934
 30
0.0
 11
2.618682
 21
9.617934
 31
0.0
 12
2.498642
 22
9.637694
 32
0.0
 13
2.498642
 23
9.637694
 33
0.0
  0
SOLID
  5
812
330
3A0
100
AcDbEntity
  8
Dimensions
440
 16777216
100
AcDbTrace
 10
14.378602
 20
9.681456
 30
0.0
 11
14.378682
 21
9.641457
 31
0.0
 12
14.498642
 22
9.661697
 32
0.0
 13
14.498642
 23
9.661697
 33
0.0
  0
MTEXT
  5
813
330
3A0
100
AcDbEntity
  8
Dimensions
440
 16777216
100
AcDbMText
 10
8.498642
 20
9.649695
 30
0.0
 40
0.12
 41
0.0
 46
0.0
 71
     5
 72
     1
  1
\A1;120in
 73
     1
 44
1.0
  0
POINT
  5
814
330
3A0
100
AcDbEntity
  8
Defpoints
 62
     0
440
 16777216
100
AcDbPoint
 10
2.5
 20
8.958873
 30
0.0
  0
POINT
  5
815
330
3A0
100
AcDbEntity
  8
Defpoints
 62
     0
440
 16777216
100
AcDbPoint
 10
14.5
 20
8.982875
 30
0.0
  0
POINT
  5
816
330
3A0
100
AcDbEntity
  8
Defpoints
 62
     0
440
 16777216
100
AcDbPoint
 10
14.498642
 20
9.661697
 30
0.0
  0
ENDBLK
  5
3A2
330
3A0
100
AcDbEntity
  8
0
100
AcDbBlockEnd
  0
BLOCK
  5
3AE
330
3AD
100
AcDbEntity
  8
0
100
AcDbBlockBegin
  2
*D25
 70
     1
 10
0.0
 20
0.0
 30
0.0
  3
*D25
  1

  0
LINE
  5
817
330
3AD
100
AcDbEntity
  8
Dimensions
440
 16777216
370
    -2
100
AcDbLine
 10
3.1
 20
8.907875
 30
0.0
 11
3.1
 21
9.290362
 31
0.0
  0
LINE
  5
818
330
3AD
100
AcDbEntity
  8
Dimensions
440
 16777216
370
    -2
100
AcDbLine
 10
2.5
 20
9.032875
 30
0.0
 11
2.5
 21
9.290362
 31
0.0
  0
LINE
  5
819
330
3AD
100
AcDbEntity
  8
Dimensions
440
 16777216
370
    -2
100
AcDbLine
 10
2.98
 20
9.190362
 30
0.0
 11
2.957124
 21
9.190362
 31
0.0
  0
LINE
  5
81A
330
3AD
100
AcDbEntity
  8
Dimensions
440
 16777216
370
    -2
100
AcDbLine
 10
2.62
 20
9.190362
 30
0.0
 11
2.631257
 21
9.190362
 31
0.0
  0
SOLID
  5
81B
330
3AD
100
AcDbEntity
  8
Dimensions
440
 16777216
100
AcDbTrace
 10
2.98
 20
9.210362
 30
0.0
 11
2.98
 21
9.170362
 31
0.0
 12
3.1
 22
9.190362
 32
0.0
 13
3.1
 23
9.190362
 33
0.0
  0
SOLID
  5
81C
330
3AD
100
AcDbEntity
  8
Dimensions
440
 16777216
100
AcDbTrace
 10
2.62
 20
9.210362
 30
0.0
 11
2.62
 21
9.170362
 31
0.0
 12
2.5
 22
9.190362
 32
0.0
 13
2.5
 23
9.190362
 33
0.0
  0
MTEXT
  5
81D
330
3AD
100
AcDbEntity
  8
Dimensions
440
 16777216
100
AcDbMText
 10
2.79419
 20
9.190362
 30
0.0
 40
0.12
 41
0.0
 46
0.0
 71
     5
 72
     1
  1
\A1;6in
 73
     1
 44
1.0
  0
POINT
  5
81E
330
3AD
100
AcDbEntity
  8
Defpoints
 62
     0
440
 16777216
100
AcDbPoint
 10
3.1
 20
8.857875
 30
0.0
  0
POINT
  5
81F
330
3AD
100
AcDbEntity
  8
Defpoints
 62
     0
440
 16777216
100
AcDbPoint
 10
2.5
 20
8.982875
 30
0.0
  0
POINT
  5
820
330
3AD
100
AcDbEntity
  8
Defpoints
 62
     0
440
 16777216
100
AcDbPoint
 10
2.5
 20
9.190362
 30
0.0
  0
ENDBLK
  5
3AF
330
3AD
100
AcDbEntity
  8
0
100
AcDbBlockEnd
  0
BLOCK
  5
3BB
330
3BA
100
AcDbEntity
  8
0
100
AcDbBlockBegin
  2
*D26
 70
     1
 10
0.0
 20
0.0
 30
0.0
  3
*D26
  1

  0
LINE
  5
821
330
3BA
100
AcDbEntity
  8
Dimensions
440
 16777216
370
    -2
100
AcDbLine
 10
4.3
 20
8.907875
 30
0.0
 11
4.3
 21
9.487885
 31
0.0
  0
LINE
  5
822
330
3BA
100
AcDbEntity
  8
Dimensions
440
 16777216
370
    -2
100
AcDbLine
 10
3.1
 20
8.907875
 30
0.0
 11
3.1
 21
9.487885
 31
0.0
  0
LINE
  5
823
330
3BA
100
AcDbEntity
  8
Dimensions
440
 16777216
370
    -2
100
AcDbLine
 10
4.18
 20
9.387885
 30
0.0
 11
3.903574
 21
9.387885
 31
0.0
  0
LINE
  5
824
330
3BA
100
AcDbEntity
  8
Dimensions
440
 16777216
370
    -2
100
AcDbLine
 10
3.22
 20
9.387885
 30
0.0
 11
3.496426
 21
9.387885
 31
0.0
  0
SOLID
  5
825
330
3BA
100
AcDbEntity
  8
Dimensions
440
 16777216
100
AcDbTrace
 10
4.18
 20
9.407885
 30
0.0
 11
4.18
 21
9.367885
 31
0.0
 12
4.3
 22
9.387885
 32
0.0
 13
4.3
 23
9.387885
 33
0.0
  0
SOLID
  5
826
330
3BA
100
AcDbEntity
  8
Dimensions
440
 16777216
100
AcDbTrace
 10
3.22
 20
9.407885
 30
0.0
 11
3.22
 21
9.367885
 31
0.0
 12
3.1
 22
9.387885
 32
0.0
 13
3.1
 23
9.387885
 33
0.0
  0
MTEXT
  5
827
330
3BA
100
AcDbEntity
  8
Dimensions
440
 16777216
100
AcDbMText
 10
3.7
 20
9.387885
 30
0.0
 40
0.12
 41
0.0
 46
0.0
 71
     5
 72
     1
  1
\A1;12in
 73
     1
 44
1.0
  0
POINT
  5
828
330
3BA
100
AcDbEntity
  8
Defpoints
 62
     0
440
 16777216
100
AcDbPoint
 10
4.3
 20
8.857875
 30
0.0
  0
POINT
  5
829
330
3BA
100
AcDbEntity
  8
Defpoints
 62
     0
440
 16777216
100
AcDbPoint
 10
3.1
 20
8.857875
 30
0.0
  0
POINT
  5
82A
330
3BA
100
AcDbEntity
  8
Defpoints
 62
     0
440
 16777216
100
AcDbPoint
 10
3.1
 20
9.387885
 30
0.0
  0
ENDBLK
  5
3BC
330
3BA
100
AcDbEntity
  8
0
100
AcDbBlockEnd
  0
BLOCK
  5
3C8
330
3C7
100
AcDbEntity
  8
0
100
AcDbBlockBegin
  2
*D27
 70
     1
 10
0.0
 20
0.0
 30
0.0
  3
*D27
  1

  0
LINE
  5
82B
330
3C7
100
AcDbEntity
  8
Dimensions
440
 16777216
370
    -2
100
AcDbLine
 10
13.9
 20
8.907875
 30
0.0
 11
13.9
 21
9.478387
 31
0.0
  0
LINE
  5
82C
330
3C7
100
AcDbEntity
  8
Dimensions
440
 16777216
370
    -2
100
AcDbLine
 10
12.7
 20
8.907875
 30
0.0
 11
12.7
 21
9.478387
 31
0.0
  0
LINE
  5
82D
330
3C7
100
AcDbEntity
  8
Dimensions
440
 16777216
370
    -2
100
AcDbLine
 10
13.78
 20
9.378387
 30
0.0
 11
13.503574
 21
9.378387
 31
0.0
  0
LINE
  5
82E
330
3C7
100
AcDbEntity
  8
Dimensions
440
 16777216
370
    -2
100
AcDbLine
 10
12.82
 20
9.378387
 30
0.0
 11
13.096426
 21
9.378387
 31
0.0
  0
SOLID
  5
82F
330
3C7
100
AcDbEntity
  8
Dimensions
440
 16777216
100
AcDbTrace
 10
13.78
 20
9.398387
 30
0.0
 11
13.78
 21
9.358387
 31
0.0
 12
13.9
 22
9.378387
 32
0.0
 13
13.9
 23
9.378387
 33
0.0
  0
SOLID
  5
830
330
3C7
100
AcDbEntity
  8
Dimensions
440
 16777216
100
AcDbTrace
 10
12.82
 20
9.398387
 30
0.0
 11
12.82
 21
9.358387
 31
0.0
 12
12.7
 22
9.378387
 32
0.0
 13
12.7
 23
9.378387
 33
0.0
  0
MTEXT
  5
831
330
3C7
100
AcDbEntity
  8
Dimensions
440
 16777216
100
AcDbMText
 10
13.3
 20
9.378387
 30
0.0
 40
0.12
 41
0.0
 46
0.0
 71
     5
 72
     1
  1
\A1;12in
 73
     1
 44
1.0
  0
POINT
  5
832
330
3C7
100
AcDbEntity
  8
Defpoints
 62
     0
440
 16777216
100
AcDbPoint
 10
13.9
 20
8.857875
 30
0.0
  0
POINT
  5
833
330
3C7
100
AcDbEntity
  8
Defpoints
 62
     0
440
 16777216
100
AcDbPoint
 10
12.7
 20
8.857875
 30
0.0
  0
POINT
  5
834
330
3C7
100
AcDbEntity
  8
Defpoints
 62
     0
440
 16777216
100
AcDbPoint
 10
12.7
 20
9.378387
 30
0.0
  0
ENDBLK
  5
3C9
330
3C7
100
AcDbEntity
  8
0
100
AcDbBlockEnd
  0
BLOCK
  5
3D5
330
3D4
100
AcDbEntity
  8
0
100
AcDbBlockBegin
  2
*D28
 70
     1
 10
0.0
 20
0.0
 30
0.0
  3
*D28
  1

  0
LINE
  5
835
330
3D4
100
AcDbEntity
  8
Dimensions
440
 16777216
370
    -2
100
AcDbLine
 10
13.9
 20
8.907875
 30
0.0
 11
13.9
 21
9.255084
 31
0.0
  0
LINE
  5
836
330
3D4
100
AcDbEntity
  8
Dimensions
440
 16777216
370
    -2
100
AcDbLine
 10
14.5
 20
9.020375
 30
0.0
 11
14.5
 21
9.255084
 31
0.0
  0
LINE
  5
837
330
3D4
100
AcDbEntity
  8
Dimensions
440
 16777216
370
    -2
100
AcDbLine
 10
14.02
 20
9.155084
 30
0.0
 11
14.038496
 21
9.155084
 31
0.0
  0
LINE
  5
838
330
3D4
100
AcDbEntity
  8
Dimensions
440
 16777216
370
    -2
100
AcDbLine
 10
14.38
 20
9.155084
 30
0.0
 11
14.364362
 21
9.155084
 31
0.0
  0
SOLID
  5
839
330
3D4
100
AcDbEntity
  8
Dimensions
440
 16777216
100
AcDbTrace
 10
14.02
 20
9.175084
 30
0.0
 11
14.02
 21
9.135084
 31
0.0
 12
13.9
 22
9.155084
 32
0.0
 13
13.9
 23
9.155084
 33
0.0
  0
SOLID
  5
83A
330
3D4
100
AcDbEntity
  8
Dimensions
440
 16777216
100
AcDbTrace
 10
14.38
 20
9.175084
 30
0.0
 11
14.38
 21
9.135084
 31
0.0
 12
14.5
 22
9.155084
 32
0.0
 13
14.5
 23
9.155084
 33
0.0
  0
MTEXT
  5
83B
330
3D4
100
AcDbEntity
  8
Dimensions
440
 16777216
100
AcDbMText
 10
14.201429
 20
9.155084
 30
0.0
 40
0.12
 41
0.0
 46
0.0
 71
     5
 72
     1
  1
\A1;6in
 73
     1
 44
1.0
  0
POINT
  5
83C
330
3D4
100
AcDbEntity
  8
Defpoints
 62
     0
440
 16777216
100
AcDbPoint
 10
13.9
 20
8.857875
 30
0.0
  0
POINT
  5
83D
330
3D4
100
AcDbEntity
  8
Defpoints
 62
     0
440
 16777216
100
AcDbPoint
 10
14.5
 20
8.970375
 30
0.0
  0
POINT
  5
83E
330
3D4
100
AcDbEntity
  8
Defpoints
 62
     0
440
 16777216
100
AcDbPoint
 10
14.5
 20
9.155084
 30
0.0
  0
ENDBLK
  5
3D6
330
3D4
100
AcDbEntity
  8
0
100
AcDbBlockEnd
  0
BLOCK
  5
3E2
330
3E1
100
AcDbEntity
  8
0
100
AcDbBlockBegin
  2
*D29
 70
     1
 10
0.0
 20
0.0
 30
0.0
  3
*D29
  1

  0
LINE
  5
83F
330
3E1
100
AcDbEntity
  8
Dimensions
440
 16777216
370
    -2
100
AcDbLine
 10
2.789328
 20
6.190446
 30
0.0
 11
2.909328
 21
6.190446
 31
0.0
  0
LINE
  5
840
330
3E1
100
AcDbEntity
  8
Dimensions
440
 16777216
370
    -2
100
AcDbLine
 10
2.909328
 20
6.190446
 30
0.0
 11
3.137664
 21
5.952346
 31
0.0
  0
MTEXT
  5
841
330
3E1
100
AcDbEntity
  8
Dimensions
440
 16777216
100
AcDbMText
 10
2.564512
 20
6.190446
 30
0.0
 40
0.12
 41
0.0
 46
0.0
 71
     5
 72
     1
  1
\A1;∅{\H1x;\S7/8;}in
 73
     1
 44
1.0
  0
SOLID
  5
842
330
3E1
100
AcDbEntity
  8
Dimensions
440
 16777216
100
AcDbTrace
 10
3.152099
 20
5.966189
 30
0.0
 11
3.123229
 21
5.938503
 31
0.0
 12
3.220723
 22
5.865736
 32
0.0
 13
3.220723
 23
5.865736
 33
0.0
  0
POINT
  5
843
330
3E1
100
AcDbEntity
  8
Defpoints
 62
     0
440
 16777216
100
AcDbPoint
 10
3.220723
 20
5.865736
 30
0.0
  0
POINT
  5
844
330
3E1
100
AcDbEntity
  8
Defpoints
 62
     0
440
 16777216
100
AcDbPoint
 10
3.826357
 20
5.234205
 30
0.0
  0
ENDBLK
  5
3E3
330
3E1
100
AcDbEntity
  8
0
100
AcDbBlockEnd
  0
BLOCK
  5
3EB
330
3EA
100
AcDbEntity
  8
0
100
AcDbBlockBegin
  2
*D30
 70
     1
 10
0.0
 20
0.0
 30
0.0
  3
*D30
  1

  0
LINE
  5
845
330
3EA
100
AcDbEntity
  8
Dimensions
440
 16777216
370
    -2
100
AcDbLine
 10
2.839731
 20
5.744243
 30
0.0
 11
2.959731
 21
5.744243
 31
0.0
  0
LINE
  5
846
330
3EA
100
AcDbEntity
  8
Dimensions
440
 16777216
370
    -2
100
AcDbLine
 10
2.959731
 20
5.744243
 30
0.0
 11
3.17467
 21
5.670181
 31
0.0
  0
MTEXT
  5
847
330
3EA
100
AcDbEntity
  8
Dimensions
440
 16777216
100
AcDbMText
 10
2.614711
 20
5.744243
 30
0.0
 40
0.12
 41
0.0
 46
0.0
 71
     5
 72
     1
  1
\A1;∅{\H1x;\S1/2;}in
 73
     1
 44
1.0
  0
SOLID
  5
848
330
3EA
100
AcDbEntity
  8
Dimensions
440
 16777216
100
AcDbTrace
 10
3.181185
 20
5.68909
 30
0.0
 11
3.168154
 21
5.651272
 31
0.0
 12
3.288123
 22
5.631088
 32
0.0
 13
3.288123
 23
5.631088
 33
0.0
  0
POINT
  5
849
330
3EA
100
AcDbEntity
  8
Defpoints
 62
     0
440
 16777216
100
AcDbPoint
 10
3.288123
 20
5.631088
 30
0.0
  0
POINT
  5
84A
330
3EA
100
AcDbEntity
  8
Defpoints
 62
     0
440
 16777216
100
AcDbPoint
 10
3.758956
 20
5.468853
 30
0.0
  0
ENDBLK
  5
3EC
330
3EA
100
AcDbEntity
  8
0
100
AcDbBlockEnd
  0
BLOCK
  5
3F4
330
3F3
100
AcDbEntity
  8
0
100
AcDbBlockBegin
  2
*D31
 70
     1
 10
0.0
 20
0.0
 30
0.0
  3
*D31
  1

  0
LINE
  5
84B
330
3F3
100
AcDbEntity
  8
Dimensions
440
 16777216
370
    -2
100
AcDbLine
 10
7.939187
 20
3.719869
 30
0.0
 11
7.939187
 21
5.384099
 31
0.0
  0
LINE
  5
84C
330
3F3
100
AcDbEntity
  8
Dimensions
440
 16777216
370
    -2
100
AcDbLine
 10
8.814187
 20
3.719869
 30
0.0
 11
8.814187
 21
5.384099
 31
0.0
  0
LINE
  5
84D
330
3F3
100
AcDbEntity
  8
Dimensions
440
 16777216
370
    -2
100
AcDbLine
 10
8.059187
 20
5.284099
 30
0.0
 11
8.213672
 21
5.284099
 31
0.0
  0
LINE
  5
84E
330
3F3
100
AcDbEntity
  8
Dimensions
440
 16777216
370
    -2
100
AcDbLine
 10
8.694187
 20
5.284099
 30
0.0
 11
8.539702
 21
5.284099
 31
0.0
  0
SOLID
  5
84F
330
3F3
100
AcDbEntity
  8
Dimensions
440
 16777216
100
AcDbTrace
 10
8.059187
 20
5.304099
 30
0.0
 11
8.059187
 21
5.264099
 31
0.0
 12
7.939187
 22
5.284099
 32
0.0
 13
7.939187
 23
5.284099
 33
0.0
  0
SOLID
  5
850
330
3F3
100
AcDbEntity
  8
Dimensions
440
 16777216
100
AcDbTrace
 10
8.694187
 20
5.304099
 30
0.0
 11
8.694187
 21
5.264099
 31
0.0
 12
8.814187
 22
5.284099
 32
0.0
 13
8.814187
 23
5.284099
 33
0.0
  0
MTEXT
  5
851
330
3F3
100
AcDbEntity
  8
Dimensions
440
 16777216
100
AcDbMText
 10
8.376687
 20
5.284099
 30
0.0
 40
0.12
 41
0.0
 46
0.0
 71
     5
 72
     1
  1
\A1;{\H1x;\S7/8;}in
 73
     1
 44
1.0
  0
POINT
  5
852
330
3F3
100
AcDbEntity
  8
Defpoints
 62
     0
440
 16777216
100
AcDbPoint
 10
7.939187
 20
3.669869
 30
0.0
  0
POINT
  5
853
330
3F3
100
AcDbEntity
  8
Defpoints
 62
     0
440
 16777216
100
AcDbPoint
 10
8.814187
 20
3.669869
 30
0.0
  0
POINT
  5
854
330
3F3
100
AcDbEntity
  8
Defpoints
 62
     0
440
 16777216
100
AcDbPoint
 10
8.814187
 20
5.284099
 30
0.0
  0
ENDBLK
  5
3F5
330
3F3
100
AcDbEntity
  8
0
100
AcDbBlockEnd
  0
BLOCK
  5
401
330
400
100
AcDbEntity
  8
0
100
AcDbBlockBegin
  2
*D32
 70
     1
 10
0.0
 20
0.0
 30
0.0
  3
*D32
  1

  0
LINE
  5
855
330
400
100
AcDbEntity
  8
Dimensions
440
 16777216
370
    -2
100
AcDbLine
 10
8.127687
 20
3.256567
 30
0.0
 11
8.127687
 21
4.460839
 31
0.0
  0
LINE
  5
856
330
400
100
AcDbEntity
  8
Dimensions
440
 16777216
370
    -2
100
AcDbLine
 10
8.625687
 20
3.256567
 30
0.0
 11
8.625687
 21
4.460839
 31
0.0
  0
LINE
  5
857
330
400
100
AcDbEntity
  8
Dimensions
440
 16777216
370
    -2
100
AcDbLine
 10
8.007687
 20
4.360839
 30
0.0
 11
7.887687
 21
4.360839
 31
0.0
  0
LINE
  5
858
330
400
100
AcDbEntity
  8
Dimensions
440
 16777216
370
    -2
100
AcDbLine
 10
8.745687
 20
4.360839
 30
0.0
 11
8.865687
 21
4.360839
 31
0.0
  0
SOLID
  5
859
330
400
100
AcDbEntity
  8
Dimensions
440
 16777216
100
AcDbTrace
 10
8.007687
 20
4.380839
 30
0.0
 11
8.007687
 21
4.340839
 31
0.0
 12
8.127687
 22
4.360839
 32
0.0
 13
8.127687
 23
4.360839
 33
0.0
  0
SOLID
  5
85A
330
400
100
AcDbEntity
  8
Dimensions
440
 16777216
100
AcDbTrace
 10
8.745687
 20
4.380839
 30
0.0
 11
8.745687
 21
4.340839
 31
0.0
 12
8.625687
 22
4.360839
 32
0.0
 13
8.625687
 23
4.360839
 33
0.0
  0
MTEXT
  5
85B
330
400
100
AcDbEntity
  8
Dimensions
440
 16777216
100
AcDbMText
 10
8.3924
 20
4.360839
 30
0.0
 40
0.12
 41
0.0
 46
0.0
 71
     5
 72
     1
  1
\A1;{\H1x;\S1/2;}in
 73
     1
 44
1.0
  0
POINT
  5
85C
330
400
100
AcDbEntity
  8
Defpoints
 62
     0
440
 16777216
100
AcDbPoint
 10
8.127687
 20
3.206567
 30
0.0
  0
POINT
  5
85D
330
400
100
AcDbEntity
  8
Defpoints
 62
     0
440
 16777216
100
AcDbPoint
 10
8.625687
 20
3.206567
 30
0.0
  0
POINT
  5
85E
330
400
100
AcDbEntity
  8
Defpoints
 62
     0
440
 16777216
100
AcDbPoint
 10
8.625687
 20
4.360839
 30
0.0
  0
ENDBLK
  5
402
330
400
100
AcDbEntity
  8
0
100
AcDbBlockEnd
  0
BLOCK
  5
40E
330
40D
100
AcDbEntity
  8
0
100
AcDbBlockBegin
  2
*D33
 70
     1
 10
0.0
 20
0.0
 30
0.0
  3
*D33
  1

  0
LINE
  5
85F
330
40D
100
AcDbEntity
  8
Dimensions
440
 16777216
370
    -2
100
AcDbLine
 10
7.536687
 20
6.509067
 30
0.0
 11
7.536687
 21
6.908989
 31
0.0
  0
LINE
  5
860
330
40D
100
AcDbEntity
  8
Dimensions
440
 16777216
370
    -2
100
AcDbLine
 10
9.216687
 20
6.509067
 30
0.0
 11
9.216687
 21
6.908989
 31
0.0
  0
LINE
  5
861
330
40D
100
AcDbEntity
  8
Dimensions
440
 16777216
370
    -2
100
AcDbLine
 10
7.656687
 20
6.808989
 30
0.0
 11
8.135459
 21
6.808989
 31
0.0
  0
LINE
  5
862
330
40D
100
AcDbEntity
  8
Dimensions
440
 16777216
370
    -2
100
AcDbLine
 10
9.096687
 20
6.808989
 30
0.0
 11
8.617915
 21
6.808989
 31
0.0
  0
SOLID
  5
863
330
40D
100
AcDbEntity
  8
Dimensions
440
 16777216
100
AcDbTrace
 10
7.656687
 20
6.828989
 30
0.0
 11
7.656687
 21
6.788989
 31
0.0
 12
7.536687
 22
6.808989
 32
0.0
 13
7.536687
 23
6.808989
 33
0.0
  0
SOLID
  5
864
330
40D
100
AcDbEntity
  8
Dimensions
440
 16777216
100
AcDbTrace
 10
9.096687
 20
6.828989
 30
0.0
 11
9.096687
 21
6.788989
 31
0.0
 12
9.216687
 22
6.808989
 32
0.0
 13
9.216687
 23
6.808989
 33
0.0
  0
MTEXT
  5
865
330
40D
100
AcDbEntity
  8
Dimensions
440
 16777216
100
AcDbMText
 10
8.376687
 20
6.808989
 30
0.0
 40
0.12
 41
0.0
 46
0.0
 71
     5
 72
     1
  1
\A1;1{\H1x;\S11/16;}in
 73
     1
 44
1.0
  0
POINT
  5
866
330
40D
100
AcDbEntity
  8
Defpoints
 62
     0
440
 16777216
100
AcDbPoint
 10
7.536687
 20
6.459067
 30
0.0
  0
POINT
  5
867
330
40D
100
AcDbEntity
  8
Defpoints
 62
     0
440
 16777216
100
AcDbPoint
 10
9.216687
 20
6.459067
 30
0.0
  0
POINT
  5
868
330
40D
100
AcDbEntity
  8
Defpoints
 62
     0
440
 16777216
100
AcDbPoint
 10
9.216687
 20
6.808989
 30
0.0
  0
ENDBLK
  5
40F
330
40D
100
AcDbEntity
  8
0
100
AcDbBlockEnd
  0
BLOCK
  5
41B
330
41A
100
AcDbEntity
  8
0
100
AcDbBlockBegin
  2
*D34
 70
     1
 10
0.0
 20
0.0
 30
0.0
  3
*D34
  1

  0
LINE
  5
869
330
41A
100
AcDbEntity
  8
Dimensions
 62
     0
440
 16777216
370
    -2
100
AcDbLine
 10
7.086687
 20
2.894067
 30
0.0
 11
6.802898
 21
2.894067
 31
0.0
  0
LINE
  5
86A
330
41A
100
AcDbEntity
  8
Dimensions
 62
     0
440
 16777216
370
    -2
100
AcDbLine
 10
7.924187
 20
3.206567
 30
0.0
 11
6.802898
 21
3.206567
 31
0.0
  0
LINE
  5
86B
330
41A
100
AcDbEntity
  8
Dimensions
 62
     0
440
 16777216
370
    -2
100
AcDbLine
 10
6.902898
 20
2.774067
 30
0.0
 11
6.902898
 21
2.654067
 31
0.0
  0
LINE
  5
86C
330
41A
100
AcDbEntity
  8
Dimensions
 62
     0
440
 16777216
370
    -2
100
AcDbLine
 10
6.902898
 20
3.326567
 30
0.0
 11
6.902898
 21
3.446567
 31
0.0
  0
SOLID
  5
86D
330
41A
100
AcDbEntity
  8
Dimensions
 62
     0
440
 16777216
100
AcDbTrace
 10
6.882898
 20
2.774067
 30
0.0
 11
6.922898
 21
2.774067
 31
0.0
 12
6.902898
 22
2.894067
 32
0.0
 13
6.902898
 23
2.894067
 33
0.0
  0
SOLID
  5
86E
330
41A
100
AcDbEntity
  8
Dimensions
 62
     0
440
 16777216
100
AcDbTrace
 10
6.882898
 20
3.326567
 30
0.0
 11
6.922898
 21
3.326567
 31
0.0
 12
6.902898
 22
3.206567
 32
0.0
 13
6.902898
 23
3.206567
 33
0.0
  0
MTEXT
  5
86F
330
41A
100
AcDbEntity
  8
Dimensions
440
 16777216
100
AcDbMText
 10
6.902898
 20
3.050317
 30
0.0
 40
0.12
 41
0.0
 46
0.0
 71
     5
 72
     1
  1
\A1;{\H1x;\S3/8;}in
 73
     1
 44
1.0
  0
POINT
  5
870
330
41A
100
AcDbEntity
  8
Defpoints
 62
     0
440
 16777216
100
AcDbPoint
 10
7.136687
 20
2.894067
 30
0.0
  0
POINT
  5
871
330
41A
100
AcDbEntity
  8
Defpoints
 62
     0
440
 16777216
100
AcDbPoint
 10
7.974187
 20
3.206567
 30
0.0
  0
POINT
  5
872
330
41A
100
AcDbEntity
  8
Defpoints
 62
     0
440
 16777216
100
AcDbPoint
 10
6.902898
 20
3.206567
 30
0.0
  0
ENDBLK
  5
41C
330
41A
100
AcDbEntity
  8
0
100
AcDbBlockEnd
  0
BLOCK
  5
428
330
427
100
AcDbEntity
  8
0
100
AcDbBlockBegin
  2
*D35
 70
     1
 10
0.0
 20
0.0
 30
0.0
  3
*D35
  1

  0
LINE
  5
873
330
427
100
AcDbEntity
  8
Dimensions
440
 16777216
370
    -2
100
AcDbLine
 10
8.331687
 20
3.644067
 30
0.0
 11
6.463486
 21
3.644067
 31
0.0
  0
LINE
  5
874
330
427
100
AcDbEntity
  8
Dimensions
440
 16777216
370
    -2
100
AcDbLine
 10
7.924187
 20
3.206567
 30
0.0
 11
6.463486
 21
3.206567
 31
0.0
  0
LINE
  5
875
330
427
100
AcDbEntity
  8
Dimensions
440
 16777216
370
    -2
100
AcDbLine
 10
6.563486
 20
3.764067
 30
0.0
 11
6.563486
 21
3.884067
 31
0.0
  0
LINE
  5
876
330
427
100
AcDbEntity
  8
Dimensions
440
 16777216
370
    -2
100
AcDbLine
 10
6.563486
 20
3.086567
 30
0.0
 11
6.563486
 21
2.966567
 31
0.0
  0
SOLID
  5
877
330
427
100
AcDbEntity
  8
Dimensions
440
 16777216
100
AcDbTrace
 10
6.543486
 20
3.764067
 30
0.0
 11
6.583486
 21
3.764067
 31
0.0
 12
6.563486
 22
3.644067
 32
0.0
 13
6.563486
 23
3.644067
 33
0.0
  0
SOLID
  5
878
330
427
100
AcDbEntity
  8
Dimensions
440
 16777216
100
AcDbTrace
 10
6.543486
 20
3.086567
 30
0.0
 11
6.583486
 21
3.086567
 31
0.0
 12
6.563486
 22
3.206567
 32
0.0
 13
6.563486
 23
3.206567
 33
0.0
  0
MTEXT
  5
879
330
427
100
AcDbEntity
  8
Dimensions
440
 16777216
100
AcDbMText
 10
6.563486
 20
3.425317
 30
0.0
 40
0.12
 41
0.0
 46
0.0
 71
     5
 72
     1
  1
\A1;{\H1x;\S1/2;}in
 73
     1
 44
1.0
  0
POINT
  5
87A
330
427
100
AcDbEntity
  8
Defpoints
 62
     0
440
 16777216
100
AcDbPoint
 10
8.381687
 20
3.644067
 30
0.0
  0
POINT
  5
87B
330
427
100
AcDbEntity
  8
Defpoints
 62
     0
440
 16777216
100
AcDbPoint
 10
7.974187
 20
3.206567
 30
0.0
  0
POINT
  5
87C
330
427
100
AcDbEntity
  8
Defpoints
 62
     0
440
 16777216
100
AcDbPoint
 10
6.563486
 20
3.206567
 30
0.0
  0
ENDBLK
  5
429
330
427
100
AcDbEntity
  8
0
100
AcDbBlockEnd
  0
BLOCK
  5
435
330
434
100
AcDbEntity
  8
0
100
AcDbBlockBegin
  2
*D36
 70
     1
 10
0.0
 20
0.0
 30
0.0
  3
*D36
  1

  0
LINE
  5
87D
330
434
100
AcDbEntity
  8
Dimensions
440
 16777216
370
    -2
100
AcDbLine
 10
8.331687
 20
3.644067
 30
0.0
 11
6.125393
 21
3.644067
 31
0.0
  0
LINE
  5
87E
330
434
100
AcDbEntity
  8
Dimensions
440
 16777216
370
    -2
100
AcDbLine
 10
9.091687
 20
2.894067
 30
0.0
 11
6.125393
 21
2.894067
 31
0.0
  0
LINE
  5
87F
330
434
100
AcDbEntity
  8
Dimensions
440
 16777216
370
    -2
100
AcDbLine
 10
6.225393
 20
3.524067
 30
0.0
 11
6.225393
 21
3.470376
 31
0.0
  0
LINE
  5
880
330
434
100
AcDbEntity
  8
Dimensions
440
 16777216
370
    -2
100
AcDbLine
 10
6.225393
 20
3.014067
 30
0.0
 11
6.225393
 21
3.067757
 31
0.0
  0
SOLID
  5
881
330
434
100
AcDbEntity
  8
Dimensions
440
 16777216
100
AcDbTrace
 10
6.205393
 20
3.524067
 30
0.0
 11
6.245393
 21
3.524067
 31
0.0
 12
6.225393
 22
3.644067
 32
0.0
 13
6.225393
 23
3.644067
 33
0.0
  0
SOLID
  5
882
330
434
100
AcDbEntity
  8
Dimensions
440
 16777216
100
AcDbTrace
 10
6.205393
 20
3.014067
 30
0.0
 11
6.245393
 21
3.014067
 31
0.0
 12
6.225393
 22
2.894067
 32
0.0
 13
6.225393
 23
2.894067
 33
0.0
  0
MTEXT
  5
883
330
434
100
AcDbEntity
  8
Dimensions
440
 16777216
100
AcDbMText
 10
6.225393
 20
3.269067
 30
0.0
 40
0.12
 41
0.0
 46
0.0
 71
     5
 72
     1
  1
\A1;{\H1x;\S3/4;}in
 73
     1
 44
1.0
  0
POINT
  5
884
330
434
100
AcDbEntity
  8
Defpoints
 62
     0
440
 16777216
100
AcDbPoint
 10
8.381687
 20
3.644067
 30
0.0
  0
POINT
  5
885
330
434
100
AcDbEntity
  8
Defpoints
 62
     0
440
 16777216
100
AcDbPoint
 10
9.141687
 20
2.894067
 30
0.0
  0
POINT
  5
886
330
434
100
AcDbEntity
  8
Defpoints
 62
     0
440
 16777216
100
AcDbPoint
 10
6.225393
 20
2.894067
 30
0.0
  0
ENDBLK
  5
436
330
434
100
AcDbEntity
  8
0
100
AcDbBlockEnd
  0
ENDSEC
  0
SECTION
  2
ENTITIES
  0
INSERT
  5
261
330
70
100
AcDbEntity
  8
Titleblock
100
AcDbBlockReference
 66
     1
  2
Shower
 10
16.38
 20
0.38
 30
0.0
  0
ATTRIB
  5
281
330
261
100
AcDbEntity
  8
Titleblock
  6
Continuous
370
    25
100
AcDbText
 10
12.6925
 20
2.6925
 30
0.0
 40
0.12
  1
Railing Products and Mock Ups
100
AcDbAttribute
280
     0
  2
PROJECT
 70
     0
280
     1
1001
FD_ATT_APPNAME
1005
26F
  0
ATTRIB
  5
282
330
261
100
AcDbEntity
  8
Titleblock
  6
Continuous
370
    25
100
AcDbText
 10
14.6925
 20
1.0675
 30
0.0
 40
0.12
  1
8/13/2019
100
AcDbAttribute
280
     0
  2
DRAWN_DATE
 70
     0
280
     1
1001
FD_ATT_APPNAME
1005
271
  0
ATTRIB
  5
283
330
261
100
AcDbEntity
  8
Titleblock
  6
Continuous
370
    25
100
AcDbText
 10
12.0675
 20
2.1925
 30
0.0
 40
0.3048
  1
A42-0072AEY10CB
100
AcDbAttribute
280
     0
  2
TITLE_1
 70
     0
280
     1
1001
FD_ATT_APPNAME
1005
272
1001
FUSIONTITLEBLOCKATTRIBUTEOVERRIDE
1070
     1
  0
ATTRIB
  5
284
330
261
100
AcDbEntity
  8
Titleblock
  6
Continuous
370
    25
100
AcDbText
 10
14.6925
 20
1.29994
 30
0.0
 40
0.12
  1
1:1
100
AcDbAttribute
280
     0
  2
SCALE
 70
     0
280
     1
1001
FD_ATT_APPNAME
1005
273
  0
SEQEND
  5
285
330
261
100
AcDbEntity
  8
Titleblock
  0
INSERT
  5
286
330
70
100
AcDbEntity
  8
Border
100
AcDbBlockReference
  2
ANSI_B_SHEET
 10
0.0
 20
0.0
 30
0.0
  0
DIMENSION
  5
2A7
330
70
100
AcDbEntity
  8
Dimensions
100
AcDbDimension
280
     0
  2
*D22
 10
7.126687
 20
7.628791
 30
0.0
 11
8.376687
 21
7.628791
 31
0.0
 70
    32
 71
     5
 42
2.5
 73
     0
 74
     0
 75
     0
  3
Standard
100
AcDbAlignedDimension
 13
9.626687
 23
6.894067
 33
0.0
 14
7.126687
 24
6.894067
 34
0.0
100
AcDbRotatedDimension
1001
ACAD_DIMASSOC_CALC_DIMLFAC
1040
-1.0
1001
ACAD_DIMASSOC_DIMLFAC
1040
-1.0
1001
ACAD_DIMASSOC_OVERRIDDEN_DIMLFAC
1040
0.0
1001
ACAD_DSTYLE_DIMJAG_POSITION
1070
   387
1070
     0
1070
   389
1010
0.0
1020
0.0
1030
0.0
1001
ACAD
1000
DSTYLE
1002
{
1070
   144
1040
1.0
1070
   176
1070
   256
1070
   177
1070
   256
1002
}
  0
DIMENSION
  5
2B6
330
70
100
AcDbEntity
  8
Dimensions
100
AcDbDimension
280
     0
  2
*D23
 10
5.702305
 20
2.904067
 30
0.0
 11
5.702305
 21
4.961567
 31
0.0
 70
   160
 71
     5
 42
4.115
 73
     0
 74
     0
 75
     0
  3
Standard
100
AcDbAlignedDimension
 13
7.251687
 23
7.019067
 33
0.0
 14
7.126687
 24
2.904067
 34
0.0
 50
90.0
100
AcDbRotatedDimension
1001
ACAD_DIMASSOC_CALC_DIMLFAC
1040
-1.0
1001
ACAD_DIMASSOC_DIMLFAC
1040
-1.0
1001
ACAD_DIMASSOC_OVERRIDDEN_DIMLFAC
1040
0.0
1001
ACAD_DSTYLE_DIMJAG_POSITION
1070
   387
1070
     0
1070
   389
1010
0.0
1020
0.0
1030
0.0
1001
ACAD
1000
DSTYLE
1002
{
1070
   144
1040
1.0
1002
}
  0
DIMENSION
  5
2C4
330
70
100
AcDbEntity
  8
Dimensions
100
AcDbDimension
280
     0
  2
*D24
 10
14.498642
 20
9.661697
 30
0.0
 11
8.498642
 21
9.649695
 31
0.0
 70
    33
 71
     5
 42
120.00024
 73
     0
 74
     0
 75
     0
  3
Standard
100
AcDbAlignedDimension
 13
2.5
 23
8.958873
 33
0.0
 14
14.5
 24
8.982875
 34
0.0
1001
ACAD_DIMASSOC_CALC_DIMLFAC
1040
-10.0
1001
ACAD_DIMASSOC_DIMLFAC
1040
-10.0
1001
ACAD_DIMASSOC_OVERRIDDEN_DIMLFAC
1040
0.0
1001
ACAD_DSTYLE_DIMJAG_POSITION
1070
   387
1070
     0
1070
   389
1010
0.0
1020
0.0
1030
0.0
1001
ACAD
1000
DSTYLE
1002
{
1070
   144
1040
10.0
1070
   176
1070
   256
1070
   177
1070
   256
1002
}
  0
DIMENSION
  5
2D2
330
70
100
AcDbEntity
  8
Dimensions
100
AcDbDimension
280
     0
  2
*D25
 10
2.5
 20
9.190362
 30
0.0
 11
2.79419
 21
9.190362
 31
0.0
 70
   160
 71
     5
 42
6.0
 73
     0
 74
     0
 75
     0
  3
Standard
100
AcDbAlignedDimension
 13
3.1
 23
8.857875
 33
0.0
 14
2.5
 24
8.982875
 34
0.0
100
AcDbRotatedDimension
1001
ACAD_DIMASSOC_CALC_DIMLFAC
1040
-10.0
1001
ACAD_DIMASSOC_DIMLFAC
1040
-10.0
1001
ACAD_DIMASSOC_OVERRIDDEN_DIMLFAC
1040
0.0
1001
ACAD_DSTYLE_DIMJAG_POSITION
1070
   387
1070
     0
1070
   389
1010
0.0
1020
0.0
1030
0.0
1001
ACAD
1000
DSTYLE
1002
{
1070
   144
1040
10.0
1002
}
  0
DIMENSION
  5
2E0
330
70
100
AcDbEntity
  8
Dimensions
100
AcDbDimension
280
     0
  2
*D26
 10
3.1
 20
9.387885
 30
0.0
 11
3.7
 21
9.387885
 31
0.0
 70
    33
 71
     5
 42
12.0
 73
     0
 74
     0
 75
     0
  3
Standard
100
AcDbAlignedDimension
 13
4.3
 23
8.857875
 33
0.0
 14
3.1
 24
8.857875
 34
0.0
1001
ACAD_DIMASSOC_CALC_DIMLFAC
1040
-10.0
1001
ACAD_DIMASSOC_DIMLFAC
1040
-10.0
1001
ACAD_DIMASSOC_OVERRIDDEN_DIMLFAC
1040
0.0
1001
ACAD_DSTYLE_DIMJAG_POSITION
1070
   387
1070
     0
1070
   389
1010
0.0
1020
0.0
1030
0.0
1001
ACAD
1000
DSTYLE
1002
{
1070
   144
1040
10.0
1070
   176
1070
   256
1070
   177
1070
   256
1002
}
  0
DIMENSION
  5
2EE
330
70
100
AcDbEntity
  8
Dimensions
100
AcDbDimension
280
     0
  2
*D27
 10
12.7
 20
9.378387
 30
0.0
 11
13.3
 21
9.378387
 31
0.0
 70
    33
 71
     5
 42
12.0
 73
     0
 74
     0
 75
     0
  3
Standard
100
AcDbAlignedDimension
 13
13.9
 23
8.857875
 33
0.0
 14
12.7
 24
8.857875
 34
0.0
1001
ACAD_DIMASSOC_CALC_DIMLFAC
1040
-10.0
1001
ACAD_DIMASSOC_DIMLFAC
1040
-10.0
1001
ACAD_DIMASSOC_OVERRIDDEN_DIMLFAC
1040
0.0
1001
ACAD_DSTYLE_DIMJAG_POSITION
1070
   387
1070
     0
1070
   389
1010
0.0
1020
0.0
1030
0.0
1001
ACAD
1000
DSTYLE
1002
{
1070
   144
1040
10.0
1070
   176
1070
   256
1070
   177
1070
   256
1002
}
  0
DIMENSION
  5
2FC
330
70
100
AcDbEntity
  8
Dimensions
100
AcDbDimension
280
     0
  2
*D28
 10
14.5
 20
9.155084
 30
0.0
 11
14.201429
 21
9.155084
 31
0.0
 70
   160
 71
     5
 42
6.0
 73
     0
 74
     0
 75
     0
  3
Standard
100
AcDbAlignedDimension
 13
13.9
 23
8.857875
 33
0.0
 14
14.5
 24
8.970375
 34
0.0
100
AcDbRotatedDimension
1001
ACAD_DIMASSOC_CALC_DIMLFAC
1040
-10.0
1001
ACAD_DIMASSOC_DIMLFAC
1040
-10.0
1001
ACAD_DIMASSOC_OVERRIDDEN_DIMLFAC
1040
0.0
1001
ACAD_DSTYLE_DIMJAG_POSITION
1070
   387
1070
     0
1070
   389
1010
0.0
1020
0.0
1030
0.0
1001
ACAD
1000
DSTYLE
1002
{
1070
   144
1040
10.0
1002
}
  0
MTEXT
  5
30A
102
{ACAD_XDICTIONARY
360
30B
102
}
330
70
100
AcDbEntity
  8
Annotations
100
AcDbMText
 10
3.52354
 20
3.422018
 30
0.0
 40
0.24
 41
1.702101
 46
0.768186
 71
     2
 72
     5
  1
DETAIL A\PSCALE 1:1
 73
     1
 44
1.0
  0
DIMENSION
  5
312
330
70
100
AcDbEntity
  8
Dimensions
100
AcDbDimension
280
     0
  2
*D29
 10
3.826357
 20
5.234205
 30
0.0
 11
2.564512
 21
6.190446
 31
0.0
 70
   163
 71
     5
 42
0.875
 73
     0
 74
     0
 75
     0
  3
Standard
100
AcDbDiametricDimension
 15
3.220723
 25
5.865736
 35
0.0
 40
0.0
1001
ACAD_DIMASSOC_CALC_DIMLFAC
1040
-1.0
1001
ACAD_DIMASSOC_DIMLFAC
1040
-1.0
1001
ACAD_DIMASSOC_OVERRIDDEN_DIMLFAC
1040
0.0
1001
ACAD_DSTYLE_DIMJAG_POSITION
1070
   387
1070
     0
1070
   389
1010
0.0
1020
0.0
1030
0.0
1001
ACAD_DSTYLE_DIMRADIAL_EXTENSION
1070
   387
1070
     1
1070
   388
1040
2.050105
1070
   390
1040
3.130164
1001
ACAD
1000
DSTYLE
1002
{
1070
   144
1040
1.0
1070
   288
1070
     1
1002
}
  0
DIMENSION
  5
31C
330
70
100
AcDbEntity
  8
Dimensions
100
AcDbDimension
280
     0
  2
*D30
 10
3.758956
 20
5.468853
 30
0.0
 11
2.614711
 21
5.744243
 31
0.0
 70
   163
 71
     5
 42
0.498
 73
     0
 74
     0
 75
     0
  3
Standard
100
AcDbDiametricDimension
 15
3.288123
 25
5.631088
 35
0.0
 40
0.0
1001
ACAD_DIMASSOC_CALC_DIMLFAC
1040
-1.0
1001
ACAD_DIMASSOC_DIMLFAC
1040
-1.0
1001
ACAD_DIMASSOC_OVERRIDDEN_DIMLFAC
1040
0.0
1001
ACAD_DSTYLE_DIMJAG_POSITION
1070
   387
1070
     0
1070
   389
1010
0.0
1020
0.0
1030
0.0
1001
ACAD_DSTYLE_DIMRADIAL_EXTENSION
1070
   387
1070
     1
1070
   388
1040
0.0
1070
   390
1040
0.0
1001
ACAD
1000
DSTYLE
1002
{
1070
   144
1040
1.0
1070
   288
1070
     1
1002
}
  0
DIMENSION
  5
326
330
70
100
AcDbEntity
  8
Dimensions
100
AcDbDimension
280
     0
  2
*D31
 10
8.814187
 20
5.284099
 30
0.0
 11
8.376687
 21
5.284099
 31
0.0
 70
    33
 71
     5
 42
0.875
 73
     0
 74
     0
 75
     0
  3
Standard
100
AcDbAlignedDimension
 13
7.939187
 23
3.669869
 33
0.0
 14
8.814187
 24
3.669869
 34
0.0
1001
ACAD_DIMASSOC_CALC_DIMLFAC
1040
-1.0
1001
ACAD_DIMASSOC_DIMLFAC
1040
-1.0
1001
ACAD_DIMASSOC_OVERRIDDEN_DIMLFAC
1040
0.0
1001
ACAD_DSTYLE_DIMJAG_POSITION
1070
   387
1070
     0
1070
   389
1010
0.0
1020
0.0
1030
0.0
1001
ACAD
1000
DSTYLE
1002
{
1070
   144
1040
1.0
1070
   176
1070
   256
1070
   177
1070
   256
1002
}
  0
DIMENSION
  5
334
330
70
100
AcDbEntity
  8
Dimensions
100
AcDbDimension
280
     0
  2
*D32
 10
8.625687
 20
4.360839
 30
0.0
 11
8.3924
 21
4.360839
 31
0.0
 70
   161
 71
     5
 42
0.498
 73
     0
 74
     0
 75
     0
  3
Standard
100
AcDbAlignedDimension
 13
8.127687
 23
3.206567
 33
0.0
 14
8.625687
 24
3.206567
 34
0.0
1001
ACAD_DIMASSOC_CALC_DIMLFAC
1040
-1.0
1001
ACAD_DIMASSOC_DIMLFAC
1040
-1.0
1001
ACAD_DIMASSOC_OVERRIDDEN_DIMLFAC
1040
0.0
1001
ACAD_DSTYLE_DIMJAG_POSITION
1070
   387
1070
     0
1070
   389
1010
0.0
1020
0.0
1030
0.0
1001
ACAD
1000
DSTYLE
1002
{
1070
   144
1040
1.0
1002
}
  0
MTEXT
  5
342
330
70
100
AcDbEntity
  8
Annotations
100
AcDbMText
 10
8.207588
 20
5.626882
 30
0.0
 40
0.12
 41
0.62264
 46
0.0
 71
     1
 72
     5
  1
(10)
 73
     1
 44
1.0
1001
ACAD
1000
ACAD_MTEXT_COLUMN_INFO_BEGIN
1070
    75
1070
     2
1070
    79
1070
     0
1070
    76
1070
     1
1070
    78
1070
     0
1070
    48
1040
0.62264
1070
    49
1040
0.6
1070
    50
1070
     1
1040
0.0
1000
ACAD_MTEXT_COLUMN_INFO_END
  0
MTEXT
  5
343
330
70
100
AcDbEntity
  8
Annotations
100
AcDbMText
 10
8.220614
 20
4.71942
 30
0.0
 40
0.12
 41
0.343466
 46
0.0
 71
     1
 72
     5
  1
(10)
 73
     1
 44
1.0
1001
ACAD
1000
ACAD_MTEXT_COLUMN_INFO_BEGIN
1070
    75
1070
     2
1070
    79
1070
     0
1070
    76
1070
     1
1070
    78
1070
     0
1070
    48
1040
0.343466
1070
    49
1040
0.6
1070
    50
1070
     1
1040
0.0
1000
ACAD_MTEXT_COLUMN_INFO_END
  0
DIMENSION
  5
344
330
70
100
AcDbEntity
  8
Dimensions
100
AcDbDimension
280
     0
  2
*D33
 10
9.216687
 20
6.808989
 30
0.0
 11
8.376687
 21
6.808989
 31
0.0
 70
   160
 71
     5
 42
1.68
 73
     0
 74
     0
 75
     0
  3
Standard
100
AcDbAlignedDimension
 13
7.536687
 23
6.459067
 33
0.0
 14
9.216687
 24
6.459067
 34
0.0
 50
180.0
100
AcDbRotatedDimension
1001
ACAD_DIMASSOC_CALC_DIMLFAC
1040
-1.0
1001
ACAD_DIMASSOC_DIMLFAC
1040
-1.0
1001
ACAD_DIMASSOC_OVERRIDDEN_DIMLFAC
1040
0.0
1001
ACAD_DSTYLE_DIMJAG_POSITION
1070
   387
1070
     0
1070
   389
1010
0.0
1020
0.0
1030
0.0
1001
ACAD
1000
DSTYLE
1002
{
1070
   144
1040
1.0
1070
   271
1070
     4
1070
   272
1070
     4
1002
}
  0
DIMENSION
  5
352
330
70
100
AcDbEntity
  8
Dimensions
100
AcDbDimension
280
     0
  2
*D34
 10
6.902898
 20
3.206567
 30
0.0
 11
6.902898
 21
3.050317
 31
0.0
 70
   160
 71
     5
 42
0.3125
 73
     0
 74
     0
 75
     0
  3
Standard
100
AcDbAlignedDimension
 13
7.136687
 23
2.894067
 33
0.0
 14
7.974187
 24
3.206567
 34
0.0
 50
90.0
100
AcDbRotatedDimension
1001
ACAD_DIMASSOC_CALC_DIMLFAC
1040
-1.0
1001
ACAD_DIMASSOC_DIMLFAC
1040
-1.0
1001
ACAD_DIMASSOC_OVERRIDDEN_DIMLFAC
1040
0.0
1001
ACAD_DSTYLE_DIMJAG_POSITION
1070
   387
1070
     0
1070
   389
1010
0.0
1020
0.0
1030
0.0
1001
ACAD
1000
DSTYLE
1002
{
1070
   144
1040
1.0
1070
   176
1070
     0
1070
   177
1070
     0
1002
}
  0
DIMENSION
  5
360
330
70
100
AcDbEntity
  8
Dimensions
100
AcDbDimension
280
     0
  2
*D35
 10
6.563486
 20
3.206567
 30
0.0
 11
6.563486
 21
3.425317
 31
0.0
 70
    32
 71
     5
 42
0.4375
 73
     0
 74
     0
 75
     0
  3
Standard
100
AcDbAlignedDimension
 13
8.381687
 23
3.644067
 33
0.0
 14
7.974187
 24
3.206567
 34
0.0
 50
90.0
100
AcDbRotatedDimension
1001
ACAD_DIMASSOC_CALC_DIMLFAC
1040
-1.0
1001
ACAD_DIMASSOC_DIMLFAC
1040
-1.0
1001
ACAD_DIMASSOC_OVERRIDDEN_DIMLFAC
1040
0.0
1001
ACAD_DSTYLE_DIMJAG_POSITION
1070
   387
1070
     0
1070
   389
1010
0.0
1020
0.0
1030
0.0
1001
ACAD
1000
DSTYLE
1002
{
1070
   144
1040
1.0
1070
   176
1070
   256
1070
   177
1070
   256
1002
}
  0
DIMENSION
  5
36E
330
70
100
AcDbEntity
  8
Dimensions
100
AcDbDimension
280
     0
  2
*D36
 10
6.225393
 20
2.894067
 30
0.0
 11
6.225393
 21
3.269067
 31
0.0
 70
   160
 71
     5
 42
0.75
 73
     0
 74
     0
 75
     0
  3
Standard
100
AcDbAlignedDimension
 13
8.381687
 23
3.644067
 33
0.0
 14
9.141687
 24
2.894067
 34
0.0
 50
90.0
100
AcDbRotatedDimension
1001
ACAD_DIMASSOC_CALC_DIMLFAC
1040
-1.0
1001
ACAD_DIMASSOC_DIMLFAC
1040
-1.0
1001
ACAD_DIMASSOC_OVERRIDDEN_DIMLFAC
1040
0.0
1001
ACAD_DSTYLE_DIMJAG_POSITION
1070
   387
1070
     0
1070
   389
1010
0.0
1020
0.0
1030
0.0
1001
ACAD
1000
DSTYLE
1002
{
1070
   144
1040
1.0
1002
}
  0
ARC
  5
5EC
330
70
100
AcDbEntity
  8
Visible
100
AcDbCircle
 10
-8.779187
 20
3.394067
 30
-60.0
 40
0.0624999999999992
210
0.0000000000000001
220
0.0
230
-1.0
100
AcDbArc
 50
90.0
 51
180.0
  0
LINE
  5
5ED
330
70
100
AcDbEntity
  8
Visible
100
AcDbLine
 10
7.974187
 20
3.456567
 30
60.0
 11
8.779187
 21
3.456567
 31
60.0
210
0.0
220
1.0
230
0.0
  0
ARC
  5
5EE
330
70
100
AcDbEntity
  8
Visible
100
AcDbCircle
 10
7.988487
 20
3.704067
 30
60.0
 40
0.0600000000000022
100
AcDbArc
 50
183.052883
 51
270.0
  0
LINE
  5
5EF
330
70
100
AcDbEntity
  8
Visible
100
AcDbLine
 10
7.988487
 20
3.644067
 30
60.0
 11
8.371687
 21
3.644067
 31
60.0
210
0.0
220
1.0
230
0.0
  0
LINE
  5
5F0
330
70
100
AcDbEntity
  8
Visible
100
AcDbLine
 10
8.371687
 20
3.644067
 30
60.0
 11
8.376687
 21
3.639067
 31
60.0
210
0.0
220
1.0
230
0.0
  0
LINE
  5
5F1
330
70
100
AcDbEntity
  8
Visible
100
AcDbLine
 10
8.376687
 20
3.639067
 30
60.0
 11
8.381687
 21
3.644067
 31
60.0
210
0.0
220
1.0
230
0.0
  0
LINE
  5
5F2
330
70
100
AcDbEntity
  8
Visible
100
AcDbLine
 10
8.381687
 20
3.644067
 30
60.0
 11
8.764887
 21
3.644067
 31
60.0
210
0.0
220
1.0
230
0.0
  0
ARC
  5
5F3
330
70
100
AcDbEntity
  8
Visible
100
AcDbCircle
 10
-7.682202
 20
3.129067
 30
-60.0
 40
0.0599999999999996
210
0.0000000000000001
220
0.0
230
-1.0
100
AcDbArc
 50
135.0
 51
270.0
  0
LINE
  5
5F4
330
70
100
AcDbEntity
  8
Visible
100
AcDbLine
 10
7.682202
 20
3.069067
 30
60.0
 11
7.336687
 21
3.069067
 31
60.0
210
0.0
220
1.0
230
0.0
  0
ARC
  5
5F5
330
70
100
AcDbEntity
  8
Visible
100
AcDbCircle
 10
-7.336687
 20
3.129067
 30
-60.0
 40
0.0600000000000004
210
0.0000000000000001
220
0.0
230
-1.0
100
AcDbArc
 50
270.0
 51
360.0
  0
LINE
  5
5F6
330
70
100
AcDbEntity
  8
Visible
100
AcDbLine
 10
7.276687
 20
3.129067
 30
60.0
 11
7.276687
 21
3.474582
 31
60.0
210
0.0
220
1.0
230
0.0
  0
ARC
  5
5F7
330
70
100
AcDbEntity
  8
Visible
100
AcDbCircle
 10
-7.336687
 20
3.474582
 30
-60.0
 40
0.0600000000000027
210
0.0000000000000001
220
0.0
230
-1.0
100
AcDbArc
 50
0.0
 51
135.0
  0
LINE
  5
5F8
330
70
100
AcDbEntity
  8
Visible
100
AcDbLine
 10
7.379114
 20
3.517008
 30
60.0
 11
7.724629
 21
3.171493
 31
60.0
210
0.0
220
1.0
230
0.0
  0
ARC
  5
5F9
330
70
100
AcDbEntity
  8
Visible
100
AcDbCircle
 10
-7.701687
 20
4.041567
 30
-60.0
 40
0.0600000000000007
210
0.0000000000000001
220
0.0
230
-1.0
100
AcDbArc
 50
180.0
 51
270.0
  0
LINE
  5
5FA
330
70
100
AcDbEntity
  8
Visible
100
AcDbLine
 10
7.701687
 20
3.981567
 30
60.0
 11
7.42154
 21
3.981567
 31
60.0
210
0.0
220
1.0
230
0.0
  0
ARC
  5
5FB
330
70
100
AcDbEntity
  8
Visible
100
AcDbCircle
 10
-7.42154
 20
4.041567
 30
-60.0
 40
0.0599999999999997
210
0.0000000000000001
220
0.0
230
-1.0
100
AcDbArc
 50
270.0
 51
45.0
  0
LINE
  5
5FC
330
70
100
AcDbEntity
  8
Visible
100
AcDbLine
 10
7.379114
 20
4.083993
 30
60.0
 11
7.659261
 21
4.36414
 31
60.0
210
0.0
220
1.0
230
0.0
  0
ARC
  5
5FD
330
70
100
AcDbEntity
  8
Visible
100
AcDbCircle
 10
-7.701687
 20
4.321714
 30
-60.0
 40
0.0599999999999996
210
0.0000000000000001
220
0.0
230
-1.0
100
AcDbArc
 50
45.0
 51
180.0
  0
LINE
  5
5FE
330
70
100
AcDbEntity
  8
Visible
100
AcDbLine
 10
7.761687
 20
4.321714
 30
60.0
 11
7.761687
 21
4.041567
 31
60.0
210
0.0
220
1.0
230
0.0
  0
ARC
  5
5FF
330
70
100
AcDbEntity
  8
Visible
100
AcDbCircle
 10
-7.974187
 20
3.269067
 30
-60.0
 40
0.0624999999999992
210
0.0000000000000001
220
0.0
230
-1.0
100
AcDbArc
 50
270.0
 51
0.0
  0
LINE
  5
600
330
70
100
AcDbEntity
  8
Visible
100
AcDbLine
 10
7.911687
 20
3.269067
 30
60.0
 11
7.911687
 21
3.394067
 31
60.0
210
0.0
220
1.0
230
0.0
  0
ARC
  5
601
330
70
100
AcDbEntity
  8
Visible
100
AcDbCircle
 10
-7.974187
 20
3.394067
 30
-60.0
 40
0.0625000000000016
210
0.0000000000000001
220
0.0
230
-1.0
100
AcDbArc
 50
360.0
 51
90.0
  0
LINE
  5
602
330
70
100
AcDbEntity
  8
Visible
100
AcDbLine
 10
8.841687
 20
3.394067
 30
60.0
 11
8.841687
 21
3.269067
 31
60.0
210
0.0
220
1.0
230
0.0
  0
ARC
  5
603
330
70
100
AcDbEntity
  8
Visible
100
AcDbCircle
 10
-8.779187
 20
3.269067
 30
-60.0
 40
0.0625000000000009
210
0.0000000000000001
220
0.0
230
-1.0
100
AcDbArc
 50
180.0
 51
270.0
  0
LINE
  5
604
330
70
100
AcDbEntity
  8
Visible
100
AcDbLine
 10
8.779187
 20
3.206567
 30
60.0
 11
7.974187
 21
3.206567
 31
60.0
210
0.0
220
1.0
230
0.0
  0
ARC
  5
605
330
70
100
AcDbEntity
  8
Visible
100
AcDbCircle
 10
-9.051687
 20
3.771567
 30
-60.0
 40
0.0600000000000014
210
0.0000000000000001
220
0.0
230
-1.0
100
AcDbArc
 50
0.0
 51
90.0
  0
LINE
  5
606
330
70
100
AcDbEntity
  8
Visible
100
AcDbLine
 10
9.051687
 20
3.831567
 30
60.0
 11
9.331834
 21
3.831567
 31
60.0
210
0.0
220
1.0
230
0.0
  0
ARC
  5
607
330
70
100
AcDbEntity
  8
Visible
100
AcDbCircle
 10
-9.331834
 20
3.771567
 30
-60.0
 40
0.0599999999999999
210
0.0000000000000001
220
0.0
230
-1.0
100
AcDbArc
 50
90.0
 51
225.0
  0
LINE
  5
608
330
70
100
AcDbEntity
  8
Visible
100
AcDbLine
 10
9.374261
 20
3.72914
 30
60.0
 11
9.094114
 21
3.448993
 31
60.0
210
0.0
220
1.0
230
0.0
  0
ARC
  5
609
330
70
100
AcDbEntity
  8
Visible
100
AcDbCircle
 10
-9.051687
 20
3.491419
 30
-60.0
 40
0.0599999999999996
210
0.0000000000000001
220
0.0
230
-1.0
100
AcDbArc
 50
225.0
 51
360.0
  0
LINE
  5
60A
330
70
100
AcDbEntity
  8
Visible
100
AcDbLine
 10
8.991687
 20
3.491419
 30
60.0
 11
8.991687
 21
3.771567
 31
60.0
210
0.0
220
1.0
230
0.0
  0
ARC
  5
60B
330
70
100
AcDbEntity
  8
Visible
100
AcDbCircle
 10
-9.051687
 20
4.321714
 30
-60.0
 40
0.0600000000000028
210
0.0000000000000001
220
0.0
230
-1.0
100
AcDbArc
 50
0.0
 51
135.0
  0
LINE
  5
60C
330
70
100
AcDbEntity
  8
Visible
100
AcDbLine
 10
9.094114
 20
4.36414
 30
60.0
 11
9.374261
 21
4.083993
 31
60.0
210
0.0
220
1.0
230
0.0
  0
ARC
  5
60D
330
70
100
AcDbEntity
  8
Visible
100
AcDbCircle
 10
-9.331834
 20
4.041567
 30
-60.0
 40
0.0600000000000004
210
0.0000000000000001
220
0.0
230
-1.0
100
AcDbArc
 50
135.0
 51
270.0
  0
LINE
  5
60E
330
70
100
AcDbEntity
  8
Visible
100
AcDbLine
 10
9.331834
 20
3.981567
 30
60.0
 11
9.051687
 21
3.981567
 31
60.0
210
0.0
220
1.0
230
0.0
  0
ARC
  5
60F
330
70
100
AcDbEntity
  8
Visible
100
AcDbCircle
 10
-9.051687
 20
4.041567
 30
-60.0
 40
0.0599999999999978
210
0.0000000000000001
220
0.0
230
-1.0
100
AcDbArc
 50
270.0
 51
360.0
  0
LINE
  5
610
330
70
100
AcDbEntity
  8
Visible
100
AcDbLine
 10
8.991687
 20
4.041567
 30
60.0
 11
8.991687
 21
4.321714
 31
60.0
210
0.0
220
1.0
230
0.0
  0
LINE
  5
611
330
70
100
AcDbEntity
  8
Visible
100
AcDbLine
 10
9.374261
 20
4.296125
 30
60.0
 11
9.028746
 21
4.64164
 31
60.0
210
0.0
220
1.0
230
0.0
  0
ARC
  5
612
330
70
100
AcDbEntity
  8
Visible
100
AcDbCircle
 10
-9.071172
 20
4.684067
 30
-60.0
 40
0.0600000000000032
210
0.0000000000000001
220
0.0
230
-1.0
100
AcDbArc
 50
315.0
 51
90.0
  0
LINE
  5
613
330
70
100
AcDbEntity
  8
Visible
100
AcDbLine
 10
9.071172
 20
4.744067
 30
60.0
 11
9.416687
 21
4.744067
 31
60.0
210
0.0
220
1.0
230
0.0
  0
ARC
  5
614
330
70
100
AcDbEntity
  8
Visible
100
AcDbCircle
 10
-9.416687
 20
4.684067
 30
-60.0
 40
0.0599999999999997
210
0.0000000000000001
220
0.0
230
-1.0
100
AcDbArc
 50
90.0
 51
180.0
  0
LINE
  5
615
330
70
100
AcDbEntity
  8
Visible
100
AcDbLine
 10
9.476687
 20
4.684067
 30
60.0
 11
9.476687
 21
4.338551
 31
60.0
210
0.0
220
1.0
230
0.0
  0
ARC
  5
616
330
70
100
AcDbEntity
  8
Visible
100
AcDbCircle
 10
-9.416687
 20
4.338551
 30
-60.0
 40
0.0600000000000007
210
0.0000000000000001
220
0.0
230
-1.0
100
AcDbArc
 50
180.0
 51
315.0
  0
ARC
  5
617
330
70
100
AcDbEntity
  8
Visible
100
AcDbCircle
 10
-9.416687
 20
3.474582
 30
-60.0
 40
0.0599999999999987
210
0.0000000000000001
220
0.0
230
-1.0
100
AcDbArc
 50
45.0
 51
180.0
  0
LINE
  5
618
330
70
100
AcDbEntity
  8
Visible
100
AcDbLine
 10
9.476687
 20
3.474582
 30
60.0
 11
9.476687
 21
3.129067
 31
60.0
210
0.0
220
1.0
230
0.0
  0
ARC
  5
619
330
70
100
AcDbEntity
  8
Visible
100
AcDbCircle
 10
-9.416687
 20
3.129067
 30
-60.0
 40
0.0599999999999972
210
0.0000000000000001
220
0.0
230
-1.0
100
AcDbArc
 50
180.0
 51
270.0
  0
LINE
  5
61A
330
70
100
AcDbEntity
  8
Visible
100
AcDbLine
 10
9.416687
 20
3.069067
 30
60.0
 11
9.071172
 21
3.069067
 31
60.0
210
0.0
220
1.0
230
0.0
  0
ARC
  5
61B
330
70
100
AcDbEntity
  8
Visible
100
AcDbCircle
 10
-9.071172
 20
3.129067
 30
-60.0
 40
0.0599999999999996
210
0.0000000000000001
220
0.0
230
-1.0
100
AcDbArc
 50
270.0
 51
45.0
  0
LINE
  5
61C
330
70
100
AcDbEntity
  8
Visible
100
AcDbLine
 10
9.028746
 20
3.171493
 30
60.0
 11
9.374261
 21
3.517008
 31
60.0
210
0.0
220
1.0
230
0.0
  0
ARC
  5
61D
330
70
100
AcDbEntity
  8
Visible
100
AcDbCircle
 10
-7.701687
 20
3.491419
 30
-60.0
 40
0.0600000000000024
210
0.0000000000000001
220
0.0
230
-1.0
100
AcDbArc
 50
180.0
 51
315.0
  0
LINE
  5
61E
330
70
100
AcDbEntity
  8
Visible
100
AcDbLine
 10
7.659261
 20
3.448993
 30
60.0
 11
7.379114
 21
3.72914
 31
60.0
210
0.0
220
1.0
230
0.0
  0
ARC
  5
61F
330
70
100
AcDbEntity
  8
Visible
100
AcDbCircle
 10
-7.42154
 20
3.771567
 30
-60.0
 40
0.06
210
0.0000000000000001
220
0.0
230
-1.0
100
AcDbArc
 50
315.0
 51
90.0
  0
LINE
  5
620
330
70
100
AcDbEntity
  8
Visible
100
AcDbLine
 10
7.42154
 20
3.831567
 30
60.0
 11
7.701687
 21
3.831567
 31
60.0
210
0.0
220
1.0
230
0.0
  0
ARC
  5
621
330
70
100
AcDbEntity
  8
Visible
100
AcDbCircle
 10
-7.701687
 20
3.771567
 30
-60.0
 40
0.0599999999999995
210
0.0000000000000001
220
0.0
230
-1.0
100
AcDbArc
 50
90.0
 51
180.0
  0
LINE
  5
622
330
70
100
AcDbEntity
  8
Visible
100
AcDbLine
 10
7.761687
 20
3.771567
 30
60.0
 11
7.761687
 21
3.491419
 31
60.0
210
0.0
220
1.0
230
0.0
  0
LINE
  5
623
330
70
100
AcDbEntity
  8
Visible
100
AcDbLine
 10
7.724629
 20
4.64164
 30
60.0
 11
7.379114
 21
4.296125
 31
60.0
210
0.0
220
1.0
230
0.0
  0
ARC
  5
624
330
70
100
AcDbEntity
  8
Visible
100
AcDbCircle
 10
-7.336687
 20
4.338551
 30
-60.0
 40
0.0600000000000023
210
0.0000000000000001
220
0.0
230
-1.0
100
AcDbArc
 50
225.0
 51
360.0
  0
LINE
  5
625
330
70
100
AcDbEntity
  8
Visible
100
AcDbLine
 10
7.276687
 20
4.338551
 30
60.0
 11
7.276687
 21
4.684067
 31
60.0
210
0.0
220
1.0
230
0.0
  0
ARC
  5
626
330
70
100
AcDbEntity
  8
Visible
100
AcDbCircle
 10
-7.336687
 20
4.684067
 30
-60.0
 40
0.0600000000000004
210
0.0000000000000001
220
0.0
230
-1.0
100
AcDbArc
 50
0.0
 51
90.0
  0
LINE
  5
627
330
70
100
AcDbEntity
  8
Visible
100
AcDbLine
 10
7.336687
 20
4.744067
 30
60.0
 11
7.682202
 21
4.744067
 31
60.0
210
0.0
220
1.0
230
0.0
  0
ARC
  5
628
330
70
100
AcDbEntity
  8
Visible
100
AcDbCircle
 10
-7.682202
 20
4.684067
 30
-60.0
 40
0.0600000000000021
210
0.0000000000000001
220
0.0
230
-1.0
100
AcDbArc
 50
90.0
 51
225.0
  0
LINE
  5
629
330
70
100
AcDbEntity
  8
Visible
100
AcDbLine
 10
7.928573
 20
3.700871
 30
60.0
 11
7.911687
 21
4.01747
 31
60.0
210
0.0
220
1.0
230
0.0
  0
LINE
  5
62A
330
70
100
AcDbEntity
  8
Visible
100
AcDbLine
 10
7.911687
 20
4.01747
 30
60.0
 11
7.911687
 21
4.834067
 31
60.0
210
0.0
220
1.0
230
0.0
  0
ARC
  5
62B
330
70
100
AcDbEntity
  8
Visible
100
AcDbCircle
 10
7.851687
 20
4.834067
 30
60.0
 40
0.0600000000000032
100
AcDbArc
 50
0.0
 51
90.0
  0
LINE
  5
62C
330
70
100
AcDbEntity
  8
Visible
100
AcDbLine
 10
7.851687
 20
4.894067
 30
60.0
 11
7.596687
 21
4.894067
 31
60.0
210
0.0
220
1.0
230
0.0
  0
ARC
  5
62D
330
70
100
AcDbEntity
  8
Visible
100
AcDbCircle
 10
7.596687
 20
4.954067
 30
60.0
 40
0.0599999999999996
100
AcDbArc
 50
180.0
 51
270.0
  0
LINE
  5
62E
330
70
100
AcDbEntity
  8
Visible
100
AcDbLine
 10
7.536687
 20
4.954067
 30
60.0
 11
7.536687
 21
5.009067
 31
60.0
210
0.0
220
1.0
230
0.0
  0
ARC
  5
62F
330
70
100
AcDbEntity
  8
Visible
100
AcDbCircle
 10
7.526687
 20
5.009067
 30
60.0
 40
0.0100000000000014
100
AcDbArc
 50
0.0
 51
90.0
  0
LINE
  5
630
330
70
100
AcDbEntity
  8
Visible
100
AcDbLine
 10
7.526687
 20
5.019067
 30
60.0
 11
7.516687
 21
5.019067
 31
60.0
210
0.0
220
1.0
230
0.0
  0
ARC
  5
631
330
70
100
AcDbEntity
  8
Visible
100
AcDbCircle
 10
7.516687
 20
5.029067
 30
60.0
 40
0.0100000000000016
100
AcDbArc
 50
180.0
 51
270.0
  0
LINE
  5
632
330
70
100
AcDbEntity
  8
Visible
100
AcDbLine
 10
7.506687
 20
5.029067
 30
60.0
 11
7.506687
 21
5.321567
 31
60.0
210
0.0
220
1.0
230
0.0
  0
ARC
  5
633
330
70
100
AcDbEntity
  8
Visible
100
AcDbCircle
 10
7.516687
 20
5.321567
 30
60.0
 40
0.0099999999999977
100
AcDbArc
 50
90.0
 51
180.0
  0
LINE
  5
634
330
70
100
AcDbEntity
  8
Visible
100
AcDbLine
 10
7.516687
 20
5.331567
 30
60.0
 11
7.526687
 21
5.331567
 31
60.0
210
0.0
220
1.0
230
0.0
  0
ARC
  5
635
330
70
100
AcDbEntity
  8
Visible
100
AcDbCircle
 10
7.526687
 20
5.341567
 30
60.0
 40
0.0100000000000015
100
AcDbArc
 50
270.0
 51
360.0
  0
LINE
  5
636
330
70
100
AcDbEntity
  8
Visible
100
AcDbLine
 10
7.536687
 20
5.341567
 30
60.0
 11
7.536687
 21
6.459067
 31
60.0
210
0.0
220
1.0
230
0.0
  0
ARC
  5
637
330
70
100
AcDbEntity
  8
Visible
100
AcDbCircle
 10
7.476687
 20
6.459067
 30
60.0
 40
0.0600000000000028
100
AcDbArc
 50
0.0
 51
90.0
  0
LINE
  5
638
330
70
100
AcDbEntity
  8
Visible
100
AcDbLine
 10
7.476687
 20
6.519067
 30
60.0
 11
7.395639
 21
6.519067
 31
60.0
210
0.0
220
1.0
230
0.0
  0
ARC
  5
639
330
70
100
AcDbEntity
  8
Visible
100
AcDbCircle
 10
7.395639
 20
6.581567
 30
60.0
 40
0.0625000000000099
100
AcDbArc
 50
165.0
 51
270.0
  0
LINE
  5
63A
330
70
100
AcDbEntity
  8
Visible
100
AcDbLine
 10
7.335269
 20
6.597743
 30
60.0
 11
7.357002
 21
6.678852
 31
60.0
210
0.0
220
1.0
230
0.0
  0
ARC
  5
63B
330
70
100
AcDbEntity
  8
Visible
100
AcDbCircle
 10
7.328024
 20
6.686616
 30
60.0
 40
0.0300000000000085
100
AcDbArc
 50
345.0
 51
75.0
  0
LINE
  5
63C
330
70
100
AcDbEntity
  8
Visible
100
AcDbLine
 10
7.335788
 20
6.715594
 30
60.0
 11
7.31647
 21
6.72077
 31
60.0
210
0.0
220
1.0
230
0.0
  0
ARC
  5
63D
330
70
100
AcDbEntity
  8
Visible
100
AcDbCircle
 10
7.329411
 20
6.769067
 30
60.0
 40
0.0500000000000006
100
AcDbArc
 50
75.0
 51
255.0
  0
LINE
  5
63E
330
70
100
AcDbEntity
  8
Visible
100
AcDbLine
 10
7.342352
 20
6.817363
 30
60.0
 11
7.36167
 21
6.812186
 31
60.0
210
0.0
220
1.0
230
0.0
  0
ARC
  5
63F
330
70
100
AcDbEntity
  8
Visible
100
AcDbCircle
 10
7.369435
 20
6.841164
 30
60.0
 40
0.0299999999999968
100
AcDbArc
 50
255.0
 51
345.0
  0
LINE
  5
640
330
70
100
AcDbEntity
  8
Visible
100
AcDbLine
 10
7.398413
 20
6.8334
 30
60.0
 11
7.427081
 21
6.94039
 31
60.0
210
0.0
220
1.0
230
0.0
  0
ARC
  5
641
330
70
100
AcDbEntity
  8
Visible
100
AcDbCircle
 10
7.36671
 20
6.956567
 30
60.0
 40
0.0624999999999874
100
AcDbArc
 50
345.0
 51
90.0
  0
LINE
  5
642
330
70
100
AcDbEntity
  8
Visible
100
AcDbLine
 10
7.36671
 20
7.019067
 30
60.0
 11
7.251687
 21
7.019067
 31
60.0
210
0.0
220
1.0
230
0.0
  0
ARC
  5
643
330
70
100
AcDbEntity
  8
Visible
100
AcDbCircle
 10
7.251687
 20
6.894067
 30
60.0
 40
0.1250000000000017
100
AcDbArc
 50
90.0
 51
180.0
  0
LINE
  5
644
330
70
100
AcDbEntity
  8
Visible
100
AcDbLine
 10
7.126687
 20
6.894067
 30
60.0
 11
7.126687
 21
2.904067
 31
60.0
210
0.0
220
1.0
230
0.0
  0
ARC
  5
645
330
70
100
AcDbEntity
  8
Visible
100
AcDbCircle
 10
7.136687
 20
2.904067
 30
60.0
 40
0.0099999999999998
100
AcDbArc
 50
180.0
 51
270.0
  0
LINE
  5
646
330
70
100
AcDbEntity
  8
Visible
100
AcDbLine
 10
7.136687
 20
2.894067
 30
60.0
 11
7.611687
 21
2.894067
 31
60.0
210
0.0
220
1.0
230
0.0
  0
ARC
  5
647
330
70
100
AcDbEntity
  8
Visible
100
AcDbCircle
 10
7.611687
 20
2.909067
 30
60.0
 40
0.0150000000000005
100
AcDbArc
 50
270.0
 51
360.0
  0
LINE
  5
648
330
70
100
AcDbEntity
  8
Visible
100
AcDbLine
 10
7.626687
 20
2.909067
 30
60.0
 11
7.626687
 21
2.941567
 31
60.0
210
0.0
220
1.0
230
0.0
  0
ARC
  5
649
330
70
100
AcDbEntity
  8
Visible
100
AcDbCircle
 10
7.641687
 20
2.941567
 30
60.0
 40
0.0149999999999984
100
AcDbArc
 50
90.0
 51
180.0
  0
LINE
  5
64A
330
70
100
AcDbEntity
  8
Visible
100
AcDbLine
 10
9.111687
 20
2.956567
 30
60.0
 11
7.641687
 21
2.956567
 31
60.0
210
0.0
220
1.0
230
0.0
  0
ARC
  5
64B
330
70
100
AcDbEntity
  8
Visible
100
AcDbCircle
 10
9.111687
 20
2.941567
 30
60.0
 40
0.0149999999999993
100
AcDbArc
 50
0.0
 51
90.0
  0
LINE
  5
64C
330
70
100
AcDbEntity
  8
Visible
100
AcDbLine
 10
9.126687
 20
2.909067
 30
60.0
 11
9.126687
 21
2.941567
 31
60.0
210
0.0
220
1.0
230
0.0
  0
ARC
  5
64D
330
70
100
AcDbEntity
  8
Visible
100
AcDbCircle
 10
9.141687
 20
2.909067
 30
60.0
 40
0.0150000000000025
100
AcDbArc
 50
180.0
 51
270.0
  0
LINE
  5
64E
330
70
100
AcDbEntity
  8
Visible
100
AcDbLine
 10
9.616687
 20
2.894067
 30
60.0
 11
9.141687
 21
2.894067
 31
60.0
210
0.0
220
1.0
230
0.0
  0
ARC
  5
64F
330
70
100
AcDbEntity
  8
Visible
100
AcDbCircle
 10
9.616687
 20
2.904067
 30
60.0
 40
0.0099999999999999
100
AcDbArc
 50
270.0
 51
360.0
  0
LINE
  5
650
330
70
100
AcDbEntity
  8
Visible
100
AcDbLine
 10
9.626687
 20
6.894067
 30
60.0
 11
9.626687
 21
2.904067
 31
60.0
210
0.0
220
1.0
230
0.0
  0
ARC
  5
651
330
70
100
AcDbEntity
  8
Visible
100
AcDbCircle
 10
9.501687
 20
6.894067
 30
60.0
 40
0.1249999999999978
100
AcDbArc
 50
360.0
 51
90.0
  0
LINE
  5
652
330
70
100
AcDbEntity
  8
Visible
100
AcDbLine
 10
9.386664
 20
7.019067
 30
60.0
 11
9.501687
 21
7.019067
 31
60.0
210
0.0
220
1.0
230
0.0
  0
ARC
  5
653
330
70
100
AcDbEntity
  8
Visible
100
AcDbCircle
 10
9.386664
 20
6.956567
 30
60.0
 40
0.0624999999999956
100
AcDbArc
 50
90.0
 51
195.0
  0
LINE
  5
654
330
70
100
AcDbEntity
  8
Visible
100
AcDbLine
 10
9.354962
 20
6.8334
 30
60.0
 11
9.326294
 21
6.94039
 31
60.0
210
0.0
220
1.0
230
0.0
  0
ARC
  5
655
330
70
100
AcDbEntity
  8
Visible
100
AcDbCircle
 10
9.38394
 20
6.841164
 30
60.0
 40
0.0299999999999943
100
AcDbArc
 50
195.0
 51
285.0
  0
LINE
  5
656
330
70
100
AcDbEntity
  8
Visible
100
AcDbLine
 10
9.411023
 20
6.817363
 30
60.0
 11
9.391704
 21
6.812186
 31
60.0
210
0.0
220
1.0
230
0.0
  0
ARC
  5
657
330
70
100
AcDbEntity
  8
Visible
100
AcDbCircle
 10
9.423964
 20
6.769067
 30
60.0
 40
0.0500000000000014
100
AcDbArc
 50
285.0
 51
105.0
  0
LINE
  5
658
330
70
100
AcDbEntity
  8
Visible
100
AcDbLine
 10
9.417586
 20
6.715594
 30
60.0
 11
9.436905
 21
6.72077
 31
60.0
210
0.0
220
1.0
230
0.0
  0
ARC
  5
659
330
70
100
AcDbEntity
  8
Visible
100
AcDbCircle
 10
9.425351
 20
6.686616
 30
60.0
 40
0.0300000000000047
100
AcDbArc
 50
105.0
 51
195.0
  0
LINE
  5
65A
330
70
100
AcDbEntity
  8
Visible
100
AcDbLine
 10
9.418106
 20
6.597743
 30
60.0
 11
9.396373
 21
6.678852
 31
60.0
210
0.0
220
1.0
230
0.0
  0
ARC
  5
65B
330
70
100
AcDbEntity
  8
Visible
100
AcDbCircle
 10
9.357736
 20
6.581567
 30
60.0
 40
0.0625000000000047
100
AcDbArc
 50
270.0
 51
15.0
  0
LINE
  5
65C
330
70
100
AcDbEntity
  8
Visible
100
AcDbLine
 10
9.276687
 20
6.519067
 30
60.0
 11
9.357736
 21
6.519067
 31
60.0
210
0.0
220
1.0
230
0.0
  0
ARC
  5
65D
330
70
100
AcDbEntity
  8
Visible
100
AcDbCircle
 10
9.276687
 20
6.459067
 30
60.0
 40
0.0599999999999993
100
AcDbArc
 50
90.0
 51
180.0
  0
LINE
  5
65E
330
70
100
AcDbEntity
  8
Visible
100
AcDbLine
 10
9.216687
 20
5.341567
 30
60.0
 11
9.216687
 21
6.459067
 31
60.0
210
0.0
220
1.0
230
0.0
  0
ARC
  5
65F
330
70
100
AcDbEntity
  8
Visible
100
AcDbCircle
 10
9.226687
 20
5.341567
 30
60.0
 40
0.0099999999999998
100
AcDbArc
 50
180.0
 51
270.0
  0
LINE
  5
660
330
70
100
AcDbEntity
  8
Visible
100
AcDbLine
 10
9.236687
 20
5.331567
 30
60.0
 11
9.226687
 21
5.331567
 31
60.0
210
0.0
220
1.0
230
0.0
  0
ARC
  5
661
330
70
100
AcDbEntity
  8
Visible
100
AcDbCircle
 10
9.236687
 20
5.321567
 30
60.0
 40
0.009999999999998
100
AcDbArc
 50
0.0
 51
90.0
  0
LINE
  5
662
330
70
100
AcDbEntity
  8
Visible
100
AcDbLine
 10
9.246687
 20
5.029067
 30
60.0
 11
9.246687
 21
5.321567
 31
60.0
210
0.0
220
1.0
230
0.0
  0
ARC
  5
663
330
70
100
AcDbEntity
  8
Visible
100
AcDbCircle
 10
9.236687
 20
5.029067
 30
60.0
 40
0.0100000000000015
100
AcDbArc
 50
270.0
 51
360.0
  0
LINE
  5
664
330
70
100
AcDbEntity
  8
Visible
100
AcDbLine
 10
9.226687
 20
5.019067
 30
60.0
 11
9.236687
 21
5.019067
 31
60.0
210
0.0
220
1.0
230
0.0
  0
ARC
  5
665
330
70
100
AcDbEntity
  8
Visible
100
AcDbCircle
 10
9.226687
 20
5.009067
 30
60.0
 40
0.0100000000000015
100
AcDbArc
 50
90.0
 51
180.0
  0
LINE
  5
666
330
70
100
AcDbEntity
  8
Visible
100
AcDbLine
 10
9.216687
 20
4.954067
 30
60.0
 11
9.216687
 21
5.009067
 31
60.0
210
0.0
220
1.0
230
0.0
  0
ARC
  5
667
330
70
100
AcDbEntity
  8
Visible
100
AcDbCircle
 10
9.156687
 20
4.954067
 30
60.0
 40
0.0599999999999951
100
AcDbArc
 50
270.0
 51
360.0
  0
LINE
  5
668
330
70
100
AcDbEntity
  8
Visible
100
AcDbLine
 10
8.901687
 20
4.894067
 30
60.0
 11
9.156687
 21
4.894067
 31
60.0
210
0.0
220
1.0
230
0.0
  0
ARC
  5
669
330
70
100
AcDbEntity
  8
Visible
100
AcDbCircle
 10
8.901687
 20
4.834067
 30
60.0
 40
0.06
100
AcDbArc
 50
90.0
 51
180.0
  0
LINE
  5
66A
330
70
100
AcDbEntity
  8
Visible
100
AcDbLine
 10
8.841687
 20
4.01747
 30
60.0
 11
8.841687
 21
4.834067
 31
60.0
210
0.0
220
1.0
230
0.0
  0
LINE
  5
66B
330
70
100
AcDbEntity
  8
Visible
100
AcDbLine
 10
8.824802
 20
3.700871
 30
60.0
 11
8.841687
 21
4.01747
 31
60.0
210
0.0
220
1.0
230
0.0
  0
ARC
  5
66C
330
70
100
AcDbEntity
  8
Visible
100
AcDbCircle
 10
8.764887
 20
3.704067
 30
60.0
 40
0.060000000000001
100
AcDbArc
 50
270.0
 51
356.947117
  0
LINE
  5
66D
330
70
100
AcDbEntity
  8
Hidden
100
AcDbLine
 10
8.625687
 20
3.206567
 30
54.0
 11
8.625687
 21
2.956567
 31
54.0
210
0.0
220
1.0
230
0.0
  0
LINE
  5
66E
330
70
100
AcDbEntity
  8
Hidden
100
AcDbLine
 10
8.127687
 20
3.206567
 30
54.0
 11
8.127687
 21
2.956567
 31
54.0
210
0.0
220
1.0
230
0.0
  0
LINE
  5
66F
330
70
100
AcDbEntity
  8
Hidden
100
AcDbLine
 10
7.939187
 20
3.445847
 30
54.0
 11
7.939187
 21
3.669869
 31
54.0
210
0.0
220
1.0
230
0.0
  0
LINE
  5
670
330
70
100
AcDbEntity
  8
Hidden
100
AcDbLine
 10
8.814187
 20
3.445847
 30
54.0
 11
8.814187
 21
3.669869
 31
54.0
210
0.0
220
1.0
230
0.0
  0
CIRCLE
  5
671
330
70
100
AcDbEntity
  8
Visible
100
AcDbCircle
 10
-13.9
 20
8.857875
 30
0.175
 40
0.0249
210
0.0
220
0.0
230
-1.0
  0
CIRCLE
  5
672
330
70
100
AcDbEntity
  8
Visible
100
AcDbCircle
 10
-11.5
 20
8.857875
 30
0.175
 40
0.0249
210
0.0
220
0.0
230
-1.0
  0
CIRCLE
  5
673
330
70
100
AcDbEntity
  8
Visible
100
AcDbCircle
 10
-9.1
 20
8.857875
 30
0.175
 40
0.0249
210
0.0
220
0.0
230
-1.0
  0
CIRCLE
  5
674
330
70
100
AcDbEntity
  8
Visible
100
AcDbCircle
 10
-6.7
 20
8.857875
 30
0.175
 40
0.0249
210
0.0
220
0.0
230
-1.0
  0
CIRCLE
  5
675
330
70
100
AcDbEntity
  8
Visible
100
AcDbCircle
 10
-4.3
 20
8.857875
 30
0.175
 40
0.0249
210
0.0
220
0.0
230
-1.0
  0
CIRCLE
  5
676
330
70
100
AcDbEntity
  8
Visible
100
AcDbCircle
 10
-3.1
 20
8.857875
 30
0.175
 40
0.0249
210
0.0
220
0.0
230
-1.0
  0
CIRCLE
  5
677
330
70
100
AcDbEntity
  8
Visible
100
AcDbCircle
 10
-5.5
 20
8.857875
 30
0.175
 40
0.0249
210
0.0
220
0.0
230
-1.0
  0
CIRCLE
  5
678
330
70
100
AcDbEntity
  8
Visible
100
AcDbCircle
 10
-7.9
 20
8.857875
 30
0.175
 40
0.0249
210
0.0
220
0.0
230
-1.0
  0
CIRCLE
  5
679
330
70
100
AcDbEntity
  8
Visible
100
AcDbCircle
 10
-10.3
 20
8.857875
 30
0.175
 40
0.0249
210
0.0
220
0.0
230
-1.0
  0
CIRCLE
  5
67A
330
70
100
AcDbEntity
  8
Visible
100
AcDbCircle
 10
-12.7
 20
8.857875
 30
0.175
 40
0.0249
210
0.0
220
0.0
230
-1.0
  0
SPLINE
  5
67B
330
70
100
AcDbEntity
  8
Visible
100
AcDbSpline
 70
     0
 71
     3
 72
    18
 73
    14
 74
     0
 42
0.000000001
 43
0.0000000001
 40
0.1280064322251449
 40
0.1280064322251449
 40
0.1280064322251449
 40
0.1280064322251449
 40
0.1290284598304
 40
0.1290284598304
 40
0.2296514482181928
 40
0.2296514482181928
 40
0.3302744366059856
 40
0.3302744366059856
 40
0.4308974249937784
 40
0.4308974249937784
 40
0.5315204133815712
 40
0.5315204133815712
 40
0.5325424409868371
 40
0.5325424409868371
 40
0.5325424409868371
 40
0.5325424409868371
 10
13.8798239984244
 20
8.896695353677728
 30
-0.1312500000000006
 10
13.8798544244737
 20
8.896711167078251
 30
-0.1312500000000006
 10
13.87988477236888
 20
8.896726894422954
 30
-0.131249937483026
 10
13.88289477481862
 20
8.898282340537548
 30
-0.1312377059693097
 10
13.88623390450698
 20
8.89955342964356
 30
-0.1306308517826396
 10
13.89310609248935
 20
8.901223264279337
 30
-0.1293268013315732
 10
13.89664590038717
 20
8.901625365779636
 30
-0.1286697924901163
 10
13.90335409961312
 20
8.901625365779636
 30
-0.1286697924901163
 10
13.90689390751106
 20
8.901223264279337
 30
-0.129326801331573
 10
13.91376609549331
 20
8.89955342964356
 30
-0.1306308517826394
 10
13.91710522518156
 20
8.898282340537548
 30
-0.1312377059693097
 10
13.92011522763153
 20
8.896726894422954
 30
-0.131249937483026
 10
13.9201455755267
 20
8.896711167078251
 30
-0.1312500000000006
 10
13.92017600157601
 20
8.896695353677728
 30
-0.1312500000000006
1001
ACAD_VIEW_EDGE_ID
1071
      155
1071
       -1
1071
        2
1071
        0
  0
ARC
  5
67C
330
70
100
AcDbEntity
  8
Visible
100
AcDbCircle
 10
-8.819055
 20
-0.12525
 30
-14.5
 40
0.0060000000000001
210
-1.0
220
0.0000000000000002
230
0.0
100
AcDbArc
 50
270.0
 51
356.947117
  0
ARC
  5
67D
330
70
100
AcDbEntity
  8
Visible
100
AcDbCircle
 10
-8.819055
 20
-0.12525
 30
-2.5
 40
0.0060000000000001
210
-1.0
220
0.0000000000000002
230
0.0
100
AcDbArc
 50
270.0
 51
356.947117
  0
SPLINE
  5
67E
330
70
100
AcDbEntity
  8
Visible
100
AcDbSpline
 70
     0
 71
     3
 72
    18
 73
    14
 74
     0
 42
0.000000001
 43
0.0000000001
 40
0.1280064322251281
 40
0.1280064322251281
 40
0.1280064322251281
 40
0.1280064322251281
 40
0.1290284598303991
 40
0.1290284598303991
 40
0.2296514482182017
 40
0.2296514482182017
 40
0.3302744366060042
 40
0.3302744366060042
 40
0.4308974249938067
 40
0.4308974249938067
 40
0.5315204133816092
 40
0.5315204133816092
 40
0.5325424409869105
 40
0.5325424409869105
 40
0.5325424409869105
 40
0.5325424409869105
 10
13.92017600157601
 20
8.819055377881454
 30
-0.1312500000000007
 10
13.9201455755267
 20
8.819039564480931
 30
-0.1312500000000007
 10
13.92011522763153
 20
8.819023837136114
 30
-0.1312499374830261
 10
13.91710522518156
 20
8.81746839102152
 30
-0.1312377059693096
 10
13.91376609549331
 20
8.816197301915508
 30
-0.1306308517826386
 10
13.90689390751106
 20
8.814527467279845
 30
-0.1293268013315713
 10
13.90335409961312
 20
8.814125365779659
 30
-0.1286697924901147
 10
13.89664590038717
 20
8.814125365779659
 30
-0.1286697924901147
 10
13.89310609248935
 20
8.814527467279845
 30
-0.1293268013315721
 10
13.88623390450698
 20
8.816197301915508
 30
-0.1306308517826394
 10
13.88289477481862
 20
8.81746839102152
 30
-0.1312377059693096
 10
13.87988477236888
 20
8.819023837136114
 30
-0.1312499374830261
 10
13.8798544244737
 20
8.819039564480931
 30
-0.1312500000000007
 10
13.8798239984244
 20
8.819055377881454
 30
-0.1312500000000007
1001
ACAD_VIEW_EDGE_ID
1071
      150
1071
       -1
1071
        2
1071
        0
  0
ARC
  5
67F
330
70
100
AcDbEntity
  8
Visible
100
AcDbCircle
 10
8.805375
 20
-0.01225
 30
14.5
 40
0.006
210
1.0
220
-0.0000000000000002
230
0.0
100
AcDbArc
 50
360.0
 51
90.0
  0
ARC
  5
680
330
70
100
AcDbEntity
  8
Visible
100
AcDbCircle
 10
-8.805375
 20
-0.01225
 30
-2.5
 40
0.006
210
-1.0
220
0.0000000000000002
230
0.0
100
AcDbArc
 50
90.0
 51
180.0
  0
SPLINE
  5
681
330
70
100
AcDbEntity
  8
Visible
100
AcDbSpline
 70
     0
 71
     3
 72
    18
 73
    14
 74
     0
 42
0.000000001
 43
0.0000000001
 40
0.1280064322251444
 40
0.1280064322251444
 40
0.1280064322251444
 40
0.1280064322251444
 40
0.1290284598304013
 40
0.1290284598304013
 40
0.2296514482181944
 40
0.2296514482181944
 40
0.3302744366059874
 40
0.3302744366059874
 40
0.4308974249937805
 40
0.4308974249937805
 40
0.5315204133815735
 40
0.5315204133815735
 40
0.5325424409868293
 40
0.5325424409868293
 40
0.5325424409868293
 40
0.5325424409868293
 10
11.47982399842442
 20
8.896695353677728
 30
-0.1312500000000006
 10
11.47985442447373
 20
8.896711167078251
 30
-0.1312500000000006
 10
11.4798847723689
 20
8.896726894422954
 30
-0.131249937483026
 10
11.48289477481887
 20
8.898282340537548
 30
-0.1312377059693097
 10
11.486233904507
 20
8.89955342964356
 30
-0.1306308517826396
 10
11.49310609248937
 20
8.901223264279337
 30
-0.1293268013315731
 10
11.49664590038719
 20
8.901625365779636
 30
-0.1286697924901161
 10
11.50335409961315
 20
8.901625365779636
 30
-0.1286697924901161
 10
11.50689390751108
 20
8.901223264279337
 30
-0.1293268013315728
 10
11.51376609549334
 20
8.89955342964356
 30
-0.1306308517826393
 10
11.51710522518146
 20
8.898282340537548
 30
-0.1312377059693097
 10
11.52011522763155
 20
8.896726894422954
 30
-0.131249937483026
 10
11.52014557552661
 20
8.896711167078251
 30
-0.1312500000000006
 10
11.52017600157592
 20
8.896695353677728
 30
-0.1312500000000006
1001
ACAD_VIEW_EDGE_ID
1071
      141
1071
       -1
1071
        2
1071
        0
  0
ARC
  5
682
330
70
100
AcDbEntity
  8
Visible
100
AcDbCircle
 10
-8.779875
 20
-0.00025
 30
-14.5
 40
0.0059999999999995
210
-1.0
220
0.0000000000000002
230
0.0
100
AcDbArc
 50
270.0
 51
360.0
  0
ARC
  5
683
330
70
100
AcDbEntity
  8
Visible
100
AcDbCircle
 10
-8.779875
 20
-0.00025
 30
-2.5
 40
0.0059999999999995
210
-1.0
220
0.0000000000000002
230
0.0
100
AcDbArc
 50
270.0
 51
360.0
  0
SPLINE
  5
684
330
70
100
AcDbEntity
  8
Visible
100
AcDbSpline
 70
     0
 71
     3
 72
    18
 73
    14
 74
     0
 42
0.000000001
 43
0.0000000001
 40
0.1280064322251311
 40
0.1280064322251311
 40
0.1280064322251311
 40
0.1280064322251311
 40
0.1290284598303979
 40
0.1290284598303979
 40
0.2296514482182001
 40
0.2296514482182001
 40
0.3302744366060023
 40
0.3302744366060023
 40
0.4308974249938046
 40
0.4308974249938046
 40
0.5315204133816068
 40
0.5315204133816068
 40
0.5325424409868586
 40
0.5325424409868586
 40
0.5325424409868586
 40
0.5325424409868586
 10
11.52017600157592
 20
8.819055377881454
 30
-0.1312500000000007
 10
11.52014557552661
 20
8.819039564480931
 30
-0.1312500000000007
 10
11.52011522763155
 20
8.819023837136114
 30
-0.1312499374830261
 10
11.51710522518146
 20
8.81746839102152
 30
-0.1312377059693097
 10
11.51376609549334
 20
8.816197301915508
 30
-0.1306308517826394
 10
11.50689390751108
 20
8.814527467279845
 30
-0.1293268013315722
 10
11.50335409961315
 20
8.814125365779659
 30
-0.1286697924901149
 10
11.49664590038719
 20
8.814125365779659
 30
-0.1286697924901149
 10
11.49310609248937
 20
8.814527467279845
 30
-0.1293268013315722
 10
11.486233904507
 20
8.816197301915508
 30
-0.1306308517826394
 10
11.48289477481864
 20
8.81746839102152
 30
-0.1312377059693097
 10
11.4798847723689
 20
8.819023837136114
 30
-0.1312499374830261
 10
11.47985442447373
 20
8.819039564480931
 30
-0.1312500000000007
 10
11.47982399842442
 20
8.819055377881454
 30
-0.1312500000000007
1001
ACAD_VIEW_EDGE_ID
1071
      136
1071
       -1
1071
        2
1071
        0
  0
ARC
  5
685
330
70
100
AcDbEntity
  8
Visible
100
AcDbCircle
 10
8.767875
 20
0.15025
 30
14.5
 40
0.0059999999999999
210
1.0
220
-0.0000000000000002
230
0.0
100
AcDbArc
 50
360.0
 51
90.0
  0
ARC
  5
686
330
70
100
AcDbEntity
  8
Visible
100
AcDbCircle
 10
-8.767875
 20
0.15025
 30
-2.5
 40
0.0059999999999999
210
-1.0
220
0.0000000000000002
230
0.0
100
AcDbArc
 50
90.0
 51
180.0
  0
SPLINE
  5
687
330
70
100
AcDbEntity
  8
Visible
100
AcDbSpline
 70
     0
 71
     3
 72
    18
 73
    14
 74
     0
 42
0.000000001
 43
0.0000000001
 40
0.1280064322251206
 40
0.1280064322251206
 40
0.1280064322251206
 40
0.1280064322251206
 40
0.1290284598304024
 40
0.1290284598304024
 40
0.2296514482181958
 40
0.2296514482181958
 40
0.3302744366059891
 40
0.3302744366059891
 40
0.4308974249937825
 40
0.4308974249937825
 40
0.5315204133815758
 40
0.5315204133815758
 40
0.5325424409868576
 40
0.5325424409868576
 40
0.5325424409868576
 40
0.5325424409868576
 10
9.079823998424444
 20
8.896695353677728
 30
-0.1312500000000006
 10
9.079854424473751
 20
8.896711167078251
 30
-0.1312500000000006
 10
9.079884772368814
 20
8.896726894422954
 30
-0.131249937483026
 10
9.082894774818896
 20
8.898282340537548
 30
-0.1312377059693096
 10
9.086233904507025
 20
8.89955342964356
 30
-0.1306308517826392
 10
9.093106092489279
 20
8.901223264279337
 30
-0.1293268013315727
 10
9.096645900387215
 20
8.901625365779636
 30
-0.1286697924901159
 10
9.10335409961317
 20
8.901625365779636
 30
-0.1286697924901159
 10
9.106893907510993
 20
8.901223264279337
 30
-0.1293268013315727
 10
9.11376609549336
 20
8.89955342964356
 30
-0.1306308517826392
 10
9.117105225181489
 20
8.898282340537548
 30
-0.1312377059693096
 10
9.120115227631458
 20
8.896726894422954
 30
-0.131249937483026
 10
9.120145575526635
 20
8.896711167078251
 30
-0.1312500000000006
 10
9.120176001575941
 20
8.896695353677728
 30
-0.1312500000000006
1001
ACAD_VIEW_EDGE_ID
1071
      127
1071
       -1
1071
        2
1071
        0
  0
ARC
  5
688
330
70
100
AcDbEntity
  8
Visible
100
AcDbCircle
 10
8.756878
 20
0.2
 30
14.5
 40
0.0062499999999996
210
1.0
220
-0.0000000000000002
230
0.0
100
AcDbArc
 50
0.0
 51
90.0
  0
ARC
  5
689
330
70
100
AcDbEntity
  8
Visible
100
AcDbCircle
 10
-8.756878
 20
0.2
 30
-2.5
 40
0.0062499999999996
210
-1.0
220
0.0000000000000002
230
0.0
100
AcDbArc
 50
90.0
 51
180.0
  0
SPLINE
  5
68A
330
70
100
AcDbEntity
  8
Visible
100
AcDbSpline
 70
     0
 71
     3
 72
    18
 73
    14
 74
     0
 42
0.000000001
 43
0.0000000001
 40
0.1280064322251169
 40
0.1280064322251169
 40
0.1280064322251169
 40
0.1280064322251169
 40
0.1290284598303969
 40
0.1290284598303969
 40
0.2296514482181988
 40
0.2296514482181988
 40
0.3302744366060008
 40
0.3302744366060008
 40
0.4308974249938027
 40
0.4308974249938027
 40
0.5315204133816046
 40
0.5315204133816046
 40
0.5325424409868883
 40
0.5325424409868883
 40
0.5325424409868883
 40
0.5325424409868883
 10
9.120176001575941
 20
8.819055377881454
 30
-0.1312500000000007
 10
9.120145575526635
 20
8.819039564480931
 30
-0.1312500000000007
 10
9.120115227631458
 20
8.819023837136114
 30
-0.1312499374830261
 10
9.117105225181489
 20
8.81746839102152
 30
-0.1312377059693097
 10
9.11376609549336
 20
8.816197301915508
 30
-0.1306308517826389
 10
9.106893907510993
 20
8.814527467279845
 30
-0.1293268013315718
 10
9.10335409961317
 20
8.814125365779659
 30
-0.1286697924901151
 10
9.096645900387215
 20
8.814125365779659
 30
-0.1286697924901151
 10
9.093106092489279
 20
8.814527467279845
 30
-0.1293268013315724
 10
9.086233904507025
 20
8.816197301915508
 30
-0.1306308517826395
 10
9.082894774818669
 20
8.81746839102152
 30
-0.1312377059693097
 10
9.079884772368814
 20
8.819023837136114
 30
-0.1312499374830261
 10
9.079854424473751
 20
8.819039564480931
 30
-0.1312500000000007
 10
9.079823998424444
 20
8.819055377881454
 30
-0.1312500000000007
1001
ACAD_VIEW_EDGE_ID
1071
      122
1071
       -1
1071
        2
1071
        0
  0
ARC
  5
68B
330
70
100
AcDbEntity
  8
Visible
100
AcDbCircle
 10
8.745375
 20
0.19375
 30
14.5
 40
0.0124999999999998
210
1.0
220
-0.0000000000000002
230
0.0
100
AcDbArc
 50
90.0
 51
180.0
  0
ARC
  5
68C
330
70
100
AcDbEntity
  8
Visible
100
AcDbCircle
 10
-8.745375
 20
0.19375
 30
-2.5
 40
0.0124999999999998
210
-1.0
220
0.0000000000000002
230
0.0
100
AcDbArc
 50
360.0
 51
90.0
  0
SPLINE
  5
68D
330
70
100
AcDbEntity
  8
Visible
100
AcDbSpline
 70
     0
 71
     3
 72
    18
 73
    14
 74
     0
 42
0.000000001
 43
0.0000000001
 40
0.1280064322251197
 40
0.1280064322251197
 40
0.1280064322251197
 40
0.1280064322251197
 40
0.1290284598304019
 40
0.1290284598304019
 40
0.2296514482181955
 40
0.2296514482181955
 40
0.3302744366059892
 40
0.3302744366059892
 40
0.4308974249937829
 40
0.4308974249937829
 40
0.5315204133815766
 40
0.5315204133815766
 40
0.5325424409868513
 40
0.5325424409868513
 40
0.5325424409868513
 40
0.5325424409868513
 10
6.679823998424353
 20
8.896695353677728
 30
-0.1312500000000006
 10
6.67985442447366
 20
8.896711167078251
 30
-0.1312500000000006
 10
6.679884772368836
 20
8.896726894422954
 30
-0.131249937483026
 10
6.682894774818805
 20
8.898282340537548
 30
-0.1312377059693096
 10
6.686233904507048
 20
8.89955342964356
 30
-0.1306308517826394
 10
6.693106092489301
 20
8.901223264279337
 30
-0.1293268013315727
 10
6.696645900387238
 20
8.901625365779636
 30
-0.1286697924901157
 10
6.703354099613193
 20
8.901625365779636
 30
-0.1286697924901157
 10
6.706893907511016
 20
8.901223264279337
 30
-0.1293268013315725
 10
6.713766095493383
 20
8.89955342964356
 30
-0.1306308517826394
 10
6.717105225181512
 20
8.898282340537548
 30
-0.1312377059693096
 10
6.720115227631481
 20
8.896726894422954
 30
-0.131249937483026
 10
6.720145575526657
 20
8.896711167078251
 30
-0.1312500000000006
 10
6.720176001575964
 20
8.896695353677728
 30
-0.1312500000000006
1001
ACAD_VIEW_EDGE_ID
1071
      113
1071
       -1
1071
        2
1071
        0
  0
ARC
  5
68E
330
70
100
AcDbEntity
  8
Visible
100
AcDbCircle
 10
8.970375
 20
0.19375
 30
14.5
 40
0.0125000000000002
210
1.0
220
-0.0000000000000002
230
0.0
100
AcDbArc
 50
360.0
 51
90.0
  0
ARC
  5
68F
330
70
100
AcDbEntity
  8
Visible
100
AcDbCircle
 10
-8.970375
 20
0.19375
 30
-2.5
 40
0.0125000000000002
210
-1.0
220
0.0000000000000002
230
0.0
100
AcDbArc
 50
90.0
 51
180.0
  0
SPLINE
  5
690
330
70
100
AcDbEntity
  8
Visible
100
AcDbSpline
 70
     0
 71
     3
 72
    18
 73
    14
 74
     0
 42
0.000000001
 43
0.0000000001
 40
0.1280064322251241
 40
0.1280064322251241
 40
0.1280064322251241
 40
0.1280064322251241
 40
0.1290284598304001
 40
0.1290284598304001
 40
0.229651448218198
 40
0.229651448218198
 40
0.330274436605996
 40
0.330274436605996
 40
0.430897424993794
 40
0.430897424993794
 40
0.531520413381592
 40
0.531520413381592
 40
0.532542440986877
 40
0.532542440986877
 40
0.532542440986877
 40
0.532542440986877
 10
6.720176001575964
 20
8.819055377881454
 30
-0.1312500000000007
 10
6.720145575526657
 20
8.819039564480931
 30
-0.1312500000000007
 10
6.720115227631481
 20
8.819023837136114
 30
-0.1312499374830261
 10
6.717105225181512
 20
8.81746839102152
 30
-0.1312377059693097
 10
6.713766095493383
 20
8.816197301915508
 30
-0.1306308517826393
 10
6.706893907511016
 20
8.814527467279845
 30
-0.1293268013315723
 10
6.703354099613193
 20
8.814125365779659
 30
-0.1286697924901153
 10
6.696645900387238
 20
8.814125365779659
 30
-0.1286697924901153
 10
6.693106092489301
 20
8.814527467279845
 30
-0.1293268013315723
 10
6.686233904507048
 20
8.816197301915508
 30
-0.1306308517826393
 10
6.682894774818805
 20
8.81746839102152
 30
-0.1312377059693097
 10
6.679884772368836
 20
8.819023837136114
 30
-0.1312499374830261
 10
6.67985442447366
 20
8.819039564480931
 30
-0.1312500000000007
 10
6.679823998424353
 20
8.819055377881454
 30
-0.1312500000000007
1001
ACAD_VIEW_EDGE_ID
1071
      108
1071
       -1
1071
        2
1071
        0
  0
ARC
  5
691
330
70
100
AcDbEntity
  8
Visible
100
AcDbCircle
 10
8.958873
 20
0.2
 30
14.5
 40
0.0062499999999988
210
1.0
220
-0.0000000000000002
230
0.0
100
AcDbArc
 50
90.0
 51
180.0
  0
ARC
  5
692
330
70
100
AcDbEntity
  8
Visible
100
AcDbCircle
 10
-8.958873
 20
0.2
 30
-2.5
 40
0.0062499999999988
210
-1.0
220
0.0000000000000002
230
0.0
100
AcDbArc
 50
0.0
 51
90.0
  0
SPLINE
  5
693
330
70
100
AcDbEntity
  8
Visible
100
AcDbSpline
 70
     0
 71
     3
 72
    18
 73
    14
 74
     0
 42
0.000000001
 43
0.0000000001
 40
0.1280064322251217
 40
0.1280064322251217
 40
0.1280064322251217
 40
0.1280064322251217
 40
0.1290284598304018
 40
0.1290284598304018
 40
0.2296514482181975
 40
0.2296514482181975
 40
0.3302744366059933
 40
0.3302744366059933
 40
0.4308974249937891
 40
0.4308974249937891
 40
0.5315204133815849
 40
0.5315204133815849
 40
0.5325424409868678
 40
0.5325424409868678
 40
0.5325424409868678
 40
0.5325424409868678
 10
4.279823998424376
 20
8.896695353677728
 30
-0.1312500000000006
 10
4.279854424473683
 20
8.896711167078251
 30
-0.1312500000000006
 10
4.279884772368859
 20
8.896726894422954
 30
-0.131249937483026
 10
4.282894774818828
 20
8.898282340537548
 30
-0.1312377059693096
 10
4.286233904507071
 20
8.89955342964356
 30
-0.1306308517826395
 10
4.293106092489324
 20
8.901223264279337
 30
-0.1293268013315727
 10
4.296645900387147
 20
8.901625365779636
 30
-0.1286697924901154
 10
4.303354099613216
 20
8.901625365779636
 30
-0.1286697924901154
 10
4.306893907511039
 20
8.901223264279337
 30
-0.1293268013315725
 10
4.313766095493292
 20
8.89955342964356
 30
-0.1306308517826393
 10
4.317105225181535
 20
8.898282340537548
 30
-0.1312377059693096
 10
4.320115227631504
 20
8.896726894422954
 30
-0.131249937483026
 10
4.32014557552668
 20
8.896711167078251
 30
-0.1312500000000006
 10
4.320176001575987
 20
8.896695353677728
 30
-0.1312500000000006
1001
ACAD_VIEW_EDGE_ID
1071
       99
1071
       -1
1071
        2
1071
        0
  0
ARC
  5
694
330
70
100
AcDbEntity
  8
Visible
100
AcDbCircle
 10
8.947875
 20
0.15025
 30
14.5
 40
0.0060000000000003
210
1.0
220
-0.0000000000000002
230
0.0
100
AcDbArc
 50
90.0
 51
180.0
  0
ARC
  5
695
330
70
100
AcDbEntity
  8
Visible
100
AcDbCircle
 10
-8.947875
 20
0.15025
 30
-2.5
 40
0.0060000000000003
210
-1.0
220
0.0000000000000002
230
0.0
100
AcDbArc
 50
0.0
 51
90.0
  0
SPLINE
  5
696
330
70
100
AcDbEntity
  8
Visible
100
AcDbSpline
 70
     0
 71
     3
 72
    18
 73
    14
 74
     0
 42
0.000000001
 43
0.0000000001
 40
0.1280064322251165
 40
0.1280064322251165
 40
0.1280064322251165
 40
0.1280064322251165
 40
0.1290284598304005
 40
0.1290284598304005
 40
0.2296514482181963
 40
0.2296514482181963
 40
0.330274436605992
 40
0.330274436605992
 40
0.4308974249937878
 40
0.4308974249937878
 40
0.5315204133815837
 40
0.5315204133815837
 40
0.5325424409868706
 40
0.5325424409868706
 40
0.5325424409868706
 40
0.5325424409868706
 10
4.320176001575987
 20
8.819055377881454
 30
-0.1312500000000007
 10
4.32014557552668
 20
8.819039564480931
 30
-0.1312500000000007
 10
4.320115227631504
 20
8.819023837136114
 30
-0.1312499374830261
 10
4.317105225181535
 20
8.81746839102152
 30
-0.1312377059693097
 10
4.313766095493292
 20
8.816197301915508
 30
-0.1306308517826394
 10
4.306893907511039
 20
8.814527467279845
 30
-0.1293268013315727
 10
4.303354099613216
 20
8.814125365779659
 30
-0.1286697924901156
 10
4.296645900387147
 20
8.814125365779659
 30
-0.1286697924901156
 10
4.293106092489324
 20
8.814527467279845
 30
-0.1293268013315727
 10
4.286233904507071
 20
8.816197301915508
 30
-0.1306308517826394
 10
4.282894774818828
 20
8.81746839102152
 30
-0.1312377059693097
 10
4.279884772368859
 20
8.819023837136114
 30
-0.1312499374830261
 10
4.279854424473683
 20
8.819039564480931
 30
-0.1312500000000007
 10
4.279823998424376
 20
8.819055377881454
 30
-0.1312500000000007
1001
ACAD_VIEW_EDGE_ID
1071
       94
1071
       -1
1071
        2
1071
        0
  0
ARC
  5
697
330
70
100
AcDbEntity
  8
Visible
100
AcDbCircle
 10
-8.935875
 20
-0.00025
 30
-14.5
 40
0.006
210
-1.0
220
0.0000000000000002
230
0.0
100
AcDbArc
 50
180.0
 51
270.0
  0
ARC
  5
698
330
70
100
AcDbEntity
  8
Visible
100
AcDbCircle
 10
-8.935875
 20
-0.00025
 30
-2.5
 40
0.006
210
-1.0
220
0.0000000000000002
230
0.0
100
AcDbArc
 50
180.0
 51
270.0
  0
SPLINE
  5
699
330
70
100
AcDbEntity
  8
Visible
100
AcDbSpline
 70
     0
 71
     3
 72
    18
 73
    14
 74
     0
 42
0.000000001
 43
0.0000000001
 40
0.1280064322251222
 40
0.1280064322251222
 40
0.1280064322251222
 40
0.1280064322251222
 40
0.1290284598304016
 40
0.1290284598304016
 40
0.2296514482181984
 40
0.2296514482181984
 40
0.3302744366059952
 40
0.3302744366059952
 40
0.4308974249937921
 40
0.4308974249937921
 40
0.5315204133815889
 40
0.5315204133815889
 40
0.5325424409868682
 40
0.5325424409868682
 40
0.5325424409868682
 40
0.5325424409868682
 10
3.079823998424444
 20
8.896695353677728
 30
-0.1312500000000006
 10
3.079854424473751
 20
8.896711167078251
 30
-0.1312500000000006
 10
3.079884772368814
 20
8.896726894422954
 30
-0.131249937483026
 10
3.082894774818896
 20
8.898282340537548
 30
-0.1312377059693096
 10
3.086233904507025
 20
8.89955342964356
 30
-0.1306308517826393
 10
3.093106092489279
 20
8.901223264279337
 30
-0.1293268013315725
 10
3.096645900387215
 20
8.901625365779636
 30
-0.1286697924901153
 10
3.10335409961317
 20
8.901625365779636
 30
-0.1286697924901153
 10
3.106893907510993
 20
8.901223264279337
 30
-0.1293268013315725
 10
3.11376609549336
 20
8.89955342964356
 30
-0.1306308517826393
 10
3.117105225181489
 20
8.898282340537548
 30
-0.1312377059693096
 10
3.120115227631458
 20
8.896726894422954
 30
-0.131249937483026
 10
3.120145575526635
 20
8.896711167078251
 30
-0.1312500000000006
 10
3.120176001575941
 20
8.896695353677728
 30
-0.1312500000000006
1001
ACAD_VIEW_EDGE_ID
1071
       85
1071
       -1
1071
        2
1071
        0
  0
ARC
  5
69A
330
70
100
AcDbEntity
  8
Visible
100
AcDbCircle
 10
8.910375
 20
-0.01225
 30
14.5
 40
0.0060000000000003
210
1.0
220
-0.0000000000000002
230
0.0
100
AcDbArc
 50
90.0
 51
180.0
  0
ARC
  5
69B
330
70
100
AcDbEntity
  8
Visible
100
AcDbCircle
 10
-8.910375
 20
-0.01225
 30
-2.5
 40
0.0060000000000003
210
-1.0
220
0.0000000000000002
230
0.0
100
AcDbArc
 50
0.0
 51
90.0
  0
SPLINE
  5
69C
330
70
100
AcDbEntity
  8
Visible
100
AcDbSpline
 70
     0
 71
     3
 72
    18
 73
    14
 74
     0
 42
0.000000001
 43
0.0000000001
 40
0.1280064322251144
 40
0.1280064322251144
 40
0.1280064322251144
 40
0.1280064322251144
 40
0.1290284598303997
 40
0.1290284598303997
 40
0.2296514482181953
 40
0.2296514482181953
 40
0.3302744366059909
 40
0.3302744366059909
 40
0.4308974249937866
 40
0.4308974249937866
 40
0.5315204133815821
 40
0.5315204133815821
 40
0.5325424409868674
 40
0.5325424409868674
 40
0.5325424409868674
 40
0.5325424409868674
 10
3.120176001575941
 20
8.819055377881454
 30
-0.1312500000000007
 10
3.120145575526635
 20
8.819039564480931
 30
-0.1312500000000007
 10
3.120115227631458
 20
8.819023837136114
 30
-0.1312499374830261
 10
3.117105225181489
 20
8.81746839102152
 30
-0.1312377059693097
 10
3.11376609549336
 20
8.816197301915508
 30
-0.1306308517826395
 10
3.106893907510993
 20
8.814527467279845
 30
-0.1293268013315727
 10
3.10335409961317
 20
8.814125365779659
 30
-0.1286697924901156
 10
3.096645900387215
 20
8.814125365779659
 30
-0.1286697924901156
 10
3.093106092489279
 20
8.814527467279845
 30
-0.1293268013315727
 10
3.086233904507025
 20
8.816197301915508
 30
-0.1306308517826395
 10
3.082894774818896
 20
8.81746839102152
 30
-0.1312377059693097
 10
3.079884772368814
 20
8.819023837136114
 30
-0.1312499374830261
 10
3.079854424473751
 20
8.819039564480931
 30
-0.1312500000000007
 10
3.079823998424444
 20
8.819055377881454
 30
-0.1312500000000007
1001
ACAD_VIEW_EDGE_ID
1071
       80
1071
       -1
1071
        2
1071
        0
  0
ARC
  5
69D
330
70
100
AcDbEntity
  8
Visible
100
AcDbCircle
 10
-8.896695
 20
-0.12525
 30
-2.5
 40
0.0060000000000002
210
-1.0
220
0.0000000000000002
230
0.0
100
AcDbArc
 50
183.052883
 51
270.0
  0
ARC
  5
69E
330
70
100
AcDbEntity
  8
Visible
100
AcDbCircle
 10
-8.896695
 20
-0.12525
 30
-14.5
 40
0.0060000000000002
210
-1.0
220
0.0000000000000002
230
0.0
100
AcDbArc
 50
183.052883
 51
270.0
  0
SPLINE
  5
69F
330
70
100
AcDbEntity
  8
Visible
100
AcDbSpline
 70
     0
 71
     3
 72
    18
 73
    14
 74
     0
 42
0.000000001
 43
0.0000000001
 40
0.1280064322251189
 40
0.1280064322251189
 40
0.1280064322251189
 40
0.1280064322251189
 40
0.129028459830401
 40
0.129028459830401
 40
0.2296514482181966
 40
0.2296514482181966
 40
0.3302744366059922
 40
0.3302744366059922
 40
0.4308974249937878
 40
0.4308974249937878
 40
0.5315204133815835
 40
0.5315204133815835
 40
0.5325424409868624
 40
0.5325424409868624
 40
0.5325424409868624
 40
0.5325424409868624
 10
5.479823998424421
 20
8.896695353677728
 30
-0.1312500000000006
 10
5.479854424473728
 20
8.896711167078251
 30
-0.1312500000000006
 10
5.479884772368905
 20
8.896726894422954
 30
-0.131249937483026
 10
5.482894774818873
 20
8.898282340537548
 30
-0.1312377059693096
 10
5.486233904507002
 20
8.89955342964356
 30
-0.1306308517826394
 10
5.493106092489369
 20
8.901223264279337
 30
-0.1293268013315727
 10
5.496645900387193
 20
8.901625365779636
 30
-0.1286697924901156
 10
5.503354099613147
 20
8.901625365779636
 30
-0.1286697924901156
 10
5.506893907511084
 20
8.901223264279337
 30
-0.1293268013315727
 10
5.513766095493338
 20
8.89955342964356
 30
-0.1306308517826394
 10
5.517105225181467
 20
8.898282340537548
 30
-0.1312377059693096
 10
5.520115227631549
 20
8.896726894422954
 30
-0.131249937483026
 10
5.520145575526612
 20
8.896711167078251
 30
-0.1312500000000006
 10
5.520176001575919
 20
8.896695353677728
 30
-0.1312500000000006
1001
ACAD_VIEW_EDGE_ID
1071
       71
1071
       -1
1071
        2
1071
        0
  0
ARC
  5
6A0
330
70
100
AcDbEntity
  8
Visible
100
AcDbCircle
 10
-13.9
 20
8.857875
 30
0.13125
 40
0.0437499999999966
210
0.0
220
0.0
230
-1.0
100
AcDbArc
 50
297.462357
 51
359.345177
  0
ARC
  5
6A1
330
70
100
AcDbEntity
  8
Visible
100
AcDbCircle
 10
-13.9
 20
8.857875
 30
0.13125
 40
0.0437500000000028
210
0.0
220
0.0
230
-1.0
100
AcDbArc
 50
0.654823
 51
62.537643
  0
SPLINE
  5
6A2
330
70
100
AcDbEntity
  8
Visible
100
AcDbSpline
 70
     0
 71
     3
 72
    18
 73
    14
 74
     0
 42
0.000000001
 43
0.0000000001
 40
0.1280064322251168
 40
0.1280064322251168
 40
0.1280064322251168
 40
0.1280064322251168
 40
0.129028459830401
 40
0.129028459830401
 40
0.229651448218197
 40
0.229651448218197
 40
0.330274436605993
 40
0.330274436605993
 40
0.430897424993789
 40
0.430897424993789
 40
0.531520413381585
 40
0.531520413381585
 40
0.5325424409868732
 40
0.5325424409868732
 40
0.5325424409868732
 40
0.5325424409868732
 10
5.520176001575919
 20
8.819055377881454
 30
-0.1312500000000007
 10
5.520145575526612
 20
8.819039564480931
 30
-0.1312500000000007
 10
5.520115227631549
 20
8.819023837136114
 30
-0.1312499374830261
 10
5.517105225181467
 20
8.81746839102152
 30
-0.1312377059693097
 10
5.513766095493338
 20
8.816197301915508
 30
-0.1306308517826394
 10
5.506893907511084
 20
8.814527467279845
 30
-0.1293268013315725
 10
5.503354099613147
 20
8.814125365779659
 30
-0.1286697924901154
 10
5.496645900387193
 20
8.814125365779659
 30
-0.1286697924901154
 10
5.493106092489369
 20
8.814527467279845
 30
-0.1293268013315725
 10
5.486233904507002
 20
8.816197301915508
 30
-0.1306308517826394
 10
5.482894774818873
 20
8.81746839102152
 30
-0.1312377059693097
 10
5.479884772368905
 20
8.819023837136114
 30
-0.1312499374830261
 10
5.479854424473728
 20
8.819039564480931
 30
-0.1312500000000007
 10
5.479823998424421
 20
8.819055377881454
 30
-0.1312500000000007
1001
ACAD_VIEW_EDGE_ID
1071
       66
1071
       -1
1071
        2
1071
        0
  0
ARC
  5
6A3
330
70
100
AcDbEntity
  8
Visible
100
AcDbCircle
 10
-13.9
 20
8.857875
 30
0.13125
 40
0.0437500000000027
210
0.0
220
0.0
230
-1.0
100
AcDbArc
 50
117.462357
 51
179.345177
  0
ARC
  5
6A4
330
70
100
AcDbEntity
  8
Visible
100
AcDbCircle
 10
-13.9
 20
8.857875
 30
0.13125
 40
0.043749999999996
210
0.0
220
0.0
230
-1.0
100
AcDbArc
 50
180.654823
 51
242.537643
  0
SPLINE
  5
6A5
330
70
100
AcDbEntity
  8
Visible
100
AcDbSpline
 70
     0
 71
     3
 72
    18
 73
    14
 74
     0
 42
0.000000001
 43
0.0000000001
 40
0.1280064322251319
 40
0.1280064322251319
 40
0.1280064322251319
 40
0.1280064322251319
 40
0.1290284598304014
 40
0.1290284598304014
 40
0.229651448218195
 40
0.229651448218195
 40
0.3302744366059884
 40
0.3302744366059884
 40
0.4308974249937819
 40
0.4308974249937819
 40
0.5315204133815755
 40
0.5315204133815755
 40
0.5325424409868452
 40
0.5325424409868452
 40
0.5325424409868452
 40
0.5325424409868452
 10
7.879823998424399
 20
8.896695353677728
 30
-0.1312500000000006
 10
7.879854424473705
 20
8.896711167078251
 30
-0.1312500000000006
 10
7.879884772368882
 20
8.896726894422954
 30
-0.131249937483026
 10
7.882894774818851
 20
8.898282340537548
 30
-0.1312377059693096
 10
7.88623390450698
 20
8.89955342964356
 30
-0.1306308517826394
 10
7.893106092489347
 20
8.901223264279337
 30
-0.1293268013315726
 10
7.89664590038717
 20
8.901625365779636
 30
-0.1286697924901158
 10
7.903354099613125
 20
8.901625365779636
 30
-0.1286697924901158
 10
7.906893907511062
 20
8.901223264279337
 30
-0.1293268013315726
 10
7.913766095493315
 20
8.89955342964356
 30
-0.1306308517826394
 10
7.917105225181558
 20
8.898282340537548
 30
-0.1312377059693096
 10
7.920115227631526
 20
8.896726894422954
 30
-0.131249937483026
 10
7.920145575526703
 20
8.896711167078251
 30
-0.1312500000000006
 10
7.92017600157601
 20
8.896695353677728
 30
-0.1312500000000006
1001
ACAD_VIEW_EDGE_ID
1071
       57
1071
       -1
1071
        2
1071
        0
  0
ARC
  5
6A6
330
70
100
AcDbEntity
  8
Visible
100
AcDbCircle
 10
-11.5
 20
8.857875
 30
0.13125
 40
0.0437500000000008
210
0.0
220
0.0
230
-1.0
100
AcDbArc
 50
297.462357
 51
359.345177
  0
ARC
  5
6A7
330
70
100
AcDbEntity
  8
Visible
100
AcDbCircle
 10
-11.5
 20
8.857875
 30
0.13125
 40
0.0437500000000028
210
0.0
220
0.0
230
-1.0
100
AcDbArc
 50
0.654823
 51
62.537643
  0
SPLINE
  5
6A8
330
70
100
AcDbEntity
  8
Visible
100
AcDbSpline
 70
     0
 71
     3
 72
    18
 73
    14
 74
     0
 42
0.000000001
 43
0.0000000001
 40
0.1280064322251209
 40
0.1280064322251209
 40
0.1280064322251209
 40
0.1280064322251209
 40
0.1290284598304007
 40
0.1290284598304007
 40
0.2296514482181988
 40
0.2296514482181988
 40
0.3302744366059969
 40
0.3302744366059969
 40
0.4308974249937951
 40
0.4308974249937951
 40
0.5315204133815933
 40
0.5315204133815933
 40
0.5325424409868863
 40
0.5325424409868863
 40
0.5325424409868863
 40
0.5325424409868863
 10
7.92017600157601
 20
8.819055377881454
 30
-0.1312500000000007
 10
7.920145575526703
 20
8.819039564480931
 30
-0.1312500000000007
 10
7.920115227631526
 20
8.819023837136114
 30
-0.1312499374830261
 10
7.917105225181558
 20
8.81746839102152
 30
-0.1312377059693097
 10
7.913766095493315
 20
8.816197301915508
 30
-0.1306308517826393
 10
7.906893907511062
 20
8.814527467279845
 30
-0.1293268013315722
 10
7.903354099613125
 20
8.814125365779659
 30
-0.1286697924901152
 10
7.89664590038717
 20
8.814125365779659
 30
-0.1286697924901152
 10
7.893106092489347
 20
8.814527467279845
 30
-0.1293268013315722
 10
7.88623390450698
 20
8.816197301915508
 30
-0.1306308517826393
 10
7.882894774818851
 20
8.81746839102152
 30
-0.1312377059693097
 10
7.879884772368882
 20
8.819023837136114
 30
-0.1312499374830261
 10
7.879854424473705
 20
8.819039564480931
 30
-0.1312500000000007
 10
7.879823998424399
 20
8.819055377881454
 30
-0.1312500000000007
1001
ACAD_VIEW_EDGE_ID
1071
       52
1071
       -1
1071
        2
1071
        0
  0
ARC
  5
6A9
330
70
100
AcDbEntity
  8
Visible
100
AcDbCircle
 10
-11.5
 20
8.857875
 30
0.13125
 40
0.0437500000000029
210
0.0
220
0.0
230
-1.0
100
AcDbArc
 50
117.462357
 51
179.345177
  0
ARC
  5
6AA
330
70
100
AcDbEntity
  8
Visible
100
AcDbCircle
 10
-11.5
 20
8.857875
 30
0.13125
 40
0.0437500000000005
210
0.0
220
0.0
230
-1.0
100
AcDbArc
 50
180.654823
 51
242.537643
  0
SPLINE
  5
6AB
330
70
100
AcDbEntity
  8
Visible
100
AcDbSpline
 70
     0
 71
     3
 72
    18
 73
    14
 74
     0
 42
0.000000001
 43
0.0000000001
 40
0.1280064322251251
 40
0.1280064322251251
 40
0.1280064322251251
 40
0.1280064322251251
 40
0.1290284598304019
 40
0.1290284598304019
 40
0.2296514482181951
 40
0.2296514482181951
 40
0.3302744366059883
 40
0.3302744366059883
 40
0.4308974249937816
 40
0.4308974249937816
 40
0.5315204133815748
 40
0.5315204133815748
 40
0.5325424409868372
 40
0.5325424409868372
 40
0.5325424409868372
 40
0.5325424409868372
 10
10.27982399842437
 20
8.896695353677728
 30
-0.1312500000000006
 10
10.27985442447368
 20
8.896711167078251
 30
-0.1312500000000006
 10
10.27988477236886
 20
8.896726894422954
 30
-0.131249937483026
 10
10.28289477481883
 20
8.898282340537548
 30
-0.1312377059693097
 10
10.28623390450707
 20
8.89955342964356
 30
-0.1306308517826393
 10
10.29310609248932
 20
8.901223264279337
 30
-0.1293268013315727
 10
10.29664590038715
 20
8.901625365779636
 30
-0.128669792490116
 10
10.30335409961321
 20
8.901625365779636
 30
-0.128669792490116
 10
10.30689390751104
 20
8.901223264279337
 30
-0.1293268013315727
 10
10.31376609549329
 20
8.89955342964356
 30
-0.1306308517826393
 10
10.31710522518153
 20
8.898282340537548
 30
-0.1312377059693097
 10
10.3201152276315
 20
8.896726894422954
 30
-0.131249937483026
 10
10.32014557552668
 20
8.896711167078251
 30
-0.1312500000000006
 10
10.32017600157598
 20
8.896695353677728
 30
-0.1312500000000006
1001
ACAD_VIEW_EDGE_ID
1071
       43
1071
       -1
1071
        2
1071
        0
  0
ARC
  5
6AC
330
70
100
AcDbEntity
  8
Visible
100
AcDbCircle
 10
-9.1
 20
8.857875
 30
0.13125
 40
0.0437500000000007
210
0.0
220
0.0
230
-1.0
100
AcDbArc
 50
297.462357
 51
359.345177
  0
ARC
  5
6AD
330
70
100
AcDbEntity
  8
Visible
100
AcDbCircle
 10
-9.1
 20
8.857875
 30
0.13125
 40
0.0437499999999994
210
0.0
220
0.0
230
-1.0
100
AcDbArc
 50
0.654823
 51
62.537643
  0
SPLINE
  5
6AE
330
70
100
AcDbEntity
  8
Visible
100
AcDbSpline
 70
     0
 71
     3
 72
    18
 73
    14
 74
     0
 42
0.000000001
 43
0.0000000001
 40
0.1280064322251281
 40
0.1280064322251281
 40
0.1280064322251281
 40
0.1280064322251281
 40
0.1290284598303975
 40
0.1290284598303975
 40
0.2296514482181996
 40
0.2296514482181996
 40
0.3302744366060017
 40
0.3302744366060017
 40
0.4308974249938037
 40
0.4308974249938037
 40
0.5315204133816058
 40
0.5315204133816058
 40
0.5325424409868753
 40
0.5325424409868753
 40
0.5325424409868753
 40
0.5325424409868753
 10
10.32017600157598
 20
8.819055377881454
 30
-0.1312500000000007
 10
10.32014557552668
 20
8.819039564480931
 30
-0.1312500000000007
 10
10.3201152276315
 20
8.819023837136114
 30
-0.1312499374830261
 10
10.31710522518153
 20
8.81746839102152
 30
-0.1312377059693097
 10
10.31376609549329
 20
8.816197301915508
 30
-0.1306308517826387
 10
10.30689390751104
 20
8.814527467279845
 30
-0.1293268013315715
 10
10.30335409961321
 20
8.814125365779659
 30
-0.128669792490115
 10
10.29664590038715
 20
8.814125365779659
 30
-0.128669792490115
 10
10.29310609248932
 20
8.814527467279845
 30
-0.1293268013315723
 10
10.28623390450707
 20
8.816197301915508
 30
-0.1306308517826395
 10
10.28289477481871
 20
8.81746839102152
 30
-0.1312377059693097
 10
10.27988477236886
 20
8.819023837136114
 30
-0.1312499374830261
 10
10.27985442447368
 20
8.819039564480931
 30
-0.1312500000000007
 10
10.27982399842437
 20
8.819055377881454
 30
-0.1312500000000007
1001
ACAD_VIEW_EDGE_ID
1071
       38
1071
       -1
1071
        2
1071
        0
  0
ARC
  5
6AF
330
70
100
AcDbEntity
  8
Visible
100
AcDbCircle
 10
-9.1
 20
8.857875
 30
0.13125
 40
0.0437499999999985
210
0.0
220
0.0
230
-1.0
100
AcDbArc
 50
117.462357
 51
179.345177
  0
ARC
  5
6B0
330
70
100
AcDbEntity
  8
Visible
100
AcDbCircle
 10
-9.1
 20
8.857875
 30
0.13125
 40
0.0437500000000005
210
0.0
220
0.0
230
-1.0
100
AcDbArc
 50
180.654823
 51
242.537643
  0
SPLINE
  5
6B1
330
70
100
AcDbEntity
  8
Visible
100
AcDbSpline
 70
     0
 71
     3
 72
    18
 73
    14
 74
     0
 42
0.000000001
 43
0.0000000001
 40
0.1280064322251267
 40
0.1280064322251267
 40
0.1280064322251267
 40
0.1280064322251267
 40
0.1290284598304007
 40
0.1290284598304007
 40
0.2296514482181937
 40
0.2296514482181937
 40
0.3302744366059866
 40
0.3302744366059866
 40
0.4308974249937796
 40
0.4308974249937796
 40
0.5315204133815726
 40
0.5315204133815726
 40
0.5325424409868292
 40
0.5325424409868292
 40
0.5325424409868292
 40
0.5325424409868292
 10
12.67982399842435
 20
8.896695353677728
 30
-0.1312500000000006
 10
12.67985442447366
 20
8.896711167078251
 30
-0.1312500000000006
 10
12.67988477236883
 20
8.896726894422954
 30
-0.131249937483026
 10
12.68289477481869
 20
8.898282340537548
 30
-0.1312377059693097
 10
12.68623390450705
 20
8.89955342964356
 30
-0.1306308517826393
 10
12.6931060924893
 20
8.901223264279337
 30
-0.1293268013315729
 10
12.69664590038724
 20
8.901625365779636
 30
-0.1286697924901162
 10
12.70335409961319
 20
8.901625365779636
 30
-0.1286697924901162
 10
12.70689390751101
 20
8.901223264279337
 30
-0.1293268013315729
 10
12.71376609549338
 20
8.89955342964356
 30
-0.1306308517826393
 10
12.71710522518151
 20
8.898282340537548
 30
-0.1312377059693097
 10
12.72011522763148
 20
8.896726894422954
 30
-0.131249937483026
 10
12.72014557552666
 20
8.896711167078251
 30
-0.1312500000000006
 10
12.72017600157596
 20
8.896695353677728
 30
-0.1312500000000006
1001
ACAD_VIEW_EDGE_ID
1071
       29
1071
       -1
1071
        2
1071
        0
  0
ARC
  5
6B2
330
70
100
AcDbEntity
  8
Visible
100
AcDbCircle
 10
-6.7
 20
8.857875
 30
0.13125
 40
0.0437499999999995
210
0.0
220
0.0
230
-1.0
100
AcDbArc
 50
297.462357
 51
359.345177
  0
ARC
  5
6B3
330
70
100
AcDbEntity
  8
Visible
100
AcDbCircle
 10
-6.7
 20
8.857875
 30
0.13125
 40
0.0437500000000005
210
0.0
220
0.0
230
-1.0
100
AcDbArc
 50
0.654823
 51
62.537643
  0
SPLINE
  5
6B4
330
70
100
AcDbEntity
  8
Visible
100
AcDbSpline
 70
     0
 71
     3
 72
    18
 73
    14
 74
     0
 42
0.000000001
 43
0.0000000001
 40
0.128006432225098
 40
0.128006432225098
 40
0.128006432225098
 40
0.128006432225098
 40
0.1290284598303986
 40
0.1290284598303986
 40
0.2296514482182009
 40
0.2296514482182009
 40
0.3302744366060032
 40
0.3302744366060032
 40
0.4308974249938056
 40
0.4308974249938056
 40
0.5315204133816078
 40
0.5315204133816078
 40
0.5325424409868934
 40
0.5325424409868934
 40
0.5325424409868934
 40
0.5325424409868934
 10
12.72017600157596
 20
8.819055377881454
 30
-0.1312500000000007
 10
12.72014557552666
 20
8.819039564480931
 30
-0.1312500000000007
 10
12.72011522763148
 20
8.819023837136114
 30
-0.1312499374830261
 10
12.71710522518151
 20
8.81746839102152
 30
-0.1312377059693097
 10
12.71376609549338
 20
8.816197301915508
 30
-0.1306308517826389
 10
12.70689390751101
 20
8.814527467279845
 30
-0.1293268013315716
 10
12.70335409961319
 20
8.814125365779659
 30
-0.1286697924901148
 10
12.69664590038724
 20
8.814125365779659
 30
-0.1286697924901148
 10
12.6931060924893
 20
8.814527467279845
 30
-0.1293268013315721
 10
12.68623390450705
 20
8.816197301915508
 30
-0.1306308517826394
 10
12.68289477481869
 20
8.81746839102152
 30
-0.1312377059693097
 10
12.67988477236883
 20
8.819023837136114
 30
-0.1312499374830261
 10
12.67985442447366
 20
8.819039564480931
 30
-0.1312500000000007
 10
12.67982399842435
 20
8.819055377881454
 30
-0.1312500000000007
1001
ACAD_VIEW_EDGE_ID
1071
       24
1071
       -1
1071
        2
1071
        0
  0
ARC
  5
6B5
330
70
100
AcDbEntity
  8
Visible
100
AcDbCircle
 10
-6.7
 20
8.857875
 30
0.13125
 40
0.0437500000000004
210
0.0
220
0.0
230
-1.0
100
AcDbArc
 50
117.462357
 51
179.345177
  0
ARC
  5
6B6
330
70
100
AcDbEntity
  8
Visible
100
AcDbCircle
 10
-6.7
 20
8.857875
 30
0.13125
 40
0.0437499999999999
210
0.0
220
0.0
230
-1.0
100
AcDbArc
 50
180.654823
 51
242.537643
  0
ARC
  5
6B7
330
70
100
AcDbEntity
  8
Visible
100
AcDbCircle
 10
-4.3
 20
8.857875
 30
0.13125
 40
0.0437500000000005
210
0.0
220
0.0
230
-1.0
100
AcDbArc
 50
297.462357
 51
359.345177
  0
ARC
  5
6B8
330
70
100
AcDbEntity
  8
Visible
100
AcDbCircle
 10
-4.3
 20
8.857875
 30
0.13125
 40
0.0437499999999991
210
0.0
220
0.0
230
-1.0
100
AcDbArc
 50
0.654823
 51
62.537643
  0
LINE
  5
6B9
330
70
100
AcDbEntity
  8
Visible
100
AcDbLine
 10
2.5
 20
8.763128
 30
0.2
 11
14.5
 21
8.763128
 31
0.2
  0
LINE
  5
6BA
330
70
100
AcDbEntity
  8
Visible
100
AcDbLine
 10
2.5
 20
8.952623
 30
0.2
 11
14.5
 21
8.952623
 31
0.2
  0
LINE
  5
6BB
330
70
100
AcDbEntity
  8
Visible
100
AcDbLine
 10
11.543747
 20
8.858375
 30
-0.13125
 11
12.656253
 21
8.858375
 31
-0.13125
  0
LINE
  5
6BC
330
70
100
AcDbEntity
  8
Visible
100
AcDbLine
 10
11.54375
 20
8.857875
 30
-0.13175
 11
12.65625
 21
8.857875
 31
-0.13175
  0
LINE
  5
6BD
330
70
100
AcDbEntity
  8
Visible
100
AcDbLine
 10
11.543747
 20
8.857375
 30
-0.13125
 11
12.656253
 21
8.857375
 31
-0.13125
  0
LINE
  5
6BE
330
70
100
AcDbEntity
  8
Visible
100
AcDbLine
 10
14.5
 20
8.813064
 30
-0.12557
 11
14.5
 21
8.811375
 31
-0.09391
  0
LINE
  5
6BF
330
70
100
AcDbEntity
  8
Visible
100
AcDbLine
 10
2.5
 20
8.813064
 30
-0.12557
 11
2.5
 21
8.811375
 31
-0.09391
  0
LINE
  5
6C0
330
70
100
AcDbEntity
  8
Visible
100
AcDbLine
 10
2.5
 20
8.811375
 30
-0.01225
 11
14.5
 21
8.811375
 31
-0.01225
  0
LINE
  5
6C1
330
70
100
AcDbEntity
  8
Visible
100
AcDbLine
 10
14.5
 20
8.805375
 30
-0.00625
 11
14.5
 21
8.779875
 31
-0.00625
  0
LINE
  5
6C2
330
70
100
AcDbEntity
  8
Visible
100
AcDbLine
 10
2.5
 20
8.805375
 30
-0.00625
 11
2.5
 21
8.779875
 31
-0.00625
  0
LINE
  5
6C3
330
70
100
AcDbEntity
  8
Visible
100
AcDbLine
 10
2.5
 20
8.773875
 30
0.15025
 11
14.5
 21
8.773875
 31
0.15025
  0
LINE
  5
6C4
330
70
100
AcDbEntity
  8
Visible
100
AcDbLine
 10
14.5
 20
8.767875
 30
0.15625
 11
14.5
 21
8.763128
 31
0.15625
  0
LINE
  5
6C5
330
70
100
AcDbEntity
  8
Visible
100
AcDbLine
 10
2.5
 20
8.767875
 30
0.15625
 11
2.5
 21
8.763128
 31
0.15625
  0
LINE
  5
6C6
330
70
100
AcDbEntity
  8
Visible
100
AcDbLine
 10
14.5
 20
8.756878
 30
0.20625
 11
14.5
 21
8.745375
 31
0.20625
  0
LINE
  5
6C7
330
70
100
AcDbEntity
  8
Visible
100
AcDbLine
 10
2.5
 20
8.756878
 30
0.20625
 11
2.5
 21
8.745375
 31
0.20625
  0
LINE
  5
6C8
330
70
100
AcDbEntity
  8
Visible
100
AcDbLine
 10
2.5
 20
8.732875
 30
0.19375
 11
14.5
 21
8.732875
 31
0.19375
  0
LINE
  5
6C9
330
70
100
AcDbEntity
  8
Visible
100
AcDbLine
 10
2.5
 20
8.982875
 30
0.19375
 11
14.5
 21
8.982875
 31
0.19375
  0
LINE
  5
6CA
330
70
100
AcDbEntity
  8
Visible
100
AcDbLine
 10
14.5
 20
8.970375
 30
0.20625
 11
14.5
 21
8.958873
 31
0.20625
  0
LINE
  5
6CB
330
70
100
AcDbEntity
  8
Visible
100
AcDbLine
 10
2.5
 20
8.958873
 30
0.20625
 11
2.5
 21
8.970375
 31
0.20625
  0
LINE
  5
6CC
330
70
100
AcDbEntity
  8
Visible
100
AcDbLine
 10
14.5
 20
8.952623
 30
0.15625
 11
14.5
 21
8.947875
 31
0.15625
  0
LINE
  5
6CD
330
70
100
AcDbEntity
  8
Visible
100
AcDbLine
 10
2.5
 20
8.947875
 30
0.15625
 11
2.5
 21
8.952623
 31
0.15625
  0
LINE
  5
6CE
330
70
100
AcDbEntity
  8
Visible
100
AcDbLine
 10
2.5
 20
8.941875
 30
0.15025
 11
14.5
 21
8.941875
 31
0.15025
  0
LINE
  5
6CF
330
70
100
AcDbEntity
  8
Visible
100
AcDbLine
 10
14.5
 20
8.935875
 30
-0.00625
 11
14.5
 21
8.910375
 31
-0.00625
  0
LINE
  5
6D0
330
70
100
AcDbEntity
  8
Visible
100
AcDbLine
 10
2.5
 20
8.910375
 30
-0.00625
 11
2.5
 21
8.935875
 31
-0.00625
  0
LINE
  5
6D1
330
70
100
AcDbEntity
  8
Visible
100
AcDbLine
 10
2.5
 20
8.904375
 30
-0.01225
 11
14.5
 21
8.904375
 31
-0.01225
  0
LINE
  5
6D2
330
70
100
AcDbEntity
  8
Visible
100
AcDbLine
 10
14.5
 20
8.904375
 30
-0.09391
 11
14.5
 21
8.902687
 31
-0.12557
  0
LINE
  5
6D3
330
70
100
AcDbEntity
  8
Visible
100
AcDbLine
 10
2.5
 20
8.902687
 30
-0.12557
 11
2.5
 21
8.904375
 31
-0.09391
  0
ARC
  5
6D4
330
70
100
AcDbEntity
  8
Visible
100
AcDbCircle
 10
-4.3
 20
8.857875
 30
0.13125
 40
0.0437499999999991
210
0.0
220
0.0
230
-1.0
100
AcDbArc
 50
117.462357
 51
179.345177
  0
ARC
  5
6D5
330
70
100
AcDbEntity
  8
Visible
100
AcDbCircle
 10
-4.3
 20
8.857875
 30
0.13125
 40
0.0437500000000005
210
0.0
220
0.0
230
-1.0
100
AcDbArc
 50
180.654823
 51
242.537643
  0
LINE
  5
6D6
330
70
100
AcDbEntity
  8
Visible
100
AcDbLine
 10
2.5
 20
8.857375
 30
-0.13125
 11
2.5
 21
8.819055
 31
-0.13125
  0
LINE
  5
6D7
330
70
100
AcDbEntity
  8
Visible
100
AcDbLine
 10
14.5
 20
8.857375
 30
-0.13125
 11
14.5
 21
8.819055
 31
-0.13125
  0
ARC
  5
6D8
330
70
100
AcDbEntity
  8
Visible
100
AcDbCircle
 10
-3.1
 20
8.857875
 30
0.13125
 40
0.0437499999999999
210
0.0
220
0.0
230
-1.0
100
AcDbArc
 50
297.462357
 51
359.345177
  0
ARC
  5
6D9
330
70
100
AcDbEntity
  8
Visible
100
AcDbCircle
 10
-3.1
 20
8.857875
 30
0.13125
 40
0.0437499999999999
210
0.0
220
0.0
230
-1.0
100
AcDbArc
 50
0.654823
 51
62.537643
  0
LINE
  5
6DA
330
70
100
AcDbEntity
  8
Visible
100
AcDbLine
 10
9.143747
 20
8.857375
 30
-0.13125
 11
10.256253
 21
8.857375
 31
-0.13125
  0
LINE
  5
6DB
330
70
100
AcDbEntity
  8
Visible
100
AcDbLine
 10
6.743747
 20
8.857375
 30
-0.13125
 11
7.856253
 21
8.857375
 31
-0.13125
  0
ARC
  5
6DC
330
70
100
AcDbEntity
  8
Visible
100
AcDbCircle
 10
-3.1
 20
8.857875
 30
0.13125
 40
0.0437499999999995
210
0.0
220
0.0
230
-1.0
100
AcDbArc
 50
117.462357
 51
179.345177
  0
ARC
  5
6DD
330
70
100
AcDbEntity
  8
Visible
100
AcDbCircle
 10
-3.1
 20
8.857875
 30
0.13125
 40
0.0437499999999999
210
0.0
220
0.0
230
-1.0
100
AcDbArc
 50
180.654823
 51
242.537643
  0
LINE
  5
6DE
330
70
100
AcDbEntity
  8
Visible
100
AcDbLine
 10
4.343747
 20
8.857375
 30
-0.13125
 11
5.456253
 21
8.857375
 31
-0.13125
  0
LINE
  5
6DF
330
70
100
AcDbEntity
  8
Visible
100
AcDbLine
 10
2.5
 20
8.857375
 30
-0.13125
 11
3.056253
 21
8.857375
 31
-0.13125
  0
ARC
  5
6E0
330
70
100
AcDbEntity
  8
Visible
100
AcDbCircle
 10
-5.5
 20
8.857875
 30
0.13125
 40
0.0437499999999993
210
0.0
220
0.0
230
-1.0
100
AcDbArc
 50
297.462357
 51
359.345177
  0
ARC
  5
6E1
330
70
100
AcDbEntity
  8
Visible
100
AcDbCircle
 10
-5.5
 20
8.857875
 30
0.13125
 40
0.0437499999999999
210
0.0
220
0.0
230
-1.0
100
AcDbArc
 50
0.654823
 51
62.537643
  0
LINE
  5
6E2
330
70
100
AcDbEntity
  8
Visible
100
AcDbLine
 10
2.5
 20
8.857875
 30
-0.13175
 11
2.5
 21
8.857375
 31
-0.13125
  0
LINE
  5
6E3
330
70
100
AcDbEntity
  8
Visible
100
AcDbLine
 10
3.143747
 20
8.857375
 30
-0.13125
 11
4.256253
 21
8.857375
 31
-0.13125
  0
ARC
  5
6E4
330
70
100
AcDbEntity
  8
Visible
100
AcDbCircle
 10
-5.5
 20
8.857875
 30
0.13125
 40
0.04375
210
0.0
220
0.0
230
-1.0
100
AcDbArc
 50
117.462357
 51
179.345177
  0
ARC
  5
6E5
330
70
100
AcDbEntity
  8
Visible
100
AcDbCircle
 10
-5.5
 20
8.857875
 30
0.13125
 40
0.0437499999999994
210
0.0
220
0.0
230
-1.0
100
AcDbArc
 50
180.654823
 51
242.537643
  0
LINE
  5
6E6
330
70
100
AcDbEntity
  8
Visible
100
AcDbLine
 10
5.543747
 20
8.857375
 30
-0.13125
 11
6.656253
 21
8.857375
 31
-0.13125
  0
LINE
  5
6E7
330
70
100
AcDbEntity
  8
Visible
100
AcDbLine
 10
7.943747
 20
8.857375
 30
-0.13125
 11
9.056253
 21
8.857375
 31
-0.13125
  0
LINE
  5
6E8
330
70
100
AcDbEntity
  8
Visible
100
AcDbLine
 10
10.343747
 20
8.857375
 30
-0.13125
 11
11.456253
 21
8.857375
 31
-0.13125
  0
LINE
  5
6E9
330
70
100
AcDbEntity
  8
Visible
100
AcDbLine
 10
12.743747
 20
8.857375
 30
-0.13125
 11
13.856253
 21
8.857375
 31
-0.13125
  0
ARC
  5
6EA
330
70
100
AcDbEntity
  8
Visible
100
AcDbCircle
 10
-7.9
 20
8.857875
 30
0.13125
 40
0.0437500000000007
210
0.0
220
0.0
230
-1.0
100
AcDbArc
 50
297.462357
 51
359.345177
  0
ARC
  5
6EB
330
70
100
AcDbEntity
  8
Visible
100
AcDbCircle
 10
-7.9
 20
8.857875
 30
0.13125
 40
0.0437500000000061
210
0.0
220
0.0
230
-1.0
100
AcDbArc
 50
0.654823
 51
62.537643
  0
LINE
  5
6EC
330
70
100
AcDbEntity
  8
Visible
100
AcDbLine
 10
14.5
 20
8.857875
 30
-0.13175
 11
14.5
 21
8.857375
 31
-0.13125
  0
LINE
  5
6ED
330
70
100
AcDbEntity
  8
Visible
100
AcDbLine
 10
13.943747
 20
8.857375
 30
-0.13125
 11
14.5
 21
8.857375
 31
-0.13125
  0
ARC
  5
6EE
330
70
100
AcDbEntity
  8
Visible
100
AcDbCircle
 10
-7.9
 20
8.857875
 30
0.13125
 40
0.0437500000000057
210
0.0
220
0.0
230
-1.0
100
AcDbArc
 50
117.462357
 51
179.345177
  0
ARC
  5
6EF
330
70
100
AcDbEntity
  8
Visible
100
AcDbCircle
 10
-7.9
 20
8.857875
 30
0.13125
 40
0.0437500000000005
210
0.0
220
0.0
230
-1.0
100
AcDbArc
 50
180.654823
 51
242.537643
  0
LINE
  5
6F0
330
70
100
AcDbEntity
  8
Visible
100
AcDbLine
 10
9.14375
 20
8.857875
 30
-0.13175
 11
10.25625
 21
8.857875
 31
-0.13175
  0
LINE
  5
6F1
330
70
100
AcDbEntity
  8
Visible
100
AcDbLine
 10
6.74375
 20
8.857875
 30
-0.13175
 11
7.85625
 21
8.857875
 31
-0.13175
  0
ARC
  5
6F2
330
70
100
AcDbEntity
  8
Visible
100
AcDbCircle
 10
-10.3
 20
8.857875
 30
0.13125
 40
0.0437500000000026
210
0.0
220
0.0
230
-1.0
100
AcDbArc
 50
297.462357
 51
359.345177
  0
ARC
  5
6F3
330
70
100
AcDbEntity
  8
Visible
100
AcDbCircle
 10
-10.3
 20
8.857875
 30
0.13125
 40
0.0437499999999994
210
0.0
220
0.0
230
-1.0
100
AcDbArc
 50
0.654823
 51
62.537643
  0
LINE
  5
6F4
330
70
100
AcDbEntity
  8
Visible
100
AcDbLine
 10
4.34375
 20
8.857875
 30
-0.13175
 11
5.45625
 21
8.857875
 31
-0.13175
  0
LINE
  5
6F5
330
70
100
AcDbEntity
  8
Visible
100
AcDbLine
 10
2.5
 20
8.857875
 30
-0.13175
 11
3.05625
 21
8.857875
 31
-0.13175
  0
ARC
  5
6F6
330
70
100
AcDbEntity
  8
Visible
100
AcDbCircle
 10
-10.3
 20
8.857875
 30
0.13125
 40
0.0437499999999994
210
0.0
220
0.0
230
-1.0
100
AcDbArc
 50
117.462357
 51
179.345177
  0
ARC
  5
6F7
330
70
100
AcDbEntity
  8
Visible
100
AcDbCircle
 10
-10.3
 20
8.857875
 30
0.13125
 40
0.0437500000000027
210
0.0
220
0.0
230
-1.0
100
AcDbArc
 50
180.654823
 51
242.537643
  0
LINE
  5
6F8
330
70
100
AcDbEntity
  8
Visible
100
AcDbLine
 10
2.5
 20
8.858375
 30
-0.13125
 11
2.5
 21
8.857875
 31
-0.13175
  0
LINE
  5
6F9
330
70
100
AcDbEntity
  8
Visible
100
AcDbLine
 10
3.14375
 20
8.857875
 30
-0.13175
 11
4.25625
 21
8.857875
 31
-0.13175
  0
ARC
  5
6FA
330
70
100
AcDbEntity
  8
Visible
100
AcDbCircle
 10
-12.7
 20
8.857875
 30
0.13125
 40
0.0437499999999965
210
0.0
220
0.0
230
-1.0
100
AcDbArc
 50
297.462357
 51
359.345177
  0
ARC
  5
6FB
330
70
100
AcDbEntity
  8
Visible
100
AcDbCircle
 10
-12.7
 20
8.857875
 30
0.13125
 40
0.0437500000000028
210
0.0
220
0.0
230
-1.0
100
AcDbArc
 50
0.654823
 51
62.537643
  0
LINE
  5
6FC
330
70
100
AcDbEntity
  8
Visible
100
AcDbLine
 10
5.54375
 20
8.857875
 30
-0.13175
 11
6.65625
 21
8.857875
 31
-0.13175
  0
LINE
  5
6FD
330
70
100
AcDbEntity
  8
Visible
100
AcDbLine
 10
7.94375
 20
8.857875
 30
-0.13175
 11
9.05625
 21
8.857875
 31
-0.13175
  0
LINE
  5
6FE
330
70
100
AcDbEntity
  8
Visible
100
AcDbLine
 10
10.34375
 20
8.857875
 30
-0.13175
 11
11.45625
 21
8.857875
 31
-0.13175
  0
ARC
  5
6FF
330
70
100
AcDbEntity
  8
Visible
100
AcDbCircle
 10
-12.7
 20
8.857875
 30
0.13125
 40
0.0437500000000028
210
0.0
220
0.0
230
-1.0
100
AcDbArc
 50
117.462357
 51
179.345177
  0
ARC
  5
700
330
70
100
AcDbEntity
  8
Visible
100
AcDbCircle
 10
-12.7
 20
8.857875
 30
0.13125
 40
0.043749999999996
210
0.0
220
0.0
230
-1.0
100
AcDbArc
 50
180.654823
 51
242.537643
  0
LINE
  5
701
330
70
100
AcDbEntity
  8
Visible
100
AcDbLine
 10
12.74375
 20
8.857875
 30
-0.13175
 11
13.85625
 21
8.857875
 31
-0.13175
  0
LINE
  5
702
330
70
100
AcDbEntity
  8
Visible
100
AcDbLine
 10
14.5
 20
8.858375
 30
-0.13125
 11
14.5
 21
8.857875
 31
-0.13175
  0
LINE
  5
703
330
70
100
AcDbEntity
  8
Visible
100
AcDbLine
 10
13.94375
 20
8.857875
 30
-0.13175
 11
14.5
 21
8.857875
 31
-0.13175
  0
LINE
  5
704
330
70
100
AcDbEntity
  8
Visible
100
AcDbLine
 10
9.143747
 20
8.858375
 30
-0.13125
 11
10.256253
 21
8.858375
 31
-0.13125
  0
LINE
  5
705
330
70
100
AcDbEntity
  8
Visible
100
AcDbLine
 10
6.743747
 20
8.858375
 30
-0.13125
 11
7.856253
 21
8.858375
 31
-0.13125
  0
LINE
  5
706
330
70
100
AcDbEntity
  8
Visible
100
AcDbLine
 10
4.343747
 20
8.858375
 30
-0.13125
 11
5.456253
 21
8.858375
 31
-0.13125
  0
LINE
  5
707
330
70
100
AcDbEntity
  8
Visible
100
AcDbLine
 10
2.5
 20
8.858375
 30
-0.13125
 11
3.056253
 21
8.858375
 31
-0.13125
  0
LINE
  5
708
330
70
100
AcDbEntity
  8
Visible
100
AcDbLine
 10
2.5
 20
8.896695
 30
-0.13125
 11
2.5
 21
8.858375
 31
-0.13125
  0
LINE
  5
709
330
70
100
AcDbEntity
  8
Visible
100
AcDbLine
 10
3.143747
 20
8.858375
 30
-0.13125
 11
4.256253
 21
8.858375
 31
-0.13125
  0
LINE
  5
70A
330
70
100
AcDbEntity
  8
Visible
100
AcDbLine
 10
5.543747
 20
8.858375
 30
-0.13125
 11
6.656253
 21
8.858375
 31
-0.13125
  0
LINE
  5
70B
330
70
100
AcDbEntity
  8
Visible
100
AcDbLine
 10
7.943747
 20
8.858375
 30
-0.13125
 11
9.056253
 21
8.858375
 31
-0.13125
  0
LINE
  5
70C
330
70
100
AcDbEntity
  8
Visible
100
AcDbLine
 10
10.343747
 20
8.858375
 30
-0.13125
 11
11.456253
 21
8.858375
 31
-0.13125
  0
LINE
  5
70D
330
70
100
AcDbEntity
  8
Visible
100
AcDbLine
 10
12.743747
 20
8.858375
 30
-0.13125
 11
13.856253
 21
8.858375
 31
-0.13125
  0
LINE
  5
70E
330
70
100
AcDbEntity
  8
Visible
100
AcDbLine
 10
14.5
 20
8.896695
 30
-0.13125
 11
14.5
 21
8.858375
 31
-0.13125
  0
LINE
  5
70F
330
70
100
AcDbEntity
  8
Visible
100
AcDbLine
 10
13.943747
 20
8.858375
 30
-0.13125
 11
14.5
 21
8.858375
 31
-0.13125
  0
SPLINE
  5
710
330
70
100
AcDbEntity
  8
Visible
100
AcDbSpline
 70
     0
 71
     3
 72
    14
 73
    10
 74
     0
 42
0.000000001
 43
0.0000000001
 40
0.2321194991563269
 40
0.2321194991563269
 40
0.2321194991563269
 40
0.2321194991563269
 40
0.290781073789218
 40
0.290781073789218
 40
0.3494426484221091
 40
0.3494426484221091
 40
0.4072358780017944
 40
0.4072358780017944
 40
0.4569766067105017
 40
0.4569766067105017
 40
0.4569766067105017
 40
0.4569766067105017
 10
1.792767427581566
 20
5.938170571460432
 30
-1.312523145038637
 10
1.79445225706695
 20
5.945682311647033
 30
-1.312523145038637
 10
1.79630647513477
 20
5.953696939619476
 30
-1.311028219027313
 10
1.799827265969724
 20
5.968473909266322
 30
-1.304921804310615
 10
1.801491160609657
 20
5.975236691745521
 30
-1.30030983849557
 10
1.804154246816324
 20
5.985877918627011
 30
-1.289668611614575
 10
1.805337476065687
 20
5.990496522375906
 30
-1.282954276993512
 10
1.806814638492141
 20
5.996215401917652
 30
-1.26920394623178
 10
1.807211739493141
 20
5.997732100469875
 30
-1.262343339957834
 10
1.807303992289234
 20
5.998085419741983
 30
-1.255718603613615
1001
ACAD_VIEW_EDGE_ID
1071
       56
1071
       -1
1071
        2
1071
        0
  0
ELLIPSE
  5
711
330
70
100
AcDbEntity
  8
Visible
100
AcDbEllipse
 10
3.52354
 20
5.549971
 30
-9.65787
 11
0.0000000153510942
 21
1.773773627893427
 31
33.25825552300537
210
0.0000000000000002
220
0.998580804677827
230
-0.053257642916145
 40
0.0532576421152226
 41
-1.315395194559758
 42
-1.305543815999231
1001
ACAD_VIEW_EDGE_ID
1071
       57
1071
       -1
1071
        2
1071
        0
  0
SPLINE
  5
712
330
70
100
AcDbEntity
  8
Visible
100
AcDbSpline
 70
     0
 71
     3
 72
    14
 73
    10
 74
     0
 42
0.000000001
 43
0.0000000001
 40
0.0
 40
0.0
 40
0.0
 40
0.0
 40
0.0578711535317885
 40
0.0578711535317885
 40
0.115742307063577
 40
0.115742307063577
 40
0.1751227202862476
 40
0.1751227202862476
 40
0.2345031335089182
 40
0.2345031335089182
 40
0.2345031335089182
 40
0.2345031335089182
 10
1.811801748166544
 20
6.014970692480346
 30
-0.1225231450386446
 10
1.811801748166544
 20
6.014970692480346
 30
-0.114928505467544
 10
1.812215592539359
 20
6.016502362241226
 30
-0.1068529133628797
 10
1.813905337588948
 20
6.022657002340565
 30
-0.0920702376082825
 10
1.815183986038391
 20
6.02727826607952
 30
-0.0853627576963889
 10
1.818200482433894
 20
6.037947641107166
 30
-0.0746933826684841
 10
1.820153691336599
 20
6.044750827499228
 30
-0.0700759933382069
 10
1.82451970778311
 20
6.059541438342421
 30
-0.063992110036756
 10
1.826934893373618
 20
6.067527144154155
 30
-0.0625231450386334
 10
1.829241371609896
 20
6.074970692479837
 30
-0.0625231450386334
1001
ACAD_VIEW_EDGE_ID
1071
       59
1071
       -1
1071
        2
1071
        0
  0
ARC
  5
713
330
70
100
AcDbEntity
  8
Visible
100
AcDbCircle
 10
-3.52354
 20
5.549971
 30
0.062523
 40
1.773773599178254
210
0.0
220
0.0
230
-1.0
100
AcDbArc
 50
17.216261
 51
26.087322
  0
SPLINE
  5
714
330
70
100
AcDbEntity
  8
Visible
100
AcDbSpline
 70
     0
 71
     3
 72
    14
 73
    10
 74
     0
 42
0.000000001
 43
0.0000000001
 40
0.2418450040307225
 40
0.2418450040307225
 40
0.2418450040307225
 40
0.2418450040307225
 40
0.3047703660770569
 40
0.3047703660770569
 40
0.3676957281233913
 40
0.3676957281233913
 40
0.4267485837406293
 40
0.4267485837406293
 40
0.4858014393578673
 40
0.4858014393578673
 40
0.4858014393578673
 40
0.4858014393578673
 10
1.930469744638685
 20
6.329970692479037
 30
-0.0625231450386334
 10
1.934101086764712
 20
6.337387337431209
 30
-0.0625231450386334
 10
1.938059702237296
 20
6.345328231745952
 30
-0.0610705753263341
 10
1.945553741146795
 20
6.360094606736311
 30
-0.0550227200471865
 10
1.949086567055928
 20
6.366920769545686
 30
-0.0504258817152352
 10
1.954641829846877
 20
6.377536408888772
 30
-0.0398102423723814
 10
1.957093088465626
 20
6.38215417075844
 30
-0.0332000010586331
 10
1.960413697577678
 20
6.388374790019952
 30
-0.0184337130108308
 10
1.961274709658027
 20
6.389970692480346
 30
-0.0102728636235616
 10
1.961274709658027
 20
6.389970692480346
 30
-0.0025231450386221
1001
ACAD_VIEW_EDGE_ID
1071
       61
1071
       -1
1071
        2
1071
        0
  0
SPLINE
  5
715
330
70
100
AcDbEntity
  8
Visible
100
AcDbSpline
 70
     0
 71
     3
 72
    14
 73
    10
 74
     0
 42
0.000000001
 43
0.0000000001
 40
0.0
 40
0.0
 40
0.0
 40
0.0
 40
0.0591650085875069
 40
0.0591650085875069
 40
0.1183300171750139
 40
0.1183300171750139
 40
0.1827196926648938
 40
0.1827196926648938
 40
0.2471093681547738
 40
0.2471093681547738
 40
0.2471093681547738
 40
0.2471093681547738
 10
1.961274709658027
 20
6.389970692480346
 30
1.502476854961343
 10
1.961274709658027
 20
6.389970692480346
 30
1.51024129178385
 10
1.962133796900161
 20
6.39157396581686
 30
1.51841713800161
 10
1.965509776255203
 20
6.397807482639109
 30
1.533189550824581
 10
1.968027290577083
 20
6.402430181491581
 30
1.539789157716778
 10
1.973925918808163
 20
6.413109999402877
 30
1.550468975626866
 10
1.977783342135808
 20
6.420017591031864
 30
1.555074471510838
 10
1.986202379182941
 20
6.434808694826642
 30
1.561075586522681
 10
1.990765378661308
 20
6.442689125427932
 30
1.562476854961365
 10
1.995052893023967
 20
6.449970692479837
 30
1.562476854961365
1001
ACAD_VIEW_EDGE_ID
1071
       71
1071
       -1
1071
        2
1071
        0
  0
ARC
  5
716
330
70
100
AcDbEntity
  8
Visible
100
AcDbCircle
 10
-3.52354
 20
5.549971
 30
-1.562477
 40
1.77377359918978
210
0.0
220
0.0
230
-1.0
100
AcDbArc
 50
30.490323
 51
32.286889
  0
SPLINE
  5
717
330
70
100
AcDbEntity
  8
Visible
100
AcDbSpline
 70
     0
 71
     3
 72
    14
 73
    10
 74
     0
 42
0.000000001
 43
0.0000000001
 40
0.0
 40
0.0
 40
0.0
 40
0.0000000000000108
 40
0.0623093183986467
 40
0.0623093183986467
 40
0.1246186367972933
 40
0.1246186367972933
 40
0.1942638425826375
 40
0.1942638425826375
 40
0.2639090483679818
 40
0.2639090483679818
 40
0.2639090483679818
 40
0.2639090483679818
 10
2.024020013686822
 20
6.497447682066194
 30
1.999976854961372
 10
2.024020013686822
 20
6.497447682066194
 30
2.008153930866706
 10
2.025095056502323
 20
6.499154852574065
 30
2.016718144632605
 10
2.029252065516629
 20
6.505685810876457
 30
2.032096754910385
 10
2.032333018974895
 20
6.510498581146748
 30
2.038916101689355
 10
2.039556958903631
 20
6.521627115727824
 30
2.050044636271631
 10
2.044311309464319
 20
6.528868656507256
 30
2.054834165727159
 10
2.05462208400786
 20
6.544273915193116
 30
2.061047005997211
 10
2.060179718053404
 20
6.552434185503443
 30
2.062476854961358
 10
2.065383864955947
 20
6.559947682066194
 30
2.062476854961358
1001
ACAD_VIEW_EDGE_ID
1071
       81
1071
       -1
1071
        2
1071
        0
  0
ARC
  5
718
330
70
100
AcDbEntity
  8
Visible
100
AcDbCircle
 10
-3.52354
 20
5.549971
 30
-2.062477
 40
1.773773599176268
210
0.0
220
0.0
230
-1.0
100
AcDbArc
 50
34.708015
 51
39.363716
  0
SPLINE
  5
719
330
70
100
AcDbEntity
  8
Visible
100
AcDbSpline
 70
     0
 71
     3
 72
    14
 73
    10
 74
     0
 42
0.000000001
 43
0.0000000001
 40
0.5412477461387497
 40
0.5412477461387497
 40
0.5412477461387497
 40
0.5412477461387497
 40
0.7034996200469266
 40
0.7034996200469266
 40
0.8657514939551033
 40
0.8657514939551033
 40
0.9851496703434413
 40
0.9851496703434413
 40
1.104547846731779
 40
1.104547846731779
 40
1.104547846731779
 40
1.104547846731779
 10
2.152172860778591
 20
6.674970692480201
 30
2.062476854961358
 10
2.165677689667063
 20
6.691432984314815
 30
2.062476854961358
 10
2.180568369169122
 20
6.708922382564196
 30
2.059074341671071
 10
2.209264026889286
 20
6.741365038053118
 30
2.044856819385771
 10
2.223065515438065
 20
6.756333434866974
 30
2.034069331312427
 10
2.242734296964044
 20
6.777145064363139
 30
2.010698392642185
 10
2.250743325683288
 20
6.785416137616266
 30
1.998026036353596
 10
2.261938525596633
 20
6.796846203807945
 30
1.969269284917682
 10
2.26505963603995
 20
6.799970692480201
 30
1.953145906980826
 10
2.26505963603995
 20
6.799970692480201
 30
1.93747685496136
1001
ACAD_VIEW_EDGE_ID
1071
       83
1071
       -1
1071
        2
1071
        0
  0
SPLINE
  5
71A
330
70
100
AcDbEntity
  8
Visible
100
AcDbSpline
 70
     0
 71
     3
 72
    16
 73
    12
 74
     0
 42
0.000000001
 43
0.0000000001
 40
0.0
 40
0.0
 40
0.0
 40
0.0
 40
0.0652680612243033
 40
0.0652680612243033
 40
0.1305361224486065
 40
0.1305361224486065
 40
0.2610722448972131
 40
0.2610722448972131
 40
0.4124266041341328
 40
0.4124266041341328
 40
0.5637809633710523
 40
0.5637809633710523
 40
0.5637809633710523
 40
0.5637809633710523
 10
2.265059636045407
 20
4.299970692480201
 30
1.93747685496136
 10
2.265059636045407
 20
4.299970692480201
 30
1.946042217326754
 10
2.264170429278237
 20
4.300864122964412
 30
1.954686396792497
 10
2.260693609447116
 20
4.304379294124373
 30
1.971481613085169
 10
2.258108454654575
 20
4.306999512653419
 30
1.979633477249936
 10
2.248381448169311
 20
4.31695423304518
 30
2.002553472058288
 10
2.23919097610269
 20
4.326487157191877
 30
2.015770014970196
 10
2.218745784404745
 20
4.348287538978183
 30
2.037570396757397
 10
2.205664987686759
 20
4.362580535884262
 30
2.047049955694964
 10
2.1786749269977
 20
4.393239146946143
 30
2.059509248956675
 10
2.164770648862031
 20
4.409614077037986
 30
2.062476854961358
 10
2.152172860782229
 20
4.424970692480201
 30
2.062476854961358
1001
ACAD_VIEW_EDGE_ID
1071
       97
1071
       -1
1071
        2
1071
        0
  0
ARC
  5
71B
330
70
100
AcDbEntity
  8
Visible
100
AcDbCircle
 10
-3.52354
 20
5.549971
 30
-2.062477
 40
1.773773599177256
210
0.0
220
0.0
230
-1.0
100
AcDbArc
 50
320.636284
 51
325.291985
  0
SPLINE
  5
71C
330
70
100
AcDbEntity
  8
Visible
100
AcDbSpline
 70
     0
 71
     3
 72
    14
 73
    10
 74
     0
 42
0.000000001
 43
0.0000000001
 40
0.2678486153911057
 40
0.2678486153911057
 40
0.2678486153911057
 40
0.2678486153911057
 40
0.3405940736151775
 40
0.3405940736151775
 40
0.4133395318392493
 40
0.4133395318392493
 40
0.4725284151259492
 40
0.4725284151259492
 40
0.531717298412649
 40
0.531717298412649
 40
0.531717298412656
 40
0.531717298412656
 10
2.065383864959585
 20
4.539993702892388
 30
2.062476854961358
 10
2.059948055748463
 20
4.547841662335486
 30
2.062476854961358
 10
2.054156101343323
 20
4.556353046564254
 30
2.060917637744199
 10
2.043482965696966
 20
4.572322369536777
 30
2.054164164542799
 10
2.038599888925091
 20
4.579776900109209
 30
2.048964846760518
 10
2.031607976614395
 20
4.590572460439943
 30
2.037373850860964
 10
2.028786634831703
 20
4.594984980083609
 30
2.030733298271107
 10
2.024991754058646
 20
4.600950941363407
 30
2.015920965346454
 10
2.02402001369046
 20
4.602493702892388
 30
2.007744424946501
 10
2.02402001369046
 20
4.602493702892388
 30
1.999976854961369
1001
ACAD_VIEW_EDGE_ID
1071
       99
1071
       -1
1071
        2
1071
        0
  0
ARC
  5
71D
330
70
100
AcDbEntity
  8
Visible
100
AcDbCircle
 10
-3.52354
 20
5.549971
 30
-1.562477
 40
1.773773599190859
210
0.0
220
0.0
230
-1.0
100
AcDbArc
 50
327.713111
 51
329.509677
  0
SPLINE
  5
71E
330
70
100
AcDbEntity
  8
Visible
100
AcDbSpline
 70
     0
 71
     3
 72
    14
 73
    10
 74
     0
 42
0.000000001
 43
0.0000000001
 40
0.2498759172139694
 40
0.2498759172139694
 40
0.2498759172139694
 40
0.2498759172139694
 40
0.3164719391690133
 40
0.3164719391690133
 40
0.3830679611240571
 40
0.3830679611240571
 40
0.4400159640540095
 40
0.4400159640540095
 40
0.4969639669839617
 40
0.4969639669839617
 40
0.4969639669839617
 40
0.4969639669839617
 10
1.995052893025786
 20
4.649970692478746
 30
1.562476854961365
 10
1.990618464704311
 20
4.657501766298082
 30
1.562476854961365
 10
1.985908290162115
 20
4.665641555367983
 30
1.56097845884257
 10
1.977264238381394
 20
4.680844368462203
 30
1.55458088340196
 10
1.973328567441058
 20
4.68790425347106
 30
1.549676669766285
 10
1.967579573472903
 20
4.698331032212081
 30
1.538672269356402
 10
1.965223890118068
 20
4.702660417673541
 30
1.532205961484439
 10
1.962071504365667
 20
4.708483950338631
 30
1.517846490773199
 10
1.961274709659846
 20
4.709970692480055
 30
1.509950346159522
 10
1.961274709659846
 20
4.709970692480055
 30
1.502476854961365
1001
ACAD_VIEW_EDGE_ID
1071
      109
1071
       -1
1071
        2
1071
        0
  0
SPLINE
  5
71F
330
70
100
AcDbEntity
  8
Visible
100
AcDbSpline
 70
     0
 71
     3
 72
    14
 73
    10
 74
     0
 42
0.000000001
 43
0.0000000001
 40
0.0
 40
0.0
 40
0.0
 40
0.0
 40
0.0571808003527729
 40
0.0571808003527729
 40
0.1143616007055457
 40
0.1143616007055457
 40
0.1791484691517652
 40
0.1791484691517652
 40
0.2439353375979847
 40
0.2439353375979847
 40
0.2439353375979847
 40
0.2439353375979847
 10
1.961274709659846
 20
4.709970692480055
 30
-0.0025231450386447
 10
1.961274709659846
 20
4.709970692480055
 30
-0.0100271870796909
 10
1.960466860589804
 20
4.711468288833202
 30
-0.0179520141055676
 10
1.957330444083709
 20
4.71734139495129
 30
-0.0323683855027603
 10
1.955009696528577
 20
4.721709983401524
 30
-0.0388644486005565
 10
1.949561406965585
 20
4.732105731383853
 30
-0.0497476828543793
 10
1.945958096011963
 20
4.739057614793637
 30
-0.0545970225361501
 10
1.938280249944
 20
4.754171591894191
 30
-0.0609842050096465
 10
1.934208511918768
 20
4.762334642638961
 30
-0.0625231450386334
 10
1.930469744640504
 20
4.769970692479546
 30
-0.0625231450386334
1001
ACAD_VIEW_EDGE_ID
1071
      119
1071
       -1
1071
        2
1071
        0
  0
ARC
  5
720
330
70
100
AcDbEntity
  8
Visible
100
AcDbCircle
 10
-3.52354
 20
5.549971
 30
0.062523
 40
1.773773599179302
210
0.0
220
0.0
230
-1.0
100
AcDbArc
 50
333.912678
 51
342.783739
  0
SPLINE
  5
721
330
70
100
AcDbEntity
  8
Visible
100
AcDbSpline
 70
     0
 71
     3
 72
    14
 73
    10
 74
     0
 42
0.000000001
 43
0.0000000001
 40
0.2356490925858248
 40
0.2356490925858248
 40
0.2356490925858248
 40
0.2356490925858248
 40
0.2956478413668366
 40
0.2956478413668366
 40
0.3556465901478484
 40
0.3556465901478484
 40
0.4128985799166792
 40
0.4128985799166792
 40
0.4701505696855099
 40
0.4701505696855099
 40
0.4701505696855099
 40
0.4701505696855099
 10
1.829241371611715
 20
5.024970692478746
 30
-0.0625231450386334
 10
1.826910875734029
 20
5.032491751389898
 30
-0.0625231450386334
 10
1.824472607146162
 20
5.040556058469519
 30
-0.0640226667239139
 10
1.820072787701064
 20
5.055468183310949
 30
-0.0702248403852628
 10
1.818108754037893
 20
5.062314250908457
 30
-0.0749299384292124
 10
1.81511754211715
 20
5.07290213404849
 30
-0.0856870948608344
 10
1.813863482375381
 20
5.07743620738438
 30
-0.0923534150496277
 10
1.812206896229326
 20
5.083471343637938
 30
-0.107014543300969
 10
1.811801748168363
 20
5.084970692480055
 30
-0.115009760554535
 10
1.811801748168363
 20
5.084970692480055
 30
-0.1225231450386335
1001
ACAD_VIEW_EDGE_ID
1071
      121
1071
       -1
1071
        2
1071
        0
  0
ELLIPSE
  5
722
330
70
100
AcDbEntity
  8
Visible
100
AcDbEllipse
 10
3.52354
 20
5.549971
 30
-9.65787
 11
-0.0000000208077534
 21
-1.773773560224006
 31
33.25825425420727
210
-0.0000000000000002
220
-0.9985808046778272
230
-0.0532576429161394
 40
0.0532576440028282
 41
1.305543805574821
 42
1.315395184537851
1001
ACAD_VIEW_EDGE_ID
1071
      123
1071
       -1
1071
        2
1071
        0
  0
SPLINE
  5
723
330
70
100
AcDbEntity
  8
Visible
100
AcDbSpline
 70
     0
 71
     3
 72
    14
 73
    10
 74
     0
 42
0.000000001
 43
0.0000000001
 40
0.0080514341875641
 40
0.0080514341875641
 40
0.0080514341875641
 40
0.0080514341875641
 40
0.0573590060779048
 40
0.0573590060779048
 40
0.1147180121558097
 40
0.1147180121558097
 40
0.1738132346073955
 40
0.1738132346073955
 40
0.2329084570589814
 40
0.2329084570589814
 40
0.2329084570589814
 40
0.2329084570589814
 10
1.807303992291053
 20
5.1018559652166
 30
-1.255718603613615
 10
1.807212519797758
 20
5.102206296001895
 30
-1.262287305820545
 10
1.806821296429916
 20
5.10370061696085
 30
-1.269092227692423
 10
1.805364914320307
 20
5.10933816810575
 30
-1.282755415466598
 10
1.804197090006709
 20
5.113895381420661
 30
-1.289440639349558
 10
1.80154698672959
 20
5.124478558625924
 30
-1.300142716291598
 10
1.799874760015882
 20
5.1312711071605
 30
-1.304816247650987
 10
1.796332247889949
 20
5.146133369473318
 30
-1.31100622829801
 10
1.794464711943874
 20
5.154203543779658
 30
-1.312523145038637
 10
1.792767427583385
 20
5.161770813498151
 30
-1.312523145038637
1001
ACAD_VIEW_EDGE_ID
1071
      124
1071
       -1
1071
        2
1071
        0
  0
ARC
  5
724
330
70
100
AcDbEntity
  8
Visible
100
AcDbCircle
 10
-3.52354
 20
5.549971
 30
1.312523
 40
1.773773599178868
210
0.0
220
0.0
230
-1.0
100
AcDbArc
 50
347.358188
 51
359.838492
  0
ELLIPSE
  5
725
330
70
100
AcDbEntity
  8
Visible
100
AcDbEllipse
 10
3.52354
 20
5.549971
 30
-1.317523
 11
0.0000000013846737
 21
-1.773773688013406
 31
1.773773688013721
210
-0.0000000000000002
220
-0.7071067811866105
230
-0.7071067811864848
 40
0.7071067457732731
 41
1.567977474555868
 42
1.570796327183976
1001
ACAD_VIEW_EDGE_ID
1071
      126
1071
       -1
1071
        2
1071
        0
  0
ELLIPSE
  5
726
330
70
100
AcDbEntity
  8
Visible
100
AcDbEllipse
 10
3.52354
 20
5.549971
 30
-1.317523
 11
0.0000000013952926
 21
1.773773688026639
 31
1.773773688026954
210
0.0000000000000002
220
0.7071067811866106
230
-0.7071067811864847
 40
0.7071067457679979
 41
4.712388979990138
 42
4.715207832617713
1001
ACAD_VIEW_EDGE_ID
1071
      127
1071
       -1
1071
        2
1071
        0
  0
ARC
  5
727
330
70
100
AcDbEntity
  8
Visible
100
AcDbCircle
 10
-3.52354
 20
5.549971
 30
1.312523
 40
1.773773599178781
210
0.0
220
0.0
230
-1.0
100
AcDbArc
 50
0.161508
 51
12.641812
  0
SPLINE
  5
728
330
70
100
AcDbEntity
  8
Visible
100
AcDbSpline
 70
     0
 71
     3
 72
    14
 73
    10
 74
     0
 42
0.000000001
 43
0.0000000001
 40
0.4730800468088752
 40
0.4730800468088752
 40
0.4730800468088752
 40
0.4730800468088752
 40
0.5228207755175827
 40
0.5228207755175827
 40
0.5806140050972681
 40
0.5806140050972681
 40
0.6392755797301591
 40
0.6392755797301591
 40
0.6979371543630501
 40
0.6979371543630501
 40
0.6979371543630501
 40
0.6979371543630501
 10
5.239775971698691
 20
5.998085419741983
 30
-1.255718603613615
 10
5.239868224494784
 20
5.997732100469875
 30
-1.262343339957834
 10
5.240265325495784
 20
5.996215401917652
 30
-1.269203946231779
 10
5.241742487922238
 20
5.990496522375906
 30
-1.282954276993512
 10
5.242925717171601
 20
5.985877918627011
 30
-1.289668611614575
 10
5.245588803378268
 20
5.975236691745521
 30
-1.30030983849557
 10
5.247252698018201
 20
5.968473909266322
 30
-1.304921804310614
 10
5.250773488853155
 20
5.953696939619476
 30
-1.311028219027313
 10
5.252627706920975
 20
5.945682311647033
 30
-1.312523145038637
 10
5.254312536406359
 20
5.938170571460432
 30
-1.312523145038637
1001
ACAD_VIEW_EDGE_ID
1071
      129
1071
       -1
1071
        2
1071
        0
  0
ARC
  5
729
330
70
100
AcDbEntity
  8
Visible
100
AcDbCircle
 10
-3.52354
 20
5.549971
 30
1.312523
 40
1.773773599178775
210
0.0
220
0.0
230
-1.0
100
AcDbArc
 50
167.358188
 51
179.838492
  0
ELLIPSE
  5
72A
330
70
100
AcDbEntity
  8
Visible
100
AcDbEllipse
 10
3.52354
 20
5.549971
 30
-1.317523
 11
-0.0000000013947681
 21
1.773773687952722
 31
1.773773687953038
210
0.0000000000000002
220
0.7071067811866105
230
-0.7071067811864847
 40
0.7071067457974643
 41
1.567977474561607
 42
1.570796327189298
1001
ACAD_VIEW_EDGE_ID
1071
      131
1071
       -1
1071
        2
1071
        0
  0
ELLIPSE
  5
72B
330
70
100
AcDbEntity
  8
Visible
100
AcDbEllipse
 10
3.52354
 20
5.549971
 30
-1.317523
 11
-0.0000000013846808
 21
-1.773773688025065
 31
1.773773688025381
210
-0.0000000000000002
220
-0.7071067811866105
230
-0.7071067811864847
 40
0.7071067457686251
 41
4.712388979995608
 42
4.715207832623697
1001
ACAD_VIEW_EDGE_ID
1071
      132
1071
       -1
1071
        2
1071
        0
  0
ARC
  5
72C
330
70
100
AcDbEntity
  8
Visible
100
AcDbCircle
 10
-3.52354
 20
5.549971
 30
1.312523
 40
1.773773599178885
210
0.0
220
0.0
230
-1.0
100
AcDbArc
 50
180.161508
 51
192.641812
  0
SPLINE
  5
72D
330
70
100
AcDbEntity
  8
Visible
100
AcDbSpline
 70
     0
 71
     3
 72
    14
 73
    10
 74
     0
 42
0.000000001
 43
0.0000000001
 40
0.6971481964606854
 40
0.6971481964606854
 40
0.6971481964606854
 40
0.6971481964606854
 40
0.7562434189122714
 40
0.7562434189122714
 40
0.8153386413638571
 40
0.8153386413638571
 40
0.872697647441762
 40
0.872697647441762
 40
0.9220052193321031
 40
0.9220052193321031
 40
0.9220052193321031
 40
0.9220052193321031
 10
5.25431253640454
 20
5.161770813498151
 30
-1.312523145038637
 10
5.252615252044051
 20
5.154203543779658
 30
-1.312523145038637
 10
5.250747716097976
 20
5.146133369473318
 30
-1.31100622829801
 10
5.247205203972043
 20
5.1312711071605
 30
-1.304816247650987
 10
5.245532977258335
 20
5.124478558625924
 30
-1.300142716291598
 10
5.242882873981216
 20
5.113895381420661
 30
-1.289440639349558
 10
5.241715049667618
 20
5.10933816810575
 30
-1.2827554154666
 10
5.240258667558009
 20
5.10370061696085
 30
-1.269092227692425
 10
5.239867444190167
 20
5.102206296001895
 30
-1.262287305820545
 10
5.239775971696872
 20
5.1018559652166
 30
-1.255718603613615
1001
ACAD_VIEW_EDGE_ID
1071
      134
1071
       -1
1071
        2
1071
        0
  0
ELLIPSE
  5
72E
330
70
100
AcDbEntity
  8
Visible
100
AcDbEllipse
 10
3.52354
 20
5.549971
 30
-9.65787
 11
0.000000020815696
 21
-1.773773560209231
 31
33.25825425393022
210
-0.0000000000000002
220
-0.9985808046778272
230
-0.0532576429161394
 40
0.05325764400324
 41
-1.315395184535664
 42
-1.305543805572545
1001
ACAD_VIEW_EDGE_ID
1071
      135
1071
       -1
1071
        2
1071
        0
  0
SPLINE
  5
72F
330
70
100
AcDbEntity
  8
Visible
100
AcDbSpline
 70
     0
 71
     3
 72
    14
 73
    10
 74
     0
 42
0.000000001
 43
0.0000000001
 40
0.4701560070759596
 40
0.4701560070759596
 40
0.4701560070759596
 40
0.4701560070759596
 40
0.5274079968447902
 40
0.5274079968447902
 40
0.5846599866136211
 40
0.5846599866136211
 40
0.644658735394633
 40
0.644658735394633
 40
0.7046574841756447
 40
0.7046574841756447
 40
0.7046574841756447
 40
0.7046574841756447
 10
5.235278215819562
 20
5.084970692480055
 30
-0.1225231450386337
 10
5.235278215819562
 20
5.084970692480055
 30
-0.1150097605545353
 10
5.234873067758599
 20
5.083471343637938
 30
-0.1070145433009679
 10
5.233216481612544
 20
5.07743620738438
 30
-0.092353415049627
 10
5.231962421870775
 20
5.07290213404849
 30
-0.0856870948608346
 10
5.228971209950032
 20
5.062314250908457
 30
-0.0749299384292124
 10
5.227007176286861
 20
5.055468183310949
 30
-0.0702248403852628
 10
5.222607356841763
 20
5.040556058469519
 30
-0.0640226667239139
 10
5.220169088253896
 20
5.032491751389898
 30
-0.0625231450386334
 10
5.21783859237621
 20
5.024970692478746
 30
-0.0625231450386334
1001
ACAD_VIEW_EDGE_ID
1071
      137
1071
       -1
1071
        2
1071
        0
  0
ARC
  5
730
330
70
100
AcDbEntity
  8
Visible
100
AcDbCircle
 10
-3.52354
 20
5.549971
 30
0.062523
 40
1.77377359917938
210
0.0
220
0.0
230
-1.0
100
AcDbArc
 50
197.216261
 51
206.087322
  0
SPLINE
  5
731
330
70
100
AcDbEntity
  8
Visible
100
AcDbSpline
 70
     0
 71
     3
 72
    14
 73
    10
 74
     0
 42
0.000000001
 43
0.0000000001
 40
-0.2439353375979847
 40
-0.2439353375979847
 40
-0.2439353375979847
 40
-0.2439353375979847
 40
-0.1791484691517652
 40
-0.1791484691517652
 40
-0.1143616007055457
 40
-0.1143616007055457
 40
-0.0571808003527729
 40
-0.0571808003527729
 40
0.0
 40
0.0
 40
0.0
 40
0.0
 10
5.116610219347421
 20
4.769970692479546
 30
-0.0625231450386334
 10
5.112871452069157
 20
4.762334642638961
 30
-0.0625231450386334
 10
5.108799714043925
 20
4.754171591894191
 30
-0.0609842050096465
 10
5.101121867975962
 20
4.739057614793637
 30
-0.0545970225361501
 10
5.09751855702234
 20
4.732105731383853
 30
-0.0497476828543793
 10
5.092070267459348
 20
4.721709983401524
 30
-0.0388644486005565
 10
5.089749519904216
 20
4.71734139495129
 30
-0.0323683855027603
 10
5.086613103398121
 20
4.711468288833202
 30
-0.0179520141055676
 10
5.085805254328079
 20
4.709970692480055
 30
-0.0100271870796909
 10
5.085805254328079
 20
4.709970692480055
 30
-0.0025231450386447
1001
ACAD_VIEW_EDGE_ID
1071
      139
1071
       -1
1071
        2
1071
        0
  0
SPLINE
  5
732
330
70
100
AcDbEntity
  8
Visible
100
AcDbSpline
 70
     0
 71
     3
 72
    14
 73
    10
 74
     0
 42
0.000000001
 43
0.0000000001
 40
0.4970281090530017
 40
0.4970281090530017
 40
0.4970281090530017
 40
0.4970281090530017
 40
0.553976111982954
 40
0.553976111982954
 40
0.6109241149129062
 40
0.6109241149129062
 40
0.6775201368679501
 40
0.6775201368679501
 40
0.7441161588229939
 40
0.7441161588229939
 40
0.7441161588229939
 40
0.7441161588229939
 10
5.085805254328079
 20
4.709970692480055
 30
1.502476854961365
 10
5.085805254328079
 20
4.709970692480055
 30
1.509950346159522
 10
5.085008459622258
 20
4.708483950338631
 30
1.517846490773199
 10
5.081856073869857
 20
4.702660417673541
 30
1.532205961484439
 10
5.079500390515022
 20
4.698331032212081
 30
1.538672269356402
 10
5.073751396546867
 20
4.68790425347106
 30
1.549676669766285
 10
5.069815725606531
 20
4.680844368462203
 30
1.55458088340196
 10
5.061171673825811
 20
4.665641555367983
 30
1.56097845884257
 10
5.056461499283614
 20
4.657501766298082
 30
1.562476854961365
 10
5.052027070962139
 20
4.649970692478746
 30
1.562476854961365
1001
ACAD_VIEW_EDGE_ID
1071
      149
1071
       -1
1071
        2
1071
        0
  0
ARC
  5
733
330
70
100
AcDbEntity
  8
Visible
100
AcDbCircle
 10
-3.52354
 20
5.549971
 30
-1.562477
 40
1.77377359919236
210
0.0
220
0.0
230
-1.0
100
AcDbArc
 50
210.490323
 51
212.286889
  0
SPLINE
  5
734
330
70
100
AcDbEntity
  8
Visible
100
AcDbSpline
 70
     0
 71
     3
 72
    14
 73
    10
 74
     0
 42
0.000000001
 43
0.0000000001
 40
0.5318429490404534
 40
0.5318429490404534
 40
0.531842949040461
 40
0.531842949040461
 40
0.5910318323271609
 40
0.5910318323271609
 40
0.6502207156138607
 40
0.6502207156138607
 40
0.7229661738379325
 40
0.7229661738379325
 40
0.7957116320620043
 40
0.7957116320620043
 40
0.7957116320620043
 40
0.7957116320620043
 10
5.023059950297465
 20
4.602493702892388
 30
1.999976854961369
 10
5.023059950297465
 20
4.602493702892388
 30
2.007744424946501
 10
5.022088209929279
 20
4.600950941363407
 30
2.015920965346454
 10
5.018293329156222
 20
4.594984980083609
 30
2.030733298271107
 10
5.01547198737353
 20
4.590572460439943
 30
2.037373850860964
 10
5.008480075062834
 20
4.579776900109209
 30
2.048964846760518
 10
5.003596998290959
 20
4.572322369536777
 30
2.054164164542796
 10
4.992923862644602
 20
4.556353046564254
 30
2.060917637744197
 10
4.987131908239462
 20
4.547841662335486
 30
2.062476854961358
 10
4.98169609902834
 20
4.539993702892388
 30
2.062476854961358
1001
ACAD_VIEW_EDGE_ID
1071
      159
1071
       -1
1071
        2
1071
        0
  0
ARC
  5
735
330
70
100
AcDbEntity
  8
Visible
100
AcDbCircle
 10
-3.52354
 20
5.549971
 30
-2.062477
 40
1.773773599176234
210
0.0
220
0.0
230
-1.0
100
AcDbArc
 50
214.708015
 51
219.363716
  0
SPLINE
  5
736
330
70
100
AcDbEntity
  8
Visible
100
AcDbSpline
 70
     0
 71
     3
 72
    16
 73
    12
 74
     0
 42
0.000000001
 43
0.0000000001
 40
-0.5637809633710523
 40
-0.5637809633710523
 40
-0.5637809633710523
 40
-0.5637809633710523
 40
-0.4124266041341325
 40
-0.4124266041341325
 40
-0.2610722448972129
 40
-0.2610722448972129
 40
-0.1305361224486066
 40
-0.1305361224486066
 40
-0.0652680612243031
 40
-0.0652680612243031
 40
0.0
 40
0.0
 40
0.0
 40
0.0
 10
4.894907103205696
 20
4.424970692480201
 30
2.062476854961358
 10
4.882309315125894
 20
4.409614077037986
 30
2.062476854961358
 10
4.868405036990225
 20
4.393239146946143
 30
2.059509248956676
 10
4.841414976301166
 20
4.362580535884262
 30
2.047049955694967
 10
4.82833417958318
 20
4.348287538978183
 30
2.037570396757397
 10
4.807888987885235
 20
4.326487157191877
 30
2.015770014970196
 10
4.798698515818614
 20
4.31695423304518
 30
2.002553472058288
 10
4.78897150933335
 20
4.306999512653419
 30
1.979633477249936
 10
4.786386354540809
 20
4.304379294124373
 30
1.971481613085169
 10
4.782909534709688
 20
4.300864122964412
 30
1.954686396792497
 10
4.782020327942518
 20
4.299970692480201
 30
1.946042217326754
 10
4.782020327942518
 20
4.299970692480201
 30
1.93747685496136
1001
ACAD_VIEW_EDGE_ID
1071
      161
1071
       -1
1071
        2
1071
        0
  0
SPLINE
  5
737
330
70
100
AcDbEntity
  8
Visible
100
AcDbSpline
 70
     0
 71
     3
 72
    14
 73
    10
 74
     0
 42
0.000000001
 43
0.0000000001
 40
1.105123527013906
 40
1.105123527013906
 40
1.105123527013906
 40
1.105123527013906
 40
1.224521703402244
 40
1.224521703402244
 40
1.343919879790582
 40
1.343919879790582
 40
1.506171753698759
 40
1.506171753698759
 40
1.668423627606936
 40
1.668423627606936
 40
1.668423627606936
 40
1.668423627606936
 10
4.782020327947975
 20
6.799970692480201
 30
1.93747685496136
 10
4.782020327947975
 20
6.799970692480201
 30
1.953145906980826
 10
4.785141438391292
 20
6.796846203807945
 30
1.969269284917682
 10
4.796336638304637
 20
6.785416137616266
 30
1.998026036353596
 10
4.804345667023881
 20
6.777145064363139
 30
2.010698392642185
 10
4.82401444854986
 20
6.756333434866974
 30
2.034069331312427
 10
4.837815937098639
 20
6.741365038053118
 30
2.044856819385773
 10
4.866511594818803
 20
6.708922382564196
 30
2.059074341671072
 10
4.881402274320862
 20
6.691432984314815
 30
2.062476854961358
 10
4.894907103209334
 20
6.674970692480201
 30
2.062476854961358
1001
ACAD_VIEW_EDGE_ID
1071
      175
1071
       -1
1071
        2
1071
        0
  0
ARC
  5
738
330
70
100
AcDbEntity
  8
Visible
100
AcDbCircle
 10
-3.52354
 20
5.549971
 30
-2.062477
 40
1.773773599176394
210
0.0
220
0.0
230
-1.0
100
AcDbArc
 50
140.636284
 51
145.291985
  0
SPLINE
  5
739
330
70
100
AcDbEntity
  8
Visible
100
AcDbSpline
 70
     0
 71
     3
 72
    14
 73
    10
 74
     0
 42
0.000000001
 43
0.0000000001
 40
-0.2639090483679818
 40
-0.2639090483679818
 40
-0.2639090483679818
 40
-0.2639090483679818
 40
-0.1942638425826375
 40
-0.1942638425826375
 40
-0.1246186367972933
 40
-0.1246186367972933
 40
-0.0623093183986467
 40
-0.0623093183986467
 40
-0.0000000000000101
 40
0.0
 40
0.0
 40
0.0
 10
4.981696099031978
 20
6.559947682066194
 30
2.062476854961358
 10
4.986900245934521
 20
6.552434185503443
 30
2.062476854961358
 10
4.992457879980065
 20
6.544273915193116
 30
2.061047005997211
 10
5.002768654523606
 20
6.528868656507256
 30
2.054834165727158
 10
5.007523005084294
 20
6.521627115727824
 30
2.050044636271631
 10
5.01474694501303
 20
6.510498581146748
 30
2.038916101689355
 10
5.017827898471296
 20
6.505685810876457
 30
2.032096754910385
 10
5.021984907485602
 20
6.499154852574065
 30
2.016718144632605
 10
5.023059950301103
 20
6.497447682066194
 30
2.008153930866706
 10
5.023059950301103
 20
6.497447682066194
 30
1.999976854961371
1001
ACAD_VIEW_EDGE_ID
1071
      177
1071
       -1
1071
        2
1071
        0
  0
ARC
  5
73A
330
70
100
AcDbEntity
  8
Visible
100
AcDbCircle
 10
-3.52354
 20
5.549971
 30
-1.562477
 40
1.773773599188305
210
0.0
220
0.0
230
-1.0
100
AcDbArc
 50
147.713111
 51
149.509677
  0
SPLINE
  5
73B
330
70
100
AcDbEntity
  8
Visible
100
AcDbSpline
 70
     0
 71
     3
 72
    14
 73
    10
 74
     0
 42
0.000000001
 43
0.0000000001
 40
-0.2471093681547738
 40
-0.2471093681547738
 40
-0.2471093681547738
 40
-0.2471093681547738
 40
-0.1827196926648938
 40
-0.1827196926648938
 40
-0.1183300171750139
 40
-0.1183300171750139
 40
-0.059165008587507
 40
-0.059165008587507
 40
0.0
 40
0.0
 40
0.0
 40
0.0
 10
5.052027070963958
 20
6.449970692479837
 30
1.562476854961365
 10
5.056314585326617
 20
6.442689125427932
 30
1.562476854961365
 10
5.060877584804984
 20
6.434808694826642
 30
1.561075586522681
 10
5.069296621852117
 20
6.420017591031864
 30
1.555074471510838
 10
5.073154045179762
 20
6.413109999402877
 30
1.550468975626866
 10
5.079052673410842
 20
6.402430181491581
 30
1.539789157716778
 10
5.081570187732722
 20
6.397807482639109
 30
1.533189550824581
 10
5.084946167087764
 20
6.39157396581686
 30
1.51841713800161
 10
5.085805254329898
 20
6.389970692480346
 30
1.51024129178385
 10
5.085805254329898
 20
6.389970692480346
 30
1.502476854961343
1001
ACAD_VIEW_EDGE_ID
1071
      187
1071
       -1
1071
        2
1071
        0
  0
SPLINE
  5
73C
330
70
100
AcDbEntity
  8
Visible
100
AcDbSpline
 70
     0
 71
     3
 72
    14
 73
    10
 74
     0
 42
0.000000001
 43
0.0000000001
 40
0.4857698595031028
 40
0.4857698595031028
 40
0.4857698595031028
 40
0.4857698595031028
 40
0.5448227151203407
 40
0.5448227151203407
 40
0.6038755707375787
 40
0.6038755707375787
 40
0.6668009327839131
 40
0.6668009327839131
 40
0.7297262948302475
 40
0.7297262948302475
 40
0.7297262948302475
 40
0.7297262948302475
 10
5.085805254329898
 20
6.389970692480346
 30
-0.0025231450386221
 10
5.085805254329898
 20
6.389970692480346
 30
-0.0102728636235616
 10
5.086666266410247
 20
6.388374790019952
 30
-0.0184337130108308
 10
5.089986875522299
 20
6.38215417075844
 30
-0.0332000010586331
 10
5.092438134141048
 20
6.377536408888772
 30
-0.0398102423723814
 10
5.097993396931997
 20
6.366920769545686
 30
-0.0504258817152352
 10
5.10152622284113
 20
6.360094606736311
 30
-0.0550227200471865
 10
5.109020261750629
 20
6.345328231745952
 30
-0.0610705753263341
 10
5.112978877223213
 20
6.337387337431209
 30
-0.0625231450386334
 10
5.11661021934924
 20
6.329970692479037
 30
-0.0625231450386334
1001
ACAD_VIEW_EDGE_ID
1071
      197
1071
       -1
1071
        2
1071
        0
  0
ARC
  5
73D
330
70
100
AcDbEntity
  8
Visible
100
AcDbCircle
 10
-3.52354
 20
5.549971
 30
0.062523
 40
1.77377359917844
210
0.0
220
0.0
230
-1.0
100
AcDbArc
 50
153.912678
 51
162.783739
  0
SPLINE
  5
73E
330
70
100
AcDbEntity
  8
Visible
100
AcDbSpline
 70
     0
 71
     3
 72
    14
 73
    10
 74
     0
 42
0.000000001
 43
0.0000000001
 40
-0.2345031335089183
 40
-0.2345031335089183
 40
-0.2345031335089183
 40
-0.2345031335089183
 40
-0.1751227202862476
 40
-0.1751227202862476
 40
-0.115742307063577
 40
-0.115742307063577
 40
-0.0578711535317885
 40
-0.0578711535317885
 40
0.0
 40
0.0
 40
0.0
 40
0.0
 10
5.217838592378029
 20
6.074970692479837
 30
-0.0625231450386334
 10
5.220145070614307
 20
6.067527144154155
 30
-0.0625231450386334
 10
5.222560256204815
 20
6.059541438342421
 30
-0.063992110036756
 10
5.226926272651326
 20
6.044750827499228
 30
-0.0700759933382069
 10
5.228879481554031
 20
6.037947641107166
 30
-0.0746933826684841
 10
5.231895977949534
 20
6.02727826607952
 30
-0.0853627576963889
 10
5.233174626398977
 20
6.022657002340565
 30
-0.0920702376082825
 10
5.234864371448566
 20
6.016502362241226
 30
-0.1068529133628797
 10
5.235278215821381
 20
6.014970692480346
 30
-0.114928505467544
 10
5.235278215821381
 20
6.014970692480346
 30
-0.1225231450386446
1001
ACAD_VIEW_EDGE_ID
1071
      199
1071
       -1
1071
        2
1071
        0
  0
ELLIPSE
  5
73F
330
70
100
AcDbEntity
  8
Visible
100
AcDbEllipse
 10
3.52354
 20
5.549971
 30
-9.65787
 11
-0.0000000153477489
 21
1.773773627887084
 31
33.25825552288645
210
0.0000000000000002
220
0.9985808046778268
230
-0.053257642916145
 40
0.0532576421153999
 41
1.305543815998254
 42
1.315395194558818
1001
ACAD_VIEW_EDGE_ID
1071
      201
1071
       -1
1071
        2
1071
        0
  0
LINE
  5
740
330
70
100
AcDbEntity
  8
Visible
100
AcDbLine
 10
3.961011
 20
5.544971
 30
-1.312523
 11
5.297307
 21
5.544971
 31
-1.312523
  0
ARC
  5
741
330
70
100
AcDbEntity
  8
Visible
100
AcDbCircle
 10
-3.52354
 20
5.549971
 30
1.312523
 40
0.4374999999999992
210
0.0
220
0.0
230
-1.0
100
AcDbArc
 50
180.654823
 51
242.537643
  0
LINE
  5
742
330
70
100
AcDbEntity
  8
Visible
100
AcDbLine
 10
3.96104
 20
5.549971
 30
-1.317523
 11
5.297314
 21
5.549971
 31
-1.317523
  0
ELLIPSE
  5
743
330
70
100
AcDbEntity
  8
Visible
100
AcDbEllipse
 10
3.52354
 20
5.549971
 30
-1.317523
 11
-0.0000000005615799
 21
-0.4375000230485066
 31
0.4375000230485844
210
-0.0000000000000002
220
-0.7071067811866105
230
-0.7071067811864848
 40
0.7071067439344745
 41
4.712388979742881
 42
4.723817799368266
1001
ACAD_VIEW_EDGE_ID
1071
      262
1071
       -1
1071
        2
1071
        0
  0
LINE
  5
744
330
70
100
AcDbEntity
  8
Visible
100
AcDbLine
 10
3.961011
 20
5.554971
 30
-1.312523
 11
5.297307
 21
5.554971
 31
-1.312523
  0
ELLIPSE
  5
745
330
70
100
AcDbEntity
  8
Visible
100
AcDbEllipse
 10
3.52354
 20
5.549971
 30
-1.317523
 11
-0.0000000005615484
 21
0.437500023047761
 31
0.4375000230478388
210
0.0000000000000002
220
0.7071067811866105
230
-0.7071067811864848
 40
0.7071067439356797
 41
1.559367507811259
 42
1.570796327436663
1001
ACAD_VIEW_EDGE_ID
1071
      264
1071
       -1
1071
        2
1071
        0
  0
ARC
  5
746
330
70
100
AcDbEntity
  8
Visible
100
AcDbCircle
 10
-3.52354
 20
5.549971
 30
1.312523
 40
0.4375000000000039
210
0.0
220
0.0
230
-1.0
100
AcDbArc
 50
117.462357
 51
179.345177
  0
LINE
  5
747
330
70
100
AcDbEntity
  8
Visible
100
AcDbLine
 10
2.26506
 20
4.299971
 30
1.937477
 11
4.78202
 21
4.299971
 31
1.937477
  0
LINE
  5
748
330
70
100
AcDbEntity
  8
Visible
100
AcDbLine
 10
1.961275
 20
4.709971
 30
1.502477
 11
5.085805
 21
4.709971
 31
1.502477
  0
LINE
  5
749
330
70
100
AcDbEntity
  8
Visible
100
AcDbLine
 10
1.811802
 20
5.084971
 30
-0.122523
 11
5.235278
 21
5.084971
 31
-0.122523
  0
SPLINE
  5
74A
330
70
100
AcDbEntity
  8
Visible
100
AcDbSpline
 70
     0
 71
     3
 72
    18
 73
    14
 74
     0
 42
0.000000001
 43
0.0000000001
 40
0.1280064322251241
 40
0.1280064322251241
 40
0.1280064322251241
 40
0.1280064322251241
 40
0.1290284598304001
 40
0.1290284598304001
 40
0.229651448218198
 40
0.229651448218198
 40
0.330274436605996
 40
0.330274436605996
 40
0.430897424993794
 40
0.430897424993794
 40
0.531520413381592
 40
0.531520413381592
 40
0.532542440986877
 40
0.532542440986877
 40
0.532542440986877
 40
0.532542440986877
 10
3.725299997753609
 20
5.161770813498151
 30
-1.312523145038644
 10
3.724995737260542
 20
5.161612679492463
 30
-1.312523145038644
 10
3.724692258309005
 20
5.161455406045206
 30
-1.312522519868898
 10
3.694592233809089
 20
5.14590094489904
 30
-1.312400204731734
 10
3.661200936927343
 20
5.133190053838916
 30
-1.30633166286503
 10
3.592479057104355
 20
5.116491707482055
 30
-1.29329115835436
 10
3.557080978125668
 20
5.112470692480201
 30
-1.28672106993979
 10
3.489998985865895
 20
5.112470692480201
 30
-1.28672106993979
 10
3.454600906887208
 20
5.116491707482055
 30
-1.29329115835436
 10
3.38587902706422
 20
5.133190053838916
 30
-1.30633166286503
 10
3.352487730182474
 20
5.14590094489904
 30
-1.312400204731734
 10
3.322387705682558
 20
5.161455406045206
 30
-1.312522519868898
 10
3.322084226731021
 20
5.161612679492463
 30
-1.312523145038644
 10
3.321779966237954
 20
5.161770813498151
 30
-1.312523145038644
1001
ACAD_VIEW_EDGE_ID
1071
      299
1071
       -1
1071
        2
1071
        0
  0
SPLINE
  5
74B
330
70
100
AcDbEntity
  8
Visible
100
AcDbSpline
 70
     0
 71
     3
 72
    18
 73
    14
 74
     0
 42
0.000000001
 43
0.0000000001
 40
0.1280064322251197
 40
0.1280064322251197
 40
0.1280064322251197
 40
0.1280064322251197
 40
0.1290284598304019
 40
0.1290284598304019
 40
0.2296514482181955
 40
0.2296514482181955
 40
0.3302744366059892
 40
0.3302744366059892
 40
0.4308974249937829
 40
0.4308974249937829
 40
0.5315204133815766
 40
0.5315204133815766
 40
0.5325424409868513
 40
0.5325424409868513
 40
0.5325424409868513
 40
0.5325424409868513
 10
3.321779966237954
 20
5.938170571460432
 30
-1.312523145038643
 10
3.322084226731021
 20
5.938328705466119
 30
-1.312523145038643
 10
3.322387705682558
 20
5.938485978913377
 30
-1.312522519868897
 10
3.352487730182474
 20
5.954040440059543
 30
-1.312400204731733
 10
3.38587902706422
 20
5.966751331119667
 30
-1.306331662865031
 10
3.454600906887208
 20
5.983449677476528
 30
-1.293291158354365
 10
3.489998985865895
 20
5.987470692480201
 30
-1.286721069939794
 10
3.557080978125668
 20
5.987470692480201
 30
-1.286721069939794
 10
3.592479057104355
 20
5.983449677476528
 30
-1.293291158354362
 10
3.661200936927343
 20
5.966751331119667
 30
-1.306331662865031
 10
3.694592233809089
 20
5.954040440059543
 30
-1.312400204731733
 10
3.724692258309005
 20
5.938485978913377
 30
-1.312522519868897
 10
3.724995737260542
 20
5.938328705466119
 30
-1.312523145038643
 10
3.725299997753609
 20
5.938170571460432
 30
-1.312523145038643
1001
ACAD_VIEW_EDGE_ID
1071
      303
1071
       -1
1071
        2
1071
        0
  0
CIRCLE
  5
74C
330
70
100
AcDbEntity
  8
Visible
100
AcDbCircle
 10
-3.52354
 20
5.549971
 30
1.750023
 40
0.2489999999999999
210
0.0
220
0.0
230
-1.0
  0
ARC
  5
74D
330
70
100
AcDbEntity
  8
Visible
100
AcDbCircle
 10
-3.52354
 20
5.549971
 30
1.312523
 40
0.437500000000005
210
0.0
220
0.0
230
-1.0
100
AcDbArc
 50
0.654823
 51
62.537643
  0
ELLIPSE
  5
74E
330
70
100
AcDbEntity
  8
Visible
100
AcDbEllipse
 10
3.52354
 20
5.549971
 30
-1.317523
 11
0.0000000005615753
 21
0.437500023048492
 31
0.4375000230485698
210
0.0000000000000002
220
0.7071067811866105
230
-0.7071067811864847
 40
0.707106743934498
 41
4.712388979742891
 42
4.723817799368276
1001
ACAD_VIEW_EDGE_ID
1071
      350
1071
       -1
1071
        2
1071
        0
  0
ELLIPSE
  5
74F
330
70
100
AcDbEntity
  8
Visible
100
AcDbEllipse
 10
3.52354
 20
5.549971
 30
-1.317523
 11
0.0000000005615937
 21
-0.4375000230489661
 31
0.4375000230490439
210
-0.0000000000000002
220
-0.7071067811866105
230
-0.7071067811864847
 40
0.7071067439337321
 41
1.559367507811347
 42
1.57079632743672
1001
ACAD_VIEW_EDGE_ID
1071
      351
1071
       -1
1071
        2
1071
        0
  0
ARC
  5
750
330
70
100
AcDbEntity
  8
Visible
100
AcDbCircle
 10
-3.52354
 20
5.549971
 30
1.312523
 40
0.4374999999999951
210
0.0
220
0.0
230
-1.0
100
AcDbArc
 50
297.462357
 51
359.345177
  0
LINE
  5
751
330
70
100
AcDbEntity
  8
Visible
100
AcDbLine
 10
1.749773
 20
5.554971
 30
-1.312523
 11
3.086069
 21
5.554971
 31
-1.312523
  0
LINE
  5
752
330
70
100
AcDbEntity
  8
Visible
100
AcDbLine
 10
1.749766
 20
5.549971
 30
-1.317523
 11
3.08604
 21
5.549971
 31
-1.317523
  0
LINE
  5
753
330
70
100
AcDbEntity
  8
Visible
100
AcDbLine
 10
1.749773
 20
5.544971
 30
-1.312523
 11
3.086069
 21
5.544971
 31
-1.312523
  0
LINE
  5
754
330
70
100
AcDbEntity
  8
Visible
100
AcDbLine
 10
1.811802
 20
6.014971
 30
-0.122523
 11
5.235278
 21
6.014971
 31
-0.122523
  0
LINE
  5
755
330
70
100
AcDbEntity
  8
Visible
100
AcDbLine
 10
1.961275
 20
6.389971
 30
1.502477
 11
5.085805
 21
6.389971
 31
1.502477
  0
LINE
  5
756
330
70
100
AcDbEntity
  8
Visible
100
AcDbLine
 10
2.26506
 20
6.799971
 30
1.937477
 11
4.78202
 21
6.799971
 31
1.937477
  0
LINE
  5
757
330
70
100
AcDbEntity
  8
Visible
100
AcDbLine
 10
2.02402
 20
4.602494
 30
1.999977
 11
5.02306
 21
4.602494
 31
1.999977
  0
LINE
  5
758
330
70
100
AcDbEntity
  8
Visible
100
AcDbLine
 10
2.02402
 20
6.497448
 30
1.999977
 11
5.02306
 21
6.497448
 31
1.999977
  0
MTEXT
  5
759
330
70
100
AcDbEntity
  8
Annotations
  6
PHANTOM2
100
AcDbMText
 10
6.573371
 20
8.434209
 30
0.0
 40
0.24
 41
0.0
 46
0.0
 71
     5
 72
     5
  1
A
 73
     1
 44
1.0
  0
CIRCLE
  5
75A
330
70
100
AcDbEntity
  8
Annotations
  6
PHANTOM2
370
    25
100
AcDbCircle
 10
6.7
 20
8.857875
 30
0.0
 40
0.1773773599179051
  0
LINE
  5
75B
330
70
100
AcDbEntity
  8
Annotations
  6
PHANTOM2
370
    25
100
AcDbLine
 10
6.649204
 20
8.687927
 30
0.0
 11
6.645104
 21
8.674209
 31
0.0
  0
ENDSEC
  0
SECTION
  2
OBJECTS
  0
DICTIONARY
  5
C
330
0
100
AcDbDictionary
281
     1
  3
ACAD_COLOR
350
63
  3
ACAD_DETAILVIEWSTYLE
350
6A
  3
ACAD_FIELDLIST
350
384
  3
ACAD_GROUP
350
D
  3
ACAD_IMAGE_DICT
350
26A
  3
ACAD_IMAGE_VARS
350
26C
  3
ACAD_LAYOUT
350
62
  3
ACAD_MATERIAL
350
10
  3
ACAD_MLEADERSTYLE
350
66
  3
ACAD_MLINESTYLE
350
5F
  3
ACAD_PLOTSETTINGS
350
61
  3
ACAD_PLOTSTYLENAME
350
E
  3
ACAD_SCALELIST
350
42
  3
ACAD_SECTIONVIEWSTYLE
350
68
  3
ACAD_TABLESTYLE
350
64
  3
ACAD_VISUALSTYLE
350
29
  3
ACDB_RECOMPOSE_DATA
350
7F4
  3
AcDbVariableDictionary
350
7EB
  0
DICTIONARY
  5
B6
330
70
100
AcDbDictionary
280
     1
281
     1
  3
ACAD_SORTENTS
360
260
  0
DICTIONARY
  5
264
330
263
100
AcDbDictionary
280
     1
281
     1
  3
ACAD_SORTENTS
360
5EB
  0
IMAGEDEF_REACTOR
  5
26B
330
268
100
AcDbRasterImageDefReactor
 90
        2
330
268
  0
DICTIONARY
  5
30B
330
30A
100
AcDbDictionary
280
     1
281
     1
  0
DICTIONARY
  5
63
102
{ACAD_REACTORS
330
C
102
}
330
C
100
AcDbDictionary
281
     1
  0
DICTIONARY
  5
6A
102
{ACAD_REACTORS
330
C
102
}
330
C
100
AcDbDictionary
281
     1
  3
Imperial24
350
6B
  0
FIELDLIST
  5
384
102
{ACAD_REACTORS
330
C
102
}
330
C
100
AcDbIdSet
 90
        3
330
30E
330
30F
330
310
100
AcDbFieldList
  0
DICTIONARY
  5
D
102
{ACAD_REACTORS
330
C
102
}
330
C
100
AcDbDictionary
281
     1
  0
DICTIONARY
  5
26A
102
{ACAD_REACTORS
330
C
102
}
330
C
100
AcDbDictionary
281
     1
  3
morse_logo-16 (1)_01-2018(B)_1_1
350
269
  0
RASTERVARIABLES
  5
26C
102
{ACAD_REACTORS
330
C
102
}
330
C
100
AcDbRasterVariables
 90
        0
 70
     0
 71
     1
 72
     5
  0
DICTIONARY
  5
62
102
{ACAD_REACTORS
330
C
102
}
330
C
100
AcDbDictionary
281
     1
  3
Model
350
73
  3
Sheet1
350
6F
  3
Sheet2
350
77
  0
DICTIONARY
  5
10
102
{ACAD_REACTORS
330
C
102
}
330
C
100
AcDbDictionary
281
     1
  3
ByBlock
350
19
  3
ByLayer
350
11
  3
Global
350
21
  0
DICTIONARY
  5
66
102
{ACAD_REACTORS
330
C
102
}
330
C
100
AcDbDictionary
281
     1
  3
Standard
350
67
  0
DICTIONARY
  5
5F
102
{ACAD_REACTORS
330
C
102
}
330
C
100
AcDbDictionary
281
     1
  3
Standard
350
60
  0
DICTIONARY
  5
61
102
{ACAD_REACTORS
330
C
102
}
330
C
100
AcDbDictionary
281
     1
  0
ACDBDICTIONARYWDFLT
  5
E
102
{ACAD_REACTORS
330
C
102
}
330
C
100
AcDbDictionary
281
     1
  3
Normal
350
F
100
AcDbDictionaryWithDefault
340
F
  0
DICTIONARY
  5
42
102
{ACAD_REACTORS
330
C
102
}
330
C
100
AcDbDictionary
281
     1
  3
*A1
350
A6
  3
*A10
350
AF
  3
*A11
350
B0
  3
*A12
350
B1
  3
*A13
350
B2
  3
*A14
350
B3
  3
*A15
350
B4
  3
*A16
350
B5
  3
*A2
350
A7
  3
*A3
350
A8
  3
*A4
350
A9
  3
*A5
350
AA
  3
*A6
350
AB
  3
*A7
350
AC
  3
*A8
350
AD
  3
*A9
350
AE
  3
A0
350
43
  3
A1
350
44
  3
A2
350
45
  3
A3
350
46
  3
A4
350
47
  3
A5
350
48
  3
A6
350
49
  3
A7
350
4A
  3
A8
350
4B
  3
A9
350
4C
  3
B0
350
4D
  3
B1
350
4E
  3
B2
350
4F
  3
B3
350
50
  3
B4
350
51
  3
B5
350
52
  3
B6
350
53
  0
DICTIONARY
  5
68
102
{ACAD_REACTORS
330
C
102
}
330
C
100
AcDbDictionary
281
     1
  3
Imperial24
350
69
  0
DICTIONARY
  5
64
102
{ACAD_REACTORS
330
C
102
}
330
C
100
AcDbDictionary
281
     1
  3
Standard
350
65
  0
DICTIONARY
  5
29
102
{ACAD_REACTORS
330
C
102
}
330
C
100
AcDbDictionary
281
     1
  3
2dWireframe
350
2F
  3
Basic
350
2E
  3
Brighten
350
35
  3
ColorChange
350
39
  3
Conceptual
350
32
  3
Dim
350
34
  3
EdgeColorOff
350
41
  3
Facepattern
350
38
  3
Flat
350
2A
  3
FlatWithEdges
350
2B
  3
Gouraud
350
2C
  3
GouraudWithEdges
350
2D
  3
Hidden
350
31
  3
JitterOff
350
3F
  3
Linepattern
350
37
  3
OverhangOff
350
40
  3
Realistic
350
33
  3
Shaded
350
3E
  3
Shaded with edges
350
3D
  3
Shades of Gray
350
3A
  3
Sketchy
350
3B
  3
Thicken
350
36
  3
Wireframe
350
30
  3
X-Ray
350
3C
  0
XRECORD
  5
7F4
102
{ACAD_REACTORS
330
C
102
}
330
C
100
AcDbXrecord
280
     1
 90
        1
330
65
330
270
330
27A
330
27B
330
27C
330
27F
330
342
330
343
  0
DICTIONARY
  5
7EB
102
{ACAD_REACTORS
330
C
102
}
330
C
100
AcDbDictionary
281
     1
  3
ANNOALLVISIBLE
350
7F0
  3
CANNOSCALE
350
7F1
  3
CMLEADERSTYLE
350
7ED
  3
CTABLESTYLE
350
7EC
  3
CVIEWDETAILSTYLE
350
7EE
  3
CVIEWSECTIONSTYLE
350
7EF
  0
SORTENTSTABLE
  5
260
102
{ACAD_REACTORS
330
B6
102
}
330
B6
100
AcDbSortentsTable
330
70
  0
SORTENTSTABLE
  5
5EB
102
{ACAD_REACTORS
330
264
102
}
330
264
100
AcDbSortentsTable
330
263
  0
ACDBDETAILVIEWSTYLE
  5
6B
102
{ACAD_XDICTIONARY
360
7F7
102
}
102
{ACAD_REACTORS
330
6A
102
}
330
6A
100
AcDbModelDocViewStyle
 70
     0
  3
Imperial24
290
     0
100
AcDbDetailViewStyle
 70
     0
 71
     0
 90
        3
 71
     1
340
55
 62
   256
 40
0.24
340
0
 62
   256
 40
0.24
300

 40
0.36
280
     3
 71
     2
340
5D
 90
       25
 62
   256
 71
     3
340
55
 62
   256
 40
0.24
 90
        1
 40
0.75
 90
        1
300
%<\AcVar ViewType \f "%tc1">% %<\AcVar ViewDetailId>%\PSCALE %<\AcVar ViewScale \f "%sn">%
 71
     4
340
5D
 90
       25
 62
   256
340
5D
 90
       25
 62
   256
280
     0
  0
IMAGEDEF
  5
269
102
{ACAD_REACTORS
330
26A
330
26B
330
75C
102
}
330
26A
100
AcDbRasterImageDef
 90
        0
  1
morse_logo-16 (1)_01-2018(B)_1_1.jpg
 10
948.0
 20
333.0
 11
0.264583
 21
0.264583
280
     1
281
     5
  0
LAYOUT
  5
73
102
{ACAD_REACTORS
330
62
102
}
330
62
100
AcDbPlotSettings
  1

  2
AutoCAD PDF (High Quality Print).pc3
  4
ANSI_full_bleed_B_(17.00_x_11.00_Inches)
  6

 40
0.0
 41
0.0
 42
0.0
 43
0.0
 44
431.799988
 45
279.399994
 46
0.0
 47
0.0
 48
0.0
 49
0.0
140
0.0
141
0.0
142
1.0
143
1.407855
 70
 11952
 72
     0
 73
     0
 74
     0
  7

 75
     0
147
0.710301
 76
     0
 77
     2
 78
   300
148
95.022994
149
39.391049
100
AcDbLayout
  1
Model
 70
     1
 71
     0
 10
0.0
 20
0.0
 11
12.0
 21
9.0
 12
0.0
 22
0.0
 32
0.0
 14
0.0
 24
0.0
 34
0.0
 15
0.0
 25
0.0
 35
0.0
146
0.0
 13
0.0
 23
0.0
 33
0.0
 16
1.0
 26
0.0
 36
0.0
 17
0.0
 27
1.0
 37
0.0
 76
     0
330
70
1001
ACAD_PSEXT
1000
AutoCAD PDF (High Quality Print).pc3
1000
DWG To PDF
1000
File
1000

1070
     0
  0
LAYOUT
  5
6F
102
{ACAD_REACTORS
330
62
102
}
330
62
100
AcDbPlotSettings
  1

  2
None
  4

  6

 40
0.0
 41
0.0
 42
0.0
 43
0.0
 44
0.0
 45
0.0
 46
0.0
 47
0.0
 48
0.0
 49
0.0
140
0.0
141
0.0
142
1.0
143
1.0
 70
   688
 72
     0
 73
     0
 74
     5
  7

 75
    16
147
1.0
 76
     0
 77
     2
 78
   300
148
0.0
149
0.0
100
AcDbLayout
  1
Sheet1
 70
     1
 71
     1
 10
0.0
 20
0.0
 11
12.0
 21
9.0
 12
0.0
 22
0.0
 32
0.0
 14
0.0
 24
0.0
 34
0.0
 15
0.0
 25
0.0
 35
0.0
146
0.0
 13
0.0
 23
0.0
 33
0.0
 16
1.0
 26
0.0
 36
0.0
 17
0.0
 27
1.0
 37
0.0
 76
     0
330
6C
  0
LAYOUT
  5
77
102
{ACAD_REACTORS
330
62
102
}
330
62
100
AcDbPlotSettings
  1

  2
None
  4

  6

 40
0.0
 41
0.0
 42
0.0
 43
0.0
 44
0.0
 45
0.0
 46
0.0
 47
0.0
 48
0.0
 49
0.0
140
0.0
141
0.0
142
1.0
143
1.0
 70
   688
 72
     0
 73
     0
 74
     5
  7

 75
    16
147
1.0
 76
     0
 77
     2
 78
   300
148
0.0
149
0.0
100
AcDbLayout
  1
Sheet2
 70
     1
 71
     2
 10
0.0
 20
0.0
 11
12.0
 21
9.0
 12
0.0
 22
0.0
 32
0.0
 14
0.0
 24
0.0
 34
0.0
 15
0.0
 25
0.0
 35
0.0
146
0.0
 13
0.0
 23
0.0
 33
0.0
 16
1.0
 26
0.0
 36
0.0
 17
0.0
 27
1.0
 37
0.0
 76
     0
330
74
  0
MATERIAL
  5
19
102
{ACAD_XDICTIONARY
360
1A
102
}
102
{ACAD_REACTORS
330
10
102
}
330
10
100
AcDbMaterial
  1
ByBlock
 72
     0
 43
0.020833
 43
0.0
 43
0.0
 43
0.0
 43
0.0
 43
0.020833
 43
0.0
 43
0.0
 43
0.0
 43
0.0
 43
1.0
 43
0.0
 43
0.0
 43
0.0
 43
0.0
 43
1.0
 77
     0
 47
0.020833
 47
0.0
 47
0.0
 47
0.0
 47
0.0
 47
0.020833
 47
0.0
 47
0.0
 47
0.0
 47
0.0
 47
1.0
 47
0.0
 47
0.0
 47
0.0
 47
0.0
 47
1.0
171
     0
 49
0.020833
 49
0.0
 49
0.0
 49
0.0
 49
0.0
 49
0.020833
 49
0.0
 49
0.0
 49
0.0
 49
0.0
 49
1.0
 49
0.0
 49
0.0
 49
0.0
 49
0.0
 49
1.0
175
     0
142
0.020833
142
0.0
142
0.0
142
0.0
142
0.0
142
0.020833
142
0.0
142
0.0
142
0.0
142
0.0
142
1.0
142
0.0
142
0.0
142
0.0
142
0.0
142
1.0
179
     0
144
0.020833
144
0.0
144
0.0
144
0.0
144
0.0
144
0.020833
144
0.0
144
0.0
144
0.0
144
0.0
144
1.0
144
0.0
144
0.0
144
0.0
144
0.0
144
1.0
147
0.020833
147
0.0
147
0.0
147
0.0
147
0.0
147
0.020833
147
0.0
147
0.0
147
0.0
147
0.0
147
1.0
147
0.0
147
0.0
147
0.0
147
0.0
147
1.0
  0
MATERIAL
  5
11
102
{ACAD_XDICTIONARY
360
12
102
}
102
{ACAD_REACTORS
330
10
102
}
330
10
100
AcDbMaterial
  1
ByLayer
 72
     0
 43
0.020833
 43
0.0
 43
0.0
 43
0.0
 43
0.0
 43
0.020833
 43
0.0
 43
0.0
 43
0.0
 43
0.0
 43
1.0
 43
0.0
 43
0.0
 43
0.0
 43
0.0
 43
1.0
 77
     0
 47
0.020833
 47
0.0
 47
0.0
 47
0.0
 47
0.0
 47
0.020833
 47
0.0
 47
0.0
 47
0.0
 47
0.0
 47
1.0
 47
0.0
 47
0.0
 47
0.0
 47
0.0
 47
1.0
171
     0
 49
0.020833
 49
0.0
 49
0.0
 49
0.0
 49
0.0
 49
0.020833
 49
0.0
 49
0.0
 49
0.0
 49
0.0
 49
1.0
 49
0.0
 49
0.0
 49
0.0
 49
0.0
 49
1.0
175
     0
142
0.020833
142
0.0
142
0.0
142
0.0
142
0.0
142
0.020833
142
0.0
142
0.0
142
0.0
142
0.0
142
1.0
142
0.0
142
0.0
142
0.0
142
0.0
142
1.0
179
     0
144
0.020833
144
0.0
144
0.0
144
0.0
144
0.0
144
0.020833
144
0.0
144
0.0
144
0.0
144
0.0
144
1.0
144
0.0
144
0.0
144
0.0
144
0.0
144
1.0
147
0.020833
147
0.0
147
0.0
147
0.0
147
0.0
147
0.020833
147
0.0
147
0.0
147
0.0
147
0.0
147
1.0
147
0.0
147
0.0
147
0.0
147
0.0
147
1.0
  0
MATERIAL
  5
21
102
{ACAD_XDICTIONARY
360
22
102
}
102
{ACAD_REACTORS
330
10
102
}
330
10
100
AcDbMaterial
  1
Global
 72
     0
 43
0.020833
 43
0.0
 43
0.0
 43
0.0
 43
0.0
 43
0.020833
 43
0.0
 43
0.0
 43
0.0
 43
0.0
 43
1.0
 43
0.0
 43
0.0
 43
0.0
 43
0.0
 43
1.0
 77
     0
 47
0.020833
 47
0.0
 47
0.0
 47
0.0
 47
0.0
 47
0.020833
 47
0.0
 47
0.0
 47
0.0
 47
0.0
 47
1.0
 47
0.0
 47
0.0
 47
0.0
 47
0.0
 47
1.0
171
     0
 49
0.020833
 49
0.0
 49
0.0
 49
0.0
 49
0.0
 49
0.020833
 49
0.0
 49
0.0
 49
0.0
 49
0.0
 49
1.0
 49
0.0
 49
0.0
 49
0.0
 49
0.0
 49
1.0
175
     0
142
0.020833
142
0.0
142
0.0
142
0.0
142
0.0
142
0.020833
142
0.0
142
0.0
142
0.0
142
0.0
142
1.0
142
0.0
142
0.0
142
0.0
142
0.0
142
1.0
179
     0
144
0.020833
144
0.0
144
0.0
144
0.0
144
0.0
144
0.020833
144
0.0
144
0.0
144
0.0
144
0.0
144
1.0
144
0.0
144
0.0
144
0.0
144
0.0
144
1.0
147
0.020833
147
0.0
147
0.0
147
0.0
147
0.0
147
0.020833
147
0.0
147
0.0
147
0.0
147
0.0
147
1.0
147
0.0
147
0.0
147
0.0
147
0.0
147
1.0
  0
MLEADERSTYLE
  5
67
102
{ACAD_REACTORS
330
66
102
}
330
66
100
AcDbMLeaderStyle
179
     2
170
     2
171
     1
172
     0
 90
        2
 40
0.0
 41
0.0
173
     1
 91
-1056964608
340
5B
 92
       -2
290
     1
 42
0.09
291
     1
 43
0.36
  3
Standard
 44
0.18
300

342
55
174
     1
178
     6
175
     1
176
     0
 93
-1056964608
 45
0.18
292
     0
297
     0
 46
0.18
 94
-1056964608
 47
1.0
 49
1.0
140
1.0
293
     1
141
0.0
294
     1
177
     0
142
1.0
295
     0
296
     0
143
0.125
271
     0
272
     9
273
     9
298
     1
  0
MLINESTYLE
  5
60
102
{ACAD_REACTORS
330
5F
102
}
330
5F
100
AcDbMlineStyle
  2
STANDARD
 70
     0
  3

 62
   256
 51
90.0
 52
90.0
 71
     0
  0
ACDBPLACEHOLDER
  5
F
102
{ACAD_REACTORS
330
E
102
}
330
E
  0
SCALE
  5
A6
102
{ACAD_REACTORS
330
42
102
}
330
42
100
AcDbScale
 70
     0
300
1:2
140
1.0
141
2.0
290
     0
  0
SCALE
  5
AF
102
{ACAD_REACTORS
330
42
102
}
330
42
100
AcDbScale
 70
     0
300
1:50
140
1.0
141
50.0
290
     0
  0
SCALE
  5
B0
102
{ACAD_REACTORS
330
42
102
}
330
42
100
AcDbScale
 70
     0
300
1:100
140
1.0
141
100.0
290
     0
  0
SCALE
  5
B1
102
{ACAD_REACTORS
330
42
102
}
330
42
100
AcDbScale
 70
     0
300
2:1
140
2.0
141
1.0
290
     0
  0
SCALE
  5
B2
102
{ACAD_REACTORS
330
42
102
}
330
42
100
AcDbScale
 70
     0
300
4:1
140
4.0
141
1.0
290
     0
  0
SCALE
  5
B3
102
{ACAD_REACTORS
330
42
102
}
330
42
100
AcDbScale
 70
     0
300
8:1
140
8.0
141
1.0
290
     0
  0
SCALE
  5
B4
102
{ACAD_REACTORS
330
42
102
}
330
42
100
AcDbScale
 70
     0
300
10:1
140
10.0
141
1.0
290
     0
  0
SCALE
  5
B5
102
{ACAD_REACTORS
330
42
102
}
330
42
100
AcDbScale
 70
     0
300
100:1
140
100.0
141
1.0
290
     0
  0
SCALE
  5
A7
102
{ACAD_REACTORS
330
42
102
}
330
42
100
AcDbScale
 70
     0
300
1:4
140
1.0
141
4.0
290
     0
  0
SCALE
  5
A8
102
{ACAD_REACTORS
330
42
102
}
330
42
100
AcDbScale
 70
     0
300
1:5
140
1.0
141
5.0
290
     0
  0
SCALE
  5
A9
102
{ACAD_REACTORS
330
42
102
}
330
42
100
AcDbScale
 70
     0
300
1:8
140
1.0
141
8.0
290
     0
  0
SCALE
  5
AA
102
{ACAD_REACTORS
330
42
102
}
330
42
100
AcDbScale
 70
     0
300
1:10
140
1.0
141
10.0
290
     0
  0
SCALE
  5
AB
102
{ACAD_REACTORS
330
42
102
}
330
42
100
AcDbScale
 70
     0
300
1:16
140
1.0
141
16.0
290
     0
  0
SCALE
  5
AC
102
{ACAD_REACTORS
330
42
102
}
330
42
100
AcDbScale
 70
     0
300
1:20
140
1.0
141
20.0
290
     0
  0
SCALE
  5
AD
102
{ACAD_REACTORS
330
42
102
}
330
42
100
AcDbScale
 70
     0
300
1:30
140
1.0
141
30.0
290
     0
  0
SCALE
  5
AE
102
{ACAD_REACTORS
330
42
102
}
330
42
100
AcDbScale
 70
     0
300
1:40
140
1.0
141
40.0
290
     0
  0
SCALE
  5
43
102
{ACAD_REACTORS
330
42
102
}
330
42
100
AcDbScale
 70
     0
300
1:1
140
1.0
141
1.0
290
     1
  0
SCALE
  5
44
102
{ACAD_REACTORS
330
42
102
}
330
42
100
AcDbScale
 70
     0
300
1/128" = 1'-0"
140
0.007813
141
12.0
290
     0
  0
SCALE
  5
45
102
{ACAD_REACTORS
330
42
102
}
330
42
100
AcDbScale
 70
     0
300
1/64" = 1'-0"
140
0.015625
141
12.0
290
     0
  0
SCALE
  5
46
102
{ACAD_REACTORS
330
42
102
}
330
42
100
AcDbScale
 70
     0
300
1/32" = 1'-0"
140
0.03125
141
12.0
290
     0
  0
SCALE
  5
47
102
{ACAD_REACTORS
330
42
102
}
330
42
100
AcDbScale
 70
     0
300
1/16" = 1'-0"
140
0.0625
141
12.0
290
     0
  0
SCALE
  5
48
102
{ACAD_REACTORS
330
42
102
}
330
42
100
AcDbScale
 70
     0
300
3/32" = 1'-0"
140
0.09375
141
12.0
290
     0
  0
SCALE
  5
49
102
{ACAD_REACTORS
330
42
102
}
330
42
100
AcDbScale
 70
     0
300
1/8" = 1'-0"
140
0.125
141
12.0
290
     0
  0
SCALE
  5
4A
102
{ACAD_REACTORS
330
42
102
}
330
42
100
AcDbScale
 70
     0
300
3/16" = 1'-0"
140
0.1875
141
12.0
290
     0
  0
SCALE
  5
4B
102
{ACAD_REACTORS
330
42
102
}
330
42
100
AcDbScale
 70
     0
300
1/4" = 1'-0"
140
0.25
141
12.0
290
     0
  0
SCALE
  5
4C
102
{ACAD_REACTORS
330
42
102
}
330
42
100
AcDbScale
 70
     0
300
3/8" = 1'-0"
140
0.375
141
12.0
290
     0
  0
SCALE
  5
4D
102
{ACAD_REACTORS
330
42
102
}
330
42
100
AcDbScale
 70
     0
300
1/2" = 1'-0"
140
0.5
141
12.0
290
     0
  0
SCALE
  5
4E
102
{ACAD_REACTORS
330
42
102
}
330
42
100
AcDbScale
 70
     0
300
3/4" = 1'-0"
140
0.75
141
12.0
290
     0
  0
SCALE
  5
4F
102
{ACAD_REACTORS
330
42
102
}
330
42
100
AcDbScale
 70
     0
300
1" = 1'-0"
140
1.0
141
12.0
290
     0
  0
SCALE
  5
50
102
{ACAD_REACTORS
330
42
102
}
330
42
100
AcDbScale
 70
     0
300
1-1/2" = 1'-0"
140
1.5
141
12.0
290
     0
  0
SCALE
  5
51
102
{ACAD_REACTORS
330
42
102
}
330
42
100
AcDbScale
 70
     0
300
3" = 1'-0"
140
3.0
141
12.0
290
     0
  0
SCALE
  5
52
102
{ACAD_REACTORS
330
42
102
}
330
42
100
AcDbScale
 70
     0
300
6" = 1'-0"
140
6.0
141
12.0
290
     0
  0
SCALE
  5
53
102
{ACAD_REACTORS
330
42
102
}
330
42
100
AcDbScale
 70
     0
300
1'-0" = 1'-0"
140
12.0
141
12.0
290
     0
  0
ACDBSECTIONVIEWSTYLE
  5
69
102
{ACAD_XDICTIONARY
360
7F5
102
}
102
{ACAD_REACTORS
330
68
102
}
330
68
100
AcDbModelDocViewStyle
 70
     0
  3
Imperial24
290
     0
100
AcDbSectionViewStyle
 70
     0
 71
     0
 90
       78
 71
     1
340
55
 62
   256
 40
0.24
340
0
340
0
 62
   256
 40
0.24
300
I, O, Q, S, X, Z
 40
0.48
 90
        3
 40
0.18
 90
        1
 71
     2
340
5D
 90
       25
 62
   256
340
5D
 90
       50
 62
   256
 40
0.24
 40
0.0
 40
0.24
 71
     3
340
55
 62
   256
 40
0.24
 90
        1
 40
0.75
 90
        1
300
%<\AcVar ViewType \f "%tc1">% %<\AcVar ViewSectionStartId>%-%<\AcVar ViewSectionEndId>%\PSCALE %<\AcVar ViewScale \f "%sn">%
 71
     4
 62
   256
 62
   257
300
ANSI31
 40
1.0
 90
        0
290
     0
290
     0
 90
        6
 40
0.0
 40
1.570796
 40
0.261799
 40
1.308997
 40
-0.261799
 40
1.832596
  0
TABLESTYLE
  5
65
102
{ACAD_XDICTIONARY
360
7F2
102
}
102
{ACAD_REACTORS
330
64
102
}
330
64
100
AcDbTableStyle
280
     0
  3
Standard
 70
     0
 71
     0
 40
0.06
 41
0.06
280
     0
281
     0
  7
Standard
140
0.18
170
     2
 62
     0
 63
     7
283
     0
 90
      512
 91
        0
  1

274
    -2
284
     1
 64
     0
275
    -2
285
     1
 65
     0
276
    -2
286
     1
 66
     0
277
    -2
287
     1
 67
     0
278
    -2
288
     1
 68
     0
279
    -2
289
     1
 69
     0
  7
Standard
140
0.25
170
     5
 62
     0
 63
     7
283
     0
 90
      512
 91
        0
  1

274
    -2
284
     1
 64
     0
275
    -2
285
     1
 65
     0
276
    -2
286
     1
 66
     0
277
    -2
287
     1
 67
     0
278
    -2
288
     1
 68
     0
279
    -2
289
     1
 69
     0
  7
Standard
140
0.18
170
     5
 62
     0
 63
     7
283
     0
 90
      512
 91
        0
  1

274
    -2
284
     1
 64
     0
275
    -2
285
     1
 65
     0
276
    -2
286
     1
 66
     0
277
    -2
287
     1
 67
     0
278
    -2
288
     1
 68
     0
279
    -2
289
     1
 69
     0
  0
VISUALSTYLE
  5
2F
102
{ACAD_REACTORS
330
29
102
}
330
29
100
AcDbVisualStyle
  2
2dWireframe
 70
     4
177
     3
291
     0
 70
    58
 90
        0
176
     1
 90
        2
176
     1
 90
        0
176
     1
 90
        0
176
     1
 40
0.6
176
     1
 40
30.0
176
     1
 62
     7
420
 16777215
176
     1
 90
        1
176
     1
 90
        4
176
     1
 62
     7
176
     1
 62
   257
176
     1
 90
        1
176
     1
 90
        1
176
     1
 40
1.0
176
     1
 90
        0
176
     1
 62
   257
176
     1
 40
1.0
176
     1
 90
        1
176
     1
 90
        6
176
     1
 90
        2
176
     1
 62
     7
176
     1
 90
        5
176
     1
 90
        0
176
     1
 90
        0
176
     1
290
     0
176
     1
 90
        1
176
     1
 40
0.0
176
     1
 90
        0
176
     1
290
     1
176
     1
290
     1
176
     1
290
     0
176
     1
290
     0
176
     1
290
     0
176
     1
290
     0
176
     1
290
     0
176
     1
290
     0
176
     1
290
     0
176
     1
 90
       50
176
     1
 40
0.0
176
     1
 40
1.0
176
     1
 90
        0
176
     1
 62
    18
420
        0
176
     1
 90
       50
176
     1
 90
        3
176
     1
 62
     5
420
      255
176
     1
290
     0
176
     1
 90
       50
176
     1
 90
       50
176
     1
 90
       50
176
     1
290
     0
176
     1
 90
       50
176
     1
 62
   256
176
     0
 40
1.0
176
     0
 90
        2
176
     1
  1
strokes_ogs.tif
176
     1
290
     0
176
     1
 40
1.0
176
     1
 40
1.0
176
     1
1001
ACAD
1000
AcDbSavedByObjectVersion
1070
     0
  0
VISUALSTYLE
  5
2E
102
{ACAD_REACTORS
330
29
102
}
330
29
100
AcDbVisualStyle
  2
Basic
 70
     7
177
     3
291
     1
 70
    58
 90
        1
176
     1
 90
        0
176
     1
 90
        1
176
     1
 90
        0
176
     1
 40
0.6
176
     1
 40
30.0
176
     1
 62
     7
420
 16777215
176
     1
 90
        0
176
     1
 90
        4
176
     1
 62
     7
176
     1
 62
   257
176
     1
 90
        1
176
     1
 90
        1
176
     1
 40
1.0
176
     1
 90
        8
176
     1
 62
     7
176
     1
 40
1.0
176
     1
 90
        1
176
     1
 90
        6
176
     1
 90
        2
176
     1
 62
     7
176
     1
 90
        5
176
     1
 90
        0
176
     1
 90
        0
176
     1
290
     0
176
     1
 90
        1
176
     1
 40
0.0
176
     1
 90
        0
176
     1
290
     0
176
     1
290
     1
176
     1
290
     1
176
     1
290
     0
176
     1
290
     0
176
     1
290
     0
176
     1
290
     0
176
     1
290
     0
176
     1
290
     0
176
     1
 90
       50
176
     1
 40
0.0
176
     1
 40
1.0
176
     1
 90
        0
176
     1
 62
    18
420
        0
176
     1
 90
       50
176
     1
 90
        3
176
     1
 62
     5
420
      255
176
     1
290
     0
176
     1
 90
       50
176
     1
 90
       50
176
     1
 90
       50
176
     1
290
     0
176
     1
 90
       50
176
     1
 62
   256
176
     0
 40
1.0
176
     0
 90
        2
176
     1
  1
strokes_ogs.tif
176
     1
290
     0
176
     1
 40
1.0
176
     1
 40
1.0
176
     1
1001
ACAD
1000
AcDbSavedByObjectVersion
1070
     0
  0
VISUALSTYLE
  5
35
102
{ACAD_REACTORS
330
29
102
}
330
29
100
AcDbVisualStyle
  2
Brighten
 70
    12
177
     3
291
     1
 70
    58
 90
        2
176
     1
 90
        2
176
     1
 90
        0
176
     1
 90
        0
176
     1
 40
0.6
176
     1
 40
30.0
176
     1
 62
     7
420
 16777215
176
     1
 90
        1
176
     1
 90
        4
176
     1
 62
     7
176
     1
 62
   257
176
     1
 90
        1
176
     1
 90
        1
176
     1
 40
1.0
176
     1
 90
        8
176
     1
 62
     7
176
     1
 40
1.0
176
     1
 90
        1
176
     1
 90
        6
176
     1
 90
        2
176
     1
 62
     7
176
     1
 90
        5
176
     1
 90
        0
176
     1
 90
        0
176
     1
290
     0
176
     1
 90
        1
176
     1
 40
50.0
176
     1
 90
        0
176
     1
290
     0
176
     1
290
     1
176
     1
290
     1
176
     1
290
     0
176
     1
290
     0
176
     1
290
     0
176
     1
290
     0
176
     1
290
     0
176
     1
290
     0
176
     1
 90
       50
176
     1
 40
0.0
176
     1
 40
1.0
176
     1
 90
        0
176
     1
 62
    18
420
        0
176
     1
 90
       50
176
     1
 90
        3
176
     1
 62
     5
420
      255
176
     1
290
     0
176
     1
 90
       50
176
     1
 90
       50
176
     1
 90
       50
176
     1
290
     0
176
     1
 90
       50
176
     1
 62
   256
176
     0
 40
1.0
176
     0
 90
        2
176
     1
  1
strokes_ogs.tif
176
     1
290
     0
176
     1
 40
1.0
176
     1
 40
1.0
176
     1
1001
ACAD
1000
AcDbSavedByObjectVersion
1070
     0
  0
VISUALSTYLE
  5
39
102
{ACAD_REACTORS
330
29
102
}
330
29
100
AcDbVisualStyle
  2
ColorChange
 70
    16
177
     3
291
     1
 70
    58
 90
        2
176
     1
 90
        2
176
     1
 90
        3
176
     1
 90
        0
176
     1
 40
0.6
176
     1
 40
30.0
176
     1
 62
     8
420
  8421504
176
     1
 90
        1
176
     1
 90
        4
176
     1
 62
     7
176
     1
 62
   257
176
     1
 90
        1
176
     1
 90
        1
176
     1
 40
1.0
176
     1
 90
        8
176
     1
 62
     8
420
  8421504
176
     1
 40
1.0
176
     1
 90
        1
176
     1
 90
        6
176
     1
 90
        2
176
     1
 62
     7
176
     1
 90
        5
176
     1
 90
        0
176
     1
 90
        0
176
     1
290
     0
176
     1
 90
        1
176
     1
 40
0.0
176
     1
 90
        0
176
     1
290
     0
176
     1
290
     1
176
     1
290
     1
176
     1
290
     0
176
     1
290
     0
176
     1
290
     0
176
     1
290
     0
176
     1
290
     0
176
     1
290
     0
176
     1
 90
       50
176
     1
 40
0.0
176
     1
 40
1.0
176
     1
 90
        0
176
     1
 62
    18
420
        0
176
     1
 90
       50
176
     1
 90
        3
176
     1
 62
     5
420
      255
176
     1
290
     0
176
     1
 90
       50
176
     1
 90
       50
176
     1
 90
       50
176
     1
290
     0
176
     1
 90
       50
176
     1
 62
   256
176
     0
 40
1.0
176
     0
 90
        2
176
     1
  1
strokes_ogs.tif
176
     1
290
     0
176
     1
 40
1.0
176
     1
 40
1.0
176
     1
1001
ACAD
1000
AcDbSavedByObjectVersion
1070
     0
  0
VISUALSTYLE
  5
32
102
{ACAD_REACTORS
330
29
102
}
330
29
100
AcDbVisualStyle
  2
Conceptual
 70
     9
177
     3
291
     0
 70
    58
 90
        3
176
     1
 90
        2
176
     1
 90
        0
176
     1
 90
        0
176
     1
 40
0.6
176
     1
 40
30.0
176
     1
 62
     7
420
 16777215
176
     1
 90
        2
176
     1
 90
        2
176
     1
 62
     7
176
     1
 62
   257
176
     1
 90
        1
176
     1
 90
        1
176
     1
 40
179.0
176
     1
 90
        8
176
     1
 62
     7
176
     1
 40
1.0
176
     1
 90
        1
176
     1
 90
        6
176
     1
 90
        2
176
     1
 62
     7
176
     1
 90
        3
176
     1
 90
        0
176
     1
 90
        0
176
     1
290
     0
176
     1
 90
        1
176
     1
 40
0.0
176
     1
 90
        0
176
     1
290
     0
176
     1
290
     1
176
     1
290
     1
176
     1
290
     0
176
     1
290
     0
176
     1
290
     0
176
     1
290
     0
176
     1
290
     0
176
     1
290
     0
176
     1
 90
       50
176
     1
 40
0.0
176
     1
 40
1.0
176
     1
 90
        0
176
     1
 62
    18
420
        0
176
     1
 90
       50
176
     1
 90
        3
176
     1
 62
     5
420
      255
176
     1
290
     0
176
     1
 90
       50
176
     1
 90
       50
176
     1
 90
       50
176
     1
290
     0
176
     1
 90
       50
176
     1
 62
   256
176
     0
 40
1.0
176
     0
 90
        2
176
     1
  1
strokes_ogs.tif
176
     1
290
     0
176
     1
 40
1.0
176
     1
 40
1.0
176
     1
1001
ACAD
1000
AcDbSavedByObjectVersion
1070
     0
  0
VISUALSTYLE
  5
34
102
{ACAD_REACTORS
330
29
102
}
330
29
100
AcDbVisualStyle
  2
Dim
 70
    11
177
     3
291
     1
 70
    58
 90
        2
176
     1
 90
        2
176
     1
 90
        0
176
     1
 90
        0
176
     1
 40
0.6
176
     1
 40
30.0
176
     1
 62
     7
420
 16777215
176
     1
 90
        1
176
     1
 90
        4
176
     1
 62
     7
176
     1
 62
   257
176
     1
 90
        1
176
     1
 90
        1
176
     1
 40
1.0
176
     1
 90
        8
176
     1
 62
     7
176
     1
 40
1.0
176
     1
 90
        1
176
     1
 90
        6
176
     1
 90
        2
176
     1
 62
     7
176
     1
 90
        5
176
     1
 90
        0
176
     1
 90
        0
176
     1
290
     0
176
     1
 90
        1
176
     1
 40
-50.0
176
     1
 90
        0
176
     1
290
     0
176
     1
290
     1
176
     1
290
     1
176
     1
290
     0
176
     1
290
     0
176
     1
290
     0
176
     1
290
     0
176
     1
290
     0
176
     1
290
     0
176
     1
 90
       50
176
     1
 40
0.0
176
     1
 40
1.0
176
     1
 90
        0
176
     1
 62
    18
420
        0
176
     1
 90
       50
176
     1
 90
        3
176
     1
 62
     5
420
      255
176
     1
290
     0
176
     1
 90
       50
176
     1
 90
       50
176
     1
 90
       50
176
     1
290
     0
176
     1
 90
       50
176
     1
 62
   256
176
     0
 40
1.0
176
     0
 90
        2
176
     1
  1
strokes_ogs.tif
176
     1
290
     0
176
     1
 40
1.0
176
     1
 40
1.0
176
     1
1001
ACAD
1000
AcDbSavedByObjectVersion
1070
     0
  0
VISUALSTYLE
  5
41
102
{ACAD_REACTORS
330
29
102
}
330
29
100
AcDbVisualStyle
  2
EdgeColorOff
 70
    22
177
     3
291
     1
 70
    58
 90
        2
176
     0
 90
        2
176
     0
 90
        0
176
     0
 90
        0
176
     0
 40
0.6
176
     0
 40
30.0
176
     0
 62
     7
420
 16777215
176
     0
 90
        1
176
     0
 90
        4
176
     0
 62
     7
176
     0
 62
   257
176
     0
 90
        1
176
     0
 90
        1
176
     0
 40
1.0
176
     0
 90
        8
176
     2
 62
     7
176
     0
 40
1.0
176
     0
 90
        1
176
     0
 90
        6
176
     0
 90
        2
176
     0
 62
     7
176
     0
 90
        5
176
     0
 90
        0
176
     0
 90
        0
176
     0
290
     0
176
     0
 90
        1
176
     0
 40
0.0
176
     0
 90
        0
176
     0
290
     0
176
     0
290
     1
176
     0
290
     1
176
     0
290
     0
176
     0
290
     0
176
     0
290
     0
176
     0
290
     0
176
     0
290
     0
176
     0
290
     0
176
     0
 90
       50
176
     0
 40
0.0
176
     0
 40
1.0
176
     0
 90
        0
176
     0
 62
    18
420
        0
176
     0
 90
       50
176
     0
 90
        3
176
     0
 62
     5
420
      255
176
     0
290
     0
176
     0
 90
       50
176
     0
 90
       50
176
     0
 90
       50
176
     0
290
     0
176
     0
 90
       50
176
     0
 62
   256
176
     0
 40
1.0
176
     0
 90
        2
176
     0
  1
strokes_ogs.tif
176
     0
290
     0
176
     0
 40
1.0
176
     0
 40
1.0
176
     0
1001
ACAD
1000
AcDbSavedByObjectVersion
1070
     0
  0
VISUALSTYLE
  5
38
102
{ACAD_REACTORS
330
29
102
}
330
29
100
AcDbVisualStyle
  2
Facepattern
 70
    15
177
     3
291
     1
 70
    58
 90
        2
176
     1
 90
        2
176
     1
 90
        0
176
     1
 90
        0
176
     1
 40
0.6
176
     1
 40
30.0
176
     1
 62
     7
420
 16777215
176
     1
 90
        1
176
     1
 90
        4
176
     1
 62
     7
176
     1
 62
   257
176
     1
 90
        1
176
     1
 90
        1
176
     1
 40
1.0
176
     1
 90
        8
176
     1
 62
     7
176
     1
 40
1.0
176
     1
 90
        1
176
     1
 90
        6
176
     1
 90
        2
176
     1
 62
     7
176
     1
 90
        5
176
     1
 90
        0
176
     1
 90
        0
176
     1
290
     0
176
     1
 90
        1
176
     1
 40
0.0
176
     1
 90
        0
176
     1
290
     0
176
     1
290
     1
176
     1
290
     1
176
     1
290
     0
176
     1
290
     0
176
     1
290
     0
176
     1
290
     0
176
     1
290
     0
176
     1
290
     0
176
     1
 90
       50
176
     1
 40
0.0
176
     1
 40
1.0
176
     1
 90
        0
176
     1
 62
    18
420
        0
176
     1
 90
       50
176
     1
 90
        3
176
     1
 62
     5
420
      255
176
     1
290
     0
176
     1
 90
       50
176
     1
 90
       50
176
     1
 90
       50
176
     1
290
     0
176
     1
 90
       50
176
     1
 62
   256
176
     0
 40
1.0
176
     0
 90
        2
176
     1
  1
strokes_ogs.tif
176
     1
290
     0
176
     1
 40
1.0
176
     1
 40
1.0
176
     1
1001
ACAD
1000
AcDbSavedByObjectVersion
1070
     0
  0
VISUALSTYLE
  5
2A
102
{ACAD_REACTORS
330
29
102
}
330
29
100
AcDbVisualStyle
  2
Flat
 70
     0
177
     3
291
     1
 70
    58
 90
        2
176
     1
 90
        1
176
     1
 90
        1
176
     1
 90
        2
176
     1
 40
0.6
176
     1
 40
30.0
176
     1
 62
     7
420
 16777215
176
     1
 90
        0
176
     1
 90
        0
176
     1
 62
     7
176
     1
 62
   257
176
     1
 90
        1
176
     1
 90
        1
176
     1
 40
1.0
176
     1
 90
        8
176
     1
 62
     7
176
     1
 40
1.0
176
     1
 90
        1
176
     1
 90
        6
176
     1
 90
        2
176
     1
 62
     7
176
     1
 90
        5
176
     1
 90
        0
176
     1
 90
        0
176
     1
290
     0
176
     1
 90
       13
176
     1
 40
0.0
176
     1
 90
        0
176
     1
290
     0
176
     1
290
     1
176
     1
290
     1
176
     1
290
     0
176
     1
290
     0
176
     1
290
     0
176
     1
290
     0
176
     1
290
     0
176
     1
290
     0
176
     1
 90
       50
176
     1
 40
0.0
176
     1
 40
1.0
176
     1
 90
        0
176
     1
 62
    18
420
        0
176
     1
 90
       50
176
     1
 90
        3
176
     1
 62
     5
420
      255
176
     1
290
     0
176
     1
 90
       50
176
     1
 90
       50
176
     1
 90
       50
176
     1
290
     0
176
     1
 90
       50
176
     1
 62
   256
176
     0
 40
1.0
176
     0
 90
        2
176
     1
  1
strokes_ogs.tif
176
     1
290
     0
176
     1
 40
1.0
176
     1
 40
1.0
176
     1
1001
ACAD
1000
AcDbSavedByObjectVersion
1070
     0
  0
VISUALSTYLE
  5
2B
102
{ACAD_REACTORS
330
29
102
}
330
29
100
AcDbVisualStyle
  2
FlatWithEdges
 70
     1
177
     3
291
     1
 70
    58
 90
        2
176
     1
 90
        1
176
     1
 90
        1
176
     1
 90
        2
176
     1
 40
0.6
176
     1
 40
30.0
176
     1
 62
     7
420
 16777215
176
     1
 90
        1
176
     1
 90
        0
176
     1
 62
     7
176
     1
 62
   257
176
     1
 90
        1
176
     1
 90
        1
176
     1
 40
1.0
176
     1
 90
        0
176
     1
 62
   257
176
     1
 40
1.0
176
     1
 90
        1
176
     1
 90
        6
176
     1
 90
        2
176
     1
 62
     7
176
     1
 90
        5
176
     1
 90
        0
176
     1
 90
        0
176
     1
290
     0
176
     1
 90
       13
176
     1
 40
0.0
176
     1
 90
        0
176
     1
290
     0
176
     1
290
     1
176
     1
290
     1
176
     1
290
     0
176
     1
290
     0
176
     1
290
     0
176
     1
290
     0
176
     1
290
     0
176
     1
290
     0
176
     1
 90
       50
176
     1
 40
0.0
176
     1
 40
1.0
176
     1
 90
        0
176
     1
 62
    18
420
        0
176
     1
 90
       50
176
     1
 90
        3
176
     1
 62
     5
420
      255
176
     1
290
     0
176
     1
 90
       50
176
     1
 90
       50
176
     1
 90
       50
176
     1
290
     0
176
     1
 90
       50
176
     1
 62
   256
176
     0
 40
1.0
176
     0
 90
        2
176
     1
  1
strokes_ogs.tif
176
     1
290
     0
176
     1
 40
1.0
176
     1
 40
1.0
176
     1
1001
ACAD
1000
AcDbSavedByObjectVersion
1070
     0
  0
VISUALSTYLE
  5
2C
102
{ACAD_REACTORS
330
29
102
}
330
29
100
AcDbVisualStyle
  2
Gouraud
 70
     2
177
     3
291
     1
 70
    58
 90
        2
176
     1
 90
        2
176
     1
 90
        1
176
     1
 90
        2
176
     1
 40
0.6
176
     1
 40
30.0
176
     1
 62
     7
420
 16777215
176
     1
 90
        0
176
     1
 90
        0
176
     1
 62
     7
176
     1
 62
   257
176
     1
 90
        1
176
     1
 90
        1
176
     1
 40
1.0
176
     1
 90
        0
176
     1
 62
     7
176
     1
 40
1.0
176
     1
 90
        1
176
     1
 90
        6
176
     1
 90
        2
176
     1
 62
     7
176
     1
 90
        5
176
     1
 90
        0
176
     1
 90
        0
176
     1
290
     0
176
     1
 90
       13
176
     1
 40
0.0
176
     1
 90
        0
176
     1
290
     0
176
     1
290
     1
176
     1
290
     1
176
     1
290
     0
176
     1
290
     0
176
     1
290
     0
176
     1
290
     0
176
     1
290
     0
176
     1
290
     0
176
     1
 90
       50
176
     1
 40
0.0
176
     1
 40
1.0
176
     1
 90
        0
176
     1
 62
    18
420
        0
176
     1
 90
       50
176
     1
 90
        3
176
     1
 62
     5
420
      255
176
     1
290
     0
176
     1
 90
       50
176
     1
 90
       50
176
     1
 90
       50
176
     1
290
     0
176
     1
 90
       50
176
     1
 62
   256
176
     0
 40
1.0
176
     0
 90
        2
176
     1
  1
strokes_ogs.tif
176
     1
290
     0
176
     1
 40
1.0
176
     1
 40
1.0
176
     1
1001
ACAD
1000
AcDbSavedByObjectVersion
1070
     0
  0
VISUALSTYLE
  5
2D
102
{ACAD_REACTORS
330
29
102
}
330
29
100
AcDbVisualStyle
  2
GouraudWithEdges
 70
     3
177
     3
291
     1
 70
    58
 90
        2
176
     1
 90
        2
176
     1
 90
        1
176
     1
 90
        2
176
     1
 40
0.6
176
     1
 40
30.0
176
     1
 62
     7
420
 16777215
176
     1
 90
        1
176
     1
 90
        0
176
     1
 62
     7
176
     1
 62
   257
176
     1
 90
        1
176
     1
 90
        1
176
     1
 40
1.0
176
     1
 90
        0
176
     1
 62
   257
176
     1
 40
1.0
176
     1
 90
        1
176
     1
 90
        6
176
     1
 90
        2
176
     1
 62
     7
176
     1
 90
        5
176
     1
 90
        0
176
     1
 90
        0
176
     1
290
     0
176
     1
 90
       13
176
     1
 40
0.0
176
     1
 90
        0
176
     1
290
     0
176
     1
290
     1
176
     1
290
     1
176
     1
290
     0
176
     1
290
     0
176
     1
290
     0
176
     1
290
     0
176
     1
290
     0
176
     1
290
     0
176
     1
 90
       50
176
     1
 40
0.0
176
     1
 40
1.0
176
     1
 90
        0
176
     1
 62
    18
420
        0
176
     1
 90
       50
176
     1
 90
        3
176
     1
 62
     5
420
      255
176
     1
290
     0
176
     1
 90
       50
176
     1
 90
       50
176
     1
 90
       50
176
     1
290
     0
176
     1
 90
       50
176
     1
 62
   256
176
     0
 40
1.0
176
     0
 90
        2
176
     1
  1
strokes_ogs.tif
176
     1
290
     0
176
     1
 40
1.0
176
     1
 40
1.0
176
     1
1001
ACAD
1000
AcDbSavedByObjectVersion
1070
     0
  0
VISUALSTYLE
  5
31
102
{ACAD_REACTORS
330
29
102
}
330
29
100
AcDbVisualStyle
  2
Hidden
 70
     6
177
     3
291
     0
 70
    58
 90
        1
176
     1
 90
        2
176
     1
 90
        2
176
     1
 90
        0
176
     1
 40
0.6
176
     1
 40
30.0
176
     1
 62
     7
420
 16777215
176
     1
 90
        2
176
     1
 90
        2
176
     1
 62
     7
176
     1
 62
   257
176
     1
 90
        2
176
     1
 90
        1
176
     1
 40
40.0
176
     1
 90
        0
176
     1
 62
   257
176
     1
 40
1.0
176
     1
 90
        1
176
     1
 90
        6
176
     1
 90
        2
176
     1
 62
     7
176
     1
 90
        3
176
     1
 90
        0
176
     1
 90
        0
176
     1
290
     0
176
     1
 90
        1
176
     1
 40
0.0
176
     1
 90
        0
176
     1
290
     0
176
     1
290
     1
176
     1
290
     1
176
     1
290
     0
176
     1
290
     0
176
     1
290
     0
176
     1
290
     0
176
     1
290
     0
176
     1
290
     0
176
     1
 90
       50
176
     1
 40
0.0
176
     1
 40
1.0
176
     1
 90
        0
176
     1
 62
    18
420
        0
176
     1
 90
       50
176
     1
 90
        3
176
     1
 62
     5
420
      255
176
     1
290
     0
176
     1
 90
       50
176
     1
 90
       50
176
     1
 90
       50
176
     1
290
     0
176
     1
 90
       50
176
     1
 62
   256
176
     0
 40
1.0
176
     0
 90
        2
176
     1
  1
strokes_ogs.tif
176
     1
290
     0
176
     1
 40
1.0
176
     1
 40
1.0
176
     1
1001
ACAD
1000
AcDbSavedByObjectVersion
1070
     0
  0
VISUALSTYLE
  5
3F
102
{ACAD_REACTORS
330
29
102
}
330
29
100
AcDbVisualStyle
  2
JitterOff
 70
    20
177
     3
291
     1
 70
    58
 90
        2
176
     0
 90
        2
176
     0
 90
        0
176
     0
 90
        0
176
     0
 40
0.6
176
     0
 40
30.0
176
     0
 62
     7
420
 16777215
176
     0
 90
        1
176
     0
 90
        4
176
     0
 62
     7
176
     0
 62
   257
176
     0
 90
        1
176
     0
 90
        1
176
     0
 40
1.0
176
     0
 90
       10
176
     2
 62
     7
176
     0
 40
1.0
176
     0
 90
        1
176
     0
 90
        6
176
     0
 90
        2
176
     0
 62
     7
176
     0
 90
        5
176
     0
 90
        0
176
     0
 90
        0
176
     0
290
     0
176
     0
 90
        1
176
     0
 40
0.0
176
     0
 90
        0
176
     0
290
     0
176
     0
290
     1
176
     0
290
     1
176
     0
290
     0
176
     0
290
     0
176
     0
290
     0
176
     0
290
     0
176
     0
290
     0
176
     0
290
     0
176
     0
 90
       50
176
     0
 40
0.0
176
     0
 40
1.0
176
     0
 90
        0
176
     0
 62
    18
420
        0
176
     0
 90
       50
176
     0
 90
        3
176
     0
 62
     5
420
      255
176
     0
290
     0
176
     0
 90
       50
176
     0
 90
       50
176
     0
 90
       50
176
     0
290
     0
176
     0
 90
       50
176
     0
 62
   256
176
     0
 40
1.0
176
     0
 90
        2
176
     0
  1
strokes_ogs.tif
176
     0
290
     0
176
     0
 40
1.0
176
     0
 40
1.0
176
     0
1001
ACAD
1000
AcDbSavedByObjectVersion
1070
     0
  0
VISUALSTYLE
  5
37
102
{ACAD_REACTORS
330
29
102
}
330
29
100
AcDbVisualStyle
  2
Linepattern
 70
    14
177
     3
291
     1
 70
    58
 90
        2
176
     1
 90
        2
176
     1
 90
        0
176
     1
 90
        0
176
     1
 40
0.6
176
     1
 40
30.0
176
     1
 62
     7
420
 16777215
176
     1
 90
        1
176
     1
 90
        4
176
     1
 62
     7
176
     1
 62
   257
176
     1
 90
        7
176
     1
 90
        7
176
     1
 40
1.0
176
     1
 90
        8
176
     1
 62
     7
176
     1
 40
1.0
176
     1
 90
        1
176
     1
 90
        6
176
     1
 90
        2
176
     1
 62
     7
176
     1
 90
        5
176
     1
 90
        0
176
     1
 90
        0
176
     1
290
     0
176
     1
 90
        1
176
     1
 40
0.0
176
     1
 90
        0
176
     1
290
     0
176
     1
290
     1
176
     1
290
     1
176
     1
290
     0
176
     1
290
     0
176
     1
290
     0
176
     1
290
     0
176
     1
290
     0
176
     1
290
     0
176
     1
 90
       50
176
     1
 40
0.0
176
     1
 40
1.0
176
     1
 90
        0
176
     1
 62
    18
420
        0
176
     1
 90
       50
176
     1
 90
        3
176
     1
 62
     5
420
      255
176
     1
290
     0
176
     1
 90
       50
176
     1
 90
       50
176
     1
 90
       50
176
     1
290
     0
176
     1
 90
       50
176
     1
 62
   256
176
     0
 40
1.0
176
     0
 90
        2
176
     1
  1
strokes_ogs.tif
176
     1
290
     0
176
     1
 40
1.0
176
     1
 40
1.0
176
     1
1001
ACAD
1000
AcDbSavedByObjectVersion
1070
     0
  0
VISUALSTYLE
  5
40
102
{ACAD_REACTORS
330
29
102
}
330
29
100
AcDbVisualStyle
  2
OverhangOff
 70
    21
177
     3
291
     1
 70
    58
 90
        2
176
     0
 90
        2
176
     0
 90
        0
176
     0
 90
        0
176
     0
 40
0.6
176
     0
 40
30.0
176
     0
 62
     7
420
 16777215
176
     0
 90
        1
176
     0
 90
        4
176
     0
 62
     7
176
     0
 62
   257
176
     0
 90
        1
176
     0
 90
        1
176
     0
 40
1.0
176
     0
 90
        9
176
     2
 62
     7
176
     0
 40
1.0
176
     0
 90
        1
176
     0
 90
        6
176
     0
 90
        2
176
     0
 62
     7
176
     0
 90
        5
176
     0
 90
        0
176
     0
 90
        0
176
     0
290
     0
176
     0
 90
        1
176
     0
 40
0.0
176
     0
 90
        0
176
     0
290
     0
176
     0
290
     1
176
     0
290
     1
176
     0
290
     0
176
     0
290
     0
176
     0
290
     0
176
     0
290
     0
176
     0
290
     0
176
     0
290
     0
176
     0
 90
       50
176
     0
 40
0.0
176
     0
 40
1.0
176
     0
 90
        0
176
     0
 62
    18
420
        0
176
     0
 90
       50
176
     0
 90
        3
176
     0
 62
     5
420
      255
176
     0
290
     0
176
     0
 90
       50
176
     0
 90
       50
176
     0
 90
       50
176
     0
290
     0
176
     0
 90
       50
176
     0
 62
   256
176
     0
 40
1.0
176
     0
 90
        2
176
     0
  1
strokes_ogs.tif
176
     0
290
     0
176
     0
 40
1.0
176
     0
 40
1.0
176
     0
1001
ACAD
1000
AcDbSavedByObjectVersion
1070
     0
  0
VISUALSTYLE
  5
33
102
{ACAD_REACTORS
330
29
102
}
330
29
100
AcDbVisualStyle
  2
Realistic
 70
     8
177
     3
291
     0
 70
    58
 90
        2
176
     1
 90
        3
176
     1
 90
        0
176
     1
 90
        2
176
     1
 40
0.6
176
     1
 40
30.0
176
     1
 62
     7
420
 16777215
176
     1
 90
        0
176
     1
 90
        0
176
     1
 62
     7
176
     1
 62
   257
176
     1
 90
        1
176
     1
 90
        1
176
     1
 40
1.0
176
     1
 90
        8
176
     1
 62
   257
176
     1
 40
1.0
176
     1
 90
        1
176
     1
 90
        6
176
     1
 90
        2
176
     1
 62
     7
176
     1
 90
        3
176
     1
 90
        0
176
     1
 90
        0
176
     1
290
     0
176
     1
 90
       13
176
     1
 40
0.0
176
     1
 90
        0
176
     1
290
     0
176
     1
290
     1
176
     1
290
     1
176
     1
290
     0
176
     1
290
     0
176
     1
290
     0
176
     1
290
     0
176
     1
290
     0
176
     1
290
     0
176
     1
 90
       50
176
     1
 40
0.0
176
     1
 40
1.0
176
     1
 90
        0
176
     1
 62
    18
420
        0
176
     1
 90
       50
176
     1
 90
        3
176
     1
 62
     5
420
      255
176
     1
290
     0
176
     1
 90
       50
176
     1
 90
       50
176
     1
 90
       50
176
     1
290
     0
176
     1
 90
       50
176
     1
 62
   256
176
     0
 40
1.0
176
     0
 90
        2
176
     1
  1
strokes_ogs.tif
176
     1
290
     0
176
     1
 40
1.0
176
     1
 40
1.0
176
     1
1001
ACAD
1000
AcDbSavedByObjectVersion
1070
     0
  0
VISUALSTYLE
  5
3E
102
{ACAD_REACTORS
330
29
102
}
330
29
100
AcDbVisualStyle
  2
Shaded
 70
    27
177
     3
291
     0
 70
    58
 90
        2
176
     1
 90
        2
176
     1
 90
        1
176
     1
 90
        2
176
     1
 40
0.6
176
     1
 40
30.0
176
     1
 62
     7
420
 16777215
176
     1
 90
        0
176
     1
 90
        4
176
     1
 62
     7
176
     1
 62
   257
176
     1
 90
        1
176
     1
 90
        1
176
     1
 40
1.0
176
     1
 90
        8
176
     1
 62
   257
176
     1
 40
1.0
176
     1
 90
        1
176
     1
 90
        6
176
     1
 90
        2
176
     1
 62
     8
420
  7895160
176
     1
 90
        3
176
     1
 90
        0
176
     1
 90
        0
176
     1
290
     0
176
     1
 90
        5
176
     1
 40
0.0
176
     1
 90
        0
176
     1
290
     0
176
     1
290
     1
176
     1
290
     1
176
     1
290
     0
176
     1
290
     0
176
     1
290
     0
176
     1
290
     0
176
     1
290
     0
176
     1
290
     0
176
     1
 90
       50
176
     1
 40
0.0
176
     1
 40
1.0
176
     1
 90
        0
176
     1
 62
    18
420
        0
176
     1
 90
       50
176
     1
 90
        3
176
     1
 62
     5
420
      255
176
     1
290
     0
176
     1
 90
       50
176
     1
 90
       50
176
     1
 90
       50
176
     1
290
     0
176
     1
 90
       50
176
     1
 62
   256
176
     0
 40
1.0
176
     0
 90
        2
176
     1
  1
strokes_ogs.tif
176
     1
290
     0
176
     1
 40
1.0
176
     1
 40
1.0
176
     1
1001
ACAD
1000
AcDbSavedByObjectVersion
1070
     0
  0
VISUALSTYLE
  5
3D
102
{ACAD_REACTORS
330
29
102
}
330
29
100
AcDbVisualStyle
  2
Shaded with edges
 70
    26
177
     3
291
     0
 70
    58
 90
        2
176
     1
 90
        2
176
     1
 90
        1
176
     1
 90
        2
176
     1
 40
0.6
176
     1
 40
30.0
176
     1
 62
     7
420
 16777215
176
     1
 90
        1
176
     1
 90
        2
176
     1
 62
     7
176
     1
 62
   257
176
     1
 90
        2
176
     1
 90
        1
176
     1
 40
1.0
176
     1
 90
        8
176
     1
 62
   257
176
     1
 40
1.0
176
     1
 90
        1
176
     1
 90
        6
176
     1
 90
        2
176
     1
 62
     7
176
     1
 90
        3
176
     1
 90
        0
176
     1
 90
        0
176
     1
290
     0
176
     1
 90
        5
176
     1
 40
0.0
176
     1
 90
        0
176
     1
290
     0
176
     1
290
     1
176
     1
290
     1
176
     1
290
     0
176
     1
290
     0
176
     1
290
     0
176
     1
290
     0
176
     1
290
     0
176
     1
290
     0
176
     1
 90
       50
176
     1
 40
0.0
176
     1
 40
1.0
176
     1
 90
        0
176
     1
 62
    18
420
        0
176
     1
 90
       50
176
     1
 90
        3
176
     1
 62
     5
420
      255
176
     1
290
     0
176
     1
 90
       50
176
     1
 90
       50
176
     1
 90
       50
176
     1
290
     0
176
     1
 90
       50
176
     1
 62
   256
176
     0
 40
1.0
176
     0
 90
        2
176
     1
  1
strokes_ogs.tif
176
     1
290
     0
176
     1
 40
1.0
176
     1
 40
1.0
176
     1
1001
ACAD
1000
AcDbSavedByObjectVersion
1070
     0
  0
VISUALSTYLE
  5
3A
102
{ACAD_REACTORS
330
29
102
}
330
29
100
AcDbVisualStyle
  2
Shades of Gray
 70
    23
177
     3
291
     0
 70
    58
 90
        2
176
     1
 90
        2
176
     1
 90
        3
176
     1
 90
        0
176
     1
 40
0.6
176
     1
 40
30.0
176
     1
 62
     7
420
 16777215
176
     1
 90
        2
176
     1
 90
        2
176
     1
 62
     7
176
     1
 62
     7
176
     1
 90
        1
176
     1
 90
        1
176
     1
 40
40.0
176
     1
 90
        8
176
     1
 62
     7
176
     1
 40
1.0
176
     1
 90
        1
176
     1
 90
        6
176
     1
 90
        2
176
     1
 62
     7
176
     1
 90
        3
176
     1
 90
        0
176
     1
 90
        0
176
     1
290
     0
176
     1
 90
        1
176
     1
 40
0.0
176
     1
 90
        0
176
     1
290
     0
176
     1
290
     1
176
     1
290
     1
176
     1
290
     0
176
     1
290
     0
176
     1
290
     0
176
     1
290
     0
176
     1
290
     0
176
     1
290
     0
176
     1
 90
       50
176
     1
 40
0.0
176
     1
 40
1.0
176
     1
 90
        0
176
     1
 62
    18
420
        0
176
     1
 90
       50
176
     1
 90
        3
176
     1
 62
     5
420
      255
176
     1
290
     0
176
     1
 90
       50
176
     1
 90
       50
176
     1
 90
       50
176
     1
290
     0
176
     1
 90
       50
176
     1
 62
   256
176
     0
 40
1.0
176
     0
 90
        2
176
     1
  1
strokes_ogs.tif
176
     1
290
     0
176
     1
 40
1.0
176
     1
 40
1.0
176
     1
1001
ACAD
1000
AcDbSavedByObjectVersion
1070
     0
  0
VISUALSTYLE
  5
3B
102
{ACAD_REACTORS
330
29
102
}
330
29
100
AcDbVisualStyle
  2
Sketchy
 70
    24
177
     3
291
     0
 70
    58
 90
        1
176
     1
 90
        2
176
     1
 90
        2
176
     1
 90
        0
176
     1
 40
0.6
176
     1
 40
30.0
176
     1
 62
     7
420
 16777215
176
     1
 90
        2
176
     1
 90
        2
176
     1
 62
     7
176
     1
 62
     7
176
     1
 90
        1
176
     1
 90
        1
176
     1
 40
40.0
176
     1
 90
       11
176
     1
 62
     7
176
     1
 40
1.0
176
     1
 90
        1
176
     1
 90
        6
176
     1
 90
        2
176
     1
 62
     7
176
     1
 90
        6
176
     1
 90
        0
176
     1
 90
        0
176
     1
290
     0
176
     1
 90
        1
176
     1
 40
0.0
176
     1
 90
        0
176
     1
290
     0
176
     1
290
     1
176
     1
290
     1
176
     1
290
     0
176
     1
290
     0
176
     1
290
     0
176
     1
290
     0
176
     1
290
     0
176
     1
290
     0
176
     1
 90
       50
176
     1
 40
0.0
176
     1
 40
1.0
176
     1
 90
        0
176
     1
 62
    18
420
        0
176
     1
 90
       50
176
     1
 90
        3
176
     1
 62
     5
420
      255
176
     1
290
     0
176
     1
 90
       50
176
     1
 90
       50
176
     1
 90
       50
176
     1
290
     0
176
     1
 90
       50
176
     1
 62
   256
176
     0
 40
1.0
176
     0
 90
        2
176
     1
  1
strokes_ogs.tif
176
     1
290
     0
176
     1
 40
1.0
176
     1
 40
1.0
176
     1
1001
ACAD
1000
AcDbSavedByObjectVersion
1070
     0
  0
VISUALSTYLE
  5
36
102
{ACAD_REACTORS
330
29
102
}
330
29
100
AcDbVisualStyle
  2
Thicken
 70
    13
177
     3
291
     1
 70
    58
 90
        2
176
     1
 90
        2
176
     1
 90
        0
176
     1
 90
        0
176
     1
 40
0.6
176
     1
 40
30.0
176
     1
 62
     7
420
 16777215
176
     1
 90
        1
176
     1
 90
        4
176
     1
 62
     7
176
     1
 62
   257
176
     1
 90
        1
176
     1
 90
        1
176
     1
 40
1.0
176
     1
 90
       12
176
     1
 62
     7
176
     1
 40
1.0
176
     1
 90
        1
176
     1
 90
        6
176
     1
 90
        2
176
     1
 62
     7
176
     1
 90
        5
176
     1
 90
        0
176
     1
 90
        0
176
     1
290
     0
176
     1
 90
        1
176
     1
 40
0.0
176
     1
 90
        0
176
     1
290
     0
176
     1
290
     1
176
     1
290
     1
176
     1
290
     0
176
     1
290
     0
176
     1
290
     0
176
     1
290
     0
176
     1
290
     0
176
     1
290
     0
176
     1
 90
       50
176
     1
 40
0.0
176
     1
 40
1.0
176
     1
 90
        0
176
     1
 62
    18
420
        0
176
     1
 90
       50
176
     1
 90
        3
176
     1
 62
     5
420
      255
176
     1
290
     0
176
     1
 90
       50
176
     1
 90
       50
176
     1
 90
       50
176
     1
290
     0
176
     1
 90
       50
176
     1
 62
   256
176
     0
 40
1.0
176
     0
 90
        2
176
     1
  1
strokes_ogs.tif
176
     1
290
     0
176
     1
 40
1.0
176
     1
 40
1.0
176
     1
1001
ACAD
1000
AcDbSavedByObjectVersion
1070
     0
  0
VISUALSTYLE
  5
30
102
{ACAD_REACTORS
330
29
102
}
330
29
100
AcDbVisualStyle
  2
Wireframe
 70
     5
177
     3
291
     0
 70
    58
 90
        0
176
     1
 90
        2
176
     1
 90
        0
176
     1
 90
        0
176
     1
 40
0.6
176
     1
 40
30.0
176
     1
 62
     7
420
 16777215
176
     1
 90
        1
176
     1
 90
        4
176
     1
 62
     7
176
     1
 62
   257
176
     1
 90
        1
176
     1
 90
        1
176
     1
 40
1.0
176
     1
 90
        0
176
     1
 62
   257
176
     1
 40
1.0
176
     1
 90
        1
176
     1
 90
        6
176
     1
 90
        2
176
     1
 62
     7
176
     1
 90
        3
176
     1
 90
        0
176
     1
 90
        0
176
     1
290
     0
176
     1
 90
        1
176
     1
 40
0.0
176
     1
 90
        0
176
     1
290
     0
176
     1
290
     1
176
     1
290
     1
176
     1
290
     0
176
     1
290
     0
176
     1
290
     0
176
     1
290
     0
176
     1
290
     0
176
     1
290
     0
176
     1
 90
       50
176
     1
 40
0.0
176
     1
 40
1.0
176
     1
 90
        0
176
     1
 62
    18
420
        0
176
     1
 90
       50
176
     1
 90
        3
176
     1
 62
     5
420
      255
176
     1
290
     0
176
     1
 90
       50
176
     1
 90
       50
176
     1
 90
       50
176
     1
290
     0
176
     1
 90
       50
176
     1
 62
   256
176
     0
 40
1.0
176
     0
 90
        2
176
     1
  1
strokes_ogs.tif
176
     1
290
     0
176
     1
 40
1.0
176
     1
 40
1.0
176
     1
1001
ACAD
1000
AcDbSavedByObjectVersion
1070
     0
  0
VISUALSTYLE
  5
3C
102
{ACAD_REACTORS
330
29
102
}
330
29
100
AcDbVisualStyle
  2
X-Ray
 70
    25
177
     3
291
     0
 70
    58
 90
        2
176
     1
 90
        2
176
     1
 90
        1
176
     1
 90
        1
176
     1
 40
0.5
176
     1
 40
30.0
176
     1
 62
     7
420
 16777215
176
     1
 90
        1
176
     1
 90
        0
176
     1
 62
     7
176
     1
 62
   257
176
     1
 90
        1
176
     1
 90
        1
176
     1
 40
1.0
176
     1
 90
        8
176
     1
 62
     7
176
     1
 40
1.0
176
     1
 90
        1
176
     1
 90
        6
176
     1
 90
        2
176
     1
 62
     7
176
     1
 90
        3
176
     1
 90
        0
176
     1
 90
        0
176
     1
290
     0
176
     1
 90
       13
176
     1
 40
0.0
176
     1
 90
        0
176
     1
290
     0
176
     1
290
     1
176
     1
290
     1
176
     1
290
     0
176
     1
290
     0
176
     1
290
     0
176
     1
290
     0
176
     1
290
     0
176
     1
290
     0
176
     1
 90
       50
176
     1
 40
0.0
176
     1
 40
1.0
176
     1
 90
        0
176
     1
 62
    18
420
        0
176
     1
 90
       50
176
     1
 90
        3
176
     1
 62
     5
420
      255
176
     1
290
     0
176
     1
 90
       50
176
     1
 90
       50
176
     1
 90
       50
176
     1
290
     0
176
     1
 90
       50
176
     1
 62
   256
176
     0
 40
1.0
176
     0
 90
        2
176
     1
  1
strokes_ogs.tif
176
     1
290
     0
176
     1
 40
1.0
176
     1
 40
1.0
176
     1
1001
ACAD
1000
AcDbSavedByObjectVersion
1070
     0
  0
DICTIONARYVAR
  5
7F0
102
{ACAD_REACTORS
330
7EB
102
}
330
7EB
100
DictionaryVariables
280
     0
  1
0
  0
DICTIONARYVAR
  5
7F1
102
{ACAD_REACTORS
330
7EB
102
}
330
7EB
100
DictionaryVariables
280
     0
  1
1:1
  0
DICTIONARYVAR
  5
7ED
102
{ACAD_REACTORS
330
7EB
102
}
330
7EB
100
DictionaryVariables
280
     0
  1
STANDARD
  0
DICTIONARYVAR
  5
7EC
102
{ACAD_REACTORS
330
7EB
102
}
330
7EB
100
DictionaryVariables
280
     0
  1
STANDARD
  0
DICTIONARYVAR
  5
7EE
102
{ACAD_REACTORS
330
7EB
102
}
330
7EB
100
DictionaryVariables
280
     0
  1
Imperial24
  0
DICTIONARYVAR
  5
7EF
102
{ACAD_REACTORS
330
7EB
102
}
330
7EB
100
DictionaryVariables
280
     0
  1
Imperial24
  0
DICTIONARY
  5
7F7
330
6B
100
AcDbDictionary
280
     1
281
     1
  3
ACAD_XREC_ROUNDTRIP
360
7F8
  0
DICTIONARY
  5
1A
330
19
100
AcDbDictionary
280
     1
281
     1
  3
BUMPTILE
360
1C
  3
DIFFUSETILE
360
1B
  3
OPACITYTILE
360
1F
  3
REFLECTIONTILE
360
1E
  3
REFRACTIONTILE
360
20
  3
SPECULARTILE
360
1D
  0
DICTIONARY
  5
12
330
11
100
AcDbDictionary
280
     1
281
     1
  3
BUMPTILE
360
14
  3
DIFFUSETILE
360
13
  3
OPACITYTILE
360
17
  3
REFLECTIONTILE
360
16
  3
REFRACTIONTILE
360
18
  3
SPECULARTILE
360
15
  0
DICTIONARY
  5
22
330
21
100
AcDbDictionary
280
     1
281
     1
  3
BUMPTILE
360
24
  3
DIFFUSETILE
360
23
  3
OPACITYTILE
360
27
  3
REFLECTIONTILE
360
26
  3
REFRACTIONTILE
360
28
  3
SPECULARTILE
360
25
  0
DICTIONARY
  5
7F5
330
69
100
AcDbDictionary
280
     1
281
     1
  3
ACAD_XREC_ROUNDTRIP
360
7F6
  0
DICTIONARY
  5
7F2
330
65
100
AcDbDictionary
280
     1
281
     1
  3
ACAD_ROUNDTRIP_2008_TABLESTYLE_CELLSTYLEMAP
360
7F3
  0
XRECORD
  5
7F8
102
{ACAD_REACTORS
330
7F7
102
}
330
7F7
100
AcDbXrecord
280
     1
102
DISPLAYNAME
  1
Imperial24
102
FLAGS
 90
        0
  0
XRECORD
  5
1C
102
{ACAD_REACTORS
330
1A
102
}
330
1A
100
AcDbXrecord
280
     1
270
     1
271
     1
  0
XRECORD
  5
1B
102
{ACAD_REACTORS
330
1A
102
}
330
1A
100
AcDbXrecord
280
     1
270
     1
271
     1
  0
XRECORD
  5
1F
102
{ACAD_REACTORS
330
1A
102
}
330
1A
100
AcDbXrecord
280
     1
270
     1
271
     1
  0
XRECORD
  5
1E
102
{ACAD_REACTORS
330
1A
102
}
330
1A
100
AcDbXrecord
280
     1
270
     1
271
     1
  0
XRECORD
  5
20
102
{ACAD_REACTORS
330
1A
102
}
330
1A
100
AcDbXrecord
280
     1
270
     1
271
     1
  0
XRECORD
  5
1D
102
{ACAD_REACTORS
330
1A
102
}
330
1A
100
AcDbXrecord
280
     1
270
     1
271
     1
  0
XRECORD
  5
14
102
{ACAD_REACTORS
330
12
102
}
330
12
100
AcDbXrecord
280
     1
270
     1
271
     1
  0
XRECORD
  5
13
102
{ACAD_REACTORS
330
12
102
}
330
12
100
AcDbXrecord
280
     1
270
     1
271
     1
  0
XRECORD
  5
17
102
{ACAD_REACTORS
330
12
102
}
330
12
100
AcDbXrecord
280
     1
270
     1
271
     1
  0
XRECORD
  5
16
102
{ACAD_REACTORS
330
12
102
}
330
12
100
AcDbXrecord
280
     1
270
     1
271
     1
  0
XRECORD
  5
18
102
{ACAD_REACTORS
330
12
102
}
330
12
100
AcDbXrecord
280
     1
270
     1
271
     1
  0
XRECORD
  5
15
102
{ACAD_REACTORS
330
12
102
}
330
12
100
AcDbXrecord
280
     1
270
     1
271
     1
  0
XRECORD
  5
24
102
{ACAD_REACTORS
330
22
102
}
330
22
100
AcDbXrecord
280
     1
270
     1
271
     1
  0
XRECORD
  5
23
102
{ACAD_REACTORS
330
22
102
}
330
22
100
AcDbXrecord
280
     1
270
     1
271
     1
  0
XRECORD
  5
27
102
{ACAD_REACTORS
330
22
102
}
330
22
100
AcDbXrecord
280
     1
270
     1
271
     1
  0
XRECORD
  5
26
102
{ACAD_REACTORS
330
22
102
}
330
22
100
AcDbXrecord
280
     1
270
     1
271
     1
  0
XRECORD
  5
28
102
{ACAD_REACTORS
330
22
102
}
330
22
100
AcDbXrecord
280
     1
270
     1
271
     1
  0
XRECORD
  5
25
102
{ACAD_REACTORS
330
22
102
}
330
22
100
AcDbXrecord
280
     1
270
     1
271
     1
  0
XRECORD
  5
7F6
102
{ACAD_REACTORS
330
7F5
102
}
330
7F5
100
AcDbXrecord
280
     1
102
DISPLAYNAME
  1
Imperial24
102
FLAGS
 90
        0
  0
CELLSTYLEMAP
  5
7F3
102
{ACAD_REACTORS
330
7F2
102
}
330
7F2
100
AcDbCellStyleMap
 90
        3
300
CELLSTYLE
  1
TABLEFORMAT_BEGIN
 90
        5
170
     1
 91
        0
 92
    32768
 62
   257
 93
        1
300
CONTENTFORMAT
  1
CONTENTFORMAT_BEGIN
 90
        0
 91
        0
 92
      512
 93
        0
300

 40
0.0
140
1.0
 94
        5
 62
     0
340
55
144
0.25
309
CONTENTFORMAT_END
171
     0
 94
        0
309
TABLEFORMAT_END
  1
CELLSTYLE_BEGIN
 90
        1
 91
        1
300
_TITLE
309
CELLSTYLE_END
300
CELLSTYLE
  1
TABLEFORMAT_BEGIN
 90
        5
170
     1
 91
        0
 92
        0
 62
   257
 93
        1
300
CONTENTFORMAT
  1
CONTENTFORMAT_BEGIN
 90
        0
 91
        0
 92
      512
 93
        0
300

 40
0.0
140
1.0
 94
        5
 62
     0
340
55
144
0.18
309
CONTENTFORMAT_END
171
     0
 94
        0
309
TABLEFORMAT_END
  1
CELLSTYLE_BEGIN
 90
        2
 91
        1
300
_HEADER
309
CELLSTYLE_END
300
CELLSTYLE
  1
TABLEFORMAT_BEGIN
 90
        5
170
     1
 91
        0
 92
        0
 62
   257
 93
        1
300
CONTENTFORMAT
  1
CONTENTFORMAT_BEGIN
 90
        0
 91
        0
 92
      512
 93
        0
300

 40
0.0
140
1.0
 94
        2
 62
     0
340
55
144
0.18
309
CONTENTFORMAT_END
171
     0
 94
        0
309
TABLEFORMAT_END
  1
CELLSTYLE_BEGIN
 90
        3
 91
        2
300
_DATA
309
CELLSTYLE_END
  0
ENDSEC
  0
EOF
