  0
SECTION
  2
HEADER
  9
$ACADVER
  1
AC1027
  9
$ACADMAINTVER
 70
   125
  9
$DWGCODEPAGE
  3
ANSI_1252
  9
$LASTSAVEDBY
  1
Administrator
  9
$REQUIREDVERSIONS
160
                 0
  9
$INSBASE
 10
0.0
 20
0.0
 30
0.0
  9
$EXTMIN
 10
0.0
 20
0.0
 30
-1.750004
  9
$EXTMAX
 10
17.0
 20
11.0
 30
120.0
  9
$LIMMIN
 10
0.0
 20
0.0
  9
$LIMMAX
 10
17.0
 20
11.0
  9
$ORTHOMODE
 70
     0
  9
$REGENMODE
 70
     1
  9
$FILLMODE
 70
     1
  9
$QTEXTMODE
 70
     0
  9
$MIRRTEXT
 70
     0
  9
$LTSCALE
 40
0.75
  9
$ATTMODE
 70
     1
  9
$TEXTSIZE
 40
0.12
  9
$TRACEWID
 40
0.05
  9
$TEXTSTYLE
  7
Standard
  9
$CLAYER
  8
Titleblock
  9
$CELTYPE
  6
ByLayer
  9
$CECOLOR
 62
   256
  9
$CELTSCALE
 40
1.0
  9
$DISPSILH
 70
     0
  9
$DIMSCALE
 40
1.0
  9
$DIMASZ
 40
0.12
  9
$DIMEXO
 40
0.05
  9
$DIMDLI
 40
0.339411
  9
$DIMRND
 40
0.0
  9
$DIMDLE
 40
0.0
  9
$DIMEXE
 40
0.1
  9
$DIMTP
 40
0.01
  9
$DIMTM
 40
0.01
  9
$DIMTXT
 40
0.12
  9
$DIMCEN
 40
0.0
  9
$DIMTSZ
 40
0.0
  9
$DIMTOL
 70
     0
  9
$DIMLIM
 70
     0
  9
$DIMTIH
 70
     1
  9
$DIMTOH
 70
     1
  9
$DIMSE1
 70
     0
  9
$DIMSE2
 70
     0
  9
$DIMTAD
 70
     0
  9
$DIMZIN
 70
    12
  9
$DIMBLK
  1

  9
$DIMASO
 70
     1
  9
$DIMSHO
 70
     1
  9
$DIMPOST
  1
in
  9
$DIMAPOST
  1
mm
  9
$DIMALT
 70
     0
  9
$DIMALTD
 70
     2
  9
$DIMALTF
 40
25.4
  9
$DIMLFAC
 40
1.0
  9
$DIMTOFL
 70
     0
  9
$DIMTVP
 40
0.0
  9
$DIMTIX
 70
     0
  9
$DIMSOXD
 70
     0
  9
$DIMSAH
 70
     0
  9
$DIMBLK1
  1

  9
$DIMBLK2
  1

  9
$DIMSTYLE
  2
Standard
  9
$DIMCLRD
 70
   256
  9
$DIMCLRE
 70
   256
  9
$DIMCLRT
 70
   256
  9
$DIMTFAC
 40
1.0
  9
$DIMGAP
 40
0.06
  9
$DIMJUST
 70
     0
  9
$DIMSD1
 70
     0
  9
$DIMSD2
 70
     0
  9
$DIMTOLJ
 70
     1
  9
$DIMTZIN
 70
    12
  9
$DIMALTZ
 70
    12
  9
$DIMALTTZ
 70
    12
  9
$DIMUPT
 70
     0
  9
$DIMDEC
 70
     3
  9
$DIMTDEC
 70
     3
  9
$DIMALTU
 70
     2
  9
$DIMALTTD
 70
     2
  9
$DIMTXSTY
  7
Standard
  9
$DIMAUNIT
 70
     0
  9
$DIMADEC
 70
     2
  9
$DIMALTRND
 40
0.0
  9
$DIMAZIN
 70
     3
  9
$DIMDSEP
 70
    46
  9
$DIMATFIT
 70
     3
  9
$DIMFRAC
 70
     0
  9
$DIMLDRBLK
  1

  9
$DIMLUNIT
 70
     5
  9
$DIMLWD
 70
    -2
  9
$DIMLWE
 70
    -2
  9
$DIMTMOVE
 70
     0
  9
$DIMFXL
 40
1.0
  9
$DIMFXLON
 70
     0
  9
$DIMJOGANG
 40
0.785398
  9
$DIMTFILL
 70
     0
  9
$DIMTFILLCLR
 70
     0
  9
$DIMARCSYM
 70
     1
  9
$DIMLTYPE
  6

  9
$DIMLTEX1
  6

  9
$DIMLTEX2
  6

  9
$DIMTXTDIRECTION
 70
     0
  9
$LUNITS
 70
     2
  9
$LUPREC
 70
     4
  9
$SKETCHINC
 40
0.1
  9
$FILLETRAD
 40
0.0
  9
$AUNITS
 70
     0
  9
$AUPREC
 70
     0
  9
$MENU
  1
.
  9
$ELEVATION
 40
0.0
  9
$PELEVATION
 40
0.0
  9
$THICKNESS
 40
0.0
  9
$LIMCHECK
 70
     0
  9
$CHAMFERA
 40
0.0
  9
$CHAMFERB
 40
0.0
  9
$CHAMFERC
 40
0.0
  9
$CHAMFERD
 40
0.0
  9
$SKPOLY
 70
     0
  9
$TDCREATE
 40
2459326.433495371
  9
$TDUCREATE
 40
2459326.725162037
  9
$TDUPDATE
 40
2459326.433495371
  9
$TDUUPDATE
 40
2459326.725162037
  9
$TDINDWG
 40
0.0000000000
  9
$TDUSRTIMER
 40
0.0000000000
  9
$USRTIMER
 70
     1
  9
$ANGBASE
 50
0.0
  9
$ANGDIR
 70
     0
  9
$PDMODE
 70
     0
  9
$PDSIZE
 40
0.0
  9
$PLINEWID
 40
0.0
  9
$SPLFRAME
 70
     0
  9
$SPLINETYPE
 70
     6
  9
$SPLINESEGS
 70
     8
  9
$HANDSEED
  5
92D
  9
$SURFTAB1
 70
     6
  9
$SURFTAB2
 70
     6
  9
$SURFTYPE
 70
     6
  9
$SURFU
 70
     6
  9
$SURFV
 70
     6
  9
$UCSBASE
  2

  9
$UCSNAME
  2

  9
$UCSORG
 10
0.0
 20
0.0
 30
0.0
  9
$UCSXDIR
 10
1.0
 20
0.0
 30
0.0
  9
$UCSYDIR
 10
0.0
 20
1.0
 30
0.0
  9
$UCSORTHOREF
  2

  9
$UCSORTHOVIEW
 70
     0
  9
$UCSORGTOP
 10
0.0
 20
0.0
 30
0.0
  9
$UCSORGBOTTOM
 10
0.0
 20
0.0
 30
0.0
  9
$UCSORGLEFT
 10
0.0
 20
0.0
 30
0.0
  9
$UCSORGRIGHT
 10
0.0
 20
0.0
 30
0.0
  9
$UCSORGFRONT
 10
0.0
 20
0.0
 30
0.0
  9
$UCSORGBACK
 10
0.0
 20
0.0
 30
0.0
  9
$PUCSBASE
  2

  9
$PUCSNAME
  2

  9
$PUCSORG
 10
0.0
 20
0.0
 30
0.0
  9
$PUCSXDIR
 10
1.0
 20
0.0
 30
0.0
  9
$PUCSYDIR
 10
0.0
 20
1.0
 30
0.0
  9
$PUCSORTHOREF
  2

  9
$PUCSORTHOVIEW
 70
     0
  9
$PUCSORGTOP
 10
0.0
 20
0.0
 30
0.0
  9
$PUCSORGBOTTOM
 10
0.0
 20
0.0
 30
0.0
  9
$PUCSORGLEFT
 10
0.0
 20
0.0
 30
0.0
  9
$PUCSORGRIGHT
 10
0.0
 20
0.0
 30
0.0
  9
$PUCSORGFRONT
 10
0.0
 20
0.0
 30
0.0
  9
$PUCSORGBACK
 10
0.0
 20
0.0
 30
0.0
  9
$USERI1
 70
     0
  9
$USERI2
 70
     0
  9
$USERI3
 70
     0
  9
$USERI4
 70
     0
  9
$USERI5
 70
     0
  9
$USERR1
 40
0.0
  9
$USERR2
 40
0.0
  9
$USERR3
 40
0.0
  9
$USERR4
 40
0.0
  9
$USERR5
 40
0.0
  9
$WORLDVIEW
 70
     1
  9
$SHADEDGE
 70
     3
  9
$SHADEDIF
 70
    70
  9
$TILEMODE
 70
     1
  9
$MAXACTVP
 70
    64
  9
$PINSBASE
 10
0.0
 20
0.0
 30
0.0
  9
$PLIMCHECK
 70
     0
  9
$PEXTMIN
 10
1.000000E+20
 20
1.000000E+20
 30
1.000000E+20
  9
$PEXTMAX
 10
-1.000000E+20
 20
-1.000000E+20
 30
-1.000000E+20
  9
$PLIMMIN
 10
0.0
 20
0.0
  9
$PLIMMAX
 10
12.0
 20
9.0
  9
$UNITMODE
 70
     0
  9
$VISRETAIN
 70
     1
  9
$PLINEGEN
 70
     0
  9
$PSLTSCALE
 70
     1
  9
$TREEDEPTH
 70
  3020
  9
$CMLSTYLE
  2
Standard
  9
$CMLJUST
 70
     0
  9
$CMLSCALE
 40
1.0
  9
$PROXYGRAPHICS
 70
     1
  9
$MEASUREMENT
 70
     0
  9
$CELWEIGHT
370
    -1
  9
$ENDCAPS
280
     0
  9
$JOINSTYLE
280
     0
  9
$LWDISPLAY
290
     0
  9
$INSUNITS
 70
     1
  9
$HYPERLINKBASE
  1

  9
$STYLESHEET
  1

  9
$XEDIT
290
     1
  9
$CEPSNTYPE
380
     0
  9
$PSTYLEMODE
290
     1
  9
$FINGERPRINTGUID
  2
{2EA0AB9C-C370-EE47-89AD-2EEC93276A86}
  9
$VERSIONGUID
  2
{D99D4A26-98EB-2442-AA89-4E9828BCB323}
  9
$EXTNAMES
290
     1
  9
$PSVPSCALE
 40
0.0
  9
$OLESTARTUP
290
     0
  9
$SORTENTS
280
   127
  9
$INDEXCTL
280
     0
  9
$HIDETEXT
280
     1
  9
$XCLIPFRAME
280
     0
  9
$HALOGAP
280
     0
  9
$OBSCOLOR
 70
   257
  9
$OBSLTYPE
280
     0
  9
$INTERSECTIONDISPLAY
280
     0
  9
$INTERSECTIONCOLOR
 70
   257
  9
$DIMASSOC
280
     2
  9
$PROJECTNAME
  1

  9
$CAMERADISPLAY
290
     0
  9
$LENSLENGTH
 40
50.0
  9
$CAMERAHEIGHT
 40
0.0
  9
$STEPSPERSEC
 40
2.0
  9
$STEPSIZE
 40
6.0
  9
$3DDWFPREC
 40
2.0
  9
$PSOLWIDTH
 40
0.25
  9
$PSOLHEIGHT
 40
4.0
  9
$LOFTANG1
 40
1.570796
  9
$LOFTANG2
 40
1.570796
  9
$LOFTMAG1
 40
0.0
  9
$LOFTMAG2
 40
0.0
  9
$LOFTPARAM
 70
     7
  9
$LOFTNORMALS
280
     1
  9
$LATITUDE
 40
37.795
  9
$LONGITUDE
 40
-122.394
  9
$NORTHDIRECTION
 40
0.0
  9
$TIMEZONE
 70
 -8000
  9
$LIGHTGLYPHDISPLAY
280
     1
  9
$TILEMODELIGHTSYNCH
280
     1
  9
$CMATERIAL
347
11
  9
$SOLIDHIST
280
     0
  9
$SHOWHIST
280
     1
  9
$DWFFRAME
280
     2
  9
$DGNFRAME
280
     0
  9
$REALWORLDSCALE
290
     1
  9
$INTERFERECOLOR
 62
     1
  9
$INTERFEREOBJVS
345
33
  9
$INTERFEREVPVS
346
30
  9
$CSHADOW
280
     0
  9
$SHADOWPLANELOCATION
 40
0.0
  0
ENDSEC
  0
SECTION
  2
CLASSES
  0
CLASS
  1
ACDBDICTIONARYWDFLT
  2
AcDbDictionaryWithDefault
  3
ObjectDBX Classes
 90
        0
 91
        1
280
     0
281
     0
  0
CLASS
  1
MATERIAL
  2
AcDbMaterial
  3
ObjectDBX Classes
 90
     1153
 91
        3
280
     0
281
     0
  0
CLASS
  1
VISUALSTYLE
  2
AcDbVisualStyle
  3
ObjectDBX Classes
 90
     4095
 91
       24
280
     0
281
     0
  0
CLASS
  1
SCALE
  2
AcDbScale
  3
ObjectDBX Classes
 90
     1153
 91
       33
280
     0
281
     0
  0
CLASS
  1
TABLESTYLE
  2
AcDbTableStyle
  3
ObjectDBX Classes
 90
     4095
 91
        1
280
     0
281
     0
  0
CLASS
  1
MLEADERSTYLE
  2
AcDbMLeaderStyle
  3
ACDB_MLEADERSTYLE_CLASS
 90
     4095
 91
        1
280
     0
281
     0
  0
CLASS
  1
ACDBSECTIONVIEWSTYLE
  2
AcDbSectionViewStyle
  3
ObjectDBX Classes
 90
     1025
 91
        1
280
     0
281
     0
  0
CLASS
  1
ACDBDETAILVIEWSTYLE
  2
AcDbDetailViewStyle
  3
ObjectDBX Classes
 90
     1025
 91
        1
280
     0
281
     0
  0
CLASS
  1
ACMESCOPE
  2
AcMeScope
  3
AcMeServices
 90
     1024
 91
        1
280
     0
281
     0
  0
CLASS
  1
ACMECOMMANDHISTORY
  2
AcMeCommandHistory
  3
AcMeServices
 90
     1024
 91
        1
280
     0
281
     0
  0
CLASS
  1
ACIMSYSVARMAN
  2
AcImSysVarManager
  3
AcMeServices
 90
     1024
 91
        1
280
     0
281
     0
  0
CLASS
  1
ACIMINTSYSVAR
  2
AcImIntSysVar
  3
AcMeServices
 90
     1024
 91
        1
280
     0
281
     0
  0
CLASS
  1
ACMESTATEMGR
  2
AcMeStateMgr
  3
AcMeServices
 90
     1024
 91
        1
280
     0
281
     0
  0
CLASS
  1
ACGREFMASTER
  2
AcGrefMaster
  3
AcAttribServices
 90
     1024
 91
        1
280
     0
281
     0
  0
CLASS
  1
SORTENTSTABLE
  2
AcDbSortentsTable
  3
ObjectDBX Classes
 90
        0
 91
        6
280
     0
281
     0
  0
CLASS
  1
IMAGE
  2
AcDbRasterImage
  3
ISM
 90
     2175
 91
        2
280
     0
281
     1
  0
CLASS
  1
IMAGEDEF
  2
AcDbRasterImageDef
  3
ISM
 90
        0
 91
        2
280
     0
281
     0
  0
CLASS
  1
IMAGEDEF_REACTOR
  2
AcDbRasterImageDefReactor
  3
ISM
 90
        1
 91
        3
280
     0
281
     0
  0
CLASS
  1
RASTERVARIABLES
  2
AcDbRasterVariables
  3
ISM
 90
        0
 91
        1
280
     0
281
     0
  0
CLASS
  1
FIELD
  2
AcDbField
  3
ObjectDBX Classes
 90
     1152
 91
        4
280
     0
281
     0
  0
CLASS
  1
FIELDLIST
  2
AcDbFieldList
  3
ObjectDBX Classes
 90
     1152
 91
        1
280
     0
281
     0
  0
CLASS
  1
DICTIONARYVAR
  2
AcDbDictionaryVar
  3
ObjectDBX Classes
 90
        0
 91
        6
280
     0
281
     0
  0
CLASS
  1
CELLSTYLEMAP
  2
AcDbCellStyleMap
  3
ObjectDBX Classes
 90
     1152
 91
        1
280
     0
281
     0
  0
ENDSEC
  0
SECTION
  2
TABLES
  0
TABLE
  2
VPORT
  5
8
330
0
100
AcDbSymbolTable
 70
     1
1001
ACAD
1000
DbSaveVer
1071
      223
  0
VPORT
  5
57
330
8
100
AcDbSymbolTableRecord
100
AcDbViewportTableRecord
  2
*Active
 70
     0
 10
0.0
 20
0.0
 11
1.0
 21
1.0
 12
8.5
 22
5.5
 13
0.0
 23
0.0
 14
0.5
 24
0.5
 15
0.0
 25
0.0
 16
0.0
 26
0.0
 36
1.0
 17
0.0
 27
0.0
 37
0.0
 40
11.0
 41
1.779601
 42
50.0
 43
0.0
 44
0.0
 50
0.0
 51
0.0
 71
     0
 72
 20000
 73
     1
 74
     0
 75
     0
 76
     0
 77
     0
 78
     0
281
     0
 65
     1
110
0.0
120
0.0
130
0.0
111
1.0
121
0.0
131
0.0
112
0.0
122
1.0
132
0.0
 79
     0
146
0.0
348
2F
 60
     3
 61
     5
292
     1
282
     1
141
0.0
142
0.0
 63
   250
421
  3355443
  0
ENDTAB
  0
TABLE
  2
LTYPE
  5
5
330
0
100
AcDbSymbolTable
 70
    10
  0
LTYPE
  5
5B
330
5
100
AcDbSymbolTableRecord
100
AcDbLinetypeTableRecord
  2
ByBlock
 70
     0
  3

 72
    65
 73
     0
 40
0.0
  0
LTYPE
  5
5C
330
5
100
AcDbSymbolTableRecord
100
AcDbLinetypeTableRecord
  2
ByLayer
 70
     0
  3

 72
    65
 73
     0
 40
0.0
  0
LTYPE
  5
5D
330
5
100
AcDbSymbolTableRecord
100
AcDbLinetypeTableRecord
  2
Continuous
 70
     0
  3
Solid line
 72
    65
 73
     0
 40
0.0
  0
LTYPE
  5
81
330
5
100
AcDbSymbolTableRecord
100
AcDbLinetypeTableRecord
  2
HIDDEN
 70
     0
  3
Hidden __ __ __ __ __ __ __ __ __ __ __ __ __ _
 72
    65
 73
     2
 40
0.375
 49
0.25
 74
     0
 49
-0.125
 74
     0
  0
LTYPE
  5
82
330
5
100
AcDbSymbolTableRecord
100
AcDbLinetypeTableRecord
  2
PHANTOM2
 70
     0
  3
Phantom (.5x) ___ _ _ ___ _ _ ___ _ _ ___ _ _
 72
    65
 73
     6
 40
1.25
 49
0.625
 74
     0
 49
-0.125
 74
     0
 49
0.125
 74
     0
 49
-0.125
 74
     0
 49
0.125
 74
     0
 49
-0.125
 74
     0
  0
LTYPE
  5
83
330
5
100
AcDbSymbolTableRecord
100
AcDbLinetypeTableRecord
  2
CENTER
 70
     0
  3
Center ____ _ ____ _ ____ _ ____ _ ____ _ ____
 72
    65
 73
     4
 40
2.0
 49
1.25
 74
     0
 49
-0.25
 74
     0
 49
0.25
 74
     0
 49
-0.25
 74
     0
  0
LTYPE
  5
9E
330
5
100
AcDbSymbolTableRecord
100
AcDbLinetypeTableRecord
  2
CENTER2
 70
     0
  3
Center (.5x) ___ _ ___ _ ___ _ ___ _ ___ _ ___
 72
    65
 73
     4
 40
1.125
 49
0.75
 74
     0
 49
-0.125
 74
     0
 49
0.125
 74
     0
 49
-0.125
 74
     0
  0
LTYPE
  5
9F
330
5
100
AcDbSymbolTableRecord
100
AcDbLinetypeTableRecord
  2
HIDDEN2
 70
     0
  3
Hidden (.5x) _ _ _ _ _ _ _ _ _ _ _ _ _ _ _ _ _
 72
    65
 73
     2
 40
0.1875
 49
0.125
 74
     0
 49
-0.0625
 74
     0
  0
LTYPE
  5
A0
330
5
100
AcDbSymbolTableRecord
100
AcDbLinetypeTableRecord
  2
Amconstr
 70
     0
  3
_______________________
 72
    65
 73
     2
 40
9999.0
 49
9999.0
 74
     0
 49
0.0
 74
     0
  0
LTYPE
  5
A1
330
5
100
AcDbSymbolTableRecord
100
AcDbLinetypeTableRecord
  2
Amzigzag2
 70
     0
  3
/\/-/\/-/\/-/\/-/\/-/\/
 72
    65
 73
     2
 40
0.4401
 49
0.0001
 74
     4
 75
   136
340
9B
 46
0.0016
 50
0.0
 44
0.0
 45
0.0
 49
-0.44
 74
     0
  0
LTYPE
  5
A2
330
5
100
AcDbSymbolTableRecord
100
AcDbLinetypeTableRecord
  2
ACANSTGB
 70
     0
  3
__ . . __ . .
 72
    65
 73
     6
 40
0.354331
 49
0.15748
 74
     0
 49
-0.03937
 74
     0
 49
0.03937
 74
     0
 49
-0.03937
 74
     0
 49
0.03937
 74
     0
 49
-0.03937
 74
     0
  0
LTYPE
  5
A3
330
5
100
AcDbSymbolTableRecord
100
AcDbLinetypeTableRecord
  2
ACANSTGL
 70
     0
  3
_ _ _ _ _
 72
    65
 73
     2
 40
0.11811
 49
0.07874
 74
     0
 49
-0.03937
 74
     0
  0
ENDTAB
  0
TABLE
  2
LAYER
  5
2
330
0
100
AcDbSymbolTable
 70
    12
  0
LAYER
  5
54
330
2
100
AcDbSymbolTableRecord
100
AcDbLayerTableRecord
  2
0
 70
     0
 62
     7
  6
Continuous
370
    -3
390
F
347
21
348
0
1001
AcAecLayerStandard
1000

1000

  0
LAYER
  5
79
330
2
100
AcDbSymbolTableRecord
100
AcDbLayerTableRecord
  2
Defpoints
 70
     0
 62
     7
  6
Continuous
290
     0
370
    -3
390
F
347
21
348
0
1001
AcAecLayerStandard
1000

1000

  0
LAYER
  5
BD
330
2
100
AcDbSymbolTableRecord
100
AcDbLayerTableRecord
  2
Visible
 70
     0
 62
     7
  6
Continuous
370
    25
390
F
347
21
348
0
  0
LAYER
  5
13F
330
2
100
AcDbSymbolTableRecord
100
AcDbLayerTableRecord
  2
Hidden
 70
     0
 62
     7
  6
HIDDEN2
370
    13
390
F
347
21
348
0
  0
LAYER
  5
2EE
330
2
100
AcDbSymbolTableRecord
100
AcDbLayerTableRecord
  2
Titleblock
 70
     0
 62
     7
  6
Continuous
370
    -3
390
F
347
21
348
0
1001
AcAecLayerStandard
1000

1000

1001
AcCmTransparency
1071
        0
  0
LAYER
  5
313
330
2
100
AcDbSymbolTableRecord
100
AcDbLayerTableRecord
  2
Border
 70
     0
 62
     7
  6
Continuous
370
    -3
390
F
347
21
348
0
1001
AcAecLayerStandard
1000

1000

1001
AcCmTransparency
1071
        0
  0
LAYER
  5
334
330
2
100
AcDbSymbolTableRecord
100
AcDbLayerTableRecord
  2
Dimensions
 70
     0
 62
     7
  6
Continuous
370
    13
390
F
347
21
348
0
  0
LAYER
  5
3B9
330
2
100
AcDbSymbolTableRecord
100
AcDbLayerTableRecord
  2
Annotations
 70
     0
 62
     7
  6
Continuous
370
    13
390
F
347
21
348
0
  0
ENDTAB
  0
TABLE
  2
STYLE
  5
3
330
0
100
AcDbSymbolTable
 70
     4
  0
STYLE
  5
55
330
3
100
AcDbSymbolTableRecord
100
AcDbTextStyleTableRecord
  2
Standard
 70
     0
 40
0.0
 41
1.0
 50
0.0
 71
     0
 42
0.12
  3
arial.ttf
  4

1001
ACAD
1000
Arial
1071
       34
  0
STYLE
  5
5A
330
3
100
AcDbSymbolTableRecord
100
AcDbTextStyleTableRecord
  2
Annotative
 70
     0
 40
0.0
 41
1.0
 50
0.0
 71
     0
 42
0.2
  3
txt
  4

1001
AcadAnnotative
1000
AnnotativeData
1002
{
1070
     1
1070
     1
1002
}
  0
STYLE
  5
9B
330
3
100
AcDbSymbolTableRecord
100
AcDbTextStyleTableRecord
  2

 70
     1
 40
0.0
 41
1.0
 50
0.0
 71
     0
 42
0.12
  3
genltshp.shx
  4

  0
STYLE
  5
9C
330
3
100
AcDbSymbolTableRecord
100
AcDbTextStyleTableRecord
  2
ACANSGDT
 70
     0
 40
0.0
 41
1.0
 50
0.0
 71
     0
 42
0.12
  3
amgdt.shx
  4

  0
ENDTAB
  0
TABLE
  2
VIEW
  5
6
330
0
100
AcDbSymbolTable
 70
     0
  0
ENDTAB
  0
TABLE
  2
UCS
  5
7
330
0
100
AcDbSymbolTable
 70
     0
  0
ENDTAB
  0
TABLE
  2
APPID
  5
9
330
0
100
AcDbSymbolTable
 70
    28
  0
APPID
  5
56
330
9
100
AcDbSymbolTableRecord
100
AcDbRegAppTableRecord
  2
ACAD
 70
     0
  0
APPID
  5
5E
330
9
100
AcDbSymbolTableRecord
100
AcDbRegAppTableRecord
  2
AcadAnnotative
 70
     0
  0
APPID
  5
78
330
9
100
AcDbSymbolTableRecord
100
AcDbRegAppTableRecord
  2
ACAD_PSEXT
 70
     0
  0
APPID
  5
7A
330
9
100
AcDbSymbolTableRecord
100
AcDbRegAppTableRecord
  2
MCAD_NO_VIS
 70
     0
  0
APPID
  5
7B
330
9
100
AcDbSymbolTableRecord
100
AcDbRegAppTableRecord
  2
ACAD_TEMP_GRAPHIC
 70
     0
  0
APPID
  5
84
330
9
100
AcDbSymbolTableRecord
100
AcDbRegAppTableRecord
  2
ACAD_DSTYLE_DIMJAG
 70
     0
  0
APPID
  5
85
330
9
100
AcDbSymbolTableRecord
100
AcDbRegAppTableRecord
  2
ACAD_DSTYLE_DIMTALN
 70
     0
  0
APPID
  5
86
330
9
100
AcDbSymbolTableRecord
100
AcDbRegAppTableRecord
  2
ACAD_NAV_VCDISPLAY
 70
     0
  0
APPID
  5
87
330
9
100
AcDbSymbolTableRecord
100
AcDbRegAppTableRecord
  2
AcAecLayerStandard
 70
     0
  0
APPID
  5
88
330
9
100
AcDbSymbolTableRecord
100
AcDbRegAppTableRecord
  2
AcCmTransparency
 70
     0
  0
APPID
  5
89
330
9
100
AcDbSymbolTableRecord
100
AcDbRegAppTableRecord
  2
ACAD_DSTYLE_DIMBREAK
 70
     0
  0
APPID
  5
8A
330
9
100
AcDbSymbolTableRecord
100
AcDbRegAppTableRecord
  2
ACAD_DSTYLE_DIMRADIAL_EXTENSION
 70
     0
  0
APPID
  5
8B
330
9
100
AcDbSymbolTableRecord
100
AcDbRegAppTableRecord
  2
FUSIONTITLEBLOCK
 70
     0
  0
APPID
  5
8C
330
9
100
AcDbSymbolTableRecord
100
AcDbRegAppTableRecord
  2
FUSIONCURRENTTITLEBLOCK
 70
     0
  0
APPID
  5
8D
330
9
100
AcDbSymbolTableRecord
100
AcDbRegAppTableRecord
  2
AcSynergy
 70
     0
  0
APPID
  5
8E
330
9
100
AcDbSymbolTableRecord
100
AcDbRegAppTableRecord
  2
ACAD_VIEW_EDGE_ID
 70
     0
  0
APPID
  5
8F
330
9
100
AcDbSymbolTableRecord
100
AcDbRegAppTableRecord
  2
GENIUS_GENSCREG_15
 70
     0
  0
APPID
  5
90
330
9
100
AcDbSymbolTableRecord
100
AcDbRegAppTableRecord
  2
GENIUS_GENOBJ-N-SDF_13
 70
     0
  0
APPID
  5
91
330
9
100
AcDbSymbolTableRecord
100
AcDbRegAppTableRecord
  2
GENIUS_GENODEF_13
 70
     0
  0
APPID
  5
92
330
9
100
AcDbSymbolTableRecord
100
AcDbRegAppTableRecord
  2
ACAD_DIMASSOC_CALC_DIMLFAC
 70
     0
  0
APPID
  5
93
330
9
100
AcDbSymbolTableRecord
100
AcDbRegAppTableRecord
  2
ACAD_DIMASSOC_DIMLFAC
 70
     0
  0
APPID
  5
94
330
9
100
AcDbSymbolTableRecord
100
AcDbRegAppTableRecord
  2
ACAD_DIMASSOC_OVERRIDDEN_DIMLFAC
 70
     0
  0
APPID
  5
95
330
9
100
AcDbSymbolTableRecord
100
AcDbRegAppTableRecord
  2
FD_ATT_APPNAME
 70
     0
  0
APPID
  5
96
330
9
100
AcDbSymbolTableRecord
100
AcDbRegAppTableRecord
  2
SYNERGY_BODY_TBR_ID
 70
     0
  0
APPID
  5
97
330
9
100
AcDbSymbolTableRecord
100
AcDbRegAppTableRecord
  2
FusionCutBodyId
 70
     0
  0
APPID
  5
98
330
9
100
AcDbSymbolTableRecord
100
AcDbRegAppTableRecord
  2
ACAD_DSTYLE_DIMJAG_POSITION
 70
     0
  0
APPID
  5
99
330
9
100
AcDbSymbolTableRecord
100
AcDbRegAppTableRecord
  2
FUSIONTITLEBLOCKATTRIBUTEOVERRIDE
 70
     0
  0
APPID
  5
9A
330
9
100
AcDbSymbolTableRecord
100
AcDbRegAppTableRecord
  2
ACATTRIBSERVICES
 70
     0
  0
ENDTAB
  0
TABLE
  2
DIMSTYLE
  5
A
330
0
100
AcDbSymbolTable
 70
     2
100
AcDbDimStyleTable
 71
     1
340
58
  0
DIMSTYLE
105
58
102
{ACAD_REACTORS
330
342
330
350
330
35E
330
36C
330
37A
330
388
330
396
330
3A4
330
333
330
3BA
330
3C4
330
3D0
330
3DE
330
3EC
102
}
330
A
100
AcDbSymbolTableRecord
100
AcDbDimStyleTableRecord
  2
Standard
 70
     0
  3
in
  4
mm
 41
0.12
 42
0.05
 43
0.339411
 44
0.1
 47
0.01
 48
0.01
 78
    12
 79
     3
 90
        1
140
0.12
141
0.0
147
0.06
176
   256
177
   256
178
   256
179
     2
271
     3
272
     3
277
     5
284
    12
285
    12
286
    12
340
55
  0
DIMSTYLE
105
59
330
A
100
AcDbSymbolTableRecord
100
AcDbDimStyleTableRecord
  2
Annotative
 70
     0
  3
in
  4
mm
 40
0.0
 43
0.339411
 78
    12
 79
     3
140
0.12
179
     2
271
     3
272
     3
277
     5
284
    12
285
    12
286
    12
340
55
1001
AcadAnnotative
1000
AnnotativeData
1002
{
1070
     1
1070
     1
1002
}
  0
ENDTAB
  0
TABLE
  2
BLOCK_RECORD
  5
1
330
0
100
AcDbSymbolTable
 70
    35
  0
BLOCK_RECORD
  5
70
102
{ACAD_XDICTIONARY
360
B6
102
}
330
1
100
AcDbSymbolTableRecord
100
AcDbBlockTableRecord
  2
*Model_Space
340
73
 70
     0
280
     1
281
     0
  0
BLOCK_RECORD
  5
6C
330
1
100
AcDbSymbolTableRecord
100
AcDbBlockTableRecord
  2
*Paper_Space
340
6F
 70
     0
280
     1
281
     0
  0
BLOCK_RECORD
  5
74
330
1
100
AcDbSymbolTableRecord
100
AcDbBlockTableRecord
  2
*Paper_Space0
340
77
 70
     0
280
     1
281
     0
  0
BLOCK_RECORD
  5
2EF
102
{ACAD_XDICTIONARY
360
2F0
102
}
330
1
100
AcDbSymbolTableRecord
100
AcDbBlockTableRecord
  2
Shower
340
0
102
{BLKREFS
331
2ED
102
}
 70
     1
280
     1
281
     0
1001
FUSIONTITLEBLOCK
1000
TitleBlock
  0
BLOCK_RECORD
  5
314
330
1
100
AcDbSymbolTableRecord
100
AcDbBlockTableRecord
  2
ANSI_B_SHEET
340
0
310
2800000020000000200000000100080000000000000400000000000000000000000000000000000000000000000080000080000000808000800000008000800080800000C0C0C000C0DCC000F0CAA6000020400000206000002080000020A0000020C0000020E00000400000004020000040400000406000004080000040A0
310
000040C0000040E00000600000006020000060400000606000006080000060A0000060C0000060E00000800000008020000080400000806000008080000080A0000080C0000080E00000A0000000A0200000A0400000A0600000A0800000A0A00000A0C00000A0E00000C0000000C0200000C0400000C0600000C0800000C0
310
A00000C0C00000C0E00000E0000000E0200000E0400000E0600000E0800000E0A00000E0C00000E0E00040000000400020004000400040006000400080004000A0004000C0004000E00040200000402020004020400040206000402080004020A0004020C0004020E000404000004040200040404000404060004040800040
310
40A0004040C0004040E00040600000406020004060400040606000406080004060A0004060C0004060E00040800000408020004080400040806000408080004080A0004080C0004080E00040A0000040A0200040A0400040A0600040A0800040A0A00040A0C00040A0E00040C0000040C0200040C0400040C0600040C08000
310
40C0A00040C0C00040C0E00040E0000040E0200040E0400040E0600040E0800040E0A00040E0C00040E0E00080000000800020008000400080006000800080008000A0008000C0008000E00080200000802020008020400080206000802080008020A0008020C0008020E00080400000804020008040400080406000804080
310
008040A0008040C0008040E00080600000806020008060400080606000806080008060A0008060C0008060E00080800000808020008080400080806000808080008080A0008080C0008080E00080A0000080A0200080A0400080A0600080A0800080A0A00080A0C00080A0E00080C0000080C0200080C0400080C0600080C0
310
800080C0A00080C0C00080C0E00080E0000080E0200080E0400080E0600080E0800080E0A00080E0C00080E0E000C0000000C0002000C0004000C0006000C0008000C000A000C000C000C000E000C0200000C0202000C0204000C0206000C0208000C020A000C020C000C020E000C0400000C0402000C0404000C0406000C0
310
408000C040A000C040C000C040E000C0600000C0602000C0604000C0606000C0608000C060A000C060C000C060E000C0800000C0802000C0804000C0806000C0808000C080A000C080C000C080E000C0A00000C0A02000C0A04000C0A06000C0A08000C0A0A000C0A0C000C0A0E000C0C00000C0C02000C0C04000C0C06000
310
C0C08000C0C0A000F0FBFF00A4A0A000808080000000FF0000FF000000FFFF00FF000000FF00FF00FFFF0000FFFFFF0049494949494949494949494949494949494949494949494949494949494949494949494949494949494949494949494949494949494949494949494949494949494949494949494949494949494949
310
494949494949494949494949494949494949494949494949494949494949494949494949494949494949494949494949494949494949494949494949494949494949494949494949494949494949494949494949494949494949494949494949494949494949494949494949494949494949FFFF4949494949494949494949
310
494949494949494949494949494949FFFF4949FFFFFFFFFFFFFFFFFFFFFFFFFFFFFFFFFFFFFFFFFFFFFFFFFFFFFFFFFFFF494949FF4949494949494949494949494949494949494949494949494949FF49494949FF4949494949494949494949494949494949494949494949494949FF49494949FF49494949494949494949
310
49494949494949494949494949494949FF49494949FF4949494949494949494949494949494949494949494949494949FF49494949FF4949494949494949494949494949494949494949494949494949FF49494949FF4949494949494949494949494949494949494949494949494949FF49494949FF494949494949494949
310
4949494949494949494949494949494949FF49494949FF4949494949494949494949494949494949494949494949494949FF49494949FF4949494949494949494949494949494949494949494949494949FF49494949FF4949494949494949494949494949494949494949494949494949FF49494949FF4949494949494949
310
494949494949494949494949494949494949FF49494949FF4949494949494949494949494949494949494949494949494949FF49494949FF4949494949494949494949494949494949494949494949494949FF49494949FF4949494949494949494949494949494949494949494949494949FF49494949FF49494949494949
310
49494949494949494949494949494949494949FF49494949FF4949494949494949494949494949494949494949494949494949FF494949FFFFFFFFFFFFFFFFFFFFFFFFFFFFFFFFFFFFFFFFFFFFFFFFFFFFFFFFFFFF4949FFFF4949494949494949494949494949494949494949494949494949FFFF49494949494949494949
310
49494949494949494949494949494949494949494949494949494949494949494949494949494949494949494949494949494949494949494949494949494949494949494949494949494949494949494949494949494949494949494949494949494949494949494949494949494949494949494949494949494949494949
310
4949494949494949494949494949494949494949494949494949494949494949494949494949494949494949494949494949494949494949
102
{BLKREFS
331
312
102
}
 70
     1
280
     1
281
     0
  0
BLOCK_RECORD
  5
335
330
1
100
AcDbSymbolTableRecord
100
AcDbBlockTableRecord
  2
*D6
340
0
 70
     0
280
     1
281
     0
  0
BLOCK_RECORD
  5
343
330
1
100
AcDbSymbolTableRecord
100
AcDbBlockTableRecord
  2
*D7
340
0
 70
     0
280
     1
281
     0
  0
BLOCK_RECORD
  5
351
330
1
100
AcDbSymbolTableRecord
100
AcDbBlockTableRecord
  2
*D8
340
0
 70
     0
280
     1
281
     0
  0
BLOCK_RECORD
  5
35F
330
1
100
AcDbSymbolTableRecord
100
AcDbBlockTableRecord
  2
*D9
340
0
 70
     0
280
     1
281
     0
  0
BLOCK_RECORD
  5
36D
330
1
100
AcDbSymbolTableRecord
100
AcDbBlockTableRecord
  2
*D10
340
0
 70
     0
280
     1
281
     0
  0
BLOCK_RECORD
  5
37B
330
1
100
AcDbSymbolTableRecord
100
AcDbBlockTableRecord
  2
*D11
340
0
 70
     0
280
     1
281
     0
  0
BLOCK_RECORD
  5
389
330
1
100
AcDbSymbolTableRecord
100
AcDbBlockTableRecord
  2
*D12
340
0
 70
     0
280
     1
281
     0
  0
BLOCK_RECORD
  5
397
330
1
100
AcDbSymbolTableRecord
100
AcDbBlockTableRecord
  2
*D13
340
0
 70
     0
280
     1
281
     0
  0
BLOCK_RECORD
  5
3A5
330
1
100
AcDbSymbolTableRecord
100
AcDbBlockTableRecord
  2
*D14
340
0
 70
     0
280
     1
281
     0
  0
BLOCK_RECORD
  5
3BB
330
1
100
AcDbSymbolTableRecord
100
AcDbBlockTableRecord
  2
*D15
340
0
 70
     0
280
     1
281
     0
  0
BLOCK_RECORD
  5
3C5
330
1
100
AcDbSymbolTableRecord
100
AcDbBlockTableRecord
  2
*D16
340
0
 70
     0
280
     1
281
     0
  0
BLOCK_RECORD
  5
3D1
330
1
100
AcDbSymbolTableRecord
100
AcDbBlockTableRecord
  2
*D17
340
0
 70
     0
280
     1
281
     0
  0
BLOCK_RECORD
  5
3DF
330
1
100
AcDbSymbolTableRecord
100
AcDbBlockTableRecord
  2
*D18
340
0
 70
     0
280
     1
281
     0
  0
BLOCK_RECORD
  5
3ED
330
1
100
AcDbSymbolTableRecord
100
AcDbBlockTableRecord
  2
*D19
340
0
 70
     0
280
     1
281
     0
  0
BLOCK_RECORD
  5
407
330
1
100
AcDbSymbolTableRecord
100
AcDbBlockTableRecord
  2
*D21
340
0
 70
     0
280
     1
281
     0
  0
BLOCK_RECORD
  5
414
330
1
100
AcDbSymbolTableRecord
100
AcDbBlockTableRecord
  2
*D22
340
0
 70
     0
280
     1
281
     0
  0
BLOCK_RECORD
  5
421
330
1
100
AcDbSymbolTableRecord
100
AcDbBlockTableRecord
  2
*D23
340
0
 70
     0
280
     1
281
     0
  0
BLOCK_RECORD
  5
42E
330
1
100
AcDbSymbolTableRecord
100
AcDbBlockTableRecord
  2
*D24
340
0
 70
     0
280
     1
281
     0
  0
BLOCK_RECORD
  5
43B
330
1
100
AcDbSymbolTableRecord
100
AcDbBlockTableRecord
  2
*D25
340
0
 70
     0
280
     1
281
     0
  0
BLOCK_RECORD
  5
448
330
1
100
AcDbSymbolTableRecord
100
AcDbBlockTableRecord
  2
*D26
340
0
 70
     0
280
     1
281
     0
  0
BLOCK_RECORD
  5
455
330
1
100
AcDbSymbolTableRecord
100
AcDbBlockTableRecord
  2
*D27
340
0
 70
     0
280
     1
281
     0
  0
BLOCK_RECORD
  5
462
330
1
100
AcDbSymbolTableRecord
100
AcDbBlockTableRecord
  2
*D28
340
0
 70
     0
280
     1
281
     0
  0
BLOCK_RECORD
  5
46F
330
1
100
AcDbSymbolTableRecord
100
AcDbBlockTableRecord
  2
*D29
340
0
 70
     0
280
     1
281
     0
  0
BLOCK_RECORD
  5
47C
330
1
100
AcDbSymbolTableRecord
100
AcDbBlockTableRecord
  2
*D30
340
0
 70
     0
280
     1
281
     0
  0
BLOCK_RECORD
  5
485
330
1
100
AcDbSymbolTableRecord
100
AcDbBlockTableRecord
  2
*D31
340
0
 70
     0
280
     1
281
     0
  0
BLOCK_RECORD
  5
48E
330
1
100
AcDbSymbolTableRecord
100
AcDbBlockTableRecord
  2
*D32
340
0
 70
     0
280
     1
281
     0
  0
BLOCK_RECORD
  5
49B
330
1
100
AcDbSymbolTableRecord
100
AcDbBlockTableRecord
  2
*D33
340
0
 70
     0
280
     1
281
     0
  0
BLOCK_RECORD
  5
4A8
330
1
100
AcDbSymbolTableRecord
100
AcDbBlockTableRecord
  2
*D34
340
0
 70
     0
280
     1
281
     0
  0
ENDTAB
  0
ENDSEC
  0
SECTION
  2
BLOCKS
  0
BLOCK
  5
71
330
70
100
AcDbEntity
  8
0
100
AcDbBlockBegin
  2
*Model_Space
 70
     0
 10
0.0
 20
0.0
 30
0.0
  3
*Model_Space
  1

  0
ENDBLK
  5
72
330
70
100
AcDbEntity
  8
0
100
AcDbBlockEnd
  0
BLOCK
  5
6D
330
6C
100
AcDbEntity
 67
     1
  8
0
100
AcDbBlockBegin
  2
*Paper_Space
 70
     0
 10
0.0
 20
0.0
 30
0.0
  3
*Paper_Space
  1

  0
ENDBLK
  5
6E
330
6C
100
AcDbEntity
 67
     1
  8
0
100
AcDbBlockEnd
  0
BLOCK
  5
75
330
74
100
AcDbEntity
 67
     1
  8
0
100
AcDbBlockBegin
  2
*Paper_Space0
 70
     0
 10
0.0
 20
0.0
 30
0.0
  3
*Paper_Space0
  1

  0
ENDBLK
  5
76
330
74
100
AcDbEntity
 67
     1
  8
0
100
AcDbBlockEnd
  0
BLOCK
  5
2F2
330
2EF
100
AcDbEntity
  8
0
100
AcDbBlockBegin
  2
Shower
 70
     2
 10
0.0
 20
0.0
 30
0.0
  3
Shower
  1

  0
LWPOLYLINE
  5
2F3
330
2EF
100
AcDbEntity
  8
Titleblock
100
AcDbPolyline
 90
        4
 70
     1
 43
0.0
 10
0.0
 20
0.0
 10
-4.9375
 20
0.0
 10
-4.9375
 20
2.5
 10
0.0
 20
2.5
  0
IMAGE
  5
2F4
330
2EF
100
AcDbEntity
  8
Titleblock
  6
Continuous
160
               140
310
8C0000000100000084000000060000000500000000000000008013C000B87FA8928AB03F000000000000000000000000008013C035B4911D6523F03F000000000000000001000000008001C035B4911D6523F03F000000000000000001000000008001C000B87FA8928AB03F000000000000000000000000008013C000B87F
310
A8928AB03F0000000000000000
370
     0
100
AcDbRasterImage
 90
        0
 10
-4.875
 20
0.064614
 30
0.0
 11
0.0028349156118143
 21
0.0
 31
0.0
 12
0.0
 22
0.0028349156118143
 32
0.0
 13
948.0
 23
333.0
340
2F5
 70
    15
280
     0
281
    50
282
    50
283
     0
290
     0
360
2F7
 71
     1
 91
        2
 14
-0.5
 24
-0.5
 14
947.5
 24
332.5
  0
LWPOLYLINE
  5
2F9
330
2EF
100
AcDbEntity
  8
Titleblock
  6
Continuous
370
    25
100
AcDbPolyline
 90
        4
 70
     1
 43
0.0
 10
0.0
 20
1.0625
 10
-4.9375
 20
1.061638
 10
-4.9375
 20
0.0
 10
0.0
 20
0.0
  0
LWPOLYLINE
  5
2FA
330
2EF
100
AcDbEntity
  8
Titleblock
  6
Continuous
370
    25
100
AcDbPolyline
 90
        4
 70
     1
 43
0.0
 10
-1.75
 20
2.5
 10
0.0
 20
2.5
 10
0.0
 20
2.5
 10
-1.75
 20
2.5
  0
ATTDEF
  5
2FB
330
2EF
100
AcDbEntity
  8
Titleblock
  6
Continuous
370
    25
100
AcDbText
 10
-3.6875
 20
2.3125
 30
0.0
 40
0.12
  1

100
AcDbAttributeDefinition
280
     0
  3

  2
PROJECT
 70
     0
280
     1
  0
MTEXT
  5
2FC
330
2EF
100
AcDbEntity
  8
Titleblock
  6
Continuous
370
    25
100
AcDbMText
 10
-4.875
 20
1.653875
 30
0.0
 40
0.12
 41
0.6875
 46
0.0
 71
     1
 72
     5
  1
Description:
 73
     1
 44
1.0
1001
ACAD
1000
ACAD_MTEXT_COLUMN_INFO_BEGIN
1070
    75
1070
     2
1070
    79
1070
     0
1070
    76
1070
     1
1070
    78
1070
     0
1070
    48
1040
0.6875
1070
    49
1040
0.6
1070
    50
1070
     1
1040
0.0
1000
ACAD_MTEXT_COLUMN_INFO_END
  0
ATTDEF
  5
2FD
330
2EF
100
AcDbEntity
  8
Titleblock
  6
Continuous
370
    25
100
AcDbText
 10
-1.6875
 20
0.6875
 30
0.0
 40
0.12
  1

100
AcDbAttributeDefinition
280
     0
  3

  2
DRAWN_DATE
 70
     0
280
     1
  0
ATTDEF
  5
2FE
330
2EF
100
AcDbEntity
  8
Titleblock
  6
Continuous
370
    25
100
AcDbText
 10
-4.3125
 20
1.8125
 30
0.0
 40
0.3048
  1

100
AcDbAttributeDefinition
280
     0
  3

  2
TITLE_1
 70
     0
280
     1
  0
ATTDEF
  5
2FF
330
2EF
100
AcDbEntity
  8
Titleblock
  6
Continuous
370
    25
100
AcDbText
 10
-1.6875
 20
0.91994
 30
0.0
 40
0.12
  1

100
AcDbAttributeDefinition
280
     0
  3

  2
SCALE
 70
     0
280
     1
  0
LWPOLYLINE
  5
300
330
2EF
100
AcDbEntity
  8
Titleblock
  6
Continuous
370
    25
100
AcDbPolyline
 90
        4
 70
     1
 43
0.0
 10
0.0
 20
1.0625
 10
0.0
 20
1.0625
 10
0.0
 20
0.0
 10
0.0
 20
0.0
  0
LWPOLYLINE
  5
301
330
2EF
100
AcDbEntity
  8
Titleblock
  6
Continuous
370
    25
100
AcDbPolyline
 90
        4
 70
     1
 43
0.0
 10
0.0
 20
1.0625
 10
0.0
 20
1.0625
 10
0.0
 20
0.0
 10
0.0
 20
0.0
  0
LINE
  5
302
330
2EF
100
AcDbEntity
  8
Titleblock
  6
Continuous
370
    25
100
AcDbLine
 10
-2.125
 20
1.062165
 30
0.0
 11
-2.125
 21
0.0
 31
0.0
  0
LWPOLYLINE
  5
303
330
2EF
100
AcDbEntity
  8
Titleblock
  6
Continuous
370
    25
100
AcDbPolyline
 90
        4
 70
     1
 43
0.0
 10
-4.9375
 20
2.5
 10
0.0
 20
2.5
 10
0.0
 20
2.5
 10
-4.9375
 20
2.5
  0
LINE
  5
304
330
2EF
100
AcDbEntity
  8
Titleblock
  6
Continuous
370
    25
100
AcDbLine
 10
-4.9375
 20
2.25
 30
0.0
 11
0.0
 21
2.25
 31
0.0
  0
LINE
  5
305
330
2EF
100
AcDbEntity
  8
Titleblock
  6
Continuous
370
    25
100
AcDbLine
 10
-4.9375
 20
1.6875
 30
0.0
 11
0.0
 21
1.6875
 31
0.0
  0
MTEXT
  5
306
330
2EF
100
AcDbEntity
  8
Titleblock
100
AcDbMText
 10
-4.875
 20
2.467284
 30
0.0
 40
0.12
 41
0.375
 46
0.0
 71
     1
 72
     5
  1
Project:
 73
     1
 44
1.0
1001
ACAD
1000
ACAD_MTEXT_COLUMN_INFO_BEGIN
1070
    75
1070
     2
1070
    79
1070
     0
1070
    76
1070
     1
1070
    78
1070
     0
1070
    48
1040
0.375
1070
    49
1040
0.6
1070
    50
1070
     1
1040
0.0
1000
ACAD_MTEXT_COLUMN_INFO_END
  0
MTEXT
  5
307
330
2EF
100
AcDbEntity
  8
Titleblock
100
AcDbMText
 10
-2.0625
 20
1.045477
 30
0.0
 40
0.075
 41
0.375
 46
0.0
 71
     1
 72
     5
  1
Scale:
 73
     1
 44
1.0
1001
ACAD
1000
ACAD_MTEXT_COLUMN_INFO_BEGIN
1070
    75
1070
     2
1070
    79
1070
     0
1070
    76
1070
     1
1070
    78
1070
     0
1070
    48
1040
0.375
1070
    49
1040
0.6
1070
    50
1070
     1
1040
0.0
1000
ACAD_MTEXT_COLUMN_INFO_END
  0
MTEXT
  5
308
330
2EF
100
AcDbEntity
  8
Titleblock
100
AcDbMText
 10
-2.0625
 20
0.857735
 30
0.0
 40
0.075
 41
0.375
 46
0.0
 71
     1
 72
     5
  1
Date Drawn:
 73
     1
 44
1.0
1001
ACAD
1000
ACAD_MTEXT_COLUMN_INFO_BEGIN
1070
    75
1070
     2
1070
    79
1070
     0
1070
    76
1070
     1
1070
    78
1070
     0
1070
    48
1040
0.375
1070
    49
1040
0.6
1070
    50
1070
     1
1040
0.0
1000
ACAD_MTEXT_COLUMN_INFO_END
  0
LINE
  5
309
330
2EF
100
AcDbEntity
  8
Titleblock
100
AcDbLine
 10
-2.125
 20
0.875
 30
0.0
 11
0.0
 21
0.875
 31
0.0
  0
LINE
  5
30A
330
2EF
100
AcDbEntity
  8
Titleblock
100
AcDbLine
 10
-2.125
 20
0.625
 30
0.0
 11
0.0
 21
0.625
 31
0.0
  0
MTEXT
  5
30B
330
2EF
100
AcDbEntity
  8
Titleblock
100
AcDbMText
 10
-4.875
 20
2.220603
 30
0.0
 40
0.12
 41
0.625
 46
0.0
 71
     1
 72
     5
  1
Title:
 73
     1
 44
1.0
1001
ACAD
1000
ACAD_MTEXT_COLUMN_INFO_BEGIN
1070
    75
1070
     2
1070
    79
1070
     0
1070
    76
1070
     1
1070
    78
1070
     0
1070
    48
1040
0.625
1070
    49
1040
0.6
1070
    50
1070
     1
1040
0.0
1000
ACAD_MTEXT_COLUMN_INFO_END
  0
ENDBLK
  5
30C
330
2EF
100
AcDbEntity
  8
0
100
AcDbBlockEnd
  0
BLOCK
  5
315
330
314
100
AcDbEntity
  8
0
100
AcDbBlockBegin
  2
ANSI_B_SHEET
 70
     0
 10
0.0
 20
0.0
 30
0.0
  3
ANSI_B_SHEET
  1

  0
LINE
  5
316
330
314
100
AcDbEntity
  8
Border
100
AcDbLine
 10
0.0
 20
0.0
 30
0.0
 11
0.5
 21
0.0
 31
0.0
  0
LINE
  5
317
330
314
100
AcDbEntity
  8
Border
100
AcDbLine
 10
16.5
 20
0.0
 30
0.0
 11
17.0
 21
0.0
 31
0.0
  0
LINE
  5
318
330
314
100
AcDbEntity
  8
Border
100
AcDbLine
 10
0.62
 20
0.38
 30
0.0
 11
16.38
 21
0.38
 31
0.0
  0
LINE
  5
319
330
314
100
AcDbEntity
  8
Border
100
AcDbLine
 10
17.0
 20
0.0
 30
0.0
 11
17.0
 21
0.5
 31
0.0
  0
LINE
  5
31A
330
314
100
AcDbEntity
  8
Border
100
AcDbLine
 10
17.0
 20
10.5
 30
0.0
 11
17.0
 21
11.0
 31
0.0
  0
LINE
  5
31B
330
314
100
AcDbEntity
  8
Border
100
AcDbLine
 10
16.38
 20
0.38
 30
0.0
 11
16.38
 21
10.62
 31
0.0
  0
LINE
  5
31C
330
314
100
AcDbEntity
  8
Border
100
AcDbLine
 10
17.0
 20
11.0
 30
0.0
 11
16.5
 21
11.0
 31
0.0
  0
LINE
  5
31D
330
314
100
AcDbEntity
  8
Border
100
AcDbLine
 10
0.5
 20
11.0
 30
0.0
 11
0.0
 21
11.0
 31
0.0
  0
LINE
  5
31E
330
314
100
AcDbEntity
  8
Border
100
AcDbLine
 10
16.38
 20
10.62
 30
0.0
 11
0.62
 21
10.62
 31
0.0
  0
LINE
  5
31F
330
314
100
AcDbEntity
  8
Border
100
AcDbLine
 10
0.0
 20
11.0
 30
0.0
 11
0.0
 21
10.5
 31
0.0
  0
LINE
  5
320
330
314
100
AcDbEntity
  8
Border
100
AcDbLine
 10
0.0
 20
0.5
 30
0.0
 11
0.0
 21
0.0
 31
0.0
  0
LINE
  5
321
330
314
100
AcDbEntity
  8
Border
100
AcDbLine
 10
0.62
 20
10.62
 30
0.0
 11
0.62
 21
0.38
 31
0.0
  0
LINE
  5
322
330
314
100
AcDbEntity
  8
Border
100
AcDbLine
 10
8.413397
 20
0.23
 30
0.0
 11
8.586603
 21
0.23
 31
0.0
  0
LINE
  5
323
330
314
100
AcDbEntity
  8
Border
100
AcDbLine
 10
8.5
 20
0.38
 30
0.0
 11
8.5
 21
0.13
 31
0.0
  0
LINE
  5
324
330
314
100
AcDbEntity
  8
Border
100
AcDbLine
 10
8.5
 20
0.38
 30
0.0
 11
8.413397
 21
0.23
 31
0.0
  0
LINE
  5
325
330
314
100
AcDbEntity
  8
Border
100
AcDbLine
 10
8.5
 20
0.38
 30
0.0
 11
8.586603
 21
0.23
 31
0.0
  0
LINE
  5
326
330
314
100
AcDbEntity
  8
Border
100
AcDbLine
 10
0.47
 20
5.586603
 30
0.0
 11
0.47
 21
5.413397
 31
0.0
  0
LINE
  5
327
330
314
100
AcDbEntity
  8
Border
100
AcDbLine
 10
0.62
 20
5.5
 30
0.0
 11
0.37
 21
5.5
 31
0.0
  0
LINE
  5
328
330
314
100
AcDbEntity
  8
Border
100
AcDbLine
 10
0.62
 20
5.5
 30
0.0
 11
0.47
 21
5.586603
 31
0.0
  0
LINE
  5
329
330
314
100
AcDbEntity
  8
Border
100
AcDbLine
 10
0.62
 20
5.5
 30
0.0
 11
0.47
 21
5.413397
 31
0.0
  0
LINE
  5
32A
330
314
100
AcDbEntity
  8
Border
100
AcDbLine
 10
16.53
 20
5.586603
 30
0.0
 11
16.53
 21
5.413397
 31
0.0
  0
LINE
  5
32B
330
314
100
AcDbEntity
  8
Border
100
AcDbLine
 10
16.38
 20
5.5
 30
0.0
 11
16.63
 21
5.5
 31
0.0
  0
LINE
  5
32C
330
314
100
AcDbEntity
  8
Border
100
AcDbLine
 10
16.38
 20
5.5
 30
0.0
 11
16.53
 21
5.586603
 31
0.0
  0
LINE
  5
32D
330
314
100
AcDbEntity
  8
Border
100
AcDbLine
 10
16.38
 20
5.5
 30
0.0
 11
16.53
 21
5.413397
 31
0.0
  0
LINE
  5
32E
330
314
100
AcDbEntity
  8
Border
100
AcDbLine
 10
8.413397
 20
10.77
 30
0.0
 11
8.586603
 21
10.77
 31
0.0
  0
LINE
  5
32F
330
314
100
AcDbEntity
  8
Border
100
AcDbLine
 10
8.5
 20
10.62
 30
0.0
 11
8.5
 21
10.87
 31
0.0
  0
LINE
  5
330
330
314
100
AcDbEntity
  8
Border
100
AcDbLine
 10
8.5
 20
10.62
 30
0.0
 11
8.413397
 21
10.77
 31
0.0
  0
LINE
  5
331
330
314
100
AcDbEntity
  8
Border
100
AcDbLine
 10
8.5
 20
10.62
 30
0.0
 11
8.586603
 21
10.77
 31
0.0
  0
ENDBLK
  5
332
330
314
100
AcDbEntity
  8
0
100
AcDbBlockEnd
  0
BLOCK
  5
336
330
335
100
AcDbEntity
  8
0
100
AcDbBlockBegin
  2
*D6
 70
     1
 10
0.0
 20
0.0
 30
0.0
  3
*D6
  1

  0
LINE
  5
337
330
335
100
AcDbEntity
  8
Dimensions
440
 16777216
370
    -2
100
AcDbLine
 10
7.25
 20
7.4875
 30
0.0
 11
7.25
 21
7.956241
 31
0.0
  0
LINE
  5
338
330
335
100
AcDbEntity
  8
Dimensions
440
 16777216
370
    -2
100
AcDbLine
 10
9.75
 20
7.4875
 30
0.0
 11
9.75
 21
7.956241
 31
0.0
  0
LINE
  5
339
330
335
100
AcDbEntity
  8
Dimensions
440
 16777216
370
    -2
100
AcDbLine
 10
7.37
 20
7.856241
 30
0.0
 11
8.292619
 21
7.856241
 31
0.0
  0
LINE
  5
33A
330
335
100
AcDbEntity
  8
Dimensions
440
 16777216
370
    -2
100
AcDbLine
 10
9.63
 20
7.856241
 30
0.0
 11
8.707381
 21
7.856241
 31
0.0
  0
SOLID
  5
33B
330
335
100
AcDbEntity
  8
Dimensions
440
 16777216
100
AcDbTrace
 10
7.37
 20
7.876241
 30
0.0
 11
7.37
 21
7.836241
 31
0.0
 12
7.25
 22
7.856241
 32
0.0
 13
7.25
 23
7.856241
 33
0.0
  0
SOLID
  5
33C
330
335
100
AcDbEntity
  8
Dimensions
440
 16777216
100
AcDbTrace
 10
9.63
 20
7.876241
 30
0.0
 11
9.63
 21
7.836241
 31
0.0
 12
9.75
 22
7.856241
 32
0.0
 13
9.75
 23
7.856241
 33
0.0
  0
MTEXT
  5
33D
330
335
100
AcDbEntity
  8
Dimensions
440
 16777216
100
AcDbMText
 10
8.5
 20
7.856241
 30
0.0
 40
0.12
 41
0.0
 46
0.0
 71
     5
 72
     1
  1
\A1;2{\H1x;\S1/2;}in
 73
     1
 44
1.0
  0
POINT
  5
33E
330
335
100
AcDbEntity
  8
Defpoints
 62
     0
440
 16777216
100
AcDbPoint
 10
7.25
 20
7.4375
 30
0.0
  0
POINT
  5
33F
330
335
100
AcDbEntity
  8
Defpoints
 62
     0
440
 16777216
100
AcDbPoint
 10
9.75
 20
7.4375
 30
0.0
  0
POINT
  5
340
330
335
100
AcDbEntity
  8
Defpoints
 62
     0
440
 16777216
100
AcDbPoint
 10
9.75
 20
7.856241
 30
0.0
  0
ENDBLK
  5
341
330
335
100
AcDbEntity
  8
0
100
AcDbBlockEnd
  0
BLOCK
  5
344
330
343
100
AcDbEntity
  8
0
100
AcDbBlockBegin
  2
*D7
 70
     1
 10
0.0
 20
0.0
 30
0.0
  3
*D7
  1

  0
LINE
  5
345
330
343
100
AcDbEntity
  8
Dimensions
440
 16777216
370
    -2
100
AcDbLine
 10
7.325
 20
7.5625
 30
0.0
 11
6.024573
 21
7.5625
 31
0.0
  0
LINE
  5
346
330
343
100
AcDbEntity
  8
Dimensions
440
 16777216
370
    -2
100
AcDbLine
 10
7.21
 20
3.4375
 30
0.0
 11
6.024573
 21
3.4375
 31
0.0
  0
LINE
  5
347
330
343
100
AcDbEntity
  8
Dimensions
440
 16777216
370
    -2
100
AcDbLine
 10
6.124573
 20
7.4425
 30
0.0
 11
6.124573
 21
5.701514
 31
0.0
  0
LINE
  5
348
330
343
100
AcDbEntity
  8
Dimensions
440
 16777216
370
    -2
100
AcDbLine
 10
6.124573
 20
3.5575
 30
0.0
 11
6.124573
 21
5.298486
 31
0.0
  0
SOLID
  5
349
330
343
100
AcDbEntity
  8
Dimensions
440
 16777216
100
AcDbTrace
 10
6.104573
 20
7.4425
 30
0.0
 11
6.144573
 21
7.4425
 31
0.0
 12
6.124573
 22
7.5625
 32
0.0
 13
6.124573
 23
7.5625
 33
0.0
  0
SOLID
  5
34A
330
343
100
AcDbEntity
  8
Dimensions
440
 16777216
100
AcDbTrace
 10
6.104573
 20
3.5575
 30
0.0
 11
6.144573
 21
3.5575
 31
0.0
 12
6.124573
 22
3.4375
 32
0.0
 13
6.124573
 23
3.4375
 33
0.0
  0
MTEXT
  5
34B
330
343
100
AcDbEntity
  8
Dimensions
440
 16777216
100
AcDbMText
 10
6.124573
 20
5.5
 30
0.0
 40
0.12
 41
0.0
 46
0.0
 71
     5
 72
     1
  1
\A1;4{\H1x;\S1/8;}in
 73
     1
 44
1.0
  0
POINT
  5
34C
330
343
100
AcDbEntity
  8
Defpoints
 62
     0
440
 16777216
100
AcDbPoint
 10
7.375
 20
7.5625
 30
0.0
  0
POINT
  5
34D
330
343
100
AcDbEntity
  8
Defpoints
 62
     0
440
 16777216
100
AcDbPoint
 10
7.26
 20
3.4375
 30
0.0
  0
POINT
  5
34E
330
343
100
AcDbEntity
  8
Defpoints
 62
     0
440
 16777216
100
AcDbPoint
 10
6.124573
 20
3.4375
 30
0.0
  0
ENDBLK
  5
34F
330
343
100
AcDbEntity
  8
0
100
AcDbBlockEnd
  0
BLOCK
  5
352
330
351
100
AcDbEntity
  8
0
100
AcDbBlockBegin
  2
*D8
 70
     1
 10
0.0
 20
0.0
 30
0.0
  3
*D8
  1

  0
LINE
  5
353
330
351
100
AcDbEntity
  8
Dimensions
440
 16777216
370
    -2
100
AcDbLine
 10
1.375
 20
9.361781
 30
0.0
 11
1.375
 21
9.950925
 31
0.0
  0
LINE
  5
354
330
351
100
AcDbEntity
  8
Dimensions
440
 16777216
370
    -2
100
AcDbLine
 10
2.125
 20
9.361781
 30
0.0
 11
2.125
 21
9.950925
 31
0.0
  0
LINE
  5
355
330
351
100
AcDbEntity
  8
Dimensions
440
 16777216
370
    -2
100
AcDbLine
 10
1.255
 20
9.850925
 30
0.0
 11
1.135
 21
9.850925
 31
0.0
  0
LINE
  5
356
330
351
100
AcDbEntity
  8
Dimensions
440
 16777216
370
    -2
100
AcDbLine
 10
2.245
 20
9.850925
 30
0.0
 11
2.365
 21
9.850925
 31
0.0
  0
SOLID
  5
357
330
351
100
AcDbEntity
  8
Dimensions
440
 16777216
100
AcDbTrace
 10
1.255
 20
9.870925
 30
0.0
 11
1.255
 21
9.830925
 31
0.0
 12
1.375
 22
9.850925
 32
0.0
 13
1.375
 23
9.850925
 33
0.0
  0
SOLID
  5
358
330
351
100
AcDbEntity
  8
Dimensions
440
 16777216
100
AcDbTrace
 10
2.245
 20
9.870925
 30
0.0
 11
2.245
 21
9.830925
 31
0.0
 12
2.125
 22
9.850925
 32
0.0
 13
2.125
 23
9.850925
 33
0.0
  0
MTEXT
  5
359
330
351
100
AcDbEntity
  8
Dimensions
440
 16777216
100
AcDbMText
 10
1.75
 20
9.850925
 30
0.0
 40
0.12
 41
0.0
 46
0.0
 71
     5
 72
     1
  1
\A1;12in
 73
     1
 44
1.0
  0
POINT
  5
35A
330
351
100
AcDbEntity
  8
Defpoints
 62
     0
440
 16777216
100
AcDbPoint
 10
1.375
 20
9.311781
 30
0.0
  0
POINT
  5
35B
330
351
100
AcDbEntity
  8
Defpoints
 62
     0
440
 16777216
100
AcDbPoint
 10
2.125
 20
9.311781
 30
0.0
  0
POINT
  5
35C
330
351
100
AcDbEntity
  8
Defpoints
 62
     0
440
 16777216
100
AcDbPoint
 10
2.125
 20
9.850925
 30
0.0
  0
ENDBLK
  5
35D
330
351
100
AcDbEntity
  8
0
100
AcDbBlockEnd
  0
BLOCK
  5
360
330
35F
100
AcDbEntity
  8
0
100
AcDbBlockBegin
  2
*D9
 70
     1
 10
0.0
 20
0.0
 30
0.0
  3
*D9
  1

  0
LINE
  5
361
330
35F
100
AcDbEntity
  8
Dimensions
440
 16777216
370
    -2
100
AcDbLine
 10
1.0
 20
9.439906
 30
0.0
 11
1.0
 21
9.684546
 31
0.0
  0
LINE
  5
362
330
35F
100
AcDbEntity
  8
Dimensions
440
 16777216
370
    -2
100
AcDbLine
 10
1.375
 20
9.361781
 30
0.0
 11
1.375
 21
9.684546
 31
0.0
  0
LINE
  5
363
330
35F
100
AcDbEntity
  8
Dimensions
440
 16777216
370
    -2
100
AcDbLine
 10
0.88
 20
9.584546
 30
0.0
 11
0.76
 21
9.584546
 31
0.0
  0
LINE
  5
364
330
35F
100
AcDbEntity
  8
Dimensions
440
 16777216
370
    -2
100
AcDbLine
 10
1.495
 20
9.584546
 30
0.0
 11
1.615
 21
9.584546
 31
0.0
  0
SOLID
  5
365
330
35F
100
AcDbEntity
  8
Dimensions
440
 16777216
100
AcDbTrace
 10
0.88
 20
9.604546
 30
0.0
 11
0.88
 21
9.564546
 31
0.0
 12
1.0
 22
9.584546
 32
0.0
 13
1.0
 23
9.584546
 33
0.0
  0
SOLID
  5
366
330
35F
100
AcDbEntity
  8
Dimensions
440
 16777216
100
AcDbTrace
 10
1.495
 20
9.604546
 30
0.0
 11
1.495
 21
9.564546
 31
0.0
 12
1.375
 22
9.584546
 32
0.0
 13
1.375
 23
9.584546
 33
0.0
  0
MTEXT
  5
367
330
35F
100
AcDbEntity
  8
Dimensions
440
 16777216
100
AcDbMText
 10
1.182988
 20
9.584546
 30
0.0
 40
0.12
 41
0.0
 46
0.0
 71
     5
 72
     1
  1
\A1;6in
 73
     1
 44
1.0
  0
POINT
  5
368
330
35F
100
AcDbEntity
  8
Defpoints
 62
     0
440
 16777216
100
AcDbPoint
 10
1.0
 20
9.389906
 30
0.0
  0
POINT
  5
369
330
35F
100
AcDbEntity
  8
Defpoints
 62
     0
440
 16777216
100
AcDbPoint
 10
1.375
 20
9.311781
 30
0.0
  0
POINT
  5
36A
330
35F
100
AcDbEntity
  8
Defpoints
 62
     0
440
 16777216
100
AcDbPoint
 10
1.375
 20
9.584546
 30
0.0
  0
ENDBLK
  5
36B
330
35F
100
AcDbEntity
  8
0
100
AcDbBlockEnd
  0
BLOCK
  5
36E
330
36D
100
AcDbEntity
  8
0
100
AcDbBlockBegin
  2
*D10
 70
     1
 10
0.0
 20
0.0
 30
0.0
  3
*D10
  1

  0
LINE
  5
36F
330
36D
100
AcDbEntity
  8
Dimensions
440
 16777216
370
    -2
100
AcDbLine
 10
1.0
 20
9.439906
 30
0.0
 11
1.0
 21
10.168728
 31
0.0
  0
LINE
  5
370
330
36D
100
AcDbEntity
  8
Dimensions
440
 16777216
370
    -2
100
AcDbLine
 10
16.0
 20
9.439906
 30
0.0
 11
16.0
 21
10.168728
 31
0.0
  0
LINE
  5
371
330
36D
100
AcDbEntity
  8
Dimensions
440
 16777216
370
    -2
100
AcDbLine
 10
1.12
 20
10.068728
 30
0.0
 11
8.243138
 21
10.068728
 31
0.0
  0
LINE
  5
372
330
36D
100
AcDbEntity
  8
Dimensions
440
 16777216
370
    -2
100
AcDbLine
 10
15.88
 20
10.068728
 30
0.0
 11
8.756862
 21
10.068728
 31
0.0
  0
SOLID
  5
373
330
36D
100
AcDbEntity
  8
Dimensions
440
 16777216
100
AcDbTrace
 10
1.12
 20
10.088728
 30
0.0
 11
1.12
 21
10.048728
 31
0.0
 12
1.0
 22
10.068728
 32
0.0
 13
1.0
 23
10.068728
 33
0.0
  0
SOLID
  5
374
330
36D
100
AcDbEntity
  8
Dimensions
440
 16777216
100
AcDbTrace
 10
15.88
 20
10.088728
 30
0.0
 11
15.88
 21
10.048728
 31
0.0
 12
16.0
 22
10.068728
 32
0.0
 13
16.0
 23
10.068728
 33
0.0
  0
MTEXT
  5
375
330
36D
100
AcDbEntity
  8
Dimensions
440
 16777216
100
AcDbMText
 10
8.5
 20
10.068728
 30
0.0
 40
0.12
 41
0.0
 46
0.0
 71
     5
 72
     1
  1
\A1;240in
 73
     1
 44
1.0
  0
POINT
  5
376
330
36D
100
AcDbEntity
  8
Defpoints
 62
     0
440
 16777216
100
AcDbPoint
 10
1.0
 20
9.389906
 30
0.0
  0
POINT
  5
377
330
36D
100
AcDbEntity
  8
Defpoints
 62
     0
440
 16777216
100
AcDbPoint
 10
16.0
 20
9.389906
 30
0.0
  0
POINT
  5
378
330
36D
100
AcDbEntity
  8
Defpoints
 62
     0
440
 16777216
100
AcDbPoint
 10
16.0
 20
10.068728
 30
0.0
  0
ENDBLK
  5
379
330
36D
100
AcDbEntity
  8
0
100
AcDbBlockEnd
  0
BLOCK
  5
37C
330
37B
100
AcDbEntity
  8
0
100
AcDbBlockBegin
  2
*D11
 70
     1
 10
0.0
 20
0.0
 30
0.0
  3
*D11
  1

  0
LINE
  5
37D
330
37B
100
AcDbEntity
  8
Dimensions
440
 16777216
370
    -2
100
AcDbLine
 10
16.0
 20
9.439906
 30
0.0
 11
16.0
 21
9.637492
 31
0.0
  0
LINE
  5
37E
330
37B
100
AcDbEntity
  8
Dimensions
440
 16777216
370
    -2
100
AcDbLine
 10
15.625
 20
9.361781
 30
0.0
 11
15.625
 21
9.637492
 31
0.0
  0
LINE
  5
37F
330
37B
100
AcDbEntity
  8
Dimensions
440
 16777216
370
    -2
100
AcDbLine
 10
16.12
 20
9.537492
 30
0.0
 11
16.24
 21
9.537492
 31
0.0
  0
LINE
  5
380
330
37B
100
AcDbEntity
  8
Dimensions
440
 16777216
370
    -2
100
AcDbLine
 10
15.505
 20
9.537492
 30
0.0
 11
15.385
 21
9.537492
 31
0.0
  0
SOLID
  5
381
330
37B
100
AcDbEntity
  8
Dimensions
440
 16777216
100
AcDbTrace
 10
16.12
 20
9.557492
 30
0.0
 11
16.12
 21
9.517492
 31
0.0
 12
16.0
 22
9.537492
 32
0.0
 13
16.0
 23
9.537492
 33
0.0
  0
SOLID
  5
382
330
37B
100
AcDbEntity
  8
Dimensions
440
 16777216
100
AcDbTrace
 10
15.505
 20
9.557492
 30
0.0
 11
15.505
 21
9.517492
 31
0.0
 12
15.625
 22
9.537492
 32
0.0
 13
15.625
 23
9.537492
 33
0.0
  0
MTEXT
  5
383
330
37B
100
AcDbEntity
  8
Dimensions
440
 16777216
100
AcDbMText
 10
15.829853
 20
9.537492
 30
0.0
 40
0.12
 41
0.0
 46
0.0
 71
     5
 72
     1
  1
\A1;6in
 73
     1
 44
1.0
  0
POINT
  5
384
330
37B
100
AcDbEntity
  8
Defpoints
 62
     0
440
 16777216
100
AcDbPoint
 10
16.0
 20
9.389906
 30
0.0
  0
POINT
  5
385
330
37B
100
AcDbEntity
  8
Defpoints
 62
     0
440
 16777216
100
AcDbPoint
 10
15.625
 20
9.311781
 30
0.0
  0
POINT
  5
386
330
37B
100
AcDbEntity
  8
Defpoints
 62
     0
440
 16777216
100
AcDbPoint
 10
15.625
 20
9.537492
 30
0.0
  0
ENDBLK
  5
387
330
37B
100
AcDbEntity
  8
0
100
AcDbBlockEnd
  0
BLOCK
  5
38A
330
389
100
AcDbEntity
  8
0
100
AcDbBlockBegin
  2
*D12
 70
     1
 10
0.0
 20
0.0
 30
0.0
  3
*D12
  1

  0
LINE
  5
38B
330
389
100
AcDbEntity
  8
Dimensions
440
 16777216
370
    -2
100
AcDbLine
 10
15.625
 20
9.361781
 30
0.0
 11
15.625
 21
9.885136
 31
0.0
  0
LINE
  5
38C
330
389
100
AcDbEntity
  8
Dimensions
440
 16777216
370
    -2
100
AcDbLine
 10
14.875
 20
9.361781
 30
0.0
 11
14.875
 21
9.885136
 31
0.0
  0
LINE
  5
38D
330
389
100
AcDbEntity
  8
Dimensions
440
 16777216
370
    -2
100
AcDbLine
 10
15.745
 20
9.785136
 30
0.0
 11
15.865
 21
9.785136
 31
0.0
  0
LINE
  5
38E
330
389
100
AcDbEntity
  8
Dimensions
440
 16777216
370
    -2
100
AcDbLine
 10
14.755
 20
9.785136
 30
0.0
 11
14.635
 21
9.785136
 31
0.0
  0
SOLID
  5
38F
330
389
100
AcDbEntity
  8
Dimensions
440
 16777216
100
AcDbTrace
 10
15.745
 20
9.805136
 30
0.0
 11
15.745
 21
9.765136
 31
0.0
 12
15.625
 22
9.785136
 32
0.0
 13
15.625
 23
9.785136
 33
0.0
  0
SOLID
  5
390
330
389
100
AcDbEntity
  8
Dimensions
440
 16777216
100
AcDbTrace
 10
14.755
 20
9.805136
 30
0.0
 11
14.755
 21
9.765136
 31
0.0
 12
14.875
 22
9.785136
 32
0.0
 13
14.875
 23
9.785136
 33
0.0
  0
MTEXT
  5
391
330
389
100
AcDbEntity
  8
Dimensions
440
 16777216
100
AcDbMText
 10
15.25
 20
9.785136
 30
0.0
 40
0.12
 41
0.0
 46
0.0
 71
     5
 72
     1
  1
\A1;12in
 73
     1
 44
1.0
  0
POINT
  5
392
330
389
100
AcDbEntity
  8
Defpoints
 62
     0
440
 16777216
100
AcDbPoint
 10
15.625
 20
9.311781
 30
0.0
  0
POINT
  5
393
330
389
100
AcDbEntity
  8
Defpoints
 62
     0
440
 16777216
100
AcDbPoint
 10
14.875
 20
9.311781
 30
0.0
  0
POINT
  5
394
330
389
100
AcDbEntity
  8
Defpoints
 62
     0
440
 16777216
100
AcDbPoint
 10
14.875
 20
9.785136
 30
0.0
  0
ENDBLK
  5
395
330
389
100
AcDbEntity
  8
0
100
AcDbBlockEnd
  0
BLOCK
  5
398
330
397
100
AcDbEntity
  8
0
100
AcDbBlockBegin
  2
*D13
 70
     1
 10
0.0
 20
0.0
 30
0.0
  3
*D13
  1

  0
LINE
  5
399
330
397
100
AcDbEntity
  8
Dimensions
440
 16777216
370
    -2
100
AcDbLine
 10
8.0625
 20
4.263302
 30
0.0
 11
8.0625
 21
6.129251
 31
0.0
  0
LINE
  5
39A
330
397
100
AcDbEntity
  8
Dimensions
440
 16777216
370
    -2
100
AcDbLine
 10
8.9375
 20
4.263302
 30
0.0
 11
8.9375
 21
6.129251
 31
0.0
  0
LINE
  5
39B
330
397
100
AcDbEntity
  8
Dimensions
440
 16777216
370
    -2
100
AcDbLine
 10
8.1825
 20
6.029251
 30
0.0
 11
8.275184
 21
6.029251
 31
0.0
  0
LINE
  5
39C
330
397
100
AcDbEntity
  8
Dimensions
440
 16777216
370
    -2
100
AcDbLine
 10
8.8175
 20
6.029251
 30
0.0
 11
8.724816
 21
6.029251
 31
0.0
  0
SOLID
  5
39D
330
397
100
AcDbEntity
  8
Dimensions
440
 16777216
100
AcDbTrace
 10
8.1825
 20
6.049251
 30
0.0
 11
8.1825
 21
6.009251
 31
0.0
 12
8.0625
 22
6.029251
 32
0.0
 13
8.0625
 23
6.029251
 33
0.0
  0
SOLID
  5
39E
330
397
100
AcDbEntity
  8
Dimensions
440
 16777216
100
AcDbTrace
 10
8.8175
 20
6.049251
 30
0.0
 11
8.8175
 21
6.009251
 31
0.0
 12
8.9375
 22
6.029251
 32
0.0
 13
8.9375
 23
6.029251
 33
0.0
  0
MTEXT
  5
39F
330
397
100
AcDbEntity
  8
Dimensions
440
 16777216
100
AcDbMText
 10
8.5
 20
6.029251
 30
0.0
 40
0.12
 41
0.0
 46
0.0
 71
     5
 72
     1
  1
\A1;%%C{\H1x;\S7/8;}in
 73
     1
 44
1.0
  0
POINT
  5
3A0
330
397
100
AcDbEntity
  8
Defpoints
 62
     0
440
 16777216
100
AcDbPoint
 10
8.0625
 20
4.213302
 30
0.0
  0
POINT
  5
3A1
330
397
100
AcDbEntity
  8
Defpoints
 62
     0
440
 16777216
100
AcDbPoint
 10
8.9375
 20
4.213302
 30
0.0
  0
POINT
  5
3A2
330
397
100
AcDbEntity
  8
Defpoints
 62
     0
440
 16777216
100
AcDbPoint
 10
8.9375
 20
6.029251
 30
0.0
  0
ENDBLK
  5
3A3
330
397
100
AcDbEntity
  8
0
100
AcDbBlockEnd
  0
BLOCK
  5
3A6
330
3A5
100
AcDbEntity
  8
0
100
AcDbBlockBegin
  2
*D14
 70
     1
 10
0.0
 20
0.0
 30
0.0
  3
*D14
  1

  0
LINE
  5
3A7
330
3A5
100
AcDbEntity
  8
Dimensions
440
 16777216
370
    -2
100
AcDbLine
 10
8.251
 20
3.8
 30
0.0
 11
8.251
 21
5.207645
 31
0.0
  0
LINE
  5
3A8
330
3A5
100
AcDbEntity
  8
Dimensions
440
 16777216
370
    -2
100
AcDbLine
 10
8.749
 20
3.8
 30
0.0
 11
8.749
 21
5.207645
 31
0.0
  0
LINE
  5
3A9
330
3A5
100
AcDbEntity
  8
Dimensions
440
 16777216
370
    -2
100
AcDbLine
 10
8.131
 20
5.107645
 30
0.0
 11
8.011
 21
5.107645
 31
0.0
  0
LINE
  5
3AA
330
3A5
100
AcDbEntity
  8
Dimensions
440
 16777216
370
    -2
100
AcDbLine
 10
8.869
 20
5.107645
 30
0.0
 11
8.989
 21
5.107645
 31
0.0
  0
SOLID
  5
3AB
330
3A5
100
AcDbEntity
  8
Dimensions
440
 16777216
100
AcDbTrace
 10
8.131
 20
5.127645
 30
0.0
 11
8.131
 21
5.087645
 31
0.0
 12
8.251
 22
5.107645
 32
0.0
 13
8.251
 23
5.107645
 33
0.0
  0
SOLID
  5
3AC
330
3A5
100
AcDbEntity
  8
Dimensions
440
 16777216
100
AcDbTrace
 10
8.869
 20
5.127645
 30
0.0
 11
8.869
 21
5.087645
 31
0.0
 12
8.749
 22
5.107645
 32
0.0
 13
8.749
 23
5.107645
 33
0.0
  0
MTEXT
  5
3AD
330
3A5
100
AcDbEntity
  8
Dimensions
440
 16777216
100
AcDbMText
 10
8.5
 20
5.107645
 30
0.0
 40
0.12
 41
0.0
 46
0.0
 71
     5
 72
     1
  1
\A1;%%C{\H1x;\S1/2;}in
 73
     1
 44
1.0
  0
POINT
  5
3AE
330
3A5
100
AcDbEntity
  8
Defpoints
 62
     0
440
 16777216
100
AcDbPoint
 10
8.251
 20
3.75
 30
0.0
  0
POINT
  5
3AF
330
3A5
100
AcDbEntity
  8
Defpoints
 62
     0
440
 16777216
100
AcDbPoint
 10
8.749
 20
3.75
 30
0.0
  0
POINT
  5
3B0
330
3A5
100
AcDbEntity
  8
Defpoints
 62
     0
440
 16777216
100
AcDbPoint
 10
8.749
 20
5.107645
 30
0.0
  0
ENDBLK
  5
3B1
330
3A5
100
AcDbEntity
  8
0
100
AcDbBlockEnd
  0
BLOCK
  5
3BC
330
3BB
100
AcDbEntity
  8
0
100
AcDbBlockBegin
  2
*D15
 70
     1
 10
0.0
 20
0.0
 30
0.0
  3
*D15
  1

  0
LINE
  5
3BD
330
3BB
100
AcDbEntity
  8
Dimensions
440
 16777216
370
    -2
100
AcDbLine
 10
3.003402
 20
6.253326
 30
0.0
 11
3.123402
 21
6.253326
 31
0.0
  0
LINE
  5
3BE
330
3BB
100
AcDbEntity
  8
Dimensions
440
 16777216
370
    -2
100
AcDbLine
 10
3.123402
 20
6.253326
 30
0.0
 11
3.397706
 21
5.999084
 31
0.0
  0
MTEXT
  5
3BF
330
3BB
100
AcDbEntity
  8
Dimensions
440
 16777216
100
AcDbMText
 10
2.778586
 20
6.253326
 30
0.0
 40
0.12
 41
0.0
 46
0.0
 71
     5
 72
     1
  1
\A1;∅{\H1x;\S7/8;}in
 73
     1
 44
1.0
  0
SOLID
  5
3C0
330
3BB
100
AcDbEntity
  8
Dimensions
440
 16777216
100
AcDbTrace
 10
3.411302
 20
6.013752
 30
0.0
 11
3.384111
 21
5.984415
 31
0.0
 12
3.485717
 22
5.91751
 32
0.0
 13
3.485717
 23
5.91751
 33
0.0
  0
POINT
  5
3C1
330
3BB
100
AcDbEntity
  8
Defpoints
 62
     0
440
 16777216
100
AcDbPoint
 10
3.485717
 20
5.91751
 30
0.0
  0
POINT
  5
3C2
330
3BB
100
AcDbEntity
  8
Defpoints
 62
     0
440
 16777216
100
AcDbPoint
 10
4.127458
 20
5.322705
 30
0.0
  0
ENDBLK
  5
3C3
330
3BB
100
AcDbEntity
  8
0
100
AcDbBlockEnd
  0
BLOCK
  5
3C6
330
3C5
100
AcDbEntity
  8
0
100
AcDbBlockBegin
  2
*D16
 70
     1
 10
0.0
 20
0.0
 30
0.0
  3
*D16
  1

  0
LINE
  5
3C7
330
3C5
100
AcDbEntity
  8
Dimensions
440
 16777216
370
    -2
100
AcDbLine
 10
3.125258
 20
5.821514
 30
0.0
 11
3.245258
 21
5.821514
 31
0.0
  0
LINE
  5
3C8
330
3C5
100
AcDbEntity
  8
Dimensions
440
 16777216
370
    -2
100
AcDbLine
 10
3.245258
 20
5.821514
 30
0.0
 11
3.459267
 21
5.744727
 31
0.0
  0
MTEXT
  5
3C9
330
3C5
100
AcDbEntity
  8
Dimensions
440
 16777216
100
AcDbMText
 10
2.900237
 20
5.821514
 30
0.0
 40
0.12
 41
0.0
 46
0.0
 71
     5
 72
     1
  1
\A1;∅{\H1x;\S1/2;}in
 73
     1
 44
1.0
  0
SOLID
  5
3CA
330
3C5
100
AcDbEntity
  8
Dimensions
440
 16777216
100
AcDbTrace
 10
3.466022
 20
5.763552
 30
0.0
 11
3.452513
 21
5.725902
 31
0.0
 12
3.572217
 22
5.7042
 32
0.0
 13
3.572217
 23
5.7042
 33
0.0
  0
POINT
  5
3CB
330
3C5
100
AcDbEntity
  8
Defpoints
 62
     0
440
 16777216
100
AcDbPoint
 10
3.572217
 20
5.7042
 30
0.0
  0
POINT
  5
3CC
330
3C5
100
AcDbEntity
  8
Defpoints
 62
     0
440
 16777216
100
AcDbPoint
 10
4.040958
 20
5.536015
 30
0.0
  0
ENDBLK
  5
3CD
330
3C5
100
AcDbEntity
  8
0
100
AcDbBlockEnd
  0
BLOCK
  5
3D2
330
3D1
100
AcDbEntity
  8
0
100
AcDbBlockBegin
  2
*D17
 70
     1
 10
0.0
 20
0.0
 30
0.0
  3
*D17
  1

  0
LINE
  5
3D3
330
3D1
100
AcDbEntity
  8
Dimensions
440
 16777216
370
    -2
100
AcDbLine
 10
8.0475
 20
3.75
 30
0.0
 11
6.929792
 21
3.75
 31
0.0
  0
LINE
  5
3D4
330
3D1
100
AcDbEntity
  8
Dimensions
440
 16777216
370
    -2
100
AcDbLine
 10
7.21
 20
3.4375
 30
0.0
 11
6.929792
 21
3.4375
 31
0.0
  0
LINE
  5
3D5
330
3D1
100
AcDbEntity
  8
Dimensions
440
 16777216
370
    -2
100
AcDbLine
 10
7.029792
 20
3.87
 30
0.0
 11
7.029792
 21
3.99
 31
0.0
  0
LINE
  5
3D6
330
3D1
100
AcDbEntity
  8
Dimensions
440
 16777216
370
    -2
100
AcDbLine
 10
7.029792
 20
3.3175
 30
0.0
 11
7.029792
 21
3.1975
 31
0.0
  0
SOLID
  5
3D7
330
3D1
100
AcDbEntity
  8
Dimensions
440
 16777216
100
AcDbTrace
 10
7.009792
 20
3.87
 30
0.0
 11
7.049792
 21
3.87
 31
0.0
 12
7.029792
 22
3.75
 32
0.0
 13
7.029792
 23
3.75
 33
0.0
  0
SOLID
  5
3D8
330
3D1
100
AcDbEntity
  8
Dimensions
440
 16777216
100
AcDbTrace
 10
7.009792
 20
3.3175
 30
0.0
 11
7.049792
 21
3.3175
 31
0.0
 12
7.029792
 22
3.4375
 32
0.0
 13
7.029792
 23
3.4375
 33
0.0
  0
MTEXT
  5
3D9
330
3D1
100
AcDbEntity
  8
Dimensions
440
 16777216
100
AcDbMText
 10
7.029792
 20
3.59375
 30
0.0
 40
0.12
 41
0.0
 46
0.0
 71
     5
 72
     1
  1
\A1;{\H1x;\S3/8;}in
 73
     1
 44
1.0
  0
POINT
  5
3DA
330
3D1
100
AcDbEntity
  8
Defpoints
 62
     0
440
 16777216
100
AcDbPoint
 10
8.0975
 20
3.75
 30
0.0
  0
POINT
  5
3DB
330
3D1
100
AcDbEntity
  8
Defpoints
 62
     0
440
 16777216
100
AcDbPoint
 10
7.26
 20
3.4375
 30
0.0
  0
POINT
  5
3DC
330
3D1
100
AcDbEntity
  8
Defpoints
 62
     0
440
 16777216
100
AcDbPoint
 10
7.029792
 20
3.4375
 30
0.0
  0
ENDBLK
  5
3DD
330
3D1
100
AcDbEntity
  8
0
100
AcDbBlockEnd
  0
BLOCK
  5
3E0
330
3DF
100
AcDbEntity
  8
0
100
AcDbBlockBegin
  2
*D18
 70
     1
 10
0.0
 20
0.0
 30
0.0
  3
*D18
  1

  0
LINE
  5
3E1
330
3DF
100
AcDbEntity
  8
Dimensions
440
 16777216
370
    -2
100
AcDbLine
 10
8.0618
 20
4.1875
 30
0.0
 11
6.271532
 21
4.1875
 31
0.0
  0
LINE
  5
3E2
330
3DF
100
AcDbEntity
  8
Dimensions
440
 16777216
370
    -2
100
AcDbLine
 10
7.21
 20
3.4375
 30
0.0
 11
6.271532
 21
3.4375
 31
0.0
  0
LINE
  5
3E3
330
3DF
100
AcDbEntity
  8
Dimensions
440
 16777216
370
    -2
100
AcDbLine
 10
6.371532
 20
4.3075
 30
0.0
 11
6.371532
 21
4.4275
 31
0.0
  0
LINE
  5
3E4
330
3DF
100
AcDbEntity
  8
Dimensions
440
 16777216
370
    -2
100
AcDbLine
 10
6.371532
 20
3.3175
 30
0.0
 11
6.371532
 21
3.1975
 31
0.0
  0
SOLID
  5
3E5
330
3DF
100
AcDbEntity
  8
Dimensions
440
 16777216
100
AcDbTrace
 10
6.351532
 20
4.3075
 30
0.0
 11
6.391532
 21
4.3075
 31
0.0
 12
6.371532
 22
4.1875
 32
0.0
 13
6.371532
 23
4.1875
 33
0.0
  0
SOLID
  5
3E6
330
3DF
100
AcDbEntity
  8
Dimensions
440
 16777216
100
AcDbTrace
 10
6.351532
 20
3.3175
 30
0.0
 11
6.391532
 21
3.3175
 31
0.0
 12
6.371532
 22
3.4375
 32
0.0
 13
6.371532
 23
3.4375
 33
0.0
  0
MTEXT
  5
3E7
330
3DF
100
AcDbEntity
  8
Dimensions
440
 16777216
100
AcDbMText
 10
6.371532
 20
3.8125
 30
0.0
 40
0.12
 41
0.0
 46
0.0
 71
     5
 72
     1
  1
\A1;{\H1x;\S3/4;}in
 73
     1
 44
1.0
  0
POINT
  5
3E8
330
3DF
100
AcDbEntity
  8
Defpoints
 62
     0
440
 16777216
100
AcDbPoint
 10
8.1118
 20
4.1875
 30
0.0
  0
POINT
  5
3E9
330
3DF
100
AcDbEntity
  8
Defpoints
 62
     0
440
 16777216
100
AcDbPoint
 10
7.26
 20
3.4375
 30
0.0
  0
POINT
  5
3EA
330
3DF
100
AcDbEntity
  8
Defpoints
 62
     0
440
 16777216
100
AcDbPoint
 10
6.371532
 20
3.4375
 30
0.0
  0
ENDBLK
  5
3EB
330
3DF
100
AcDbEntity
  8
0
100
AcDbBlockEnd
  0
BLOCK
  5
3EE
330
3ED
100
AcDbEntity
  8
0
100
AcDbBlockBegin
  2
*D19
 70
     1
 10
0.0
 20
0.0
 30
0.0
  3
*D19
  1

  0
LINE
  5
3EF
330
3ED
100
AcDbEntity
  8
Dimensions
440
 16777216
370
    -2
100
AcDbLine
 10
8.0618
 20
4.1875
 30
0.0
 11
6.634779
 21
4.1875
 31
0.0
  0
LINE
  5
3F0
330
3ED
100
AcDbEntity
  8
Dimensions
440
 16777216
370
    -2
100
AcDbLine
 10
8.0475
 20
3.75
 30
0.0
 11
6.634779
 21
3.75
 31
0.0
  0
LINE
  5
3F1
330
3ED
100
AcDbEntity
  8
Dimensions
440
 16777216
370
    -2
100
AcDbLine
 10
6.734779
 20
4.3075
 30
0.0
 11
6.734779
 21
4.4275
 31
0.0
  0
LINE
  5
3F2
330
3ED
100
AcDbEntity
  8
Dimensions
440
 16777216
370
    -2
100
AcDbLine
 10
6.734779
 20
3.63
 30
0.0
 11
6.734779
 21
3.51
 31
0.0
  0
SOLID
  5
3F3
330
3ED
100
AcDbEntity
  8
Dimensions
440
 16777216
100
AcDbTrace
 10
6.714779
 20
4.3075
 30
0.0
 11
6.754779
 21
4.3075
 31
0.0
 12
6.734779
 22
4.1875
 32
0.0
 13
6.734779
 23
4.1875
 33
0.0
  0
SOLID
  5
3F4
330
3ED
100
AcDbEntity
  8
Dimensions
440
 16777216
100
AcDbTrace
 10
6.714779
 20
3.63
 30
0.0
 11
6.754779
 21
3.63
 31
0.0
 12
6.734779
 22
3.75
 32
0.0
 13
6.734779
 23
3.75
 33
0.0
  0
MTEXT
  5
3F5
330
3ED
100
AcDbEntity
  8
Dimensions
440
 16777216
100
AcDbMText
 10
6.734779
 20
3.96875
 30
0.0
 40
0.12
 41
0.0
 46
0.0
 71
     5
 72
     1
  1
\A1;{\H1x;\S1/2;}in
 73
     1
 44
1.0
  0
POINT
  5
3F6
330
3ED
100
AcDbEntity
  8
Defpoints
 62
     0
440
 16777216
100
AcDbPoint
 10
8.1118
 20
4.1875
 30
0.0
  0
POINT
  5
3F7
330
3ED
100
AcDbEntity
  8
Defpoints
 62
     0
440
 16777216
100
AcDbPoint
 10
8.0975
 20
3.75
 30
0.0
  0
POINT
  5
3F8
330
3ED
100
AcDbEntity
  8
Defpoints
 62
     0
440
 16777216
100
AcDbPoint
 10
6.734779
 20
3.75
 30
0.0
  0
ENDBLK
  5
3F9
330
3ED
100
AcDbEntity
  8
0
100
AcDbBlockEnd
  0
BLOCK
  5
408
330
407
100
AcDbEntity
  8
0
100
AcDbBlockBegin
  2
*D21
 70
     1
 10
0.0
 20
0.0
 30
0.0
  3
*D21
  1

  0
LINE
  5
8A9
330
407
100
AcDbEntity
  8
Dimensions
440
 16777216
370
    -2
100
AcDbLine
 10
7.25
 20
7.4875
 30
0.0
 11
7.25
 21
7.956241
 31
0.0
  0
LINE
  5
8AA
330
407
100
AcDbEntity
  8
Dimensions
440
 16777216
370
    -2
100
AcDbLine
 10
9.75
 20
7.4875
 30
0.0
 11
9.75
 21
7.956241
 31
0.0
  0
LINE
  5
8AB
330
407
100
AcDbEntity
  8
Dimensions
440
 16777216
370
    -2
100
AcDbLine
 10
7.37
 20
7.856241
 30
0.0
 11
8.292619
 21
7.856241
 31
0.0
  0
LINE
  5
8AC
330
407
100
AcDbEntity
  8
Dimensions
440
 16777216
370
    -2
100
AcDbLine
 10
9.63
 20
7.856241
 30
0.0
 11
8.707381
 21
7.856241
 31
0.0
  0
SOLID
  5
8AD
330
407
100
AcDbEntity
  8
Dimensions
440
 16777216
100
AcDbTrace
 10
7.37
 20
7.876241
 30
0.0
 11
7.37
 21
7.836241
 31
0.0
 12
7.25
 22
7.856241
 32
0.0
 13
7.25
 23
7.856241
 33
0.0
  0
SOLID
  5
8AE
330
407
100
AcDbEntity
  8
Dimensions
440
 16777216
100
AcDbTrace
 10
9.63
 20
7.876241
 30
0.0
 11
9.63
 21
7.836241
 31
0.0
 12
9.75
 22
7.856241
 32
0.0
 13
9.75
 23
7.856241
 33
0.0
  0
MTEXT
  5
8AF
330
407
100
AcDbEntity
  8
Dimensions
440
 16777216
100
AcDbMText
 10
8.5
 20
7.856241
 30
0.0
 40
0.12
 41
0.0
 46
0.0
 71
     5
 72
     1
  1
\A1;2{\H1x;\S1/2;}in
 73
     1
 44
1.0
  0
POINT
  5
8B0
330
407
100
AcDbEntity
  8
Defpoints
 62
     0
440
 16777216
100
AcDbPoint
 10
7.25
 20
7.4375
 30
0.0
  0
POINT
  5
8B1
330
407
100
AcDbEntity
  8
Defpoints
 62
     0
440
 16777216
100
AcDbPoint
 10
9.75
 20
7.4375
 30
0.0
  0
POINT
  5
8B2
330
407
100
AcDbEntity
  8
Defpoints
 62
     0
440
 16777216
100
AcDbPoint
 10
9.75
 20
7.856241
 30
0.0
  0
ENDBLK
  5
409
330
407
100
AcDbEntity
  8
0
100
AcDbBlockEnd
  0
BLOCK
  5
415
330
414
100
AcDbEntity
  8
0
100
AcDbBlockBegin
  2
*D22
 70
     1
 10
0.0
 20
0.0
 30
0.0
  3
*D22
  1

  0
LINE
  5
8B3
330
414
100
AcDbEntity
  8
Dimensions
440
 16777216
370
    -2
100
AcDbLine
 10
7.325
 20
7.5625
 30
0.0
 11
6.024573
 21
7.5625
 31
0.0
  0
LINE
  5
8B4
330
414
100
AcDbEntity
  8
Dimensions
440
 16777216
370
    -2
100
AcDbLine
 10
7.21
 20
3.4375
 30
0.0
 11
6.024573
 21
3.4375
 31
0.0
  0
LINE
  5
8B5
330
414
100
AcDbEntity
  8
Dimensions
440
 16777216
370
    -2
100
AcDbLine
 10
6.124573
 20
7.4425
 30
0.0
 11
6.124573
 21
5.701514
 31
0.0
  0
LINE
  5
8B6
330
414
100
AcDbEntity
  8
Dimensions
440
 16777216
370
    -2
100
AcDbLine
 10
6.124573
 20
3.5575
 30
0.0
 11
6.124573
 21
5.298486
 31
0.0
  0
SOLID
  5
8B7
330
414
100
AcDbEntity
  8
Dimensions
440
 16777216
100
AcDbTrace
 10
6.104573
 20
7.4425
 30
0.0
 11
6.144573
 21
7.4425
 31
0.0
 12
6.124573
 22
7.5625
 32
0.0
 13
6.124573
 23
7.5625
 33
0.0
  0
SOLID
  5
8B8
330
414
100
AcDbEntity
  8
Dimensions
440
 16777216
100
AcDbTrace
 10
6.104573
 20
3.5575
 30
0.0
 11
6.144573
 21
3.5575
 31
0.0
 12
6.124573
 22
3.4375
 32
0.0
 13
6.124573
 23
3.4375
 33
0.0
  0
MTEXT
  5
8B9
330
414
100
AcDbEntity
  8
Dimensions
440
 16777216
100
AcDbMText
 10
6.124573
 20
5.5
 30
0.0
 40
0.12
 41
0.0
 46
0.0
 71
     5
 72
     1
  1
\A1;4{\H1x;\S1/8;}in
 73
     1
 44
1.0
  0
POINT
  5
8BA
330
414
100
AcDbEntity
  8
Defpoints
 62
     0
440
 16777216
100
AcDbPoint
 10
7.375
 20
7.5625
 30
0.0
  0
POINT
  5
8BB
330
414
100
AcDbEntity
  8
Defpoints
 62
     0
440
 16777216
100
AcDbPoint
 10
7.26
 20
3.4375
 30
0.0
  0
POINT
  5
8BC
330
414
100
AcDbEntity
  8
Defpoints
 62
     0
440
 16777216
100
AcDbPoint
 10
6.124573
 20
3.4375
 30
0.0
  0
ENDBLK
  5
416
330
414
100
AcDbEntity
  8
0
100
AcDbBlockEnd
  0
BLOCK
  5
422
330
421
100
AcDbEntity
  8
0
100
AcDbBlockBegin
  2
*D23
 70
     1
 10
0.0
 20
0.0
 30
0.0
  3
*D23
  1

  0
LINE
  5
8BD
330
421
100
AcDbEntity
  8
Dimensions
440
 16777216
370
    -2
100
AcDbLine
 10
1.375
 20
9.361781
 30
0.0
 11
1.375
 21
9.950925
 31
0.0
  0
LINE
  5
8BE
330
421
100
AcDbEntity
  8
Dimensions
440
 16777216
370
    -2
100
AcDbLine
 10
2.125
 20
9.361781
 30
0.0
 11
2.125
 21
9.950925
 31
0.0
  0
LINE
  5
8BF
330
421
100
AcDbEntity
  8
Dimensions
440
 16777216
370
    -2
100
AcDbLine
 10
1.255
 20
9.850925
 30
0.0
 11
1.135
 21
9.850925
 31
0.0
  0
LINE
  5
8C0
330
421
100
AcDbEntity
  8
Dimensions
440
 16777216
370
    -2
100
AcDbLine
 10
2.245
 20
9.850925
 30
0.0
 11
2.365
 21
9.850925
 31
0.0
  0
SOLID
  5
8C1
330
421
100
AcDbEntity
  8
Dimensions
440
 16777216
100
AcDbTrace
 10
1.255
 20
9.870925
 30
0.0
 11
1.255
 21
9.830925
 31
0.0
 12
1.375
 22
9.850925
 32
0.0
 13
1.375
 23
9.850925
 33
0.0
  0
SOLID
  5
8C2
330
421
100
AcDbEntity
  8
Dimensions
440
 16777216
100
AcDbTrace
 10
2.245
 20
9.870925
 30
0.0
 11
2.245
 21
9.830925
 31
0.0
 12
2.125
 22
9.850925
 32
0.0
 13
2.125
 23
9.850925
 33
0.0
  0
MTEXT
  5
8C3
330
421
100
AcDbEntity
  8
Dimensions
440
 16777216
100
AcDbMText
 10
1.75
 20
9.850925
 30
0.0
 40
0.12
 41
0.0
 46
0.0
 71
     5
 72
     1
  1
\A1;12in
 73
     1
 44
1.0
  0
POINT
  5
8C4
330
421
100
AcDbEntity
  8
Defpoints
 62
     0
440
 16777216
100
AcDbPoint
 10
1.375
 20
9.311781
 30
0.0
  0
POINT
  5
8C5
330
421
100
AcDbEntity
  8
Defpoints
 62
     0
440
 16777216
100
AcDbPoint
 10
2.125
 20
9.311781
 30
0.0
  0
POINT
  5
8C6
330
421
100
AcDbEntity
  8
Defpoints
 62
     0
440
 16777216
100
AcDbPoint
 10
2.125
 20
9.850925
 30
0.0
  0
ENDBLK
  5
423
330
421
100
AcDbEntity
  8
0
100
AcDbBlockEnd
  0
BLOCK
  5
42F
330
42E
100
AcDbEntity
  8
0
100
AcDbBlockBegin
  2
*D24
 70
     1
 10
0.0
 20
0.0
 30
0.0
  3
*D24
  1

  0
LINE
  5
8C7
330
42E
100
AcDbEntity
  8
Dimensions
440
 16777216
370
    -2
100
AcDbLine
 10
1.0
 20
9.439906
 30
0.0
 11
1.0
 21
9.684546
 31
0.0
  0
LINE
  5
8C8
330
42E
100
AcDbEntity
  8
Dimensions
440
 16777216
370
    -2
100
AcDbLine
 10
1.375
 20
9.361781
 30
0.0
 11
1.375
 21
9.684546
 31
0.0
  0
LINE
  5
8C9
330
42E
100
AcDbEntity
  8
Dimensions
440
 16777216
370
    -2
100
AcDbLine
 10
0.88
 20
9.584546
 30
0.0
 11
0.76
 21
9.584546
 31
0.0
  0
LINE
  5
8CA
330
42E
100
AcDbEntity
  8
Dimensions
440
 16777216
370
    -2
100
AcDbLine
 10
1.495
 20
9.584546
 30
0.0
 11
1.615
 21
9.584546
 31
0.0
  0
SOLID
  5
8CB
330
42E
100
AcDbEntity
  8
Dimensions
440
 16777216
100
AcDbTrace
 10
0.88
 20
9.604546
 30
0.0
 11
0.88
 21
9.564546
 31
0.0
 12
1.0
 22
9.584546
 32
0.0
 13
1.0
 23
9.584546
 33
0.0
  0
SOLID
  5
8CC
330
42E
100
AcDbEntity
  8
Dimensions
440
 16777216
100
AcDbTrace
 10
1.495
 20
9.604546
 30
0.0
 11
1.495
 21
9.564546
 31
0.0
 12
1.375
 22
9.584546
 32
0.0
 13
1.375
 23
9.584546
 33
0.0
  0
MTEXT
  5
8CD
330
42E
100
AcDbEntity
  8
Dimensions
440
 16777216
100
AcDbMText
 10
1.182988
 20
9.584546
 30
0.0
 40
0.12
 41
0.0
 46
0.0
 71
     5
 72
     1
  1
\A1;6in
 73
     1
 44
1.0
  0
POINT
  5
8CE
330
42E
100
AcDbEntity
  8
Defpoints
 62
     0
440
 16777216
100
AcDbPoint
 10
1.0
 20
9.389906
 30
0.0
  0
POINT
  5
8CF
330
42E
100
AcDbEntity
  8
Defpoints
 62
     0
440
 16777216
100
AcDbPoint
 10
1.375
 20
9.311781
 30
0.0
  0
POINT
  5
8D0
330
42E
100
AcDbEntity
  8
Defpoints
 62
     0
440
 16777216
100
AcDbPoint
 10
1.375
 20
9.584546
 30
0.0
  0
ENDBLK
  5
430
330
42E
100
AcDbEntity
  8
0
100
AcDbBlockEnd
  0
BLOCK
  5
43C
330
43B
100
AcDbEntity
  8
0
100
AcDbBlockBegin
  2
*D25
 70
     1
 10
0.0
 20
0.0
 30
0.0
  3
*D25
  1

  0
LINE
  5
8D1
330
43B
100
AcDbEntity
  8
Dimensions
440
 16777216
370
    -2
100
AcDbLine
 10
1.0
 20
9.439906
 30
0.0
 11
1.0
 21
10.168728
 31
0.0
  0
LINE
  5
8D2
330
43B
100
AcDbEntity
  8
Dimensions
440
 16777216
370
    -2
100
AcDbLine
 10
16.0
 20
9.439906
 30
0.0
 11
16.0
 21
10.168728
 31
0.0
  0
LINE
  5
8D3
330
43B
100
AcDbEntity
  8
Dimensions
440
 16777216
370
    -2
100
AcDbLine
 10
1.12
 20
10.068728
 30
0.0
 11
8.243138
 21
10.068728
 31
0.0
  0
LINE
  5
8D4
330
43B
100
AcDbEntity
  8
Dimensions
440
 16777216
370
    -2
100
AcDbLine
 10
15.88
 20
10.068728
 30
0.0
 11
8.756862
 21
10.068728
 31
0.0
  0
SOLID
  5
8D5
330
43B
100
AcDbEntity
  8
Dimensions
440
 16777216
100
AcDbTrace
 10
1.12
 20
10.088728
 30
0.0
 11
1.12
 21
10.048728
 31
0.0
 12
1.0
 22
10.068728
 32
0.0
 13
1.0
 23
10.068728
 33
0.0
  0
SOLID
  5
8D6
330
43B
100
AcDbEntity
  8
Dimensions
440
 16777216
100
AcDbTrace
 10
15.88
 20
10.088728
 30
0.0
 11
15.88
 21
10.048728
 31
0.0
 12
16.0
 22
10.068728
 32
0.0
 13
16.0
 23
10.068728
 33
0.0
  0
MTEXT
  5
8D7
330
43B
100
AcDbEntity
  8
Dimensions
440
 16777216
100
AcDbMText
 10
8.5
 20
10.068728
 30
0.0
 40
0.12
 41
0.0
 46
0.0
 71
     5
 72
     1
  1
\A1;240in
 73
     1
 44
1.0
  0
POINT
  5
8D8
330
43B
100
AcDbEntity
  8
Defpoints
 62
     0
440
 16777216
100
AcDbPoint
 10
1.0
 20
9.389906
 30
0.0
  0
POINT
  5
8D9
330
43B
100
AcDbEntity
  8
Defpoints
 62
     0
440
 16777216
100
AcDbPoint
 10
16.0
 20
9.389906
 30
0.0
  0
POINT
  5
8DA
330
43B
100
AcDbEntity
  8
Defpoints
 62
     0
440
 16777216
100
AcDbPoint
 10
16.0
 20
10.068728
 30
0.0
  0
ENDBLK
  5
43D
330
43B
100
AcDbEntity
  8
0
100
AcDbBlockEnd
  0
BLOCK
  5
449
330
448
100
AcDbEntity
  8
0
100
AcDbBlockBegin
  2
*D26
 70
     1
 10
0.0
 20
0.0
 30
0.0
  3
*D26
  1

  0
LINE
  5
8DB
330
448
100
AcDbEntity
  8
Dimensions
440
 16777216
370
    -2
100
AcDbLine
 10
16.0
 20
9.439906
 30
0.0
 11
16.0
 21
9.637492
 31
0.0
  0
LINE
  5
8DC
330
448
100
AcDbEntity
  8
Dimensions
440
 16777216
370
    -2
100
AcDbLine
 10
15.625
 20
9.361781
 30
0.0
 11
15.625
 21
9.637492
 31
0.0
  0
LINE
  5
8DD
330
448
100
AcDbEntity
  8
Dimensions
440
 16777216
370
    -2
100
AcDbLine
 10
16.12
 20
9.537492
 30
0.0
 11
16.24
 21
9.537492
 31
0.0
  0
LINE
  5
8DE
330
448
100
AcDbEntity
  8
Dimensions
440
 16777216
370
    -2
100
AcDbLine
 10
15.505
 20
9.537492
 30
0.0
 11
15.385
 21
9.537492
 31
0.0
  0
SOLID
  5
8DF
330
448
100
AcDbEntity
  8
Dimensions
440
 16777216
100
AcDbTrace
 10
16.12
 20
9.557492
 30
0.0
 11
16.12
 21
9.517492
 31
0.0
 12
16.0
 22
9.537492
 32
0.0
 13
16.0
 23
9.537492
 33
0.0
  0
SOLID
  5
8E0
330
448
100
AcDbEntity
  8
Dimensions
440
 16777216
100
AcDbTrace
 10
15.505
 20
9.557492
 30
0.0
 11
15.505
 21
9.517492
 31
0.0
 12
15.625
 22
9.537492
 32
0.0
 13
15.625
 23
9.537492
 33
0.0
  0
MTEXT
  5
8E1
330
448
100
AcDbEntity
  8
Dimensions
440
 16777216
100
AcDbMText
 10
15.829853
 20
9.537492
 30
0.0
 40
0.12
 41
0.0
 46
0.0
 71
     5
 72
     1
  1
\A1;6in
 73
     1
 44
1.0
  0
POINT
  5
8E2
330
448
100
AcDbEntity
  8
Defpoints
 62
     0
440
 16777216
100
AcDbPoint
 10
16.0
 20
9.389906
 30
0.0
  0
POINT
  5
8E3
330
448
100
AcDbEntity
  8
Defpoints
 62
     0
440
 16777216
100
AcDbPoint
 10
15.625
 20
9.311781
 30
0.0
  0
POINT
  5
8E4
330
448
100
AcDbEntity
  8
Defpoints
 62
     0
440
 16777216
100
AcDbPoint
 10
15.625
 20
9.537492
 30
0.0
  0
ENDBLK
  5
44A
330
448
100
AcDbEntity
  8
0
100
AcDbBlockEnd
  0
BLOCK
  5
456
330
455
100
AcDbEntity
  8
0
100
AcDbBlockBegin
  2
*D27
 70
     1
 10
0.0
 20
0.0
 30
0.0
  3
*D27
  1

  0
LINE
  5
8E5
330
455
100
AcDbEntity
  8
Dimensions
440
 16777216
370
    -2
100
AcDbLine
 10
15.625
 20
9.361781
 30
0.0
 11
15.625
 21
9.885136
 31
0.0
  0
LINE
  5
8E6
330
455
100
AcDbEntity
  8
Dimensions
440
 16777216
370
    -2
100
AcDbLine
 10
14.875
 20
9.361781
 30
0.0
 11
14.875
 21
9.885136
 31
0.0
  0
LINE
  5
8E7
330
455
100
AcDbEntity
  8
Dimensions
440
 16777216
370
    -2
100
AcDbLine
 10
15.745
 20
9.785136
 30
0.0
 11
15.865
 21
9.785136
 31
0.0
  0
LINE
  5
8E8
330
455
100
AcDbEntity
  8
Dimensions
440
 16777216
370
    -2
100
AcDbLine
 10
14.755
 20
9.785136
 30
0.0
 11
14.635
 21
9.785136
 31
0.0
  0
SOLID
  5
8E9
330
455
100
AcDbEntity
  8
Dimensions
440
 16777216
100
AcDbTrace
 10
15.745
 20
9.805136
 30
0.0
 11
15.745
 21
9.765136
 31
0.0
 12
15.625
 22
9.785136
 32
0.0
 13
15.625
 23
9.785136
 33
0.0
  0
SOLID
  5
8EA
330
455
100
AcDbEntity
  8
Dimensions
440
 16777216
100
AcDbTrace
 10
14.755
 20
9.805136
 30
0.0
 11
14.755
 21
9.765136
 31
0.0
 12
14.875
 22
9.785136
 32
0.0
 13
14.875
 23
9.785136
 33
0.0
  0
MTEXT
  5
8EB
330
455
100
AcDbEntity
  8
Dimensions
440
 16777216
100
AcDbMText
 10
15.25
 20
9.785136
 30
0.0
 40
0.12
 41
0.0
 46
0.0
 71
     5
 72
     1
  1
\A1;12in
 73
     1
 44
1.0
  0
POINT
  5
8EC
330
455
100
AcDbEntity
  8
Defpoints
 62
     0
440
 16777216
100
AcDbPoint
 10
15.625
 20
9.311781
 30
0.0
  0
POINT
  5
8ED
330
455
100
AcDbEntity
  8
Defpoints
 62
     0
440
 16777216
100
AcDbPoint
 10
14.875
 20
9.311781
 30
0.0
  0
POINT
  5
8EE
330
455
100
AcDbEntity
  8
Defpoints
 62
     0
440
 16777216
100
AcDbPoint
 10
14.875
 20
9.785136
 30
0.0
  0
ENDBLK
  5
457
330
455
100
AcDbEntity
  8
0
100
AcDbBlockEnd
  0
BLOCK
  5
463
330
462
100
AcDbEntity
  8
0
100
AcDbBlockBegin
  2
*D28
 70
     1
 10
0.0
 20
0.0
 30
0.0
  3
*D28
  1

  0
LINE
  5
8EF
330
462
100
AcDbEntity
  8
Dimensions
440
 16777216
370
    -2
100
AcDbLine
 10
8.0625
 20
4.263302
 30
0.0
 11
8.0625
 21
6.129251
 31
0.0
  0
LINE
  5
8F0
330
462
100
AcDbEntity
  8
Dimensions
440
 16777216
370
    -2
100
AcDbLine
 10
8.9375
 20
4.263302
 30
0.0
 11
8.9375
 21
6.129251
 31
0.0
  0
LINE
  5
8F1
330
462
100
AcDbEntity
  8
Dimensions
440
 16777216
370
    -2
100
AcDbLine
 10
8.1825
 20
6.029251
 30
0.0
 11
8.275184
 21
6.029251
 31
0.0
  0
LINE
  5
8F2
330
462
100
AcDbEntity
  8
Dimensions
440
 16777216
370
    -2
100
AcDbLine
 10
8.8175
 20
6.029251
 30
0.0
 11
8.724816
 21
6.029251
 31
0.0
  0
SOLID
  5
8F3
330
462
100
AcDbEntity
  8
Dimensions
440
 16777216
100
AcDbTrace
 10
8.1825
 20
6.049251
 30
0.0
 11
8.1825
 21
6.009251
 31
0.0
 12
8.0625
 22
6.029251
 32
0.0
 13
8.0625
 23
6.029251
 33
0.0
  0
SOLID
  5
8F4
330
462
100
AcDbEntity
  8
Dimensions
440
 16777216
100
AcDbTrace
 10
8.8175
 20
6.049251
 30
0.0
 11
8.8175
 21
6.009251
 31
0.0
 12
8.9375
 22
6.029251
 32
0.0
 13
8.9375
 23
6.029251
 33
0.0
  0
MTEXT
  5
8F5
330
462
100
AcDbEntity
  8
Dimensions
440
 16777216
100
AcDbMText
 10
8.5
 20
6.029251
 30
0.0
 40
0.12
 41
0.0
 46
0.0
 71
     5
 72
     1
  1
\A1;%%C{\H1x;\S7/8;}in
 73
     1
 44
1.0
  0
POINT
  5
8F6
330
462
100
AcDbEntity
  8
Defpoints
 62
     0
440
 16777216
100
AcDbPoint
 10
8.0625
 20
4.213302
 30
0.0
  0
POINT
  5
8F7
330
462
100
AcDbEntity
  8
Defpoints
 62
     0
440
 16777216
100
AcDbPoint
 10
8.9375
 20
4.213302
 30
0.0
  0
POINT
  5
8F8
330
462
100
AcDbEntity
  8
Defpoints
 62
     0
440
 16777216
100
AcDbPoint
 10
8.9375
 20
6.029251
 30
0.0
  0
ENDBLK
  5
464
330
462
100
AcDbEntity
  8
0
100
AcDbBlockEnd
  0
BLOCK
  5
470
330
46F
100
AcDbEntity
  8
0
100
AcDbBlockBegin
  2
*D29
 70
     1
 10
0.0
 20
0.0
 30
0.0
  3
*D29
  1

  0
LINE
  5
8F9
330
46F
100
AcDbEntity
  8
Dimensions
440
 16777216
370
    -2
100
AcDbLine
 10
8.251
 20
3.8
 30
0.0
 11
8.251
 21
5.207645
 31
0.0
  0
LINE
  5
8FA
330
46F
100
AcDbEntity
  8
Dimensions
440
 16777216
370
    -2
100
AcDbLine
 10
8.749
 20
3.8
 30
0.0
 11
8.749
 21
5.207645
 31
0.0
  0
LINE
  5
8FB
330
46F
100
AcDbEntity
  8
Dimensions
440
 16777216
370
    -2
100
AcDbLine
 10
8.131
 20
5.107645
 30
0.0
 11
8.011
 21
5.107645
 31
0.0
  0
LINE
  5
8FC
330
46F
100
AcDbEntity
  8
Dimensions
440
 16777216
370
    -2
100
AcDbLine
 10
8.869
 20
5.107645
 30
0.0
 11
8.989
 21
5.107645
 31
0.0
  0
SOLID
  5
8FD
330
46F
100
AcDbEntity
  8
Dimensions
440
 16777216
100
AcDbTrace
 10
8.131
 20
5.127645
 30
0.0
 11
8.131
 21
5.087645
 31
0.0
 12
8.251
 22
5.107645
 32
0.0
 13
8.251
 23
5.107645
 33
0.0
  0
SOLID
  5
8FE
330
46F
100
AcDbEntity
  8
Dimensions
440
 16777216
100
AcDbTrace
 10
8.869
 20
5.127645
 30
0.0
 11
8.869
 21
5.087645
 31
0.0
 12
8.749
 22
5.107645
 32
0.0
 13
8.749
 23
5.107645
 33
0.0
  0
MTEXT
  5
8FF
330
46F
100
AcDbEntity
  8
Dimensions
440
 16777216
100
AcDbMText
 10
8.5
 20
5.107645
 30
0.0
 40
0.12
 41
0.0
 46
0.0
 71
     5
 72
     1
  1
\A1;%%C{\H1x;\S1/2;}in
 73
     1
 44
1.0
  0
POINT
  5
900
330
46F
100
AcDbEntity
  8
Defpoints
 62
     0
440
 16777216
100
AcDbPoint
 10
8.251
 20
3.75
 30
0.0
  0
POINT
  5
901
330
46F
100
AcDbEntity
  8
Defpoints
 62
     0
440
 16777216
100
AcDbPoint
 10
8.749
 20
3.75
 30
0.0
  0
POINT
  5
902
330
46F
100
AcDbEntity
  8
Defpoints
 62
     0
440
 16777216
100
AcDbPoint
 10
8.749
 20
5.107645
 30
0.0
  0
ENDBLK
  5
471
330
46F
100
AcDbEntity
  8
0
100
AcDbBlockEnd
  0
BLOCK
  5
47D
330
47C
100
AcDbEntity
  8
0
100
AcDbBlockBegin
  2
*D30
 70
     1
 10
0.0
 20
0.0
 30
0.0
  3
*D30
  1

  0
LINE
  5
903
330
47C
100
AcDbEntity
  8
Dimensions
440
 16777216
370
    -2
100
AcDbLine
 10
3.003402
 20
6.253326
 30
0.0
 11
3.123402
 21
6.253326
 31
0.0
  0
LINE
  5
904
330
47C
100
AcDbEntity
  8
Dimensions
440
 16777216
370
    -2
100
AcDbLine
 10
3.123402
 20
6.253326
 30
0.0
 11
3.397706
 21
5.999084
 31
0.0
  0
MTEXT
  5
905
330
47C
100
AcDbEntity
  8
Dimensions
440
 16777216
100
AcDbMText
 10
2.778586
 20
6.253326
 30
0.0
 40
0.12
 41
0.0
 46
0.0
 71
     5
 72
     1
  1
\A1;∅{\H1x;\S7/8;}in
 73
     1
 44
1.0
  0
SOLID
  5
906
330
47C
100
AcDbEntity
  8
Dimensions
440
 16777216
100
AcDbTrace
 10
3.411302
 20
6.013752
 30
0.0
 11
3.384111
 21
5.984415
 31
0.0
 12
3.485717
 22
5.91751
 32
0.0
 13
3.485717
 23
5.91751
 33
0.0
  0
POINT
  5
907
330
47C
100
AcDbEntity
  8
Defpoints
 62
     0
440
 16777216
100
AcDbPoint
 10
3.485717
 20
5.91751
 30
0.0
  0
POINT
  5
908
330
47C
100
AcDbEntity
  8
Defpoints
 62
     0
440
 16777216
100
AcDbPoint
 10
4.127458
 20
5.322705
 30
0.0
  0
ENDBLK
  5
47E
330
47C
100
AcDbEntity
  8
0
100
AcDbBlockEnd
  0
BLOCK
  5
486
330
485
100
AcDbEntity
  8
0
100
AcDbBlockBegin
  2
*D31
 70
     1
 10
0.0
 20
0.0
 30
0.0
  3
*D31
  1

  0
LINE
  5
909
330
485
100
AcDbEntity
  8
Dimensions
440
 16777216
370
    -2
100
AcDbLine
 10
3.125258
 20
5.821514
 30
0.0
 11
3.245258
 21
5.821514
 31
0.0
  0
LINE
  5
90A
330
485
100
AcDbEntity
  8
Dimensions
440
 16777216
370
    -2
100
AcDbLine
 10
3.245258
 20
5.821514
 30
0.0
 11
3.459267
 21
5.744727
 31
0.0
  0
MTEXT
  5
90B
330
485
100
AcDbEntity
  8
Dimensions
440
 16777216
100
AcDbMText
 10
2.900237
 20
5.821514
 30
0.0
 40
0.12
 41
0.0
 46
0.0
 71
     5
 72
     1
  1
\A1;∅{\H1x;\S1/2;}in
 73
     1
 44
1.0
  0
SOLID
  5
90C
330
485
100
AcDbEntity
  8
Dimensions
440
 16777216
100
AcDbTrace
 10
3.466022
 20
5.763552
 30
0.0
 11
3.452513
 21
5.725902
 31
0.0
 12
3.572217
 22
5.7042
 32
0.0
 13
3.572217
 23
5.7042
 33
0.0
  0
POINT
  5
90D
330
485
100
AcDbEntity
  8
Defpoints
 62
     0
440
 16777216
100
AcDbPoint
 10
3.572217
 20
5.7042
 30
0.0
  0
POINT
  5
90E
330
485
100
AcDbEntity
  8
Defpoints
 62
     0
440
 16777216
100
AcDbPoint
 10
4.040958
 20
5.536015
 30
0.0
  0
ENDBLK
  5
487
330
485
100
AcDbEntity
  8
0
100
AcDbBlockEnd
  0
BLOCK
  5
48F
330
48E
100
AcDbEntity
  8
0
100
AcDbBlockBegin
  2
*D32
 70
     1
 10
0.0
 20
0.0
 30
0.0
  3
*D32
  1

  0
LINE
  5
90F
330
48E
100
AcDbEntity
  8
Dimensions
440
 16777216
370
    -2
100
AcDbLine
 10
8.0475
 20
3.75
 30
0.0
 11
6.929792
 21
3.75
 31
0.0
  0
LINE
  5
910
330
48E
100
AcDbEntity
  8
Dimensions
440
 16777216
370
    -2
100
AcDbLine
 10
7.21
 20
3.4375
 30
0.0
 11
6.929792
 21
3.4375
 31
0.0
  0
LINE
  5
911
330
48E
100
AcDbEntity
  8
Dimensions
440
 16777216
370
    -2
100
AcDbLine
 10
7.029792
 20
3.87
 30
0.0
 11
7.029792
 21
3.99
 31
0.0
  0
LINE
  5
912
330
48E
100
AcDbEntity
  8
Dimensions
440
 16777216
370
    -2
100
AcDbLine
 10
7.029792
 20
3.3175
 30
0.0
 11
7.029792
 21
3.1975
 31
0.0
  0
SOLID
  5
913
330
48E
100
AcDbEntity
  8
Dimensions
440
 16777216
100
AcDbTrace
 10
7.009792
 20
3.87
 30
0.0
 11
7.049792
 21
3.87
 31
0.0
 12
7.029792
 22
3.75
 32
0.0
 13
7.029792
 23
3.75
 33
0.0
  0
SOLID
  5
914
330
48E
100
AcDbEntity
  8
Dimensions
440
 16777216
100
AcDbTrace
 10
7.009792
 20
3.3175
 30
0.0
 11
7.049792
 21
3.3175
 31
0.0
 12
7.029792
 22
3.4375
 32
0.0
 13
7.029792
 23
3.4375
 33
0.0
  0
MTEXT
  5
915
330
48E
100
AcDbEntity
  8
Dimensions
440
 16777216
100
AcDbMText
 10
7.029792
 20
3.59375
 30
0.0
 40
0.12
 41
0.0
 46
0.0
 71
     5
 72
     1
  1
\A1;{\H1x;\S3/8;}in
 73
     1
 44
1.0
  0
POINT
  5
916
330
48E
100
AcDbEntity
  8
Defpoints
 62
     0
440
 16777216
100
AcDbPoint
 10
8.0975
 20
3.75
 30
0.0
  0
POINT
  5
917
330
48E
100
AcDbEntity
  8
Defpoints
 62
     0
440
 16777216
100
AcDbPoint
 10
7.26
 20
3.4375
 30
0.0
  0
POINT
  5
918
330
48E
100
AcDbEntity
  8
Defpoints
 62
     0
440
 16777216
100
AcDbPoint
 10
7.029792
 20
3.4375
 30
0.0
  0
ENDBLK
  5
490
330
48E
100
AcDbEntity
  8
0
100
AcDbBlockEnd
  0
BLOCK
  5
49C
330
49B
100
AcDbEntity
  8
0
100
AcDbBlockBegin
  2
*D33
 70
     1
 10
0.0
 20
0.0
 30
0.0
  3
*D33
  1

  0
LINE
  5
919
330
49B
100
AcDbEntity
  8
Dimensions
440
 16777216
370
    -2
100
AcDbLine
 10
8.0618
 20
4.1875
 30
0.0
 11
6.271532
 21
4.1875
 31
0.0
  0
LINE
  5
91A
330
49B
100
AcDbEntity
  8
Dimensions
440
 16777216
370
    -2
100
AcDbLine
 10
7.21
 20
3.4375
 30
0.0
 11
6.271532
 21
3.4375
 31
0.0
  0
LINE
  5
91B
330
49B
100
AcDbEntity
  8
Dimensions
440
 16777216
370
    -2
100
AcDbLine
 10
6.371532
 20
4.3075
 30
0.0
 11
6.371532
 21
4.4275
 31
0.0
  0
LINE
  5
91C
330
49B
100
AcDbEntity
  8
Dimensions
440
 16777216
370
    -2
100
AcDbLine
 10
6.371532
 20
3.3175
 30
0.0
 11
6.371532
 21
3.1975
 31
0.0
  0
SOLID
  5
91D
330
49B
100
AcDbEntity
  8
Dimensions
440
 16777216
100
AcDbTrace
 10
6.351532
 20
4.3075
 30
0.0
 11
6.391532
 21
4.3075
 31
0.0
 12
6.371532
 22
4.1875
 32
0.0
 13
6.371532
 23
4.1875
 33
0.0
  0
SOLID
  5
91E
330
49B
100
AcDbEntity
  8
Dimensions
440
 16777216
100
AcDbTrace
 10
6.351532
 20
3.3175
 30
0.0
 11
6.391532
 21
3.3175
 31
0.0
 12
6.371532
 22
3.4375
 32
0.0
 13
6.371532
 23
3.4375
 33
0.0
  0
MTEXT
  5
91F
330
49B
100
AcDbEntity
  8
Dimensions
440
 16777216
100
AcDbMText
 10
6.371532
 20
3.8125
 30
0.0
 40
0.12
 41
0.0
 46
0.0
 71
     5
 72
     1
  1
\A1;{\H1x;\S3/4;}in
 73
     1
 44
1.0
  0
POINT
  5
920
330
49B
100
AcDbEntity
  8
Defpoints
 62
     0
440
 16777216
100
AcDbPoint
 10
8.1118
 20
4.1875
 30
0.0
  0
POINT
  5
921
330
49B
100
AcDbEntity
  8
Defpoints
 62
     0
440
 16777216
100
AcDbPoint
 10
7.26
 20
3.4375
 30
0.0
  0
POINT
  5
922
330
49B
100
AcDbEntity
  8
Defpoints
 62
     0
440
 16777216
100
AcDbPoint
 10
6.371532
 20
3.4375
 30
0.0
  0
ENDBLK
  5
49D
330
49B
100
AcDbEntity
  8
0
100
AcDbBlockEnd
  0
BLOCK
  5
4A9
330
4A8
100
AcDbEntity
  8
0
100
AcDbBlockBegin
  2
*D34
 70
     1
 10
0.0
 20
0.0
 30
0.0
  3
*D34
  1

  0
LINE
  5
923
330
4A8
100
AcDbEntity
  8
Dimensions
440
 16777216
370
    -2
100
AcDbLine
 10
8.0618
 20
4.1875
 30
0.0
 11
6.634779
 21
4.1875
 31
0.0
  0
LINE
  5
924
330
4A8
100
AcDbEntity
  8
Dimensions
440
 16777216
370
    -2
100
AcDbLine
 10
8.0475
 20
3.75
 30
0.0
 11
6.634779
 21
3.75
 31
0.0
  0
LINE
  5
925
330
4A8
100
AcDbEntity
  8
Dimensions
440
 16777216
370
    -2
100
AcDbLine
 10
6.734779
 20
4.3075
 30
0.0
 11
6.734779
 21
4.4275
 31
0.0
  0
LINE
  5
926
330
4A8
100
AcDbEntity
  8
Dimensions
440
 16777216
370
    -2
100
AcDbLine
 10
6.734779
 20
3.63
 30
0.0
 11
6.734779
 21
3.51
 31
0.0
  0
SOLID
  5
927
330
4A8
100
AcDbEntity
  8
Dimensions
440
 16777216
100
AcDbTrace
 10
6.714779
 20
4.3075
 30
0.0
 11
6.754779
 21
4.3075
 31
0.0
 12
6.734779
 22
4.1875
 32
0.0
 13
6.734779
 23
4.1875
 33
0.0
  0
SOLID
  5
928
330
4A8
100
AcDbEntity
  8
Dimensions
440
 16777216
100
AcDbTrace
 10
6.714779
 20
3.63
 30
0.0
 11
6.754779
 21
3.63
 31
0.0
 12
6.734779
 22
3.75
 32
0.0
 13
6.734779
 23
3.75
 33
0.0
  0
MTEXT
  5
929
330
4A8
100
AcDbEntity
  8
Dimensions
440
 16777216
100
AcDbMText
 10
6.734779
 20
3.96875
 30
0.0
 40
0.12
 41
0.0
 46
0.0
 71
     5
 72
     1
  1
\A1;{\H1x;\S1/2;}in
 73
     1
 44
1.0
  0
POINT
  5
92A
330
4A8
100
AcDbEntity
  8
Defpoints
 62
     0
440
 16777216
100
AcDbPoint
 10
8.1118
 20
4.1875
 30
0.0
  0
POINT
  5
92B
330
4A8
100
AcDbEntity
  8
Defpoints
 62
     0
440
 16777216
100
AcDbPoint
 10
8.0975
 20
3.75
 30
0.0
  0
POINT
  5
92C
330
4A8
100
AcDbEntity
  8
Defpoints
 62
     0
440
 16777216
100
AcDbPoint
 10
6.734779
 20
3.75
 30
0.0
  0
ENDBLK
  5
4AA
330
4A8
100
AcDbEntity
  8
0
100
AcDbBlockEnd
  0
ENDSEC
  0
SECTION
  2
ENTITIES
  0
INSERT
  5
2ED
330
70
100
AcDbEntity
  8
Titleblock
100
AcDbBlockReference
 66
     1
  2
Shower
 10
16.38
 20
0.38
 30
0.0
  0
ATTRIB
  5
30D
330
2ED
100
AcDbEntity
  8
Titleblock
  6
Continuous
370
    25
100
AcDbText
 10
12.6925
 20
2.6925
 30
0.0
 40
0.12
  1
Railing Products and Mock Ups
100
AcDbAttribute
280
     0
  2
PROJECT
 70
     0
280
     1
1001
FD_ATT_APPNAME
1005
2FB
  0
ATTRIB
  5
30E
330
2ED
100
AcDbEntity
  8
Titleblock
  6
Continuous
370
    25
100
AcDbText
 10
14.6925
 20
1.0675
 30
0.0
 40
0.12
  1
8/13/2019
100
AcDbAttribute
280
     0
  2
DRAWN_DATE
 70
     0
280
     1
1001
FD_ATT_APPNAME
1005
2FD
  0
ATTRIB
  5
30F
330
2ED
100
AcDbEntity
  8
Titleblock
  6
Continuous
370
    25
100
AcDbText
 10
12.0675
 20
2.1925
 30
0.0
 40
0.3048
  1
A42-0072AEY20CB
100
AcDbAttribute
280
     0
  2
TITLE_1
 70
     0
280
     1
1001
FD_ATT_APPNAME
1005
2FE
1001
FUSIONTITLEBLOCKATTRIBUTEOVERRIDE
1070
     1
  0
ATTRIB
  5
310
330
2ED
100
AcDbEntity
  8
Titleblock
  6
Continuous
370
    25
100
AcDbText
 10
14.6925
 20
1.29994
 30
0.0
 40
0.12
  1
1:1
100
AcDbAttribute
280
     0
  2
SCALE
 70
     0
280
     1
1001
FD_ATT_APPNAME
1005
2FF
  0
SEQEND
  5
311
330
2ED
100
AcDbEntity
  8
Titleblock
  0
INSERT
  5
312
330
70
100
AcDbEntity
  8
Border
100
AcDbBlockReference
  2
ANSI_B_SHEET
 10
0.0
 20
0.0
 30
0.0
  0
DIMENSION
  5
333
330
70
100
AcDbEntity
  8
Dimensions
100
AcDbDimension
280
     0
  2
*D21
 10
9.75
 20
7.856241
 30
0.0
 11
8.5
 21
7.856241
 31
0.0
 70
    32
 71
     5
 42
2.5
 73
     0
 74
     0
 75
     0
  3
Standard
100
AcDbAlignedDimension
 13
7.25
 23
7.4375
 33
0.0
 14
9.75
 24
7.4375
 34
0.0
100
AcDbRotatedDimension
1001
ACAD_DIMASSOC_CALC_DIMLFAC
1040
-1.0
1001
ACAD_DIMASSOC_DIMLFAC
1040
-1.0
1001
ACAD_DIMASSOC_OVERRIDDEN_DIMLFAC
1040
0.0
1001
ACAD_DSTYLE_DIMJAG_POSITION
1070
   387
1070
     0
1070
   389
1010
0.0
1020
0.0
1030
0.0
1001
ACAD
1000
DSTYLE
1002
{
1070
   144
1040
1.0
1070
   176
1070
   256
1070
   177
1070
   256
1002
}
  0
DIMENSION
  5
342
330
70
100
AcDbEntity
  8
Dimensions
100
AcDbDimension
280
     0
  2
*D22
 10
6.124573
 20
3.4375
 30
0.0
 11
6.124573
 21
5.5
 31
0.0
 70
   160
 71
     5
 42
4.125
 73
     0
 74
     0
 75
     0
  3
Standard
100
AcDbAlignedDimension
 13
7.375
 23
7.5625
 33
0.0
 14
7.26
 24
3.4375
 34
0.0
 50
90.0
100
AcDbRotatedDimension
1001
ACAD_DIMASSOC_CALC_DIMLFAC
1040
-1.0
1001
ACAD_DIMASSOC_DIMLFAC
1040
-1.0
1001
ACAD_DIMASSOC_OVERRIDDEN_DIMLFAC
1040
0.0
1001
ACAD_DSTYLE_DIMJAG_POSITION
1070
   387
1070
     0
1070
   389
1010
0.0
1020
0.0
1030
0.0
1001
ACAD
1000
DSTYLE
1002
{
1070
   144
1040
1.0
1002
}
  0
DIMENSION
  5
350
330
70
100
AcDbEntity
  8
Dimensions
100
AcDbDimension
280
     0
  2
*D23
 10
2.125
 20
9.850925
 30
0.0
 11
1.75
 21
9.850925
 31
0.0
 70
    33
 71
     5
 42
12.0
 73
     0
 74
     0
 75
     0
  3
Standard
100
AcDbAlignedDimension
 13
1.375
 23
9.311781
 33
0.0
 14
2.125
 24
9.311781
 34
0.0
1001
ACAD_DIMASSOC_CALC_DIMLFAC
1040
-16.0
1001
ACAD_DIMASSOC_DIMLFAC
1040
-16.0
1001
ACAD_DIMASSOC_OVERRIDDEN_DIMLFAC
1040
0.0
1001
ACAD
1000
DSTYLE
1002
{
1070
   144
1040
16.0
1070
   176
1070
   256
1070
   177
1070
   256
1002
}
  0
DIMENSION
  5
35E
330
70
100
AcDbEntity
  8
Dimensions
100
AcDbDimension
280
     0
  2
*D24
 10
1.375
 20
9.584546
 30
0.0
 11
1.182988
 21
9.584546
 31
0.0
 70
   160
 71
     5
 42
6.0
 73
     0
 74
     0
 75
     0
  3
Standard
100
AcDbAlignedDimension
 13
1.0
 23
9.389906
 33
0.0
 14
1.375
 24
9.311781
 34
0.0
100
AcDbRotatedDimension
1001
ACAD_DIMASSOC_CALC_DIMLFAC
1040
-16.0
1001
ACAD_DIMASSOC_DIMLFAC
1040
-16.0
1001
ACAD_DIMASSOC_OVERRIDDEN_DIMLFAC
1040
0.0
1001
ACAD
1000
DSTYLE
1002
{
1070
   144
1040
16.0
1002
}
  0
DIMENSION
  5
36C
330
70
100
AcDbEntity
  8
Dimensions
100
AcDbDimension
280
     0
  2
*D25
 10
16.0
 20
10.068728
 30
0.0
 11
8.5
 21
10.068728
 31
0.0
 70
    33
 71
     5
 42
240.0
 73
     0
 74
     0
 75
     0
  3
Standard
100
AcDbAlignedDimension
 13
1.0
 23
9.389906
 33
0.0
 14
16.0
 24
9.389906
 34
0.0
1001
ACAD_DIMASSOC_CALC_DIMLFAC
1040
-16.0
1001
ACAD_DIMASSOC_DIMLFAC
1040
-16.0
1001
ACAD_DIMASSOC_OVERRIDDEN_DIMLFAC
1040
0.0
1001
ACAD
1000
DSTYLE
1002
{
1070
   144
1040
16.0
1070
   176
1070
   256
1070
   177
1070
   256
1002
}
  0
DIMENSION
  5
37A
330
70
100
AcDbEntity
  8
Dimensions
100
AcDbDimension
280
     0
  2
*D26
 10
15.625
 20
9.537492
 30
0.0
 11
15.829853
 21
9.537492
 31
0.0
 70
   160
 71
     5
 42
6.0
 73
     0
 74
     0
 75
     0
  3
Standard
100
AcDbAlignedDimension
 13
16.0
 23
9.389906
 33
0.0
 14
15.625
 24
9.311781
 34
0.0
100
AcDbRotatedDimension
1001
ACAD_DIMASSOC_CALC_DIMLFAC
1040
-16.0
1001
ACAD_DIMASSOC_DIMLFAC
1040
-16.0
1001
ACAD_DIMASSOC_OVERRIDDEN_DIMLFAC
1040
0.0
1001
ACAD
1000
DSTYLE
1002
{
1070
   144
1040
16.0
1002
}
  0
DIMENSION
  5
388
330
70
100
AcDbEntity
  8
Dimensions
100
AcDbDimension
280
     0
  2
*D27
 10
14.875
 20
9.785136
 30
0.0
 11
15.25
 21
9.785136
 31
0.0
 70
    33
 71
     5
 42
12.0
 73
     0
 74
     0
 75
     0
  3
Standard
100
AcDbAlignedDimension
 13
15.625
 23
9.311781
 33
0.0
 14
14.875
 24
9.311781
 34
0.0
1001
ACAD_DIMASSOC_CALC_DIMLFAC
1040
-16.0
1001
ACAD_DIMASSOC_DIMLFAC
1040
-16.0
1001
ACAD_DIMASSOC_OVERRIDDEN_DIMLFAC
1040
0.0
1001
ACAD
1000
DSTYLE
1002
{
1070
   144
1040
16.0
1070
   176
1070
   256
1070
   177
1070
   256
1002
}
  0
DIMENSION
  5
396
330
70
100
AcDbEntity
  8
Dimensions
100
AcDbDimension
280
     0
  2
*D28
 10
8.9375
 20
6.029251
 30
0.0
 11
8.5
 21
6.029251
 31
0.0
 70
    33
  1
%%C<>
 71
     5
 42
0.875
 73
     0
 74
     0
 75
     0
  3
Standard
100
AcDbAlignedDimension
 13
8.0625
 23
4.213302
 33
0.0
 14
8.9375
 24
4.213302
 34
0.0
1001
ACAD_DIMASSOC_CALC_DIMLFAC
1040
-1.0
1001
ACAD_DIMASSOC_DIMLFAC
1040
-1.0
1001
ACAD_DIMASSOC_OVERRIDDEN_DIMLFAC
1040
0.0
1001
ACAD_DSTYLE_DIMJAG_POSITION
1070
   387
1070
     0
1070
   389
1010
0.0
1020
0.0
1030
0.0
1001
ACAD
1000
DSTYLE
1002
{
1070
   144
1040
1.0
1070
   176
1070
   256
1070
   177
1070
   256
1002
}
  0
DIMENSION
  5
3A4
330
70
100
AcDbEntity
  8
Dimensions
100
AcDbDimension
280
     0
  2
*D29
 10
8.749
 20
5.107645
 30
0.0
 11
8.5
 21
5.107645
 31
0.0
 70
   161
  1
%%C<>
 71
     5
 42
0.498
 73
     0
 74
     0
 75
     0
  3
Standard
100
AcDbAlignedDimension
 13
8.251
 23
3.75
 33
0.0
 14
8.749
 24
3.75
 34
0.0
1001
ACAD_DIMASSOC_CALC_DIMLFAC
1040
-1.0
1001
ACAD_DIMASSOC_DIMLFAC
1040
-1.0
1001
ACAD_DIMASSOC_OVERRIDDEN_DIMLFAC
1040
0.0
1001
ACAD_DSTYLE_DIMJAG_POSITION
1070
   387
1070
     0
1070
   389
1010
0.0
1020
0.0
1030
0.0
1001
ACAD
1000
DSTYLE
1002
{
1070
   144
1040
1.0
1002
}
  0
MTEXT
  5
3B2
102
{ACAD_XDICTIONARY
360
3B3
102
}
330
70
100
AcDbEntity
  8
Annotations
100
AcDbMText
 10
3.806587
 20
3.492155
 30
0.0
 40
0.24
 41
1.702101
 46
0.768186
 71
     2
 72
     5
  1
DETAIL A\PSCALE 1:1
 73
     1
 44
1.0
  0
DIMENSION
  5
3BA
330
70
100
AcDbEntity
  8
Dimensions
100
AcDbDimension
280
     0
  2
*D30
 10
4.127458
 20
5.322705
 30
0.0
 11
2.778586
 21
6.253326
 31
0.0
 70
   163
 71
     5
 42
0.875
 73
     0
 74
     0
 75
     0
  3
Standard
100
AcDbDiametricDimension
 15
3.485717
 25
5.91751
 35
0.0
 40
0.0
1001
ACAD_DIMASSOC_CALC_DIMLFAC
1040
-1.0
1001
ACAD_DIMASSOC_DIMLFAC
1040
-1.0
1001
ACAD_DIMASSOC_OVERRIDDEN_DIMLFAC
1040
0.0
1001
ACAD_DSTYLE_DIMRADIAL_EXTENSION
1070
   387
1070
     1
1070
   388
1040
2.050105
1070
   390
1040
3.130164
1001
ACAD
1000
DSTYLE
1002
{
1070
   144
1040
1.0
1070
   288
1070
     1
1002
}
  0
DIMENSION
  5
3C4
330
70
100
AcDbEntity
  8
Dimensions
100
AcDbDimension
280
     0
  2
*D31
 10
4.040958
 20
5.536015
 30
0.0
 11
2.900237
 21
5.821514
 31
0.0
 70
   163
 71
     5
 42
0.498
 73
     0
 74
     0
 75
     0
  3
Standard
100
AcDbDiametricDimension
 15
3.572217
 25
5.7042
 35
0.0
 40
0.0
1001
ACAD_DIMASSOC_CALC_DIMLFAC
1040
-1.0
1001
ACAD_DIMASSOC_DIMLFAC
1040
-1.0
1001
ACAD_DIMASSOC_OVERRIDDEN_DIMLFAC
1040
0.0
1001
ACAD_DSTYLE_DIMRADIAL_EXTENSION
1070
   387
1070
     1
1070
   388
1040
0.0
1070
   390
1040
0.0
1001
ACAD
1000
DSTYLE
1002
{
1070
   144
1040
1.0
1070
   288
1070
     1
1002
}
  0
MTEXT
  5
3CE
330
70
100
AcDbEntity
  8
Annotations
100
AcDbMText
 10
8.373443
 20
6.376117
 30
0.0
 40
0.12
 41
0.343979
 46
0.0
 71
     1
 72
     5
  1
(20)
 73
     1
 44
1.0
1001
ACAD
1000
ACAD_MTEXT_COLUMN_INFO_BEGIN
1070
    75
1070
     2
1070
    79
1070
     0
1070
    76
1070
     1
1070
    78
1070
     0
1070
    48
1040
0.343979
1070
    49
1040
0.6
1070
    50
1070
     1
1040
0.0
1000
ACAD_MTEXT_COLUMN_INFO_END
  0
MTEXT
  5
3CF
330
70
100
AcDbEntity
  8
Annotations
100
AcDbMText
 10
8.386221
 20
5.44559
 30
0.0
 40
0.12
 41
0.360713
 46
0.0
 71
     1
 72
     5
  1
(20)
 73
     1
 44
1.0
1001
ACAD
1000
ACAD_MTEXT_COLUMN_INFO_BEGIN
1070
    75
1070
     2
1070
    79
1070
     0
1070
    76
1070
     1
1070
    78
1070
     0
1070
    48
1040
0.360713
1070
    49
1040
0.6
1070
    50
1070
     1
1040
0.0
1000
ACAD_MTEXT_COLUMN_INFO_END
  0
DIMENSION
  5
3D0
330
70
100
AcDbEntity
  8
Dimensions
100
AcDbDimension
280
     0
  2
*D32
 10
7.029792
 20
3.4375
 30
0.0
 11
7.029792
 21
3.59375
 31
0.0
 70
   160
 71
     5
 42
0.3125
 73
     0
 74
     0
 75
     0
  3
Standard
100
AcDbAlignedDimension
 13
8.0975
 23
3.75
 33
0.0
 14
7.26
 24
3.4375
 34
0.0
 50
90.0
100
AcDbRotatedDimension
1001
ACAD_DIMASSOC_CALC_DIMLFAC
1040
-1.0
1001
ACAD_DIMASSOC_DIMLFAC
1040
-1.0
1001
ACAD_DIMASSOC_OVERRIDDEN_DIMLFAC
1040
0.0
1001
ACAD_DSTYLE_DIMJAG_POSITION
1070
   387
1070
     0
1070
   389
1010
0.0
1020
0.0
1030
0.0
1001
ACAD
1000
DSTYLE
1002
{
1070
   144
1040
1.0
1002
}
  0
DIMENSION
  5
3DE
330
70
100
AcDbEntity
  8
Dimensions
100
AcDbDimension
280
     0
  2
*D33
 10
6.371532
 20
3.4375
 30
0.0
 11
6.371532
 21
3.8125
 31
0.0
 70
    32
 71
     5
 42
0.75
 73
     0
 74
     0
 75
     0
  3
Standard
100
AcDbAlignedDimension
 13
8.1118
 23
4.1875
 33
0.0
 14
7.26
 24
3.4375
 34
0.0
 50
90.0
100
AcDbRotatedDimension
1001
ACAD_DIMASSOC_CALC_DIMLFAC
1040
-1.0
1001
ACAD_DIMASSOC_DIMLFAC
1040
-1.0
1001
ACAD_DIMASSOC_OVERRIDDEN_DIMLFAC
1040
0.0
1001
ACAD_DSTYLE_DIMJAG_POSITION
1070
   387
1070
     0
1070
   389
1010
0.0
1020
0.0
1030
0.0
1001
ACAD
1000
DSTYLE
1002
{
1070
   144
1040
1.0
1070
   176
1070
   256
1070
   177
1070
   256
1002
}
  0
DIMENSION
  5
3EC
330
70
100
AcDbEntity
  8
Dimensions
100
AcDbDimension
280
     0
  2
*D34
 10
6.734779
 20
3.75
 30
0.0
 11
6.734779
 21
3.96875
 31
0.0
 70
    32
 71
     5
 42
0.4375
 73
     0
 74
     0
 75
     0
  3
Standard
100
AcDbAlignedDimension
 13
8.1118
 23
4.1875
 33
0.0
 14
8.0975
 24
3.75
 34
0.0
 50
90.0
100
AcDbRotatedDimension
1001
ACAD_DIMASSOC_CALC_DIMLFAC
1040
-1.0
1001
ACAD_DIMASSOC_DIMLFAC
1040
-1.0
1001
ACAD_DIMASSOC_OVERRIDDEN_DIMLFAC
1040
0.0
1001
ACAD_DSTYLE_DIMJAG_POSITION
1070
   387
1070
     0
1070
   389
1010
0.0
1020
0.0
1030
0.0
1001
ACAD
1000
DSTYLE
1002
{
1070
   144
1040
1.0
1070
   176
1070
   256
1070
   177
1070
   256
1002
}
  0
IMAGE
  5
3FA
330
70
100
AcDbEntity
  8
Annotations
  6
Continuous
160
               140
310
8C00000001000000840000000600000005000000447FC8E1403027408044BD058051DF3F0000000000000000447FC8E140302740617B77C11A8EF63F0000000000000000F356B4D7BB6D2C40617B77C11A8EF63F0000000000000000F356B4D7BB6D2C408044BD058051DF3F0000000000000000447FC8E1403027408044BD
310
058051DF3F0000000000000000
370
     0
100
AcDbRasterImage
 90
        0
 10
11.594245
 20
0.489349
 30
0.0
 11
0.0027637961394066
 21
0.0
 31
0.0
 12
0.0
 22
0.0027637961394066
 32
0.0
 13
948.0
 23
333.0
340
3FB
 70
    15
280
     0
281
    50
282
    50
283
     0
290
     0
360
3FC
 71
     1
 91
        2
 14
-0.5
 24
-0.5
 14
947.5
 24
332.5
  0
ARC
  5
642
330
70
100
AcDbEntity
  8
Visible
100
AcDbCircle
 10
-8.9025
 20
3.9375
 30
-120.0
 40
0.0624999999999993
210
0.0000000000000001
220
0.0
230
-1.0
100
AcDbArc
 50
90.0
 51
180.0
  0
LINE
  5
643
330
70
100
AcDbEntity
  8
Visible
100
AcDbLine
 10
8.0975
 20
4.0
 30
120.0
 11
8.9025
 21
4.0
 31
120.0
210
0.0
220
1.0
230
0.0
  0
ARC
  5
644
330
70
100
AcDbEntity
  8
Visible
100
AcDbCircle
 10
8.1118
 20
4.2475
 30
120.0
 40
0.0599999999999988
100
AcDbArc
 50
183.052883
 51
270.0
  0
LINE
  5
645
330
70
100
AcDbEntity
  8
Visible
100
AcDbLine
 10
8.1118
 20
4.1875
 30
120.0
 11
8.495
 21
4.1875
 31
120.0
210
0.0
220
1.0
230
0.0
  0
LINE
  5
646
330
70
100
AcDbEntity
  8
Visible
100
AcDbLine
 10
8.495
 20
4.1875
 30
120.0
 11
8.5
 21
4.1825
 31
120.0
210
0.0
220
1.0
230
0.0
  0
LINE
  5
647
330
70
100
AcDbEntity
  8
Visible
100
AcDbLine
 10
8.5
 20
4.1825
 30
120.0
 11
8.505
 21
4.1875
 31
120.0
210
0.0
220
1.0
230
0.0
  0
LINE
  5
648
330
70
100
AcDbEntity
  8
Visible
100
AcDbLine
 10
8.505
 20
4.1875
 30
120.0
 11
8.8882
 21
4.1875
 31
120.0
210
0.0
220
1.0
230
0.0
  0
ARC
  5
649
330
70
100
AcDbEntity
  8
Visible
100
AcDbCircle
 10
-7.805515
 20
3.6725
 30
-120.0
 40
0.0600000000000003
210
0.0000000000000001
220
0.0
230
-1.0
100
AcDbArc
 50
135.0
 51
270.0
  0
LINE
  5
64A
330
70
100
AcDbEntity
  8
Visible
100
AcDbLine
 10
7.805515
 20
3.6125
 30
120.0
 11
7.46
 21
3.6125
 31
120.0
210
0.0
220
1.0
230
0.0
  0
ARC
  5
64B
330
70
100
AcDbEntity
  8
Visible
100
AcDbCircle
 10
-7.46
 20
3.6725
 30
-120.0
 40
0.0600000000000006
210
0.0000000000000001
220
0.0
230
-1.0
100
AcDbArc
 50
270.0
 51
360.0
  0
LINE
  5
64C
330
70
100
AcDbEntity
  8
Visible
100
AcDbLine
 10
7.4
 20
3.6725
 30
120.0
 11
7.4
 21
4.018015
 31
120.0
210
0.0
220
1.0
230
0.0
  0
ARC
  5
64D
330
70
100
AcDbEntity
  8
Visible
100
AcDbCircle
 10
-7.46
 20
4.018015
 30
-120.0
 40
0.0600000000000028
210
0.0000000000000001
220
0.0
230
-1.0
100
AcDbArc
 50
360.0
 51
135.0
  0
LINE
  5
64E
330
70
100
AcDbEntity
  8
Visible
100
AcDbLine
 10
7.502426
 20
4.060442
 30
120.0
 11
7.847942
 21
3.714926
 31
120.0
210
0.0
220
1.0
230
0.0
  0
ARC
  5
64F
330
70
100
AcDbEntity
  8
Visible
100
AcDbCircle
 10
-7.825
 20
4.585
 30
-120.0
 40
0.0599999999999986
210
0.0000000000000001
220
0.0
230
-1.0
100
AcDbArc
 50
180.0
 51
270.0
  0
LINE
  5
650
330
70
100
AcDbEntity
  8
Visible
100
AcDbLine
 10
7.825
 20
4.525
 30
120.0
 11
7.544853
 21
4.525
 31
120.0
210
0.0
220
1.0
230
0.0
  0
ARC
  5
651
330
70
100
AcDbEntity
  8
Visible
100
AcDbCircle
 10
-7.544853
 20
4.585
 30
-120.0
 40
0.0600000000000004
210
0.0000000000000001
220
0.0
230
-1.0
100
AcDbArc
 50
270.0
 51
45.0
  0
LINE
  5
652
330
70
100
AcDbEntity
  8
Visible
100
AcDbLine
 10
7.502426
 20
4.627426
 30
120.0
 11
7.782574
 21
4.907574
 31
120.0
210
0.0
220
1.0
230
0.0
  0
ARC
  5
653
330
70
100
AcDbEntity
  8
Visible
100
AcDbCircle
 10
-7.825
 20
4.865147
 30
-120.0
 40
0.0600000000000004
210
0.0000000000000001
220
0.0
230
-1.0
100
AcDbArc
 50
45.0
 51
180.0
  0
LINE
  5
654
330
70
100
AcDbEntity
  8
Visible
100
AcDbLine
 10
7.885
 20
4.865147
 30
120.0
 11
7.885
 21
4.585
 31
120.0
210
0.0
220
1.0
230
0.0
  0
ARC
  5
655
330
70
100
AcDbEntity
  8
Visible
100
AcDbCircle
 10
-8.0975
 20
3.8125
 30
-120.0
 40
0.0624999999999985
210
0.0000000000000001
220
0.0
230
-1.0
100
AcDbArc
 50
270.0
 51
0.0
  0
LINE
  5
656
330
70
100
AcDbEntity
  8
Visible
100
AcDbLine
 10
8.035
 20
3.8125
 30
120.0
 11
8.035
 21
3.9375
 31
120.0
210
0.0
220
1.0
230
0.0
  0
ARC
  5
657
330
70
100
AcDbEntity
  8
Visible
100
AcDbCircle
 10
-8.0975
 20
3.9375
 30
-120.0
 40
0.0625000000000047
210
0.0000000000000001
220
0.0
230
-1.0
100
AcDbArc
 50
0.0
 51
90.0
  0
LINE
  5
658
330
70
100
AcDbEntity
  8
Visible
100
AcDbLine
 10
8.965
 20
3.9375
 30
120.0
 11
8.965
 21
3.8125
 31
120.0
210
0.0
220
1.0
230
0.0
  0
ARC
  5
659
330
70
100
AcDbEntity
  8
Visible
100
AcDbCircle
 10
-8.9025
 20
3.8125
 30
-120.0
 40
0.0625000000000019
210
0.0000000000000001
220
0.0
230
-1.0
100
AcDbArc
 50
180.0
 51
270.0
  0
LINE
  5
65A
330
70
100
AcDbEntity
  8
Visible
100
AcDbLine
 10
8.9025
 20
3.75
 30
120.0
 11
8.0975
 21
3.75
 31
120.0
210
0.0
220
1.0
230
0.0
  0
ARC
  5
65B
330
70
100
AcDbEntity
  8
Visible
100
AcDbCircle
 10
-9.175
 20
4.315
 30
-120.0
 40
0.06
210
0.0000000000000001
220
0.0
230
-1.0
100
AcDbArc
 50
0.0
 51
90.0
  0
LINE
  5
65C
330
70
100
AcDbEntity
  8
Visible
100
AcDbLine
 10
9.175
 20
4.375
 30
120.0
 11
9.455147
 21
4.375
 31
120.0
210
0.0
220
1.0
230
0.0
  0
ARC
  5
65D
330
70
100
AcDbEntity
  8
Visible
100
AcDbCircle
 10
-9.455147
 20
4.315
 30
-120.0
 40
0.0599999999999983
210
0.0000000000000001
220
0.0
230
-1.0
100
AcDbArc
 50
90.0
 51
225.0
  0
LINE
  5
65E
330
70
100
AcDbEntity
  8
Visible
100
AcDbLine
 10
9.497574
 20
4.272574
 30
120.0
 11
9.217426
 21
3.992426
 31
120.0
210
0.0
220
1.0
230
0.0
  0
ARC
  5
65F
330
70
100
AcDbEntity
  8
Visible
100
AcDbCircle
 10
-9.175
 20
4.034853
 30
-120.0
 40
0.0599999999999995
210
0.0000000000000001
220
0.0
230
-1.0
100
AcDbArc
 50
225.0
 51
360.0
  0
LINE
  5
660
330
70
100
AcDbEntity
  8
Visible
100
AcDbLine
 10
9.115
 20
4.034853
 30
120.0
 11
9.115
 21
4.315
 31
120.0
210
0.0
220
1.0
230
0.0
  0
ARC
  5
661
330
70
100
AcDbEntity
  8
Visible
100
AcDbCircle
 10
-9.175
 20
4.865147
 30
-120.0
 40
0.0600000000000056
210
0.0000000000000001
220
0.0
230
-1.0
100
AcDbArc
 50
0.0
 51
135.0
  0
LINE
  5
662
330
70
100
AcDbEntity
  8
Visible
100
AcDbLine
 10
9.217426
 20
4.907574
 30
120.0
 11
9.497574
 21
4.627426
 31
120.0
210
0.0
220
1.0
230
0.0
  0
ARC
  5
663
330
70
100
AcDbEntity
  8
Visible
100
AcDbCircle
 10
-9.455147
 20
4.585
 30
-120.0
 40
0.0600000000000021
210
0.0000000000000001
220
0.0
230
-1.0
100
AcDbArc
 50
135.0
 51
270.0
  0
LINE
  5
664
330
70
100
AcDbEntity
  8
Visible
100
AcDbLine
 10
9.455147
 20
4.525
 30
120.0
 11
9.175
 21
4.525
 31
120.0
210
0.0
220
1.0
230
0.0
  0
ARC
  5
665
330
70
100
AcDbEntity
  8
Visible
100
AcDbCircle
 10
-9.175
 20
4.585
 30
-120.0
 40
0.0599999999999974
210
0.0000000000000001
220
0.0
230
-1.0
100
AcDbArc
 50
270.0
 51
360.0
  0
LINE
  5
666
330
70
100
AcDbEntity
  8
Visible
100
AcDbLine
 10
9.115
 20
4.585
 30
120.0
 11
9.115
 21
4.865147
 31
120.0
210
0.0
220
1.0
230
0.0
  0
LINE
  5
667
330
70
100
AcDbEntity
  8
Visible
100
AcDbLine
 10
9.497574
 20
4.839558
 30
120.0
 11
9.152058
 21
5.185074
 31
120.0
210
0.0
220
1.0
230
0.0
  0
ARC
  5
668
330
70
100
AcDbEntity
  8
Visible
100
AcDbCircle
 10
-9.194485
 20
5.2275
 30
-120.0
 40
0.0600000000000013
210
0.0000000000000001
220
0.0
230
-1.0
100
AcDbArc
 50
315.0
 51
90.0
  0
LINE
  5
669
330
70
100
AcDbEntity
  8
Visible
100
AcDbLine
 10
9.194485
 20
5.2875
 30
120.0
 11
9.54
 21
5.2875
 31
120.0
210
0.0
220
1.0
230
0.0
  0
ARC
  5
66A
330
70
100
AcDbEntity
  8
Visible
100
AcDbCircle
 10
-9.54
 20
5.2275
 30
-120.0
 40
0.06
210
0.0000000000000001
220
0.0
230
-1.0
100
AcDbArc
 50
90.0
 51
180.0
  0
LINE
  5
66B
330
70
100
AcDbEntity
  8
Visible
100
AcDbLine
 10
9.6
 20
5.2275
 30
120.0
 11
9.6
 21
4.881985
 31
120.0
210
0.0
220
1.0
230
0.0
  0
ARC
  5
66C
330
70
100
AcDbEntity
  8
Visible
100
AcDbCircle
 10
-9.54
 20
4.881985
 30
-120.0
 40
0.06
210
0.0000000000000001
220
0.0
230
-1.0
100
AcDbArc
 50
180.0
 51
315.0
  0
ARC
  5
66D
330
70
100
AcDbEntity
  8
Visible
100
AcDbCircle
 10
-9.54
 20
4.018015
 30
-120.0
 40
0.0599999999999977
210
0.0000000000000001
220
0.0
230
-1.0
100
AcDbArc
 50
45.0
 51
180.0
  0
LINE
  5
66E
330
70
100
AcDbEntity
  8
Visible
100
AcDbLine
 10
9.6
 20
4.018015
 30
120.0
 11
9.6
 21
3.6725
 31
120.0
210
0.0
220
1.0
230
0.0
  0
ARC
  5
66F
330
70
100
AcDbEntity
  8
Visible
100
AcDbCircle
 10
-9.54
 20
3.6725
 30
-120.0
 40
0.0599999999999972
210
0.0000000000000001
220
0.0
230
-1.0
100
AcDbArc
 50
180.0
 51
270.0
  0
LINE
  5
670
330
70
100
AcDbEntity
  8
Visible
100
AcDbLine
 10
9.54
 20
3.6125
 30
120.0
 11
9.194485
 21
3.6125
 31
120.0
210
0.0
220
1.0
230
0.0
  0
ARC
  5
671
330
70
100
AcDbEntity
  8
Visible
100
AcDbCircle
 10
-9.194485
 20
3.6725
 30
-120.0
 40
0.0599999999999985
210
0.0000000000000001
220
0.0
230
-1.0
100
AcDbArc
 50
270.0
 51
45.0
  0
LINE
  5
672
330
70
100
AcDbEntity
  8
Visible
100
AcDbLine
 10
9.152058
 20
3.714926
 30
120.0
 11
9.497574
 21
4.060442
 31
120.0
210
0.0
220
1.0
230
0.0
  0
ARC
  5
673
330
70
100
AcDbEntity
  8
Visible
100
AcDbCircle
 10
-7.825
 20
4.034853
 30
-120.0
 40
0.0600000000000014
210
0.0000000000000001
220
0.0
230
-1.0
100
AcDbArc
 50
180.0
 51
315.0
  0
LINE
  5
674
330
70
100
AcDbEntity
  8
Visible
100
AcDbLine
 10
7.782574
 20
3.992426
 30
120.0
 11
7.502426
 21
4.272574
 31
120.0
210
0.0
220
1.0
230
0.0
  0
ARC
  5
675
330
70
100
AcDbEntity
  8
Visible
100
AcDbCircle
 10
-7.544853
 20
4.315
 30
-120.0
 40
0.06
210
0.0000000000000001
220
0.0
230
-1.0
100
AcDbArc
 50
315.0
 51
90.0
  0
LINE
  5
676
330
70
100
AcDbEntity
  8
Visible
100
AcDbLine
 10
7.544853
 20
4.375
 30
120.0
 11
7.825
 21
4.375
 31
120.0
210
0.0
220
1.0
230
0.0
  0
ARC
  5
677
330
70
100
AcDbEntity
  8
Visible
100
AcDbCircle
 10
-7.825
 20
4.315
 30
-120.0
 40
0.0599999999999986
210
0.0000000000000001
220
0.0
230
-1.0
100
AcDbArc
 50
90.0
 51
180.0
  0
LINE
  5
678
330
70
100
AcDbEntity
  8
Visible
100
AcDbLine
 10
7.885
 20
4.315
 30
120.0
 11
7.885
 21
4.034853
 31
120.0
210
0.0
220
1.0
230
0.0
  0
LINE
  5
679
330
70
100
AcDbEntity
  8
Visible
100
AcDbLine
 10
7.847942
 20
5.185074
 30
120.0
 11
7.502426
 21
4.839558
 31
120.0
210
0.0
220
1.0
230
0.0
  0
ARC
  5
67A
330
70
100
AcDbEntity
  8
Visible
100
AcDbCircle
 10
-7.46
 20
4.881985
 30
-120.0
 40
0.0600000000000021
210
0.0000000000000001
220
0.0
230
-1.0
100
AcDbArc
 50
225.0
 51
360.0
  0
LINE
  5
67B
330
70
100
AcDbEntity
  8
Visible
100
AcDbLine
 10
7.4
 20
4.881985
 30
120.0
 11
7.4
 21
5.2275
 31
120.0
210
0.0
220
1.0
230
0.0
  0
ARC
  5
67C
330
70
100
AcDbEntity
  8
Visible
100
AcDbCircle
 10
-7.46
 20
5.2275
 30
-120.0
 40
0.06
210
0.0000000000000001
220
0.0
230
-1.0
100
AcDbArc
 50
0.0
 51
90.0
  0
LINE
  5
67D
330
70
100
AcDbEntity
  8
Visible
100
AcDbLine
 10
7.46
 20
5.2875
 30
120.0
 11
7.805515
 21
5.2875
 31
120.0
210
0.0
220
1.0
230
0.0
  0
ARC
  5
67E
330
70
100
AcDbEntity
  8
Visible
100
AcDbCircle
 10
-7.805515
 20
5.2275
 30
-120.0
 40
0.0600000000000021
210
0.0000000000000001
220
0.0
230
-1.0
100
AcDbArc
 50
90.0
 51
225.0
  0
LINE
  5
67F
330
70
100
AcDbEntity
  8
Visible
100
AcDbLine
 10
8.051885
 20
4.244305
 30
120.0
 11
8.035
 21
4.560903
 31
120.0
210
0.0
220
1.0
230
0.0
  0
LINE
  5
680
330
70
100
AcDbEntity
  8
Visible
100
AcDbLine
 10
8.035
 20
4.560903
 30
120.0
 11
8.035
 21
5.3775
 31
120.0
210
0.0
220
1.0
230
0.0
  0
ARC
  5
681
330
70
100
AcDbEntity
  8
Visible
100
AcDbCircle
 10
7.975
 20
5.3775
 30
120.0
 40
0.0600000000000028
100
AcDbArc
 50
0.0
 51
90.0
  0
LINE
  5
682
330
70
100
AcDbEntity
  8
Visible
100
AcDbLine
 10
7.975
 20
5.4375
 30
120.0
 11
7.72
 21
5.4375
 31
120.0
210
0.0
220
1.0
230
0.0
  0
ARC
  5
683
330
70
100
AcDbEntity
  8
Visible
100
AcDbCircle
 10
7.72
 20
5.4975
 30
120.0
 40
0.0600000000000014
100
AcDbArc
 50
180.0
 51
270.0
  0
LINE
  5
684
330
70
100
AcDbEntity
  8
Visible
100
AcDbLine
 10
7.66
 20
5.4975
 30
120.0
 11
7.66
 21
5.5525
 31
120.0
210
0.0
220
1.0
230
0.0
  0
ARC
  5
685
330
70
100
AcDbEntity
  8
Visible
100
AcDbCircle
 10
7.65
 20
5.5525
 30
120.0
 40
0.0100000000000019
100
AcDbArc
 50
0.0
 51
90.0
  0
LINE
  5
686
330
70
100
AcDbEntity
  8
Visible
100
AcDbLine
 10
7.65
 20
5.5625
 30
120.0
 11
7.64
 21
5.5625
 31
120.0
210
0.0
220
1.0
230
0.0
  0
ARC
  5
687
330
70
100
AcDbEntity
  8
Visible
100
AcDbCircle
 10
7.64
 20
5.5725
 30
120.0
 40
0.0100000000000019
100
AcDbArc
 50
180.0
 51
270.0
  0
LINE
  5
688
330
70
100
AcDbEntity
  8
Visible
100
AcDbLine
 10
7.63
 20
5.5725
 30
120.0
 11
7.63
 21
5.865
 31
120.0
210
0.0
220
1.0
230
0.0
  0
ARC
  5
689
330
70
100
AcDbEntity
  8
Visible
100
AcDbCircle
 10
7.64
 20
5.865
 30
120.0
 40
0.0099999999999984
100
AcDbArc
 50
90.0
 51
180.0
  0
LINE
  5
68A
330
70
100
AcDbEntity
  8
Visible
100
AcDbLine
 10
7.64
 20
5.875
 30
120.0
 11
7.65
 21
5.875
 31
120.0
210
0.0
220
1.0
230
0.0
  0
ARC
  5
68B
330
70
100
AcDbEntity
  8
Visible
100
AcDbCircle
 10
7.65
 20
5.885
 30
120.0
 40
0.0100000000000029
100
AcDbArc
 50
270.0
 51
360.0
  0
LINE
  5
68C
330
70
100
AcDbEntity
  8
Visible
100
AcDbLine
 10
7.66
 20
5.885
 30
120.0
 11
7.66
 21
7.0025
 31
120.0
210
0.0
220
1.0
230
0.0
  0
ARC
  5
68D
330
70
100
AcDbEntity
  8
Visible
100
AcDbCircle
 10
7.6
 20
7.0025
 30
120.0
 40
0.0600000000000028
100
AcDbArc
 50
0.0
 51
90.0
  0
LINE
  5
68E
330
70
100
AcDbEntity
  8
Visible
100
AcDbLine
 10
7.6
 20
7.0625
 30
120.0
 11
7.518952
 21
7.0625
 31
120.0
210
0.0
220
1.0
230
0.0
  0
ARC
  5
68F
330
70
100
AcDbEntity
  8
Visible
100
AcDbCircle
 10
7.518952
 20
7.125
 30
120.0
 40
0.0625000000000101
100
AcDbArc
 50
165.0
 51
270.0
  0
LINE
  5
690
330
70
100
AcDbEntity
  8
Visible
100
AcDbLine
 10
7.458581
 20
7.141176
 30
120.0
 11
7.480314
 21
7.222285
 31
120.0
210
0.0
220
1.0
230
0.0
  0
ARC
  5
691
330
70
100
AcDbEntity
  8
Visible
100
AcDbCircle
 10
7.451336
 20
7.23005
 30
120.0
 40
0.0300000000000102
100
AcDbArc
 50
345.0
 51
75.0
  0
LINE
  5
692
330
70
100
AcDbEntity
  8
Visible
100
AcDbLine
 10
7.459101
 20
7.259027
 30
120.0
 11
7.439783
 21
7.264204
 31
120.0
210
0.0
220
1.0
230
0.0
  0
ARC
  5
693
330
70
100
AcDbEntity
  8
Visible
100
AcDbCircle
 10
7.452723
 20
7.3125
 30
120.0
 40
0.0500000000000006
100
AcDbArc
 50
75.0
 51
255.0
  0
LINE
  5
694
330
70
100
AcDbEntity
  8
Visible
100
AcDbLine
 10
7.465664
 20
7.360796
 30
120.0
 11
7.484983
 21
7.35562
 31
120.0
210
0.0
220
1.0
230
0.0
  0
ARC
  5
695
330
70
100
AcDbEntity
  8
Visible
100
AcDbCircle
 10
7.492748
 20
7.384598
 30
120.0
 40
0.029999999999996
100
AcDbArc
 50
255.0
 51
345.0
  0
LINE
  5
696
330
70
100
AcDbEntity
  8
Visible
100
AcDbLine
 10
7.521725
 20
7.376833
 30
120.0
 11
7.550393
 21
7.483824
 31
120.0
210
0.0
220
1.0
230
0.0
  0
ARC
  5
697
330
70
100
AcDbEntity
  8
Visible
100
AcDbCircle
 10
7.490023
 20
7.5
 30
120.0
 40
0.0624999999999854
100
AcDbArc
 50
345.0
 51
90.0
  0
LINE
  5
698
330
70
100
AcDbEntity
  8
Visible
100
AcDbLine
 10
7.490023
 20
7.5625
 30
120.0
 11
7.375
 21
7.5625
 31
120.0
210
0.0
220
1.0
230
0.0
  0
ARC
  5
699
330
70
100
AcDbEntity
  8
Visible
100
AcDbCircle
 10
7.375
 20
7.4375
 30
120.0
 40
0.125000000000001
100
AcDbArc
 50
90.0
 51
180.0
  0
LINE
  5
69A
330
70
100
AcDbEntity
  8
Visible
100
AcDbLine
 10
7.25
 20
7.4375
 30
120.0
 11
7.25
 21
3.4475
 31
120.0
210
0.0
220
1.0
230
0.0
  0
ARC
  5
69B
330
70
100
AcDbEntity
  8
Visible
100
AcDbCircle
 10
7.26
 20
3.4475
 30
120.0
 40
0.0100000000000005
100
AcDbArc
 50
180.0
 51
270.0
  0
LINE
  5
69C
330
70
100
AcDbEntity
  8
Visible
100
AcDbLine
 10
7.26
 20
3.4375
 30
120.0
 11
7.735
 21
3.4375
 31
120.0
210
0.0
220
1.0
230
0.0
  0
ARC
  5
69D
330
70
100
AcDbEntity
  8
Visible
100
AcDbCircle
 10
7.735
 20
3.4525
 30
120.0
 40
0.0149999999999985
100
AcDbArc
 50
270.0
 51
360.0
  0
LINE
  5
69E
330
70
100
AcDbEntity
  8
Visible
100
AcDbLine
 10
7.75
 20
3.4525
 30
120.0
 11
7.75
 21
3.485
 31
120.0
210
0.0
220
1.0
230
0.0
  0
ARC
  5
69F
330
70
100
AcDbEntity
  8
Visible
100
AcDbCircle
 10
7.765
 20
3.485
 30
120.0
 40
0.0150000000000003
100
AcDbArc
 50
90.0
 51
180.0
  0
LINE
  5
6A0
330
70
100
AcDbEntity
  8
Visible
100
AcDbLine
 10
9.235
 20
3.5
 30
120.0
 11
7.765
 21
3.5
 31
120.0
210
0.0
220
1.0
230
0.0
  0
ARC
  5
6A1
330
70
100
AcDbEntity
  8
Visible
100
AcDbCircle
 10
9.235
 20
3.485
 30
120.0
 40
0.0150000000000028
100
AcDbArc
 50
0.0
 51
90.0
  0
LINE
  5
6A2
330
70
100
AcDbEntity
  8
Visible
100
AcDbLine
 10
9.25
 20
3.4525
 30
120.0
 11
9.25
 21
3.485
 31
120.0
210
0.0
220
1.0
230
0.0
  0
ARC
  5
6A3
330
70
100
AcDbEntity
  8
Visible
100
AcDbCircle
 10
9.265
 20
3.4525
 30
120.0
 40
0.0150000000000056
100
AcDbArc
 50
180.0
 51
270.0
  0
LINE
  5
6A4
330
70
100
AcDbEntity
  8
Visible
100
AcDbLine
 10
9.74
 20
3.4375
 30
120.0
 11
9.265
 21
3.4375
 31
120.0
210
0.0
220
1.0
230
0.0
  0
ARC
  5
6A5
330
70
100
AcDbEntity
  8
Visible
100
AcDbCircle
 10
9.74
 20
3.4475
 30
120.0
 40
0.009999999999996
100
AcDbArc
 50
270.0
 51
0.0
  0
LINE
  5
6A6
330
70
100
AcDbEntity
  8
Visible
100
AcDbLine
 10
9.75
 20
7.4375
 30
120.0
 11
9.75
 21
3.4475
 31
120.0
210
0.0
220
1.0
230
0.0
  0
ARC
  5
6A7
330
70
100
AcDbEntity
  8
Visible
100
AcDbCircle
 10
9.625
 20
7.4375
 30
120.0
 40
0.125000000000001
100
AcDbArc
 50
0.0
 51
90.0
  0
LINE
  5
6A8
330
70
100
AcDbEntity
  8
Visible
100
AcDbLine
 10
9.509977
 20
7.5625
 30
120.0
 11
9.625
 21
7.5625
 31
120.0
210
0.0
220
1.0
230
0.0
  0
ARC
  5
6A9
330
70
100
AcDbEntity
  8
Visible
100
AcDbCircle
 10
9.509977
 20
7.5
 30
120.0
 40
0.062499999999997
100
AcDbArc
 50
90.0
 51
195.0
  0
LINE
  5
6AA
330
70
100
AcDbEntity
  8
Visible
100
AcDbLine
 10
9.478275
 20
7.376833
 30
120.0
 11
9.449607
 21
7.483824
 31
120.0
210
0.0
220
1.0
230
0.0
  0
ARC
  5
6AB
330
70
100
AcDbEntity
  8
Visible
100
AcDbCircle
 10
9.507252
 20
7.384598
 30
120.0
 40
0.02999999999999
100
AcDbArc
 50
195.0
 51
285.0
  0
LINE
  5
6AC
330
70
100
AcDbEntity
  8
Visible
100
AcDbLine
 10
9.534336
 20
7.360796
 30
120.0
 11
9.515017
 21
7.35562
 31
120.0
210
0.0
220
1.0
230
0.0
  0
ARC
  5
6AD
330
70
100
AcDbEntity
  8
Visible
100
AcDbCircle
 10
9.547277
 20
7.3125
 30
120.0
 40
0.0500000000000007
100
AcDbArc
 50
285.0
 51
105.0
  0
LINE
  5
6AE
330
70
100
AcDbEntity
  8
Visible
100
AcDbLine
 10
9.540899
 20
7.259027
 30
120.0
 11
9.560217
 21
7.264204
 31
120.0
210
0.0
220
1.0
230
0.0
  0
ARC
  5
6AF
330
70
100
AcDbEntity
  8
Visible
100
AcDbCircle
 10
9.548664
 20
7.23005
 30
120.0
 40
0.0300000000000024
100
AcDbArc
 50
105.0
 51
195.0
  0
LINE
  5
6B0
330
70
100
AcDbEntity
  8
Visible
100
AcDbLine
 10
9.541419
 20
7.141176
 30
120.0
 11
9.519686
 21
7.222285
 31
120.0
210
0.0
220
1.0
230
0.0
  0
ARC
  5
6B1
330
70
100
AcDbEntity
  8
Visible
100
AcDbCircle
 10
9.481048
 20
7.125
 30
120.0
 40
0.0625000000000047
100
AcDbArc
 50
270.0
 51
15.0
  0
LINE
  5
6B2
330
70
100
AcDbEntity
  8
Visible
100
AcDbLine
 10
9.4
 20
7.0625
 30
120.0
 11
9.481048
 21
7.0625
 31
120.0
210
0.0
220
1.0
230
0.0
  0
ARC
  5
6B3
330
70
100
AcDbEntity
  8
Visible
100
AcDbCircle
 10
9.4
 20
7.0025
 30
120.0
 40
0.0599999999999993
100
AcDbArc
 50
90.0
 51
180.0
  0
LINE
  5
6B4
330
70
100
AcDbEntity
  8
Visible
100
AcDbLine
 10
9.34
 20
5.885
 30
120.0
 11
9.34
 21
7.0025
 31
120.0
210
0.0
220
1.0
230
0.0
  0
ARC
  5
6B5
330
70
100
AcDbEntity
  8
Visible
100
AcDbCircle
 10
9.35
 20
5.885
 30
120.0
 40
0.0099999999999991
100
AcDbArc
 50
180.0
 51
270.0
  0
LINE
  5
6B6
330
70
100
AcDbEntity
  8
Visible
100
AcDbLine
 10
9.36
 20
5.875
 30
120.0
 11
9.35
 21
5.875
 31
120.0
210
0.0
220
1.0
230
0.0
  0
ARC
  5
6B7
330
70
100
AcDbEntity
  8
Visible
100
AcDbCircle
 10
9.36
 20
5.865
 30
120.0
 40
0.0099999999999991
100
AcDbArc
 50
0.0
 51
90.0
  0
LINE
  5
6B8
330
70
100
AcDbEntity
  8
Visible
100
AcDbLine
 10
9.37
 20
5.5725
 30
120.0
 11
9.37
 21
5.865
 31
120.0
210
0.0
220
1.0
230
0.0
  0
ARC
  5
6B9
330
70
100
AcDbEntity
  8
Visible
100
AcDbCircle
 10
9.36
 20
5.5725
 30
120.0
 40
0.0100000000000026
100
AcDbArc
 50
270.0
 51
360.0
  0
LINE
  5
6BA
330
70
100
AcDbEntity
  8
Visible
100
AcDbLine
 10
9.35
 20
5.5625
 30
120.0
 11
9.36
 21
5.5625
 31
120.0
210
0.0
220
1.0
230
0.0
  0
ARC
  5
6BB
330
70
100
AcDbEntity
  8
Visible
100
AcDbCircle
 10
9.35
 20
5.5525
 30
120.0
 40
0.0100000000000047
100
AcDbArc
 50
90.0
 51
180.0
  0
LINE
  5
6BC
330
70
100
AcDbEntity
  8
Visible
100
AcDbLine
 10
9.34
 20
5.4975
 30
120.0
 11
9.34
 21
5.5525
 31
120.0
210
0.0
220
1.0
230
0.0
  0
ARC
  5
6BD
330
70
100
AcDbEntity
  8
Visible
100
AcDbCircle
 10
9.28
 20
5.4975
 30
120.0
 40
0.0599999999999923
100
AcDbArc
 50
270.0
 51
0.0
  0
LINE
  5
6BE
330
70
100
AcDbEntity
  8
Visible
100
AcDbLine
 10
9.025
 20
5.4375
 30
120.0
 11
9.28
 21
5.4375
 31
120.0
210
0.0
220
1.0
230
0.0
  0
ARC
  5
6BF
330
70
100
AcDbEntity
  8
Visible
100
AcDbCircle
 10
9.025
 20
5.3775
 30
120.0
 40
0.06
100
AcDbArc
 50
90.0
 51
180.0
  0
LINE
  5
6C0
330
70
100
AcDbEntity
  8
Visible
100
AcDbLine
 10
8.965
 20
4.560903
 30
120.0
 11
8.965
 21
5.3775
 31
120.0
210
0.0
220
1.0
230
0.0
  0
LINE
  5
6C1
330
70
100
AcDbEntity
  8
Visible
100
AcDbLine
 10
8.948115
 20
4.244305
 30
120.0
 11
8.965
 21
4.560903
 31
120.0
210
0.0
220
1.0
230
0.0
  0
ARC
  5
6C2
330
70
100
AcDbEntity
  8
Visible
100
AcDbCircle
 10
8.8882
 20
4.2475
 30
120.0
 40
0.0600000000000012
100
AcDbArc
 50
270.0
 51
356.947117
  0
LINE
  5
6C3
330
70
100
AcDbEntity
  8
Hidden
100
AcDbLine
 10
8.749
 20
3.75
 30
114.0
 11
8.749
 21
3.5
 31
114.0
210
0.0
220
1.0
230
0.0
  0
LINE
  5
6C4
330
70
100
AcDbEntity
  8
Hidden
100
AcDbLine
 10
8.251
 20
3.75
 30
114.0
 11
8.251
 21
3.5
 31
114.0
210
0.0
220
1.0
230
0.0
  0
LINE
  5
6C5
330
70
100
AcDbEntity
  8
Hidden
100
AcDbLine
 10
8.0625
 20
3.989281
 30
114.0
 11
8.0625
 21
4.213302
 31
114.0
210
0.0
220
1.0
230
0.0
  0
LINE
  5
6C6
330
70
100
AcDbEntity
  8
Hidden
100
AcDbLine
 10
8.9375
 20
3.989281
 30
114.0
 11
8.9375
 21
4.213302
 31
114.0
210
0.0
220
1.0
230
0.0
  0
CIRCLE
  5
6C7
330
70
100
AcDbEntity
  8
Visible
100
AcDbCircle
 10
-1.375
 20
9.311781
 30
0.109375
 40
0.0155625
210
0.0
220
0.0
230
-1.0
  0
CIRCLE
  5
6C8
330
70
100
AcDbEntity
  8
Visible
100
AcDbCircle
 10
-2.875
 20
9.311781
 30
0.109375
 40
0.0155625
210
0.0
220
0.0
230
-1.0
  0
CIRCLE
  5
6C9
330
70
100
AcDbEntity
  8
Visible
100
AcDbCircle
 10
-4.375
 20
9.311781
 30
0.109375
 40
0.0155625
210
0.0
220
0.0
230
-1.0
  0
CIRCLE
  5
6CA
330
70
100
AcDbEntity
  8
Visible
100
AcDbCircle
 10
-5.875
 20
9.311781
 30
0.109375
 40
0.0155625
210
0.0
220
0.0
230
-1.0
  0
CIRCLE
  5
6CB
330
70
100
AcDbEntity
  8
Visible
100
AcDbCircle
 10
-7.375
 20
9.311781
 30
0.109375
 40
0.0155625
210
0.0
220
0.0
230
-1.0
  0
CIRCLE
  5
6CC
330
70
100
AcDbEntity
  8
Visible
100
AcDbCircle
 10
-8.875
 20
9.311781
 30
0.109375
 40
0.0155625
210
0.0
220
0.0
230
-1.0
  0
CIRCLE
  5
6CD
330
70
100
AcDbEntity
  8
Visible
100
AcDbCircle
 10
-10.375
 20
9.311781
 30
0.109375
 40
0.0155625
210
0.0
220
0.0
230
-1.0
  0
CIRCLE
  5
6CE
330
70
100
AcDbEntity
  8
Visible
100
AcDbCircle
 10
-11.875
 20
9.311781
 30
0.109375
 40
0.0155625
210
0.0
220
0.0
230
-1.0
  0
CIRCLE
  5
6CF
330
70
100
AcDbEntity
  8
Visible
100
AcDbCircle
 10
-13.375
 20
9.311781
 30
0.109375
 40
0.0155625
210
0.0
220
0.0
230
-1.0
  0
CIRCLE
  5
6D0
330
70
100
AcDbEntity
  8
Visible
100
AcDbCircle
 10
-14.875
 20
9.311781
 30
0.109375
 40
0.0155625
210
0.0
220
0.0
230
-1.0
  0
CIRCLE
  5
6D1
330
70
100
AcDbEntity
  8
Visible
100
AcDbCircle
 10
-15.625
 20
9.311781
 30
0.109375
 40
0.0155625
210
0.0
220
0.0
230
-1.0
  0
CIRCLE
  5
6D2
330
70
100
AcDbEntity
  8
Visible
100
AcDbCircle
 10
-14.125
 20
9.311781
 30
0.109375
 40
0.0155625
210
0.0
220
0.0
230
-1.0
  0
CIRCLE
  5
6D3
330
70
100
AcDbEntity
  8
Visible
100
AcDbCircle
 10
-12.625
 20
9.311781
 30
0.109375
 40
0.0155625
210
0.0
220
0.0
230
-1.0
  0
CIRCLE
  5
6D4
330
70
100
AcDbEntity
  8
Visible
100
AcDbCircle
 10
-11.125
 20
9.311781
 30
0.109375
 40
0.0155625
210
0.0
220
0.0
230
-1.0
  0
CIRCLE
  5
6D5
330
70
100
AcDbEntity
  8
Visible
100
AcDbCircle
 10
-9.625
 20
9.311781
 30
0.109375
 40
0.0155625
210
0.0
220
0.0
230
-1.0
  0
CIRCLE
  5
6D6
330
70
100
AcDbEntity
  8
Visible
100
AcDbCircle
 10
-8.125
 20
9.311781
 30
0.109375
 40
0.0155625
210
0.0
220
0.0
230
-1.0
  0
CIRCLE
  5
6D7
330
70
100
AcDbEntity
  8
Visible
100
AcDbCircle
 10
-6.625
 20
9.311781
 30
0.109375
 40
0.0155625
210
0.0
220
0.0
230
-1.0
  0
CIRCLE
  5
6D8
330
70
100
AcDbEntity
  8
Visible
100
AcDbCircle
 10
-5.125
 20
9.311781
 30
0.109375
 40
0.0155625
210
0.0
220
0.0
230
-1.0
  0
CIRCLE
  5
6D9
330
70
100
AcDbEntity
  8
Visible
100
AcDbCircle
 10
-3.625
 20
9.311781
 30
0.109375
 40
0.0155625
210
0.0
220
0.0
230
-1.0
  0
CIRCLE
  5
6DA
330
70
100
AcDbEntity
  8
Visible
100
AcDbCircle
 10
-2.125
 20
9.311781
 30
0.109375
 40
0.0155625
210
0.0
220
0.0
230
-1.0
  0
SPLINE
  5
6DB
330
70
100
AcDbEntity
  8
Visible
100
AcDbSpline
 70
     0
 71
     3
 72
    18
 73
    14
 74
     0
 42
0.000000001
 43
0.0000000001
 40
0.1280064322251601
 40
0.1280064322251601
 40
0.1280064322251601
 40
0.1280064322251601
 40
0.1290284598304052
 40
0.1290284598304052
 40
0.2296514482181899
 40
0.2296514482181899
 40
0.3302744366059746
 40
0.3302744366059746
 40
0.4308974249937594
 40
0.4308974249937594
 40
0.5315204133815441
 40
0.5315204133815441
 40
0.53254244098679
 40
0.53254244098679
 40
0.53254244098679
 40
0.53254244098679
 10
1.387610000984864
 20
9.287518075508501
 30
-0.0820312500000004
 10
1.387590984704047
 20
9.287508192133145
 30
-0.0820312500000004
 10
1.387572017269576
 20
9.287498362542692
 30
-0.0820312109268913
 10
1.385690765738445
 20
9.286526208721056
 30
-0.0820235662308187
 10
1.383603809683222
 20
9.285731778029798
 30
-0.08164428236415
 10
1.379308692194285
 20
9.284688131382495
 30
-0.0808292508322335
 10
1.377096312258117
 20
9.284436817944765
 30
-0.0804186203063234
 10
1.372903687741882
 20
9.284436817944765
 30
-0.0804186203063234
 10
1.370691307805714
 20
9.284688131382495
 30
-0.0808292508322335
 10
1.366396190316777
 20
9.285731778029798
 30
-0.08164428236415
 10
1.364309234261668
 20
9.286526208721056
 30
-0.0820235662308187
 10
1.362427982730423
 20
9.287498362542692
 30
-0.0820312109268913
 10
1.362409015295952
 20
9.287508192133145
 30
-0.0820312500000004
 10
1.362389999015135
 20
9.287518075508501
 30
-0.0820312500000004
1001
ACAD_VIEW_EDGE_ID
1071
      315
1071
       -1
1071
        2
1071
        0
  0
ARC
  5
6DC
330
70
100
AcDbEntity
  8
Visible
100
AcDbCircle
 10
9.336043
 20
-0.078281
 30
1.0
 40
0.0037500000000001
210
1.0
220
-0.0000000000000002
230
0.0
100
AcDbArc
 50
270.0
 51
356.947117
  0
ARC
  5
6DD
330
70
100
AcDbEntity
  8
Visible
100
AcDbCircle
 10
9.336043
 20
-0.078281
 30
16.0
 40
0.0037500000000001
210
1.0
220
-0.0000000000000002
230
0.0
100
AcDbArc
 50
270.0
 51
356.947117
  0
SPLINE
  5
6DE
330
70
100
AcDbEntity
  8
Visible
100
AcDbSpline
 70
     0
 71
     3
 72
    18
 73
    14
 74
     0
 42
0.000000001
 43
0.0000000001
 40
0.1280064322251571
 40
0.1280064322251571
 40
0.1280064322251571
 40
0.1280064322251571
 40
0.1290284598304132
 40
0.1290284598304132
 40
0.229651448218218
 40
0.229651448218218
 40
0.3302744366060228
 40
0.3302744366060228
 40
0.4308974249938276
 40
0.4308974249938276
 40
0.5315204133816324
 40
0.5315204133816324
 40
0.5325424409869099
 40
0.5325424409869099
 40
0.5325424409869099
 40
0.5325424409869099
 10
1.362389999015135
 20
9.336043060381143
 30
-0.0820312500000005
 10
1.362409015295952
 20
9.336052943756499
 30
-0.0820312500000005
 10
1.362427982730423
 20
9.336062773346952
 30
-0.0820312109268913
 10
1.364309234261668
 20
9.337034927168588
 30
-0.0820235662308185
 10
1.366396190316777
 20
9.337829357859845
 30
-0.0816442823641495
 10
1.370691307805714
 20
9.338873004507149
 30
-0.0808292508322318
 10
1.372903687741882
 20
9.339124317944765
 30
-0.080418620306321
 10
1.377096312258117
 20
9.339124317944765
 30
-0.080418620306321
 10
1.379308692194285
 20
9.338873004507149
 30
-0.0808292508322318
 10
1.383603809683222
 20
9.337829357859845
 30
-0.0816442823641495
 10
1.385690765738445
 20
9.337034927168588
 30
-0.0820235662308185
 10
1.387572017269576
 20
9.336062773346952
 30
-0.0820312109268913
 10
1.387590984704047
 20
9.336052943756499
 30
-0.0820312500000005
 10
1.387610000984864
 20
9.336043060381143
 30
-0.0820312500000005
1001
ACAD_VIEW_EDGE_ID
1071
      310
1071
       -1
1071
        2
1071
        0
  0
ARC
  5
6DF
330
70
100
AcDbEntity
  8
Visible
100
AcDbCircle
 10
-9.344593
 20
-0.007656
 30
-1.0
 40
0.00375
210
-1.0
220
0.0000000000000002
230
0.0
100
AcDbArc
 50
360.0
 51
90.0
  0
ARC
  5
6E0
330
70
100
AcDbEntity
  8
Visible
100
AcDbCircle
 10
9.344593
 20
-0.007656
 30
16.0
 40
0.00375
210
1.0
220
-0.0000000000000002
230
0.0
100
AcDbArc
 50
90.0
 51
180.0
  0
SPLINE
  5
6E1
330
70
100
AcDbEntity
  8
Visible
100
AcDbSpline
 70
     0
 71
     3
 72
    18
 73
    14
 74
     0
 42
0.000000001
 43
0.0000000001
 40
0.1280064322251605
 40
0.1280064322251605
 40
0.1280064322251605
 40
0.1280064322251605
 40
0.1290284598304073
 40
0.1290284598304073
 40
0.2296514482181923
 40
0.2296514482181923
 40
0.3302744366059772
 40
0.3302744366059772
 40
0.4308974249937622
 40
0.4308974249937622
 40
0.5315204133815472
 40
0.5315204133815472
 40
0.532542440986794
 40
0.532542440986794
 40
0.532542440986794
 40
0.532542440986794
 10
2.887610000984864
 20
9.287518075508501
 30
-0.0820312500000004
 10
2.887590984704047
 20
9.287508192133145
 30
-0.0820312500000004
 10
2.887572017269576
 20
9.287498362542692
 30
-0.0820312109268913
 10
2.885690765738445
 20
9.286526208721056
 30
-0.0820235662308186
 10
2.883603809683222
 20
9.285731778029798
 30
-0.08164428236415
 10
2.879308692194285
 20
9.284688131382495
 30
-0.0808292508322334
 10
2.877096312258117
 20
9.284436817944765
 30
-0.0804186203063232
 10
2.872903687741882
 20
9.284436817944765
 30
-0.0804186203063232
 10
2.870691307805714
 20
9.284688131382495
 30
-0.0808292508322334
 10
2.866396190316777
 20
9.285731778029798
 30
-0.08164428236415
 10
2.864309234261668
 20
9.286526208721056
 30
-0.0820235662308186
 10
2.862427982730423
 20
9.287498362542692
 30
-0.0820312109268913
 10
2.862409015295952
 20
9.287508192133145
 30
-0.0820312500000004
 10
2.862389999015135
 20
9.287518075508501
 30
-0.0820312500000004
1001
ACAD_VIEW_EDGE_ID
1071
      301
1071
       -1
1071
        2
1071
        0
  0
ARC
  5
6E2
330
70
100
AcDbEntity
  8
Visible
100
AcDbCircle
 10
9.360531
 20
-0.000156
 30
1.0
 40
0.0037499999999995
210
1.0
220
-0.0000000000000002
230
0.0
100
AcDbArc
 50
270.0
 51
0.0
  0
ARC
  5
6E3
330
70
100
AcDbEntity
  8
Visible
100
AcDbCircle
 10
9.360531
 20
-0.000156
 30
16.0
 40
0.0037499999999995
210
1.0
220
-0.0000000000000002
230
0.0
100
AcDbArc
 50
270.0
 51
0.0
  0
SPLINE
  5
6E4
330
70
100
AcDbEntity
  8
Visible
100
AcDbSpline
 70
     0
 71
     3
 72
    18
 73
    14
 74
     0
 42
0.000000001
 43
0.0000000001
 40
0.1280064322251362
 40
0.1280064322251362
 40
0.1280064322251362
 40
0.1280064322251362
 40
0.1290284598304112
 40
0.1290284598304112
 40
0.2296514482182157
 40
0.2296514482182157
 40
0.3302744366060203
 40
0.3302744366060203
 40
0.4308974249938248
 40
0.4308974249938248
 40
0.5315204133816294
 40
0.5315204133816294
 40
0.532542440986973
 40
0.532542440986973
 40
0.532542440986973
 40
0.532542440986973
 10
2.862389999015135
 20
9.336043060381143
 30
-0.0820312500000005
 10
2.862409015295952
 20
9.336052943756499
 30
-0.0820312500000005
 10
2.862427982730423
 20
9.336062773346952
 30
-0.0820312109268913
 10
2.864309234261668
 20
9.337034927168588
 30
-0.0820235662308185
 10
2.866396190316777
 20
9.337829357859845
 30
-0.0816442823641492
 10
2.870691307805714
 20
9.338873004507149
 30
-0.0808292508322319
 10
2.872903687741882
 20
9.339124317944765
 30
-0.0804186203063212
 10
2.877096312258117
 20
9.339124317944765
 30
-0.0804186203063212
 10
2.879308692194285
 20
9.338873004507149
 30
-0.0808292508322322
 10
2.883603809683222
 20
9.337829357859845
 30
-0.0816442823641496
 10
2.885690765738445
 20
9.337034927168588
 30
-0.0820235662308185
 10
2.887572017269576
 20
9.336062773346952
 30
-0.0820312109268913
 10
2.887590984704047
 20
9.336052943756499
 30
-0.0820312500000005
 10
2.887610000984864
 20
9.336043060381143
 30
-0.0820312500000005
1001
ACAD_VIEW_EDGE_ID
1071
      296
1071
       -1
1071
        2
1071
        0
  0
ARC
  5
6E5
330
70
100
AcDbEntity
  8
Visible
100
AcDbCircle
 10
-9.368031
 20
0.093906
 30
-1.0
 40
0.00375
210
-1.0
220
0.0000000000000002
230
0.0
100
AcDbArc
 50
360.0
 51
90.0
  0
ARC
  5
6E6
330
70
100
AcDbEntity
  8
Visible
100
AcDbCircle
 10
9.368031
 20
0.093906
 30
16.0
 40
0.00375
210
1.0
220
-0.0000000000000002
230
0.0
100
AcDbArc
 50
90.0
 51
180.0
  0
SPLINE
  5
6E7
330
70
100
AcDbEntity
  8
Visible
100
AcDbSpline
 70
     0
 71
     3
 72
    18
 73
    14
 74
     0
 42
0.000000001
 43
0.0000000001
 40
0.1280064322251015
 40
0.1280064322251015
 40
0.1280064322251015
 40
0.1280064322251015
 40
0.129028459830409
 40
0.129028459830409
 40
0.2296514482181942
 40
0.2296514482181942
 40
0.3302744366059795
 40
0.3302744366059795
 40
0.4308974249937647
 40
0.4308974249937647
 40
0.5315204133815499
 40
0.5315204133815499
 40
0.5325424409867983
 40
0.5325424409867983
 40
0.5325424409867983
 40
0.5325424409867983
 10
4.387610000984864
 20
9.287518075508501
 30
-0.0820312500000004
 10
4.387590984704047
 20
9.287508192133145
 30
-0.0820312500000004
 10
4.387572017269576
 20
9.287498362542692
 30
-0.0820312109268913
 10
4.385690765738331
 20
9.286526208721056
 30
-0.0820235662308186
 10
4.383603809683222
 20
9.285731778029798
 30
-0.0816442823641502
 10
4.379308692194285
 20
9.284688131382495
 30
-0.0808292508322338
 10
4.377096312258117
 20
9.284436817944765
 30
-0.0804186203063231
 10
4.372903687741882
 20
9.284436817944765
 30
-0.0804186203063231
 10
4.370691307805714
 20
9.284688131382495
 30
-0.0808292508322333
 10
4.366396190316777
 20
9.285731778029798
 30
-0.0816442823641499
 10
4.364309234261668
 20
9.286526208721056
 30
-0.0820235662308186
 10
4.362427982730423
 20
9.287498362542692
 30
-0.0820312109268913
 10
4.362409015295952
 20
9.287508192133145
 30
-0.0820312500000004
 10
4.362389999015135
 20
9.287518075508501
 30
-0.0820312500000004
1001
ACAD_VIEW_EDGE_ID
1071
      287
1071
       -1
1071
        2
1071
        0
  0
ARC
  5
6E8
330
70
100
AcDbEntity
  8
Visible
100
AcDbCircle
 10
-9.374904
 20
0.125
 30
-1.0
 40
0.0039062499999999
210
-1.0
220
0.0000000000000002
230
0.0
100
AcDbArc
 50
0.0
 51
90.0
  0
ARC
  5
6E9
330
70
100
AcDbEntity
  8
Visible
100
AcDbCircle
 10
9.374904
 20
0.125
 30
16.0
 40
0.0039062499999996
210
1.0
220
-0.0000000000000002
230
0.0
100
AcDbArc
 50
90.0
 51
180.0
  0
SPLINE
  5
6EA
330
70
100
AcDbEntity
  8
Visible
100
AcDbSpline
 70
     0
 71
     3
 72
    18
 73
    14
 74
     0
 42
0.000000001
 43
0.0000000001
 40
0.1280064322251458
 40
0.1280064322251458
 40
0.1280064322251458
 40
0.1280064322251458
 40
0.129028459830411
 40
0.129028459830411
 40
0.2296514482182149
 40
0.2296514482182149
 40
0.3302744366060188
 40
0.3302744366060188
 40
0.4308974249938228
 40
0.4308974249938228
 40
0.5315204133816267
 40
0.5315204133816267
 40
0.5325424409868833
 40
0.5325424409868833
 40
0.5325424409868833
 40
0.5325424409868833
 10
4.362389999015135
 20
9.336043060381143
 30
-0.0820312500000005
 10
4.362409015295952
 20
9.336052943756499
 30
-0.0820312500000005
 10
4.362427982730423
 20
9.336062773346952
 30
-0.0820312109268913
 10
4.364309234261668
 20
9.337034927168588
 30
-0.0820235662308185
 10
4.366396190316777
 20
9.337829357859845
 30
-0.0816442823641496
 10
4.370691307805714
 20
9.338873004507149
 30
-0.0808292508322323
 10
4.372903687741882
 20
9.339124317944765
 30
-0.0804186203063213
 10
4.377096312258117
 20
9.339124317944765
 30
-0.0804186203063213
 10
4.379308692194285
 20
9.338873004507149
 30
-0.0808292508322323
 10
4.383603809683222
 20
9.337829357859845
 30
-0.0816442823641496
 10
4.385690765738445
 20
9.337034927168588
 30
-0.0820235662308185
 10
4.387572017269576
 20
9.336062773346952
 30
-0.0820312109268913
 10
4.387590984704047
 20
9.336052943756499
 30
-0.0820312500000005
 10
4.387610000984864
 20
9.336043060381143
 30
-0.0820312500000005
1001
ACAD_VIEW_EDGE_ID
1071
      282
1071
       -1
1071
        2
1071
        0
  0
ARC
  5
6EB
330
70
100
AcDbEntity
  8
Visible
100
AcDbCircle
 10
-9.382093
 20
0.121094
 30
-1.0
 40
0.0078125
210
-1.0
220
0.0000000000000002
230
0.0
100
AcDbArc
 50
90.0
 51
180.0
  0
ARC
  5
6EC
330
70
100
AcDbEntity
  8
Visible
100
AcDbCircle
 10
9.382093
 20
0.121094
 30
16.0
 40
0.0078125000000001
210
1.0
220
-0.0000000000000002
230
0.0
100
AcDbArc
 50
0.0
 51
90.0
  0
SPLINE
  5
6ED
330
70
100
AcDbEntity
  8
Visible
100
AcDbSpline
 70
     0
 71
     3
 72
    18
 73
    14
 74
     0
 42
0.000000001
 43
0.0000000001
 40
0.1280064322251302
 40
0.1280064322251302
 40
0.1280064322251302
 40
0.1280064322251302
 40
0.1290284598304101
 40
0.1290284598304101
 40
0.2296514482181956
 40
0.2296514482181956
 40
0.3302744366059811
 40
0.3302744366059811
 40
0.4308974249937665
 40
0.4308974249937665
 40
0.531520413381552
 40
0.531520413381552
 40
0.5325424409868319
 40
0.5325424409868319
 40
0.5325424409868319
 40
0.5325424409868319
 10
5.887610000984864
 20
9.287518075508501
 30
-0.0820312500000004
 10
5.887590984704047
 20
9.287508192133145
 30
-0.0820312500000004
 10
5.887572017269576
 20
9.287498362542692
 30
-0.0820312109268913
 10
5.885690765738331
 20
9.286526208721056
 30
-0.0820235662308186
 10
5.883603809683222
 20
9.285731778029798
 30
-0.0816442823641499
 10
5.879308692194285
 20
9.284688131382495
 30
-0.0808292508322332
 10
5.877096312258117
 20
9.284436817944765
 30
-0.0804186203063229
 10
5.872903687741882
 20
9.284436817944765
 30
-0.0804186203063229
 10
5.870691307805714
 20
9.284688131382495
 30
-0.0808292508322332
 10
5.866396190316777
 20
9.285731778029798
 30
-0.0816442823641499
 10
5.864309234261668
 20
9.286526208721056
 30
-0.0820235662308186
 10
5.862427982730423
 20
9.287498362542692
 30
-0.0820312109268913
 10
5.862409015295952
 20
9.287508192133145
 30
-0.0820312500000004
 10
5.862389999015135
 20
9.287518075508501
 30
-0.0820312500000004
1001
ACAD_VIEW_EDGE_ID
1071
      273
1071
       -1
1071
        2
1071
        0
  0
ARC
  5
6EE
330
70
100
AcDbEntity
  8
Visible
100
AcDbCircle
 10
-9.241468
 20
0.121094
 30
-1.0
 40
0.0078125000000001
210
-1.0
220
0.0000000000000002
230
0.0
100
AcDbArc
 50
360.0
 51
90.0
  0
ARC
  5
6EF
330
70
100
AcDbEntity
  8
Visible
100
AcDbCircle
 10
9.241468
 20
0.121094
 30
16.0
 40
0.0078125000000001
210
1.0
220
-0.0000000000000002
230
0.0
100
AcDbArc
 50
90.0
 51
180.0
  0
SPLINE
  5
6F0
330
70
100
AcDbEntity
  8
Visible
100
AcDbSpline
 70
     0
 71
     3
 72
    18
 73
    14
 74
     0
 42
0.000000001
 43
0.0000000001
 40
0.1280064322250865
 40
0.1280064322250865
 40
0.1280064322250865
 40
0.1280064322250865
 40
0.1290284598303993
 40
0.1290284598303993
 40
0.2296514482182015
 40
0.2296514482182015
 40
0.3302744366060037
 40
0.3302744366060037
 40
0.430897424993806
 40
0.430897424993806
 40
0.5315204133816082
 40
0.5315204133816082
 40
0.5325424409868689
 40
0.5325424409868689
 40
0.5325424409868689
 40
0.5325424409868689
 10
5.862389999015135
 20
9.336043060381143
 30
-0.0820312500000005
 10
5.862409015295952
 20
9.336052943756499
 30
-0.0820312500000005
 10
5.862427982730423
 20
9.336062773346952
 30
-0.0820312109268913
 10
5.864309234261668
 20
9.337034927168588
 30
-0.0820235662308184
 10
5.866396190316777
 20
9.337829357859845
 30
-0.0816442823641497
 10
5.870691307805714
 20
9.338873004507149
 30
-0.0808292508322324
 10
5.872903687741882
 20
9.339124317944765
 30
-0.0804186203063214
 10
5.877096312258117
 20
9.339124317944765
 30
-0.0804186203063214
 10
5.879308692194285
 20
9.338873004507149
 30
-0.0808292508322324
 10
5.883603809683222
 20
9.337829357859845
 30
-0.0816442823641497
 10
5.885690765738445
 20
9.337034927168588
 30
-0.0820235662308184
 10
5.887572017269576
 20
9.336062773346952
 30
-0.0820312109268913
 10
5.887590984704047
 20
9.336052943756499
 30
-0.0820312500000005
 10
5.887610000984864
 20
9.336043060381143
 30
-0.0820312500000005
1001
ACAD_VIEW_EDGE_ID
1071
      268
1071
       -1
1071
        2
1071
        0
  0
ARC
  5
6F1
330
70
100
AcDbEntity
  8
Visible
100
AcDbCircle
 10
-9.248657
 20
0.125
 30
-1.0
 40
0.0039062499999993
210
-1.0
220
0.0000000000000002
230
0.0
100
AcDbArc
 50
90.0
 51
180.0
  0
ARC
  5
6F2
330
70
100
AcDbEntity
  8
Visible
100
AcDbCircle
 10
9.248657
 20
0.125
 30
16.0
 40
0.0039062499999993
210
1.0
220
-0.0000000000000002
230
0.0
100
AcDbArc
 50
0.0
 51
90.0
  0
SPLINE
  5
6F3
330
70
100
AcDbEntity
  8
Visible
100
AcDbSpline
 70
     0
 71
     3
 72
    18
 73
    14
 74
     0
 42
0.000000001
 43
0.0000000001
 40
0.1280064322251601
 40
0.1280064322251601
 40
0.1280064322251601
 40
0.1280064322251601
 40
0.1290284598304101
 40
0.1290284598304101
 40
0.2296514482181956
 40
0.2296514482181956
 40
0.3302744366059811
 40
0.3302744366059811
 40
0.4308974249937665
 40
0.4308974249937665
 40
0.531520413381552
 40
0.531520413381552
 40
0.532542440986802
 40
0.532542440986802
 40
0.532542440986802
 40
0.532542440986802
 10
7.387610000984864
 20
9.287518075508501
 30
-0.0820312500000004
 10
7.387590984704047
 20
9.287508192133145
 30
-0.0820312500000004
 10
7.387572017269576
 20
9.287498362542692
 30
-0.0820312109268913
 10
7.385690765738331
 20
9.286526208721056
 30
-0.0820235662308186
 10
7.383603809683222
 20
9.285731778029798
 30
-0.0816442823641499
 10
7.379308692194285
 20
9.284688131382495
 30
-0.0808292508322332
 10
7.377096312258117
 20
9.284436817944765
 30
-0.0804186203063229
 10
7.372903687741882
 20
9.284436817944765
 30
-0.0804186203063229
 10
7.370691307805714
 20
9.284688131382495
 30
-0.0808292508322332
 10
7.366396190316777
 20
9.285731778029798
 30
-0.0816442823641499
 10
7.364309234261668
 20
9.286526208721056
 30
-0.0820235662308186
 10
7.362427982730423
 20
9.287498362542692
 30
-0.0820312109268913
 10
7.362409015295952
 20
9.287508192133145
 30
-0.0820312500000004
 10
7.362389999015135
 20
9.287518075508501
 30
-0.0820312500000004
1001
ACAD_VIEW_EDGE_ID
1071
      259
1071
       -1
1071
        2
1071
        0
  0
ARC
  5
6F4
330
70
100
AcDbEntity
  8
Visible
100
AcDbCircle
 10
-9.255531
 20
0.093906
 30
-1.0
 40
0.0037500000000001
210
-1.0
220
0.0000000000000002
230
0.0
100
AcDbArc
 50
90.0
 51
180.0
  0
ARC
  5
6F5
330
70
100
AcDbEntity
  8
Visible
100
AcDbCircle
 10
9.255531
 20
0.093906
 30
16.0
 40
0.0037500000000002
210
1.0
220
-0.0000000000000002
230
0.0
100
AcDbArc
 50
0.0
 51
90.0
  0
SPLINE
  5
6F6
330
70
100
AcDbEntity
  8
Visible
100
AcDbSpline
 70
     0
 71
     3
 72
    18
 73
    14
 74
     0
 42
0.000000001
 43
0.0000000001
 40
0.1280064322251094
 40
0.1280064322251094
 40
0.1280064322251094
 40
0.1280064322251094
 40
0.1290284598303993
 40
0.1290284598303993
 40
0.2296514482182015
 40
0.2296514482182015
 40
0.3302744366060037
 40
0.3302744366060037
 40
0.430897424993806
 40
0.430897424993806
 40
0.5315204133816082
 40
0.5315204133816082
 40
0.5325424409868989
 40
0.5325424409868989
 40
0.5325424409868989
 40
0.5325424409868989
 10
7.362389999015135
 20
9.336043060381143
 30
-0.0820312500000005
 10
7.362409015295952
 20
9.336052943756499
 30
-0.0820312500000005
 10
7.362427982730423
 20
9.336062773346952
 30
-0.0820312109268913
 10
7.364309234261668
 20
9.337034927168588
 30
-0.0820235662308184
 10
7.366396190316777
 20
9.337829357859845
 30
-0.0816442823641497
 10
7.370691307805714
 20
9.338873004507149
 30
-0.0808292508322324
 10
7.372903687741882
 20
9.339124317944765
 30
-0.0804186203063214
 10
7.377096312258117
 20
9.339124317944765
 30
-0.0804186203063214
 10
7.379308692194285
 20
9.338873004507149
 30
-0.0808292508322324
 10
7.383603809683222
 20
9.337829357859845
 30
-0.0816442823641497
 10
7.385690765738445
 20
9.337034927168588
 30
-0.0820235662308184
 10
7.387572017269576
 20
9.336062773346952
 30
-0.0820312109268913
 10
7.387590984704047
 20
9.336052943756499
 30
-0.0820312500000005
 10
7.387610000984864
 20
9.336043060381143
 30
-0.0820312500000005
1001
ACAD_VIEW_EDGE_ID
1071
      254
1071
       -1
1071
        2
1071
        0
  0
ARC
  5
6F7
330
70
100
AcDbEntity
  8
Visible
100
AcDbCircle
 10
9.263031
 20
-0.000156
 30
1.0
 40
0.0037500000000001
210
1.0
220
-0.0000000000000002
230
0.0
100
AcDbArc
 50
180.0
 51
270.0
  0
ARC
  5
6F8
330
70
100
AcDbEntity
  8
Visible
100
AcDbCircle
 10
9.263031
 20
-0.000156
 30
16.0
 40
0.0037500000000001
210
1.0
220
-0.0000000000000002
230
0.0
100
AcDbArc
 50
180.0
 51
270.0
  0
SPLINE
  5
6F9
330
70
100
AcDbEntity
  8
Visible
100
AcDbSpline
 70
     0
 71
     3
 72
    18
 73
    14
 74
     0
 42
0.000000001
 43
0.0000000001
 40
0.128006432225145
 40
0.128006432225145
 40
0.128006432225145
 40
0.128006432225145
 40
0.1290284598303995
 40
0.1290284598303995
 40
0.2296514482181923
 40
0.2296514482181923
 40
0.3302744366059851
 40
0.3302744366059851
 40
0.4308974249937778
 40
0.4308974249937778
 40
0.5315204133815705
 40
0.5315204133815705
 40
0.5325424409868211
 40
0.5325424409868211
 40
0.5325424409868211
 40
0.5325424409868211
 10
8.887610000984864
 20
9.287518075508501
 30
-0.0820312500000004
 10
8.887590984704047
 20
9.287508192133145
 30
-0.0820312500000004
 10
8.887572017269576
 20
9.287498362542692
 30
-0.0820312109268913
 10
8.885690765738331
 20
9.286526208721056
 30
-0.0820235662308186
 10
8.883603809683222
 20
9.285731778029798
 30
-0.0816442823641495
 10
8.879308692194285
 20
9.284688131382495
 30
-0.0808292508322331
 10
8.877096312258117
 20
9.284436817944765
 30
-0.0804186203063227
 10
8.872903687741882
 20
9.284436817944765
 30
-0.0804186203063227
 10
8.870691307805714
 20
9.284688131382495
 30
-0.0808292508322331
 10
8.866396190316777
 20
9.285731778029798
 30
-0.0816442823641495
 10
8.864309234261668
 20
9.286526208721056
 30
-0.0820235662308186
 10
8.862427982730423
 20
9.287498362542692
 30
-0.0820312109268913
 10
8.862409015295952
 20
9.287508192133145
 30
-0.0820312500000004
 10
8.862389999015135
 20
9.287518075508501
 30
-0.0820312500000004
1001
ACAD_VIEW_EDGE_ID
1071
      245
1071
       -1
1071
        2
1071
        0
  0
ARC
  5
6FA
330
70
100
AcDbEntity
  8
Visible
100
AcDbCircle
 10
-9.278968
 20
-0.007656
 30
-1.0
 40
0.0037500000000002
210
-1.0
220
0.0000000000000002
230
0.0
100
AcDbArc
 50
90.0
 51
180.0
  0
ARC
  5
6FB
330
70
100
AcDbEntity
  8
Visible
100
AcDbCircle
 10
9.278968
 20
-0.007656
 30
16.0
 40
0.0037500000000002
210
1.0
220
-0.0000000000000002
230
0.0
100
AcDbArc
 50
0.0
 51
90.0
  0
SPLINE
  5
6FC
330
70
100
AcDbEntity
  8
Visible
100
AcDbSpline
 70
     0
 71
     3
 72
    18
 73
    14
 74
     0
 42
0.000000001
 43
0.0000000001
 40
0.128006432225128
 40
0.128006432225128
 40
0.128006432225128
 40
0.128006432225128
 40
0.1290284598303991
 40
0.1290284598303991
 40
0.2296514482182018
 40
0.2296514482182018
 40
0.3302744366060045
 40
0.3302744366060045
 40
0.4308974249938072
 40
0.4308974249938072
 40
0.5315204133816099
 40
0.5315204133816099
 40
0.5325424409868793
 40
0.5325424409868793
 40
0.5325424409868793
 40
0.5325424409868793
 10
8.862389999015135
 20
9.336043060381143
 30
-0.0820312500000005
 10
8.862409015295952
 20
9.336052943756499
 30
-0.0820312500000005
 10
8.862427982730423
 20
9.336062773346952
 30
-0.0820312109268913
 10
8.864309234261668
 20
9.337034927168588
 30
-0.0820235662308185
 10
8.866396190316777
 20
9.337829357859845
 30
-0.0816442823641496
 10
8.870691307805714
 20
9.338873004507149
 30
-0.0808292508322325
 10
8.872903687741882
 20
9.339124317944765
 30
-0.0804186203063216
 10
8.877096312258117
 20
9.339124317944765
 30
-0.0804186203063216
 10
8.879308692194285
 20
9.338873004507149
 30
-0.0808292508322325
 10
8.883603809683222
 20
9.337829357859845
 30
-0.0816442823641496
 10
8.885690765738445
 20
9.337034927168588
 30
-0.0820235662308185
 10
8.887572017269576
 20
9.336062773346952
 30
-0.0820312109268913
 10
8.887590984704047
 20
9.336052943756499
 30
-0.0820312500000005
 10
8.887610000984864
 20
9.336043060381143
 30
-0.0820312500000005
1001
ACAD_VIEW_EDGE_ID
1071
      240
1071
       -1
1071
        2
1071
        0
  0
ARC
  5
6FD
330
70
100
AcDbEntity
  8
Visible
100
AcDbCircle
 10
9.287518
 20
-0.078281
 30
16.0
 40
0.0037499999999999
210
1.0
220
-0.0000000000000002
230
0.0
100
AcDbArc
 50
183.052883
 51
270.0
  0
ARC
  5
6FE
330
70
100
AcDbEntity
  8
Visible
100
AcDbCircle
 10
9.287518
 20
-0.078281
 30
1.0
 40
0.0037499999999999
210
1.0
220
-0.0000000000000002
230
0.0
100
AcDbArc
 50
183.052883
 51
270.0
  0
SPLINE
  5
6FF
330
70
100
AcDbEntity
  8
Visible
100
AcDbSpline
 70
     0
 71
     3
 72
    18
 73
    14
 74
     0
 42
0.000000001
 43
0.0000000001
 40
0.1280064322251493
 40
0.1280064322251493
 40
0.1280064322251493
 40
0.1280064322251493
 40
0.1290284598304015
 40
0.1290284598304015
 40
0.2296514482181946
 40
0.2296514482181946
 40
0.3302744366059875
 40
0.3302744366059875
 40
0.4308974249937806
 40
0.4308974249937806
 40
0.5315204133815737
 40
0.5315204133815737
 40
0.532542440986841
 40
0.532542440986841
 40
0.532542440986841
 40
0.532542440986841
 10
10.38761000098486
 20
9.287518075508501
 30
-0.0820312500000004
 10
10.38759098470404
 20
9.287508192133145
 30
-0.0820312500000004
 10
10.38757201726957
 20
9.287498362542692
 30
-0.0820312109268913
 10
10.38569076573833
 20
9.286526208721056
 30
-0.0820235662308185
 10
10.38360380968322
 20
9.285731778029798
 30
-0.0816442823641497
 10
10.37930869219428
 20
9.284688131382495
 30
-0.0808292508322332
 10
10.37709631225812
 20
9.284436817944765
 30
-0.0804186203063226
 10
10.37290368774188
 20
9.284436817944765
 30
-0.0804186203063226
 10
10.37069130780571
 20
9.284688131382495
 30
-0.080829250832233
 10
10.36639619031678
 20
9.285731778029798
 30
-0.0816442823641495
 10
10.36430923426167
 20
9.286526208721056
 30
-0.0820235662308185
 10
10.36242798273042
 20
9.287498362542692
 30
-0.0820312109268913
 10
10.36240901529595
 20
9.287508192133145
 30
-0.0820312500000004
 10
10.36238999901513
 20
9.287518075508501
 30
-0.0820312500000004
1001
ACAD_VIEW_EDGE_ID
1071
      231
1071
       -1
1071
        2
1071
        0
  0
ARC
  5
700
330
70
100
AcDbEntity
  8
Visible
100
AcDbCircle
 10
-1.375
 20
9.311781
 30
0.082031
 40
0.0273437499999942
210
0.0
220
0.0
230
-1.0
100
AcDbArc
 50
117.462357
 51
179.345177
  0
ARC
  5
701
330
70
100
AcDbEntity
  8
Visible
100
AcDbCircle
 10
-1.375
 20
9.311781
 30
0.082031
 40
0.0273437500000003
210
0.0
220
0.0
230
-1.0
100
AcDbArc
 50
180.654823
 51
242.537643
  0
SPLINE
  5
702
330
70
100
AcDbEntity
  8
Visible
100
AcDbSpline
 70
     0
 71
     3
 72
    18
 73
    14
 74
     0
 42
0.000000001
 43
0.0000000001
 40
0.1280064322251131
 40
0.1280064322251131
 40
0.1280064322251131
 40
0.1280064322251131
 40
0.1290284598303992
 40
0.1290284598303992
 40
0.2296514482182013
 40
0.2296514482182013
 40
0.3302744366060033
 40
0.3302744366060033
 40
0.4308974249938055
 40
0.4308974249938055
 40
0.5315204133816076
 40
0.5315204133816076
 40
0.5325424409868788
 40
0.5325424409868788
 40
0.5325424409868788
 40
0.5325424409868788
 10
10.36238999901513
 20
9.336043060381143
 30
-0.0820312500000005
 10
10.36240901529595
 20
9.336052943756499
 30
-0.0820312500000005
 10
10.36242798273042
 20
9.336062773346952
 30
-0.0820312109268913
 10
10.36430923426167
 20
9.337034927168588
 30
-0.0820235662308185
 10
10.36639619031678
 20
9.337829357859845
 30
-0.0816442823641496
 10
10.37069130780571
 20
9.338873004507149
 30
-0.0808292508322326
 10
10.37290368774188
 20
9.339124317944765
 30
-0.0804186203063218
 10
10.37709631225812
 20
9.339124317944765
 30
-0.0804186203063218
 10
10.37930869219428
 20
9.338873004507149
 30
-0.0808292508322326
 10
10.38360380968322
 20
9.337829357859845
 30
-0.0816442823641496
 10
10.38569076573844
 20
9.337034927168588
 30
-0.0820235662308185
 10
10.38757201726957
 20
9.336062773346952
 30
-0.0820312109268913
 10
10.38759098470404
 20
9.336052943756499
 30
-0.0820312500000005
 10
10.38761000098486
 20
9.336043060381143
 30
-0.0820312500000005
1001
ACAD_VIEW_EDGE_ID
1071
      226
1071
       -1
1071
        2
1071
        0
  0
ARC
  5
703
330
70
100
AcDbEntity
  8
Visible
100
AcDbCircle
 10
-1.375
 20
9.311781
 30
0.082031
 40
0.0273437500000004
210
0.0
220
0.0
230
-1.0
100
AcDbArc
 50
297.462357
 51
359.345177
  0
ARC
  5
704
330
70
100
AcDbEntity
  8
Visible
100
AcDbCircle
 10
-1.375
 20
9.311781
 30
0.082031
 40
0.0273437499999947
210
0.0
220
0.0
230
-1.0
100
AcDbArc
 50
0.654823
 51
62.537643
  0
SPLINE
  5
705
330
70
100
AcDbEntity
  8
Visible
100
AcDbSpline
 70
     0
 71
     3
 72
    18
 73
    14
 74
     0
 42
0.000000001
 43
0.0000000001
 40
0.1280064322251254
 40
0.1280064322251254
 40
0.1280064322251254
 40
0.1280064322251254
 40
0.1290284598304027
 40
0.1290284598304027
 40
0.229651448218196
 40
0.229651448218196
 40
0.3302744366059893
 40
0.3302744366059893
 40
0.4308974249937826
 40
0.4308974249937826
 40
0.5315204133815758
 40
0.5315204133815758
 40
0.532542440986854
 40
0.532542440986854
 40
0.532542440986854
 40
0.532542440986854
 10
11.88761000098486
 20
9.287518075508501
 30
-0.0820312500000004
 10
11.88759098470405
 20
9.287508192133145
 30
-0.0820312500000004
 10
11.88757201726957
 20
9.287498362542692
 30
-0.0820312109268913
 10
11.88569076573833
 20
9.286526208721056
 30
-0.0820235662308185
 10
11.88360380968322
 20
9.285731778029798
 30
-0.0816442823641495
 10
11.87930869219428
 20
9.284688131382495
 30
-0.0808292508322329
 10
11.87709631225811
 20
9.284436817944765
 30
-0.0804186203063224
 10
11.87290368774188
 20
9.284436817944765
 30
-0.0804186203063224
 10
11.87069130780571
 20
9.284688131382495
 30
-0.0808292508322329
 10
11.86639619031677
 20
9.285731778029798
 30
-0.0816442823641495
 10
11.86430923426167
 20
9.286526208721056
 30
-0.0820235662308185
 10
11.86242798273042
 20
9.287498362542692
 30
-0.0820312109268913
 10
11.86240901529595
 20
9.287508192133145
 30
-0.0820312500000004
 10
11.86238999901513
 20
9.287518075508501
 30
-0.0820312500000004
1001
ACAD_VIEW_EDGE_ID
1071
      217
1071
       -1
1071
        2
1071
        0
  0
ARC
  5
706
330
70
100
AcDbEntity
  8
Visible
100
AcDbCircle
 10
-2.875
 20
9.311781
 30
0.082031
 40
0.0273437500000082
210
0.0
220
0.0
230
-1.0
100
AcDbArc
 50
117.462357
 51
179.345177
  0
ARC
  5
707
330
70
100
AcDbEntity
  8
Visible
100
AcDbCircle
 10
-2.875
 20
9.311781
 30
0.082031
 40
0.0273437500000003
210
0.0
220
0.0
230
-1.0
100
AcDbArc
 50
180.654823
 51
242.537643
  0
SPLINE
  5
708
330
70
100
AcDbEntity
  8
Visible
100
AcDbSpline
 70
     0
 71
     3
 72
    18
 73
    14
 74
     0
 42
0.000000001
 43
0.0000000001
 40
0.1280064322251128
 40
0.1280064322251128
 40
0.1280064322251128
 40
0.1280064322251128
 40
0.1290284598303972
 40
0.1290284598303972
 40
0.229651448218199
 40
0.229651448218199
 40
0.3302744366060008
 40
0.3302744366060008
 40
0.4308974249938027
 40
0.4308974249938027
 40
0.5315204133816045
 40
0.5315204133816045
 40
0.5325424409868921
 40
0.5325424409868921
 40
0.5325424409868921
 40
0.5325424409868921
 10
11.86238999901513
 20
9.336043060381143
 30
-0.0820312500000005
 10
11.86240901529595
 20
9.336052943756499
 30
-0.0820312500000005
 10
11.86242798273042
 20
9.336062773346952
 30
-0.0820312109268913
 10
11.86430923426167
 20
9.337034927168588
 30
-0.0820235662308185
 10
11.86639619031677
 20
9.337829357859845
 30
-0.0816442823641497
 10
11.87069130780571
 20
9.338873004507149
 30
-0.0808292508322327
 10
11.87290368774188
 20
9.339124317944765
 30
-0.0804186203063219
 10
11.87709631225811
 20
9.339124317944765
 30
-0.0804186203063219
 10
11.87930869219428
 20
9.338873004507149
 30
-0.0808292508322327
 10
11.88360380968322
 20
9.337829357859845
 30
-0.0816442823641497
 10
11.88569076573844
 20
9.337034927168588
 30
-0.0820235662308185
 10
11.88757201726957
 20
9.336062773346952
 30
-0.0820312109268913
 10
11.88759098470405
 20
9.336052943756499
 30
-0.0820312500000005
 10
11.88761000098486
 20
9.336043060381143
 30
-0.0820312500000005
1001
ACAD_VIEW_EDGE_ID
1071
      212
1071
       -1
1071
        2
1071
        0
  0
ARC
  5
709
330
70
100
AcDbEntity
  8
Visible
100
AcDbCircle
 10
-2.875
 20
9.311781
 30
0.082031
 40
0.0273437500000003
210
0.0
220
0.0
230
-1.0
100
AcDbArc
 50
297.462357
 51
359.345177
  0
ARC
  5
70A
330
70
100
AcDbEntity
  8
Visible
100
AcDbCircle
 10
-2.875
 20
9.311781
 30
0.082031
 40
0.0273437500000088
210
0.0
220
0.0
230
-1.0
100
AcDbArc
 50
0.654823
 51
62.537643
  0
SPLINE
  5
70B
330
70
100
AcDbEntity
  8
Visible
100
AcDbSpline
 70
     0
 71
     3
 72
    18
 73
    14
 74
     0
 42
0.000000001
 43
0.0000000001
 40
0.1280064322251231
 40
0.1280064322251231
 40
0.1280064322251231
 40
0.1280064322251231
 40
0.1290284598303988
 40
0.1290284598303988
 40
0.2296514482181963
 40
0.2296514482181963
 40
0.3302744366059938
 40
0.3302744366059938
 40
0.4308974249937914
 40
0.4308974249937914
 40
0.531520413381589
 40
0.531520413381589
 40
0.5325424409868634
 40
0.5325424409868634
 40
0.5325424409868634
 40
0.5325424409868634
 10
13.38761000098486
 20
9.287518075508501
 30
-0.0820312500000004
 10
13.38759098470404
 20
9.287508192133145
 30
-0.0820312500000004
 10
13.38757201726958
 20
9.287498362542692
 30
-0.0820312109268913
 10
13.38569076573833
 20
9.286526208721056
 30
-0.0820235662308185
 10
13.38360380968322
 20
9.285731778029798
 30
-0.0816442823641496
 10
13.37930869219428
 20
9.284688131382495
 30
-0.0808292508322329
 10
13.37709631225812
 20
9.284436817944765
 30
-0.0804186203063223
 10
13.37290368774188
 20
9.284436817944765
 30
-0.0804186203063223
 10
13.37069130780571
 20
9.284688131382495
 30
-0.0808292508322328
 10
13.36639619031678
 20
9.285731778029798
 30
-0.0816442823641496
 10
13.36430923426167
 20
9.286526208721056
 30
-0.0820235662308185
 10
13.36242798273042
 20
9.287498362542692
 30
-0.0820312109268913
 10
13.36240901529595
 20
9.287508192133145
 30
-0.0820312500000004
 10
13.36238999901513
 20
9.287518075508501
 30
-0.0820312500000004
1001
ACAD_VIEW_EDGE_ID
1071
      203
1071
       -1
1071
        2
1071
        0
  0
ARC
  5
70C
330
70
100
AcDbEntity
  8
Visible
100
AcDbCircle
 10
-4.375
 20
9.311781
 30
0.082031
 40
0.0273437499999979
210
0.0
220
0.0
230
-1.0
100
AcDbArc
 50
117.462357
 51
179.345177
  0
ARC
  5
70D
330
70
100
AcDbEntity
  8
Visible
100
AcDbCircle
 10
-4.375
 20
9.311781
 30
0.082031
 40
0.0273437500000017
210
0.0
220
0.0
230
-1.0
100
AcDbArc
 50
180.654823
 51
242.537643
  0
SPLINE
  5
70E
330
70
100
AcDbEntity
  8
Visible
100
AcDbSpline
 70
     0
 71
     3
 72
    18
 73
    14
 74
     0
 42
0.000000001
 43
0.0000000001
 40
0.1280064322251234
 40
0.1280064322251234
 40
0.1280064322251234
 40
0.1280064322251234
 40
0.1290284598304001
 40
0.1290284598304001
 40
0.229651448218198
 40
0.229651448218198
 40
0.3302744366059959
 40
0.3302744366059959
 40
0.4308974249937937
 40
0.4308974249937937
 40
0.5315204133815917
 40
0.5315204133815917
 40
0.532542440986877
 40
0.532542440986877
 40
0.532542440986877
 40
0.532542440986877
 10
13.36238999901513
 20
9.336043060381143
 30
-0.0820312500000005
 10
13.36240901529595
 20
9.336052943756499
 30
-0.0820312500000005
 10
13.36242798273042
 20
9.336062773346952
 30
-0.0820312109268913
 10
13.36430923426167
 20
9.337034927168588
 30
-0.0820235662308185
 10
13.36639619031678
 20
9.337829357859845
 30
-0.0816442823641495
 10
13.37069130780571
 20
9.338873004507149
 30
-0.0808292508322326
 10
13.37290368774188
 20
9.339124317944765
 30
-0.0804186203063221
 10
13.37709631225812
 20
9.339124317944765
 30
-0.0804186203063221
 10
13.37930869219428
 20
9.338873004507149
 30
-0.0808292508322327
 10
13.38360380968322
 20
9.337829357859845
 30
-0.0816442823641496
 10
13.38569076573833
 20
9.337034927168588
 30
-0.0820235662308185
 10
13.38757201726958
 20
9.336062773346952
 30
-0.0820312109268913
 10
13.38759098470404
 20
9.336052943756499
 30
-0.0820312500000005
 10
13.38761000098486
 20
9.336043060381143
 30
-0.0820312500000005
1001
ACAD_VIEW_EDGE_ID
1071
      198
1071
       -1
1071
        2
1071
        0
  0
ARC
  5
70F
330
70
100
AcDbEntity
  8
Visible
100
AcDbCircle
 10
-4.375
 20
9.311781
 30
0.082031
 40
0.0273437500000015
210
0.0
220
0.0
230
-1.0
100
AcDbArc
 50
297.462357
 51
359.345177
  0
ARC
  5
710
330
70
100
AcDbEntity
  8
Visible
100
AcDbCircle
 10
-4.375
 20
9.311781
 30
0.082031
 40
0.0273437499999975
210
0.0
220
0.0
230
-1.0
100
AcDbArc
 50
0.654823
 51
62.537643
  0
SPLINE
  5
711
330
70
100
AcDbEntity
  8
Visible
100
AcDbSpline
 70
     0
 71
     3
 72
    18
 73
    14
 74
     0
 42
0.000000001
 43
0.0000000001
 40
0.1280064322251247
 40
0.1280064322251247
 40
0.1280064322251247
 40
0.1280064322251247
 40
0.1290284598304004
 40
0.1290284598304004
 40
0.2296514482181982
 40
0.2296514482181982
 40
0.330274436605996
 40
0.330274436605996
 40
0.4308974249937938
 40
0.4308974249937938
 40
0.5315204133815917
 40
0.5315204133815917
 40
0.5325424409868715
 40
0.5325424409868715
 40
0.5325424409868715
 40
0.5325424409868715
 10
14.88761000098486
 20
9.287518075508501
 30
-0.0820312500000004
 10
14.88759098470405
 20
9.287508192133145
 30
-0.0820312500000004
 10
14.88757201726957
 20
9.287498362542692
 30
-0.0820312109268913
 10
14.88569076573833
 20
9.286526208721056
 30
-0.0820235662308185
 10
14.88360380968322
 20
9.285731778029798
 30
-0.0816442823641497
 10
14.87930869219428
 20
9.284688131382495
 30
-0.0808292508322328
 10
14.87709631225811
 20
9.284436817944765
 30
-0.0804186203063221
 10
14.87290368774188
 20
9.284436817944765
 30
-0.0804186203063221
 10
14.87069130780571
 20
9.284688131382495
 30
-0.0808292508322328
 10
14.86639619031677
 20
9.285731778029798
 30
-0.0816442823641497
 10
14.86430923426167
 20
9.286526208721056
 30
-0.0820235662308185
 10
14.86242798273042
 20
9.287498362542692
 30
-0.0820312109268913
 10
14.86240901529595
 20
9.287508192133145
 30
-0.0820312500000004
 10
14.86238999901513
 20
9.287518075508501
 30
-0.0820312500000004
1001
ACAD_VIEW_EDGE_ID
1071
      189
1071
       -1
1071
        2
1071
        0
  0
ARC
  5
712
330
70
100
AcDbEntity
  8
Visible
100
AcDbCircle
 10
-5.875
 20
9.311781
 30
0.082031
 40
0.0273437499999976
210
0.0
220
0.0
230
-1.0
100
AcDbArc
 50
117.462357
 51
179.345177
  0
ARC
  5
713
330
70
100
AcDbEntity
  8
Visible
100
AcDbCircle
 10
-5.875
 20
9.311781
 30
0.082031
 40
0.0273437500000017
210
0.0
220
0.0
230
-1.0
100
AcDbArc
 50
180.654823
 51
242.537643
  0
SPLINE
  5
714
330
70
100
AcDbEntity
  8
Visible
100
AcDbSpline
 70
     0
 71
     3
 72
    18
 73
    14
 74
     0
 42
0.000000001
 43
0.0000000001
 40
0.1280064322251172
 40
0.1280064322251172
 40
0.1280064322251172
 40
0.1280064322251172
 40
0.1290284598304001
 40
0.1290284598304001
 40
0.2296514482181957
 40
0.2296514482181957
 40
0.3302744366059913
 40
0.3302744366059913
 40
0.4308974249937869
 40
0.4308974249937869
 40
0.5315204133815826
 40
0.5315204133815826
 40
0.5325424409868641
 40
0.5325424409868641
 40
0.5325424409868641
 40
0.5325424409868641
 10
14.86238999901513
 20
9.336043060381143
 30
-0.0820312500000005
 10
14.86240901529595
 20
9.336052943756499
 30
-0.0820312500000005
 10
14.86242798273042
 20
9.336062773346952
 30
-0.0820312109268913
 10
14.86430923426167
 20
9.337034927168588
 30
-0.0820235662308185
 10
14.86639619031677
 20
9.337829357859845
 30
-0.0816442823641497
 10
14.87069130780571
 20
9.338873004507149
 30
-0.080829250832233
 10
14.87290368774188
 20
9.339124317944765
 30
-0.0804186203063223
 10
14.87709631225811
 20
9.339124317944765
 30
-0.0804186203063223
 10
14.87930869219428
 20
9.338873004507149
 30
-0.080829250832233
 10
14.88360380968322
 20
9.337829357859845
 30
-0.0816442823641497
 10
14.88569076573833
 20
9.337034927168588
 30
-0.0820235662308185
 10
14.88757201726957
 20
9.336062773346952
 30
-0.0820312109268913
 10
14.88759098470405
 20
9.336052943756499
 30
-0.0820312500000005
 10
14.88761000098486
 20
9.336043060381143
 30
-0.0820312500000005
1001
ACAD_VIEW_EDGE_ID
1071
      184
1071
       -1
1071
        2
1071
        0
  0
ARC
  5
715
330
70
100
AcDbEntity
  8
Visible
100
AcDbCircle
 10
-5.875
 20
9.311781
 30
0.082031
 40
0.0273437500000018
210
0.0
220
0.0
230
-1.0
100
AcDbArc
 50
297.462357
 51
359.345177
  0
ARC
  5
716
330
70
100
AcDbEntity
  8
Visible
100
AcDbCircle
 10
-5.875
 20
9.311781
 30
0.082031
 40
0.0273437499999975
210
0.0
220
0.0
230
-1.0
100
AcDbArc
 50
0.654823
 51
62.537643
  0
SPLINE
  5
717
330
70
100
AcDbEntity
  8
Visible
100
AcDbSpline
 70
     0
 71
     3
 72
    18
 73
    14
 74
     0
 42
0.000000001
 43
0.0000000001
 40
0.1280064322251211
 40
0.1280064322251211
 40
0.1280064322251211
 40
0.1280064322251211
 40
0.1290284598304008
 40
0.1290284598304008
 40
0.2296514482181982
 40
0.2296514482181982
 40
0.3302744366059956
 40
0.3302744366059956
 40
0.4308974249937931
 40
0.4308974249937931
 40
0.5315204133815906
 40
0.5315204133815906
 40
0.5325424409868688
 40
0.5325424409868688
 40
0.5325424409868688
 40
0.5325424409868688
 10
15.63761000098486
 20
9.287518075508501
 30
-0.0820312500000004
 10
15.63759098470405
 20
9.287508192133145
 30
-0.0820312500000004
 10
15.63757201726957
 20
9.287498362542692
 30
-0.0820312109268913
 10
15.63569076573833
 20
9.286526208721056
 30
-0.0820235662308185
 10
15.63360380968322
 20
9.285731778029798
 30
-0.0816442823641496
 10
15.62930869219428
 20
9.284688131382495
 30
-0.0808292508322328
 10
15.62709631225812
 20
9.284436817944765
 30
-0.0804186203063221
 10
15.62290368774188
 20
9.284436817944765
 30
-0.0804186203063221
 10
15.62069130780571
 20
9.284688131382495
 30
-0.0808292508322328
 10
15.61639619031678
 20
9.285731778029798
 30
-0.0816442823641496
 10
15.61430923426167
 20
9.286526208721056
 30
-0.0820235662308185
 10
15.61242798273042
 20
9.287498362542692
 30
-0.0820312109268913
 10
15.61240901529595
 20
9.287508192133145
 30
-0.0820312500000004
 10
15.61238999901513
 20
9.287518075508501
 30
-0.0820312500000004
1001
ACAD_VIEW_EDGE_ID
1071
      175
1071
       -1
1071
        2
1071
        0
  0
ARC
  5
718
330
70
100
AcDbEntity
  8
Visible
100
AcDbCircle
 10
-7.375
 20
9.311781
 30
0.082031
 40
0.0273437499999976
210
0.0
220
0.0
230
-1.0
100
AcDbArc
 50
117.462357
 51
179.345177
  0
ARC
  5
719
330
70
100
AcDbEntity
  8
Visible
100
AcDbCircle
 10
-7.375
 20
9.311781
 30
0.082031
 40
0.0273437500000017
210
0.0
220
0.0
230
-1.0
100
AcDbArc
 50
180.654823
 51
242.537643
  0
SPLINE
  5
71A
330
70
100
AcDbEntity
  8
Visible
100
AcDbSpline
 70
     0
 71
     3
 72
    18
 73
    14
 74
     0
 42
0.000000001
 43
0.0000000001
 40
0.128006432225115
 40
0.128006432225115
 40
0.128006432225115
 40
0.128006432225115
 40
0.1290284598303995
 40
0.1290284598303995
 40
0.2296514482181956
 40
0.2296514482181956
 40
0.3302744366059916
 40
0.3302744366059916
 40
0.4308974249937877
 40
0.4308974249937877
 40
0.5315204133815838
 40
0.5315204133815838
 40
0.5325424409868682
 40
0.5325424409868682
 40
0.5325424409868682
 40
0.5325424409868682
 10
15.61238999901513
 20
9.336043060381143
 30
-0.0820312500000005
 10
15.61240901529595
 20
9.336052943756499
 30
-0.0820312500000005
 10
15.61242798273042
 20
9.336062773346952
 30
-0.0820312109268913
 10
15.61430923426167
 20
9.337034927168588
 30
-0.0820235662308185
 10
15.61639619031678
 20
9.337829357859845
 30
-0.0816442823641497
 10
15.62069130780571
 20
9.338873004507149
 30
-0.0808292508322329
 10
15.62290368774188
 20
9.339124317944765
 30
-0.0804186203063223
 10
15.62709631225812
 20
9.339124317944765
 30
-0.0804186203063223
 10
15.62930869219428
 20
9.338873004507149
 30
-0.0808292508322329
 10
15.63360380968322
 20
9.337829357859845
 30
-0.0816442823641497
 10
15.63569076573833
 20
9.337034927168588
 30
-0.0820235662308185
 10
15.63757201726957
 20
9.336062773346952
 30
-0.0820312109268913
 10
15.63759098470405
 20
9.336052943756499
 30
-0.0820312500000005
 10
15.63761000098486
 20
9.336043060381143
 30
-0.0820312500000005
1001
ACAD_VIEW_EDGE_ID
1071
      170
1071
       -1
1071
        2
1071
        0
  0
ARC
  5
71B
330
70
100
AcDbEntity
  8
Visible
100
AcDbCircle
 10
-7.375
 20
9.311781
 30
0.082031
 40
0.0273437500000018
210
0.0
220
0.0
230
-1.0
100
AcDbArc
 50
297.462357
 51
359.345177
  0
ARC
  5
71C
330
70
100
AcDbEntity
  8
Visible
100
AcDbCircle
 10
-7.375
 20
9.311781
 30
0.082031
 40
0.0273437499999975
210
0.0
220
0.0
230
-1.0
100
AcDbArc
 50
0.654823
 51
62.537643
  0
SPLINE
  5
71D
330
70
100
AcDbEntity
  8
Visible
100
AcDbSpline
 70
     0
 71
     3
 72
    18
 73
    14
 74
     0
 42
0.000000001
 43
0.0000000001
 40
0.1280064322251281
 40
0.1280064322251281
 40
0.1280064322251281
 40
0.1280064322251281
 40
0.1290284598304009
 40
0.1290284598304009
 40
0.2296514482181964
 40
0.2296514482181964
 40
0.330274436605992
 40
0.330274436605992
 40
0.4308974249937875
 40
0.4308974249937875
 40
0.5315204133815831
 40
0.5315204133815831
 40
0.5325424409868567
 40
0.5325424409868567
 40
0.5325424409868567
 40
0.5325424409868567
 10
14.13761000098486
 20
9.287518075508501
 30
-0.0820312500000004
 10
14.13759098470405
 20
9.287508192133145
 30
-0.0820312500000004
 10
14.13757201726958
 20
9.287498362542692
 30
-0.0820312109268913
 10
14.13569076573833
 20
9.286526208721056
 30
-0.0820235662308185
 10
14.13360380968322
 20
9.285731778029798
 30
-0.0816442823641497
 10
14.12930869219428
 20
9.284688131382495
 30
-0.0808292508322329
 10
14.12709631225812
 20
9.284436817944765
 30
-0.0804186203063223
 10
14.12290368774188
 20
9.284436817944765
 30
-0.0804186203063223
 10
14.12069130780571
 20
9.284688131382495
 30
-0.0808292508322329
 10
14.11639619031678
 20
9.285731778029798
 30
-0.0816442823641497
 10
14.11430923426167
 20
9.286526208721056
 30
-0.0820235662308185
 10
14.11242798273042
 20
9.287498362542692
 30
-0.0820312109268913
 10
14.11240901529595
 20
9.287508192133145
 30
-0.0820312500000004
 10
14.11238999901513
 20
9.287518075508501
 30
-0.0820312500000004
1001
ACAD_VIEW_EDGE_ID
1071
      161
1071
       -1
1071
        2
1071
        0
  0
ARC
  5
71E
330
70
100
AcDbEntity
  8
Visible
100
AcDbCircle
 10
-8.875
 20
9.311781
 30
0.082031
 40
0.0273437499999977
210
0.0
220
0.0
230
-1.0
100
AcDbArc
 50
117.462357
 51
179.345177
  0
ARC
  5
71F
330
70
100
AcDbEntity
  8
Visible
100
AcDbCircle
 10
-8.875
 20
9.311781
 30
0.082031
 40
0.0273437500000017
210
0.0
220
0.0
230
-1.0
100
AcDbArc
 50
180.654823
 51
242.537643
  0
SPLINE
  5
720
330
70
100
AcDbEntity
  8
Visible
100
AcDbSpline
 70
     0
 71
     3
 72
    18
 73
    14
 74
     0
 42
0.000000001
 43
0.0000000001
 40
0.1280064322251132
 40
0.1280064322251132
 40
0.1280064322251132
 40
0.1280064322251132
 40
0.1290284598304001
 40
0.1290284598304001
 40
0.229651448218198
 40
0.229651448218198
 40
0.3302744366059959
 40
0.3302744366059959
 40
0.4308974249937937
 40
0.4308974249937937
 40
0.5315204133815917
 40
0.5315204133815917
 40
0.5325424409868753
 40
0.5325424409868753
 40
0.5325424409868753
 40
0.5325424409868753
 10
14.11238999901513
 20
9.336043060381143
 30
-0.0820312500000005
 10
14.11240901529595
 20
9.336052943756499
 30
-0.0820312500000005
 10
14.11242798273042
 20
9.336062773346952
 30
-0.0820312109268913
 10
14.11430923426167
 20
9.337034927168588
 30
-0.0820235662308185
 10
14.11639619031678
 20
9.337829357859845
 30
-0.0816442823641496
 10
14.12069130780571
 20
9.338873004507149
 30
-0.0808292508322328
 10
14.12290368774188
 20
9.339124317944765
 30
-0.0804186203063221
 10
14.12709631225812
 20
9.339124317944765
 30
-0.0804186203063221
 10
14.12930869219428
 20
9.338873004507149
 30
-0.0808292508322328
 10
14.13360380968322
 20
9.337829357859845
 30
-0.0816442823641497
 10
14.13569076573833
 20
9.337034927168588
 30
-0.0820235662308185
 10
14.13757201726958
 20
9.336062773346952
 30
-0.0820312109268913
 10
14.13759098470405
 20
9.336052943756499
 30
-0.0820312500000005
 10
14.13761000098486
 20
9.336043060381143
 30
-0.0820312500000005
1001
ACAD_VIEW_EDGE_ID
1071
      156
1071
       -1
1071
        2
1071
        0
  0
ARC
  5
721
330
70
100
AcDbEntity
  8
Visible
100
AcDbCircle
 10
-8.875
 20
9.311781
 30
0.082031
 40
0.0273437500000018
210
0.0
220
0.0
230
-1.0
100
AcDbArc
 50
297.462357
 51
359.345177
  0
ARC
  5
722
330
70
100
AcDbEntity
  8
Visible
100
AcDbCircle
 10
-8.875
 20
9.311781
 30
0.082031
 40
0.0273437499999975
210
0.0
220
0.0
230
-1.0
100
AcDbArc
 50
0.654823
 51
62.537643
  0
SPLINE
  5
723
330
70
100
AcDbEntity
  8
Visible
100
AcDbSpline
 70
     0
 71
     3
 72
    18
 73
    14
 74
     0
 42
0.000000001
 43
0.0000000001
 40
0.1280064322251234
 40
0.1280064322251234
 40
0.1280064322251234
 40
0.1280064322251234
 40
0.1290284598304009
 40
0.1290284598304009
 40
0.2296514482181942
 40
0.2296514482181942
 40
0.3302744366059874
 40
0.3302744366059874
 40
0.4308974249937807
 40
0.4308974249937807
 40
0.531520413381574
 40
0.531520413381574
 40
0.5325424409868428
 40
0.5325424409868428
 40
0.5325424409868428
 40
0.5325424409868428
 10
12.63761000098486
 20
9.287518075508501
 30
-0.0820312500000004
 10
12.63759098470405
 20
9.287508192133145
 30
-0.0820312500000004
 10
12.63757201726958
 20
9.287498362542692
 30
-0.0820312109268913
 10
12.63569076573833
 20
9.286526208721056
 30
-0.0820235662308185
 10
12.63360380968322
 20
9.285731778029798
 30
-0.0816442823641496
 10
12.62930869219428
 20
9.284688131382495
 30
-0.0808292508322329
 10
12.62709631225812
 20
9.284436817944765
 30
-0.0804186203063224
 10
12.62290368774188
 20
9.284436817944765
 30
-0.0804186203063224
 10
12.62069130780571
 20
9.284688131382495
 30
-0.0808292508322329
 10
12.61639619031678
 20
9.285731778029798
 30
-0.0816442823641496
 10
12.61430923426167
 20
9.286526208721056
 30
-0.0820235662308185
 10
12.61242798273042
 20
9.287498362542692
 30
-0.0820312109268913
 10
12.61240901529595
 20
9.287508192133145
 30
-0.0820312500000004
 10
12.61238999901513
 20
9.287518075508501
 30
-0.0820312500000004
1001
ACAD_VIEW_EDGE_ID
1071
      147
1071
       -1
1071
        2
1071
        0
  0
ARC
  5
724
330
70
100
AcDbEntity
  8
Visible
100
AcDbCircle
 10
-10.375
 20
9.311781
 30
0.082031
 40
0.0273437500000004
210
0.0
220
0.0
230
-1.0
100
AcDbArc
 50
117.462357
 51
179.345177
  0
ARC
  5
725
330
70
100
AcDbEntity
  8
Visible
100
AcDbCircle
 10
-10.375
 20
9.311781
 30
0.082031
 40
0.0273437500000017
210
0.0
220
0.0
230
-1.0
100
AcDbArc
 50
180.654823
 51
242.537643
  0
SPLINE
  5
726
330
70
100
AcDbEntity
  8
Visible
100
AcDbSpline
 70
     0
 71
     3
 72
    18
 73
    14
 74
     0
 42
0.000000001
 43
0.0000000001
 40
0.1280064322251122
 40
0.1280064322251122
 40
0.1280064322251122
 40
0.1280064322251122
 40
0.129028459830401
 40
0.129028459830401
 40
0.2296514482181991
 40
0.2296514482181991
 40
0.3302744366059973
 40
0.3302744366059973
 40
0.4308974249937955
 40
0.4308974249937955
 40
0.5315204133815936
 40
0.5315204133815936
 40
0.5325424409868845
 40
0.5325424409868845
 40
0.5325424409868845
 40
0.5325424409868845
 10
12.61238999901513
 20
9.336043060381143
 30
-0.0820312500000005
 10
12.61240901529595
 20
9.336052943756499
 30
-0.0820312500000005
 10
12.61242798273042
 20
9.336062773346952
 30
-0.0820312109268913
 10
12.61430923426167
 20
9.337034927168588
 30
-0.0820235662308185
 10
12.61639619031678
 20
9.337829357859845
 30
-0.0816442823641495
 10
12.62069130780571
 20
9.338873004507149
 30
-0.0808292508322327
 10
12.62290368774188
 20
9.339124317944765
 30
-0.080418620306322
 10
12.62709631225812
 20
9.339124317944765
 30
-0.0804186203063219
 10
12.62930869219428
 20
9.338873004507149
 30
-0.0808292508322325
 10
12.63360380968322
 20
9.337829357859845
 30
-0.0816442823641495
 10
12.63569076573833
 20
9.337034927168588
 30
-0.0820235662308185
 10
12.63757201726958
 20
9.336062773346952
 30
-0.0820312109268913
 10
12.63759098470405
 20
9.336052943756499
 30
-0.0820312500000005
 10
12.63761000098486
 20
9.336043060381143
 30
-0.0820312500000005
1001
ACAD_VIEW_EDGE_ID
1071
      142
1071
       -1
1071
        2
1071
        0
  0
ARC
  5
727
330
70
100
AcDbEntity
  8
Visible
100
AcDbCircle
 10
-10.375
 20
9.311781
 30
0.082031
 40
0.0273437500000018
210
0.0
220
0.0
230
-1.0
100
AcDbArc
 50
297.462357
 51
359.345177
  0
ARC
  5
728
330
70
100
AcDbEntity
  8
Visible
100
AcDbCircle
 10
-10.375
 20
9.311781
 30
0.082031
 40
0.0273437500000003
210
0.0
220
0.0
230
-1.0
100
AcDbArc
 50
0.654823
 51
62.537643
  0
SPLINE
  5
729
330
70
100
AcDbEntity
  8
Visible
100
AcDbSpline
 70
     0
 71
     3
 72
    18
 73
    14
 74
     0
 42
0.000000001
 43
0.0000000001
 40
0.1280064322251395
 40
0.1280064322251395
 40
0.1280064322251395
 40
0.1280064322251395
 40
0.1290284598304027
 40
0.1290284598304027
 40
0.229651448218196
 40
0.229651448218196
 40
0.3302744366059893
 40
0.3302744366059893
 40
0.4308974249937826
 40
0.4308974249937826
 40
0.5315204133815758
 40
0.5315204133815758
 40
0.532542440986854
 40
0.532542440986854
 40
0.532542440986854
 40
0.532542440986854
 10
11.13761000098486
 20
9.287518075508501
 30
-0.0820312500000004
 10
11.13759098470405
 20
9.287508192133145
 30
-0.0820312500000004
 10
11.13757201726957
 20
9.287498362542692
 30
-0.0820312109268913
 10
11.13569076573833
 20
9.286526208721056
 30
-0.0820235662308185
 10
11.13360380968322
 20
9.285731778029798
 30
-0.0816442823641495
 10
11.12930869219428
 20
9.284688131382495
 30
-0.0808292508322329
 10
11.12709631225812
 20
9.284436817944765
 30
-0.0804186203063224
 10
11.12290368774188
 20
9.284436817944765
 30
-0.0804186203063224
 10
11.12069130780571
 20
9.284688131382495
 30
-0.0808292508322329
 10
11.11639619031677
 20
9.285731778029798
 30
-0.0816442823641495
 10
11.11430923426167
 20
9.286526208721056
 30
-0.0820235662308185
 10
11.11242798273042
 20
9.287498362542692
 30
-0.0820312109268913
 10
11.11240901529595
 20
9.287508192133145
 30
-0.0820312500000004
 10
11.11238999901513
 20
9.287518075508501
 30
-0.0820312500000004
1001
ACAD_VIEW_EDGE_ID
1071
      133
1071
       -1
1071
        2
1071
        0
  0
ARC
  5
72A
330
70
100
AcDbEntity
  8
Visible
100
AcDbCircle
 10
-11.875
 20
9.311781
 30
0.082031
 40
0.0273437500000004
210
0.0
220
0.0
230
-1.0
100
AcDbArc
 50
117.462357
 51
179.345177
  0
ARC
  5
72B
330
70
100
AcDbEntity
  8
Visible
100
AcDbCircle
 10
-11.875
 20
9.311781
 30
0.082031
 40
0.0273437499999989
210
0.0
220
0.0
230
-1.0
100
AcDbArc
 50
180.654823
 51
242.537643
  0
SPLINE
  5
72C
330
70
100
AcDbEntity
  8
Visible
100
AcDbSpline
 70
     0
 71
     3
 72
    18
 73
    14
 74
     0
 42
0.000000001
 43
0.0000000001
 40
0.1280064322251246
 40
0.1280064322251246
 40
0.1280064322251246
 40
0.1280064322251246
 40
0.1290284598303972
 40
0.1290284598303972
 40
0.229651448218199
 40
0.229651448218199
 40
0.3302744366060008
 40
0.3302744366060008
 40
0.4308974249938027
 40
0.4308974249938027
 40
0.5315204133816045
 40
0.5315204133816045
 40
0.5325424409869221
 40
0.5325424409869221
 40
0.5325424409869221
 40
0.5325424409869221
 10
11.11238999901513
 20
9.336043060381143
 30
-0.0820312500000005
 10
11.11240901529595
 20
9.336052943756499
 30
-0.0820312500000005
 10
11.11242798273042
 20
9.336062773346952
 30
-0.0820312109268913
 10
11.11430923426167
 20
9.337034927168588
 30
-0.0820235662308185
 10
11.11639619031677
 20
9.337829357859845
 30
-0.0816442823641497
 10
11.12069130780571
 20
9.338873004507149
 30
-0.0808292508322327
 10
11.12290368774188
 20
9.339124317944765
 30
-0.0804186203063219
 10
11.12709631225812
 20
9.339124317944765
 30
-0.0804186203063219
 10
11.12930869219428
 20
9.338873004507149
 30
-0.0808292508322327
 10
11.13360380968322
 20
9.337829357859845
 30
-0.0816442823641497
 10
11.13569076573844
 20
9.337034927168588
 30
-0.0820235662308185
 10
11.13757201726957
 20
9.336062773346952
 30
-0.0820312109268913
 10
11.13759098470405
 20
9.336052943756499
 30
-0.0820312500000005
 10
11.13761000098486
 20
9.336043060381143
 30
-0.0820312500000005
1001
ACAD_VIEW_EDGE_ID
1071
      128
1071
       -1
1071
        2
1071
        0
  0
ARC
  5
72D
330
70
100
AcDbEntity
  8
Visible
100
AcDbCircle
 10
-11.875
 20
9.311781
 30
0.082031
 40
0.027343749999999
210
0.0
220
0.0
230
-1.0
100
AcDbArc
 50
297.462357
 51
359.345177
  0
ARC
  5
72E
330
70
100
AcDbEntity
  8
Visible
100
AcDbCircle
 10
-11.875
 20
9.311781
 30
0.082031
 40
0.0273437500000003
210
0.0
220
0.0
230
-1.0
100
AcDbArc
 50
0.654823
 51
62.537643
  0
SPLINE
  5
72F
330
70
100
AcDbEntity
  8
Visible
100
AcDbSpline
 70
     0
 71
     3
 72
    18
 73
    14
 74
     0
 42
0.000000001
 43
0.0000000001
 40
0.1280064322251343
 40
0.1280064322251343
 40
0.1280064322251343
 40
0.1280064322251343
 40
0.1290284598304015
 40
0.1290284598304015
 40
0.2296514482181946
 40
0.2296514482181946
 40
0.3302744366059875
 40
0.3302744366059875
 40
0.4308974249937806
 40
0.4308974249937806
 40
0.5315204133815737
 40
0.5315204133815737
 40
0.5325424409868291
 40
0.5325424409868291
 40
0.5325424409868291
 40
0.5325424409868291
 10
9.637610000984864
 20
9.287518075508501
 30
-0.0820312500000004
 10
9.637590984704047
 20
9.287508192133145
 30
-0.0820312500000004
 10
9.637572017269576
 20
9.287498362542692
 30
-0.0820312109268913
 10
9.635690765738445
 20
9.286526208721056
 30
-0.0820235662308185
 10
9.633603809683222
 20
9.285731778029798
 30
-0.0816442823641497
 10
9.629308692194285
 20
9.284688131382495
 30
-0.0808292508322332
 10
9.627096312258117
 20
9.284436817944765
 30
-0.0804186203063226
 10
9.622903687741882
 20
9.284436817944765
 30
-0.0804186203063226
 10
9.620691307805714
 20
9.284688131382495
 30
-0.080829250832233
 10
9.616396190316777
 20
9.285731778029798
 30
-0.0816442823641495
 10
9.614309234261668
 20
9.286526208721056
 30
-0.0820235662308185
 10
9.612427982730423
 20
9.287498362542692
 30
-0.0820312109268913
 10
9.612409015295952
 20
9.287508192133145
 30
-0.0820312500000004
 10
9.612389999015135
 20
9.287518075508501
 30
-0.0820312500000004
1001
ACAD_VIEW_EDGE_ID
1071
      119
1071
       -1
1071
        2
1071
        0
  0
ARC
  5
730
330
70
100
AcDbEntity
  8
Visible
100
AcDbCircle
 10
-13.375
 20
9.311781
 30
0.082031
 40
0.0273437499999998
210
0.0
220
0.0
230
-1.0
100
AcDbArc
 50
117.462357
 51
179.345177
  0
ARC
  5
731
330
70
100
AcDbEntity
  8
Visible
100
AcDbCircle
 10
-13.375
 20
9.311781
 30
0.082031
 40
0.02734375
210
0.0
220
0.0
230
-1.0
100
AcDbArc
 50
180.654823
 51
242.537643
  0
SPLINE
  5
732
330
70
100
AcDbEntity
  8
Visible
100
AcDbSpline
 70
     0
 71
     3
 72
    18
 73
    14
 74
     0
 42
0.000000001
 43
0.0000000001
 40
0.1280064322251281
 40
0.1280064322251281
 40
0.1280064322251281
 40
0.1280064322251281
 40
0.1290284598303992
 40
0.1290284598303992
 40
0.2296514482182013
 40
0.2296514482182013
 40
0.3302744366060033
 40
0.3302744366060033
 40
0.4308974249938055
 40
0.4308974249938055
 40
0.5315204133816076
 40
0.5315204133816076
 40
0.5325424409868756
 40
0.5325424409868756
 40
0.5325424409868756
 40
0.5325424409868756
 10
9.612389999015135
 20
9.336043060381143
 30
-0.0820312500000005
 10
9.612409015295952
 20
9.336052943756499
 30
-0.0820312500000005
 10
9.612427982730423
 20
9.336062773346952
 30
-0.0820312109268913
 10
9.614309234261668
 20
9.337034927168588
 30
-0.0820235662308185
 10
9.616396190316777
 20
9.337829357859845
 30
-0.0816442823641496
 10
9.620691307805714
 20
9.338873004507149
 30
-0.0808292508322326
 10
9.622903687741882
 20
9.339124317944765
 30
-0.0804186203063218
 10
9.627096312258117
 20
9.339124317944765
 30
-0.0804186203063218
 10
9.629308692194285
 20
9.338873004507149
 30
-0.0808292508322326
 10
9.633603809683222
 20
9.337829357859845
 30
-0.0816442823641496
 10
9.635690765738445
 20
9.337034927168588
 30
-0.0820235662308185
 10
9.637572017269576
 20
9.336062773346952
 30
-0.0820312109268913
 10
9.637590984704047
 20
9.336052943756499
 30
-0.0820312500000005
 10
9.637610000984864
 20
9.336043060381143
 30
-0.0820312500000005
1001
ACAD_VIEW_EDGE_ID
1071
      114
1071
       -1
1071
        2
1071
        0
  0
ARC
  5
733
330
70
100
AcDbEntity
  8
Visible
100
AcDbCircle
 10
-13.375
 20
9.311781
 30
0.082031
 40
0.02734375
210
0.0
220
0.0
230
-1.0
100
AcDbArc
 50
297.462357
 51
359.345177
  0
ARC
  5
734
330
70
100
AcDbEntity
  8
Visible
100
AcDbCircle
 10
-13.375
 20
9.311781
 30
0.082031
 40
0.0273437499999996
210
0.0
220
0.0
230
-1.0
100
AcDbArc
 50
0.654823
 51
62.537643
  0
SPLINE
  5
735
330
70
100
AcDbEntity
  8
Visible
100
AcDbSpline
 70
     0
 71
     3
 72
    18
 73
    14
 74
     0
 42
0.000000001
 43
0.0000000001
 40
0.1280064322251315
 40
0.1280064322251315
 40
0.1280064322251315
 40
0.1280064322251315
 40
0.1290284598303856
 40
0.1290284598303856
 40
0.2296514482181849
 40
0.2296514482181849
 40
0.3302744366059843
 40
0.3302744366059843
 40
0.4308974249937771
 40
0.4308974249937771
 40
0.5315204133815699
 40
0.5315204133815699
 40
0.5325424409868244
 40
0.5325424409868244
 40
0.5325424409868244
 40
0.5325424409868244
 10
8.137610000984864
 20
9.287518075508501
 30
-0.0820312500000004
 10
8.137590984704047
 20
9.287508192133145
 30
-0.0820312500000004
 10
8.137572017269576
 20
9.287498362542692
 30
-0.0820312109268913
 10
8.135690765738445
 20
9.286526208721056
 30
-0.0820235662308186
 10
8.133603809683222
 20
9.285731778029798
 30
-0.0816442823641499
 10
8.129308692194285
 20
9.284688131382495
 30
-0.0808292508322332
 10
8.127096312258117
 20
9.284436817944765
 30
-0.0804186203063227
 10
8.122903687741882
 20
9.284436817944765
 30
-0.0804186203063227
 10
8.120691307805714
 20
9.284688131382495
 30
-0.0808292508322331
 10
8.116396190316777
 20
9.285731778029798
 30
-0.0816442823641495
 10
8.114309234261668
 20
9.286526208721056
 30
-0.0820235662308186
 10
8.112427982730423
 20
9.287498362542692
 30
-0.0820312109268913
 10
8.112409015295952
 20
9.287508192133145
 30
-0.0820312500000004
 10
8.112389999015135
 20
9.287518075508501
 30
-0.0820312500000004
1001
ACAD_VIEW_EDGE_ID
1071
      105
1071
       -1
1071
        2
1071
        0
  0
ARC
  5
736
330
70
100
AcDbEntity
  8
Visible
100
AcDbCircle
 10
-14.875
 20
9.311781
 30
0.082031
 40
0.0273437499999997
210
0.0
220
0.0
230
-1.0
100
AcDbArc
 50
117.462357
 51
179.345177
  0
ARC
  5
737
330
70
100
AcDbEntity
  8
Visible
100
AcDbCircle
 10
-14.875
 20
9.311781
 30
0.082031
 40
0.0273437500000002
210
0.0
220
0.0
230
-1.0
100
AcDbArc
 50
180.654823
 51
242.537643
  0
SPLINE
  5
738
330
70
100
AcDbEntity
  8
Visible
100
AcDbSpline
 70
     0
 71
     3
 72
    18
 73
    14
 74
     0
 42
0.000000001
 43
0.0000000001
 40
0.1280064322251158
 40
0.1280064322251158
 40
0.1280064322251158
 40
0.1280064322251158
 40
0.1290284598304115
 40
0.1290284598304115
 40
0.2296514482182144
 40
0.2296514482182144
 40
0.3302744366060172
 40
0.3302744366060172
 40
0.4308974249938195
 40
0.4308974249938195
 40
0.5315204133816217
 40
0.5315204133816217
 40
0.5325424409869144
 40
0.5325424409869144
 40
0.5325424409869144
 40
0.5325424409869144
 10
8.112389999015135
 20
9.336043060381143
 30
-0.0820312500000005
 10
8.112409015295952
 20
9.336052943756499
 30
-0.0820312500000005
 10
8.112427982730423
 20
9.336062773346952
 30
-0.0820312109268913
 10
8.114309234261668
 20
9.337034927168588
 30
-0.0820235662308185
 10
8.116396190316777
 20
9.337829357859845
 30
-0.0816442823641492
 10
8.120691307805714
 20
9.338873004507149
 30
-0.0808292508322323
 10
8.122903687741882
 20
9.339124317944765
 30
-0.0804186203063215
 10
8.127096312258117
 20
9.339124317944765
 30
-0.0804186203063217
 10
8.129308692194285
 20
9.338873004507149
 30
-0.0808292508322327
 10
8.133603809683222
 20
9.337829357859845
 30
-0.0816442823641496
 10
8.135690765738445
 20
9.337034927168588
 30
-0.0820235662308185
 10
8.137572017269576
 20
9.336062773346952
 30
-0.0820312109268913
 10
8.137590984704047
 20
9.336052943756499
 30
-0.0820312500000005
 10
8.137610000984864
 20
9.336043060381143
 30
-0.0820312500000005
1001
ACAD_VIEW_EDGE_ID
1071
      100
1071
       -1
1071
        2
1071
        0
  0
ARC
  5
739
330
70
100
AcDbEntity
  8
Visible
100
AcDbCircle
 10
-14.875
 20
9.311781
 30
0.082031
 40
0.0273437500000001
210
0.0
220
0.0
230
-1.0
100
AcDbArc
 50
297.462357
 51
359.345177
  0
ARC
  5
73A
330
70
100
AcDbEntity
  8
Visible
100
AcDbCircle
 10
-14.875
 20
9.311781
 30
0.082031
 40
0.0273437499999996
210
0.0
220
0.0
230
-1.0
100
AcDbArc
 50
0.654823
 51
62.537643
  0
SPLINE
  5
73B
330
70
100
AcDbEntity
  8
Visible
100
AcDbSpline
 70
     0
 71
     3
 72
    18
 73
    14
 74
     0
 42
0.000000001
 43
0.0000000001
 40
0.1280064322251302
 40
0.1280064322251302
 40
0.1280064322251302
 40
0.1280064322251302
 40
0.1290284598304101
 40
0.1290284598304101
 40
0.2296514482181956
 40
0.2296514482181956
 40
0.3302744366059811
 40
0.3302744366059811
 40
0.4308974249937665
 40
0.4308974249937665
 40
0.531520413381552
 40
0.531520413381552
 40
0.5325424409868319
 40
0.5325424409868319
 40
0.5325424409868319
 40
0.5325424409868319
 10
6.637610000984864
 20
9.287518075508501
 30
-0.0820312500000004
 10
6.637590984704047
 20
9.287508192133145
 30
-0.0820312500000004
 10
6.637572017269576
 20
9.287498362542692
 30
-0.0820312109268913
 10
6.635690765738331
 20
9.286526208721056
 30
-0.0820235662308186
 10
6.633603809683222
 20
9.285731778029798
 30
-0.0816442823641499
 10
6.629308692194285
 20
9.284688131382495
 30
-0.0808292508322332
 10
6.627096312258117
 20
9.284436817944765
 30
-0.0804186203063229
 10
6.622903687741882
 20
9.284436817944765
 30
-0.0804186203063229
 10
6.620691307805714
 20
9.284688131382495
 30
-0.0808292508322332
 10
6.616396190316777
 20
9.285731778029798
 30
-0.0816442823641499
 10
6.614309234261668
 20
9.286526208721056
 30
-0.0820235662308186
 10
6.612427982730423
 20
9.287498362542692
 30
-0.0820312109268913
 10
6.612409015295952
 20
9.287508192133145
 30
-0.0820312500000004
 10
6.612389999015135
 20
9.287518075508501
 30
-0.0820312500000004
1001
ACAD_VIEW_EDGE_ID
1071
       91
1071
       -1
1071
        2
1071
        0
  0
ARC
  5
73C
330
70
100
AcDbEntity
  8
Visible
100
AcDbCircle
 10
-15.625
 20
9.311781
 30
0.082031
 40
0.0273437499999997
210
0.0
220
0.0
230
-1.0
100
AcDbArc
 50
117.462357
 51
179.345177
  0
ARC
  5
73D
330
70
100
AcDbEntity
  8
Visible
100
AcDbCircle
 10
-15.625
 20
9.311781
 30
0.082031
 40
0.0273437500000005
210
0.0
220
0.0
230
-1.0
100
AcDbArc
 50
180.654823
 51
242.537643
  0
SPLINE
  5
73E
330
70
100
AcDbEntity
  8
Visible
100
AcDbSpline
 70
     0
 71
     3
 72
    18
 73
    14
 74
     0
 42
0.000000001
 43
0.0000000001
 40
0.1280064322251094
 40
0.1280064322251094
 40
0.1280064322251094
 40
0.1280064322251094
 40
0.1290284598303993
 40
0.1290284598303993
 40
0.2296514482182015
 40
0.2296514482182015
 40
0.3302744366060037
 40
0.3302744366060037
 40
0.430897424993806
 40
0.430897424993806
 40
0.5315204133816082
 40
0.5315204133816082
 40
0.5325424409868989
 40
0.5325424409868989
 40
0.5325424409868989
 40
0.5325424409868989
 10
6.612389999015135
 20
9.336043060381143
 30
-0.0820312500000005
 10
6.612409015295952
 20
9.336052943756499
 30
-0.0820312500000005
 10
6.612427982730423
 20
9.336062773346952
 30
-0.0820312109268913
 10
6.614309234261668
 20
9.337034927168588
 30
-0.0820235662308184
 10
6.616396190316777
 20
9.337829357859845
 30
-0.0816442823641497
 10
6.620691307805714
 20
9.338873004507149
 30
-0.0808292508322324
 10
6.622903687741882
 20
9.339124317944765
 30
-0.0804186203063214
 10
6.627096312258117
 20
9.339124317944765
 30
-0.0804186203063214
 10
6.629308692194285
 20
9.338873004507149
 30
-0.0808292508322324
 10
6.633603809683222
 20
9.337829357859845
 30
-0.0816442823641497
 10
6.635690765738445
 20
9.337034927168588
 30
-0.0820235662308184
 10
6.637572017269576
 20
9.336062773346952
 30
-0.0820312109268913
 10
6.637590984704047
 20
9.336052943756499
 30
-0.0820312500000005
 10
6.637610000984864
 20
9.336043060381143
 30
-0.0820312500000005
1001
ACAD_VIEW_EDGE_ID
1071
       86
1071
       -1
1071
        2
1071
        0
  0
ARC
  5
73F
330
70
100
AcDbEntity
  8
Visible
100
AcDbCircle
 10
-15.625
 20
9.311781
 30
0.082031
 40
0.0273437500000001
210
0.0
220
0.0
230
-1.0
100
AcDbArc
 50
297.462357
 51
359.345177
  0
ARC
  5
740
330
70
100
AcDbEntity
  8
Visible
100
AcDbCircle
 10
-15.625
 20
9.311781
 30
0.082031
 40
0.0273437499999998
210
0.0
220
0.0
230
-1.0
100
AcDbArc
 50
0.654823
 51
62.537643
  0
SPLINE
  5
741
330
70
100
AcDbEntity
  8
Visible
100
AcDbSpline
 70
     0
 71
     3
 72
    18
 73
    14
 74
     0
 42
0.000000001
 43
0.0000000001
 40
0.1280064322251015
 40
0.1280064322251015
 40
0.1280064322251015
 40
0.1280064322251015
 40
0.129028459830409
 40
0.129028459830409
 40
0.2296514482181942
 40
0.2296514482181942
 40
0.3302744366059795
 40
0.3302744366059795
 40
0.4308974249937647
 40
0.4308974249937647
 40
0.5315204133815499
 40
0.5315204133815499
 40
0.5325424409868053
 40
0.5325424409868053
 40
0.5325424409868053
 40
0.5325424409868053
 10
5.137610000984864
 20
9.287518075508501
 30
-0.0820312500000004
 10
5.137590984704047
 20
9.287508192133145
 30
-0.0820312500000004
 10
5.137572017269576
 20
9.287498362542692
 30
-0.0820312109268913
 10
5.135690765738445
 20
9.286526208721056
 30
-0.0820235662308186
 10
5.133603809683222
 20
9.285731778029798
 30
-0.0816442823641502
 10
5.129308692194285
 20
9.284688131382495
 30
-0.0808292508322338
 10
5.127096312258117
 20
9.284436817944765
 30
-0.0804186203063231
 10
5.122903687741882
 20
9.284436817944765
 30
-0.0804186203063231
 10
5.120691307805714
 20
9.284688131382495
 30
-0.0808292508322333
 10
5.116396190316777
 20
9.285731778029798
 30
-0.0816442823641499
 10
5.114309234261668
 20
9.286526208721056
 30
-0.0820235662308186
 10
5.112427982730423
 20
9.287498362542692
 30
-0.0820312109268913
 10
5.112409015295952
 20
9.287508192133145
 30
-0.0820312500000004
 10
5.112389999015135
 20
9.287518075508501
 30
-0.0820312500000004
1001
ACAD_VIEW_EDGE_ID
1071
       77
1071
       -1
1071
        2
1071
        0
  0
ARC
  5
742
330
70
100
AcDbEntity
  8
Visible
100
AcDbCircle
 10
-14.125
 20
9.311781
 30
0.082031
 40
0.0273437499999997
210
0.0
220
0.0
230
-1.0
100
AcDbArc
 50
117.462357
 51
179.345177
  0
ARC
  5
743
330
70
100
AcDbEntity
  8
Visible
100
AcDbCircle
 10
-14.125
 20
9.311781
 30
0.082031
 40
0.02734375
210
0.0
220
0.0
230
-1.0
100
AcDbArc
 50
180.654823
 51
242.537643
  0
SPLINE
  5
744
330
70
100
AcDbEntity
  8
Visible
100
AcDbSpline
 70
     0
 71
     3
 72
    18
 73
    14
 74
     0
 42
0.000000001
 43
0.0000000001
 40
0.1280064322251458
 40
0.1280064322251458
 40
0.1280064322251458
 40
0.1280064322251458
 40
0.129028459830411
 40
0.129028459830411
 40
0.2296514482182149
 40
0.2296514482182149
 40
0.3302744366060188
 40
0.3302744366060188
 40
0.4308974249938228
 40
0.4308974249938228
 40
0.5315204133816267
 40
0.5315204133816267
 40
0.5325424409868833
 40
0.5325424409868833
 40
0.5325424409868833
 40
0.5325424409868833
 10
5.112389999015135
 20
9.336043060381143
 30
-0.0820312500000005
 10
5.112409015295952
 20
9.336052943756499
 30
-0.0820312500000005
 10
5.112427982730423
 20
9.336062773346952
 30
-0.0820312109268913
 10
5.114309234261668
 20
9.337034927168588
 30
-0.0820235662308185
 10
5.116396190316777
 20
9.337829357859845
 30
-0.0816442823641496
 10
5.120691307805714
 20
9.338873004507149
 30
-0.0808292508322323
 10
5.122903687741882
 20
9.339124317944765
 30
-0.0804186203063213
 10
5.127096312258117
 20
9.339124317944765
 30
-0.0804186203063213
 10
5.129308692194285
 20
9.338873004507149
 30
-0.0808292508322323
 10
5.133603809683222
 20
9.337829357859845
 30
-0.0816442823641496
 10
5.135690765738445
 20
9.337034927168588
 30
-0.0820235662308185
 10
5.137572017269576
 20
9.336062773346952
 30
-0.0820312109268913
 10
5.137590984704047
 20
9.336052943756499
 30
-0.0820312500000005
 10
5.137610000984864
 20
9.336043060381143
 30
-0.0820312500000005
1001
ACAD_VIEW_EDGE_ID
1071
       72
1071
       -1
1071
        2
1071
        0
  0
ARC
  5
745
330
70
100
AcDbEntity
  8
Visible
100
AcDbCircle
 10
-14.125
 20
9.311781
 30
0.082031
 40
0.0273437500000001
210
0.0
220
0.0
230
-1.0
100
AcDbArc
 50
297.462357
 51
359.345177
  0
ARC
  5
746
330
70
100
AcDbEntity
  8
Visible
100
AcDbCircle
 10
-14.125
 20
9.311781
 30
0.082031
 40
0.0273437499999996
210
0.0
220
0.0
230
-1.0
100
AcDbArc
 50
0.654823
 51
62.537643
  0
SPLINE
  5
747
330
70
100
AcDbEntity
  8
Visible
100
AcDbSpline
 70
     0
 71
     3
 72
    18
 73
    14
 74
     0
 42
0.000000001
 43
0.0000000001
 40
0.1280064322251905
 40
0.1280064322251905
 40
0.1280064322251905
 40
0.1280064322251905
 40
0.1290284598304073
 40
0.1290284598304073
 40
0.2296514482181923
 40
0.2296514482181923
 40
0.3302744366059772
 40
0.3302744366059772
 40
0.4308974249937622
 40
0.4308974249937622
 40
0.5315204133815472
 40
0.5315204133815472
 40
0.532542440986794
 40
0.532542440986794
 40
0.532542440986794
 40
0.532542440986794
 10
3.637610000984864
 20
9.287518075508501
 30
-0.0820312500000004
 10
3.637590984704047
 20
9.287508192133145
 30
-0.0820312500000004
 10
3.637572017269576
 20
9.287498362542692
 30
-0.0820312109268913
 10
3.635690765738331
 20
9.286526208721056
 30
-0.0820235662308186
 10
3.633603809683222
 20
9.285731778029798
 30
-0.08164428236415
 10
3.629308692194285
 20
9.284688131382495
 30
-0.0808292508322334
 10
3.627096312258117
 20
9.284436817944765
 30
-0.0804186203063232
 10
3.622903687741882
 20
9.284436817944765
 30
-0.0804186203063232
 10
3.620691307805714
 20
9.284688131382495
 30
-0.0808292508322334
 10
3.616396190316777
 20
9.285731778029798
 30
-0.08164428236415
 10
3.614309234261668
 20
9.286526208721056
 30
-0.0820235662308186
 10
3.612427982730423
 20
9.287498362542692
 30
-0.0820312109268913
 10
3.612409015295952
 20
9.287508192133145
 30
-0.0820312500000004
 10
3.612389999015135
 20
9.287518075508501
 30
-0.0820312500000004
1001
ACAD_VIEW_EDGE_ID
1071
       63
1071
       -1
1071
        2
1071
        0
  0
ARC
  5
748
330
70
100
AcDbEntity
  8
Visible
100
AcDbCircle
 10
-12.625
 20
9.311781
 30
0.082031
 40
0.0273437500000004
210
0.0
220
0.0
230
-1.0
100
AcDbArc
 50
117.462357
 51
179.345177
  0
ARC
  5
749
330
70
100
AcDbEntity
  8
Visible
100
AcDbCircle
 10
-12.625
 20
9.311781
 30
0.082031
 40
0.0273437500000032
210
0.0
220
0.0
230
-1.0
100
AcDbArc
 50
180.654823
 51
242.537643
  0
SPLINE
  5
74A
330
70
100
AcDbEntity
  8
Visible
100
AcDbSpline
 70
     0
 71
     3
 72
    18
 73
    14
 74
     0
 42
0.000000001
 43
0.0000000001
 40
0.1280064322251054
 40
0.1280064322251054
 40
0.1280064322251054
 40
0.1280064322251054
 40
0.1290284598304112
 40
0.1290284598304112
 40
0.2296514482182157
 40
0.2296514482182157
 40
0.3302744366060203
 40
0.3302744366060203
 40
0.4308974249938248
 40
0.4308974249938248
 40
0.5315204133816294
 40
0.5315204133816294
 40
0.5325424409869431
 40
0.5325424409869431
 40
0.5325424409869431
 40
0.5325424409869431
 10
3.612389999015135
 20
9.336043060381143
 30
-0.0820312500000005
 10
3.612409015295952
 20
9.336052943756499
 30
-0.0820312500000005
 10
3.612427982730423
 20
9.336062773346952
 30
-0.0820312109268913
 10
3.614309234261668
 20
9.337034927168588
 30
-0.0820235662308185
 10
3.616396190316777
 20
9.337829357859845
 30
-0.0816442823641492
 10
3.620691307805714
 20
9.338873004507149
 30
-0.0808292508322319
 10
3.622903687741882
 20
9.339124317944765
 30
-0.0804186203063212
 10
3.627096312258117
 20
9.339124317944765
 30
-0.0804186203063212
 10
3.629308692194285
 20
9.338873004507149
 30
-0.0808292508322322
 10
3.633603809683222
 20
9.337829357859845
 30
-0.0816442823641496
 10
3.635690765738445
 20
9.337034927168588
 30
-0.0820235662308185
 10
3.637572017269576
 20
9.336062773346952
 30
-0.0820312109268913
 10
3.637590984704047
 20
9.336052943756499
 30
-0.0820312500000005
 10
3.637610000984864
 20
9.336043060381143
 30
-0.0820312500000005
1001
ACAD_VIEW_EDGE_ID
1071
       58
1071
       -1
1071
        2
1071
        0
  0
ARC
  5
74B
330
70
100
AcDbEntity
  8
Visible
100
AcDbCircle
 10
-12.625
 20
9.311781
 30
0.082031
 40
0.0273437500000031
210
0.0
220
0.0
230
-1.0
100
AcDbArc
 50
297.462357
 51
359.345177
  0
ARC
  5
74C
330
70
100
AcDbEntity
  8
Visible
100
AcDbCircle
 10
-12.625
 20
9.311781
 30
0.082031
 40
0.0273437500000003
210
0.0
220
0.0
230
-1.0
100
AcDbArc
 50
0.654823
 51
62.537643
  0
SPLINE
  5
74D
330
70
100
AcDbEntity
  8
Visible
100
AcDbSpline
 70
     0
 71
     3
 72
    18
 73
    14
 74
     0
 42
0.000000001
 43
0.0000000001
 40
0.128006432225129
 40
0.128006432225129
 40
0.128006432225129
 40
0.128006432225129
 40
0.1290284598304073
 40
0.1290284598304073
 40
0.2296514482181923
 40
0.2296514482181923
 40
0.3302744366059772
 40
0.3302744366059772
 40
0.4308974249937622
 40
0.4308974249937622
 40
0.5315204133815472
 40
0.5315204133815472
 40
0.532542440986794
 40
0.532542440986794
 40
0.532542440986794
 40
0.532542440986794
 10
2.137610000984864
 20
9.287518075508501
 30
-0.0820312500000004
 10
2.137590984704047
 20
9.287508192133145
 30
-0.0820312500000004
 10
2.137572017269576
 20
9.287498362542692
 30
-0.0820312109268913
 10
2.135690765738445
 20
9.286526208721056
 30
-0.0820235662308186
 10
2.133603809683222
 20
9.285731778029798
 30
-0.08164428236415
 10
2.129308692194285
 20
9.284688131382495
 30
-0.0808292508322334
 10
2.127096312258117
 20
9.284436817944765
 30
-0.0804186203063232
 10
2.122903687741882
 20
9.284436817944765
 30
-0.0804186203063232
 10
2.120691307805714
 20
9.284688131382495
 30
-0.0808292508322334
 10
2.116396190316777
 20
9.285731778029798
 30
-0.08164428236415
 10
2.114309234261668
 20
9.286526208721056
 30
-0.0820235662308186
 10
2.112427982730423
 20
9.287498362542692
 30
-0.0820312109268913
 10
2.112409015295952
 20
9.287508192133145
 30
-0.0820312500000004
 10
2.112389999015135
 20
9.287518075508501
 30
-0.0820312500000004
1001
ACAD_VIEW_EDGE_ID
1071
       49
1071
       -1
1071
        2
1071
        0
  0
ARC
  5
74E
330
70
100
AcDbEntity
  8
Visible
100
AcDbCircle
 10
-11.125
 20
9.311781
 30
0.082031
 40
0.0273437500000015
210
0.0
220
0.0
230
-1.0
100
AcDbArc
 50
117.462357
 51
179.345177
  0
ARC
  5
74F
330
70
100
AcDbEntity
  8
Visible
100
AcDbCircle
 10
-11.125
 20
9.311781
 30
0.082031
 40
0.0273437499999996
210
0.0
220
0.0
230
-1.0
100
AcDbArc
 50
180.654823
 51
242.537643
  0
SPLINE
  5
750
330
70
100
AcDbEntity
  8
Visible
100
AcDbSpline
 70
     0
 71
     3
 72
    18
 73
    14
 74
     0
 42
0.000000001
 43
0.0000000001
 40
0.1280064322251054
 40
0.1280064322251054
 40
0.1280064322251054
 40
0.1280064322251054
 40
0.1290284598304112
 40
0.1290284598304112
 40
0.2296514482182157
 40
0.2296514482182157
 40
0.3302744366060203
 40
0.3302744366060203
 40
0.4308974249938248
 40
0.4308974249938248
 40
0.5315204133816294
 40
0.5315204133816294
 40
0.5325424409870038
 40
0.5325424409870038
 40
0.5325424409870038
 40
0.5325424409870038
 10
2.112389999015135
 20
9.336043060381143
 30
-0.0820312500000005
 10
2.112409015295952
 20
9.336052943756499
 30
-0.0820312500000005
 10
2.112427982730423
 20
9.336062773346952
 30
-0.0820312109268913
 10
2.114309234261668
 20
9.337034927168588
 30
-0.0820235662308185
 10
2.116396190316777
 20
9.337829357859845
 30
-0.0816442823641492
 10
2.120691307805714
 20
9.338873004507149
 30
-0.0808292508322319
 10
2.122903687741882
 20
9.339124317944765
 30
-0.0804186203063212
 10
2.127096312258117
 20
9.339124317944765
 30
-0.0804186203063212
 10
2.129308692194285
 20
9.338873004507149
 30
-0.0808292508322322
 10
2.133603809683222
 20
9.337829357859845
 30
-0.0816442823641496
 10
2.135690765738445
 20
9.337034927168588
 30
-0.0820235662308185
 10
2.137572017269576
 20
9.336062773346952
 30
-0.0820312109268913
 10
2.137590984704047
 20
9.336052943756499
 30
-0.0820312500000005
 10
2.137610000984864
 20
9.336043060381143
 30
-0.0820312500000005
1001
ACAD_VIEW_EDGE_ID
1071
       44
1071
       -1
1071
        2
1071
        0
  0
ARC
  5
751
330
70
100
AcDbEntity
  8
Visible
100
AcDbCircle
 10
-11.125
 20
9.311781
 30
0.082031
 40
0.0273437499999996
210
0.0
220
0.0
230
-1.0
100
AcDbArc
 50
297.462357
 51
359.345177
  0
ARC
  5
752
330
70
100
AcDbEntity
  8
Visible
100
AcDbCircle
 10
-11.125
 20
9.311781
 30
0.082031
 40
0.0273437500000017
210
0.0
220
0.0
230
-1.0
100
AcDbArc
 50
0.654823
 51
62.537643
  0
ARC
  5
753
330
70
100
AcDbEntity
  8
Visible
100
AcDbCircle
 10
-9.625
 20
9.311781
 30
0.082031
 40
0.0273437499999977
210
0.0
220
0.0
230
-1.0
100
AcDbArc
 50
117.462357
 51
179.345177
  0
ARC
  5
754
330
70
100
AcDbEntity
  8
Visible
100
AcDbCircle
 10
-9.625
 20
9.311781
 30
0.082031
 40
0.0273437500000017
210
0.0
220
0.0
230
-1.0
100
AcDbArc
 50
180.654823
 51
242.537643
  0
LINE
  5
755
330
70
100
AcDbEntity
  8
Visible
100
AcDbLine
 10
16.0
 20
9.370998
 30
0.125
 11
1.0
 21
9.370998
 31
0.125
  0
LINE
  5
756
330
70
100
AcDbEntity
  8
Visible
100
AcDbLine
 10
16.0
 20
9.252563
 30
0.125
 11
1.0
 21
9.252563
 31
0.125
  0
LINE
  5
757
330
70
100
AcDbEntity
  8
Visible
100
AcDbLine
 10
2.847658
 20
9.311468
 30
-0.082031
 11
2.152342
 21
9.311468
 31
-0.082031
  0
LINE
  5
758
330
70
100
AcDbEntity
  8
Visible
100
AcDbLine
 10
2.847656
 20
9.311781
 30
-0.082344
 11
2.152344
 21
9.311781
 31
-0.082344
  0
LINE
  5
759
330
70
100
AcDbEntity
  8
Visible
100
AcDbLine
 10
2.847658
 20
9.312093
 30
-0.082031
 11
2.152342
 21
9.312093
 31
-0.082031
  0
LINE
  5
75A
330
70
100
AcDbEntity
  8
Visible
100
AcDbLine
 10
1.0
 20
9.339788
 30
-0.078481
 11
1.0
 21
9.340843
 31
-0.058694
  0
LINE
  5
75B
330
70
100
AcDbEntity
  8
Visible
100
AcDbLine
 10
16.0
 20
9.339788
 30
-0.078481
 11
16.0
 21
9.340843
 31
-0.058694
  0
LINE
  5
75C
330
70
100
AcDbEntity
  8
Visible
100
AcDbLine
 10
16.0
 20
9.340843
 30
-0.007656
 11
1.0
 21
9.340843
 31
-0.007656
  0
LINE
  5
75D
330
70
100
AcDbEntity
  8
Visible
100
AcDbLine
 10
1.0
 20
9.344593
 30
-0.003906
 11
1.0
 21
9.360531
 31
-0.003906
  0
LINE
  5
75E
330
70
100
AcDbEntity
  8
Visible
100
AcDbLine
 10
16.0
 20
9.344593
 30
-0.003906
 11
16.0
 21
9.360531
 31
-0.003906
  0
LINE
  5
75F
330
70
100
AcDbEntity
  8
Visible
100
AcDbLine
 10
16.0
 20
9.364281
 30
0.093906
 11
1.0
 21
9.364281
 31
0.093906
  0
LINE
  5
760
330
70
100
AcDbEntity
  8
Visible
100
AcDbLine
 10
1.0
 20
9.368031
 30
0.097656
 11
1.0
 21
9.370998
 31
0.097656
  0
LINE
  5
761
330
70
100
AcDbEntity
  8
Visible
100
AcDbLine
 10
16.0
 20
9.368031
 30
0.097656
 11
16.0
 21
9.370998
 31
0.097656
  0
LINE
  5
762
330
70
100
AcDbEntity
  8
Visible
100
AcDbLine
 10
1.0
 20
9.374904
 30
0.128906
 11
1.0
 21
9.382093
 31
0.128906
  0
LINE
  5
763
330
70
100
AcDbEntity
  8
Visible
100
AcDbLine
 10
16.0
 20
9.374904
 30
0.128906
 11
16.0
 21
9.382093
 31
0.128906
  0
LINE
  5
764
330
70
100
AcDbEntity
  8
Visible
100
AcDbLine
 10
16.0
 20
9.389906
 30
0.121094
 11
1.0
 21
9.389906
 31
0.121094
  0
LINE
  5
765
330
70
100
AcDbEntity
  8
Visible
100
AcDbLine
 10
16.0
 20
9.233656
 30
0.121094
 11
1.0
 21
9.233656
 31
0.121094
  0
LINE
  5
766
330
70
100
AcDbEntity
  8
Visible
100
AcDbLine
 10
1.0
 20
9.241468
 30
0.128906
 11
1.0
 21
9.248657
 31
0.128906
  0
LINE
  5
767
330
70
100
AcDbEntity
  8
Visible
100
AcDbLine
 10
16.0
 20
9.248657
 30
0.128906
 11
16.0
 21
9.241468
 31
0.128906
  0
LINE
  5
768
330
70
100
AcDbEntity
  8
Visible
100
AcDbLine
 10
1.0
 20
9.252563
 30
0.097656
 11
1.0
 21
9.255531
 31
0.097656
  0
LINE
  5
769
330
70
100
AcDbEntity
  8
Visible
100
AcDbLine
 10
16.0
 20
9.255531
 30
0.097656
 11
16.0
 21
9.252563
 31
0.097656
  0
LINE
  5
76A
330
70
100
AcDbEntity
  8
Visible
100
AcDbLine
 10
16.0
 20
9.259281
 30
0.093906
 11
1.0
 21
9.259281
 31
0.093906
  0
LINE
  5
76B
330
70
100
AcDbEntity
  8
Visible
100
AcDbLine
 10
1.0
 20
9.263031
 30
-0.003906
 11
1.0
 21
9.278968
 31
-0.003906
  0
LINE
  5
76C
330
70
100
AcDbEntity
  8
Visible
100
AcDbLine
 10
16.0
 20
9.278968
 30
-0.003906
 11
16.0
 21
9.263031
 31
-0.003906
  0
LINE
  5
76D
330
70
100
AcDbEntity
  8
Visible
100
AcDbLine
 10
16.0
 20
9.282718
 30
-0.007656
 11
1.0
 21
9.282718
 31
-0.007656
  0
LINE
  5
76E
330
70
100
AcDbEntity
  8
Visible
100
AcDbLine
 10
1.0
 20
9.282718
 30
-0.058694
 11
1.0
 21
9.283773
 31
-0.078481
  0
LINE
  5
76F
330
70
100
AcDbEntity
  8
Visible
100
AcDbLine
 10
16.0
 20
9.283773
 30
-0.078481
 11
16.0
 21
9.282718
 31
-0.058694
  0
LINE
  5
770
330
70
100
AcDbEntity
  8
Visible
100
AcDbLine
 10
16.0
 20
9.312093
 30
-0.082031
 11
16.0
 21
9.336043
 31
-0.082031
  0
LINE
  5
771
330
70
100
AcDbEntity
  8
Visible
100
AcDbLine
 10
1.0
 20
9.312093
 30
-0.082031
 11
1.0
 21
9.336043
 31
-0.082031
  0
LINE
  5
772
330
70
100
AcDbEntity
  8
Visible
100
AcDbLine
 10
4.347658
 20
9.312093
 30
-0.082031
 11
3.652342
 21
9.312093
 31
-0.082031
  0
LINE
  5
773
330
70
100
AcDbEntity
  8
Visible
100
AcDbLine
 10
5.847658
 20
9.312093
 30
-0.082031
 11
5.152342
 21
9.312093
 31
-0.082031
  0
LINE
  5
774
330
70
100
AcDbEntity
  8
Visible
100
AcDbLine
 10
7.347658
 20
9.312093
 30
-0.082031
 11
6.652342
 21
9.312093
 31
-0.082031
  0
LINE
  5
775
330
70
100
AcDbEntity
  8
Visible
100
AcDbLine
 10
8.847658
 20
9.312093
 30
-0.082031
 11
8.152342
 21
9.312093
 31
-0.082031
  0
LINE
  5
776
330
70
100
AcDbEntity
  8
Visible
100
AcDbLine
 10
10.347658
 20
9.312093
 30
-0.082031
 11
9.652342
 21
9.312093
 31
-0.082031
  0
LINE
  5
777
330
70
100
AcDbEntity
  8
Visible
100
AcDbLine
 10
11.847658
 20
9.312093
 30
-0.082031
 11
11.152342
 21
9.312093
 31
-0.082031
  0
LINE
  5
778
330
70
100
AcDbEntity
  8
Visible
100
AcDbLine
 10
13.347658
 20
9.312093
 30
-0.082031
 11
12.652342
 21
9.312093
 31
-0.082031
  0
LINE
  5
779
330
70
100
AcDbEntity
  8
Visible
100
AcDbLine
 10
14.847658
 20
9.312093
 30
-0.082031
 11
14.152342
 21
9.312093
 31
-0.082031
  0
LINE
  5
77A
330
70
100
AcDbEntity
  8
Visible
100
AcDbLine
 10
16.0
 20
9.312093
 30
-0.082031
 11
15.652342
 21
9.312093
 31
-0.082031
  0
LINE
  5
77B
330
70
100
AcDbEntity
  8
Visible
100
AcDbLine
 10
16.0
 20
9.311781
 30
-0.082344
 11
16.0
 21
9.312093
 31
-0.082031
  0
LINE
  5
77C
330
70
100
AcDbEntity
  8
Visible
100
AcDbLine
 10
15.597658
 20
9.312093
 30
-0.082031
 11
14.902342
 21
9.312093
 31
-0.082031
  0
LINE
  5
77D
330
70
100
AcDbEntity
  8
Visible
100
AcDbLine
 10
14.097658
 20
9.312093
 30
-0.082031
 11
13.402342
 21
9.312093
 31
-0.082031
  0
LINE
  5
77E
330
70
100
AcDbEntity
  8
Visible
100
AcDbLine
 10
12.597658
 20
9.312093
 30
-0.082031
 11
11.902342
 21
9.312093
 31
-0.082031
  0
LINE
  5
77F
330
70
100
AcDbEntity
  8
Visible
100
AcDbLine
 10
11.097658
 20
9.312093
 30
-0.082031
 11
10.402342
 21
9.312093
 31
-0.082031
  0
LINE
  5
780
330
70
100
AcDbEntity
  8
Visible
100
AcDbLine
 10
9.597658
 20
9.312093
 30
-0.082031
 11
8.902342
 21
9.312093
 31
-0.082031
  0
LINE
  5
781
330
70
100
AcDbEntity
  8
Visible
100
AcDbLine
 10
8.097658
 20
9.312093
 30
-0.082031
 11
7.402342
 21
9.312093
 31
-0.082031
  0
LINE
  5
782
330
70
100
AcDbEntity
  8
Visible
100
AcDbLine
 10
6.597658
 20
9.312093
 30
-0.082031
 11
5.902342
 21
9.312093
 31
-0.082031
  0
LINE
  5
783
330
70
100
AcDbEntity
  8
Visible
100
AcDbLine
 10
5.097658
 20
9.312093
 30
-0.082031
 11
4.402342
 21
9.312093
 31
-0.082031
  0
LINE
  5
784
330
70
100
AcDbEntity
  8
Visible
100
AcDbLine
 10
3.597658
 20
9.312093
 30
-0.082031
 11
2.902342
 21
9.312093
 31
-0.082031
  0
LINE
  5
785
330
70
100
AcDbEntity
  8
Visible
100
AcDbLine
 10
2.097658
 20
9.312093
 30
-0.082031
 11
1.402342
 21
9.312093
 31
-0.082031
  0
LINE
  5
786
330
70
100
AcDbEntity
  8
Visible
100
AcDbLine
 10
1.0
 20
9.311781
 30
-0.082344
 11
1.0
 21
9.312093
 31
-0.082031
  0
LINE
  5
787
330
70
100
AcDbEntity
  8
Visible
100
AcDbLine
 10
1.347658
 20
9.312093
 30
-0.082031
 11
1.0
 21
9.312093
 31
-0.082031
  0
LINE
  5
788
330
70
100
AcDbEntity
  8
Visible
100
AcDbLine
 10
4.347656
 20
9.311781
 30
-0.082344
 11
3.652344
 21
9.311781
 31
-0.082344
  0
LINE
  5
789
330
70
100
AcDbEntity
  8
Visible
100
AcDbLine
 10
5.847656
 20
9.311781
 30
-0.082344
 11
5.152344
 21
9.311781
 31
-0.082344
  0
LINE
  5
78A
330
70
100
AcDbEntity
  8
Visible
100
AcDbLine
 10
7.347656
 20
9.311781
 30
-0.082344
 11
6.652344
 21
9.311781
 31
-0.082344
  0
LINE
  5
78B
330
70
100
AcDbEntity
  8
Visible
100
AcDbLine
 10
8.847656
 20
9.311781
 30
-0.082344
 11
8.152344
 21
9.311781
 31
-0.082344
  0
LINE
  5
78C
330
70
100
AcDbEntity
  8
Visible
100
AcDbLine
 10
10.347656
 20
9.311781
 30
-0.082344
 11
9.652344
 21
9.311781
 31
-0.082344
  0
LINE
  5
78D
330
70
100
AcDbEntity
  8
Visible
100
AcDbLine
 10
11.847656
 20
9.311781
 30
-0.082344
 11
11.152344
 21
9.311781
 31
-0.082344
  0
ARC
  5
78E
330
70
100
AcDbEntity
  8
Visible
100
AcDbCircle
 10
-9.625
 20
9.311781
 30
0.082031
 40
0.0273437500000018
210
0.0
220
0.0
230
-1.0
100
AcDbArc
 50
297.462357
 51
359.345177
  0
ARC
  5
78F
330
70
100
AcDbEntity
  8
Visible
100
AcDbCircle
 10
-9.625
 20
9.311781
 30
0.082031
 40
0.0273437499999975
210
0.0
220
0.0
230
-1.0
100
AcDbArc
 50
0.654823
 51
62.537643
  0
LINE
  5
790
330
70
100
AcDbEntity
  8
Visible
100
AcDbLine
 10
13.347656
 20
9.311781
 30
-0.082344
 11
12.652344
 21
9.311781
 31
-0.082344
  0
LINE
  5
791
330
70
100
AcDbEntity
  8
Visible
100
AcDbLine
 10
14.847656
 20
9.311781
 30
-0.082344
 11
14.152344
 21
9.311781
 31
-0.082344
  0
ARC
  5
792
330
70
100
AcDbEntity
  8
Visible
100
AcDbCircle
 10
-8.125
 20
9.311781
 30
0.082031
 40
0.0273437499999977
210
0.0
220
0.0
230
-1.0
100
AcDbArc
 50
117.462357
 51
179.345177
  0
ARC
  5
793
330
70
100
AcDbEntity
  8
Visible
100
AcDbCircle
 10
-8.125
 20
9.311781
 30
0.082031
 40
0.0273437500000017
210
0.0
220
0.0
230
-1.0
100
AcDbArc
 50
180.654823
 51
242.537643
  0
LINE
  5
794
330
70
100
AcDbEntity
  8
Visible
100
AcDbLine
 10
16.0
 20
9.311781
 30
-0.082344
 11
15.652344
 21
9.311781
 31
-0.082344
  0
LINE
  5
795
330
70
100
AcDbEntity
  8
Visible
100
AcDbLine
 10
16.0
 20
9.311468
 30
-0.082031
 11
16.0
 21
9.311781
 31
-0.082344
  0
ARC
  5
796
330
70
100
AcDbEntity
  8
Visible
100
AcDbCircle
 10
-8.125
 20
9.311781
 30
0.082031
 40
0.0273437500000018
210
0.0
220
0.0
230
-1.0
100
AcDbArc
 50
297.462357
 51
359.345177
  0
ARC
  5
797
330
70
100
AcDbEntity
  8
Visible
100
AcDbCircle
 10
-8.125
 20
9.311781
 30
0.082031
 40
0.0273437499999975
210
0.0
220
0.0
230
-1.0
100
AcDbArc
 50
0.654823
 51
62.537643
  0
LINE
  5
798
330
70
100
AcDbEntity
  8
Visible
100
AcDbLine
 10
15.597656
 20
9.311781
 30
-0.082344
 11
14.902344
 21
9.311781
 31
-0.082344
  0
LINE
  5
799
330
70
100
AcDbEntity
  8
Visible
100
AcDbLine
 10
14.097656
 20
9.311781
 30
-0.082344
 11
13.402344
 21
9.311781
 31
-0.082344
  0
ARC
  5
79A
330
70
100
AcDbEntity
  8
Visible
100
AcDbCircle
 10
-6.625
 20
9.311781
 30
0.082031
 40
0.0273437499999976
210
0.0
220
0.0
230
-1.0
100
AcDbArc
 50
117.462357
 51
179.345177
  0
ARC
  5
79B
330
70
100
AcDbEntity
  8
Visible
100
AcDbCircle
 10
-6.625
 20
9.311781
 30
0.082031
 40
0.0273437500000017
210
0.0
220
0.0
230
-1.0
100
AcDbArc
 50
180.654823
 51
242.537643
  0
LINE
  5
79C
330
70
100
AcDbEntity
  8
Visible
100
AcDbLine
 10
12.597656
 20
9.311781
 30
-0.082344
 11
11.902344
 21
9.311781
 31
-0.082344
  0
LINE
  5
79D
330
70
100
AcDbEntity
  8
Visible
100
AcDbLine
 10
11.097656
 20
9.311781
 30
-0.082344
 11
10.402344
 21
9.311781
 31
-0.082344
  0
ARC
  5
79E
330
70
100
AcDbEntity
  8
Visible
100
AcDbCircle
 10
-6.625
 20
9.311781
 30
0.082031
 40
0.0273437500000018
210
0.0
220
0.0
230
-1.0
100
AcDbArc
 50
297.462357
 51
359.345177
  0
ARC
  5
79F
330
70
100
AcDbEntity
  8
Visible
100
AcDbCircle
 10
-6.625
 20
9.311781
 30
0.082031
 40
0.0273437499999975
210
0.0
220
0.0
230
-1.0
100
AcDbArc
 50
0.654823
 51
62.537643
  0
LINE
  5
7A0
330
70
100
AcDbEntity
  8
Visible
100
AcDbLine
 10
9.597656
 20
9.311781
 30
-0.082344
 11
8.902344
 21
9.311781
 31
-0.082344
  0
LINE
  5
7A1
330
70
100
AcDbEntity
  8
Visible
100
AcDbLine
 10
8.097656
 20
9.311781
 30
-0.082344
 11
7.402344
 21
9.311781
 31
-0.082344
  0
LINE
  5
7A2
330
70
100
AcDbEntity
  8
Visible
100
AcDbLine
 10
6.597656
 20
9.311781
 30
-0.082344
 11
5.902344
 21
9.311781
 31
-0.082344
  0
LINE
  5
7A3
330
70
100
AcDbEntity
  8
Visible
100
AcDbLine
 10
5.097656
 20
9.311781
 30
-0.082344
 11
4.402344
 21
9.311781
 31
-0.082344
  0
ARC
  5
7A4
330
70
100
AcDbEntity
  8
Visible
100
AcDbCircle
 10
-5.125
 20
9.311781
 30
0.082031
 40
0.0273437499999979
210
0.0
220
0.0
230
-1.0
100
AcDbArc
 50
117.462357
 51
179.345177
  0
ARC
  5
7A5
330
70
100
AcDbEntity
  8
Visible
100
AcDbCircle
 10
-5.125
 20
9.311781
 30
0.082031
 40
0.0273437500000017
210
0.0
220
0.0
230
-1.0
100
AcDbArc
 50
180.654823
 51
242.537643
  0
LINE
  5
7A6
330
70
100
AcDbEntity
  8
Visible
100
AcDbLine
 10
3.597656
 20
9.311781
 30
-0.082344
 11
2.902344
 21
9.311781
 31
-0.082344
  0
LINE
  5
7A7
330
70
100
AcDbEntity
  8
Visible
100
AcDbLine
 10
2.097656
 20
9.311781
 30
-0.082344
 11
1.402344
 21
9.311781
 31
-0.082344
  0
ARC
  5
7A8
330
70
100
AcDbEntity
  8
Visible
100
AcDbCircle
 10
-5.125
 20
9.311781
 30
0.082031
 40
0.0273437500000015
210
0.0
220
0.0
230
-1.0
100
AcDbArc
 50
297.462357
 51
359.345177
  0
ARC
  5
7A9
330
70
100
AcDbEntity
  8
Visible
100
AcDbCircle
 10
-5.125
 20
9.311781
 30
0.082031
 40
0.0273437499999975
210
0.0
220
0.0
230
-1.0
100
AcDbArc
 50
0.654823
 51
62.537643
  0
LINE
  5
7AA
330
70
100
AcDbEntity
  8
Visible
100
AcDbLine
 10
1.0
 20
9.311468
 30
-0.082031
 11
1.0
 21
9.311781
 31
-0.082344
  0
LINE
  5
7AB
330
70
100
AcDbEntity
  8
Visible
100
AcDbLine
 10
1.347656
 20
9.311781
 30
-0.082344
 11
1.0
 21
9.311781
 31
-0.082344
  0
ARC
  5
7AC
330
70
100
AcDbEntity
  8
Visible
100
AcDbCircle
 10
-3.625
 20
9.311781
 30
0.082031
 40
0.0273437500000005
210
0.0
220
0.0
230
-1.0
100
AcDbArc
 50
117.462357
 51
179.345177
  0
ARC
  5
7AD
330
70
100
AcDbEntity
  8
Visible
100
AcDbCircle
 10
-3.625
 20
9.311781
 30
0.082031
 40
0.0273437500000017
210
0.0
220
0.0
230
-1.0
100
AcDbArc
 50
180.654823
 51
242.537643
  0
LINE
  5
7AE
330
70
100
AcDbEntity
  8
Visible
100
AcDbLine
 10
4.347658
 20
9.311468
 30
-0.082031
 11
3.652342
 21
9.311468
 31
-0.082031
  0
LINE
  5
7AF
330
70
100
AcDbEntity
  8
Visible
100
AcDbLine
 10
5.847658
 20
9.311468
 30
-0.082031
 11
5.152342
 21
9.311468
 31
-0.082031
  0
ARC
  5
7B0
330
70
100
AcDbEntity
  8
Visible
100
AcDbCircle
 10
-3.625
 20
9.311781
 30
0.082031
 40
0.0273437500000014
210
0.0
220
0.0
230
-1.0
100
AcDbArc
 50
297.462357
 51
359.345177
  0
ARC
  5
7B1
330
70
100
AcDbEntity
  8
Visible
100
AcDbCircle
 10
-3.625
 20
9.311781
 30
0.082031
 40
0.0273437500000003
210
0.0
220
0.0
230
-1.0
100
AcDbArc
 50
0.654823
 51
62.537643
  0
LINE
  5
7B2
330
70
100
AcDbEntity
  8
Visible
100
AcDbLine
 10
7.347658
 20
9.311468
 30
-0.082031
 11
6.652342
 21
9.311468
 31
-0.082031
  0
LINE
  5
7B3
330
70
100
AcDbEntity
  8
Visible
100
AcDbLine
 10
8.847658
 20
9.311468
 30
-0.082031
 11
8.152342
 21
9.311468
 31
-0.082031
  0
ARC
  5
7B4
330
70
100
AcDbEntity
  8
Visible
100
AcDbCircle
 10
-2.125
 20
9.311781
 30
0.082031
 40
0.0273437500000082
210
0.0
220
0.0
230
-1.0
100
AcDbArc
 50
117.462357
 51
179.345177
  0
ARC
  5
7B5
330
70
100
AcDbEntity
  8
Visible
100
AcDbCircle
 10
-2.125
 20
9.311781
 30
0.082031
 40
0.0273437500000003
210
0.0
220
0.0
230
-1.0
100
AcDbArc
 50
180.654823
 51
242.537643
  0
LINE
  5
7B6
330
70
100
AcDbEntity
  8
Visible
100
AcDbLine
 10
10.347658
 20
9.311468
 30
-0.082031
 11
9.652342
 21
9.311468
 31
-0.082031
  0
LINE
  5
7B7
330
70
100
AcDbEntity
  8
Visible
100
AcDbLine
 10
11.847658
 20
9.311468
 30
-0.082031
 11
11.152342
 21
9.311468
 31
-0.082031
  0
LINE
  5
7B8
330
70
100
AcDbEntity
  8
Visible
100
AcDbLine
 10
13.347658
 20
9.311468
 30
-0.082031
 11
12.652342
 21
9.311468
 31
-0.082031
  0
ARC
  5
7B9
330
70
100
AcDbEntity
  8
Visible
100
AcDbCircle
 10
-2.125
 20
9.311781
 30
0.082031
 40
0.0273437500000003
210
0.0
220
0.0
230
-1.0
100
AcDbArc
 50
297.462357
 51
359.345177
  0
ARC
  5
7BA
330
70
100
AcDbEntity
  8
Visible
100
AcDbCircle
 10
-2.125
 20
9.311781
 30
0.082031
 40
0.0273437500000088
210
0.0
220
0.0
230
-1.0
100
AcDbArc
 50
0.654823
 51
62.537643
  0
LINE
  5
7BB
330
70
100
AcDbEntity
  8
Visible
100
AcDbLine
 10
14.847658
 20
9.311468
 30
-0.082031
 11
14.152342
 21
9.311468
 31
-0.082031
  0
LINE
  5
7BC
330
70
100
AcDbEntity
  8
Visible
100
AcDbLine
 10
16.0
 20
9.311468
 30
-0.082031
 11
15.652342
 21
9.311468
 31
-0.082031
  0
LINE
  5
7BD
330
70
100
AcDbEntity
  8
Visible
100
AcDbLine
 10
16.0
 20
9.287518
 30
-0.082031
 11
16.0
 21
9.311468
 31
-0.082031
  0
LINE
  5
7BE
330
70
100
AcDbEntity
  8
Visible
100
AcDbLine
 10
15.597658
 20
9.311468
 30
-0.082031
 11
14.902342
 21
9.311468
 31
-0.082031
  0
LINE
  5
7BF
330
70
100
AcDbEntity
  8
Visible
100
AcDbLine
 10
14.097658
 20
9.311468
 30
-0.082031
 11
13.402342
 21
9.311468
 31
-0.082031
  0
LINE
  5
7C0
330
70
100
AcDbEntity
  8
Visible
100
AcDbLine
 10
12.597658
 20
9.311468
 30
-0.082031
 11
11.902342
 21
9.311468
 31
-0.082031
  0
LINE
  5
7C1
330
70
100
AcDbEntity
  8
Visible
100
AcDbLine
 10
11.097658
 20
9.311468
 30
-0.082031
 11
10.402342
 21
9.311468
 31
-0.082031
  0
LINE
  5
7C2
330
70
100
AcDbEntity
  8
Visible
100
AcDbLine
 10
9.597658
 20
9.311468
 30
-0.082031
 11
8.902342
 21
9.311468
 31
-0.082031
  0
LINE
  5
7C3
330
70
100
AcDbEntity
  8
Visible
100
AcDbLine
 10
8.097658
 20
9.311468
 30
-0.082031
 11
7.402342
 21
9.311468
 31
-0.082031
  0
LINE
  5
7C4
330
70
100
AcDbEntity
  8
Visible
100
AcDbLine
 10
6.597658
 20
9.311468
 30
-0.082031
 11
5.902342
 21
9.311468
 31
-0.082031
  0
LINE
  5
7C5
330
70
100
AcDbEntity
  8
Visible
100
AcDbLine
 10
5.097658
 20
9.311468
 30
-0.082031
 11
4.402342
 21
9.311468
 31
-0.082031
  0
LINE
  5
7C6
330
70
100
AcDbEntity
  8
Visible
100
AcDbLine
 10
3.597658
 20
9.311468
 30
-0.082031
 11
2.902342
 21
9.311468
 31
-0.082031
  0
LINE
  5
7C7
330
70
100
AcDbEntity
  8
Visible
100
AcDbLine
 10
2.097658
 20
9.311468
 30
-0.082031
 11
1.402342
 21
9.311468
 31
-0.082031
  0
LINE
  5
7C8
330
70
100
AcDbEntity
  8
Visible
100
AcDbLine
 10
1.0
 20
9.287518
 30
-0.082031
 11
1.0
 21
9.311468
 31
-0.082031
  0
LINE
  5
7C9
330
70
100
AcDbEntity
  8
Visible
100
AcDbLine
 10
1.347658
 20
9.311468
 30
-0.082031
 11
1.0
 21
9.311468
 31
-0.082031
  0
SPLINE
  5
7CA
330
70
100
AcDbEntity
  8
Visible
100
AcDbSpline
 70
     0
 71
     3
 72
    14
 73
    10
 74
     0
 42
0.000000001
 43
0.0000000001
 40
0.2331103659067779
 40
0.2331103659067779
 40
0.2331103659067779
 40
0.2331103659067779
 40
0.2922768872798529
 40
0.2922768872798529
 40
0.3514434086529279
 40
0.3514434086529279
 40
0.4093953502367443
 40
0.4093953502367443
 40
0.4592932192405233
 40
0.4592932192405233
 40
0.4592932192405233
 40
0.4592932192405233
 10
5.266426893476818
 20
5.231907963592675
 30
-1.312503713767181
 10
5.264431471496209
 20
5.224404107701047
 30
-1.312503713767181
 10
5.262234119696586
 20
5.216397479365696
 30
-1.311012679712422
 10
5.258055568025156
 20
5.201622971042525
 30
-1.304912619722172
 10
5.256077472224205
 20
5.194854451943683
 30
-1.300303015860704
 10
5.252914305960075
 20
5.184218957148914
 30
-1.289667521066266
 10
5.25150743699487
 20
5.179600235658654
 30
-1.28296645801894
 10
5.249747556385045
 20
5.173871418492126
 30
-1.269214893137229
 10
5.249272823704814
 20
5.172347414491014
 30
-1.262342281961159
 10
5.249162765903747
 20
5.171993115311124
 30
-1.255699172342148
1001
ACAD_VIEW_EDGE_ID
1071
       56
1071
       -1
1071
        2
1071
        0
  0
ELLIPSE
  5
7CB
330
70
100
AcDbEntity
  8
Visible
100
AcDbEllipse
 10
3.806587
 20
5.620108
 30
-9.65785
 11
0.0000000207214397
 21
-1.510572935179437
 31
28.32324253461755
210
-0.0000000000000002
220
-0.998580804677827
230
-0.053257642916145
 40
0.053257643948547
 41
-1.269611233065837
 42
-1.257884656555006
1001
ACAD_VIEW_EDGE_ID
1071
       57
1071
       -1
1071
        2
1071
        0
  0
SPLINE
  5
7CC
330
70
100
AcDbEntity
  8
Visible
100
AcDbSpline
 70
     0
 71
     3
 72
    14
 73
    10
 74
     0
 42
0.000000001
 43
0.0000000001
 40
0.0
 40
0.0
 40
0.0
 40
0.0
 40
0.0571900141661821
 40
0.0571900141661821
 40
0.1143800283323642
 40
0.1143800283323642
 40
0.1754550649663637
 40
0.1754550649663637
 40
0.2365301016003632
 40
0.2365301016003632
 40
0.2365301016003632
 40
0.2365301016003632
 10
5.243808849822016
 20
5.155107842572761
 30
-0.1225037137671776
 10
5.243808849822016
 20
5.155107842572761
 30
-0.1149984625642664
 10
5.243327182040957
 20
5.153611051748157
 30
-0.1070198397055537
 10
5.241365274112467
 20
5.147611377567955
 30
-0.0924079569696412
 10
5.239882051393578
 20
5.143110998003976
 30
-0.0857740697606622
 10
5.236324778570633
 20
5.132547941338998
 30
-0.0749736604131477
 10
5.233968400854791
 20
5.125661789337755
 30
-0.0702337742849637
 10
5.228696857835529
 20
5.110698270775174
 30
-0.0640004766266782
 10
5.225778887042906
 20
5.102623289034454
 30
-0.0625037137671776
 10
5.222993238257913
 20
5.09510784257327
 30
-0.0625037137671776
1001
ACAD_VIEW_EDGE_ID
1071
       59
1071
       -1
1071
        2
1071
        0
  0
ARC
  5
7CD
330
70
100
AcDbEntity
  8
Visible
100
AcDbCircle
 10
-3.806587
 20
5.620108
 30
0.062504
 40
1.510572967736402
210
0.0
220
0.0
230
-1.0
100
AcDbArc
 50
200.33755
 51
211.088427
  0
SPLINE
  5
7CE
330
70
100
AcDbEntity
  8
Visible
100
AcDbSpline
 70
     0
 71
     3
 72
    14
 73
    10
 74
     0
 42
0.000000001
 43
0.0000000001
 40
0.2476943045444454
 40
0.2476943045444454
 40
0.2476943045444454
 40
0.2476943045444454
 40
0.3133344431411846
 40
0.3133344431411846
 40
0.3789745817379239
 40
0.3789745817379239
 40
0.4388979690085497
 40
0.4388979690085497
 40
0.4988213562791754
 40
0.4988213562791754
 40
0.4988213562791754
 40
0.4988213562791754
 10
5.100198823618484
 20
4.84010784257407
 30
-0.0625037137671776
 10
5.095750796645006
 20
4.832730895384884
 30
-0.0625037137671776
 10
5.090890302908519
 20
4.824826494788794
 30
-0.0610696712626502
 10
5.081634736297928
 20
4.810070398994866
 30
-0.0550512439738529
 10
5.077242351026143
 20
4.803217353110085
 30
-0.0504660380466553
 10
5.070368772818255
 20
4.792627654131138
 30
-0.0398763390674089
 10
5.067328033641388
 20
4.788015474936401
 30
-0.0333353591506112
 10
5.063170637049552
 20
4.781750387472129
 30
-0.0185851439273241
 10
5.06206759518136
 20
4.780107842572761
 30
-0.0103676753512492
 10
5.06206759518136
 20
4.780107842572761
 30
-0.0025037137671773
1001
ACAD_VIEW_EDGE_ID
1071
       61
1071
       -1
1071
        2
1071
        0
  0
SPLINE
  5
7CF
330
70
100
AcDbEntity
  8
Visible
100
AcDbSpline
 70
     0
 71
     3
 72
    14
 73
    10
 74
     0
 42
0.000000001
 43
0.0000000001
 40
0.0
 40
0.0
 40
0.0
 40
0.0
 40
0.0567513851072739
 40
0.0567513851072739
 40
0.1135027702145478
 40
0.1135027702145478
 40
0.1849009635302266
 40
0.1849009635302266
 40
0.2562991568459053
 40
0.2562991568459053
 40
0.2562991568459053
 40
0.2562991568459053
 10
5.06206759518136
 20
4.780107842572761
 30
1.502496286232821
 10
5.06206759518136
 20
4.780107842572761
 30
1.509943974567109
 10
5.061082286090822
 20
4.778630068089114
 30
1.517771305473864
 10
5.057251413714766
 20
4.77294682493266
 30
1.531927881497736
 10
5.054407947694926
 20
4.768752861007669
 30
1.538262309911568
 10
5.047295226186179
 20
4.758409795533225
 30
1.549454249147955
 10
5.042275738169337
 20
4.751203858289954
 30
1.554485468558906
 10
5.031309286687246
 20
4.735813714518371
 30
1.56100408717474
 10
5.025360182260556
 20
4.727633067230271
 30
1.562496286232821
 10
5.019777626728682
 20
4.72010784257327
 30
1.562496286232821
1001
ACAD_VIEW_EDGE_ID
1071
       71
1071
       -1
1071
        2
1071
        0
  0
ARC
  5
7D0
330
70
100
AcDbEntity
  8
Visible
100
AcDbCircle
 10
-3.806587
 20
5.620108
 30
-1.562496
 40
1.510572967699616
210
0.0
220
0.0
230
-1.0
100
AcDbArc
 50
216.569713
 51
218.846066
  0
SPLINE
  5
7D1
330
70
100
AcDbEntity
  8
Visible
100
AcDbSpline
 70
     0
 71
     3
 72
    14
 73
    10
 74
     0
 42
0.000000001
 43
0.0000000001
 40
-0.0000000000000188
 40
0.0
 40
0.0
 40
0.0
 40
0.0589220400611129
 40
0.0589220400611129
 40
0.1178440801222258
 40
0.1178440801222258
 40
0.1981613784323394
 40
0.1981613784323394
 40
0.278478676742453
 40
0.278478676742453
 40
0.278478676742453
 40
0.278478676742453
 10
4.983072795324915
 20
4.672630852986912
 30
1.999996286232837
 10
4.983072795324915
 20
4.672630852986912
 30
2.007728837421959
 10
4.981845144571707
 20
4.671101248850391
 30
2.01580037713014
 10
4.977171833652391
 20
4.665342758378756
 30
2.030308058927398
 10
4.97373244501432
 20
4.661130541946477
 30
2.036752831228552
 10
4.964880874245864
 20
4.650442518834097
 30
2.048640386304472
 10
4.958439905291015
 20
4.64277417204903
 30
2.05402018845476
 10
4.944462542651308
 20
4.626535772009447
 30
2.060947469749795
 10
4.936923202643811
 20
4.617968825647039
 30
2.062496286232814
 10
4.929875884288776
 20
4.610130852986912
 30
2.062496286232814
1001
ACAD_VIEW_EDGE_ID
1071
       81
1071
       -1
1071
        2
1071
        0
  0
ARC
  5
7D2
330
70
100
AcDbEntity
  8
Visible
100
AcDbCircle
 10
-3.806587
 20
5.620108
 30
-2.062496
 40
1.510572967736829
210
0.0
220
0.0
230
-1.0
100
AcDbArc
 50
221.959507
 51
228.137675
  0
SPLINE
  5
7D3
330
70
100
AcDbEntity
  8
Visible
100
AcDbSpline
 70
     0
 71
     3
 72
    16
 73
    12
 74
     0
 42
0.000000001
 43
0.0000000001
 40
0.5833078348791656
 40
0.5833078348791656
 40
0.5833078348791656
 40
0.5833078348791656
 40
0.7792318801041205
 40
0.7792318801041205
 40
0.9751559253290754
 40
0.9751559253290754
 40
1.096390107162311
 40
1.096390107162311
 40
1.157007198078928
 40
1.157007198078928
 40
1.217624288995546
 40
1.217624288995546
 40
1.217624288995546
 40
1.217624288995546
 10
4.81465761286563
 20
4.495107842572906
 30
2.062496286232814
 10
4.795508723869716
 20
4.477949241769238
 30
2.062496286232814
 10
4.774304986129209
 20
4.459909573337426
 30
2.058829044414376
 10
4.732880188894341
 20
4.426575679342931
 30
2.043627805203214
 10
4.712645821351543
 20
4.411253633857995
 30
2.03219124993429
 10
4.685201240479727
 20
4.391272343606033
 30
2.008109753529112
 10
4.674689283508996
 20
4.383856997606926
 30
1.996342996514799
 10
4.663225871285249
 20
4.375912231835172
 30
1.975850924148956
 10
4.660109816906697
 20
4.373778556040633
 30
1.968545673372831
 10
4.655855444574626
 20
4.370875680133394
 30
1.953346523594889
 10
4.654720983682636
 20
4.370107842572906
 30
1.94545128504077
 10
4.654720983682636
 20
4.370107842572906
 30
1.937496286232816
1001
ACAD_VIEW_EDGE_ID
1071
       83
1071
       -1
1071
        2
1071
        0
  0
SPLINE
  5
7D4
330
70
100
AcDbEntity
  8
Visible
100
AcDbSpline
 70
     0
 71
     3
 72
    16
 73
    12
 74
     0
 42
0.000000001
 43
0.0000000001
 40
0.0
 40
0.0
 40
0.0
 40
0.0
 40
0.0710293087258033
 40
0.0710293087258033
 40
0.1420586174516066
 40
0.1420586174516066
 40
0.2841172349032132
 40
0.2841172349032132
 40
0.4602792790504169
 40
0.4602792790504169
 40
0.6364413231976205
 40
0.6364413231976205
 40
0.6364413231976205
 40
0.6364413231976205
 10
4.654720983680817
 20
6.870107842572906
 30
1.937496286232816
 10
4.654720983680817
 20
6.870107842572906
 30
1.946817717824129
 10
4.65626632059866
 20
6.869062517009297
 30
1.955870031128469
 10
4.661820812438236
 20
6.865265483063922
 30
1.973059336550819
 10
4.665831524751411
 20
6.86251076591543
 30
1.981195160609951
 10
4.680371764621668
 20
6.852370445149063
 30
2.003767584529039
 10
4.69345445170984
 20
6.843036273132383
 30
2.016344550971054
 10
4.722274793495671
 20
6.821665858933556
 30
2.037714965169181
 10
4.740779982193998
 20
6.807416286641455
 30
2.047107439988966
 10
4.778362183435092
 20
6.776857982949877
 30
2.059516267456883
 10
4.797440188505788
 20
6.760535730400079
 30
2.062496286232814
 10
4.814657612863811
 20
6.745107842572906
 30
2.062496286232814
1001
ACAD_VIEW_EDGE_ID
1071
       97
1071
       -1
1071
        2
1071
        0
  0
ARC
  5
7D5
330
70
100
AcDbEntity
  8
Visible
100
AcDbCircle
 10
-3.806587
 20
5.620108
 30
-2.062496
 40
1.510572967742754
210
0.0
220
0.0
230
-1.0
100
AcDbArc
 50
131.862325
 51
138.040493
  0
SPLINE
  5
7D6
330
70
100
AcDbEntity
  8
Visible
100
AcDbSpline
 70
     0
 71
     3
 72
    14
 73
    10
 74
     0
 42
0.000000001
 43
0.0000000001
 40
0.286440685303888
 40
0.286440685303888
 40
0.286440685303888
 40
0.286440685303888
 40
0.3618904377704206
 40
0.3618904377704206
 40
0.4373401902369533
 40
0.4373401902369533
 40
0.501179152277974
 40
0.501179152277974
 40
0.5650181143189672
 40
0.5650181143189672
 40
0.5650181143189947
 40
0.5650181143189947
 10
4.929875884286957
 20
6.630084832160719
 30
2.062496286232814
 10
4.936496107286075
 20
6.622721871633984
 30
2.062496286232814
 10
4.943597652745665
 20
6.614663851214572
 30
2.06112836229654
 10
4.9568859908195
 20
6.599264172853509
 30
2.054996508461332
 10
4.963073997929313
 20
6.59192618756424
 30
2.050225989284279
 10
4.972338707240851
 20
6.580783922943737
 30
2.039083724664985
 10
4.976267766900491
 20
6.575982571133863
 30
2.032384862834106
 10
4.981637131788374
 20
6.56937428762103
 30
2.017034622118311
 10
4.983072795324915
 20
6.567584832160719
 30
2.008374102773638
 10
4.983072795324915
 20
6.567584832160719
 30
1.999996286232821
1001
ACAD_VIEW_EDGE_ID
1071
       99
1071
       -1
1071
        2
1071
        0
  0
ARC
  5
7D7
330
70
100
AcDbEntity
  8
Visible
100
AcDbCircle
 10
-3.806587
 20
5.620108
 30
-1.562496
 40
1.510572967702885
210
0.0
220
0.0
230
-1.0
100
AcDbArc
 50
141.153934
 51
143.430287
  0
SPLINE
  5
7D8
330
70
100
AcDbEntity
  8
Visible
100
AcDbSpline
 70
     0
 71
     3
 72
    14
 73
    10
 74
     0
 42
0.000000001
 43
0.0000000001
 40
0.2611779002883573
 40
0.2611779002883573
 40
0.2611779002883573
 40
0.2611779002883573
 40
0.3325760936040827
 40
0.3325760936040827
 40
0.4039742869198082
 40
0.4039742869198082
 40
0.4607256720270815
 40
0.4607256720270815
 40
0.5174770571343549
 40
0.5174770571343549
 40
0.5174770571343549
 40
0.5174770571343549
 10
5.019777626728682
 20
6.520107842574361
 30
1.562496286232821
 10
5.025360182260556
 20
6.51258261791736
 30
1.562496286232821
 10
5.031309286687246
 20
6.50440197062926
 30
1.56100408717474
 10
5.042275738167518
 20
6.489011826855858
 30
1.554485468558906
 10
5.047295226186179
 20
6.481805889614406
 30
1.549454249147958
 10
5.054407947693107
 20
6.471462824139962
 30
1.53826230991157
 10
5.057251413712947
 20
6.467268860214971
 30
1.531927881497737
 10
5.061082286089003
 20
6.461585617056698
 30
1.517771305473865
 10
5.062067595179541
 20
6.460107842573052
 30
1.509943974567109
 10
5.062067595179541
 20
6.460107842573052
 30
1.502496286232821
1001
ACAD_VIEW_EDGE_ID
1071
      109
1071
       -1
1071
        2
1071
        0
  0
SPLINE
  5
7D9
330
70
100
AcDbEntity
  8
Visible
100
AcDbSpline
 70
     0
 71
     3
 72
    14
 73
    10
 74
     0
 42
0.000000001
 43
0.0000000001
 40
0.0
 40
0.0
 40
0.0
 40
0.0
 40
0.0599233872706337
 40
0.0599233872706337
 40
0.1198467745412673
 40
0.1198467745412673
 40
0.1854869131380311
 40
0.1854869131380311
 40
0.2511270517347949
 40
0.2511270517347949
 40
0.2511270517347949
 40
0.2511270517347949
 10
5.062067595179541
 20
6.460107842573052
 30
-0.0025037137671773
 10
5.062067595179541
 20
6.460107842573052
 30
-0.0103676753512501
 10
5.063170637047733
 20
6.458465297673683
 30
-0.0185851439273246
 10
5.067328033641388
 20
6.452200210211231
 30
-0.0333353591506112
 10
5.070368772818255
 20
6.447588031016493
 30
-0.0398763390674102
 10
5.077242351026143
 20
6.436998332035727
 30
-0.0504660380466557
 10
5.081634736296109
 20
6.430145286152765
 30
-0.0550512439738493
 10
5.090890302908519
 20
6.415389190358837
 30
-0.0610696712626417
 10
5.095750796645006
 20
6.407484789760928
 30
-0.0625037137671776
 10
5.100198823618484
 20
6.400107842573561
 30
-0.0625037137671776
1001
ACAD_VIEW_EDGE_ID
1071
      119
1071
       -1
1071
        2
1071
        0
  0
ARC
  5
7DA
330
70
100
AcDbEntity
  8
Visible
100
AcDbCircle
 10
-3.806587
 20
5.620108
 30
0.062504
 40
1.51057296773905
210
0.0
220
0.0
230
-1.0
100
AcDbArc
 50
148.911573
 51
159.66245
  0
SPLINE
  5
7DB
330
70
100
AcDbEntity
  8
Visible
100
AcDbSpline
 70
     0
 71
     3
 72
    14
 73
    10
 74
     0
 42
0.000000001
 43
0.0000000001
 40
0.2382159576368241
 40
0.2382159576368241
 40
0.2382159576368241
 40
0.2382159576368241
 40
0.2992909942708556
 40
0.2992909942708556
 40
0.3603660309048871
 40
0.3603660309048871
 40
0.4175560450710433
 40
0.4175560450710433
 40
0.4747460592371995
 40
0.4747460592371995
 40
0.4747460592371995
 40
0.4747460592371995
 10
5.222993238257913
 20
6.145107842574361
 30
-0.0625037137671776
 10
5.225778887042906
 20
6.137592396113177
 30
-0.0625037137671776
 10
5.22869685783371
 20
6.129517414372458
 30
-0.0640004766266822
 10
5.233968400854791
 20
6.114553895809876
 30
-0.0702337742849704
 10
5.236324778568814
 20
6.107667743808633
 30
-0.0749736604131663
 10
5.239882051391759
 20
6.097104687143655
 30
-0.0857740697606835
 10
5.241365274112467
 20
6.092604307579676
 30
-0.0924079569696512
 10
5.243327182040957
 20
6.086604633399474
 30
-0.1070198397055564
 10
5.243808849822016
 20
6.085107842573052
 30
-0.1149984625642699
 10
5.243808849822016
 20
6.085107842573052
 30
-0.1225037137671776
1001
ACAD_VIEW_EDGE_ID
1071
      121
1071
       -1
1071
        2
1071
        0
  0
ELLIPSE
  5
7DC
330
70
100
AcDbEntity
  8
Visible
100
AcDbEllipse
 10
3.806587
 20
5.620108
 30
-9.65785
 11
0.0000000207254662
 21
1.510572935175187
 31
28.32324253454082
210
0.0000000000000002
220
0.9985808046778272
230
-0.0532576429161394
 40
0.0532576439486743
 41
1.257884656553327
 42
1.269611233064199
1001
ACAD_VIEW_EDGE_ID
1071
      123
1071
       -1
1071
        2
1071
        0
  0
SPLINE
  5
7DD
330
70
100
AcDbEntity
  8
Visible
100
AcDbSpline
 70
     0
 71
     3
 72
    14
 73
    10
 74
     0
 42
0.000000001
 43
0.0000000001
 40
0.0080540725800347
 40
0.0080540725800347
 40
0.0080540725800347
 40
0.0080540725800347
 40
0.0579519415838191
 40
0.0579519415838191
 40
0.1159038831676382
 40
0.1159038831676382
 40
0.1750704045407195
 40
0.1750704045407195
 40
0.2342369259138008
 40
0.2342369259138008
 40
0.2342369259138008
 40
0.2342369259138008
 10
5.249162765903747
 20
6.068222569836507
 30
-1.255699172342148
 10
5.249272823704814
 20
6.067868270656617
 30
-1.26234228196116
 10
5.249747556385045
 20
6.066344266655505
 30
-1.269214893137234
 10
5.25150743699487
 20
6.060615449488977
 30
-1.282966458018945
 10
5.252914305958256
 20
6.055996727998717
 30
-1.289667521066266
 10
5.256077472224205
 20
6.045361233203948
 30
-1.300303015860704
 10
5.258055568025156
 20
6.038592714105107
 30
-1.304912619722179
 10
5.262234119696586
 20
6.023818205781935
 30
-1.311012679712426
 10
5.264431471496209
 20
6.015811577446584
 30
-1.312503713767181
 10
5.266426893476818
 20
6.008307721554956
 30
-1.312503713767181
1001
ACAD_VIEW_EDGE_ID
1071
      124
1071
       -1
1071
        2
1071
        0
  0
ARC
  5
7DE
330
70
100
AcDbEntity
  8
Visible
100
AcDbCircle
 10
-3.806587
 20
5.620108
 30
1.312504
 40
1.510572967740005
210
0.0
220
0.0
230
-1.0
100
AcDbArc
 50
165.108555
 51
179.81035
  0
ELLIPSE
  5
7DF
330
70
100
AcDbEntity
  8
Visible
100
AcDbEllipse
 10
3.806587
 20
5.620108
 30
-1.317504
 11
0.0000000001264664
 21
1.51057294619883
 31
1.5105729461991
210
0.0000000000000002
220
0.7071067811866106
230
-0.7071067811864847
 40
0.7071067912699159
 41
1.56748631835953
 42
1.570796326752856
1001
ACAD_VIEW_EDGE_ID
1071
      126
1071
       -1
1071
        2
1071
        0
  0
ELLIPSE
  5
7E0
330
70
100
AcDbEntity
  8
Visible
100
AcDbEllipse
 10
3.806587
 20
5.620108
 30
-1.317504
 11
0.0000000001267913
 21
-1.510572945711424
 31
1.510572945711692
210
-0.0000000000000002
220
-0.7071067811866105
230
-0.7071067811864845
 40
0.7071067914980734
 41
-1.570796326753108
 42
-1.567486318359316
1001
ACAD_VIEW_EDGE_ID
1071
      127
1071
       -1
1071
        2
1071
        0
  0
ARC
  5
7E1
330
70
100
AcDbEntity
  8
Visible
100
AcDbCircle
 10
-3.806587
 20
5.620108
 30
1.312504
 40
1.510572967741166
210
0.0
220
0.0
230
-1.0
100
AcDbArc
 50
180.18965
 51
194.891445
  0
SPLINE
  5
7E2
330
70
100
AcDbEntity
  8
Visible
100
AcDbSpline
 70
     0
 71
     3
 72
    14
 73
    10
 74
     0
 42
0.000000001
 43
0.0000000001
 40
0.475398289604582
 40
0.475398289604582
 40
0.475398289604582
 40
0.475398289604582
 40
0.5252961586083563
 40
0.5252961586083563
 40
0.5832481001921726
 40
0.5832481001921726
 40
0.6424146215652476
 40
0.6424146215652476
 40
0.7015811429383226
 40
0.7015811429383226
 40
0.7015811429383226
 40
0.7015811429383226
 10
2.364011898391254
 20
5.171993115311124
 30
-1.255699172342148
 10
2.363901840590187
 20
5.172347414491014
 30
-1.262342281961156
 10
2.363427107909956
 20
5.173871418492126
 30
-1.269214893137221
 10
2.361667227300131
 20
5.179600235658654
 30
-1.28296645801893
 10
2.360260358334926
 20
5.184218957148914
 30
-1.289667521066266
 10
2.357097192068977
 20
5.194854451943683
 30
-1.300303015860704
 10
2.355119096268026
 20
5.201622971042525
 30
-1.304912619722172
 10
2.350940544598415
 20
5.216397479365696
 30
-1.311012679712422
 10
2.348743192796973
 20
5.224404107701047
 30
-1.312503713767181
 10
2.346747770816364
 20
5.231907963592675
 30
-1.312503713767181
1001
ACAD_VIEW_EDGE_ID
1071
      129
1071
       -1
1071
        2
1071
        0
  0
ARC
  5
7E3
330
70
100
AcDbEntity
  8
Visible
100
AcDbCircle
 10
-3.806587
 20
5.620108
 30
1.312504
 40
1.510572967741167
210
0.0
220
0.0
230
-1.0
100
AcDbArc
 50
345.108555
 51
359.81035
  0
ELLIPSE
  5
7E4
330
70
100
AcDbEntity
  8
Visible
100
AcDbEllipse
 10
3.806587
 20
5.620108
 30
-1.317504
 11
-0.0000000001267753
 21
-1.510572945692121
 31
1.51057294569239
210
-0.0000000000000002
220
-0.7071067811866106
230
-0.7071067811864845
 40
0.7071067915071092
 41
1.567486318359278
 42
1.570796326753113
1001
ACAD_VIEW_EDGE_ID
1071
      131
1071
       -1
1071
        2
1071
        0
  0
ELLIPSE
  5
7E5
330
70
100
AcDbEntity
  8
Visible
100
AcDbEllipse
 10
3.806587
 20
5.620108
 30
-1.317504
 11
-0.0000000001262405
 21
1.510572946205738
 31
1.510572946206007
210
0.0000000000000002
220
0.7071067811866106
230
-0.7071067811864844
 40
0.7071067912666824
 41
-1.570796326752931
 42
-1.56748631835962
1001
ACAD_VIEW_EDGE_ID
1071
      132
1071
       -1
1071
        2
1071
        0
  0
ARC
  5
7E6
330
70
100
AcDbEntity
  8
Visible
100
AcDbCircle
 10
-3.806587
 20
5.620108
 30
1.312504
 40
1.510572967739938
210
0.0
220
0.0
230
-1.0
100
AcDbArc
 50
0.18965
 51
14.891445
  0
SPLINE
  5
7E7
330
70
100
AcDbEntity
  8
Visible
100
AcDbSpline
 70
     0
 71
     3
 72
    14
 73
    10
 74
     0
 42
0.000000001
 43
0.0000000001
 40
0.7004545829313115
 40
0.7004545829313115
 40
0.7004545829313115
 40
0.7004545829313115
 40
0.7596211043043928
 40
0.7596211043043928
 40
0.8187876256774741
 40
0.8187876256774741
 40
0.8767395672612931
 40
0.8767395672612931
 40
0.9266374362650758
 40
0.9266374362650758
 40
0.9266374362650758
 40
0.9266374362650758
 10
2.346747770818183
 20
6.008307721554956
 30
-1.312503713767181
 10
2.348743192798792
 20
6.015811577446584
 30
-1.312503713767181
 10
2.350940544598415
 20
6.023818205781935
 30
-1.311012679712422
 10
2.355119096269845
 20
6.038592714105107
 30
-1.304912619722171
 10
2.357097192068977
 20
6.045361233203948
 30
-1.300303015860704
 10
2.360260358334926
 20
6.055996727998717
 30
-1.289667521066266
 10
2.361667227300131
 20
6.060615449488977
 30
-1.282966458018945
 10
2.363427107909956
 20
6.066344266655505
 30
-1.269214893137234
 10
2.363901840590187
 20
6.067868270656617
 30
-1.26234228196116
 10
2.364011898391254
 20
6.068222569836507
 30
-1.255699172342148
1001
ACAD_VIEW_EDGE_ID
1071
      134
1071
       -1
1071
        2
1071
        0
  0
ELLIPSE
  5
7E8
330
70
100
AcDbEntity
  8
Visible
100
AcDbEllipse
 10
3.806587
 20
5.620108
 30
-9.65785
 11
-0.0000000207221108
 21
1.510572935180425
 31
28.32324253463904
210
0.0000000000000002
220
0.998580804677827
230
-0.0532576429161394
 40
0.0532576439485084
 41
-1.269611233065282
 42
-1.257884656554455
1001
ACAD_VIEW_EDGE_ID
1071
      135
1071
       -1
1071
        2
1071
        0
  0
SPLINE
  5
7E9
330
70
100
AcDbEntity
  8
Visible
100
AcDbSpline
 70
     0
 71
     3
 72
    14
 73
    10
 74
     0
 42
0.000000001
 43
0.0000000001
 40
0.474757079337944
 40
0.474757079337944
 40
0.474757079337944
 40
0.474757079337944
 40
0.5319470935041002
 40
0.5319470935041002
 40
0.5891371076702563
 40
0.5891371076702563
 40
0.6502121443042879
 40
0.6502121443042879
 40
0.7112871809383194
 40
0.7112871809383194
 40
0.7112871809383194
 40
0.7112871809383194
 10
2.369365814472985
 20
6.085107842573052
 30
-0.1225037137671776
 10
2.369365814472985
 20
6.085107842573052
 30
-0.1149984625642699
 10
2.369847482254044
 20
6.086604633399474
 30
-0.1070198397055531
 10
2.371809390180715
 20
6.092604307579676
 30
-0.0924079569696477
 10
2.373292612901423
 20
6.097104687143655
 30
-0.0857740697606835
 10
2.376849885724368
 20
6.107667743808633
 30
-0.0749736604131663
 10
2.37920626344021
 20
6.114553895809876
 30
-0.0702337742849704
 10
2.384477806459472
 20
6.129517414372458
 30
-0.0640004766266822
 10
2.387395777252095
 20
6.137592396113177
 30
-0.0625037137671776
 10
2.390181426037088
 20
6.145107842574361
 30
-0.0625037137671776
1001
ACAD_VIEW_EDGE_ID
1071
      137
1071
       -1
1071
        2
1071
        0
  0
ARC
  5
7EA
330
70
100
AcDbEntity
  8
Visible
100
AcDbCircle
 10
-3.806587
 20
5.620108
 30
0.062504
 40
1.51057296773905
210
0.0
220
0.0
230
-1.0
100
AcDbArc
 50
20.33755
 51
31.088427
  0
SPLINE
  5
7EB
330
70
100
AcDbEntity
  8
Visible
100
AcDbSpline
 70
     0
 71
     3
 72
    14
 73
    10
 74
     0
 42
0.000000001
 43
0.0000000001
 40
-0.2511270517347949
 40
-0.2511270517347949
 40
-0.2511270517347949
 40
-0.2511270517347949
 40
-0.1854869131380311
 40
-0.1854869131380311
 40
-0.1198467745412673
 40
-0.1198467745412673
 40
-0.0599233872706337
 40
-0.0599233872706337
 40
0.0
 40
0.0
 40
0.0
 40
0.0
 10
2.512975840676517
 20
6.400107842573561
 30
-0.0625037137671776
 10
2.517423867649995
 20
6.407484789760928
 30
-0.0625037137671776
 10
2.522284361386482
 20
6.415389190358837
 30
-0.0610696712626417
 10
2.531539927997073
 20
6.430145286152765
 30
-0.0550512439738493
 10
2.535932313268858
 20
6.436998332035727
 30
-0.0504660380466557
 10
2.542805891476746
 20
6.447588031016493
 30
-0.0398763390674102
 10
2.545846630653613
 20
6.452200210211231
 30
-0.0333353591506112
 10
2.550004027247268
 20
6.458465297673683
 30
-0.0185851439273246
 10
2.55110706911546
 20
6.460107842573052
 30
-0.0103676753512501
 10
2.55110706911546
 20
6.460107842573052
 30
-0.0025037137671773
1001
ACAD_VIEW_EDGE_ID
1071
      139
1071
       -1
1071
        2
1071
        0
  0
SPLINE
  5
7EC
330
70
100
AcDbEntity
  8
Visible
100
AcDbSpline
 70
     0
 71
     3
 72
    14
 73
    10
 74
     0
 42
0.000000001
 43
0.0000000001
 40
0.5176369657239556
 40
0.5176369657239556
 40
0.5176369657239556
 40
0.5176369657239556
 40
0.5743883508312289
 40
0.5743883508312289
 40
0.6311397359385023
 40
0.6311397359385023
 40
0.7025379292542278
 40
0.7025379292542278
 40
0.7739361225699532
 40
0.7739361225699532
 40
0.7739361225699532
 40
0.7739361225699532
 10
2.55110706911546
 20
6.460107842573052
 30
1.502496286232821
 10
2.55110706911546
 20
6.460107842573052
 30
1.509943974567109
 10
2.552092378204179
 20
6.461585617056698
 30
1.517771305473864
 10
2.555923250580235
 20
6.467268860214971
 30
1.531927881497734
 10
2.558766716601894
 20
6.471462824139962
 30
1.53826230991157
 10
2.565879438108822
 20
6.481805889614406
 30
1.549454249147958
 10
2.570898926127483
 20
6.489011826855858
 30
1.554485468558906
 10
2.581865377607755
 20
6.50440197062926
 30
1.56100408717474
 10
2.587814482034445
 20
6.51258261791736
 30
1.562496286232821
 10
2.593397037566319
 20
6.520107842574361
 30
1.562496286232821
1001
ACAD_VIEW_EDGE_ID
1071
      149
1071
       -1
1071
        2
1071
        0
  0
ARC
  5
7ED
330
70
100
AcDbEntity
  8
Visible
100
AcDbCircle
 10
-3.806587
 20
5.620108
 30
-1.562496
 40
1.510572967783937
210
0.0
220
0.0
230
-1.0
100
AcDbArc
 50
36.569713
 51
38.846066
  0
SPLINE
  5
7EE
330
70
100
AcDbEntity
  8
Visible
100
AcDbSpline
 70
     0
 71
     3
 72
    14
 73
    10
 74
     0
 42
0.000000001
 43
0.0000000001
 40
0.5646590445452329
 40
0.5646590445452329
 40
0.5646590445452525
 40
0.5646590445452525
 40
0.6284980065862537
 40
0.6284980065862537
 40
0.6923369686272745
 40
0.6923369686272745
 40
0.7677867210938071
 40
0.7677867210938071
 40
0.8432364735603396
 40
0.8432364735603396
 40
0.8432364735603396
 40
0.8432364735603396
 10
2.630101868970086
 20
6.567584832160719
 30
1.99999628623282
 10
2.630101868970086
 20
6.567584832160719
 30
2.008374102773635
 10
2.631537532506627
 20
6.56937428762103
 30
2.017034622118311
 10
2.636906897392691
 20
6.575982571133863
 30
2.032384862834106
 10
2.64083595705415
 20
6.580783922943737
 30
2.039083724664985
 10
2.650100666365688
 20
6.59192618756424
 30
2.050225989284279
 10
2.656288673475501
 20
6.599264172853509
 30
2.054996508461332
 10
2.669577011549336
 20
6.614663851214572
 30
2.06112836229654
 10
2.676678557007107
 20
6.622721871633984
 30
2.062496286232814
 10
2.683298780006225
 20
6.630084832160719
 30
2.062496286232814
1001
ACAD_VIEW_EDGE_ID
1071
      159
1071
       -1
1071
        2
1071
        0
  0
ARC
  5
7EF
330
70
100
AcDbEntity
  8
Visible
100
AcDbCircle
 10
-3.806587
 20
5.620108
 30
-2.062496
 40
1.510572967744115
210
0.0
220
0.0
230
-1.0
100
AcDbArc
 50
41.959507
 51
48.137675
  0
SPLINE
  5
7F0
330
70
100
AcDbEntity
  8
Visible
100
AcDbSpline
 70
     0
 71
     3
 72
    16
 73
    12
 74
     0
 42
0.000000001
 43
0.0000000001
 40
-0.6364413231976205
 40
-0.6364413231976205
 40
-0.6364413231976205
 40
-0.6364413231976205
 40
-0.4602792790504169
 40
-0.4602792790504169
 40
-0.2841172349032131
 40
-0.2841172349032131
 40
-0.1420586174516063
 40
-0.1420586174516063
 40
-0.0710293087258029
 40
-0.0710293087258029
 40
0.0
 40
0.0
 40
0.0
 40
0.0
 10
2.79851705143119
 20
6.745107842572906
 30
2.062496286232814
 10
2.815734475789213
 20
6.760535730400079
 30
2.062496286232814
 10
2.83481248085809
 20
6.776857982949877
 30
2.059516267456875
 10
2.872394682101003
 20
6.807416286641455
 30
2.047107439988952
 10
2.89089987079933
 20
6.821665858933556
 30
2.037714965169181
 10
2.919720212585161
 20
6.843036273132383
 30
2.016344550971054
 10
2.932802899673333
 20
6.852370445149063
 30
2.003767584529039
 10
2.94734313954359
 20
6.86251076591543
 30
1.981195160609951
 10
2.951353851854946
 20
6.865265483063922
 30
1.973059336550819
 10
2.956908343694522
 20
6.869062517009297
 30
1.955870031128469
 10
2.958453680614184
 20
6.870107842572906
 30
1.946817717824129
 10
2.958453680614184
 20
6.870107842572906
 30
1.937496286232816
1001
ACAD_VIEW_EDGE_ID
1071
      161
1071
       -1
1071
        2
1071
        0
  0
SPLINE
  5
7F1
330
70
100
AcDbEntity
  8
Visible
100
AcDbSpline
 70
     0
 71
     3
 72
    16
 73
    12
 74
     0
 42
0.000000001
 43
0.0000000001
 40
1.219968836500051
 40
1.219968836500051
 40
1.219968836500051
 40
1.219968836500051
 40
1.280585927416669
 40
1.280585927416669
 40
1.341203018333287
 40
1.341203018333287
 40
1.462437200166523
 40
1.462437200166523
 40
1.658361245391478
 40
1.658361245391478
 40
1.854285290616432
 40
1.854285290616432
 40
1.854285290616432
 40
1.854285290616432
 10
2.958453680612365
 20
4.370107842572906
 30
1.937496286232816
 10
2.958453680612365
 20
4.370107842572906
 30
1.94545128504077
 10
2.957319219718556
 20
4.370875680133394
 30
1.953346523594889
 10
2.953064847388304
 20
4.373778556040633
 30
1.968545673372831
 10
2.949948793007934
 20
4.375912231835172
 30
1.975850924148956
 10
2.938485380784186
 20
4.383856997606926
 30
1.996342996514799
 10
2.927973423815274
 20
4.391272343606033
 30
2.008109753529112
 10
2.900528842941639
 20
4.411253633857995
 30
2.03219124993429
 10
2.88029447540066
 20
4.426575679342931
 30
2.043627805203214
 10
2.838869678165792
 20
4.459909573337426
 30
2.058829044414376
 10
2.817665940425285
 20
4.477949241769238
 30
2.062496286232814
 10
2.798517051429371
 20
4.495107842572906
 30
2.062496286232814
1001
ACAD_VIEW_EDGE_ID
1071
      175
1071
       -1
1071
        2
1071
        0
  0
ARC
  5
7F2
330
70
100
AcDbEntity
  8
Visible
100
AcDbCircle
 10
-3.806587
 20
5.620108
 30
-2.062496
 40
1.510572967736829
210
0.0
220
0.0
230
-1.0
100
AcDbArc
 50
311.862325
 51
318.040493
  0
SPLINE
  5
7F3
330
70
100
AcDbEntity
  8
Visible
100
AcDbSpline
 70
     0
 71
     3
 72
    14
 73
    10
 74
     0
 42
0.000000001
 43
0.0000000001
 40
-0.278478676742453
 40
-0.278478676742453
 40
-0.278478676742453
 40
-0.278478676742453
 40
-0.1981613784323394
 40
-0.1981613784323394
 40
-0.1178440801222258
 40
-0.1178440801222258
 40
-0.058922040061113
 40
-0.058922040061113
 40
0.0
 40
0.0
 40
0.0
 40
0.0000000000000184
 10
2.683298780006225
 20
4.610130852986912
 30
2.062496286232814
 10
2.676251461649371
 20
4.617968825647039
 30
2.062496286232814
 10
2.668712121643693
 20
4.626535772009447
 30
2.060947469749795
 10
2.654734759002167
 20
4.64277417204903
 30
2.05402018845476
 10
2.648293790049137
 20
4.650442518834097
 30
2.048640386304472
 10
2.639442219280681
 20
4.661130541946477
 30
2.036752831228551
 10
2.63600283064261
 20
4.665342758378756
 30
2.030308058927405
 10
2.631329519721475
 20
4.671101248850391
 30
2.015800377130161
 10
2.630101868968267
 20
4.672630852986912
 30
2.007728837421959
 10
2.630101868968267
 20
4.672630852986912
 30
1.999996286232837
1001
ACAD_VIEW_EDGE_ID
1071
      177
1071
       -1
1071
        2
1071
        0
  0
ARC
  5
7F4
330
70
100
AcDbEntity
  8
Visible
100
AcDbCircle
 10
-3.806587
 20
5.620108
 30
-1.562496
 40
1.510572967746181
210
0.0
220
0.0
230
-1.0
100
AcDbArc
 50
321.153934
 51
323.430287
  0
SPLINE
  5
7F5
330
70
100
AcDbEntity
  8
Visible
100
AcDbSpline
 70
     0
 71
     3
 72
    14
 73
    10
 74
     0
 42
0.000000001
 43
0.0000000001
 40
-0.2562991568459052
 40
-0.2562991568459052
 40
-0.2562991568459052
 40
-0.2562991568459052
 40
-0.1849009635302264
 40
-0.1849009635302264
 40
-0.1135027702145477
 40
-0.1135027702145477
 40
-0.0567513851072739
 40
-0.0567513851072739
 40
0.0
 40
0.0
 40
0.0
 40
0.0
 10
2.593397037566319
 20
4.72010784257327
 30
1.562496286232821
 10
2.587814482032626
 20
4.727633067230271
 30
1.562496286232821
 10
2.581865377607755
 20
4.735813714518371
 30
1.56100408717474
 10
2.570898926125664
 20
4.751203858289954
 30
1.554485468558906
 10
2.565879438108822
 20
4.758409795533225
 30
1.549454249147955
 10
2.558766716600075
 20
4.768752861007669
 30
1.538262309911568
 10
2.555923250580235
 20
4.77294682493266
 30
1.531927881497736
 10
2.552092378204179
 20
4.778630068089114
 30
1.517771305473864
 10
2.551107069113641
 20
4.780107842572761
 30
1.509943974567109
 10
2.551107069113641
 20
4.780107842572761
 30
1.502496286232821
1001
ACAD_VIEW_EDGE_ID
1071
      187
1071
       -1
1071
        2
1071
        0
  0
SPLINE
  5
7F6
330
70
100
AcDbEntity
  8
Visible
100
AcDbSpline
 70
     0
 71
     3
 72
    14
 73
    10
 74
     0
 42
0.000000001
 43
0.0000000001
 40
0.4987499130590095
 40
0.4987499130590095
 40
0.4987499130590095
 40
0.4987499130590095
 40
0.5586733003296353
 40
0.5586733003296353
 40
0.618596687600261
 40
0.618596687600261
 40
0.6842368261970002
 40
0.6842368261970002
 40
0.7498769647937394
 40
0.7498769647937394
 40
0.7498769647937394
 40
0.7498769647937394
 10
2.551107069113641
 20
4.780107842572761
 30
-0.0025037137671773
 10
2.551107069113641
 20
4.780107842572761
 30
-0.0103676753512492
 10
2.550004027245449
 20
4.781750387472129
 30
-0.0185851439273241
 10
2.545846630653613
 20
4.788015474936401
 30
-0.0333353591506112
 10
2.542805891474927
 20
4.792627654131138
 30
-0.0398763390674089
 10
2.535932313267039
 20
4.803217353110085
 30
-0.0504660380466553
 10
2.531539927997073
 20
4.810070398994866
 30
-0.0550512439738529
 10
2.522284361386482
 20
4.824826494788794
 30
-0.0610696712626502
 10
2.517423867648176
 20
4.832730895384884
 30
-0.0625037137671776
 10
2.512975840676517
 20
4.84010784257407
 30
-0.0625037137671776
1001
ACAD_VIEW_EDGE_ID
1071
      197
1071
       -1
1071
        2
1071
        0
  0
ARC
  5
7F7
330
70
100
AcDbEntity
  8
Visible
100
AcDbCircle
 10
-3.806587
 20
5.620108
 30
0.062504
 40
1.510572967736402
210
0.0
220
0.0
230
-1.0
100
AcDbArc
 50
328.911573
 51
339.66245
  0
SPLINE
  5
7F8
330
70
100
AcDbEntity
  8
Visible
100
AcDbSpline
 70
     0
 71
     3
 72
    14
 73
    10
 74
     0
 42
0.000000001
 43
0.0000000001
 40
-0.2365301016003631
 40
-0.2365301016003631
 40
-0.2365301016003631
 40
-0.2365301016003631
 40
-0.1754550649663636
 40
-0.1754550649663636
 40
-0.1143800283323642
 40
-0.1143800283323642
 40
-0.0571900141661821
 40
-0.0571900141661821
 40
0.0
 40
0.0
 40
0.0
 40
0.0
 10
2.390181426037088
 20
5.09510784257327
 30
-0.0625037137671776
 10
2.387395777252095
 20
5.102623289034454
 30
-0.0625037137671776
 10
2.384477806459472
 20
5.110698270775174
 30
-0.0640004766266782
 10
2.379206263438391
 20
5.125661789337755
 30
-0.070233774284963
 10
2.376849885724368
 20
5.132547941338998
 30
-0.0749736604131477
 10
2.373292612901423
 20
5.143110998003976
 30
-0.0857740697606622
 10
2.371809390180715
 20
5.147611377567955
 30
-0.0924079569696412
 10
2.369847482254044
 20
5.153611051748157
 30
-0.1070198397055537
 10
2.369365814472985
 20
5.155107842572761
 30
-0.1149984625642664
 10
2.369365814472985
 20
5.155107842572761
 30
-0.1225037137671776
1001
ACAD_VIEW_EDGE_ID
1071
      199
1071
       -1
1071
        2
1071
        0
  0
ELLIPSE
  5
7F9
330
70
100
AcDbEntity
  8
Visible
100
AcDbEllipse
 10
3.806587
 20
5.620108
 30
-9.65785
 11
-0.0000000207220994
 21
-1.510572935178393
 31
28.32324253459797
210
-0.0000000000000002
220
-0.9985808046778267
230
-0.053257642916145
 40
0.0532576439485801
 41
1.25788465655478
 42
1.269611233065621
1001
ACAD_VIEW_EDGE_ID
1071
      201
1071
       -1
1071
        2
1071
        0
  0
LINE
  5
7FA
330
70
100
AcDbEntity
  8
Visible
100
AcDbLine
 10
3.369116
 20
5.625108
 30
-1.312504
 11
2.296023
 21
5.625108
 31
-1.312504
  0
ARC
  5
7FB
330
70
100
AcDbEntity
  8
Visible
100
AcDbCircle
 10
-3.806587
 20
5.620108
 30
1.312504
 40
0.43749999999996
210
0.0
220
0.0
230
-1.0
100
AcDbArc
 50
0.654823
 51
62.537643
  0
LINE
  5
7FC
330
70
100
AcDbEntity
  8
Visible
100
AcDbLine
 10
3.369087
 20
5.620108
 30
-1.317504
 11
2.296014
 21
5.620108
 31
-1.317504
  0
ELLIPSE
  5
7FD
330
70
100
AcDbEntity
  8
Visible
100
AcDbEllipse
 10
3.806587
 20
5.620108
 30
-1.317504
 11
0.0000000005615883
 21
0.4375000230485165
 31
0.4375000230485941
210
0.0000000000000002
220
0.7071067811866105
230
-0.7071067811864849
 40
0.707106743934459
 41
4.712388979742861
 42
4.723817799368246
1001
ACAD_VIEW_EDGE_ID
1071
      262
1071
       -1
1071
        2
1071
        0
  0
LINE
  5
7FE
330
70
100
AcDbEntity
  8
Visible
100
AcDbLine
 10
3.369116
 20
5.615108
 30
-1.312504
 11
2.296023
 21
5.615108
 31
-1.312504
  0
ELLIPSE
  5
7FF
330
70
100
AcDbEntity
  8
Visible
100
AcDbEllipse
 10
3.806587
 20
5.620108
 30
-1.317504
 11
0.0000000005615807
 21
-0.4375000230489562
 31
0.437500023049034
210
-0.0000000000000002
220
-0.7071067811866105
230
-0.7071067811864848
 40
0.7071067439337479
 41
1.559367507811317
 42
1.57079632743669
1001
ACAD_VIEW_EDGE_ID
1071
      264
1071
       -1
1071
        2
1071
        0
  0
ARC
  5
800
330
70
100
AcDbEntity
  8
Visible
100
AcDbCircle
 10
-3.806587
 20
5.620108
 30
1.312504
 40
0.4375000000000241
210
0.0
220
0.0
230
-1.0
100
AcDbArc
 50
297.462357
 51
359.345177
  0
LINE
  5
801
330
70
100
AcDbEntity
  8
Visible
100
AcDbLine
 10
4.654721
 20
6.870108
 30
1.937496
 11
2.958454
 21
6.870108
 31
1.937496
  0
LINE
  5
802
330
70
100
AcDbEntity
  8
Visible
100
AcDbLine
 10
5.062068
 20
6.460108
 30
1.502496
 11
2.551107
 21
6.460108
 31
1.502496
  0
LINE
  5
803
330
70
100
AcDbEntity
  8
Visible
100
AcDbLine
 10
5.243809
 20
6.085108
 30
-0.122504
 11
2.369366
 21
6.085108
 31
-0.122504
  0
SPLINE
  5
804
330
70
100
AcDbEntity
  8
Visible
100
AcDbSpline
 70
     0
 71
     3
 72
    18
 73
    14
 74
     0
 42
0.000000001
 43
0.0000000001
 40
0.1280064322251458
 40
0.1280064322251458
 40
0.1280064322251458
 40
0.1280064322251458
 40
0.129028459830411
 40
0.129028459830411
 40
0.2296514482182149
 40
0.2296514482182149
 40
0.3302744366060188
 40
0.3302744366060188
 40
0.4308974249938228
 40
0.4308974249938228
 40
0.5315204133816267
 40
0.5315204133816267
 40
0.5325424409868833
 40
0.5325424409868833
 40
0.5325424409868833
 40
0.5325424409868833
 10
3.604827316388764
 20
6.008307721554956
 30
-1.312503713767188
 10
3.605131576881831
 20
6.008465855560643
 30
-1.312503713767188
 10
3.605435055833368
 20
6.008623129007901
 30
-1.312503088597442
 10
3.635535080333283
 20
6.024177590154067
 30
-1.312380773460278
 10
3.668926377215029
 20
6.036888481214191
 30
-1.306312231593576
 10
3.737648257038017
 20
6.053586827571052
 30
-1.293271727082898
 10
3.773046336016705
 20
6.057607842572906
 30
-1.286701638668322
 10
3.840128328276477
 20
6.057607842572906
 30
-1.286701638668322
 10
3.875526407255165
 20
6.053586827571052
 30
-1.293271727082898
 10
3.944248287078153
 20
6.036888481214191
 30
-1.306312231593576
 10
3.977639583961718
 20
6.024177590154067
 30
-1.312380773460278
 10
4.007739608459814
 20
6.008623129007901
 30
-1.312503088597442
 10
4.008043087411351
 20
6.008465855560643
 30
-1.312503713767188
 10
4.008347347904418
 20
6.008307721554956
 30
-1.312503713767188
1001
ACAD_VIEW_EDGE_ID
1071
      299
1071
       -1
1071
        2
1071
        0
  0
SPLINE
  5
805
330
70
100
AcDbEntity
  8
Visible
100
AcDbSpline
 70
     0
 71
     3
 72
    18
 73
    14
 74
     0
 42
0.000000001
 43
0.0000000001
 40
0.1280064322251015
 40
0.1280064322251015
 40
0.1280064322251015
 40
0.1280064322251015
 40
0.129028459830409
 40
0.129028459830409
 40
0.2296514482181942
 40
0.2296514482181942
 40
0.3302744366059795
 40
0.3302744366059795
 40
0.4308974249937647
 40
0.4308974249937647
 40
0.5315204133815499
 40
0.5315204133815499
 40
0.5325424409867983
 40
0.5325424409867983
 40
0.5325424409867983
 40
0.5325424409867983
 10
4.008347347904418
 20
5.231907963592675
 30
-1.312503713767187
 10
4.008043087411351
 20
5.231749829586988
 30
-1.312503713767187
 10
4.007739608459814
 20
5.23159255613973
 30
-1.312503088597441
 10
3.977639583961718
 20
5.216038094993564
 30
-1.312380773460279
 10
3.944248287078153
 20
5.20332720393344
 30
-1.306312231593584
 10
3.875526407255165
 20
5.186628857576579
 30
-1.293271727082921
 10
3.840128328276477
 20
5.182607842572906
 30
-1.28670163866835
 10
3.773046336016705
 20
5.182607842572906
 30
-1.28670163866835
 10
3.737648257038017
 20
5.186628857576579
 30
-1.293271727082914
 10
3.668926377215029
 20
5.20332720393344
 30
-1.30631223159358
 10
3.635535080333283
 20
5.216038094993564
 30
-1.312380773460279
 10
3.605435055833368
 20
5.23159255613973
 30
-1.312503088597441
 10
3.605131576881831
 20
5.231749829586988
 30
-1.312503713767187
 10
3.604827316388764
 20
5.231907963592675
 30
-1.312503713767187
1001
ACAD_VIEW_EDGE_ID
1071
      303
1071
       -1
1071
        2
1071
        0
  0
CIRCLE
  5
806
330
70
100
AcDbEntity
  8
Visible
100
AcDbCircle
 10
-3.806587
 20
5.620108
 30
1.750004
 40
0.249
210
0.0
220
0.0
230
-1.0
  0
ARC
  5
807
330
70
100
AcDbEntity
  8
Visible
100
AcDbCircle
 10
-3.806587
 20
5.620108
 30
1.312504
 40
0.4375000000000277
210
0.0
220
0.0
230
-1.0
100
AcDbArc
 50
180.654823
 51
242.537643
  0
ELLIPSE
  5
808
330
70
100
AcDbEntity
  8
Visible
100
AcDbEllipse
 10
3.806587
 20
5.620108
 30
-1.317504
 11
-0.0000000005615675
 21
-0.4375000230485651
 31
0.4375000230486429
210
-0.0000000000000002
220
-0.7071067811866103
230
-0.7071067811864848
 40
0.70710674393438
 41
4.712388979742909
 42
4.723817799368293
1001
ACAD_VIEW_EDGE_ID
1071
      350
1071
       -1
1071
        2
1071
        0
  0
ELLIPSE
  5
809
330
70
100
AcDbEntity
  8
Visible
100
AcDbEllipse
 10
3.806587
 20
5.620108
 30
-1.317504
 11
-0.0000000005616017
 21
0.4375000230489467
 31
0.4375000230490243
210
0.0000000000000002
220
0.7071067811866103
230
-0.7071067811864848
 40
0.7071067439337636
 41
1.559367507811365
 42
1.570796327436738
1001
ACAD_VIEW_EDGE_ID
1071
      351
1071
       -1
1071
        2
1071
        0
  0
ARC
  5
80A
330
70
100
AcDbEntity
  8
Visible
100
AcDbCircle
 10
-3.806587
 20
5.620108
 30
1.312504
 40
0.4374999999999662
210
0.0
220
0.0
230
-1.0
100
AcDbArc
 50
117.462357
 51
179.345177
  0
LINE
  5
80B
330
70
100
AcDbEntity
  8
Visible
100
AcDbLine
 10
5.317152
 20
5.615108
 30
-1.312504
 11
4.244059
 21
5.615108
 31
-1.312504
  0
LINE
  5
80C
330
70
100
AcDbEntity
  8
Visible
100
AcDbLine
 10
5.31716
 20
5.620108
 30
-1.317504
 11
4.244087
 21
5.620108
 31
-1.317504
  0
LINE
  5
80D
330
70
100
AcDbEntity
  8
Visible
100
AcDbLine
 10
5.317152
 20
5.625108
 30
-1.312504
 11
4.244059
 21
5.625108
 31
-1.312504
  0
LINE
  5
80E
330
70
100
AcDbEntity
  8
Visible
100
AcDbLine
 10
5.243809
 20
5.155108
 30
-0.122504
 11
2.369366
 21
5.155108
 31
-0.122504
  0
LINE
  5
80F
330
70
100
AcDbEntity
  8
Visible
100
AcDbLine
 10
5.062068
 20
4.780108
 30
1.502496
 11
2.551107
 21
4.780108
 31
1.502496
  0
LINE
  5
810
330
70
100
AcDbEntity
  8
Visible
100
AcDbLine
 10
4.654721
 20
4.370108
 30
1.937496
 11
2.958454
 21
4.370108
 31
1.937496
  0
LINE
  5
811
330
70
100
AcDbEntity
  8
Visible
100
AcDbLine
 10
4.983073
 20
6.567585
 30
1.999996
 11
2.630102
 21
6.567585
 31
1.999996
  0
LINE
  5
812
330
70
100
AcDbEntity
  8
Visible
100
AcDbLine
 10
4.983073
 20
4.672631
 30
1.999996
 11
2.630102
 21
4.672631
 31
1.999996
  0
MTEXT
  5
813
330
70
100
AcDbEntity
  8
Annotations
  6
PHANTOM2
100
AcDbMText
 10
4.568176
 20
8.887421
 30
0.0
 40
0.24
 41
0.0
 46
0.0
 71
     5
 72
     5
  1
A
 73
     1
 44
1.0
  0
CIRCLE
  5
814
330
70
100
AcDbEntity
  8
Annotations
  6
PHANTOM2
370
    25
100
AcDbCircle
 10
4.375
 20
9.311781
 30
0.0
 40
0.0944108104837239
  0
LINE
  5
815
330
70
100
AcDbEntity
  8
Annotations
  6
PHANTOM2
370
    25
100
AcDbLine
 10
4.414115
 20
9.225854
 30
0.0
 11
4.458924
 21
9.127421
 31
0.0
  0
ENDSEC
  0
SECTION
  2
OBJECTS
  0
DICTIONARY
  5
C
330
0
100
AcDbDictionary
281
     1
  3
ACAD_COLOR
350
63
  3
ACAD_DETAILVIEWSTYLE
350
6A
  3
ACAD_FIELDLIST
350
405
  3
ACAD_GROUP
350
D
  3
ACAD_IMAGE_DICT
350
2F6
  3
ACAD_IMAGE_VARS
350
2F8
  3
ACAD_LAYOUT
350
62
  3
ACAD_MATERIAL
350
10
  3
ACAD_MLEADERSTYLE
350
66
  3
ACAD_MLINESTYLE
350
5F
  3
ACAD_PLOTSETTINGS
350
61
  3
ACAD_PLOTSTYLENAME
350
E
  3
ACAD_SCALELIST
350
42
  3
ACAD_SECTIONVIEWSTYLE
350
68
  3
ACAD_TABLESTYLE
350
64
  3
ACAD_VISUALSTYLE
350
29
  3
ACDB_RECOMPOSE_DATA
350
8A4
  3
AcDbVariableDictionary
350
89B
  0
DICTIONARY
  5
B6
330
70
100
AcDbDictionary
280
     1
281
     1
  3
ACAD_SORTENTS
360
2EC
  0
DICTIONARY
  5
2F0
330
2EF
100
AcDbDictionary
280
     1
281
     1
  3
ACAD_SORTENTS
360
641
  0
IMAGEDEF_REACTOR
  5
2F7
330
2F4
100
AcDbRasterImageDefReactor
 90
        2
330
2F4
  0
DICTIONARY
  5
3B3
330
3B2
100
AcDbDictionary
280
     1
281
     1
  0
IMAGEDEF_REACTOR
  5
3FC
330
3FA
100
AcDbRasterImageDefReactor
 90
        2
330
3FA
  0
DICTIONARY
  5
63
102
{ACAD_REACTORS
330
C
102
}
330
C
100
AcDbDictionary
281
     1
  0
DICTIONARY
  5
6A
102
{ACAD_REACTORS
330
C
102
}
330
C
100
AcDbDictionary
281
     1
  3
Imperial24
350
6B
  0
FIELDLIST
  5
405
102
{ACAD_REACTORS
330
C
102
}
330
C
100
AcDbIdSet
 90
        3
330
3B6
330
3B7
330
3B8
100
AcDbFieldList
  0
DICTIONARY
  5
D
102
{ACAD_REACTORS
330
C
102
}
330
C
100
AcDbDictionary
281
     1
  0
DICTIONARY
  5
2F6
102
{ACAD_REACTORS
330
C
102
}
330
C
100
AcDbDictionary
281
     1
  3
morse_logo-16 (1)_01-2018(B)_1_1
350
2F5
  3
morse_logo-16 (1)_01-2018(B)_1_1_1
350
3FB
  0
RASTERVARIABLES
  5
2F8
102
{ACAD_REACTORS
330
C
102
}
330
C
100
AcDbRasterVariables
 90
        0
 70
     0
 71
     1
 72
     5
  0
DICTIONARY
  5
62
102
{ACAD_REACTORS
330
C
102
}
330
C
100
AcDbDictionary
281
     1
  3
Model
350
73
  3
Sheet1
350
6F
  3
Sheet2
350
77
  0
DICTIONARY
  5
10
102
{ACAD_REACTORS
330
C
102
}
330
C
100
AcDbDictionary
281
     1
  3
ByBlock
350
19
  3
ByLayer
350
11
  3
Global
350
21
  0
DICTIONARY
  5
66
102
{ACAD_REACTORS
330
C
102
}
330
C
100
AcDbDictionary
281
     1
  3
Standard
350
67
  0
DICTIONARY
  5
5F
102
{ACAD_REACTORS
330
C
102
}
330
C
100
AcDbDictionary
281
     1
  3
Standard
350
60
  0
DICTIONARY
  5
61
102
{ACAD_REACTORS
330
C
102
}
330
C
100
AcDbDictionary
281
     1
  0
ACDBDICTIONARYWDFLT
  5
E
102
{ACAD_REACTORS
330
C
102
}
330
C
100
AcDbDictionary
281
     1
  3
Normal
350
F
100
AcDbDictionaryWithDefault
340
F
  0
DICTIONARY
  5
42
102
{ACAD_REACTORS
330
C
102
}
330
C
100
AcDbDictionary
281
     1
  3
*A1
350
A6
  3
*A10
350
AF
  3
*A11
350
B0
  3
*A12
350
B1
  3
*A13
350
B2
  3
*A14
350
B3
  3
*A15
350
B4
  3
*A16
350
B5
  3
*A2
350
A7
  3
*A3
350
A8
  3
*A4
350
A9
  3
*A5
350
AA
  3
*A6
350
AB
  3
*A7
350
AC
  3
*A8
350
AD
  3
*A9
350
AE
  3
A0
350
43
  3
A1
350
44
  3
A2
350
45
  3
A3
350
46
  3
A4
350
47
  3
A5
350
48
  3
A6
350
49
  3
A7
350
4A
  3
A8
350
4B
  3
A9
350
4C
  3
B0
350
4D
  3
B1
350
4E
  3
B2
350
4F
  3
B3
350
50
  3
B4
350
51
  3
B5
350
52
  3
B6
350
53
  0
DICTIONARY
  5
68
102
{ACAD_REACTORS
330
C
102
}
330
C
100
AcDbDictionary
281
     1
  3
Imperial24
350
69
  0
DICTIONARY
  5
64
102
{ACAD_REACTORS
330
C
102
}
330
C
100
AcDbDictionary
281
     1
  3
Standard
350
65
  0
DICTIONARY
  5
29
102
{ACAD_REACTORS
330
C
102
}
330
C
100
AcDbDictionary
281
     1
  3
2dWireframe
350
2F
  3
Basic
350
2E
  3
Brighten
350
35
  3
ColorChange
350
39
  3
Conceptual
350
32
  3
Dim
350
34
  3
EdgeColorOff
350
41
  3
Facepattern
350
38
  3
Flat
350
2A
  3
FlatWithEdges
350
2B
  3
Gouraud
350
2C
  3
GouraudWithEdges
350
2D
  3
Hidden
350
31
  3
JitterOff
350
3F
  3
Linepattern
350
37
  3
OverhangOff
350
40
  3
Realistic
350
33
  3
Shaded
350
3E
  3
Shaded with edges
350
3D
  3
Shades of Gray
350
3A
  3
Sketchy
350
3B
  3
Thicken
350
36
  3
Wireframe
350
30
  3
X-Ray
350
3C
  0
XRECORD
  5
8A4
102
{ACAD_REACTORS
330
C
102
}
330
C
100
AcDbXrecord
280
     1
 90
        1
330
65
330
2FC
330
306
330
307
330
308
330
30B
330
3CE
330
3CF
  0
DICTIONARY
  5
89B
102
{ACAD_REACTORS
330
C
102
}
330
C
100
AcDbDictionary
281
     1
  3
ANNOALLVISIBLE
350
8A0
  3
CANNOSCALE
350
8A1
  3
CMLEADERSTYLE
350
89D
  3
CTABLESTYLE
350
89C
  3
CVIEWDETAILSTYLE
350
89E
  3
CVIEWSECTIONSTYLE
350
89F
  0
SORTENTSTABLE
  5
2EC
102
{ACAD_REACTORS
330
B6
102
}
330
B6
100
AcDbSortentsTable
330
70
  0
SORTENTSTABLE
  5
641
102
{ACAD_REACTORS
330
2F0
102
}
330
2F0
100
AcDbSortentsTable
330
2EF
  0
ACDBDETAILVIEWSTYLE
  5
6B
102
{ACAD_XDICTIONARY
360
8A7
102
}
102
{ACAD_REACTORS
330
6A
102
}
330
6A
100
AcDbModelDocViewStyle
 70
     0
  3
Imperial24
290
     0
100
AcDbDetailViewStyle
 70
     0
 71
     0
 90
        3
 71
     1
340
55
 62
   256
 40
0.24
340
0
 62
   256
 40
0.24
300

 40
0.36
280
     3
 71
     2
340
5D
 90
       25
 62
   256
 71
     3
340
55
 62
   256
 40
0.24
 90
        1
 40
0.75
 90
        1
300
%<\AcVar ViewType \f "%tc1">% %<\AcVar ViewDetailId>%\PSCALE %<\AcVar ViewScale \f "%sn">%
 71
     4
340
5D
 90
       25
 62
   256
340
5D
 90
       25
 62
   256
280
     0
  0
IMAGEDEF
  5
2F5
102
{ACAD_REACTORS
330
2F6
330
2F7
330
816
102
}
330
2F6
100
AcDbRasterImageDef
 90
        0
  1
morse_logo-16 (1)_01-2018(B)_1_1.jpg
 10
948.0
 20
333.0
 11
0.264583
 21
0.264583
280
     1
281
     5
  0
IMAGEDEF
  5
3FB
102
{ACAD_REACTORS
330
2F6
330
3FC
102
}
330
2F6
100
AcDbRasterImageDef
 90
        0
  1
morse_logo-16 (1)_01-2018(B)_1_1_1.jpg
 10
948.0
 20
333.0
 11
0.264583
 21
0.264583
280
     1
281
     5
  0
LAYOUT
  5
73
102
{ACAD_REACTORS
330
62
102
}
330
62
100
AcDbPlotSettings
  1

  2
AutoCAD PDF (High Quality Print).pc3
  4
ANSI_full_bleed_B_(17.00_x_11.00_Inches)
  6

 40
0.0
 41
0.0
 42
0.0
 43
0.0
 44
431.799988
 45
279.399994
 46
0.0
 47
0.0
 48
0.0
 49
0.0
140
0.0
141
0.0
142
1.0
143
1.705335
 70
 11952
 72
     0
 73
     0
 74
     0
  7

 75
     0
147
0.586395
 76
     0
 77
     2
 78
   300
148
109.035625
149
21.025485
100
AcDbLayout
  1
Model
 70
     1
 71
     0
 10
0.0
 20
0.0
 11
12.0
 21
9.0
 12
0.0
 22
0.0
 32
0.0
 14
0.0
 24
0.0
 34
0.0
 15
0.0
 25
0.0
 35
0.0
146
0.0
 13
0.0
 23
0.0
 33
0.0
 16
1.0
 26
0.0
 36
0.0
 17
0.0
 27
1.0
 37
0.0
 76
     0
330
70
1001
ACAD_PSEXT
1000
AutoCAD PDF (High Quality Print).pc3
1000
DWG To PDF
1000
File
1000

1070
     0
  0
LAYOUT
  5
6F
102
{ACAD_REACTORS
330
62
102
}
330
62
100
AcDbPlotSettings
  1

  2
None
  4

  6

 40
0.0
 41
0.0
 42
0.0
 43
0.0
 44
0.0
 45
0.0
 46
0.0
 47
0.0
 48
0.0
 49
0.0
140
0.0
141
0.0
142
1.0
143
1.0
 70
   688
 72
     0
 73
     0
 74
     5
  7

 75
    16
147
1.0
 76
     0
 77
     2
 78
   300
148
0.0
149
0.0
100
AcDbLayout
  1
Sheet1
 70
     1
 71
     1
 10
0.0
 20
0.0
 11
12.0
 21
9.0
 12
0.0
 22
0.0
 32
0.0
 14
0.0
 24
0.0
 34
0.0
 15
0.0
 25
0.0
 35
0.0
146
0.0
 13
0.0
 23
0.0
 33
0.0
 16
1.0
 26
0.0
 36
0.0
 17
0.0
 27
1.0
 37
0.0
 76
     0
330
6C
  0
LAYOUT
  5
77
102
{ACAD_REACTORS
330
62
102
}
330
62
100
AcDbPlotSettings
  1

  2
None
  4

  6

 40
0.0
 41
0.0
 42
0.0
 43
0.0
 44
0.0
 45
0.0
 46
0.0
 47
0.0
 48
0.0
 49
0.0
140
0.0
141
0.0
142
1.0
143
1.0
 70
   688
 72
     0
 73
     0
 74
     5
  7

 75
    16
147
1.0
 76
     0
 77
     2
 78
   300
148
0.0
149
0.0
100
AcDbLayout
  1
Sheet2
 70
     1
 71
     2
 10
0.0
 20
0.0
 11
12.0
 21
9.0
 12
0.0
 22
0.0
 32
0.0
 14
0.0
 24
0.0
 34
0.0
 15
0.0
 25
0.0
 35
0.0
146
0.0
 13
0.0
 23
0.0
 33
0.0
 16
1.0
 26
0.0
 36
0.0
 17
0.0
 27
1.0
 37
0.0
 76
     0
330
74
  0
MATERIAL
  5
19
102
{ACAD_XDICTIONARY
360
1A
102
}
102
{ACAD_REACTORS
330
10
102
}
330
10
100
AcDbMaterial
  1
ByBlock
 72
     0
 43
0.020833
 43
0.0
 43
0.0
 43
0.0
 43
0.0
 43
0.020833
 43
0.0
 43
0.0
 43
0.0
 43
0.0
 43
1.0
 43
0.0
 43
0.0
 43
0.0
 43
0.0
 43
1.0
 77
     0
 47
0.020833
 47
0.0
 47
0.0
 47
0.0
 47
0.0
 47
0.020833
 47
0.0
 47
0.0
 47
0.0
 47
0.0
 47
1.0
 47
0.0
 47
0.0
 47
0.0
 47
0.0
 47
1.0
171
     0
 49
0.020833
 49
0.0
 49
0.0
 49
0.0
 49
0.0
 49
0.020833
 49
0.0
 49
0.0
 49
0.0
 49
0.0
 49
1.0
 49
0.0
 49
0.0
 49
0.0
 49
0.0
 49
1.0
175
     0
142
0.020833
142
0.0
142
0.0
142
0.0
142
0.0
142
0.020833
142
0.0
142
0.0
142
0.0
142
0.0
142
1.0
142
0.0
142
0.0
142
0.0
142
0.0
142
1.0
179
     0
144
0.020833
144
0.0
144
0.0
144
0.0
144
0.0
144
0.020833
144
0.0
144
0.0
144
0.0
144
0.0
144
1.0
144
0.0
144
0.0
144
0.0
144
0.0
144
1.0
147
0.020833
147
0.0
147
0.0
147
0.0
147
0.0
147
0.020833
147
0.0
147
0.0
147
0.0
147
0.0
147
1.0
147
0.0
147
0.0
147
0.0
147
0.0
147
1.0
  0
MATERIAL
  5
11
102
{ACAD_XDICTIONARY
360
12
102
}
102
{ACAD_REACTORS
330
10
102
}
330
10
100
AcDbMaterial
  1
ByLayer
 72
     0
 43
0.020833
 43
0.0
 43
0.0
 43
0.0
 43
0.0
 43
0.020833
 43
0.0
 43
0.0
 43
0.0
 43
0.0
 43
1.0
 43
0.0
 43
0.0
 43
0.0
 43
0.0
 43
1.0
 77
     0
 47
0.020833
 47
0.0
 47
0.0
 47
0.0
 47
0.0
 47
0.020833
 47
0.0
 47
0.0
 47
0.0
 47
0.0
 47
1.0
 47
0.0
 47
0.0
 47
0.0
 47
0.0
 47
1.0
171
     0
 49
0.020833
 49
0.0
 49
0.0
 49
0.0
 49
0.0
 49
0.020833
 49
0.0
 49
0.0
 49
0.0
 49
0.0
 49
1.0
 49
0.0
 49
0.0
 49
0.0
 49
0.0
 49
1.0
175
     0
142
0.020833
142
0.0
142
0.0
142
0.0
142
0.0
142
0.020833
142
0.0
142
0.0
142
0.0
142
0.0
142
1.0
142
0.0
142
0.0
142
0.0
142
0.0
142
1.0
179
     0
144
0.020833
144
0.0
144
0.0
144
0.0
144
0.0
144
0.020833
144
0.0
144
0.0
144
0.0
144
0.0
144
1.0
144
0.0
144
0.0
144
0.0
144
0.0
144
1.0
147
0.020833
147
0.0
147
0.0
147
0.0
147
0.0
147
0.020833
147
0.0
147
0.0
147
0.0
147
0.0
147
1.0
147
0.0
147
0.0
147
0.0
147
0.0
147
1.0
  0
MATERIAL
  5
21
102
{ACAD_XDICTIONARY
360
22
102
}
102
{ACAD_REACTORS
330
10
102
}
330
10
100
AcDbMaterial
  1
Global
 72
     0
 43
0.020833
 43
0.0
 43
0.0
 43
0.0
 43
0.0
 43
0.020833
 43
0.0
 43
0.0
 43
0.0
 43
0.0
 43
1.0
 43
0.0
 43
0.0
 43
0.0
 43
0.0
 43
1.0
 77
     0
 47
0.020833
 47
0.0
 47
0.0
 47
0.0
 47
0.0
 47
0.020833
 47
0.0
 47
0.0
 47
0.0
 47
0.0
 47
1.0
 47
0.0
 47
0.0
 47
0.0
 47
0.0
 47
1.0
171
     0
 49
0.020833
 49
0.0
 49
0.0
 49
0.0
 49
0.0
 49
0.020833
 49
0.0
 49
0.0
 49
0.0
 49
0.0
 49
1.0
 49
0.0
 49
0.0
 49
0.0
 49
0.0
 49
1.0
175
     0
142
0.020833
142
0.0
142
0.0
142
0.0
142
0.0
142
0.020833
142
0.0
142
0.0
142
0.0
142
0.0
142
1.0
142
0.0
142
0.0
142
0.0
142
0.0
142
1.0
179
     0
144
0.020833
144
0.0
144
0.0
144
0.0
144
0.0
144
0.020833
144
0.0
144
0.0
144
0.0
144
0.0
144
1.0
144
0.0
144
0.0
144
0.0
144
0.0
144
1.0
147
0.020833
147
0.0
147
0.0
147
0.0
147
0.0
147
0.020833
147
0.0
147
0.0
147
0.0
147
0.0
147
1.0
147
0.0
147
0.0
147
0.0
147
0.0
147
1.0
  0
MLEADERSTYLE
  5
67
102
{ACAD_REACTORS
330
66
102
}
330
66
100
AcDbMLeaderStyle
179
     2
170
     2
171
     1
172
     0
 90
        2
 40
0.0
 41
0.0
173
     1
 91
-1056964608
340
5B
 92
       -2
290
     1
 42
0.09
291
     1
 43
0.36
  3
Standard
 44
0.18
300

342
55
174
     1
178
     6
175
     1
176
     0
 93
-1056964608
 45
0.18
292
     0
297
     0
 46
0.18
 94
-1056964608
 47
1.0
 49
1.0
140
1.0
293
     1
141
0.0
294
     1
177
     0
142
1.0
295
     0
296
     0
143
0.125
271
     0
272
     9
273
     9
298
     1
  0
MLINESTYLE
  5
60
102
{ACAD_REACTORS
330
5F
102
}
330
5F
100
AcDbMlineStyle
  2
STANDARD
 70
     0
  3

 62
   256
 51
90.0
 52
90.0
 71
     0
  0
ACDBPLACEHOLDER
  5
F
102
{ACAD_REACTORS
330
E
102
}
330
E
  0
SCALE
  5
A6
102
{ACAD_REACTORS
330
42
102
}
330
42
100
AcDbScale
 70
     0
300
1:2
140
1.0
141
2.0
290
     0
  0
SCALE
  5
AF
102
{ACAD_REACTORS
330
42
102
}
330
42
100
AcDbScale
 70
     0
300
1:50
140
1.0
141
50.0
290
     0
  0
SCALE
  5
B0
102
{ACAD_REACTORS
330
42
102
}
330
42
100
AcDbScale
 70
     0
300
1:100
140
1.0
141
100.0
290
     0
  0
SCALE
  5
B1
102
{ACAD_REACTORS
330
42
102
}
330
42
100
AcDbScale
 70
     0
300
2:1
140
2.0
141
1.0
290
     0
  0
SCALE
  5
B2
102
{ACAD_REACTORS
330
42
102
}
330
42
100
AcDbScale
 70
     0
300
4:1
140
4.0
141
1.0
290
     0
  0
SCALE
  5
B3
102
{ACAD_REACTORS
330
42
102
}
330
42
100
AcDbScale
 70
     0
300
8:1
140
8.0
141
1.0
290
     0
  0
SCALE
  5
B4
102
{ACAD_REACTORS
330
42
102
}
330
42
100
AcDbScale
 70
     0
300
10:1
140
10.0
141
1.0
290
     0
  0
SCALE
  5
B5
102
{ACAD_REACTORS
330
42
102
}
330
42
100
AcDbScale
 70
     0
300
100:1
140
100.0
141
1.0
290
     0
  0
SCALE
  5
A7
102
{ACAD_REACTORS
330
42
102
}
330
42
100
AcDbScale
 70
     0
300
1:4
140
1.0
141
4.0
290
     0
  0
SCALE
  5
A8
102
{ACAD_REACTORS
330
42
102
}
330
42
100
AcDbScale
 70
     0
300
1:5
140
1.0
141
5.0
290
     0
  0
SCALE
  5
A9
102
{ACAD_REACTORS
330
42
102
}
330
42
100
AcDbScale
 70
     0
300
1:8
140
1.0
141
8.0
290
     0
  0
SCALE
  5
AA
102
{ACAD_REACTORS
330
42
102
}
330
42
100
AcDbScale
 70
     0
300
1:10
140
1.0
141
10.0
290
     0
  0
SCALE
  5
AB
102
{ACAD_REACTORS
330
42
102
}
330
42
100
AcDbScale
 70
     0
300
1:16
140
1.0
141
16.0
290
     0
  0
SCALE
  5
AC
102
{ACAD_REACTORS
330
42
102
}
330
42
100
AcDbScale
 70
     0
300
1:20
140
1.0
141
20.0
290
     0
  0
SCALE
  5
AD
102
{ACAD_REACTORS
330
42
102
}
330
42
100
AcDbScale
 70
     0
300
1:30
140
1.0
141
30.0
290
     0
  0
SCALE
  5
AE
102
{ACAD_REACTORS
330
42
102
}
330
42
100
AcDbScale
 70
     0
300
1:40
140
1.0
141
40.0
290
     0
  0
SCALE
  5
43
102
{ACAD_REACTORS
330
42
102
}
330
42
100
AcDbScale
 70
     0
300
1:1
140
1.0
141
1.0
290
     1
  0
SCALE
  5
44
102
{ACAD_REACTORS
330
42
102
}
330
42
100
AcDbScale
 70
     0
300
1/128" = 1'-0"
140
0.007813
141
12.0
290
     0
  0
SCALE
  5
45
102
{ACAD_REACTORS
330
42
102
}
330
42
100
AcDbScale
 70
     0
300
1/64" = 1'-0"
140
0.015625
141
12.0
290
     0
  0
SCALE
  5
46
102
{ACAD_REACTORS
330
42
102
}
330
42
100
AcDbScale
 70
     0
300
1/32" = 1'-0"
140
0.03125
141
12.0
290
     0
  0
SCALE
  5
47
102
{ACAD_REACTORS
330
42
102
}
330
42
100
AcDbScale
 70
     0
300
1/16" = 1'-0"
140
0.0625
141
12.0
290
     0
  0
SCALE
  5
48
102
{ACAD_REACTORS
330
42
102
}
330
42
100
AcDbScale
 70
     0
300
3/32" = 1'-0"
140
0.09375
141
12.0
290
     0
  0
SCALE
  5
49
102
{ACAD_REACTORS
330
42
102
}
330
42
100
AcDbScale
 70
     0
300
1/8" = 1'-0"
140
0.125
141
12.0
290
     0
  0
SCALE
  5
4A
102
{ACAD_REACTORS
330
42
102
}
330
42
100
AcDbScale
 70
     0
300
3/16" = 1'-0"
140
0.1875
141
12.0
290
     0
  0
SCALE
  5
4B
102
{ACAD_REACTORS
330
42
102
}
330
42
100
AcDbScale
 70
     0
300
1/4" = 1'-0"
140
0.25
141
12.0
290
     0
  0
SCALE
  5
4C
102
{ACAD_REACTORS
330
42
102
}
330
42
100
AcDbScale
 70
     0
300
3/8" = 1'-0"
140
0.375
141
12.0
290
     0
  0
SCALE
  5
4D
102
{ACAD_REACTORS
330
42
102
}
330
42
100
AcDbScale
 70
     0
300
1/2" = 1'-0"
140
0.5
141
12.0
290
     0
  0
SCALE
  5
4E
102
{ACAD_REACTORS
330
42
102
}
330
42
100
AcDbScale
 70
     0
300
3/4" = 1'-0"
140
0.75
141
12.0
290
     0
  0
SCALE
  5
4F
102
{ACAD_REACTORS
330
42
102
}
330
42
100
AcDbScale
 70
     0
300
1" = 1'-0"
140
1.0
141
12.0
290
     0
  0
SCALE
  5
50
102
{ACAD_REACTORS
330
42
102
}
330
42
100
AcDbScale
 70
     0
300
1-1/2" = 1'-0"
140
1.5
141
12.0
290
     0
  0
SCALE
  5
51
102
{ACAD_REACTORS
330
42
102
}
330
42
100
AcDbScale
 70
     0
300
3" = 1'-0"
140
3.0
141
12.0
290
     0
  0
SCALE
  5
52
102
{ACAD_REACTORS
330
42
102
}
330
42
100
AcDbScale
 70
     0
300
6" = 1'-0"
140
6.0
141
12.0
290
     0
  0
SCALE
  5
53
102
{ACAD_REACTORS
330
42
102
}
330
42
100
AcDbScale
 70
     0
300
1'-0" = 1'-0"
140
12.0
141
12.0
290
     0
  0
ACDBSECTIONVIEWSTYLE
  5
69
102
{ACAD_XDICTIONARY
360
8A5
102
}
102
{ACAD_REACTORS
330
68
102
}
330
68
100
AcDbModelDocViewStyle
 70
     0
  3
Imperial24
290
     0
100
AcDbSectionViewStyle
 70
     0
 71
     0
 90
       78
 71
     1
340
55
 62
   256
 40
0.24
340
0
340
0
 62
   256
 40
0.24
300
I, O, Q, S, X, Z
 40
0.48
 90
        3
 40
0.18
 90
        1
 71
     2
340
5D
 90
       25
 62
   256
340
5D
 90
       50
 62
   256
 40
0.24
 40
0.0
 40
0.24
 71
     3
340
55
 62
   256
 40
0.24
 90
        1
 40
0.75
 90
        1
300
%<\AcVar ViewType \f "%tc1">% %<\AcVar ViewSectionStartId>%-%<\AcVar ViewSectionEndId>%\PSCALE %<\AcVar ViewScale \f "%sn">%
 71
     4
 62
   256
 62
   257
300
ANSI31
 40
1.0
 90
        0
290
     0
290
     0
 90
        6
 40
0.0
 40
1.570796
 40
0.261799
 40
1.308997
 40
-0.261799
 40
1.832596
  0
TABLESTYLE
  5
65
102
{ACAD_XDICTIONARY
360
8A2
102
}
102
{ACAD_REACTORS
330
64
102
}
330
64
100
AcDbTableStyle
280
     0
  3
Standard
 70
     0
 71
     0
 40
0.06
 41
0.06
280
     0
281
     0
  7
Standard
140
0.18
170
     2
 62
     0
 63
     7
283
     0
 90
      512
 91
        0
  1

274
    -2
284
     1
 64
     0
275
    -2
285
     1
 65
     0
276
    -2
286
     1
 66
     0
277
    -2
287
     1
 67
     0
278
    -2
288
     1
 68
     0
279
    -2
289
     1
 69
     0
  7
Standard
140
0.25
170
     5
 62
     0
 63
     7
283
     0
 90
      512
 91
        0
  1

274
    -2
284
     1
 64
     0
275
    -2
285
     1
 65
     0
276
    -2
286
     1
 66
     0
277
    -2
287
     1
 67
     0
278
    -2
288
     1
 68
     0
279
    -2
289
     1
 69
     0
  7
Standard
140
0.18
170
     5
 62
     0
 63
     7
283
     0
 90
      512
 91
        0
  1

274
    -2
284
     1
 64
     0
275
    -2
285
     1
 65
     0
276
    -2
286
     1
 66
     0
277
    -2
287
     1
 67
     0
278
    -2
288
     1
 68
     0
279
    -2
289
     1
 69
     0
  0
VISUALSTYLE
  5
2F
102
{ACAD_REACTORS
330
29
102
}
330
29
100
AcDbVisualStyle
  2
2dWireframe
 70
     4
177
     3
291
     0
 70
    58
 90
        0
176
     1
 90
        2
176
     1
 90
        0
176
     1
 90
        0
176
     1
 40
0.6
176
     1
 40
30.0
176
     1
 62
     7
420
 16777215
176
     1
 90
        1
176
     1
 90
        4
176
     1
 62
     7
176
     1
 62
   257
176
     1
 90
        1
176
     1
 90
        1
176
     1
 40
1.0
176
     1
 90
        0
176
     1
 62
   257
176
     1
 40
1.0
176
     1
 90
        1
176
     1
 90
        6
176
     1
 90
        2
176
     1
 62
     7
176
     1
 90
        5
176
     1
 90
        0
176
     1
 90
        0
176
     1
290
     0
176
     1
 90
        1
176
     1
 40
0.0
176
     1
 90
        0
176
     1
290
     1
176
     1
290
     1
176
     1
290
     0
176
     1
290
     0
176
     1
290
     0
176
     1
290
     0
176
     1
290
     0
176
     1
290
     0
176
     1
290
     0
176
     1
 90
       50
176
     1
 40
0.0
176
     1
 40
1.0
176
     1
 90
        0
176
     1
 62
    18
420
        0
176
     1
 90
       50
176
     1
 90
        3
176
     1
 62
     5
420
      255
176
     1
290
     0
176
     1
 90
       50
176
     1
 90
       50
176
     1
 90
       50
176
     1
290
     0
176
     1
 90
       50
176
     1
 62
   256
176
     0
 40
1.0
176
     0
 90
        2
176
     1
  1
strokes_ogs.tif
176
     1
290
     0
176
     1
 40
1.0
176
     1
 40
1.0
176
     1
1001
ACAD
1000
AcDbSavedByObjectVersion
1070
     0
  0
VISUALSTYLE
  5
2E
102
{ACAD_REACTORS
330
29
102
}
330
29
100
AcDbVisualStyle
  2
Basic
 70
     7
177
     3
291
     1
 70
    58
 90
        1
176
     1
 90
        0
176
     1
 90
        1
176
     1
 90
        0
176
     1
 40
0.6
176
     1
 40
30.0
176
     1
 62
     7
420
 16777215
176
     1
 90
        0
176
     1
 90
        4
176
     1
 62
     7
176
     1
 62
   257
176
     1
 90
        1
176
     1
 90
        1
176
     1
 40
1.0
176
     1
 90
        8
176
     1
 62
     7
176
     1
 40
1.0
176
     1
 90
        1
176
     1
 90
        6
176
     1
 90
        2
176
     1
 62
     7
176
     1
 90
        5
176
     1
 90
        0
176
     1
 90
        0
176
     1
290
     0
176
     1
 90
        1
176
     1
 40
0.0
176
     1
 90
        0
176
     1
290
     0
176
     1
290
     1
176
     1
290
     1
176
     1
290
     0
176
     1
290
     0
176
     1
290
     0
176
     1
290
     0
176
     1
290
     0
176
     1
290
     0
176
     1
 90
       50
176
     1
 40
0.0
176
     1
 40
1.0
176
     1
 90
        0
176
     1
 62
    18
420
        0
176
     1
 90
       50
176
     1
 90
        3
176
     1
 62
     5
420
      255
176
     1
290
     0
176
     1
 90
       50
176
     1
 90
       50
176
     1
 90
       50
176
     1
290
     0
176
     1
 90
       50
176
     1
 62
   256
176
     0
 40
1.0
176
     0
 90
        2
176
     1
  1
strokes_ogs.tif
176
     1
290
     0
176
     1
 40
1.0
176
     1
 40
1.0
176
     1
1001
ACAD
1000
AcDbSavedByObjectVersion
1070
     0
  0
VISUALSTYLE
  5
35
102
{ACAD_REACTORS
330
29
102
}
330
29
100
AcDbVisualStyle
  2
Brighten
 70
    12
177
     3
291
     1
 70
    58
 90
        2
176
     1
 90
        2
176
     1
 90
        0
176
     1
 90
        0
176
     1
 40
0.6
176
     1
 40
30.0
176
     1
 62
     7
420
 16777215
176
     1
 90
        1
176
     1
 90
        4
176
     1
 62
     7
176
     1
 62
   257
176
     1
 90
        1
176
     1
 90
        1
176
     1
 40
1.0
176
     1
 90
        8
176
     1
 62
     7
176
     1
 40
1.0
176
     1
 90
        1
176
     1
 90
        6
176
     1
 90
        2
176
     1
 62
     7
176
     1
 90
        5
176
     1
 90
        0
176
     1
 90
        0
176
     1
290
     0
176
     1
 90
        1
176
     1
 40
50.0
176
     1
 90
        0
176
     1
290
     0
176
     1
290
     1
176
     1
290
     1
176
     1
290
     0
176
     1
290
     0
176
     1
290
     0
176
     1
290
     0
176
     1
290
     0
176
     1
290
     0
176
     1
 90
       50
176
     1
 40
0.0
176
     1
 40
1.0
176
     1
 90
        0
176
     1
 62
    18
420
        0
176
     1
 90
       50
176
     1
 90
        3
176
     1
 62
     5
420
      255
176
     1
290
     0
176
     1
 90
       50
176
     1
 90
       50
176
     1
 90
       50
176
     1
290
     0
176
     1
 90
       50
176
     1
 62
   256
176
     0
 40
1.0
176
     0
 90
        2
176
     1
  1
strokes_ogs.tif
176
     1
290
     0
176
     1
 40
1.0
176
     1
 40
1.0
176
     1
1001
ACAD
1000
AcDbSavedByObjectVersion
1070
     0
  0
VISUALSTYLE
  5
39
102
{ACAD_REACTORS
330
29
102
}
330
29
100
AcDbVisualStyle
  2
ColorChange
 70
    16
177
     3
291
     1
 70
    58
 90
        2
176
     1
 90
        2
176
     1
 90
        3
176
     1
 90
        0
176
     1
 40
0.6
176
     1
 40
30.0
176
     1
 62
     8
420
  8421504
176
     1
 90
        1
176
     1
 90
        4
176
     1
 62
     7
176
     1
 62
   257
176
     1
 90
        1
176
     1
 90
        1
176
     1
 40
1.0
176
     1
 90
        8
176
     1
 62
     8
420
  8421504
176
     1
 40
1.0
176
     1
 90
        1
176
     1
 90
        6
176
     1
 90
        2
176
     1
 62
     7
176
     1
 90
        5
176
     1
 90
        0
176
     1
 90
        0
176
     1
290
     0
176
     1
 90
        1
176
     1
 40
0.0
176
     1
 90
        0
176
     1
290
     0
176
     1
290
     1
176
     1
290
     1
176
     1
290
     0
176
     1
290
     0
176
     1
290
     0
176
     1
290
     0
176
     1
290
     0
176
     1
290
     0
176
     1
 90
       50
176
     1
 40
0.0
176
     1
 40
1.0
176
     1
 90
        0
176
     1
 62
    18
420
        0
176
     1
 90
       50
176
     1
 90
        3
176
     1
 62
     5
420
      255
176
     1
290
     0
176
     1
 90
       50
176
     1
 90
       50
176
     1
 90
       50
176
     1
290
     0
176
     1
 90
       50
176
     1
 62
   256
176
     0
 40
1.0
176
     0
 90
        2
176
     1
  1
strokes_ogs.tif
176
     1
290
     0
176
     1
 40
1.0
176
     1
 40
1.0
176
     1
1001
ACAD
1000
AcDbSavedByObjectVersion
1070
     0
  0
VISUALSTYLE
  5
32
102
{ACAD_REACTORS
330
29
102
}
330
29
100
AcDbVisualStyle
  2
Conceptual
 70
     9
177
     3
291
     0
 70
    58
 90
        3
176
     1
 90
        2
176
     1
 90
        0
176
     1
 90
        0
176
     1
 40
0.6
176
     1
 40
30.0
176
     1
 62
     7
420
 16777215
176
     1
 90
        2
176
     1
 90
        2
176
     1
 62
     7
176
     1
 62
   257
176
     1
 90
        1
176
     1
 90
        1
176
     1
 40
179.0
176
     1
 90
        8
176
     1
 62
     7
176
     1
 40
1.0
176
     1
 90
        1
176
     1
 90
        6
176
     1
 90
        2
176
     1
 62
     7
176
     1
 90
        3
176
     1
 90
        0
176
     1
 90
        0
176
     1
290
     0
176
     1
 90
        1
176
     1
 40
0.0
176
     1
 90
        0
176
     1
290
     0
176
     1
290
     1
176
     1
290
     1
176
     1
290
     0
176
     1
290
     0
176
     1
290
     0
176
     1
290
     0
176
     1
290
     0
176
     1
290
     0
176
     1
 90
       50
176
     1
 40
0.0
176
     1
 40
1.0
176
     1
 90
        0
176
     1
 62
    18
420
        0
176
     1
 90
       50
176
     1
 90
        3
176
     1
 62
     5
420
      255
176
     1
290
     0
176
     1
 90
       50
176
     1
 90
       50
176
     1
 90
       50
176
     1
290
     0
176
     1
 90
       50
176
     1
 62
   256
176
     0
 40
1.0
176
     0
 90
        2
176
     1
  1
strokes_ogs.tif
176
     1
290
     0
176
     1
 40
1.0
176
     1
 40
1.0
176
     1
1001
ACAD
1000
AcDbSavedByObjectVersion
1070
     0
  0
VISUALSTYLE
  5
34
102
{ACAD_REACTORS
330
29
102
}
330
29
100
AcDbVisualStyle
  2
Dim
 70
    11
177
     3
291
     1
 70
    58
 90
        2
176
     1
 90
        2
176
     1
 90
        0
176
     1
 90
        0
176
     1
 40
0.6
176
     1
 40
30.0
176
     1
 62
     7
420
 16777215
176
     1
 90
        1
176
     1
 90
        4
176
     1
 62
     7
176
     1
 62
   257
176
     1
 90
        1
176
     1
 90
        1
176
     1
 40
1.0
176
     1
 90
        8
176
     1
 62
     7
176
     1
 40
1.0
176
     1
 90
        1
176
     1
 90
        6
176
     1
 90
        2
176
     1
 62
     7
176
     1
 90
        5
176
     1
 90
        0
176
     1
 90
        0
176
     1
290
     0
176
     1
 90
        1
176
     1
 40
-50.0
176
     1
 90
        0
176
     1
290
     0
176
     1
290
     1
176
     1
290
     1
176
     1
290
     0
176
     1
290
     0
176
     1
290
     0
176
     1
290
     0
176
     1
290
     0
176
     1
290
     0
176
     1
 90
       50
176
     1
 40
0.0
176
     1
 40
1.0
176
     1
 90
        0
176
     1
 62
    18
420
        0
176
     1
 90
       50
176
     1
 90
        3
176
     1
 62
     5
420
      255
176
     1
290
     0
176
     1
 90
       50
176
     1
 90
       50
176
     1
 90
       50
176
     1
290
     0
176
     1
 90
       50
176
     1
 62
   256
176
     0
 40
1.0
176
     0
 90
        2
176
     1
  1
strokes_ogs.tif
176
     1
290
     0
176
     1
 40
1.0
176
     1
 40
1.0
176
     1
1001
ACAD
1000
AcDbSavedByObjectVersion
1070
     0
  0
VISUALSTYLE
  5
41
102
{ACAD_REACTORS
330
29
102
}
330
29
100
AcDbVisualStyle
  2
EdgeColorOff
 70
    22
177
     3
291
     1
 70
    58
 90
        2
176
     0
 90
        2
176
     0
 90
        0
176
     0
 90
        0
176
     0
 40
0.6
176
     0
 40
30.0
176
     0
 62
     7
420
 16777215
176
     0
 90
        1
176
     0
 90
        4
176
     0
 62
     7
176
     0
 62
   257
176
     0
 90
        1
176
     0
 90
        1
176
     0
 40
1.0
176
     0
 90
        8
176
     2
 62
     7
176
     0
 40
1.0
176
     0
 90
        1
176
     0
 90
        6
176
     0
 90
        2
176
     0
 62
     7
176
     0
 90
        5
176
     0
 90
        0
176
     0
 90
        0
176
     0
290
     0
176
     0
 90
        1
176
     0
 40
0.0
176
     0
 90
        0
176
     0
290
     0
176
     0
290
     1
176
     0
290
     1
176
     0
290
     0
176
     0
290
     0
176
     0
290
     0
176
     0
290
     0
176
     0
290
     0
176
     0
290
     0
176
     0
 90
       50
176
     0
 40
0.0
176
     0
 40
1.0
176
     0
 90
        0
176
     0
 62
    18
420
        0
176
     0
 90
       50
176
     0
 90
        3
176
     0
 62
     5
420
      255
176
     0
290
     0
176
     0
 90
       50
176
     0
 90
       50
176
     0
 90
       50
176
     0
290
     0
176
     0
 90
       50
176
     0
 62
   256
176
     0
 40
1.0
176
     0
 90
        2
176
     0
  1
strokes_ogs.tif
176
     0
290
     0
176
     0
 40
1.0
176
     0
 40
1.0
176
     0
1001
ACAD
1000
AcDbSavedByObjectVersion
1070
     0
  0
VISUALSTYLE
  5
38
102
{ACAD_REACTORS
330
29
102
}
330
29
100
AcDbVisualStyle
  2
Facepattern
 70
    15
177
     3
291
     1
 70
    58
 90
        2
176
     1
 90
        2
176
     1
 90
        0
176
     1
 90
        0
176
     1
 40
0.6
176
     1
 40
30.0
176
     1
 62
     7
420
 16777215
176
     1
 90
        1
176
     1
 90
        4
176
     1
 62
     7
176
     1
 62
   257
176
     1
 90
        1
176
     1
 90
        1
176
     1
 40
1.0
176
     1
 90
        8
176
     1
 62
     7
176
     1
 40
1.0
176
     1
 90
        1
176
     1
 90
        6
176
     1
 90
        2
176
     1
 62
     7
176
     1
 90
        5
176
     1
 90
        0
176
     1
 90
        0
176
     1
290
     0
176
     1
 90
        1
176
     1
 40
0.0
176
     1
 90
        0
176
     1
290
     0
176
     1
290
     1
176
     1
290
     1
176
     1
290
     0
176
     1
290
     0
176
     1
290
     0
176
     1
290
     0
176
     1
290
     0
176
     1
290
     0
176
     1
 90
       50
176
     1
 40
0.0
176
     1
 40
1.0
176
     1
 90
        0
176
     1
 62
    18
420
        0
176
     1
 90
       50
176
     1
 90
        3
176
     1
 62
     5
420
      255
176
     1
290
     0
176
     1
 90
       50
176
     1
 90
       50
176
     1
 90
       50
176
     1
290
     0
176
     1
 90
       50
176
     1
 62
   256
176
     0
 40
1.0
176
     0
 90
        2
176
     1
  1
strokes_ogs.tif
176
     1
290
     0
176
     1
 40
1.0
176
     1
 40
1.0
176
     1
1001
ACAD
1000
AcDbSavedByObjectVersion
1070
     0
  0
VISUALSTYLE
  5
2A
102
{ACAD_REACTORS
330
29
102
}
330
29
100
AcDbVisualStyle
  2
Flat
 70
     0
177
     3
291
     1
 70
    58
 90
        2
176
     1
 90
        1
176
     1
 90
        1
176
     1
 90
        2
176
     1
 40
0.6
176
     1
 40
30.0
176
     1
 62
     7
420
 16777215
176
     1
 90
        0
176
     1
 90
        0
176
     1
 62
     7
176
     1
 62
   257
176
     1
 90
        1
176
     1
 90
        1
176
     1
 40
1.0
176
     1
 90
        8
176
     1
 62
     7
176
     1
 40
1.0
176
     1
 90
        1
176
     1
 90
        6
176
     1
 90
        2
176
     1
 62
     7
176
     1
 90
        5
176
     1
 90
        0
176
     1
 90
        0
176
     1
290
     0
176
     1
 90
       13
176
     1
 40
0.0
176
     1
 90
        0
176
     1
290
     0
176
     1
290
     1
176
     1
290
     1
176
     1
290
     0
176
     1
290
     0
176
     1
290
     0
176
     1
290
     0
176
     1
290
     0
176
     1
290
     0
176
     1
 90
       50
176
     1
 40
0.0
176
     1
 40
1.0
176
     1
 90
        0
176
     1
 62
    18
420
        0
176
     1
 90
       50
176
     1
 90
        3
176
     1
 62
     5
420
      255
176
     1
290
     0
176
     1
 90
       50
176
     1
 90
       50
176
     1
 90
       50
176
     1
290
     0
176
     1
 90
       50
176
     1
 62
   256
176
     0
 40
1.0
176
     0
 90
        2
176
     1
  1
strokes_ogs.tif
176
     1
290
     0
176
     1
 40
1.0
176
     1
 40
1.0
176
     1
1001
ACAD
1000
AcDbSavedByObjectVersion
1070
     0
  0
VISUALSTYLE
  5
2B
102
{ACAD_REACTORS
330
29
102
}
330
29
100
AcDbVisualStyle
  2
FlatWithEdges
 70
     1
177
     3
291
     1
 70
    58
 90
        2
176
     1
 90
        1
176
     1
 90
        1
176
     1
 90
        2
176
     1
 40
0.6
176
     1
 40
30.0
176
     1
 62
     7
420
 16777215
176
     1
 90
        1
176
     1
 90
        0
176
     1
 62
     7
176
     1
 62
   257
176
     1
 90
        1
176
     1
 90
        1
176
     1
 40
1.0
176
     1
 90
        0
176
     1
 62
   257
176
     1
 40
1.0
176
     1
 90
        1
176
     1
 90
        6
176
     1
 90
        2
176
     1
 62
     7
176
     1
 90
        5
176
     1
 90
        0
176
     1
 90
        0
176
     1
290
     0
176
     1
 90
       13
176
     1
 40
0.0
176
     1
 90
        0
176
     1
290
     0
176
     1
290
     1
176
     1
290
     1
176
     1
290
     0
176
     1
290
     0
176
     1
290
     0
176
     1
290
     0
176
     1
290
     0
176
     1
290
     0
176
     1
 90
       50
176
     1
 40
0.0
176
     1
 40
1.0
176
     1
 90
        0
176
     1
 62
    18
420
        0
176
     1
 90
       50
176
     1
 90
        3
176
     1
 62
     5
420
      255
176
     1
290
     0
176
     1
 90
       50
176
     1
 90
       50
176
     1
 90
       50
176
     1
290
     0
176
     1
 90
       50
176
     1
 62
   256
176
     0
 40
1.0
176
     0
 90
        2
176
     1
  1
strokes_ogs.tif
176
     1
290
     0
176
     1
 40
1.0
176
     1
 40
1.0
176
     1
1001
ACAD
1000
AcDbSavedByObjectVersion
1070
     0
  0
VISUALSTYLE
  5
2C
102
{ACAD_REACTORS
330
29
102
}
330
29
100
AcDbVisualStyle
  2
Gouraud
 70
     2
177
     3
291
     1
 70
    58
 90
        2
176
     1
 90
        2
176
     1
 90
        1
176
     1
 90
        2
176
     1
 40
0.6
176
     1
 40
30.0
176
     1
 62
     7
420
 16777215
176
     1
 90
        0
176
     1
 90
        0
176
     1
 62
     7
176
     1
 62
   257
176
     1
 90
        1
176
     1
 90
        1
176
     1
 40
1.0
176
     1
 90
        0
176
     1
 62
     7
176
     1
 40
1.0
176
     1
 90
        1
176
     1
 90
        6
176
     1
 90
        2
176
     1
 62
     7
176
     1
 90
        5
176
     1
 90
        0
176
     1
 90
        0
176
     1
290
     0
176
     1
 90
       13
176
     1
 40
0.0
176
     1
 90
        0
176
     1
290
     0
176
     1
290
     1
176
     1
290
     1
176
     1
290
     0
176
     1
290
     0
176
     1
290
     0
176
     1
290
     0
176
     1
290
     0
176
     1
290
     0
176
     1
 90
       50
176
     1
 40
0.0
176
     1
 40
1.0
176
     1
 90
        0
176
     1
 62
    18
420
        0
176
     1
 90
       50
176
     1
 90
        3
176
     1
 62
     5
420
      255
176
     1
290
     0
176
     1
 90
       50
176
     1
 90
       50
176
     1
 90
       50
176
     1
290
     0
176
     1
 90
       50
176
     1
 62
   256
176
     0
 40
1.0
176
     0
 90
        2
176
     1
  1
strokes_ogs.tif
176
     1
290
     0
176
     1
 40
1.0
176
     1
 40
1.0
176
     1
1001
ACAD
1000
AcDbSavedByObjectVersion
1070
     0
  0
VISUALSTYLE
  5
2D
102
{ACAD_REACTORS
330
29
102
}
330
29
100
AcDbVisualStyle
  2
GouraudWithEdges
 70
     3
177
     3
291
     1
 70
    58
 90
        2
176
     1
 90
        2
176
     1
 90
        1
176
     1
 90
        2
176
     1
 40
0.6
176
     1
 40
30.0
176
     1
 62
     7
420
 16777215
176
     1
 90
        1
176
     1
 90
        0
176
     1
 62
     7
176
     1
 62
   257
176
     1
 90
        1
176
     1
 90
        1
176
     1
 40
1.0
176
     1
 90
        0
176
     1
 62
   257
176
     1
 40
1.0
176
     1
 90
        1
176
     1
 90
        6
176
     1
 90
        2
176
     1
 62
     7
176
     1
 90
        5
176
     1
 90
        0
176
     1
 90
        0
176
     1
290
     0
176
     1
 90
       13
176
     1
 40
0.0
176
     1
 90
        0
176
     1
290
     0
176
     1
290
     1
176
     1
290
     1
176
     1
290
     0
176
     1
290
     0
176
     1
290
     0
176
     1
290
     0
176
     1
290
     0
176
     1
290
     0
176
     1
 90
       50
176
     1
 40
0.0
176
     1
 40
1.0
176
     1
 90
        0
176
     1
 62
    18
420
        0
176
     1
 90
       50
176
     1
 90
        3
176
     1
 62
     5
420
      255
176
     1
290
     0
176
     1
 90
       50
176
     1
 90
       50
176
     1
 90
       50
176
     1
290
     0
176
     1
 90
       50
176
     1
 62
   256
176
     0
 40
1.0
176
     0
 90
        2
176
     1
  1
strokes_ogs.tif
176
     1
290
     0
176
     1
 40
1.0
176
     1
 40
1.0
176
     1
1001
ACAD
1000
AcDbSavedByObjectVersion
1070
     0
  0
VISUALSTYLE
  5
31
102
{ACAD_REACTORS
330
29
102
}
330
29
100
AcDbVisualStyle
  2
Hidden
 70
     6
177
     3
291
     0
 70
    58
 90
        1
176
     1
 90
        2
176
     1
 90
        2
176
     1
 90
        0
176
     1
 40
0.6
176
     1
 40
30.0
176
     1
 62
     7
420
 16777215
176
     1
 90
        2
176
     1
 90
        2
176
     1
 62
     7
176
     1
 62
   257
176
     1
 90
        2
176
     1
 90
        1
176
     1
 40
40.0
176
     1
 90
        0
176
     1
 62
   257
176
     1
 40
1.0
176
     1
 90
        1
176
     1
 90
        6
176
     1
 90
        2
176
     1
 62
     7
176
     1
 90
        3
176
     1
 90
        0
176
     1
 90
        0
176
     1
290
     0
176
     1
 90
        1
176
     1
 40
0.0
176
     1
 90
        0
176
     1
290
     0
176
     1
290
     1
176
     1
290
     1
176
     1
290
     0
176
     1
290
     0
176
     1
290
     0
176
     1
290
     0
176
     1
290
     0
176
     1
290
     0
176
     1
 90
       50
176
     1
 40
0.0
176
     1
 40
1.0
176
     1
 90
        0
176
     1
 62
    18
420
        0
176
     1
 90
       50
176
     1
 90
        3
176
     1
 62
     5
420
      255
176
     1
290
     0
176
     1
 90
       50
176
     1
 90
       50
176
     1
 90
       50
176
     1
290
     0
176
     1
 90
       50
176
     1
 62
   256
176
     0
 40
1.0
176
     0
 90
        2
176
     1
  1
strokes_ogs.tif
176
     1
290
     0
176
     1
 40
1.0
176
     1
 40
1.0
176
     1
1001
ACAD
1000
AcDbSavedByObjectVersion
1070
     0
  0
VISUALSTYLE
  5
3F
102
{ACAD_REACTORS
330
29
102
}
330
29
100
AcDbVisualStyle
  2
JitterOff
 70
    20
177
     3
291
     1
 70
    58
 90
        2
176
     0
 90
        2
176
     0
 90
        0
176
     0
 90
        0
176
     0
 40
0.6
176
     0
 40
30.0
176
     0
 62
     7
420
 16777215
176
     0
 90
        1
176
     0
 90
        4
176
     0
 62
     7
176
     0
 62
   257
176
     0
 90
        1
176
     0
 90
        1
176
     0
 40
1.0
176
     0
 90
       10
176
     2
 62
     7
176
     0
 40
1.0
176
     0
 90
        1
176
     0
 90
        6
176
     0
 90
        2
176
     0
 62
     7
176
     0
 90
        5
176
     0
 90
        0
176
     0
 90
        0
176
     0
290
     0
176
     0
 90
        1
176
     0
 40
0.0
176
     0
 90
        0
176
     0
290
     0
176
     0
290
     1
176
     0
290
     1
176
     0
290
     0
176
     0
290
     0
176
     0
290
     0
176
     0
290
     0
176
     0
290
     0
176
     0
290
     0
176
     0
 90
       50
176
     0
 40
0.0
176
     0
 40
1.0
176
     0
 90
        0
176
     0
 62
    18
420
        0
176
     0
 90
       50
176
     0
 90
        3
176
     0
 62
     5
420
      255
176
     0
290
     0
176
     0
 90
       50
176
     0
 90
       50
176
     0
 90
       50
176
     0
290
     0
176
     0
 90
       50
176
     0
 62
   256
176
     0
 40
1.0
176
     0
 90
        2
176
     0
  1
strokes_ogs.tif
176
     0
290
     0
176
     0
 40
1.0
176
     0
 40
1.0
176
     0
1001
ACAD
1000
AcDbSavedByObjectVersion
1070
     0
  0
VISUALSTYLE
  5
37
102
{ACAD_REACTORS
330
29
102
}
330
29
100
AcDbVisualStyle
  2
Linepattern
 70
    14
177
     3
291
     1
 70
    58
 90
        2
176
     1
 90
        2
176
     1
 90
        0
176
     1
 90
        0
176
     1
 40
0.6
176
     1
 40
30.0
176
     1
 62
     7
420
 16777215
176
     1
 90
        1
176
     1
 90
        4
176
     1
 62
     7
176
     1
 62
   257
176
     1
 90
        7
176
     1
 90
        7
176
     1
 40
1.0
176
     1
 90
        8
176
     1
 62
     7
176
     1
 40
1.0
176
     1
 90
        1
176
     1
 90
        6
176
     1
 90
        2
176
     1
 62
     7
176
     1
 90
        5
176
     1
 90
        0
176
     1
 90
        0
176
     1
290
     0
176
     1
 90
        1
176
     1
 40
0.0
176
     1
 90
        0
176
     1
290
     0
176
     1
290
     1
176
     1
290
     1
176
     1
290
     0
176
     1
290
     0
176
     1
290
     0
176
     1
290
     0
176
     1
290
     0
176
     1
290
     0
176
     1
 90
       50
176
     1
 40
0.0
176
     1
 40
1.0
176
     1
 90
        0
176
     1
 62
    18
420
        0
176
     1
 90
       50
176
     1
 90
        3
176
     1
 62
     5
420
      255
176
     1
290
     0
176
     1
 90
       50
176
     1
 90
       50
176
     1
 90
       50
176
     1
290
     0
176
     1
 90
       50
176
     1
 62
   256
176
     0
 40
1.0
176
     0
 90
        2
176
     1
  1
strokes_ogs.tif
176
     1
290
     0
176
     1
 40
1.0
176
     1
 40
1.0
176
     1
1001
ACAD
1000
AcDbSavedByObjectVersion
1070
     0
  0
VISUALSTYLE
  5
40
102
{ACAD_REACTORS
330
29
102
}
330
29
100
AcDbVisualStyle
  2
OverhangOff
 70
    21
177
     3
291
     1
 70
    58
 90
        2
176
     0
 90
        2
176
     0
 90
        0
176
     0
 90
        0
176
     0
 40
0.6
176
     0
 40
30.0
176
     0
 62
     7
420
 16777215
176
     0
 90
        1
176
     0
 90
        4
176
     0
 62
     7
176
     0
 62
   257
176
     0
 90
        1
176
     0
 90
        1
176
     0
 40
1.0
176
     0
 90
        9
176
     2
 62
     7
176
     0
 40
1.0
176
     0
 90
        1
176
     0
 90
        6
176
     0
 90
        2
176
     0
 62
     7
176
     0
 90
        5
176
     0
 90
        0
176
     0
 90
        0
176
     0
290
     0
176
     0
 90
        1
176
     0
 40
0.0
176
     0
 90
        0
176
     0
290
     0
176
     0
290
     1
176
     0
290
     1
176
     0
290
     0
176
     0
290
     0
176
     0
290
     0
176
     0
290
     0
176
     0
290
     0
176
     0
290
     0
176
     0
 90
       50
176
     0
 40
0.0
176
     0
 40
1.0
176
     0
 90
        0
176
     0
 62
    18
420
        0
176
     0
 90
       50
176
     0
 90
        3
176
     0
 62
     5
420
      255
176
     0
290
     0
176
     0
 90
       50
176
     0
 90
       50
176
     0
 90
       50
176
     0
290
     0
176
     0
 90
       50
176
     0
 62
   256
176
     0
 40
1.0
176
     0
 90
        2
176
     0
  1
strokes_ogs.tif
176
     0
290
     0
176
     0
 40
1.0
176
     0
 40
1.0
176
     0
1001
ACAD
1000
AcDbSavedByObjectVersion
1070
     0
  0
VISUALSTYLE
  5
33
102
{ACAD_REACTORS
330
29
102
}
330
29
100
AcDbVisualStyle
  2
Realistic
 70
     8
177
     3
291
     0
 70
    58
 90
        2
176
     1
 90
        3
176
     1
 90
        0
176
     1
 90
        2
176
     1
 40
0.6
176
     1
 40
30.0
176
     1
 62
     7
420
 16777215
176
     1
 90
        0
176
     1
 90
        0
176
     1
 62
     7
176
     1
 62
   257
176
     1
 90
        1
176
     1
 90
        1
176
     1
 40
1.0
176
     1
 90
        8
176
     1
 62
   257
176
     1
 40
1.0
176
     1
 90
        1
176
     1
 90
        6
176
     1
 90
        2
176
     1
 62
     7
176
     1
 90
        3
176
     1
 90
        0
176
     1
 90
        0
176
     1
290
     0
176
     1
 90
       13
176
     1
 40
0.0
176
     1
 90
        0
176
     1
290
     0
176
     1
290
     1
176
     1
290
     1
176
     1
290
     0
176
     1
290
     0
176
     1
290
     0
176
     1
290
     0
176
     1
290
     0
176
     1
290
     0
176
     1
 90
       50
176
     1
 40
0.0
176
     1
 40
1.0
176
     1
 90
        0
176
     1
 62
    18
420
        0
176
     1
 90
       50
176
     1
 90
        3
176
     1
 62
     5
420
      255
176
     1
290
     0
176
     1
 90
       50
176
     1
 90
       50
176
     1
 90
       50
176
     1
290
     0
176
     1
 90
       50
176
     1
 62
   256
176
     0
 40
1.0
176
     0
 90
        2
176
     1
  1
strokes_ogs.tif
176
     1
290
     0
176
     1
 40
1.0
176
     1
 40
1.0
176
     1
1001
ACAD
1000
AcDbSavedByObjectVersion
1070
     0
  0
VISUALSTYLE
  5
3E
102
{ACAD_REACTORS
330
29
102
}
330
29
100
AcDbVisualStyle
  2
Shaded
 70
    27
177
     3
291
     0
 70
    58
 90
        2
176
     1
 90
        2
176
     1
 90
        1
176
     1
 90
        2
176
     1
 40
0.6
176
     1
 40
30.0
176
     1
 62
     7
420
 16777215
176
     1
 90
        0
176
     1
 90
        4
176
     1
 62
     7
176
     1
 62
   257
176
     1
 90
        1
176
     1
 90
        1
176
     1
 40
1.0
176
     1
 90
        8
176
     1
 62
   257
176
     1
 40
1.0
176
     1
 90
        1
176
     1
 90
        6
176
     1
 90
        2
176
     1
 62
     8
420
  7895160
176
     1
 90
        3
176
     1
 90
        0
176
     1
 90
        0
176
     1
290
     0
176
     1
 90
        5
176
     1
 40
0.0
176
     1
 90
        0
176
     1
290
     0
176
     1
290
     1
176
     1
290
     1
176
     1
290
     0
176
     1
290
     0
176
     1
290
     0
176
     1
290
     0
176
     1
290
     0
176
     1
290
     0
176
     1
 90
       50
176
     1
 40
0.0
176
     1
 40
1.0
176
     1
 90
        0
176
     1
 62
    18
420
        0
176
     1
 90
       50
176
     1
 90
        3
176
     1
 62
     5
420
      255
176
     1
290
     0
176
     1
 90
       50
176
     1
 90
       50
176
     1
 90
       50
176
     1
290
     0
176
     1
 90
       50
176
     1
 62
   256
176
     0
 40
1.0
176
     0
 90
        2
176
     1
  1
strokes_ogs.tif
176
     1
290
     0
176
     1
 40
1.0
176
     1
 40
1.0
176
     1
1001
ACAD
1000
AcDbSavedByObjectVersion
1070
     0
  0
VISUALSTYLE
  5
3D
102
{ACAD_REACTORS
330
29
102
}
330
29
100
AcDbVisualStyle
  2
Shaded with edges
 70
    26
177
     3
291
     0
 70
    58
 90
        2
176
     1
 90
        2
176
     1
 90
        1
176
     1
 90
        2
176
     1
 40
0.6
176
     1
 40
30.0
176
     1
 62
     7
420
 16777215
176
     1
 90
        1
176
     1
 90
        2
176
     1
 62
     7
176
     1
 62
   257
176
     1
 90
        2
176
     1
 90
        1
176
     1
 40
1.0
176
     1
 90
        8
176
     1
 62
   257
176
     1
 40
1.0
176
     1
 90
        1
176
     1
 90
        6
176
     1
 90
        2
176
     1
 62
     7
176
     1
 90
        3
176
     1
 90
        0
176
     1
 90
        0
176
     1
290
     0
176
     1
 90
        5
176
     1
 40
0.0
176
     1
 90
        0
176
     1
290
     0
176
     1
290
     1
176
     1
290
     1
176
     1
290
     0
176
     1
290
     0
176
     1
290
     0
176
     1
290
     0
176
     1
290
     0
176
     1
290
     0
176
     1
 90
       50
176
     1
 40
0.0
176
     1
 40
1.0
176
     1
 90
        0
176
     1
 62
    18
420
        0
176
     1
 90
       50
176
     1
 90
        3
176
     1
 62
     5
420
      255
176
     1
290
     0
176
     1
 90
       50
176
     1
 90
       50
176
     1
 90
       50
176
     1
290
     0
176
     1
 90
       50
176
     1
 62
   256
176
     0
 40
1.0
176
     0
 90
        2
176
     1
  1
strokes_ogs.tif
176
     1
290
     0
176
     1
 40
1.0
176
     1
 40
1.0
176
     1
1001
ACAD
1000
AcDbSavedByObjectVersion
1070
     0
  0
VISUALSTYLE
  5
3A
102
{ACAD_REACTORS
330
29
102
}
330
29
100
AcDbVisualStyle
  2
Shades of Gray
 70
    23
177
     3
291
     0
 70
    58
 90
        2
176
     1
 90
        2
176
     1
 90
        3
176
     1
 90
        0
176
     1
 40
0.6
176
     1
 40
30.0
176
     1
 62
     7
420
 16777215
176
     1
 90
        2
176
     1
 90
        2
176
     1
 62
     7
176
     1
 62
     7
176
     1
 90
        1
176
     1
 90
        1
176
     1
 40
40.0
176
     1
 90
        8
176
     1
 62
     7
176
     1
 40
1.0
176
     1
 90
        1
176
     1
 90
        6
176
     1
 90
        2
176
     1
 62
     7
176
     1
 90
        3
176
     1
 90
        0
176
     1
 90
        0
176
     1
290
     0
176
     1
 90
        1
176
     1
 40
0.0
176
     1
 90
        0
176
     1
290
     0
176
     1
290
     1
176
     1
290
     1
176
     1
290
     0
176
     1
290
     0
176
     1
290
     0
176
     1
290
     0
176
     1
290
     0
176
     1
290
     0
176
     1
 90
       50
176
     1
 40
0.0
176
     1
 40
1.0
176
     1
 90
        0
176
     1
 62
    18
420
        0
176
     1
 90
       50
176
     1
 90
        3
176
     1
 62
     5
420
      255
176
     1
290
     0
176
     1
 90
       50
176
     1
 90
       50
176
     1
 90
       50
176
     1
290
     0
176
     1
 90
       50
176
     1
 62
   256
176
     0
 40
1.0
176
     0
 90
        2
176
     1
  1
strokes_ogs.tif
176
     1
290
     0
176
     1
 40
1.0
176
     1
 40
1.0
176
     1
1001
ACAD
1000
AcDbSavedByObjectVersion
1070
     0
  0
VISUALSTYLE
  5
3B
102
{ACAD_REACTORS
330
29
102
}
330
29
100
AcDbVisualStyle
  2
Sketchy
 70
    24
177
     3
291
     0
 70
    58
 90
        1
176
     1
 90
        2
176
     1
 90
        2
176
     1
 90
        0
176
     1
 40
0.6
176
     1
 40
30.0
176
     1
 62
     7
420
 16777215
176
     1
 90
        2
176
     1
 90
        2
176
     1
 62
     7
176
     1
 62
     7
176
     1
 90
        1
176
     1
 90
        1
176
     1
 40
40.0
176
     1
 90
       11
176
     1
 62
     7
176
     1
 40
1.0
176
     1
 90
        1
176
     1
 90
        6
176
     1
 90
        2
176
     1
 62
     7
176
     1
 90
        6
176
     1
 90
        0
176
     1
 90
        0
176
     1
290
     0
176
     1
 90
        1
176
     1
 40
0.0
176
     1
 90
        0
176
     1
290
     0
176
     1
290
     1
176
     1
290
     1
176
     1
290
     0
176
     1
290
     0
176
     1
290
     0
176
     1
290
     0
176
     1
290
     0
176
     1
290
     0
176
     1
 90
       50
176
     1
 40
0.0
176
     1
 40
1.0
176
     1
 90
        0
176
     1
 62
    18
420
        0
176
     1
 90
       50
176
     1
 90
        3
176
     1
 62
     5
420
      255
176
     1
290
     0
176
     1
 90
       50
176
     1
 90
       50
176
     1
 90
       50
176
     1
290
     0
176
     1
 90
       50
176
     1
 62
   256
176
     0
 40
1.0
176
     0
 90
        2
176
     1
  1
strokes_ogs.tif
176
     1
290
     0
176
     1
 40
1.0
176
     1
 40
1.0
176
     1
1001
ACAD
1000
AcDbSavedByObjectVersion
1070
     0
  0
VISUALSTYLE
  5
36
102
{ACAD_REACTORS
330
29
102
}
330
29
100
AcDbVisualStyle
  2
Thicken
 70
    13
177
     3
291
     1
 70
    58
 90
        2
176
     1
 90
        2
176
     1
 90
        0
176
     1
 90
        0
176
     1
 40
0.6
176
     1
 40
30.0
176
     1
 62
     7
420
 16777215
176
     1
 90
        1
176
     1
 90
        4
176
     1
 62
     7
176
     1
 62
   257
176
     1
 90
        1
176
     1
 90
        1
176
     1
 40
1.0
176
     1
 90
       12
176
     1
 62
     7
176
     1
 40
1.0
176
     1
 90
        1
176
     1
 90
        6
176
     1
 90
        2
176
     1
 62
     7
176
     1
 90
        5
176
     1
 90
        0
176
     1
 90
        0
176
     1
290
     0
176
     1
 90
        1
176
     1
 40
0.0
176
     1
 90
        0
176
     1
290
     0
176
     1
290
     1
176
     1
290
     1
176
     1
290
     0
176
     1
290
     0
176
     1
290
     0
176
     1
290
     0
176
     1
290
     0
176
     1
290
     0
176
     1
 90
       50
176
     1
 40
0.0
176
     1
 40
1.0
176
     1
 90
        0
176
     1
 62
    18
420
        0
176
     1
 90
       50
176
     1
 90
        3
176
     1
 62
     5
420
      255
176
     1
290
     0
176
     1
 90
       50
176
     1
 90
       50
176
     1
 90
       50
176
     1
290
     0
176
     1
 90
       50
176
     1
 62
   256
176
     0
 40
1.0
176
     0
 90
        2
176
     1
  1
strokes_ogs.tif
176
     1
290
     0
176
     1
 40
1.0
176
     1
 40
1.0
176
     1
1001
ACAD
1000
AcDbSavedByObjectVersion
1070
     0
  0
VISUALSTYLE
  5
30
102
{ACAD_REACTORS
330
29
102
}
330
29
100
AcDbVisualStyle
  2
Wireframe
 70
     5
177
     3
291
     0
 70
    58
 90
        0
176
     1
 90
        2
176
     1
 90
        0
176
     1
 90
        0
176
     1
 40
0.6
176
     1
 40
30.0
176
     1
 62
     7
420
 16777215
176
     1
 90
        1
176
     1
 90
        4
176
     1
 62
     7
176
     1
 62
   257
176
     1
 90
        1
176
     1
 90
        1
176
     1
 40
1.0
176
     1
 90
        0
176
     1
 62
   257
176
     1
 40
1.0
176
     1
 90
        1
176
     1
 90
        6
176
     1
 90
        2
176
     1
 62
     7
176
     1
 90
        3
176
     1
 90
        0
176
     1
 90
        0
176
     1
290
     0
176
     1
 90
        1
176
     1
 40
0.0
176
     1
 90
        0
176
     1
290
     0
176
     1
290
     1
176
     1
290
     1
176
     1
290
     0
176
     1
290
     0
176
     1
290
     0
176
     1
290
     0
176
     1
290
     0
176
     1
290
     0
176
     1
 90
       50
176
     1
 40
0.0
176
     1
 40
1.0
176
     1
 90
        0
176
     1
 62
    18
420
        0
176
     1
 90
       50
176
     1
 90
        3
176
     1
 62
     5
420
      255
176
     1
290
     0
176
     1
 90
       50
176
     1
 90
       50
176
     1
 90
       50
176
     1
290
     0
176
     1
 90
       50
176
     1
 62
   256
176
     0
 40
1.0
176
     0
 90
        2
176
     1
  1
strokes_ogs.tif
176
     1
290
     0
176
     1
 40
1.0
176
     1
 40
1.0
176
     1
1001
ACAD
1000
AcDbSavedByObjectVersion
1070
     0
  0
VISUALSTYLE
  5
3C
102
{ACAD_REACTORS
330
29
102
}
330
29
100
AcDbVisualStyle
  2
X-Ray
 70
    25
177
     3
291
     0
 70
    58
 90
        2
176
     1
 90
        2
176
     1
 90
        1
176
     1
 90
        1
176
     1
 40
0.5
176
     1
 40
30.0
176
     1
 62
     7
420
 16777215
176
     1
 90
        1
176
     1
 90
        0
176
     1
 62
     7
176
     1
 62
   257
176
     1
 90
        1
176
     1
 90
        1
176
     1
 40
1.0
176
     1
 90
        8
176
     1
 62
     7
176
     1
 40
1.0
176
     1
 90
        1
176
     1
 90
        6
176
     1
 90
        2
176
     1
 62
     7
176
     1
 90
        3
176
     1
 90
        0
176
     1
 90
        0
176
     1
290
     0
176
     1
 90
       13
176
     1
 40
0.0
176
     1
 90
        0
176
     1
290
     0
176
     1
290
     1
176
     1
290
     1
176
     1
290
     0
176
     1
290
     0
176
     1
290
     0
176
     1
290
     0
176
     1
290
     0
176
     1
290
     0
176
     1
 90
       50
176
     1
 40
0.0
176
     1
 40
1.0
176
     1
 90
        0
176
     1
 62
    18
420
        0
176
     1
 90
       50
176
     1
 90
        3
176
     1
 62
     5
420
      255
176
     1
290
     0
176
     1
 90
       50
176
     1
 90
       50
176
     1
 90
       50
176
     1
290
     0
176
     1
 90
       50
176
     1
 62
   256
176
     0
 40
1.0
176
     0
 90
        2
176
     1
  1
strokes_ogs.tif
176
     1
290
     0
176
     1
 40
1.0
176
     1
 40
1.0
176
     1
1001
ACAD
1000
AcDbSavedByObjectVersion
1070
     0
  0
DICTIONARYVAR
  5
8A0
102
{ACAD_REACTORS
330
89B
102
}
330
89B
100
DictionaryVariables
280
     0
  1
0
  0
DICTIONARYVAR
  5
8A1
102
{ACAD_REACTORS
330
89B
102
}
330
89B
100
DictionaryVariables
280
     0
  1
1:1
  0
DICTIONARYVAR
  5
89D
102
{ACAD_REACTORS
330
89B
102
}
330
89B
100
DictionaryVariables
280
     0
  1
STANDARD
  0
DICTIONARYVAR
  5
89C
102
{ACAD_REACTORS
330
89B
102
}
330
89B
100
DictionaryVariables
280
     0
  1
STANDARD
  0
DICTIONARYVAR
  5
89E
102
{ACAD_REACTORS
330
89B
102
}
330
89B
100
DictionaryVariables
280
     0
  1
Imperial24
  0
DICTIONARYVAR
  5
89F
102
{ACAD_REACTORS
330
89B
102
}
330
89B
100
DictionaryVariables
280
     0
  1
Imperial24
  0
DICTIONARY
  5
8A7
330
6B
100
AcDbDictionary
280
     1
281
     1
  3
ACAD_XREC_ROUNDTRIP
360
8A8
  0
DICTIONARY
  5
1A
330
19
100
AcDbDictionary
280
     1
281
     1
  3
BUMPTILE
360
1C
  3
DIFFUSETILE
360
1B
  3
OPACITYTILE
360
1F
  3
REFLECTIONTILE
360
1E
  3
REFRACTIONTILE
360
20
  3
SPECULARTILE
360
1D
  0
DICTIONARY
  5
12
330
11
100
AcDbDictionary
280
     1
281
     1
  3
BUMPTILE
360
14
  3
DIFFUSETILE
360
13
  3
OPACITYTILE
360
17
  3
REFLECTIONTILE
360
16
  3
REFRACTIONTILE
360
18
  3
SPECULARTILE
360
15
  0
DICTIONARY
  5
22
330
21
100
AcDbDictionary
280
     1
281
     1
  3
BUMPTILE
360
24
  3
DIFFUSETILE
360
23
  3
OPACITYTILE
360
27
  3
REFLECTIONTILE
360
26
  3
REFRACTIONTILE
360
28
  3
SPECULARTILE
360
25
  0
DICTIONARY
  5
8A5
330
69
100
AcDbDictionary
280
     1
281
     1
  3
ACAD_XREC_ROUNDTRIP
360
8A6
  0
DICTIONARY
  5
8A2
330
65
100
AcDbDictionary
280
     1
281
     1
  3
ACAD_ROUNDTRIP_2008_TABLESTYLE_CELLSTYLEMAP
360
8A3
  0
XRECORD
  5
8A8
102
{ACAD_REACTORS
330
8A7
102
}
330
8A7
100
AcDbXrecord
280
     1
102
DISPLAYNAME
  1
Imperial24
102
FLAGS
 90
        0
  0
XRECORD
  5
1C
102
{ACAD_REACTORS
330
1A
102
}
330
1A
100
AcDbXrecord
280
     1
270
     1
271
     1
  0
XRECORD
  5
1B
102
{ACAD_REACTORS
330
1A
102
}
330
1A
100
AcDbXrecord
280
     1
270
     1
271
     1
  0
XRECORD
  5
1F
102
{ACAD_REACTORS
330
1A
102
}
330
1A
100
AcDbXrecord
280
     1
270
     1
271
     1
  0
XRECORD
  5
1E
102
{ACAD_REACTORS
330
1A
102
}
330
1A
100
AcDbXrecord
280
     1
270
     1
271
     1
  0
XRECORD
  5
20
102
{ACAD_REACTORS
330
1A
102
}
330
1A
100
AcDbXrecord
280
     1
270
     1
271
     1
  0
XRECORD
  5
1D
102
{ACAD_REACTORS
330
1A
102
}
330
1A
100
AcDbXrecord
280
     1
270
     1
271
     1
  0
XRECORD
  5
14
102
{ACAD_REACTORS
330
12
102
}
330
12
100
AcDbXrecord
280
     1
270
     1
271
     1
  0
XRECORD
  5
13
102
{ACAD_REACTORS
330
12
102
}
330
12
100
AcDbXrecord
280
     1
270
     1
271
     1
  0
XRECORD
  5
17
102
{ACAD_REACTORS
330
12
102
}
330
12
100
AcDbXrecord
280
     1
270
     1
271
     1
  0
XRECORD
  5
16
102
{ACAD_REACTORS
330
12
102
}
330
12
100
AcDbXrecord
280
     1
270
     1
271
     1
  0
XRECORD
  5
18
102
{ACAD_REACTORS
330
12
102
}
330
12
100
AcDbXrecord
280
     1
270
     1
271
     1
  0
XRECORD
  5
15
102
{ACAD_REACTORS
330
12
102
}
330
12
100
AcDbXrecord
280
     1
270
     1
271
     1
  0
XRECORD
  5
24
102
{ACAD_REACTORS
330
22
102
}
330
22
100
AcDbXrecord
280
     1
270
     1
271
     1
  0
XRECORD
  5
23
102
{ACAD_REACTORS
330
22
102
}
330
22
100
AcDbXrecord
280
     1
270
     1
271
     1
  0
XRECORD
  5
27
102
{ACAD_REACTORS
330
22
102
}
330
22
100
AcDbXrecord
280
     1
270
     1
271
     1
  0
XRECORD
  5
26
102
{ACAD_REACTORS
330
22
102
}
330
22
100
AcDbXrecord
280
     1
270
     1
271
     1
  0
XRECORD
  5
28
102
{ACAD_REACTORS
330
22
102
}
330
22
100
AcDbXrecord
280
     1
270
     1
271
     1
  0
XRECORD
  5
25
102
{ACAD_REACTORS
330
22
102
}
330
22
100
AcDbXrecord
280
     1
270
     1
271
     1
  0
XRECORD
  5
8A6
102
{ACAD_REACTORS
330
8A5
102
}
330
8A5
100
AcDbXrecord
280
     1
102
DISPLAYNAME
  1
Imperial24
102
FLAGS
 90
        0
  0
CELLSTYLEMAP
  5
8A3
102
{ACAD_REACTORS
330
8A2
102
}
330
8A2
100
AcDbCellStyleMap
 90
        3
300
CELLSTYLE
  1
TABLEFORMAT_BEGIN
 90
        5
170
     1
 91
        0
 92
    32768
 62
   257
 93
        1
300
CONTENTFORMAT
  1
CONTENTFORMAT_BEGIN
 90
        0
 91
        0
 92
      512
 93
        0
300

 40
0.0
140
1.0
 94
        5
 62
     0
340
55
144
0.25
309
CONTENTFORMAT_END
171
     0
 94
        0
309
TABLEFORMAT_END
  1
CELLSTYLE_BEGIN
 90
        1
 91
        1
300
_TITLE
309
CELLSTYLE_END
300
CELLSTYLE
  1
TABLEFORMAT_BEGIN
 90
        5
170
     1
 91
        0
 92
        0
 62
   257
 93
        1
300
CONTENTFORMAT
  1
CONTENTFORMAT_BEGIN
 90
        0
 91
        0
 92
      512
 93
        0
300

 40
0.0
140
1.0
 94
        5
 62
     0
340
55
144
0.18
309
CONTENTFORMAT_END
171
     0
 94
        0
309
TABLEFORMAT_END
  1
CELLSTYLE_BEGIN
 90
        2
 91
        1
300
_HEADER
309
CELLSTYLE_END
300
CELLSTYLE
  1
TABLEFORMAT_BEGIN
 90
        5
170
     1
 91
        0
 92
        0
 62
   257
 93
        1
300
CONTENTFORMAT
  1
CONTENTFORMAT_BEGIN
 90
        0
 91
        0
 92
      512
 93
        0
300

 40
0.0
140
1.0
 94
        2
 62
     0
340
55
144
0.18
309
CONTENTFORMAT_END
171
     0
 94
        0
309
TABLEFORMAT_END
  1
CELLSTYLE_BEGIN
 90
        3
 91
        2
300
_DATA
309
CELLSTYLE_END
  0
ENDSEC
  0
EOF
