  0
SECTION
  2
HEADER
  9
$ACADVER
  1
AC1027
  9
$ACADMAINTVER
 70
   125
  9
$DWGCODEPAGE
  3
ANSI_1252
  9
$LASTSAVEDBY
  1
Administrator
  9
$REQUIREDVERSIONS
160
                 0
  9
$INSBASE
 10
0.0
 20
0.0
 30
0.0
  9
$EXTMIN
 10
0.0
 20
0.0
 30
-1.750012
  9
$EXTMAX
 10
17.0
 20
11.0
 30
60.0
  9
$LIMMIN
 10
0.0
 20
0.0
  9
$LIMMAX
 10
17.0
 20
11.0
  9
$ORTHOMODE
 70
     0
  9
$REGENMODE
 70
     1
  9
$FILLMODE
 70
     1
  9
$QTEXTMODE
 70
     0
  9
$MIRRTEXT
 70
     0
  9
$LTSCALE
 40
0.75
  9
$ATTMODE
 70
     1
  9
$TEXTSIZE
 40
0.12
  9
$TRACEWID
 40
0.05
  9
$TEXTSTYLE
  7
Standard
  9
$CLAYER
  8
Titleblock
  9
$CELTYPE
  6
ByLayer
  9
$CECOLOR
 62
   256
  9
$CELTSCALE
 40
1.0
  9
$DISPSILH
 70
     0
  9
$DIMSCALE
 40
1.0
  9
$DIMASZ
 40
0.12
  9
$DIMEXO
 40
0.05
  9
$DIMDLI
 40
0.339411
  9
$DIMRND
 40
0.0
  9
$DIMDLE
 40
0.0
  9
$DIMEXE
 40
0.1
  9
$DIMTP
 40
0.01
  9
$DIMTM
 40
0.01
  9
$DIMTXT
 40
0.12
  9
$DIMCEN
 40
0.0
  9
$DIMTSZ
 40
0.0
  9
$DIMTOL
 70
     0
  9
$DIMLIM
 70
     0
  9
$DIMTIH
 70
     1
  9
$DIMTOH
 70
     1
  9
$DIMSE1
 70
     0
  9
$DIMSE2
 70
     0
  9
$DIMTAD
 70
     0
  9
$DIMZIN
 70
    12
  9
$DIMBLK
  1

  9
$DIMASO
 70
     1
  9
$DIMSHO
 70
     1
  9
$DIMPOST
  1
in
  9
$DIMAPOST
  1
mm
  9
$DIMALT
 70
     0
  9
$DIMALTD
 70
     2
  9
$DIMALTF
 40
25.4
  9
$DIMLFAC
 40
1.0
  9
$DIMTOFL
 70
     0
  9
$DIMTVP
 40
0.0
  9
$DIMTIX
 70
     0
  9
$DIMSOXD
 70
     0
  9
$DIMSAH
 70
     0
  9
$DIMBLK1
  1

  9
$DIMBLK2
  1

  9
$DIMSTYLE
  2
Standard
  9
$DIMCLRD
 70
   256
  9
$DIMCLRE
 70
   256
  9
$DIMCLRT
 70
   256
  9
$DIMTFAC
 40
1.0
  9
$DIMGAP
 40
0.06
  9
$DIMJUST
 70
     0
  9
$DIMSD1
 70
     0
  9
$DIMSD2
 70
     0
  9
$DIMTOLJ
 70
     1
  9
$DIMTZIN
 70
    12
  9
$DIMALTZ
 70
    12
  9
$DIMALTTZ
 70
    12
  9
$DIMUPT
 70
     0
  9
$DIMDEC
 70
     3
  9
$DIMTDEC
 70
     3
  9
$DIMALTU
 70
     2
  9
$DIMALTTD
 70
     2
  9
$DIMTXSTY
  7
Standard
  9
$DIMAUNIT
 70
     0
  9
$DIMADEC
 70
     2
  9
$DIMALTRND
 40
0.0
  9
$DIMAZIN
 70
     3
  9
$DIMDSEP
 70
    46
  9
$DIMATFIT
 70
     3
  9
$DIMFRAC
 70
     0
  9
$DIMLDRBLK
  1

  9
$DIMLUNIT
 70
     5
  9
$DIMLWD
 70
    -2
  9
$DIMLWE
 70
    -2
  9
$DIMTMOVE
 70
     0
  9
$DIMFXL
 40
1.0
  9
$DIMFXLON
 70
     0
  9
$DIMJOGANG
 40
0.785398
  9
$DIMTFILL
 70
     0
  9
$DIMTFILLCLR
 70
     0
  9
$DIMARCSYM
 70
     1
  9
$DIMLTYPE
  6

  9
$DIMLTEX1
  6

  9
$DIMLTEX2
  6

  9
$DIMTXTDIRECTION
 70
     0
  9
$LUNITS
 70
     2
  9
$LUPREC
 70
     4
  9
$SKETCHINC
 40
0.1
  9
$FILLETRAD
 40
0.0
  9
$AUNITS
 70
     0
  9
$AUPREC
 70
     0
  9
$MENU
  1
.
  9
$ELEVATION
 40
0.0
  9
$PELEVATION
 40
0.0
  9
$THICKNESS
 40
0.0
  9
$LIMCHECK
 70
     0
  9
$CHAMFERA
 40
0.0
  9
$CHAMFERB
 40
0.0
  9
$CHAMFERC
 40
0.0
  9
$CHAMFERD
 40
0.0
  9
$SKPOLY
 70
     0
  9
$TDCREATE
 40
2459326.447581018
  9
$TDUCREATE
 40
2459326.739247686
  9
$TDUPDATE
 40
2459326.447581018
  9
$TDUUPDATE
 40
2459326.739247686
  9
$TDINDWG
 40
0.0000000000
  9
$TDUSRTIMER
 40
0.0000000000
  9
$USRTIMER
 70
     1
  9
$ANGBASE
 50
0.0
  9
$ANGDIR
 70
     0
  9
$PDMODE
 70
     0
  9
$PDSIZE
 40
0.0
  9
$PLINEWID
 40
0.0
  9
$SPLFRAME
 70
     0
  9
$SPLINETYPE
 70
     6
  9
$SPLINESEGS
 70
     8
  9
$HANDSEED
  5
7C9
  9
$SURFTAB1
 70
     6
  9
$SURFTAB2
 70
     6
  9
$SURFTYPE
 70
     6
  9
$SURFU
 70
     6
  9
$SURFV
 70
     6
  9
$UCSBASE
  2

  9
$UCSNAME
  2

  9
$UCSORG
 10
0.0
 20
0.0
 30
0.0
  9
$UCSXDIR
 10
1.0
 20
0.0
 30
0.0
  9
$UCSYDIR
 10
0.0
 20
1.0
 30
0.0
  9
$UCSORTHOREF
  2

  9
$UCSORTHOVIEW
 70
     0
  9
$UCSORGTOP
 10
0.0
 20
0.0
 30
0.0
  9
$UCSORGBOTTOM
 10
0.0
 20
0.0
 30
0.0
  9
$UCSORGLEFT
 10
0.0
 20
0.0
 30
0.0
  9
$UCSORGRIGHT
 10
0.0
 20
0.0
 30
0.0
  9
$UCSORGFRONT
 10
0.0
 20
0.0
 30
0.0
  9
$UCSORGBACK
 10
0.0
 20
0.0
 30
0.0
  9
$PUCSBASE
  2

  9
$PUCSNAME
  2

  9
$PUCSORG
 10
0.0
 20
0.0
 30
0.0
  9
$PUCSXDIR
 10
1.0
 20
0.0
 30
0.0
  9
$PUCSYDIR
 10
0.0
 20
1.0
 30
0.0
  9
$PUCSORTHOREF
  2

  9
$PUCSORTHOVIEW
 70
     0
  9
$PUCSORGTOP
 10
0.0
 20
0.0
 30
0.0
  9
$PUCSORGBOTTOM
 10
0.0
 20
0.0
 30
0.0
  9
$PUCSORGLEFT
 10
0.0
 20
0.0
 30
0.0
  9
$PUCSORGRIGHT
 10
0.0
 20
0.0
 30
0.0
  9
$PUCSORGFRONT
 10
0.0
 20
0.0
 30
0.0
  9
$PUCSORGBACK
 10
0.0
 20
0.0
 30
0.0
  9
$USERI1
 70
     0
  9
$USERI2
 70
     0
  9
$USERI3
 70
     0
  9
$USERI4
 70
     0
  9
$USERI5
 70
     0
  9
$USERR1
 40
0.0
  9
$USERR2
 40
0.0
  9
$USERR3
 40
0.0
  9
$USERR4
 40
0.0
  9
$USERR5
 40
0.0
  9
$WORLDVIEW
 70
     1
  9
$SHADEDGE
 70
     3
  9
$SHADEDIF
 70
    70
  9
$TILEMODE
 70
     1
  9
$MAXACTVP
 70
    64
  9
$PINSBASE
 10
0.0
 20
0.0
 30
0.0
  9
$PLIMCHECK
 70
     0
  9
$PEXTMIN
 10
1.000000E+20
 20
1.000000E+20
 30
1.000000E+20
  9
$PEXTMAX
 10
-1.000000E+20
 20
-1.000000E+20
 30
-1.000000E+20
  9
$PLIMMIN
 10
0.0
 20
0.0
  9
$PLIMMAX
 10
12.0
 20
9.0
  9
$UNITMODE
 70
     0
  9
$VISRETAIN
 70
     1
  9
$PLINEGEN
 70
     0
  9
$PSLTSCALE
 70
     1
  9
$TREEDEPTH
 70
  3020
  9
$CMLSTYLE
  2
Standard
  9
$CMLJUST
 70
     0
  9
$CMLSCALE
 40
1.0
  9
$PROXYGRAPHICS
 70
     1
  9
$MEASUREMENT
 70
     0
  9
$CELWEIGHT
370
    -1
  9
$ENDCAPS
280
     0
  9
$JOINSTYLE
280
     0
  9
$LWDISPLAY
290
     0
  9
$INSUNITS
 70
     1
  9
$HYPERLINKBASE
  1

  9
$STYLESHEET
  1

  9
$XEDIT
290
     1
  9
$CEPSNTYPE
380
     0
  9
$PSTYLEMODE
290
     1
  9
$FINGERPRINTGUID
  2
{38F3C77A-FC9E-AC4A-A5FB-79E4A71D7958}
  9
$VERSIONGUID
  2
{2037EDB3-272E-5B46-A77E-07AEB60F4353}
  9
$EXTNAMES
290
     1
  9
$PSVPSCALE
 40
0.0
  9
$OLESTARTUP
290
     0
  9
$SORTENTS
280
   127
  9
$INDEXCTL
280
     0
  9
$HIDETEXT
280
     1
  9
$XCLIPFRAME
280
     0
  9
$HALOGAP
280
     0
  9
$OBSCOLOR
 70
   257
  9
$OBSLTYPE
280
     0
  9
$INTERSECTIONDISPLAY
280
     0
  9
$INTERSECTIONCOLOR
 70
   257
  9
$DIMASSOC
280
     2
  9
$PROJECTNAME
  1

  9
$CAMERADISPLAY
290
     0
  9
$LENSLENGTH
 40
50.0
  9
$CAMERAHEIGHT
 40
0.0
  9
$STEPSPERSEC
 40
2.0
  9
$STEPSIZE
 40
6.0
  9
$3DDWFPREC
 40
2.0
  9
$PSOLWIDTH
 40
0.25
  9
$PSOLHEIGHT
 40
4.0
  9
$LOFTANG1
 40
1.570796
  9
$LOFTANG2
 40
1.570796
  9
$LOFTMAG1
 40
0.0
  9
$LOFTMAG2
 40
0.0
  9
$LOFTPARAM
 70
     7
  9
$LOFTNORMALS
280
     1
  9
$LATITUDE
 40
37.795
  9
$LONGITUDE
 40
-122.394
  9
$NORTHDIRECTION
 40
0.0
  9
$TIMEZONE
 70
 -8000
  9
$LIGHTGLYPHDISPLAY
280
     1
  9
$TILEMODELIGHTSYNCH
280
     1
  9
$CMATERIAL
347
11
  9
$SOLIDHIST
280
     0
  9
$SHOWHIST
280
     1
  9
$DWFFRAME
280
     2
  9
$DGNFRAME
280
     0
  9
$REALWORLDSCALE
290
     1
  9
$INTERFERECOLOR
 62
     1
  9
$INTERFEREOBJVS
345
33
  9
$INTERFEREVPVS
346
30
  9
$CSHADOW
280
     0
  9
$SHADOWPLANELOCATION
 40
0.0
  0
ENDSEC
  0
SECTION
  2
CLASSES
  0
CLASS
  1
ACDBDICTIONARYWDFLT
  2
AcDbDictionaryWithDefault
  3
ObjectDBX Classes
 90
        0
 91
        1
280
     0
281
     0
  0
CLASS
  1
MATERIAL
  2
AcDbMaterial
  3
ObjectDBX Classes
 90
     1153
 91
        3
280
     0
281
     0
  0
CLASS
  1
VISUALSTYLE
  2
AcDbVisualStyle
  3
ObjectDBX Classes
 90
     4095
 91
       24
280
     0
281
     0
  0
CLASS
  1
SCALE
  2
AcDbScale
  3
ObjectDBX Classes
 90
     1153
 91
       33
280
     0
281
     0
  0
CLASS
  1
TABLESTYLE
  2
AcDbTableStyle
  3
ObjectDBX Classes
 90
     4095
 91
        1
280
     0
281
     0
  0
CLASS
  1
MLEADERSTYLE
  2
AcDbMLeaderStyle
  3
ACDB_MLEADERSTYLE_CLASS
 90
     4095
 91
        1
280
     0
281
     0
  0
CLASS
  1
ACDBSECTIONVIEWSTYLE
  2
AcDbSectionViewStyle
  3
ObjectDBX Classes
 90
     1025
 91
        1
280
     0
281
     0
  0
CLASS
  1
ACDBDETAILVIEWSTYLE
  2
AcDbDetailViewStyle
  3
ObjectDBX Classes
 90
     1025
 91
        1
280
     0
281
     0
  0
CLASS
  1
ACMESCOPE
  2
AcMeScope
  3
AcMeServices
 90
     1024
 91
        1
280
     0
281
     0
  0
CLASS
  1
ACMECOMMANDHISTORY
  2
AcMeCommandHistory
  3
AcMeServices
 90
     1024
 91
        1
280
     0
281
     0
  0
CLASS
  1
ACIMSYSVARMAN
  2
AcImSysVarManager
  3
AcMeServices
 90
     1024
 91
        1
280
     0
281
     0
  0
CLASS
  1
ACIMINTSYSVAR
  2
AcImIntSysVar
  3
AcMeServices
 90
     1024
 91
        1
280
     0
281
     0
  0
CLASS
  1
ACMESTATEMGR
  2
AcMeStateMgr
  3
AcMeServices
 90
     1024
 91
        1
280
     0
281
     0
  0
CLASS
  1
ACGREFMASTER
  2
AcGrefMaster
  3
AcAttribServices
 90
     1024
 91
        1
280
     0
281
     0
  0
CLASS
  1
SORTENTSTABLE
  2
AcDbSortentsTable
  3
ObjectDBX Classes
 90
        0
 91
        6
280
     0
281
     0
  0
CLASS
  1
IMAGE
  2
AcDbRasterImage
  3
ISM
 90
     2175
 91
        1
280
     0
281
     1
  0
CLASS
  1
IMAGEDEF
  2
AcDbRasterImageDef
  3
ISM
 90
        0
 91
        1
280
     0
281
     0
  0
CLASS
  1
IMAGEDEF_REACTOR
  2
AcDbRasterImageDefReactor
  3
ISM
 90
        1
 91
        2
280
     0
281
     0
  0
CLASS
  1
RASTERVARIABLES
  2
AcDbRasterVariables
  3
ISM
 90
        0
 91
        1
280
     0
281
     0
  0
CLASS
  1
FIELD
  2
AcDbField
  3
ObjectDBX Classes
 90
     1152
 91
        4
280
     0
281
     0
  0
CLASS
  1
FIELDLIST
  2
AcDbFieldList
  3
ObjectDBX Classes
 90
     1152
 91
        1
280
     0
281
     0
  0
CLASS
  1
DICTIONARYVAR
  2
AcDbDictionaryVar
  3
ObjectDBX Classes
 90
        0
 91
        6
280
     0
281
     0
  0
CLASS
  1
CELLSTYLEMAP
  2
AcDbCellStyleMap
  3
ObjectDBX Classes
 90
     1152
 91
        1
280
     0
281
     0
  0
ENDSEC
  0
SECTION
  2
TABLES
  0
TABLE
  2
VPORT
  5
8
330
0
100
AcDbSymbolTable
 70
     1
1001
ACAD
1000
DbSaveVer
1071
      223
  0
VPORT
  5
57
330
8
100
AcDbSymbolTableRecord
100
AcDbViewportTableRecord
  2
*Active
 70
     0
 10
0.0
 20
0.0
 11
1.0
 21
1.0
 12
8.5
 22
5.5
 13
0.0
 23
0.0
 14
0.5
 24
0.5
 15
0.0
 25
0.0
 16
0.0
 26
0.0
 36
1.0
 17
0.0
 27
0.0
 37
0.0
 40
11.0
 41
1.779601
 42
50.0
 43
0.0
 44
0.0
 50
0.0
 51
0.0
 71
     0
 72
 20000
 73
     1
 74
     0
 75
     0
 76
     0
 77
     0
 78
     0
281
     0
 65
     1
110
0.0
120
0.0
130
0.0
111
1.0
121
0.0
131
0.0
112
0.0
122
1.0
132
0.0
 79
     0
146
0.0
348
2F
 60
     3
 61
     5
292
     1
282
     1
141
0.0
142
0.0
 63
   250
421
  3355443
  0
ENDTAB
  0
TABLE
  2
LTYPE
  5
5
330
0
100
AcDbSymbolTable
 70
    10
  0
LTYPE
  5
5B
330
5
100
AcDbSymbolTableRecord
100
AcDbLinetypeTableRecord
  2
ByBlock
 70
     0
  3

 72
    65
 73
     0
 40
0.0
  0
LTYPE
  5
5C
330
5
100
AcDbSymbolTableRecord
100
AcDbLinetypeTableRecord
  2
ByLayer
 70
     0
  3

 72
    65
 73
     0
 40
0.0
  0
LTYPE
  5
5D
330
5
100
AcDbSymbolTableRecord
100
AcDbLinetypeTableRecord
  2
Continuous
 70
     0
  3
Solid line
 72
    65
 73
     0
 40
0.0
  0
LTYPE
  5
81
330
5
100
AcDbSymbolTableRecord
100
AcDbLinetypeTableRecord
  2
HIDDEN
 70
     0
  3
Hidden __ __ __ __ __ __ __ __ __ __ __ __ __ _
 72
    65
 73
     2
 40
0.375
 49
0.25
 74
     0
 49
-0.125
 74
     0
  0
LTYPE
  5
82
330
5
100
AcDbSymbolTableRecord
100
AcDbLinetypeTableRecord
  2
PHANTOM2
 70
     0
  3
Phantom (.5x) ___ _ _ ___ _ _ ___ _ _ ___ _ _
 72
    65
 73
     6
 40
1.25
 49
0.625
 74
     0
 49
-0.125
 74
     0
 49
0.125
 74
     0
 49
-0.125
 74
     0
 49
0.125
 74
     0
 49
-0.125
 74
     0
  0
LTYPE
  5
83
330
5
100
AcDbSymbolTableRecord
100
AcDbLinetypeTableRecord
  2
CENTER
 70
     0
  3
Center ____ _ ____ _ ____ _ ____ _ ____ _ ____
 72
    65
 73
     4
 40
2.0
 49
1.25
 74
     0
 49
-0.25
 74
     0
 49
0.25
 74
     0
 49
-0.25
 74
     0
  0
LTYPE
  5
9D
330
5
100
AcDbSymbolTableRecord
100
AcDbLinetypeTableRecord
  2
CENTER2
 70
     0
  3
Center (.5x) ___ _ ___ _ ___ _ ___ _ ___ _ ___
 72
    65
 73
     4
 40
1.125
 49
0.75
 74
     0
 49
-0.125
 74
     0
 49
0.125
 74
     0
 49
-0.125
 74
     0
  0
LTYPE
  5
9E
330
5
100
AcDbSymbolTableRecord
100
AcDbLinetypeTableRecord
  2
HIDDEN2
 70
     0
  3
Hidden (.5x) _ _ _ _ _ _ _ _ _ _ _ _ _ _ _ _ _
 72
    65
 73
     2
 40
0.1875
 49
0.125
 74
     0
 49
-0.0625
 74
     0
  0
LTYPE
  5
9F
330
5
100
AcDbSymbolTableRecord
100
AcDbLinetypeTableRecord
  2
Amconstr
 70
     0
  3
_______________________
 72
    65
 73
     2
 40
9999.0
 49
9999.0
 74
     0
 49
0.0
 74
     0
  0
LTYPE
  5
A0
330
5
100
AcDbSymbolTableRecord
100
AcDbLinetypeTableRecord
  2
Amzigzag2
 70
     0
  3
/\/-/\/-/\/-/\/-/\/-/\/
 72
    65
 73
     2
 40
0.4401
 49
0.0001
 74
     4
 75
   136
340
9A
 46
0.0016
 50
0.0
 44
0.0
 45
0.0
 49
-0.44
 74
     0
  0
LTYPE
  5
A1
330
5
100
AcDbSymbolTableRecord
100
AcDbLinetypeTableRecord
  2
ACANSTGB
 70
     0
  3
__ . . __ . .
 72
    65
 73
     6
 40
0.354331
 49
0.15748
 74
     0
 49
-0.03937
 74
     0
 49
0.03937
 74
     0
 49
-0.03937
 74
     0
 49
0.03937
 74
     0
 49
-0.03937
 74
     0
  0
LTYPE
  5
A2
330
5
100
AcDbSymbolTableRecord
100
AcDbLinetypeTableRecord
  2
ACANSTGL
 70
     0
  3
_ _ _ _ _
 72
    65
 73
     2
 40
0.11811
 49
0.07874
 74
     0
 49
-0.03937
 74
     0
  0
ENDTAB
  0
TABLE
  2
LAYER
  5
2
330
0
100
AcDbSymbolTable
 70
    12
  0
LAYER
  5
54
330
2
100
AcDbSymbolTableRecord
100
AcDbLayerTableRecord
  2
0
 70
     0
 62
     7
  6
Continuous
370
    -3
390
F
347
21
348
0
1001
AcAecLayerStandard
1000

1000

  0
LAYER
  5
79
330
2
100
AcDbSymbolTableRecord
100
AcDbLayerTableRecord
  2
Defpoints
 70
     0
 62
     7
  6
Continuous
290
     0
370
    -3
390
F
347
21
348
0
1001
AcAecLayerStandard
1000

1000

  0
LAYER
  5
BC
330
2
100
AcDbSymbolTableRecord
100
AcDbLayerTableRecord
  2
Visible
 70
     0
 62
     7
  6
Continuous
370
    25
390
F
347
21
348
0
  0
LAYER
  5
1E0
330
2
100
AcDbSymbolTableRecord
100
AcDbLayerTableRecord
  2
Hidden
 70
     0
 62
     7
  6
HIDDEN2
370
    13
390
F
347
21
348
0
  0
LAYER
  5
1EB
330
2
100
AcDbSymbolTableRecord
100
AcDbLayerTableRecord
  2
Titleblock
 70
     0
 62
     7
  6
Continuous
370
    -3
390
F
347
21
348
0
1001
AcAecLayerStandard
1000

1000

1001
AcCmTransparency
1071
        0
  0
LAYER
  5
210
330
2
100
AcDbSymbolTableRecord
100
AcDbLayerTableRecord
  2
Border
 70
     0
 62
     7
  6
Continuous
370
    -3
390
F
347
21
348
0
1001
AcAecLayerStandard
1000

1000

1001
AcCmTransparency
1071
        0
  0
LAYER
  5
231
330
2
100
AcDbSymbolTableRecord
100
AcDbLayerTableRecord
  2
Dimensions
 70
     0
 62
     7
  6
Continuous
370
    13
390
F
347
21
348
0
  0
LAYER
  5
27E
330
2
100
AcDbSymbolTableRecord
100
AcDbLayerTableRecord
  2
Annotations
 70
     0
 62
     7
  6
Continuous
370
    13
390
F
347
21
348
0
  0
ENDTAB
  0
TABLE
  2
STYLE
  5
3
330
0
100
AcDbSymbolTable
 70
     4
  0
STYLE
  5
55
330
3
100
AcDbSymbolTableRecord
100
AcDbTextStyleTableRecord
  2
Standard
 70
     0
 40
0.0
 41
1.0
 50
0.0
 71
     0
 42
0.12
  3
arial.ttf
  4

1001
ACAD
1000
Arial
1071
       34
  0
STYLE
  5
5A
330
3
100
AcDbSymbolTableRecord
100
AcDbTextStyleTableRecord
  2
Annotative
 70
     0
 40
0.0
 41
1.0
 50
0.0
 71
     0
 42
0.2
  3
txt
  4

1001
AcadAnnotative
1000
AnnotativeData
1002
{
1070
     1
1070
     1
1002
}
  0
STYLE
  5
9A
330
3
100
AcDbSymbolTableRecord
100
AcDbTextStyleTableRecord
  2

 70
     1
 40
0.0
 41
1.0
 50
0.0
 71
     0
 42
0.12
  3
genltshp.shx
  4

  0
STYLE
  5
9B
330
3
100
AcDbSymbolTableRecord
100
AcDbTextStyleTableRecord
  2
ACANSGDT
 70
     0
 40
0.0
 41
1.0
 50
0.0
 71
     0
 42
0.12
  3
amgdt.shx
  4

  0
ENDTAB
  0
TABLE
  2
VIEW
  5
6
330
0
100
AcDbSymbolTable
 70
     0
  0
ENDTAB
  0
TABLE
  2
UCS
  5
7
330
0
100
AcDbSymbolTable
 70
     0
  0
ENDTAB
  0
TABLE
  2
APPID
  5
9
330
0
100
AcDbSymbolTable
 70
    27
  0
APPID
  5
56
330
9
100
AcDbSymbolTableRecord
100
AcDbRegAppTableRecord
  2
ACAD
 70
     0
  0
APPID
  5
5E
330
9
100
AcDbSymbolTableRecord
100
AcDbRegAppTableRecord
  2
AcadAnnotative
 70
     0
  0
APPID
  5
78
330
9
100
AcDbSymbolTableRecord
100
AcDbRegAppTableRecord
  2
ACAD_PSEXT
 70
     0
  0
APPID
  5
7A
330
9
100
AcDbSymbolTableRecord
100
AcDbRegAppTableRecord
  2
MCAD_NO_VIS
 70
     0
  0
APPID
  5
7B
330
9
100
AcDbSymbolTableRecord
100
AcDbRegAppTableRecord
  2
ACAD_TEMP_GRAPHIC
 70
     0
  0
APPID
  5
84
330
9
100
AcDbSymbolTableRecord
100
AcDbRegAppTableRecord
  2
ACAD_DSTYLE_DIMJAG
 70
     0
  0
APPID
  5
85
330
9
100
AcDbSymbolTableRecord
100
AcDbRegAppTableRecord
  2
ACAD_DSTYLE_DIMTALN
 70
     0
  0
APPID
  5
86
330
9
100
AcDbSymbolTableRecord
100
AcDbRegAppTableRecord
  2
ACAD_NAV_VCDISPLAY
 70
     0
  0
APPID
  5
87
330
9
100
AcDbSymbolTableRecord
100
AcDbRegAppTableRecord
  2
AcAecLayerStandard
 70
     0
  0
APPID
  5
88
330
9
100
AcDbSymbolTableRecord
100
AcDbRegAppTableRecord
  2
AcCmTransparency
 70
     0
  0
APPID
  5
89
330
9
100
AcDbSymbolTableRecord
100
AcDbRegAppTableRecord
  2
ACAD_DSTYLE_DIMBREAK
 70
     0
  0
APPID
  5
8A
330
9
100
AcDbSymbolTableRecord
100
AcDbRegAppTableRecord
  2
ACAD_DSTYLE_DIMRADIAL_EXTENSION
 70
     0
  0
APPID
  5
8B
330
9
100
AcDbSymbolTableRecord
100
AcDbRegAppTableRecord
  2
FUSIONTITLEBLOCK
 70
     0
  0
APPID
  5
8C
330
9
100
AcDbSymbolTableRecord
100
AcDbRegAppTableRecord
  2
FUSIONCURRENTTITLEBLOCK
 70
     0
  0
APPID
  5
8D
330
9
100
AcDbSymbolTableRecord
100
AcDbRegAppTableRecord
  2
AcSynergy
 70
     0
  0
APPID
  5
8E
330
9
100
AcDbSymbolTableRecord
100
AcDbRegAppTableRecord
  2
ACAD_VIEW_EDGE_ID
 70
     0
  0
APPID
  5
8F
330
9
100
AcDbSymbolTableRecord
100
AcDbRegAppTableRecord
  2
GENIUS_GENSCREG_15
 70
     0
  0
APPID
  5
90
330
9
100
AcDbSymbolTableRecord
100
AcDbRegAppTableRecord
  2
GENIUS_GENOBJ-N-SDF_13
 70
     0
  0
APPID
  5
91
330
9
100
AcDbSymbolTableRecord
100
AcDbRegAppTableRecord
  2
GENIUS_GENODEF_13
 70
     0
  0
APPID
  5
92
330
9
100
AcDbSymbolTableRecord
100
AcDbRegAppTableRecord
  2
ACAD_DIMASSOC_CALC_DIMLFAC
 70
     0
  0
APPID
  5
93
330
9
100
AcDbSymbolTableRecord
100
AcDbRegAppTableRecord
  2
ACAD_DIMASSOC_DIMLFAC
 70
     0
  0
APPID
  5
94
330
9
100
AcDbSymbolTableRecord
100
AcDbRegAppTableRecord
  2
ACAD_DIMASSOC_OVERRIDDEN_DIMLFAC
 70
     0
  0
APPID
  5
95
330
9
100
AcDbSymbolTableRecord
100
AcDbRegAppTableRecord
  2
FD_ATT_APPNAME
 70
     0
  0
APPID
  5
96
330
9
100
AcDbSymbolTableRecord
100
AcDbRegAppTableRecord
  2
SYNERGY_BODY_TBR_ID
 70
     0
  0
APPID
  5
97
330
9
100
AcDbSymbolTableRecord
100
AcDbRegAppTableRecord
  2
FusionCutBodyId
 70
     0
  0
APPID
  5
98
330
9
100
AcDbSymbolTableRecord
100
AcDbRegAppTableRecord
  2
ACAD_DSTYLE_DIMJAG_POSITION
 70
     0
  0
APPID
  5
99
330
9
100
AcDbSymbolTableRecord
100
AcDbRegAppTableRecord
  2
ACATTRIBSERVICES
 70
     0
  0
ENDTAB
  0
TABLE
  2
DIMSTYLE
  5
A
330
0
100
AcDbSymbolTable
 70
     2
100
AcDbDimStyleTable
 71
     1
340
58
  0
DIMSTYLE
105
58
102
{ACAD_REACTORS
330
230
330
23F
330
24D
330
25B
330
269
330
27F
330
28D
330
29B
330
2A9
330
2B7
330
2C2
330
2CE
330
2DC
330
2EA
330
2F8
102
}
330
A
100
AcDbSymbolTableRecord
100
AcDbDimStyleTableRecord
  2
Standard
 70
     0
  3
in
  4
mm
 41
0.12
 42
0.05
 43
0.339411
 44
0.1
 47
0.01
 48
0.01
 78
    12
 79
     3
 90
        1
140
0.12
141
0.0
147
0.06
176
   256
177
   256
178
   256
179
     2
271
     3
272
     3
277
     5
284
    12
285
    12
286
    12
340
55
  0
DIMSTYLE
105
59
330
A
100
AcDbSymbolTableRecord
100
AcDbDimStyleTableRecord
  2
Annotative
 70
     0
  3
in
  4
mm
 40
0.0
 43
0.339411
 78
    12
 79
     3
140
0.12
179
     2
271
     3
272
     3
277
     5
284
    12
285
    12
286
    12
340
55
1001
AcadAnnotative
1000
AnnotativeData
1002
{
1070
     1
1070
     1
1002
}
  0
ENDTAB
  0
TABLE
  2
BLOCK_RECORD
  5
1
330
0
100
AcDbSymbolTable
 70
    37
  0
BLOCK_RECORD
  5
70
102
{ACAD_XDICTIONARY
360
B5
102
}
330
1
100
AcDbSymbolTableRecord
100
AcDbBlockTableRecord
  2
*Model_Space
340
73
 70
     0
280
     1
281
     0
  0
BLOCK_RECORD
  5
6C
330
1
100
AcDbSymbolTableRecord
100
AcDbBlockTableRecord
  2
*Paper_Space
340
6F
 70
     0
280
     1
281
     0
  0
BLOCK_RECORD
  5
74
330
1
100
AcDbSymbolTableRecord
100
AcDbBlockTableRecord
  2
*Paper_Space0
340
77
 70
     0
280
     1
281
     0
  0
BLOCK_RECORD
  5
1EC
102
{ACAD_XDICTIONARY
360
1ED
102
}
330
1
100
AcDbSymbolTableRecord
100
AcDbBlockTableRecord
  2
Shower
340
0
102
{BLKREFS
331
1EA
102
}
 70
     1
280
     1
281
     0
1001
FUSIONTITLEBLOCK
1000
TitleBlock
  0
BLOCK_RECORD
  5
211
330
1
100
AcDbSymbolTableRecord
100
AcDbBlockTableRecord
  2
ANSI_B_SHEET
340
0
310
2800000020000000200000000100080000000000000400000000000000000000000000000000000000000000000080000080000000808000800000008000800080800000C0C0C000C0DCC000F0CAA6000020400000206000002080000020A0000020C0000020E00000400000004020000040400000406000004080000040A0
310
000040C0000040E00000600000006020000060400000606000006080000060A0000060C0000060E00000800000008020000080400000806000008080000080A0000080C0000080E00000A0000000A0200000A0400000A0600000A0800000A0A00000A0C00000A0E00000C0000000C0200000C0400000C0600000C0800000C0
310
A00000C0C00000C0E00000E0000000E0200000E0400000E0600000E0800000E0A00000E0C00000E0E00040000000400020004000400040006000400080004000A0004000C0004000E00040200000402020004020400040206000402080004020A0004020C0004020E000404000004040200040404000404060004040800040
310
40A0004040C0004040E00040600000406020004060400040606000406080004060A0004060C0004060E00040800000408020004080400040806000408080004080A0004080C0004080E00040A0000040A0200040A0400040A0600040A0800040A0A00040A0C00040A0E00040C0000040C0200040C0400040C0600040C08000
310
40C0A00040C0C00040C0E00040E0000040E0200040E0400040E0600040E0800040E0A00040E0C00040E0E00080000000800020008000400080006000800080008000A0008000C0008000E00080200000802020008020400080206000802080008020A0008020C0008020E00080400000804020008040400080406000804080
310
008040A0008040C0008040E00080600000806020008060400080606000806080008060A0008060C0008060E00080800000808020008080400080806000808080008080A0008080C0008080E00080A0000080A0200080A0400080A0600080A0800080A0A00080A0C00080A0E00080C0000080C0200080C0400080C0600080C0
310
800080C0A00080C0C00080C0E00080E0000080E0200080E0400080E0600080E0800080E0A00080E0C00080E0E000C0000000C0002000C0004000C0006000C0008000C000A000C000C000C000E000C0200000C0202000C0204000C0206000C0208000C020A000C020C000C020E000C0400000C0402000C0404000C0406000C0
310
408000C040A000C040C000C040E000C0600000C0602000C0604000C0606000C0608000C060A000C060C000C060E000C0800000C0802000C0804000C0806000C0808000C080A000C080C000C080E000C0A00000C0A02000C0A04000C0A06000C0A08000C0A0A000C0A0C000C0A0E000C0C00000C0C02000C0C04000C0C06000
310
C0C08000C0C0A000F0FBFF00A4A0A000808080000000FF0000FF000000FFFF00FF000000FF00FF00FFFF0000FFFFFF0049494949494949494949494949494949494949494949494949494949494949494949494949494949494949494949494949494949494949494949494949494949494949494949494949494949494949
310
494949494949494949494949494949494949494949494949494949494949494949494949494949494949494949494949494949494949494949494949494949494949494949494949494949494949494949494949494949494949494949494949494949494949494949494949494949494949FFFF4949494949494949494949
310
494949494949494949494949494949FFFF4949FFFFFFFFFFFFFFFFFFFFFFFFFFFFFFFFFFFFFFFFFFFFFFFFFFFFFFFFFFFF494949FF4949494949494949494949494949494949494949494949494949FF49494949FF4949494949494949494949494949494949494949494949494949FF49494949FF49494949494949494949
310
49494949494949494949494949494949FF49494949FF4949494949494949494949494949494949494949494949494949FF49494949FF4949494949494949494949494949494949494949494949494949FF49494949FF4949494949494949494949494949494949494949494949494949FF49494949FF494949494949494949
310
4949494949494949494949494949494949FF49494949FF4949494949494949494949494949494949494949494949494949FF49494949FF4949494949494949494949494949494949494949494949494949FF49494949FF4949494949494949494949494949494949494949494949494949FF49494949FF4949494949494949
310
494949494949494949494949494949494949FF49494949FF4949494949494949494949494949494949494949494949494949FF49494949FF4949494949494949494949494949494949494949494949494949FF49494949FF4949494949494949494949494949494949494949494949494949FF49494949FF49494949494949
310
49494949494949494949494949494949494949FF49494949FF4949494949494949494949494949494949494949494949494949FF494949FFFFFFFFFFFFFFFFFFFFFFFFFFFFFFFFFFFFFFFFFFFFFFFFFFFFFFFFFFFF4949FFFF4949494949494949494949494949494949494949494949494949FFFF49494949494949494949
310
49494949494949494949494949494949494949494949494949494949494949494949494949494949494949494949494949494949494949494949494949494949494949494949494949494949494949494949494949494949494949494949494949494949494949494949494949494949494949494949494949494949494949
310
4949494949494949494949494949494949494949494949494949494949494949494949494949494949494949494949494949494949494949
102
{BLKREFS
331
20F
102
}
 70
     1
280
     1
281
     0
  0
BLOCK_RECORD
  5
232
330
1
100
AcDbSymbolTableRecord
100
AcDbBlockTableRecord
  2
*D6
340
0
 70
     0
280
     1
281
     0
  0
BLOCK_RECORD
  5
240
330
1
100
AcDbSymbolTableRecord
100
AcDbBlockTableRecord
  2
*D7
340
0
 70
     0
280
     1
281
     0
  0
BLOCK_RECORD
  5
24E
330
1
100
AcDbSymbolTableRecord
100
AcDbBlockTableRecord
  2
*D8
340
0
 70
     0
280
     1
281
     0
  0
BLOCK_RECORD
  5
25C
330
1
100
AcDbSymbolTableRecord
100
AcDbBlockTableRecord
  2
*D9
340
0
 70
     0
280
     1
281
     0
  0
BLOCK_RECORD
  5
26A
330
1
100
AcDbSymbolTableRecord
100
AcDbBlockTableRecord
  2
*D10
340
0
 70
     0
280
     1
281
     0
  0
BLOCK_RECORD
  5
280
330
1
100
AcDbSymbolTableRecord
100
AcDbBlockTableRecord
  2
*D11
340
0
 70
     0
280
     1
281
     0
  0
BLOCK_RECORD
  5
28E
330
1
100
AcDbSymbolTableRecord
100
AcDbBlockTableRecord
  2
*D12
340
0
 70
     0
280
     1
281
     0
  0
BLOCK_RECORD
  5
29C
330
1
100
AcDbSymbolTableRecord
100
AcDbBlockTableRecord
  2
*D13
340
0
 70
     0
280
     1
281
     0
  0
BLOCK_RECORD
  5
2AA
330
1
100
AcDbSymbolTableRecord
100
AcDbBlockTableRecord
  2
*D14
340
0
 70
     0
280
     1
281
     0
  0
BLOCK_RECORD
  5
2B8
330
1
100
AcDbSymbolTableRecord
100
AcDbBlockTableRecord
  2
*D15
340
0
 70
     0
280
     1
281
     0
  0
BLOCK_RECORD
  5
2C3
330
1
100
AcDbSymbolTableRecord
100
AcDbBlockTableRecord
  2
*D16
340
0
 70
     0
280
     1
281
     0
  0
BLOCK_RECORD
  5
2CF
330
1
100
AcDbSymbolTableRecord
100
AcDbBlockTableRecord
  2
*D17
340
0
 70
     0
280
     1
281
     0
  0
BLOCK_RECORD
  5
2DD
330
1
100
AcDbSymbolTableRecord
100
AcDbBlockTableRecord
  2
*D18
340
0
 70
     0
280
     1
281
     0
  0
BLOCK_RECORD
  5
2EB
330
1
100
AcDbSymbolTableRecord
100
AcDbBlockTableRecord
  2
*D19
340
0
 70
     0
280
     1
281
     0
  0
BLOCK_RECORD
  5
2F9
330
1
100
AcDbSymbolTableRecord
100
AcDbBlockTableRecord
  2
*D20
340
0
 70
     0
280
     1
281
     0
  0
BLOCK_RECORD
  5
310
330
1
100
AcDbSymbolTableRecord
100
AcDbBlockTableRecord
  2
*D22
340
0
 70
     0
280
     1
281
     0
  0
BLOCK_RECORD
  5
31D
330
1
100
AcDbSymbolTableRecord
100
AcDbBlockTableRecord
  2
*D23
340
0
 70
     0
280
     1
281
     0
  0
BLOCK_RECORD
  5
32A
330
1
100
AcDbSymbolTableRecord
100
AcDbBlockTableRecord
  2
*D24
340
0
 70
     0
280
     1
281
     0
  0
BLOCK_RECORD
  5
337
330
1
100
AcDbSymbolTableRecord
100
AcDbBlockTableRecord
  2
*D25
340
0
 70
     0
280
     1
281
     0
  0
BLOCK_RECORD
  5
344
330
1
100
AcDbSymbolTableRecord
100
AcDbBlockTableRecord
  2
*D26
340
0
 70
     0
280
     1
281
     0
  0
BLOCK_RECORD
  5
351
330
1
100
AcDbSymbolTableRecord
100
AcDbBlockTableRecord
  2
*D27
340
0
 70
     0
280
     1
281
     0
  0
BLOCK_RECORD
  5
35E
330
1
100
AcDbSymbolTableRecord
100
AcDbBlockTableRecord
  2
*D28
340
0
 70
     0
280
     1
281
     0
  0
BLOCK_RECORD
  5
36B
330
1
100
AcDbSymbolTableRecord
100
AcDbBlockTableRecord
  2
*D29
340
0
 70
     0
280
     1
281
     0
  0
BLOCK_RECORD
  5
378
330
1
100
AcDbSymbolTableRecord
100
AcDbBlockTableRecord
  2
*D30
340
0
 70
     0
280
     1
281
     0
  0
BLOCK_RECORD
  5
385
330
1
100
AcDbSymbolTableRecord
100
AcDbBlockTableRecord
  2
*D31
340
0
 70
     0
280
     1
281
     0
  0
BLOCK_RECORD
  5
38F
330
1
100
AcDbSymbolTableRecord
100
AcDbBlockTableRecord
  2
*D32
340
0
 70
     0
280
     1
281
     0
  0
BLOCK_RECORD
  5
398
330
1
100
AcDbSymbolTableRecord
100
AcDbBlockTableRecord
  2
*D33
340
0
 70
     0
280
     1
281
     0
  0
BLOCK_RECORD
  5
3A5
330
1
100
AcDbSymbolTableRecord
100
AcDbBlockTableRecord
  2
*D34
340
0
 70
     0
280
     1
281
     0
  0
BLOCK_RECORD
  5
3B2
330
1
100
AcDbSymbolTableRecord
100
AcDbBlockTableRecord
  2
*D35
340
0
 70
     0
280
     1
281
     0
  0
BLOCK_RECORD
  5
3BF
330
1
100
AcDbSymbolTableRecord
100
AcDbBlockTableRecord
  2
*D36
340
0
 70
     0
280
     1
281
     0
  0
ENDTAB
  0
ENDSEC
  0
SECTION
  2
BLOCKS
  0
BLOCK
  5
71
330
70
100
AcDbEntity
  8
0
100
AcDbBlockBegin
  2
*Model_Space
 70
     0
 10
0.0
 20
0.0
 30
0.0
  3
*Model_Space
  1

  0
ENDBLK
  5
72
330
70
100
AcDbEntity
  8
0
100
AcDbBlockEnd
  0
BLOCK
  5
6D
330
6C
100
AcDbEntity
 67
     1
  8
0
100
AcDbBlockBegin
  2
*Paper_Space
 70
     0
 10
0.0
 20
0.0
 30
0.0
  3
*Paper_Space
  1

  0
ENDBLK
  5
6E
330
6C
100
AcDbEntity
 67
     1
  8
0
100
AcDbBlockEnd
  0
BLOCK
  5
75
330
74
100
AcDbEntity
 67
     1
  8
0
100
AcDbBlockBegin
  2
*Paper_Space0
 70
     0
 10
0.0
 20
0.0
 30
0.0
  3
*Paper_Space0
  1

  0
ENDBLK
  5
76
330
74
100
AcDbEntity
 67
     1
  8
0
100
AcDbBlockEnd
  0
BLOCK
  5
1EF
330
1EC
100
AcDbEntity
  8
0
100
AcDbBlockBegin
  2
Shower
 70
     2
 10
0.0
 20
0.0
 30
0.0
  3
Shower
  1

  0
LWPOLYLINE
  5
1F0
330
1EC
100
AcDbEntity
  8
Titleblock
100
AcDbPolyline
 90
        4
 70
     1
 43
0.0
 10
0.0
 20
0.0
 10
-4.9375
 20
0.0
 10
-4.9375
 20
2.5
 10
0.0
 20
2.5
  0
IMAGE
  5
1F1
330
1EC
100
AcDbEntity
  8
Titleblock
  6
Continuous
160
               140
310
8C0000000100000084000000060000000500000000000000008013C000B87FA8928AB03F000000000000000000000000008013C035B4911D6523F03F000000000000000001000000008001C035B4911D6523F03F000000000000000001000000008001C000B87FA8928AB03F000000000000000000000000008013C000B87F
310
A8928AB03F0000000000000000
370
     0
100
AcDbRasterImage
 90
        0
 10
-4.875
 20
0.064614
 30
0.0
 11
0.0028349156118143
 21
0.0
 31
0.0
 12
0.0
 22
0.0028349156118143
 32
0.0
 13
948.0
 23
333.0
340
1F2
 70
    15
280
     0
281
    50
282
    50
283
     0
290
     0
360
1F4
 71
     1
 91
        2
 14
-0.5
 24
-0.5
 14
947.5
 24
332.5
  0
LWPOLYLINE
  5
1F6
330
1EC
100
AcDbEntity
  8
Titleblock
  6
Continuous
370
    25
100
AcDbPolyline
 90
        4
 70
     1
 43
0.0
 10
0.0
 20
1.0625
 10
-4.9375
 20
1.061638
 10
-4.9375
 20
0.0
 10
0.0
 20
0.0
  0
LWPOLYLINE
  5
1F7
330
1EC
100
AcDbEntity
  8
Titleblock
  6
Continuous
370
    25
100
AcDbPolyline
 90
        4
 70
     1
 43
0.0
 10
-1.75
 20
2.5
 10
0.0
 20
2.5
 10
0.0
 20
2.5
 10
-1.75
 20
2.5
  0
ATTDEF
  5
1F8
330
1EC
100
AcDbEntity
  8
Titleblock
  6
Continuous
370
    25
100
AcDbText
 10
-3.6875
 20
2.3125
 30
0.0
 40
0.12
  1

100
AcDbAttributeDefinition
280
     0
  3

  2
PROJECT
 70
     0
280
     1
  0
MTEXT
  5
1F9
330
1EC
100
AcDbEntity
  8
Titleblock
  6
Continuous
370
    25
100
AcDbMText
 10
-4.875
 20
1.653875
 30
0.0
 40
0.12
 41
0.6875
 46
0.0
 71
     1
 72
     5
  1
Description:
 73
     1
 44
1.0
1001
ACAD
1000
ACAD_MTEXT_COLUMN_INFO_BEGIN
1070
    75
1070
     2
1070
    79
1070
     0
1070
    76
1070
     1
1070
    78
1070
     0
1070
    48
1040
0.6875
1070
    49
1040
0.6
1070
    50
1070
     1
1040
0.0
1000
ACAD_MTEXT_COLUMN_INFO_END
  0
ATTDEF
  5
1FA
330
1EC
100
AcDbEntity
  8
Titleblock
  6
Continuous
370
    25
100
AcDbText
 10
-1.6875
 20
0.6875
 30
0.0
 40
0.12
  1

100
AcDbAttributeDefinition
280
     0
  3

  2
DRAWN_DATE
 70
     0
280
     1
  0
ATTDEF
  5
1FB
330
1EC
100
AcDbEntity
  8
Titleblock
  6
Continuous
370
    25
100
AcDbText
 10
-4.3125
 20
1.8125
 30
0.0
 40
0.3048
  1

100
AcDbAttributeDefinition
280
     0
  3

  2
TITLE_1
 70
     0
280
     1
  0
ATTDEF
  5
1FC
330
1EC
100
AcDbEntity
  8
Titleblock
  6
Continuous
370
    25
100
AcDbText
 10
-1.6875
 20
0.91994
 30
0.0
 40
0.12
  1

100
AcDbAttributeDefinition
280
     0
  3

  2
SCALE
 70
     0
280
     1
  0
LWPOLYLINE
  5
1FD
330
1EC
100
AcDbEntity
  8
Titleblock
  6
Continuous
370
    25
100
AcDbPolyline
 90
        4
 70
     1
 43
0.0
 10
0.0
 20
1.0625
 10
0.0
 20
1.0625
 10
0.0
 20
0.0
 10
0.0
 20
0.0
  0
LWPOLYLINE
  5
1FE
330
1EC
100
AcDbEntity
  8
Titleblock
  6
Continuous
370
    25
100
AcDbPolyline
 90
        4
 70
     1
 43
0.0
 10
0.0
 20
1.0625
 10
0.0
 20
1.0625
 10
0.0
 20
0.0
 10
0.0
 20
0.0
  0
LINE
  5
1FF
330
1EC
100
AcDbEntity
  8
Titleblock
  6
Continuous
370
    25
100
AcDbLine
 10
-2.125
 20
1.062165
 30
0.0
 11
-2.125
 21
0.0
 31
0.0
  0
LWPOLYLINE
  5
200
330
1EC
100
AcDbEntity
  8
Titleblock
  6
Continuous
370
    25
100
AcDbPolyline
 90
        4
 70
     1
 43
0.0
 10
-4.9375
 20
2.5
 10
0.0
 20
2.5
 10
0.0
 20
2.5
 10
-4.9375
 20
2.5
  0
LINE
  5
201
330
1EC
100
AcDbEntity
  8
Titleblock
  6
Continuous
370
    25
100
AcDbLine
 10
-4.9375
 20
2.25
 30
0.0
 11
0.0
 21
2.25
 31
0.0
  0
LINE
  5
202
330
1EC
100
AcDbEntity
  8
Titleblock
  6
Continuous
370
    25
100
AcDbLine
 10
-4.9375
 20
1.6875
 30
0.0
 11
0.0
 21
1.6875
 31
0.0
  0
MTEXT
  5
203
330
1EC
100
AcDbEntity
  8
Titleblock
100
AcDbMText
 10
-4.875
 20
2.467284
 30
0.0
 40
0.12
 41
0.375
 46
0.0
 71
     1
 72
     5
  1
Project:
 73
     1
 44
1.0
1001
ACAD
1000
ACAD_MTEXT_COLUMN_INFO_BEGIN
1070
    75
1070
     2
1070
    79
1070
     0
1070
    76
1070
     1
1070
    78
1070
     0
1070
    48
1040
0.375
1070
    49
1040
0.6
1070
    50
1070
     1
1040
0.0
1000
ACAD_MTEXT_COLUMN_INFO_END
  0
MTEXT
  5
204
330
1EC
100
AcDbEntity
  8
Titleblock
100
AcDbMText
 10
-2.0625
 20
1.045477
 30
0.0
 40
0.075
 41
0.375
 46
0.0
 71
     1
 72
     5
  1
Scale:
 73
     1
 44
1.0
1001
ACAD
1000
ACAD_MTEXT_COLUMN_INFO_BEGIN
1070
    75
1070
     2
1070
    79
1070
     0
1070
    76
1070
     1
1070
    78
1070
     0
1070
    48
1040
0.375
1070
    49
1040
0.6
1070
    50
1070
     1
1040
0.0
1000
ACAD_MTEXT_COLUMN_INFO_END
  0
MTEXT
  5
205
330
1EC
100
AcDbEntity
  8
Titleblock
100
AcDbMText
 10
-2.0625
 20
0.857735
 30
0.0
 40
0.075
 41
0.375
 46
0.0
 71
     1
 72
     5
  1
Date Drawn:
 73
     1
 44
1.0
1001
ACAD
1000
ACAD_MTEXT_COLUMN_INFO_BEGIN
1070
    75
1070
     2
1070
    79
1070
     0
1070
    76
1070
     1
1070
    78
1070
     0
1070
    48
1040
0.375
1070
    49
1040
0.6
1070
    50
1070
     1
1040
0.0
1000
ACAD_MTEXT_COLUMN_INFO_END
  0
LINE
  5
206
330
1EC
100
AcDbEntity
  8
Titleblock
100
AcDbLine
 10
-2.125
 20
0.875
 30
0.0
 11
0.0
 21
0.875
 31
0.0
  0
LINE
  5
207
330
1EC
100
AcDbEntity
  8
Titleblock
100
AcDbLine
 10
-2.125
 20
0.625
 30
0.0
 11
0.0
 21
0.625
 31
0.0
  0
MTEXT
  5
208
330
1EC
100
AcDbEntity
  8
Titleblock
100
AcDbMText
 10
-4.875
 20
2.220603
 30
0.0
 40
0.12
 41
0.625
 46
0.0
 71
     1
 72
     5
  1
Title:
 73
     1
 44
1.0
1001
ACAD
1000
ACAD_MTEXT_COLUMN_INFO_BEGIN
1070
    75
1070
     2
1070
    79
1070
     0
1070
    76
1070
     1
1070
    78
1070
     0
1070
    48
1040
0.625
1070
    49
1040
0.6
1070
    50
1070
     1
1040
0.0
1000
ACAD_MTEXT_COLUMN_INFO_END
  0
ENDBLK
  5
209
330
1EC
100
AcDbEntity
  8
0
100
AcDbBlockEnd
  0
BLOCK
  5
212
330
211
100
AcDbEntity
  8
0
100
AcDbBlockBegin
  2
ANSI_B_SHEET
 70
     0
 10
0.0
 20
0.0
 30
0.0
  3
ANSI_B_SHEET
  1

  0
LINE
  5
213
330
211
100
AcDbEntity
  8
Border
100
AcDbLine
 10
0.0
 20
0.0
 30
0.0
 11
0.5
 21
0.0
 31
0.0
  0
LINE
  5
214
330
211
100
AcDbEntity
  8
Border
100
AcDbLine
 10
16.5
 20
0.0
 30
0.0
 11
17.0
 21
0.0
 31
0.0
  0
LINE
  5
215
330
211
100
AcDbEntity
  8
Border
100
AcDbLine
 10
0.62
 20
0.38
 30
0.0
 11
16.38
 21
0.38
 31
0.0
  0
LINE
  5
216
330
211
100
AcDbEntity
  8
Border
100
AcDbLine
 10
17.0
 20
0.0
 30
0.0
 11
17.0
 21
0.5
 31
0.0
  0
LINE
  5
217
330
211
100
AcDbEntity
  8
Border
100
AcDbLine
 10
17.0
 20
10.5
 30
0.0
 11
17.0
 21
11.0
 31
0.0
  0
LINE
  5
218
330
211
100
AcDbEntity
  8
Border
100
AcDbLine
 10
16.38
 20
0.38
 30
0.0
 11
16.38
 21
10.62
 31
0.0
  0
LINE
  5
219
330
211
100
AcDbEntity
  8
Border
100
AcDbLine
 10
17.0
 20
11.0
 30
0.0
 11
16.5
 21
11.0
 31
0.0
  0
LINE
  5
21A
330
211
100
AcDbEntity
  8
Border
100
AcDbLine
 10
0.5
 20
11.0
 30
0.0
 11
0.0
 21
11.0
 31
0.0
  0
LINE
  5
21B
330
211
100
AcDbEntity
  8
Border
100
AcDbLine
 10
16.38
 20
10.62
 30
0.0
 11
0.62
 21
10.62
 31
0.0
  0
LINE
  5
21C
330
211
100
AcDbEntity
  8
Border
100
AcDbLine
 10
0.0
 20
11.0
 30
0.0
 11
0.0
 21
10.5
 31
0.0
  0
LINE
  5
21D
330
211
100
AcDbEntity
  8
Border
100
AcDbLine
 10
0.0
 20
0.5
 30
0.0
 11
0.0
 21
0.0
 31
0.0
  0
LINE
  5
21E
330
211
100
AcDbEntity
  8
Border
100
AcDbLine
 10
0.62
 20
10.62
 30
0.0
 11
0.62
 21
0.38
 31
0.0
  0
LINE
  5
21F
330
211
100
AcDbEntity
  8
Border
100
AcDbLine
 10
8.413397
 20
0.23
 30
0.0
 11
8.586603
 21
0.23
 31
0.0
  0
LINE
  5
220
330
211
100
AcDbEntity
  8
Border
100
AcDbLine
 10
8.5
 20
0.38
 30
0.0
 11
8.5
 21
0.13
 31
0.0
  0
LINE
  5
221
330
211
100
AcDbEntity
  8
Border
100
AcDbLine
 10
8.5
 20
0.38
 30
0.0
 11
8.413397
 21
0.23
 31
0.0
  0
LINE
  5
222
330
211
100
AcDbEntity
  8
Border
100
AcDbLine
 10
8.5
 20
0.38
 30
0.0
 11
8.586603
 21
0.23
 31
0.0
  0
LINE
  5
223
330
211
100
AcDbEntity
  8
Border
100
AcDbLine
 10
0.47
 20
5.586603
 30
0.0
 11
0.47
 21
5.413397
 31
0.0
  0
LINE
  5
224
330
211
100
AcDbEntity
  8
Border
100
AcDbLine
 10
0.62
 20
5.5
 30
0.0
 11
0.37
 21
5.5
 31
0.0
  0
LINE
  5
225
330
211
100
AcDbEntity
  8
Border
100
AcDbLine
 10
0.62
 20
5.5
 30
0.0
 11
0.47
 21
5.586603
 31
0.0
  0
LINE
  5
226
330
211
100
AcDbEntity
  8
Border
100
AcDbLine
 10
0.62
 20
5.5
 30
0.0
 11
0.47
 21
5.413397
 31
0.0
  0
LINE
  5
227
330
211
100
AcDbEntity
  8
Border
100
AcDbLine
 10
16.53
 20
5.586603
 30
0.0
 11
16.53
 21
5.413397
 31
0.0
  0
LINE
  5
228
330
211
100
AcDbEntity
  8
Border
100
AcDbLine
 10
16.38
 20
5.5
 30
0.0
 11
16.63
 21
5.5
 31
0.0
  0
LINE
  5
229
330
211
100
AcDbEntity
  8
Border
100
AcDbLine
 10
16.38
 20
5.5
 30
0.0
 11
16.53
 21
5.586603
 31
0.0
  0
LINE
  5
22A
330
211
100
AcDbEntity
  8
Border
100
AcDbLine
 10
16.38
 20
5.5
 30
0.0
 11
16.53
 21
5.413397
 31
0.0
  0
LINE
  5
22B
330
211
100
AcDbEntity
  8
Border
100
AcDbLine
 10
8.413397
 20
10.77
 30
0.0
 11
8.586603
 21
10.77
 31
0.0
  0
LINE
  5
22C
330
211
100
AcDbEntity
  8
Border
100
AcDbLine
 10
8.5
 20
10.62
 30
0.0
 11
8.5
 21
10.87
 31
0.0
  0
LINE
  5
22D
330
211
100
AcDbEntity
  8
Border
100
AcDbLine
 10
8.5
 20
10.62
 30
0.0
 11
8.413397
 21
10.77
 31
0.0
  0
LINE
  5
22E
330
211
100
AcDbEntity
  8
Border
100
AcDbLine
 10
8.5
 20
10.62
 30
0.0
 11
8.586603
 21
10.77
 31
0.0
  0
ENDBLK
  5
22F
330
211
100
AcDbEntity
  8
0
100
AcDbBlockEnd
  0
BLOCK
  5
233
330
232
100
AcDbEntity
  8
0
100
AcDbBlockBegin
  2
*D6
 70
     1
 10
0.0
 20
0.0
 30
0.0
  3
*D6
  1

  0
LINE
  5
234
330
232
100
AcDbEntity
  8
Dimensions
440
 16777216
370
    -2
100
AcDbLine
 10
2.5
 20
9.328717
 30
0.0
 11
2.5
 21
10.05754
 31
0.0
  0
LINE
  5
235
330
232
100
AcDbEntity
  8
Dimensions
440
 16777216
370
    -2
100
AcDbLine
 10
14.5
 20
9.328717
 30
0.0
 11
14.5
 21
10.05754
 31
0.0
  0
LINE
  5
236
330
232
100
AcDbEntity
  8
Dimensions
440
 16777216
370
    -2
100
AcDbLine
 10
2.62
 20
9.95754
 30
0.0
 11
8.249809
 21
9.95754
 31
0.0
  0
LINE
  5
237
330
232
100
AcDbEntity
  8
Dimensions
440
 16777216
370
    -2
100
AcDbLine
 10
14.38
 20
9.95754
 30
0.0
 11
8.750191
 21
9.95754
 31
0.0
  0
SOLID
  5
238
330
232
100
AcDbEntity
  8
Dimensions
440
 16777216
100
AcDbTrace
 10
2.62
 20
9.97754
 30
0.0
 11
2.62
 21
9.93754
 31
0.0
 12
2.5
 22
9.95754
 32
0.0
 13
2.5
 23
9.95754
 33
0.0
  0
SOLID
  5
239
330
232
100
AcDbEntity
  8
Dimensions
440
 16777216
100
AcDbTrace
 10
14.38
 20
9.97754
 30
0.0
 11
14.38
 21
9.93754
 31
0.0
 12
14.5
 22
9.95754
 32
0.0
 13
14.5
 23
9.95754
 33
0.0
  0
MTEXT
  5
23A
330
232
100
AcDbEntity
  8
Dimensions
440
 16777216
100
AcDbMText
 10
8.5
 20
9.95754
 30
0.0
 40
0.12
 41
0.0
 46
0.0
 71
     5
 72
     1
  1
\A1;120in
 73
     1
 44
1.0
  0
POINT
  5
23B
330
232
100
AcDbEntity
  8
Defpoints
 62
     0
440
 16777216
100
AcDbPoint
 10
2.5
 20
9.278717
 30
0.0
  0
POINT
  5
23C
330
232
100
AcDbEntity
  8
Defpoints
 62
     0
440
 16777216
100
AcDbPoint
 10
14.5
 20
9.278717
 30
0.0
  0
POINT
  5
23D
330
232
100
AcDbEntity
  8
Defpoints
 62
     0
440
 16777216
100
AcDbPoint
 10
14.5
 20
9.95754
 30
0.0
  0
ENDBLK
  5
23E
330
232
100
AcDbEntity
  8
0
100
AcDbBlockEnd
  0
BLOCK
  5
241
330
240
100
AcDbEntity
  8
0
100
AcDbBlockBegin
  2
*D7
 70
     1
 10
0.0
 20
0.0
 30
0.0
  3
*D7
  1

  0
LINE
  5
242
330
240
100
AcDbEntity
  8
Dimensions
440
 16777216
370
    -2
100
AcDbLine
 10
14.5
 20
9.328717
 30
0.0
 11
14.5
 21
9.564719
 31
0.0
  0
LINE
  5
243
330
240
100
AcDbEntity
  8
Dimensions
440
 16777216
370
    -2
100
AcDbLine
 10
13.9
 20
9.191217
 30
0.0
 11
13.9
 21
9.564719
 31
0.0
  0
LINE
  5
244
330
240
100
AcDbEntity
  8
Dimensions
440
 16777216
370
    -2
100
AcDbLine
 10
14.38
 20
9.464719
 30
0.0
 11
14.374839
 21
9.464719
 31
0.0
  0
LINE
  5
245
330
240
100
AcDbEntity
  8
Dimensions
440
 16777216
370
    -2
100
AcDbLine
 10
14.02
 20
9.464719
 30
0.0
 11
14.048973
 21
9.464719
 31
0.0
  0
SOLID
  5
246
330
240
100
AcDbEntity
  8
Dimensions
440
 16777216
100
AcDbTrace
 10
14.38
 20
9.484719
 30
0.0
 11
14.38
 21
9.444719
 31
0.0
 12
14.5
 22
9.464719
 32
0.0
 13
14.5
 23
9.464719
 33
0.0
  0
SOLID
  5
247
330
240
100
AcDbEntity
  8
Dimensions
440
 16777216
100
AcDbTrace
 10
14.02
 20
9.484719
 30
0.0
 11
14.02
 21
9.444719
 31
0.0
 12
13.9
 22
9.464719
 32
0.0
 13
13.9
 23
9.464719
 33
0.0
  0
MTEXT
  5
248
330
240
100
AcDbEntity
  8
Dimensions
440
 16777216
100
AcDbMText
 10
14.211906
 20
9.464719
 30
0.0
 40
0.12
 41
0.0
 46
0.0
 71
     5
 72
     1
  1
\A1;6in
 73
     1
 44
1.0
  0
POINT
  5
249
330
240
100
AcDbEntity
  8
Defpoints
 62
     0
440
 16777216
100
AcDbPoint
 10
14.5
 20
9.278717
 30
0.0
  0
POINT
  5
24A
330
240
100
AcDbEntity
  8
Defpoints
 62
     0
440
 16777216
100
AcDbPoint
 10
13.9
 20
9.141217
 30
0.0
  0
POINT
  5
24B
330
240
100
AcDbEntity
  8
Defpoints
 62
     0
440
 16777216
100
AcDbPoint
 10
13.9
 20
9.464719
 30
0.0
  0
ENDBLK
  5
24C
330
240
100
AcDbEntity
  8
0
100
AcDbBlockEnd
  0
BLOCK
  5
24F
330
24E
100
AcDbEntity
  8
0
100
AcDbBlockBegin
  2
*D8
 70
     1
 10
0.0
 20
0.0
 30
0.0
  3
*D8
  1

  0
LINE
  5
250
330
24E
100
AcDbEntity
  8
Dimensions
440
 16777216
370
    -2
100
AcDbLine
 10
13.900001
 20
9.191219
 30
0.0
 11
13.900001
 21
9.77402
 31
0.0
  0
LINE
  5
251
330
24E
100
AcDbEntity
  8
Dimensions
440
 16777216
370
    -2
100
AcDbLine
 10
12.700001
 20
9.191219
 30
0.0
 11
12.700001
 21
9.77402
 31
0.0
  0
LINE
  5
252
330
24E
100
AcDbEntity
  8
Dimensions
440
 16777216
370
    -2
100
AcDbLine
 10
13.780001
 20
9.67402
 30
0.0
 11
13.503576
 21
9.67402
 31
0.0
  0
LINE
  5
253
330
24E
100
AcDbEntity
  8
Dimensions
440
 16777216
370
    -2
100
AcDbLine
 10
12.820001
 20
9.67402
 30
0.0
 11
13.096427
 21
9.67402
 31
0.0
  0
SOLID
  5
254
330
24E
100
AcDbEntity
  8
Dimensions
440
 16777216
100
AcDbTrace
 10
13.780001
 20
9.69402
 30
0.0
 11
13.780001
 21
9.65402
 31
0.0
 12
13.900001
 22
9.67402
 32
0.0
 13
13.900001
 23
9.67402
 33
0.0
  0
SOLID
  5
255
330
24E
100
AcDbEntity
  8
Dimensions
440
 16777216
100
AcDbTrace
 10
12.820001
 20
9.69402
 30
0.0
 11
12.820001
 21
9.65402
 31
0.0
 12
12.700001
 22
9.67402
 32
0.0
 13
12.700001
 23
9.67402
 33
0.0
  0
MTEXT
  5
256
330
24E
100
AcDbEntity
  8
Dimensions
440
 16777216
100
AcDbMText
 10
13.300001
 20
9.67402
 30
0.0
 40
0.12
 41
0.0
 46
0.0
 71
     5
 72
     1
  1
\A1;12in
 73
     1
 44
1.0
  0
POINT
  5
257
330
24E
100
AcDbEntity
  8
Defpoints
 62
     0
440
 16777216
100
AcDbPoint
 10
13.900001
 20
9.141219
 30
0.0
  0
POINT
  5
258
330
24E
100
AcDbEntity
  8
Defpoints
 62
     0
440
 16777216
100
AcDbPoint
 10
12.700001
 20
9.141219
 30
0.0
  0
POINT
  5
259
330
24E
100
AcDbEntity
  8
Defpoints
 62
     0
440
 16777216
100
AcDbPoint
 10
12.700001
 20
9.67402
 30
0.0
  0
ENDBLK
  5
25A
330
24E
100
AcDbEntity
  8
0
100
AcDbBlockEnd
  0
BLOCK
  5
25D
330
25C
100
AcDbEntity
  8
0
100
AcDbBlockBegin
  2
*D9
 70
     1
 10
0.0
 20
0.0
 30
0.0
  3
*D9
  1

  0
LINE
  5
25E
330
25C
100
AcDbEntity
  8
Dimensions
440
 16777216
370
    -2
100
AcDbLine
 10
3.100001
 20
9.191219
 30
0.0
 11
3.100001
 21
9.555866
 31
0.0
  0
LINE
  5
25F
330
25C
100
AcDbEntity
  8
Dimensions
440
 16777216
370
    -2
100
AcDbLine
 10
2.5
 20
9.328717
 30
0.0
 11
2.5
 21
9.555866
 31
0.0
  0
LINE
  5
260
330
25C
100
AcDbEntity
  8
Dimensions
440
 16777216
370
    -2
100
AcDbLine
 10
2.980001
 20
9.455866
 30
0.0
 11
2.963644
 21
9.455866
 31
0.0
  0
LINE
  5
261
330
25C
100
AcDbEntity
  8
Dimensions
440
 16777216
370
    -2
100
AcDbLine
 10
2.62
 20
9.455866
 30
0.0
 11
2.637778
 21
9.455866
 31
0.0
  0
SOLID
  5
262
330
25C
100
AcDbEntity
  8
Dimensions
440
 16777216
100
AcDbTrace
 10
2.980001
 20
9.475866
 30
0.0
 11
2.980001
 21
9.435866
 31
0.0
 12
3.100001
 22
9.455866
 32
0.0
 13
3.100001
 23
9.455866
 33
0.0
  0
SOLID
  5
263
330
25C
100
AcDbEntity
  8
Dimensions
440
 16777216
100
AcDbTrace
 10
2.62
 20
9.475866
 30
0.0
 11
2.62
 21
9.435866
 31
0.0
 12
2.5
 22
9.455866
 32
0.0
 13
2.5
 23
9.455866
 33
0.0
  0
MTEXT
  5
264
330
25C
100
AcDbEntity
  8
Dimensions
440
 16777216
100
AcDbMText
 10
2.800711
 20
9.455866
 30
0.0
 40
0.12
 41
0.0
 46
0.0
 71
     5
 72
     1
  1
\A1;6in
 73
     1
 44
1.0
  0
POINT
  5
265
330
25C
100
AcDbEntity
  8
Defpoints
 62
     0
440
 16777216
100
AcDbPoint
 10
3.100001
 20
9.141219
 30
0.0
  0
POINT
  5
266
330
25C
100
AcDbEntity
  8
Defpoints
 62
     0
440
 16777216
100
AcDbPoint
 10
2.5
 20
9.278717
 30
0.0
  0
POINT
  5
267
330
25C
100
AcDbEntity
  8
Defpoints
 62
     0
440
 16777216
100
AcDbPoint
 10
2.5
 20
9.455866
 30
0.0
  0
ENDBLK
  5
268
330
25C
100
AcDbEntity
  8
0
100
AcDbBlockEnd
  0
BLOCK
  5
26B
330
26A
100
AcDbEntity
  8
0
100
AcDbBlockBegin
  2
*D10
 70
     1
 10
0.0
 20
0.0
 30
0.0
  3
*D10
  1

  0
LINE
  5
26C
330
26A
100
AcDbEntity
  8
Dimensions
440
 16777216
370
    -2
100
AcDbLine
 10
3.100001
 20
9.191219
 30
0.0
 11
3.100002
 21
9.788415
 31
0.0
  0
LINE
  5
26D
330
26A
100
AcDbEntity
  8
Dimensions
440
 16777216
370
    -2
100
AcDbLine
 10
4.3
 20
9.191217
 30
0.0
 11
4.300001
 21
9.788414
 31
0.0
  0
LINE
  5
26E
330
26A
100
AcDbEntity
  8
Dimensions
440
 16777216
370
    -2
100
AcDbLine
 10
3.220002
 20
9.688415
 30
0.0
 11
3.496427
 21
9.688415
 31
0.0
  0
LINE
  5
26F
330
26A
100
AcDbEntity
  8
Dimensions
440
 16777216
370
    -2
100
AcDbLine
 10
4.180001
 20
9.688414
 30
0.0
 11
3.903576
 21
9.688414
 31
0.0
  0
SOLID
  5
270
330
26A
100
AcDbEntity
  8
Dimensions
440
 16777216
100
AcDbTrace
 10
3.220002
 20
9.708415
 30
0.0
 11
3.220002
 21
9.668415
 31
0.0
 12
3.100002
 22
9.688415
 32
0.0
 13
3.100002
 23
9.688415
 33
0.0
  0
SOLID
  5
271
330
26A
100
AcDbEntity
  8
Dimensions
440
 16777216
100
AcDbTrace
 10
4.180001
 20
9.708414
 30
0.0
 11
4.180001
 21
9.668414
 31
0.0
 12
4.300001
 22
9.688414
 32
0.0
 13
4.300001
 23
9.688414
 33
0.0
  0
MTEXT
  5
272
330
26A
100
AcDbEntity
  8
Dimensions
440
 16777216
100
AcDbMText
 10
3.700001
 20
9.688414
 30
0.0
 40
0.12
 41
0.0
 46
0.0
 71
     5
 72
     1
  1
\A1;12in
 73
     1
 44
1.0
  0
POINT
  5
273
330
26A
100
AcDbEntity
  8
Defpoints
 62
     0
440
 16777216
100
AcDbPoint
 10
3.100001
 20
9.141219
 30
0.0
  0
POINT
  5
274
330
26A
100
AcDbEntity
  8
Defpoints
 62
     0
440
 16777216
100
AcDbPoint
 10
4.3
 20
9.141217
 30
0.0
  0
POINT
  5
275
330
26A
100
AcDbEntity
  8
Defpoints
 62
     0
440
 16777216
100
AcDbPoint
 10
4.300001
 20
9.688414
 30
0.0
  0
ENDBLK
  5
276
330
26A
100
AcDbEntity
  8
0
100
AcDbBlockEnd
  0
BLOCK
  5
281
330
280
100
AcDbEntity
  8
0
100
AcDbBlockBegin
  2
*D11
 70
     1
 10
0.0
 20
0.0
 30
0.0
  3
*D11
  1

  0
LINE
  5
282
330
280
100
AcDbEntity
  8
Dimensions
440
 16777216
370
    -2
100
AcDbLine
 10
7.937486
 20
3.850661
 30
0.0
 11
7.937555
 21
5.557576
 31
0.0
  0
LINE
  5
283
330
280
100
AcDbEntity
  8
Dimensions
440
 16777216
370
    -2
100
AcDbLine
 10
9.062486
 20
3.850616
 30
0.0
 11
9.062555
 21
5.557531
 31
0.0
  0
LINE
  5
284
330
280
100
AcDbEntity
  8
Dimensions
440
 16777216
370
    -2
100
AcDbLine
 10
8.057551
 20
5.457572
 30
0.0
 11
8.287246
 21
5.457562
 31
0.0
  0
LINE
  5
285
330
280
100
AcDbEntity
  8
Dimensions
440
 16777216
370
    -2
100
AcDbLine
 10
8.942551
 20
5.457536
 30
0.0
 11
8.688255
 21
5.457546
 31
0.0
  0
SOLID
  5
286
330
280
100
AcDbEntity
  8
Dimensions
440
 16777216
100
AcDbTrace
 10
8.057551
 20
5.477572
 30
0.0
 11
8.05755
 21
5.437572
 31
0.0
 12
7.937551
 22
5.457576
 32
0.0
 13
7.937551
 23
5.457576
 33
0.0
  0
SOLID
  5
287
330
280
100
AcDbEntity
  8
Dimensions
440
 16777216
100
AcDbTrace
 10
8.942551
 20
5.477536
 30
0.0
 11
8.94255
 21
5.437536
 31
0.0
 12
9.062551
 22
5.457531
 32
0.0
 13
9.062551
 23
5.457531
 33
0.0
  0
MTEXT
  5
288
330
280
100
AcDbEntity
  8
Dimensions
440
 16777216
100
AcDbMText
 10
8.48775
 20
5.457554
 30
0.0
 40
0.12
 41
0.0
 46
0.0
 71
     5
 72
     1
  1
\A1;1{\H1x;\S1/8;}in
 73
     1
 44
1.0
  0
POINT
  5
289
330
280
100
AcDbEntity
  8
Defpoints
 62
     0
440
 16777216
100
AcDbPoint
 10
7.937484
 20
3.800661
 30
0.0
  0
POINT
  5
28A
330
280
100
AcDbEntity
  8
Defpoints
 62
     0
440
 16777216
100
AcDbPoint
 10
9.062484
 20
3.800616
 30
0.0
  0
POINT
  5
28B
330
280
100
AcDbEntity
  8
Defpoints
 62
     0
440
 16777216
100
AcDbPoint
 10
9.062551
 20
5.457531
 30
0.0
  0
ENDBLK
  5
28C
330
280
100
AcDbEntity
  8
0
100
AcDbBlockEnd
  0
BLOCK
  5
28F
330
28E
100
AcDbEntity
  8
0
100
AcDbBlockBegin
  2
*D12
 70
     1
 10
0.0
 20
0.0
 30
0.0
  3
*D12
  1

  0
LINE
  5
290
330
28E
100
AcDbEntity
  8
Dimensions
440
 16777216
370
    -2
100
AcDbLine
 10
8.1875
 20
3.387336
 30
0.0
 11
8.1875
 21
4.632055
 31
0.0
  0
LINE
  5
291
330
28E
100
AcDbEntity
  8
Dimensions
440
 16777216
370
    -2
100
AcDbLine
 10
8.8125
 20
3.387336
 30
0.0
 11
8.8125
 21
4.632055
 31
0.0
  0
LINE
  5
292
330
28E
100
AcDbEntity
  8
Dimensions
440
 16777216
370
    -2
100
AcDbLine
 10
8.3075
 20
4.532055
 30
0.0
 11
8.336739
 21
4.532055
 31
0.0
  0
LINE
  5
293
330
28E
100
AcDbEntity
  8
Dimensions
440
 16777216
370
    -2
100
AcDbLine
 10
8.6925
 20
4.532055
 30
0.0
 11
8.663261
 21
4.532055
 31
0.0
  0
SOLID
  5
294
330
28E
100
AcDbEntity
  8
Dimensions
440
 16777216
100
AcDbTrace
 10
8.3075
 20
4.552055
 30
0.0
 11
8.3075
 21
4.512055
 31
0.0
 12
8.1875
 22
4.532055
 32
0.0
 13
8.1875
 23
4.532055
 33
0.0
  0
SOLID
  5
295
330
28E
100
AcDbEntity
  8
Dimensions
440
 16777216
100
AcDbTrace
 10
8.6925
 20
4.552055
 30
0.0
 11
8.6925
 21
4.512055
 31
0.0
 12
8.8125
 22
4.532055
 32
0.0
 13
8.8125
 23
4.532055
 33
0.0
  0
MTEXT
  5
296
330
28E
100
AcDbEntity
  8
Dimensions
440
 16777216
100
AcDbMText
 10
8.5
 20
4.532055
 30
0.0
 40
0.12
 41
0.0
 46
0.0
 71
     5
 72
     1
  1
\A1;{\H1x;\S5/8;}in
 73
     1
 44
1.0
  0
POINT
  5
297
330
28E
100
AcDbEntity
  8
Defpoints
 62
     0
440
 16777216
100
AcDbPoint
 10
8.1875
 20
3.337336
 30
0.0
  0
POINT
  5
298
330
28E
100
AcDbEntity
  8
Defpoints
 62
     0
440
 16777216
100
AcDbPoint
 10
8.8125
 20
3.337336
 30
0.0
  0
POINT
  5
299
330
28E
100
AcDbEntity
  8
Defpoints
 62
     0
440
 16777216
100
AcDbPoint
 10
8.8125
 20
4.532055
 30
0.0
  0
ENDBLK
  5
29A
330
28E
100
AcDbEntity
  8
0
100
AcDbBlockEnd
  0
BLOCK
  5
29D
330
29C
100
AcDbEntity
  8
0
100
AcDbBlockBegin
  2
*D13
 70
     1
 10
0.0
 20
0.0
 30
0.0
  3
*D13
  1

  0
LINE
  5
29E
330
29C
100
AcDbEntity
  8
Dimensions
440
 16777216
370
    -2
100
AcDbLine
 10
7.125
 20
2.974836
 30
0.0
 11
7.125
 21
1.954671
 31
0.0
  0
LINE
  5
29F
330
29C
100
AcDbEntity
  8
Dimensions
440
 16777216
370
    -2
100
AcDbLine
 10
9.875
 20
2.974836
 30
0.0
 11
9.875
 21
1.954671
 31
0.0
  0
LINE
  5
2A0
330
29C
100
AcDbEntity
  8
Dimensions
440
 16777216
370
    -2
100
AcDbLine
 10
7.245
 20
2.054671
 30
0.0
 11
8.290859
 21
2.054671
 31
0.0
  0
LINE
  5
2A1
330
29C
100
AcDbEntity
  8
Dimensions
440
 16777216
370
    -2
100
AcDbLine
 10
9.755
 20
2.054671
 30
0.0
 11
8.709141
 21
2.054671
 31
0.0
  0
SOLID
  5
2A2
330
29C
100
AcDbEntity
  8
Dimensions
440
 16777216
100
AcDbTrace
 10
7.245
 20
2.074671
 30
0.0
 11
7.245
 21
2.034671
 31
0.0
 12
7.125
 22
2.054671
 32
0.0
 13
7.125
 23
2.054671
 33
0.0
  0
SOLID
  5
2A3
330
29C
100
AcDbEntity
  8
Dimensions
440
 16777216
100
AcDbTrace
 10
9.755
 20
2.074671
 30
0.0
 11
9.755
 21
2.034671
 31
0.0
 12
9.875
 22
2.054671
 32
0.0
 13
9.875
 23
2.054671
 33
0.0
  0
MTEXT
  5
2A4
330
29C
100
AcDbEntity
  8
Dimensions
440
 16777216
100
AcDbMText
 10
8.5
 20
2.054671
 30
0.0
 40
0.12
 41
0.0
 46
0.0
 71
     5
 72
     1
  1
\A1;2{\H1x;\S3/4;}in
 73
     1
 44
1.0
  0
POINT
  5
2A5
330
29C
100
AcDbEntity
  8
Defpoints
 62
     0
440
 16777216
100
AcDbPoint
 10
7.125
 20
3.024836
 30
0.0
  0
POINT
  5
2A6
330
29C
100
AcDbEntity
  8
Defpoints
 62
     0
440
 16777216
100
AcDbPoint
 10
9.875
 20
3.024836
 30
0.0
  0
POINT
  5
2A7
330
29C
100
AcDbEntity
  8
Defpoints
 62
     0
440
 16777216
100
AcDbPoint
 10
9.875
 20
2.054671
 30
0.0
  0
ENDBLK
  5
2A8
330
29C
100
AcDbEntity
  8
0
100
AcDbBlockEnd
  0
BLOCK
  5
2AB
330
2AA
100
AcDbEntity
  8
0
100
AcDbBlockBegin
  2
*D14
 70
     1
 10
0.0
 20
0.0
 30
0.0
  3
*D14
  1

  0
LINE
  5
2AC
330
2AA
100
AcDbEntity
  8
Dimensions
440
 16777216
370
    -2
100
AcDbLine
 10
7.075
 20
3.024836
 30
0.0
 11
5.736427
 21
3.024836
 31
0.0
  0
LINE
  5
2AD
330
2AA
100
AcDbEntity
  8
Dimensions
440
 16777216
370
    -2
100
AcDbLine
 10
7.2
 20
7.149836
 30
0.0
 11
5.736427
 21
7.149836
 31
0.0
  0
LINE
  5
2AE
330
2AA
100
AcDbEntity
  8
Dimensions
440
 16777216
370
    -2
100
AcDbLine
 10
5.836427
 20
3.144836
 30
0.0
 11
5.836427
 21
4.885822
 31
0.0
  0
LINE
  5
2AF
330
2AA
100
AcDbEntity
  8
Dimensions
440
 16777216
370
    -2
100
AcDbLine
 10
5.836427
 20
7.029836
 30
0.0
 11
5.836427
 21
5.288851
 31
0.0
  0
SOLID
  5
2B0
330
2AA
100
AcDbEntity
  8
Dimensions
440
 16777216
100
AcDbTrace
 10
5.816427
 20
3.144836
 30
0.0
 11
5.856427
 21
3.144836
 31
0.0
 12
5.836427
 22
3.024836
 32
0.0
 13
5.836427
 23
3.024836
 33
0.0
  0
SOLID
  5
2B1
330
2AA
100
AcDbEntity
  8
Dimensions
440
 16777216
100
AcDbTrace
 10
5.816427
 20
7.029836
 30
0.0
 11
5.856427
 21
7.029836
 31
0.0
 12
5.836427
 22
7.149836
 32
0.0
 13
5.836427
 23
7.149836
 33
0.0
  0
MTEXT
  5
2B2
330
2AA
100
AcDbEntity
  8
Dimensions
440
 16777216
100
AcDbMText
 10
5.836427
 20
5.087336
 30
0.0
 40
0.12
 41
0.0
 46
0.0
 71
     5
 72
     1
  1
\A1;4{\H1x;\S1/8;}in
 73
     1
 44
1.0
  0
POINT
  5
2B3
330
2AA
100
AcDbEntity
  8
Defpoints
 62
     0
440
 16777216
100
AcDbPoint
 10
7.125
 20
3.024836
 30
0.0
  0
POINT
  5
2B4
330
2AA
100
AcDbEntity
  8
Defpoints
 62
     0
440
 16777216
100
AcDbPoint
 10
7.25
 20
7.149836
 30
0.0
  0
POINT
  5
2B5
330
2AA
100
AcDbEntity
  8
Defpoints
 62
     0
440
 16777216
100
AcDbPoint
 10
5.836427
 20
7.149836
 30
0.0
  0
ENDBLK
  5
2B6
330
2AA
100
AcDbEntity
  8
0
100
AcDbBlockEnd
  0
BLOCK
  5
2B9
330
2B8
100
AcDbEntity
  8
0
100
AcDbBlockBegin
  2
*D15
 70
     1
 10
0.0
 20
0.0
 30
0.0
  3
*D15
  1

  0
LINE
  5
2BA
330
2B8
100
AcDbEntity
  8
Dimensions
440
 16777216
370
    -2
100
AcDbLine
 10
2.844118
 20
6.947589
 30
0.0
 11
2.964118
 21
6.947589
 31
0.0
  0
LINE
  5
2BB
330
2B8
100
AcDbEntity
  8
Dimensions
440
 16777216
370
    -2
100
AcDbLine
 10
2.964118
 20
6.947589
 30
0.0
 11
3.482964
 21
5.862326
 31
0.0
  0
MTEXT
  5
2BC
330
2B8
100
AcDbEntity
  8
Dimensions
440
 16777216
100
AcDbMText
 10
2.572686
 20
6.947589
 30
0.0
 40
0.12
 41
0.0
 46
0.0
 71
     5
 72
     1
  1
\A1;∅1{\H1x;\S1/8;}in
 73
     1
 44
1.0
  0
SOLID
  5
2BD
330
2B8
100
AcDbEntity
  8
Dimensions
440
 16777216
100
AcDbTrace
 10
3.501008
 20
5.870953
 30
0.0
 11
3.46492
 21
5.8537
 31
0.0
 12
3.534723
 22
5.754063
 32
0.0
 13
3.534723
 23
5.754063
 33
0.0
  0
ARC
  5
2BE
330
2B8
100
AcDbEntity
  8
Dimensions
440
 16777216
370
    -2
100
AcDbCircle
 10
3.777343
 20
5.246577
 30
0.0
 40
0.5624999999999984
100
AcDbArc
 50
105.365739
 51
199.078025
  0
POINT
  5
2BF
330
2B8
100
AcDbEntity
  8
Defpoints
 62
     0
440
 16777216
100
AcDbPoint
 10
3.534723
 20
5.754063
 30
0.0
  0
POINT
  5
2C0
330
2B8
100
AcDbEntity
  8
Defpoints
 62
     0
440
 16777216
100
AcDbPoint
 10
4.019963
 20
4.739091
 30
0.0
  0
ENDBLK
  5
2C1
330
2B8
100
AcDbEntity
  8
0
100
AcDbBlockEnd
  0
BLOCK
  5
2C4
330
2C3
100
AcDbEntity
  8
0
100
AcDbBlockBegin
  2
*D16
 70
     1
 10
0.0
 20
0.0
 30
0.0
  3
*D16
  1

  0
LINE
  5
2C5
330
2C3
100
AcDbEntity
  8
Dimensions
440
 16777216
370
    -2
100
AcDbLine
 10
2.897499
 20
5.636613
 30
0.0
 11
3.017499
 21
5.636613
 31
0.0
  0
LINE
  5
2C6
330
2C3
100
AcDbEntity
  8
Dimensions
440
 16777216
370
    -2
100
AcDbLine
 10
3.017499
 20
5.636613
 30
0.0
 11
3.392564
 21
5.444077
 31
0.0
  0
MTEXT
  5
2C7
330
2C3
100
AcDbEntity
  8
Dimensions
440
 16777216
100
AcDbMText
 10
2.672438
 20
5.636613
 30
0.0
 40
0.12
 41
0.0
 46
0.0
 71
     5
 72
     1
  1
\A1;∅{\H1x;\S5/8;}in
 73
     1
 44
1.0
  0
SOLID
  5
2C8
330
2C3
100
AcDbEntity
  8
Dimensions
440
 16777216
100
AcDbTrace
 10
3.401698
 20
5.461869
 30
0.0
 11
3.38343
 21
5.426284
 31
0.0
 12
3.49932
 22
5.389275
 32
0.0
 13
3.49932
 23
5.389275
 33
0.0
  0
POINT
  5
2C9
330
2C3
100
AcDbEntity
  8
Defpoints
 62
     0
440
 16777216
100
AcDbPoint
 10
3.49932
 20
5.389275
 30
0.0
  0
POINT
  5
2CA
330
2C3
100
AcDbEntity
  8
Defpoints
 62
     0
440
 16777216
100
AcDbPoint
 10
4.055338
 20
5.103848
 30
0.0
  0
ENDBLK
  5
2CB
330
2C3
100
AcDbEntity
  8
0
100
AcDbBlockEnd
  0
BLOCK
  5
2D0
330
2CF
100
AcDbEntity
  8
0
100
AcDbBlockBegin
  2
*D17
 70
     1
 10
0.0
 20
0.0
 30
0.0
  3
*D17
  1

  0
LINE
  5
2D1
330
2CF
100
AcDbEntity
  8
Dimensions
440
 16777216
370
    -2
100
AcDbLine
 10
7.535
 20
6.639836
 30
0.0
 11
7.535
 21
6.915402
 31
0.0
  0
LINE
  5
2D2
330
2CF
100
AcDbEntity
  8
Dimensions
440
 16777216
370
    -2
100
AcDbLine
 10
9.465
 20
6.639836
 30
0.0
 11
9.465
 21
6.915402
 31
0.0
  0
LINE
  5
2D3
330
2CF
100
AcDbEntity
  8
Dimensions
440
 16777216
370
    -2
100
AcDbLine
 10
7.655
 20
6.815402
 30
0.0
 11
8.258281
 21
6.815402
 31
0.0
  0
LINE
  5
2D4
330
2CF
100
AcDbEntity
  8
Dimensions
440
 16777216
370
    -2
100
AcDbLine
 10
9.345
 20
6.815402
 30
0.0
 11
8.741719
 21
6.815402
 31
0.0
  0
SOLID
  5
2D5
330
2CF
100
AcDbEntity
  8
Dimensions
440
 16777216
100
AcDbTrace
 10
7.655
 20
6.835402
 30
0.0
 11
7.655
 21
6.795402
 31
0.0
 12
7.535
 22
6.815402
 32
0.0
 13
7.535
 23
6.815402
 33
0.0
  0
SOLID
  5
2D6
330
2CF
100
AcDbEntity
  8
Dimensions
440
 16777216
100
AcDbTrace
 10
9.345
 20
6.835402
 30
0.0
 11
9.345
 21
6.795402
 31
0.0
 12
9.465
 22
6.815402
 32
0.0
 13
9.465
 23
6.815402
 33
0.0
  0
MTEXT
  5
2D7
330
2CF
100
AcDbEntity
  8
Dimensions
440
 16777216
100
AcDbMText
 10
8.5
 20
6.815402
 30
0.0
 40
0.12
 41
0.0
 46
0.0
 71
     5
 72
     1
  1
\A1;1{\H1x;\S15/16;}in
 73
     1
 44
1.0
  0
POINT
  5
2D8
330
2CF
100
AcDbEntity
  8
Defpoints
 62
     0
440
 16777216
100
AcDbPoint
 10
7.535
 20
6.589836
 30
0.0
  0
POINT
  5
2D9
330
2CF
100
AcDbEntity
  8
Defpoints
 62
     0
440
 16777216
100
AcDbPoint
 10
9.465
 20
6.589836
 30
0.0
  0
POINT
  5
2DA
330
2CF
100
AcDbEntity
  8
Defpoints
 62
     0
440
 16777216
100
AcDbPoint
 10
9.465
 20
6.815402
 30
0.0
  0
ENDBLK
  5
2DB
330
2CF
100
AcDbEntity
  8
0
100
AcDbBlockEnd
  0
BLOCK
  5
2DE
330
2DD
100
AcDbEntity
  8
0
100
AcDbBlockBegin
  2
*D18
 70
     1
 10
0.0
 20
0.0
 30
0.0
  3
*D18
  1

  0
LINE
  5
2DF
330
2DD
100
AcDbEntity
  8
Dimensions
440
 16777216
370
    -2
100
AcDbLine
 10
7.9368
 20
3.774836
 30
0.0
 11
6.032527
 21
3.774836
 31
0.0
  0
LINE
  5
2E0
330
2DD
100
AcDbEntity
  8
Dimensions
440
 16777216
370
    -2
100
AcDbLine
 10
7.075
 20
3.024836
 30
0.0
 11
6.032527
 21
3.024836
 31
0.0
  0
LINE
  5
2E1
330
2DD
100
AcDbEntity
  8
Dimensions
440
 16777216
370
    -2
100
AcDbLine
 10
6.132527
 20
3.894836
 30
0.0
 11
6.132527
 21
4.014836
 31
0.0
  0
LINE
  5
2E2
330
2DD
100
AcDbEntity
  8
Dimensions
440
 16777216
370
    -2
100
AcDbLine
 10
6.132527
 20
2.904836
 30
0.0
 11
6.132527
 21
2.784836
 31
0.0
  0
SOLID
  5
2E3
330
2DD
100
AcDbEntity
  8
Dimensions
440
 16777216
100
AcDbTrace
 10
6.112527
 20
3.894836
 30
0.0
 11
6.152527
 21
3.894836
 31
0.0
 12
6.132527
 22
3.774836
 32
0.0
 13
6.132527
 23
3.774836
 33
0.0
  0
SOLID
  5
2E4
330
2DD
100
AcDbEntity
  8
Dimensions
440
 16777216
100
AcDbTrace
 10
6.112527
 20
2.904836
 30
0.0
 11
6.152527
 21
2.904836
 31
0.0
 12
6.132527
 22
3.024836
 32
0.0
 13
6.132527
 23
3.024836
 33
0.0
  0
MTEXT
  5
2E5
330
2DD
100
AcDbEntity
  8
Dimensions
440
 16777216
100
AcDbMText
 10
6.132527
 20
3.399836
 30
0.0
 40
0.12
 41
0.0
 46
0.0
 71
     5
 72
     1
  1
\A1;{\H1x;\S3/4;}in
 73
     1
 44
1.0
  0
POINT
  5
2E6
330
2DD
100
AcDbEntity
  8
Defpoints
 62
     0
440
 16777216
100
AcDbPoint
 10
7.9868
 20
3.774836
 30
0.0
  0
POINT
  5
2E7
330
2DD
100
AcDbEntity
  8
Defpoints
 62
     0
440
 16777216
100
AcDbPoint
 10
7.125
 20
3.024836
 30
0.0
  0
POINT
  5
2E8
330
2DD
100
AcDbEntity
  8
Defpoints
 62
     0
440
 16777216
100
AcDbPoint
 10
6.132527
 20
3.024836
 30
0.0
  0
ENDBLK
  5
2E9
330
2DD
100
AcDbEntity
  8
0
100
AcDbBlockEnd
  0
BLOCK
  5
2EC
330
2EB
100
AcDbEntity
  8
0
100
AcDbBlockBegin
  2
*D19
 70
     1
 10
0.0
 20
0.0
 30
0.0
  3
*D19
  1

  0
LINE
  5
2ED
330
2EB
100
AcDbEntity
  8
Dimensions
440
 16777216
370
    -2
100
AcDbLine
 10
7.9368
 20
3.774836
 30
0.0
 11
6.40692
 21
3.774836
 31
0.0
  0
LINE
  5
2EE
330
2EB
100
AcDbEntity
  8
Dimensions
440
 16777216
370
    -2
100
AcDbLine
 10
7.9225
 20
3.337336
 30
0.0
 11
6.40692
 21
3.337336
 31
0.0
  0
LINE
  5
2EF
330
2EB
100
AcDbEntity
  8
Dimensions
440
 16777216
370
    -2
100
AcDbLine
 10
6.50692
 20
3.894836
 30
0.0
 11
6.50692
 21
4.014836
 31
0.0
  0
LINE
  5
2F0
330
2EB
100
AcDbEntity
  8
Dimensions
440
 16777216
370
    -2
100
AcDbLine
 10
6.50692
 20
3.217336
 30
0.0
 11
6.50692
 21
3.097336
 31
0.0
  0
SOLID
  5
2F1
330
2EB
100
AcDbEntity
  8
Dimensions
440
 16777216
100
AcDbTrace
 10
6.48692
 20
3.894836
 30
0.0
 11
6.52692
 21
3.894836
 31
0.0
 12
6.50692
 22
3.774836
 32
0.0
 13
6.50692
 23
3.774836
 33
0.0
  0
SOLID
  5
2F2
330
2EB
100
AcDbEntity
  8
Dimensions
440
 16777216
100
AcDbTrace
 10
6.48692
 20
3.217336
 30
0.0
 11
6.52692
 21
3.217336
 31
0.0
 12
6.50692
 22
3.337336
 32
0.0
 13
6.50692
 23
3.337336
 33
0.0
  0
MTEXT
  5
2F3
330
2EB
100
AcDbEntity
  8
Dimensions
440
 16777216
100
AcDbMText
 10
6.50692
 20
3.556086
 30
0.0
 40
0.12
 41
0.0
 46
0.0
 71
     5
 72
     1
  1
\A1;{\H1x;\S1/2;}in
 73
     1
 44
1.0
  0
POINT
  5
2F4
330
2EB
100
AcDbEntity
  8
Defpoints
 62
     0
440
 16777216
100
AcDbPoint
 10
7.9868
 20
3.774836
 30
0.0
  0
POINT
  5
2F5
330
2EB
100
AcDbEntity
  8
Defpoints
 62
     0
440
 16777216
100
AcDbPoint
 10
7.9725
 20
3.337336
 30
0.0
  0
POINT
  5
2F6
330
2EB
100
AcDbEntity
  8
Defpoints
 62
     0
440
 16777216
100
AcDbPoint
 10
6.50692
 20
3.337336
 30
0.0
  0
ENDBLK
  5
2F7
330
2EB
100
AcDbEntity
  8
0
100
AcDbBlockEnd
  0
BLOCK
  5
2FA
330
2F9
100
AcDbEntity
  8
0
100
AcDbBlockBegin
  2
*D20
 70
     1
 10
0.0
 20
0.0
 30
0.0
  3
*D20
  1

  0
LINE
  5
2FB
330
2F9
100
AcDbEntity
  8
Dimensions
440
 16777216
370
    -2
100
AcDbLine
 10
7.9225
 20
3.337336
 30
0.0
 11
6.807819
 21
3.337336
 31
0.0
  0
LINE
  5
2FC
330
2F9
100
AcDbEntity
  8
Dimensions
440
 16777216
370
    -2
100
AcDbLine
 10
7.075
 20
3.024836
 30
0.0
 11
6.807819
 21
3.024836
 31
0.0
  0
LINE
  5
2FD
330
2F9
100
AcDbEntity
  8
Dimensions
440
 16777216
370
    -2
100
AcDbLine
 10
6.907819
 20
3.457336
 30
0.0
 11
6.907819
 21
3.577336
 31
0.0
  0
LINE
  5
2FE
330
2F9
100
AcDbEntity
  8
Dimensions
440
 16777216
370
    -2
100
AcDbLine
 10
6.907819
 20
2.904836
 30
0.0
 11
6.907819
 21
2.784836
 31
0.0
  0
SOLID
  5
2FF
330
2F9
100
AcDbEntity
  8
Dimensions
440
 16777216
100
AcDbTrace
 10
6.887819
 20
3.457336
 30
0.0
 11
6.927819
 21
3.457336
 31
0.0
 12
6.907819
 22
3.337336
 32
0.0
 13
6.907819
 23
3.337336
 33
0.0
  0
SOLID
  5
300
330
2F9
100
AcDbEntity
  8
Dimensions
440
 16777216
100
AcDbTrace
 10
6.887819
 20
2.904836
 30
0.0
 11
6.927819
 21
2.904836
 31
0.0
 12
6.907819
 22
3.024836
 32
0.0
 13
6.907819
 23
3.024836
 33
0.0
  0
MTEXT
  5
301
330
2F9
100
AcDbEntity
  8
Dimensions
440
 16777216
100
AcDbMText
 10
6.907819
 20
3.181086
 30
0.0
 40
0.12
 41
0.0
 46
0.0
 71
     5
 72
     1
  1
\A1;{\H1x;\S3/8;}in
 73
     1
 44
1.0
  0
POINT
  5
302
330
2F9
100
AcDbEntity
  8
Defpoints
 62
     0
440
 16777216
100
AcDbPoint
 10
7.9725
 20
3.337336
 30
0.0
  0
POINT
  5
303
330
2F9
100
AcDbEntity
  8
Defpoints
 62
     0
440
 16777216
100
AcDbPoint
 10
7.125
 20
3.024836
 30
0.0
  0
POINT
  5
304
330
2F9
100
AcDbEntity
  8
Defpoints
 62
     0
440
 16777216
100
AcDbPoint
 10
6.907819
 20
3.024836
 30
0.0
  0
ENDBLK
  5
305
330
2F9
100
AcDbEntity
  8
0
100
AcDbBlockEnd
  0
BLOCK
  5
311
330
310
100
AcDbEntity
  8
0
100
AcDbBlockBegin
  2
*D22
 70
     1
 10
0.0
 20
0.0
 30
0.0
  3
*D22
  1

  0
LINE
  5
73A
330
310
100
AcDbEntity
  8
Dimensions
440
 16777216
370
    -2
100
AcDbLine
 10
2.5
 20
9.328717
 30
0.0
 11
2.5
 21
10.05754
 31
0.0
  0
LINE
  5
73B
330
310
100
AcDbEntity
  8
Dimensions
440
 16777216
370
    -2
100
AcDbLine
 10
14.5
 20
9.328717
 30
0.0
 11
14.5
 21
10.05754
 31
0.0
  0
LINE
  5
73C
330
310
100
AcDbEntity
  8
Dimensions
440
 16777216
370
    -2
100
AcDbLine
 10
2.62
 20
9.95754
 30
0.0
 11
8.249809
 21
9.95754
 31
0.0
  0
LINE
  5
73D
330
310
100
AcDbEntity
  8
Dimensions
440
 16777216
370
    -2
100
AcDbLine
 10
14.38
 20
9.95754
 30
0.0
 11
8.750191
 21
9.95754
 31
0.0
  0
SOLID
  5
73E
330
310
100
AcDbEntity
  8
Dimensions
440
 16777216
100
AcDbTrace
 10
2.62
 20
9.97754
 30
0.0
 11
2.62
 21
9.93754
 31
0.0
 12
2.5
 22
9.95754
 32
0.0
 13
2.5
 23
9.95754
 33
0.0
  0
SOLID
  5
73F
330
310
100
AcDbEntity
  8
Dimensions
440
 16777216
100
AcDbTrace
 10
14.38
 20
9.97754
 30
0.0
 11
14.38
 21
9.93754
 31
0.0
 12
14.5
 22
9.95754
 32
0.0
 13
14.5
 23
9.95754
 33
0.0
  0
MTEXT
  5
740
330
310
100
AcDbEntity
  8
Dimensions
440
 16777216
100
AcDbMText
 10
8.5
 20
9.95754
 30
0.0
 40
0.12
 41
0.0
 46
0.0
 71
     5
 72
     1
  1
\A1;120in
 73
     1
 44
1.0
  0
POINT
  5
741
330
310
100
AcDbEntity
  8
Defpoints
 62
     0
440
 16777216
100
AcDbPoint
 10
2.5
 20
9.278717
 30
0.0
  0
POINT
  5
742
330
310
100
AcDbEntity
  8
Defpoints
 62
     0
440
 16777216
100
AcDbPoint
 10
14.5
 20
9.278717
 30
0.0
  0
POINT
  5
743
330
310
100
AcDbEntity
  8
Defpoints
 62
     0
440
 16777216
100
AcDbPoint
 10
14.5
 20
9.95754
 30
0.0
  0
ENDBLK
  5
312
330
310
100
AcDbEntity
  8
0
100
AcDbBlockEnd
  0
BLOCK
  5
31E
330
31D
100
AcDbEntity
  8
0
100
AcDbBlockBegin
  2
*D23
 70
     1
 10
0.0
 20
0.0
 30
0.0
  3
*D23
  1

  0
LINE
  5
744
330
31D
100
AcDbEntity
  8
Dimensions
440
 16777216
370
    -2
100
AcDbLine
 10
14.5
 20
9.328717
 30
0.0
 11
14.5
 21
9.564719
 31
0.0
  0
LINE
  5
745
330
31D
100
AcDbEntity
  8
Dimensions
440
 16777216
370
    -2
100
AcDbLine
 10
13.9
 20
9.191217
 30
0.0
 11
13.9
 21
9.564719
 31
0.0
  0
LINE
  5
746
330
31D
100
AcDbEntity
  8
Dimensions
440
 16777216
370
    -2
100
AcDbLine
 10
14.38
 20
9.464719
 30
0.0
 11
14.374839
 21
9.464719
 31
0.0
  0
LINE
  5
747
330
31D
100
AcDbEntity
  8
Dimensions
440
 16777216
370
    -2
100
AcDbLine
 10
14.02
 20
9.464719
 30
0.0
 11
14.048973
 21
9.464719
 31
0.0
  0
SOLID
  5
748
330
31D
100
AcDbEntity
  8
Dimensions
440
 16777216
100
AcDbTrace
 10
14.38
 20
9.484719
 30
0.0
 11
14.38
 21
9.444719
 31
0.0
 12
14.5
 22
9.464719
 32
0.0
 13
14.5
 23
9.464719
 33
0.0
  0
SOLID
  5
749
330
31D
100
AcDbEntity
  8
Dimensions
440
 16777216
100
AcDbTrace
 10
14.02
 20
9.484719
 30
0.0
 11
14.02
 21
9.444719
 31
0.0
 12
13.9
 22
9.464719
 32
0.0
 13
13.9
 23
9.464719
 33
0.0
  0
MTEXT
  5
74A
330
31D
100
AcDbEntity
  8
Dimensions
440
 16777216
100
AcDbMText
 10
14.211906
 20
9.464719
 30
0.0
 40
0.12
 41
0.0
 46
0.0
 71
     5
 72
     1
  1
\A1;6in
 73
     1
 44
1.0
  0
POINT
  5
74B
330
31D
100
AcDbEntity
  8
Defpoints
 62
     0
440
 16777216
100
AcDbPoint
 10
14.5
 20
9.278717
 30
0.0
  0
POINT
  5
74C
330
31D
100
AcDbEntity
  8
Defpoints
 62
     0
440
 16777216
100
AcDbPoint
 10
13.9
 20
9.141217
 30
0.0
  0
POINT
  5
74D
330
31D
100
AcDbEntity
  8
Defpoints
 62
     0
440
 16777216
100
AcDbPoint
 10
13.9
 20
9.464719
 30
0.0
  0
ENDBLK
  5
31F
330
31D
100
AcDbEntity
  8
0
100
AcDbBlockEnd
  0
BLOCK
  5
32B
330
32A
100
AcDbEntity
  8
0
100
AcDbBlockBegin
  2
*D24
 70
     1
 10
0.0
 20
0.0
 30
0.0
  3
*D24
  1

  0
LINE
  5
74E
330
32A
100
AcDbEntity
  8
Dimensions
440
 16777216
370
    -2
100
AcDbLine
 10
13.900001
 20
9.191219
 30
0.0
 11
13.900001
 21
9.77402
 31
0.0
  0
LINE
  5
74F
330
32A
100
AcDbEntity
  8
Dimensions
440
 16777216
370
    -2
100
AcDbLine
 10
12.700001
 20
9.191219
 30
0.0
 11
12.700001
 21
9.77402
 31
0.0
  0
LINE
  5
750
330
32A
100
AcDbEntity
  8
Dimensions
440
 16777216
370
    -2
100
AcDbLine
 10
13.780001
 20
9.67402
 30
0.0
 11
13.503576
 21
9.67402
 31
0.0
  0
LINE
  5
751
330
32A
100
AcDbEntity
  8
Dimensions
440
 16777216
370
    -2
100
AcDbLine
 10
12.820001
 20
9.67402
 30
0.0
 11
13.096427
 21
9.67402
 31
0.0
  0
SOLID
  5
752
330
32A
100
AcDbEntity
  8
Dimensions
440
 16777216
100
AcDbTrace
 10
13.780001
 20
9.69402
 30
0.0
 11
13.780001
 21
9.65402
 31
0.0
 12
13.900001
 22
9.67402
 32
0.0
 13
13.900001
 23
9.67402
 33
0.0
  0
SOLID
  5
753
330
32A
100
AcDbEntity
  8
Dimensions
440
 16777216
100
AcDbTrace
 10
12.820001
 20
9.69402
 30
0.0
 11
12.820001
 21
9.65402
 31
0.0
 12
12.700001
 22
9.67402
 32
0.0
 13
12.700001
 23
9.67402
 33
0.0
  0
MTEXT
  5
754
330
32A
100
AcDbEntity
  8
Dimensions
440
 16777216
100
AcDbMText
 10
13.300001
 20
9.67402
 30
0.0
 40
0.12
 41
0.0
 46
0.0
 71
     5
 72
     1
  1
\A1;12in
 73
     1
 44
1.0
  0
POINT
  5
755
330
32A
100
AcDbEntity
  8
Defpoints
 62
     0
440
 16777216
100
AcDbPoint
 10
13.900001
 20
9.141219
 30
0.0
  0
POINT
  5
756
330
32A
100
AcDbEntity
  8
Defpoints
 62
     0
440
 16777216
100
AcDbPoint
 10
12.700001
 20
9.141219
 30
0.0
  0
POINT
  5
757
330
32A
100
AcDbEntity
  8
Defpoints
 62
     0
440
 16777216
100
AcDbPoint
 10
12.700001
 20
9.67402
 30
0.0
  0
ENDBLK
  5
32C
330
32A
100
AcDbEntity
  8
0
100
AcDbBlockEnd
  0
BLOCK
  5
338
330
337
100
AcDbEntity
  8
0
100
AcDbBlockBegin
  2
*D25
 70
     1
 10
0.0
 20
0.0
 30
0.0
  3
*D25
  1

  0
LINE
  5
758
330
337
100
AcDbEntity
  8
Dimensions
440
 16777216
370
    -2
100
AcDbLine
 10
3.100001
 20
9.191219
 30
0.0
 11
3.100001
 21
9.555866
 31
0.0
  0
LINE
  5
759
330
337
100
AcDbEntity
  8
Dimensions
440
 16777216
370
    -2
100
AcDbLine
 10
2.5
 20
9.328717
 30
0.0
 11
2.5
 21
9.555866
 31
0.0
  0
LINE
  5
75A
330
337
100
AcDbEntity
  8
Dimensions
440
 16777216
370
    -2
100
AcDbLine
 10
2.980001
 20
9.455866
 30
0.0
 11
2.963644
 21
9.455866
 31
0.0
  0
LINE
  5
75B
330
337
100
AcDbEntity
  8
Dimensions
440
 16777216
370
    -2
100
AcDbLine
 10
2.62
 20
9.455866
 30
0.0
 11
2.637778
 21
9.455866
 31
0.0
  0
SOLID
  5
75C
330
337
100
AcDbEntity
  8
Dimensions
440
 16777216
100
AcDbTrace
 10
2.980001
 20
9.475866
 30
0.0
 11
2.980001
 21
9.435866
 31
0.0
 12
3.100001
 22
9.455866
 32
0.0
 13
3.100001
 23
9.455866
 33
0.0
  0
SOLID
  5
75D
330
337
100
AcDbEntity
  8
Dimensions
440
 16777216
100
AcDbTrace
 10
2.62
 20
9.475866
 30
0.0
 11
2.62
 21
9.435866
 31
0.0
 12
2.5
 22
9.455866
 32
0.0
 13
2.5
 23
9.455866
 33
0.0
  0
MTEXT
  5
75E
330
337
100
AcDbEntity
  8
Dimensions
440
 16777216
100
AcDbMText
 10
2.800711
 20
9.455866
 30
0.0
 40
0.12
 41
0.0
 46
0.0
 71
     5
 72
     1
  1
\A1;6in
 73
     1
 44
1.0
  0
POINT
  5
75F
330
337
100
AcDbEntity
  8
Defpoints
 62
     0
440
 16777216
100
AcDbPoint
 10
3.100001
 20
9.141219
 30
0.0
  0
POINT
  5
760
330
337
100
AcDbEntity
  8
Defpoints
 62
     0
440
 16777216
100
AcDbPoint
 10
2.5
 20
9.278717
 30
0.0
  0
POINT
  5
761
330
337
100
AcDbEntity
  8
Defpoints
 62
     0
440
 16777216
100
AcDbPoint
 10
2.5
 20
9.455866
 30
0.0
  0
ENDBLK
  5
339
330
337
100
AcDbEntity
  8
0
100
AcDbBlockEnd
  0
BLOCK
  5
345
330
344
100
AcDbEntity
  8
0
100
AcDbBlockBegin
  2
*D26
 70
     1
 10
0.0
 20
0.0
 30
0.0
  3
*D26
  1

  0
LINE
  5
762
330
344
100
AcDbEntity
  8
Dimensions
440
 16777216
370
    -2
100
AcDbLine
 10
3.100001
 20
9.191219
 30
0.0
 11
3.100002
 21
9.788415
 31
0.0
  0
LINE
  5
763
330
344
100
AcDbEntity
  8
Dimensions
440
 16777216
370
    -2
100
AcDbLine
 10
4.3
 20
9.191217
 30
0.0
 11
4.300001
 21
9.788414
 31
0.0
  0
LINE
  5
764
330
344
100
AcDbEntity
  8
Dimensions
440
 16777216
370
    -2
100
AcDbLine
 10
3.220002
 20
9.688415
 30
0.0
 11
3.496427
 21
9.688415
 31
0.0
  0
LINE
  5
765
330
344
100
AcDbEntity
  8
Dimensions
440
 16777216
370
    -2
100
AcDbLine
 10
4.180001
 20
9.688414
 30
0.0
 11
3.903576
 21
9.688414
 31
0.0
  0
SOLID
  5
766
330
344
100
AcDbEntity
  8
Dimensions
440
 16777216
100
AcDbTrace
 10
3.220002
 20
9.708415
 30
0.0
 11
3.220002
 21
9.668415
 31
0.0
 12
3.100002
 22
9.688415
 32
0.0
 13
3.100002
 23
9.688415
 33
0.0
  0
SOLID
  5
767
330
344
100
AcDbEntity
  8
Dimensions
440
 16777216
100
AcDbTrace
 10
4.180001
 20
9.708414
 30
0.0
 11
4.180001
 21
9.668414
 31
0.0
 12
4.300001
 22
9.688414
 32
0.0
 13
4.300001
 23
9.688414
 33
0.0
  0
MTEXT
  5
768
330
344
100
AcDbEntity
  8
Dimensions
440
 16777216
100
AcDbMText
 10
3.700001
 20
9.688414
 30
0.0
 40
0.12
 41
0.0
 46
0.0
 71
     5
 72
     1
  1
\A1;12in
 73
     1
 44
1.0
  0
POINT
  5
769
330
344
100
AcDbEntity
  8
Defpoints
 62
     0
440
 16777216
100
AcDbPoint
 10
3.100001
 20
9.141219
 30
0.0
  0
POINT
  5
76A
330
344
100
AcDbEntity
  8
Defpoints
 62
     0
440
 16777216
100
AcDbPoint
 10
4.3
 20
9.141217
 30
0.0
  0
POINT
  5
76B
330
344
100
AcDbEntity
  8
Defpoints
 62
     0
440
 16777216
100
AcDbPoint
 10
4.300001
 20
9.688414
 30
0.0
  0
ENDBLK
  5
346
330
344
100
AcDbEntity
  8
0
100
AcDbBlockEnd
  0
BLOCK
  5
352
330
351
100
AcDbEntity
  8
0
100
AcDbBlockBegin
  2
*D27
 70
     1
 10
0.0
 20
0.0
 30
0.0
  3
*D27
  1

  0
LINE
  5
76C
330
351
100
AcDbEntity
  8
Dimensions
440
 16777216
370
    -2
100
AcDbLine
 10
7.937486
 20
3.850661
 30
0.0
 11
7.937555
 21
5.557576
 31
0.0
  0
LINE
  5
76D
330
351
100
AcDbEntity
  8
Dimensions
440
 16777216
370
    -2
100
AcDbLine
 10
9.062486
 20
3.850616
 30
0.0
 11
9.062555
 21
5.557531
 31
0.0
  0
LINE
  5
76E
330
351
100
AcDbEntity
  8
Dimensions
440
 16777216
370
    -2
100
AcDbLine
 10
8.057551
 20
5.457572
 30
0.0
 11
8.287246
 21
5.457562
 31
0.0
  0
LINE
  5
76F
330
351
100
AcDbEntity
  8
Dimensions
440
 16777216
370
    -2
100
AcDbLine
 10
8.942551
 20
5.457536
 30
0.0
 11
8.688255
 21
5.457546
 31
0.0
  0
SOLID
  5
770
330
351
100
AcDbEntity
  8
Dimensions
440
 16777216
100
AcDbTrace
 10
8.057551
 20
5.477572
 30
0.0
 11
8.05755
 21
5.437572
 31
0.0
 12
7.937551
 22
5.457576
 32
0.0
 13
7.937551
 23
5.457576
 33
0.0
  0
SOLID
  5
771
330
351
100
AcDbEntity
  8
Dimensions
440
 16777216
100
AcDbTrace
 10
8.942551
 20
5.477536
 30
0.0
 11
8.94255
 21
5.437536
 31
0.0
 12
9.062551
 22
5.457531
 32
0.0
 13
9.062551
 23
5.457531
 33
0.0
  0
MTEXT
  5
772
330
351
100
AcDbEntity
  8
Dimensions
440
 16777216
100
AcDbMText
 10
8.48775
 20
5.457554
 30
0.0
 40
0.12
 41
0.0
 46
0.0
 71
     5
 72
     1
  1
\A1;1{\H1x;\S1/8;}in
 73
     1
 44
1.0
  0
POINT
  5
773
330
351
100
AcDbEntity
  8
Defpoints
 62
     0
440
 16777216
100
AcDbPoint
 10
7.937484
 20
3.800661
 30
0.0
  0
POINT
  5
774
330
351
100
AcDbEntity
  8
Defpoints
 62
     0
440
 16777216
100
AcDbPoint
 10
9.062484
 20
3.800616
 30
0.0
  0
POINT
  5
775
330
351
100
AcDbEntity
  8
Defpoints
 62
     0
440
 16777216
100
AcDbPoint
 10
9.062551
 20
5.457531
 30
0.0
  0
ENDBLK
  5
353
330
351
100
AcDbEntity
  8
0
100
AcDbBlockEnd
  0
BLOCK
  5
35F
330
35E
100
AcDbEntity
  8
0
100
AcDbBlockBegin
  2
*D28
 70
     1
 10
0.0
 20
0.0
 30
0.0
  3
*D28
  1

  0
LINE
  5
776
330
35E
100
AcDbEntity
  8
Dimensions
440
 16777216
370
    -2
100
AcDbLine
 10
8.1875
 20
3.387336
 30
0.0
 11
8.1875
 21
4.632055
 31
0.0
  0
LINE
  5
777
330
35E
100
AcDbEntity
  8
Dimensions
440
 16777216
370
    -2
100
AcDbLine
 10
8.8125
 20
3.387336
 30
0.0
 11
8.8125
 21
4.632055
 31
0.0
  0
LINE
  5
778
330
35E
100
AcDbEntity
  8
Dimensions
440
 16777216
370
    -2
100
AcDbLine
 10
8.3075
 20
4.532055
 30
0.0
 11
8.336739
 21
4.532055
 31
0.0
  0
LINE
  5
779
330
35E
100
AcDbEntity
  8
Dimensions
440
 16777216
370
    -2
100
AcDbLine
 10
8.6925
 20
4.532055
 30
0.0
 11
8.663261
 21
4.532055
 31
0.0
  0
SOLID
  5
77A
330
35E
100
AcDbEntity
  8
Dimensions
440
 16777216
100
AcDbTrace
 10
8.3075
 20
4.552055
 30
0.0
 11
8.3075
 21
4.512055
 31
0.0
 12
8.1875
 22
4.532055
 32
0.0
 13
8.1875
 23
4.532055
 33
0.0
  0
SOLID
  5
77B
330
35E
100
AcDbEntity
  8
Dimensions
440
 16777216
100
AcDbTrace
 10
8.6925
 20
4.552055
 30
0.0
 11
8.6925
 21
4.512055
 31
0.0
 12
8.8125
 22
4.532055
 32
0.0
 13
8.8125
 23
4.532055
 33
0.0
  0
MTEXT
  5
77C
330
35E
100
AcDbEntity
  8
Dimensions
440
 16777216
100
AcDbMText
 10
8.5
 20
4.532055
 30
0.0
 40
0.12
 41
0.0
 46
0.0
 71
     5
 72
     1
  1
\A1;{\H1x;\S5/8;}in
 73
     1
 44
1.0
  0
POINT
  5
77D
330
35E
100
AcDbEntity
  8
Defpoints
 62
     0
440
 16777216
100
AcDbPoint
 10
8.1875
 20
3.337336
 30
0.0
  0
POINT
  5
77E
330
35E
100
AcDbEntity
  8
Defpoints
 62
     0
440
 16777216
100
AcDbPoint
 10
8.8125
 20
3.337336
 30
0.0
  0
POINT
  5
77F
330
35E
100
AcDbEntity
  8
Defpoints
 62
     0
440
 16777216
100
AcDbPoint
 10
8.8125
 20
4.532055
 30
0.0
  0
ENDBLK
  5
360
330
35E
100
AcDbEntity
  8
0
100
AcDbBlockEnd
  0
BLOCK
  5
36C
330
36B
100
AcDbEntity
  8
0
100
AcDbBlockBegin
  2
*D29
 70
     1
 10
0.0
 20
0.0
 30
0.0
  3
*D29
  1

  0
LINE
  5
780
330
36B
100
AcDbEntity
  8
Dimensions
440
 16777216
370
    -2
100
AcDbLine
 10
7.125
 20
2.974836
 30
0.0
 11
7.125
 21
1.954671
 31
0.0
  0
LINE
  5
781
330
36B
100
AcDbEntity
  8
Dimensions
440
 16777216
370
    -2
100
AcDbLine
 10
9.875
 20
2.974836
 30
0.0
 11
9.875
 21
1.954671
 31
0.0
  0
LINE
  5
782
330
36B
100
AcDbEntity
  8
Dimensions
440
 16777216
370
    -2
100
AcDbLine
 10
7.245
 20
2.054671
 30
0.0
 11
8.290859
 21
2.054671
 31
0.0
  0
LINE
  5
783
330
36B
100
AcDbEntity
  8
Dimensions
440
 16777216
370
    -2
100
AcDbLine
 10
9.755
 20
2.054671
 30
0.0
 11
8.709141
 21
2.054671
 31
0.0
  0
SOLID
  5
784
330
36B
100
AcDbEntity
  8
Dimensions
440
 16777216
100
AcDbTrace
 10
7.245
 20
2.074671
 30
0.0
 11
7.245
 21
2.034671
 31
0.0
 12
7.125
 22
2.054671
 32
0.0
 13
7.125
 23
2.054671
 33
0.0
  0
SOLID
  5
785
330
36B
100
AcDbEntity
  8
Dimensions
440
 16777216
100
AcDbTrace
 10
9.755
 20
2.074671
 30
0.0
 11
9.755
 21
2.034671
 31
0.0
 12
9.875
 22
2.054671
 32
0.0
 13
9.875
 23
2.054671
 33
0.0
  0
MTEXT
  5
786
330
36B
100
AcDbEntity
  8
Dimensions
440
 16777216
100
AcDbMText
 10
8.5
 20
2.054671
 30
0.0
 40
0.12
 41
0.0
 46
0.0
 71
     5
 72
     1
  1
\A1;2{\H1x;\S3/4;}in
 73
     1
 44
1.0
  0
POINT
  5
787
330
36B
100
AcDbEntity
  8
Defpoints
 62
     0
440
 16777216
100
AcDbPoint
 10
7.125
 20
3.024836
 30
0.0
  0
POINT
  5
788
330
36B
100
AcDbEntity
  8
Defpoints
 62
     0
440
 16777216
100
AcDbPoint
 10
9.875
 20
3.024836
 30
0.0
  0
POINT
  5
789
330
36B
100
AcDbEntity
  8
Defpoints
 62
     0
440
 16777216
100
AcDbPoint
 10
9.875
 20
2.054671
 30
0.0
  0
ENDBLK
  5
36D
330
36B
100
AcDbEntity
  8
0
100
AcDbBlockEnd
  0
BLOCK
  5
379
330
378
100
AcDbEntity
  8
0
100
AcDbBlockBegin
  2
*D30
 70
     1
 10
0.0
 20
0.0
 30
0.0
  3
*D30
  1

  0
LINE
  5
78A
330
378
100
AcDbEntity
  8
Dimensions
440
 16777216
370
    -2
100
AcDbLine
 10
7.075
 20
3.024836
 30
0.0
 11
5.736427
 21
3.024836
 31
0.0
  0
LINE
  5
78B
330
378
100
AcDbEntity
  8
Dimensions
440
 16777216
370
    -2
100
AcDbLine
 10
7.2
 20
7.149836
 30
0.0
 11
5.736427
 21
7.149836
 31
0.0
  0
LINE
  5
78C
330
378
100
AcDbEntity
  8
Dimensions
440
 16777216
370
    -2
100
AcDbLine
 10
5.836427
 20
3.144836
 30
0.0
 11
5.836427
 21
4.885822
 31
0.0
  0
LINE
  5
78D
330
378
100
AcDbEntity
  8
Dimensions
440
 16777216
370
    -2
100
AcDbLine
 10
5.836427
 20
7.029836
 30
0.0
 11
5.836427
 21
5.288851
 31
0.0
  0
SOLID
  5
78E
330
378
100
AcDbEntity
  8
Dimensions
440
 16777216
100
AcDbTrace
 10
5.816427
 20
3.144836
 30
0.0
 11
5.856427
 21
3.144836
 31
0.0
 12
5.836427
 22
3.024836
 32
0.0
 13
5.836427
 23
3.024836
 33
0.0
  0
SOLID
  5
78F
330
378
100
AcDbEntity
  8
Dimensions
440
 16777216
100
AcDbTrace
 10
5.816427
 20
7.029836
 30
0.0
 11
5.856427
 21
7.029836
 31
0.0
 12
5.836427
 22
7.149836
 32
0.0
 13
5.836427
 23
7.149836
 33
0.0
  0
MTEXT
  5
790
330
378
100
AcDbEntity
  8
Dimensions
440
 16777216
100
AcDbMText
 10
5.836427
 20
5.087336
 30
0.0
 40
0.12
 41
0.0
 46
0.0
 71
     5
 72
     1
  1
\A1;4{\H1x;\S1/8;}in
 73
     1
 44
1.0
  0
POINT
  5
791
330
378
100
AcDbEntity
  8
Defpoints
 62
     0
440
 16777216
100
AcDbPoint
 10
7.125
 20
3.024836
 30
0.0
  0
POINT
  5
792
330
378
100
AcDbEntity
  8
Defpoints
 62
     0
440
 16777216
100
AcDbPoint
 10
7.25
 20
7.149836
 30
0.0
  0
POINT
  5
793
330
378
100
AcDbEntity
  8
Defpoints
 62
     0
440
 16777216
100
AcDbPoint
 10
5.836427
 20
7.149836
 30
0.0
  0
ENDBLK
  5
37A
330
378
100
AcDbEntity
  8
0
100
AcDbBlockEnd
  0
BLOCK
  5
386
330
385
100
AcDbEntity
  8
0
100
AcDbBlockBegin
  2
*D31
 70
     1
 10
0.0
 20
0.0
 30
0.0
  3
*D31
  1

  0
LINE
  5
794
330
385
100
AcDbEntity
  8
Dimensions
440
 16777216
370
    -2
100
AcDbLine
 10
2.844118
 20
6.947589
 30
0.0
 11
2.964118
 21
6.947589
 31
0.0
  0
LINE
  5
795
330
385
100
AcDbEntity
  8
Dimensions
440
 16777216
370
    -2
100
AcDbLine
 10
2.964118
 20
6.947589
 30
0.0
 11
3.482964
 21
5.862326
 31
0.0
  0
MTEXT
  5
796
330
385
100
AcDbEntity
  8
Dimensions
440
 16777216
100
AcDbMText
 10
2.572686
 20
6.947589
 30
0.0
 40
0.12
 41
0.0
 46
0.0
 71
     5
 72
     1
  1
\A1;∅1{\H1x;\S1/8;}in
 73
     1
 44
1.0
  0
SOLID
  5
797
330
385
100
AcDbEntity
  8
Dimensions
440
 16777216
100
AcDbTrace
 10
3.501008
 20
5.870953
 30
0.0
 11
3.46492
 21
5.8537
 31
0.0
 12
3.534723
 22
5.754063
 32
0.0
 13
3.534723
 23
5.754063
 33
0.0
  0
ARC
  5
798
330
385
100
AcDbEntity
  8
Dimensions
440
 16777216
370
    -2
100
AcDbCircle
 10
3.777343
 20
5.246577
 30
0.0
 40
0.5624999999999972
100
AcDbArc
 50
105.365739
 51
199.078025
  0
POINT
  5
799
330
385
100
AcDbEntity
  8
Defpoints
 62
     0
440
 16777216
100
AcDbPoint
 10
3.534723
 20
5.754063
 30
0.0
  0
POINT
  5
79A
330
385
100
AcDbEntity
  8
Defpoints
 62
     0
440
 16777216
100
AcDbPoint
 10
4.019963
 20
4.739091
 30
0.0
  0
ENDBLK
  5
387
330
385
100
AcDbEntity
  8
0
100
AcDbBlockEnd
  0
BLOCK
  5
390
330
38F
100
AcDbEntity
  8
0
100
AcDbBlockBegin
  2
*D32
 70
     1
 10
0.0
 20
0.0
 30
0.0
  3
*D32
  1

  0
LINE
  5
79B
330
38F
100
AcDbEntity
  8
Dimensions
440
 16777216
370
    -2
100
AcDbLine
 10
2.897499
 20
5.636613
 30
0.0
 11
3.017499
 21
5.636613
 31
0.0
  0
LINE
  5
79C
330
38F
100
AcDbEntity
  8
Dimensions
440
 16777216
370
    -2
100
AcDbLine
 10
3.017499
 20
5.636613
 30
0.0
 11
3.392564
 21
5.444077
 31
0.0
  0
MTEXT
  5
79D
330
38F
100
AcDbEntity
  8
Dimensions
440
 16777216
100
AcDbMText
 10
2.672438
 20
5.636613
 30
0.0
 40
0.12
 41
0.0
 46
0.0
 71
     5
 72
     1
  1
\A1;∅{\H1x;\S5/8;}in
 73
     1
 44
1.0
  0
SOLID
  5
79E
330
38F
100
AcDbEntity
  8
Dimensions
440
 16777216
100
AcDbTrace
 10
3.401698
 20
5.461869
 30
0.0
 11
3.38343
 21
5.426284
 31
0.0
 12
3.49932
 22
5.389275
 32
0.0
 13
3.49932
 23
5.389275
 33
0.0
  0
POINT
  5
79F
330
38F
100
AcDbEntity
  8
Defpoints
 62
     0
440
 16777216
100
AcDbPoint
 10
3.49932
 20
5.389275
 30
0.0
  0
POINT
  5
7A0
330
38F
100
AcDbEntity
  8
Defpoints
 62
     0
440
 16777216
100
AcDbPoint
 10
4.055338
 20
5.103848
 30
0.0
  0
ENDBLK
  5
391
330
38F
100
AcDbEntity
  8
0
100
AcDbBlockEnd
  0
BLOCK
  5
399
330
398
100
AcDbEntity
  8
0
100
AcDbBlockBegin
  2
*D33
 70
     1
 10
0.0
 20
0.0
 30
0.0
  3
*D33
  1

  0
LINE
  5
7A1
330
398
100
AcDbEntity
  8
Dimensions
440
 16777216
370
    -2
100
AcDbLine
 10
7.535
 20
6.639836
 30
0.0
 11
7.535
 21
6.915402
 31
0.0
  0
LINE
  5
7A2
330
398
100
AcDbEntity
  8
Dimensions
440
 16777216
370
    -2
100
AcDbLine
 10
9.465
 20
6.639836
 30
0.0
 11
9.465
 21
6.915402
 31
0.0
  0
LINE
  5
7A3
330
398
100
AcDbEntity
  8
Dimensions
440
 16777216
370
    -2
100
AcDbLine
 10
7.655
 20
6.815402
 30
0.0
 11
8.258281
 21
6.815402
 31
0.0
  0
LINE
  5
7A4
330
398
100
AcDbEntity
  8
Dimensions
440
 16777216
370
    -2
100
AcDbLine
 10
9.345
 20
6.815402
 30
0.0
 11
8.741719
 21
6.815402
 31
0.0
  0
SOLID
  5
7A5
330
398
100
AcDbEntity
  8
Dimensions
440
 16777216
100
AcDbTrace
 10
7.655
 20
6.835402
 30
0.0
 11
7.655
 21
6.795402
 31
0.0
 12
7.535
 22
6.815402
 32
0.0
 13
7.535
 23
6.815402
 33
0.0
  0
SOLID
  5
7A6
330
398
100
AcDbEntity
  8
Dimensions
440
 16777216
100
AcDbTrace
 10
9.345
 20
6.835402
 30
0.0
 11
9.345
 21
6.795402
 31
0.0
 12
9.465
 22
6.815402
 32
0.0
 13
9.465
 23
6.815402
 33
0.0
  0
MTEXT
  5
7A7
330
398
100
AcDbEntity
  8
Dimensions
440
 16777216
100
AcDbMText
 10
8.5
 20
6.815402
 30
0.0
 40
0.12
 41
0.0
 46
0.0
 71
     5
 72
     1
  1
\A1;1{\H1x;\S15/16;}in
 73
     1
 44
1.0
  0
POINT
  5
7A8
330
398
100
AcDbEntity
  8
Defpoints
 62
     0
440
 16777216
100
AcDbPoint
 10
7.535
 20
6.589836
 30
0.0
  0
POINT
  5
7A9
330
398
100
AcDbEntity
  8
Defpoints
 62
     0
440
 16777216
100
AcDbPoint
 10
9.465
 20
6.589836
 30
0.0
  0
POINT
  5
7AA
330
398
100
AcDbEntity
  8
Defpoints
 62
     0
440
 16777216
100
AcDbPoint
 10
9.465
 20
6.815402
 30
0.0
  0
ENDBLK
  5
39A
330
398
100
AcDbEntity
  8
0
100
AcDbBlockEnd
  0
BLOCK
  5
3A6
330
3A5
100
AcDbEntity
  8
0
100
AcDbBlockBegin
  2
*D34
 70
     1
 10
0.0
 20
0.0
 30
0.0
  3
*D34
  1

  0
LINE
  5
7AB
330
3A5
100
AcDbEntity
  8
Dimensions
440
 16777216
370
    -2
100
AcDbLine
 10
7.9368
 20
3.774836
 30
0.0
 11
6.032527
 21
3.774836
 31
0.0
  0
LINE
  5
7AC
330
3A5
100
AcDbEntity
  8
Dimensions
440
 16777216
370
    -2
100
AcDbLine
 10
7.075
 20
3.024836
 30
0.0
 11
6.032527
 21
3.024836
 31
0.0
  0
LINE
  5
7AD
330
3A5
100
AcDbEntity
  8
Dimensions
440
 16777216
370
    -2
100
AcDbLine
 10
6.132527
 20
3.894836
 30
0.0
 11
6.132527
 21
4.014836
 31
0.0
  0
LINE
  5
7AE
330
3A5
100
AcDbEntity
  8
Dimensions
440
 16777216
370
    -2
100
AcDbLine
 10
6.132527
 20
2.904836
 30
0.0
 11
6.132527
 21
2.784836
 31
0.0
  0
SOLID
  5
7AF
330
3A5
100
AcDbEntity
  8
Dimensions
440
 16777216
100
AcDbTrace
 10
6.112527
 20
3.894836
 30
0.0
 11
6.152527
 21
3.894836
 31
0.0
 12
6.132527
 22
3.774836
 32
0.0
 13
6.132527
 23
3.774836
 33
0.0
  0
SOLID
  5
7B0
330
3A5
100
AcDbEntity
  8
Dimensions
440
 16777216
100
AcDbTrace
 10
6.112527
 20
2.904836
 30
0.0
 11
6.152527
 21
2.904836
 31
0.0
 12
6.132527
 22
3.024836
 32
0.0
 13
6.132527
 23
3.024836
 33
0.0
  0
MTEXT
  5
7B1
330
3A5
100
AcDbEntity
  8
Dimensions
440
 16777216
100
AcDbMText
 10
6.132527
 20
3.399836
 30
0.0
 40
0.12
 41
0.0
 46
0.0
 71
     5
 72
     1
  1
\A1;{\H1x;\S3/4;}in
 73
     1
 44
1.0
  0
POINT
  5
7B2
330
3A5
100
AcDbEntity
  8
Defpoints
 62
     0
440
 16777216
100
AcDbPoint
 10
7.9868
 20
3.774836
 30
0.0
  0
POINT
  5
7B3
330
3A5
100
AcDbEntity
  8
Defpoints
 62
     0
440
 16777216
100
AcDbPoint
 10
7.125
 20
3.024836
 30
0.0
  0
POINT
  5
7B4
330
3A5
100
AcDbEntity
  8
Defpoints
 62
     0
440
 16777216
100
AcDbPoint
 10
6.132527
 20
3.024836
 30
0.0
  0
ENDBLK
  5
3A7
330
3A5
100
AcDbEntity
  8
0
100
AcDbBlockEnd
  0
BLOCK
  5
3B3
330
3B2
100
AcDbEntity
  8
0
100
AcDbBlockBegin
  2
*D35
 70
     1
 10
0.0
 20
0.0
 30
0.0
  3
*D35
  1

  0
LINE
  5
7B5
330
3B2
100
AcDbEntity
  8
Dimensions
440
 16777216
370
    -2
100
AcDbLine
 10
7.9368
 20
3.774836
 30
0.0
 11
6.40692
 21
3.774836
 31
0.0
  0
LINE
  5
7B6
330
3B2
100
AcDbEntity
  8
Dimensions
440
 16777216
370
    -2
100
AcDbLine
 10
7.9225
 20
3.337336
 30
0.0
 11
6.40692
 21
3.337336
 31
0.0
  0
LINE
  5
7B7
330
3B2
100
AcDbEntity
  8
Dimensions
440
 16777216
370
    -2
100
AcDbLine
 10
6.50692
 20
3.894836
 30
0.0
 11
6.50692
 21
4.014836
 31
0.0
  0
LINE
  5
7B8
330
3B2
100
AcDbEntity
  8
Dimensions
440
 16777216
370
    -2
100
AcDbLine
 10
6.50692
 20
3.217336
 30
0.0
 11
6.50692
 21
3.097336
 31
0.0
  0
SOLID
  5
7B9
330
3B2
100
AcDbEntity
  8
Dimensions
440
 16777216
100
AcDbTrace
 10
6.48692
 20
3.894836
 30
0.0
 11
6.52692
 21
3.894836
 31
0.0
 12
6.50692
 22
3.774836
 32
0.0
 13
6.50692
 23
3.774836
 33
0.0
  0
SOLID
  5
7BA
330
3B2
100
AcDbEntity
  8
Dimensions
440
 16777216
100
AcDbTrace
 10
6.48692
 20
3.217336
 30
0.0
 11
6.52692
 21
3.217336
 31
0.0
 12
6.50692
 22
3.337336
 32
0.0
 13
6.50692
 23
3.337336
 33
0.0
  0
MTEXT
  5
7BB
330
3B2
100
AcDbEntity
  8
Dimensions
440
 16777216
100
AcDbMText
 10
6.50692
 20
3.556086
 30
0.0
 40
0.12
 41
0.0
 46
0.0
 71
     5
 72
     1
  1
\A1;{\H1x;\S1/2;}in
 73
     1
 44
1.0
  0
POINT
  5
7BC
330
3B2
100
AcDbEntity
  8
Defpoints
 62
     0
440
 16777216
100
AcDbPoint
 10
7.9868
 20
3.774836
 30
0.0
  0
POINT
  5
7BD
330
3B2
100
AcDbEntity
  8
Defpoints
 62
     0
440
 16777216
100
AcDbPoint
 10
7.9725
 20
3.337336
 30
0.0
  0
POINT
  5
7BE
330
3B2
100
AcDbEntity
  8
Defpoints
 62
     0
440
 16777216
100
AcDbPoint
 10
6.50692
 20
3.337336
 30
0.0
  0
ENDBLK
  5
3B4
330
3B2
100
AcDbEntity
  8
0
100
AcDbBlockEnd
  0
BLOCK
  5
3C0
330
3BF
100
AcDbEntity
  8
0
100
AcDbBlockBegin
  2
*D36
 70
     1
 10
0.0
 20
0.0
 30
0.0
  3
*D36
  1

  0
LINE
  5
7BF
330
3BF
100
AcDbEntity
  8
Dimensions
440
 16777216
370
    -2
100
AcDbLine
 10
7.9225
 20
3.337336
 30
0.0
 11
6.807819
 21
3.337336
 31
0.0
  0
LINE
  5
7C0
330
3BF
100
AcDbEntity
  8
Dimensions
440
 16777216
370
    -2
100
AcDbLine
 10
7.075
 20
3.024836
 30
0.0
 11
6.807819
 21
3.024836
 31
0.0
  0
LINE
  5
7C1
330
3BF
100
AcDbEntity
  8
Dimensions
440
 16777216
370
    -2
100
AcDbLine
 10
6.907819
 20
3.457336
 30
0.0
 11
6.907819
 21
3.577336
 31
0.0
  0
LINE
  5
7C2
330
3BF
100
AcDbEntity
  8
Dimensions
440
 16777216
370
    -2
100
AcDbLine
 10
6.907819
 20
2.904836
 30
0.0
 11
6.907819
 21
2.784836
 31
0.0
  0
SOLID
  5
7C3
330
3BF
100
AcDbEntity
  8
Dimensions
440
 16777216
100
AcDbTrace
 10
6.887819
 20
3.457336
 30
0.0
 11
6.927819
 21
3.457336
 31
0.0
 12
6.907819
 22
3.337336
 32
0.0
 13
6.907819
 23
3.337336
 33
0.0
  0
SOLID
  5
7C4
330
3BF
100
AcDbEntity
  8
Dimensions
440
 16777216
100
AcDbTrace
 10
6.887819
 20
2.904836
 30
0.0
 11
6.927819
 21
2.904836
 31
0.0
 12
6.907819
 22
3.024836
 32
0.0
 13
6.907819
 23
3.024836
 33
0.0
  0
MTEXT
  5
7C5
330
3BF
100
AcDbEntity
  8
Dimensions
440
 16777216
100
AcDbMText
 10
6.907819
 20
3.181086
 30
0.0
 40
0.12
 41
0.0
 46
0.0
 71
     5
 72
     1
  1
\A1;{\H1x;\S3/8;}in
 73
     1
 44
1.0
  0
POINT
  5
7C6
330
3BF
100
AcDbEntity
  8
Defpoints
 62
     0
440
 16777216
100
AcDbPoint
 10
7.9725
 20
3.337336
 30
0.0
  0
POINT
  5
7C7
330
3BF
100
AcDbEntity
  8
Defpoints
 62
     0
440
 16777216
100
AcDbPoint
 10
7.125
 20
3.024836
 30
0.0
  0
POINT
  5
7C8
330
3BF
100
AcDbEntity
  8
Defpoints
 62
     0
440
 16777216
100
AcDbPoint
 10
6.907819
 20
3.024836
 30
0.0
  0
ENDBLK
  5
3C1
330
3BF
100
AcDbEntity
  8
0
100
AcDbBlockEnd
  0
ENDSEC
  0
SECTION
  2
ENTITIES
  0
INSERT
  5
1EA
330
70
100
AcDbEntity
  8
Titleblock
100
AcDbBlockReference
 66
     1
  2
Shower
 10
16.38
 20
0.38
 30
0.0
  0
ATTRIB
  5
20A
330
1EA
100
AcDbEntity
  8
Titleblock
  6
Continuous
370
    25
100
AcDbText
 10
12.6925
 20
2.6925
 30
0.0
 40
0.12
  1
Railing Products and Mock Ups
100
AcDbAttribute
280
     0
  2
PROJECT
 70
     0
280
     1
1001
FD_ATT_APPNAME
1005
1F8
  0
ATTRIB
  5
20B
330
1EA
100
AcDbEntity
  8
Titleblock
  6
Continuous
370
    25
100
AcDbText
 10
14.6925
 20
1.0675
 30
0.0
 40
0.12
  1
8/13/2019
100
AcDbAttribute
280
     0
  2
DRAWN_DATE
 70
     0
280
     1
1001
FD_ATT_APPNAME
1005
1FA
  0
ATTRIB
  5
20C
330
1EA
100
AcDbEntity
  8
Titleblock
  6
Continuous
370
    25
100
AcDbText
 10
12.0675
 20
2.1925
 30
0.0
 40
0.3048
  1
A42-0073AEY10CB
100
AcDbAttribute
280
     0
  2
TITLE_1
 70
     0
280
     1
1001
FD_ATT_APPNAME
1005
1FB
  0
ATTRIB
  5
20D
330
1EA
100
AcDbEntity
  8
Titleblock
  6
Continuous
370
    25
100
AcDbText
 10
14.6925
 20
1.29994
 30
0.0
 40
0.12
  1
1:20
100
AcDbAttribute
280
     0
  2
SCALE
 70
     0
280
     1
1001
FD_ATT_APPNAME
1005
1FC
  0
SEQEND
  5
20E
330
1EA
100
AcDbEntity
  8
Titleblock
  0
INSERT
  5
20F
330
70
100
AcDbEntity
  8
Border
100
AcDbBlockReference
  2
ANSI_B_SHEET
 10
0.0
 20
0.0
 30
0.0
  0
DIMENSION
  5
230
330
70
100
AcDbEntity
  8
Dimensions
100
AcDbDimension
280
     0
  2
*D22
 10
14.5
 20
9.95754
 30
0.0
 11
8.5
 21
9.95754
 31
0.0
 70
    33
 71
     5
 42
120.0
 73
     0
 74
     0
 75
     0
  3
Standard
100
AcDbAlignedDimension
 13
2.5
 23
9.278717
 33
0.0
 14
14.5
 24
9.278717
 34
0.0
1001
ACAD_DIMASSOC_CALC_DIMLFAC
1040
-10.0
1001
ACAD_DIMASSOC_DIMLFAC
1040
-10.0
1001
ACAD_DIMASSOC_OVERRIDDEN_DIMLFAC
1040
0.0
1001
ACAD_DSTYLE_DIMJAG_POSITION
1070
   387
1070
     0
1070
   389
1010
0.0
1020
0.0
1030
0.0
1001
ACAD
1000
DSTYLE
1002
{
1070
   144
1040
10.0
1070
   176
1070
   256
1070
   177
1070
   256
1002
}
  0
DIMENSION
  5
23F
330
70
100
AcDbEntity
  8
Dimensions
100
AcDbDimension
280
     0
  2
*D23
 10
13.9
 20
9.464719
 30
0.0
 11
14.211906
 21
9.464719
 31
0.0
 70
   160
 71
     5
 42
6.0
 73
     0
 74
     0
 75
     0
  3
Standard
100
AcDbAlignedDimension
 13
14.5
 23
9.278717
 33
0.0
 14
13.9
 24
9.141217
 34
0.0
100
AcDbRotatedDimension
1001
ACAD_DIMASSOC_CALC_DIMLFAC
1040
-10.0
1001
ACAD_DIMASSOC_DIMLFAC
1040
-10.0
1001
ACAD_DIMASSOC_OVERRIDDEN_DIMLFAC
1040
0.0
1001
ACAD_DSTYLE_DIMJAG_POSITION
1070
   387
1070
     0
1070
   389
1010
0.0
1020
0.0
1030
0.0
1001
ACAD
1000
DSTYLE
1002
{
1070
   144
1040
10.0
1002
}
  0
DIMENSION
  5
24D
330
70
100
AcDbEntity
  8
Dimensions
100
AcDbDimension
280
     0
  2
*D24
 10
12.700001
 20
9.67402
 30
0.0
 11
13.300001
 21
9.67402
 31
0.0
 70
    33
 71
     5
 42
12.0
 73
     0
 74
     0
 75
     0
  3
Standard
100
AcDbAlignedDimension
 13
13.900001
 23
9.141219
 33
0.0
 14
12.700001
 24
9.141219
 34
0.0
1001
ACAD_DIMASSOC_CALC_DIMLFAC
1040
-10.0
1001
ACAD_DIMASSOC_DIMLFAC
1040
-10.0
1001
ACAD_DIMASSOC_OVERRIDDEN_DIMLFAC
1040
0.0
1001
ACAD_DSTYLE_DIMJAG_POSITION
1070
   387
1070
     0
1070
   389
1010
0.0
1020
0.0
1030
0.0
1001
ACAD
1000
DSTYLE
1002
{
1070
   144
1040
10.0
1070
   176
1070
   256
1070
   177
1070
   256
1002
}
  0
DIMENSION
  5
25B
330
70
100
AcDbEntity
  8
Dimensions
100
AcDbDimension
280
     0
  2
*D25
 10
2.5
 20
9.455866
 30
0.0
 11
2.800711
 21
9.455866
 31
0.0
 70
   160
 71
     5
 42
6.000014
 73
     0
 74
     0
 75
     0
  3
Standard
100
AcDbAlignedDimension
 13
3.100001
 23
9.141219
 33
0.0
 14
2.5
 24
9.278717
 34
0.0
100
AcDbRotatedDimension
1001
ACAD_DIMASSOC_CALC_DIMLFAC
1040
-10.0
1001
ACAD_DIMASSOC_DIMLFAC
1040
-10.0
1001
ACAD_DIMASSOC_OVERRIDDEN_DIMLFAC
1040
0.0
1001
ACAD_DSTYLE_DIMJAG_POSITION
1070
   387
1070
     0
1070
   389
1010
0.0
1020
0.0
1030
0.0
1001
ACAD
1000
DSTYLE
1002
{
1070
   144
1040
10.0
1002
}
  0
DIMENSION
  5
269
330
70
100
AcDbEntity
  8
Dimensions
100
AcDbDimension
280
     0
  2
*D26
 10
4.300001
 20
9.688414
 30
0.0
 11
3.700001
 21
9.688414
 31
0.0
 70
    33
 71
     5
 42
11.999986
 73
     0
 74
     0
 75
     0
  3
Standard
100
AcDbAlignedDimension
 13
3.100001
 23
9.141219
 33
0.0
 14
4.3
 24
9.141217
 34
0.0
1001
ACAD_DIMASSOC_CALC_DIMLFAC
1040
-10.0
1001
ACAD_DIMASSOC_DIMLFAC
1040
-10.0
1001
ACAD_DIMASSOC_OVERRIDDEN_DIMLFAC
1040
0.0
1001
ACAD_DSTYLE_DIMJAG_POSITION
1070
   387
1070
     0
1070
   389
1010
0.0
1020
0.0
1030
0.0
1001
ACAD
1000
DSTYLE
1002
{
1070
   144
1040
10.0
1070
   176
1070
   256
1070
   177
1070
   256
1002
}
  0
MTEXT
  5
277
102
{ACAD_XDICTIONARY
360
278
102
}
330
70
100
AcDbEntity
  8
Annotations
100
AcDbMText
 10
3.777343
 20
2.993608
 30
0.0
 40
0.24
 41
1.702101
 46
0.768186
 71
     2
 72
     5
  1
DETAIL A\PSCALE 1:1
 73
     1
 44
1.0
  0
DIMENSION
  5
27F
330
70
100
AcDbEntity
  8
Dimensions
100
AcDbDimension
280
     0
  2
*D27
 10
9.062551
 20
5.457531
 30
0.0
 11
8.48775
 21
5.457554
 31
0.0
 70
   161
 71
     5
 42
1.125
 73
     0
 74
     0
 75
     0
  3
Standard
100
AcDbAlignedDimension
 13
7.937484
 23
3.800661
 33
0.0
 14
9.062484
 24
3.800616
 34
0.0
1001
ACAD_DIMASSOC_CALC_DIMLFAC
1040
-1.0
1001
ACAD_DIMASSOC_DIMLFAC
1040
-1.0
1001
ACAD_DIMASSOC_OVERRIDDEN_DIMLFAC
1040
0.0
1001
ACAD_DSTYLE_DIMJAG_POSITION
1070
   387
1070
     0
1070
   389
1010
0.0
1020
0.0
1030
0.0
1001
ACAD
1000
DSTYLE
1002
{
1070
   144
1040
1.0
1002
}
  0
DIMENSION
  5
28D
330
70
100
AcDbEntity
  8
Dimensions
100
AcDbDimension
280
     0
  2
*D28
 10
8.8125
 20
4.532055
 30
0.0
 11
8.5
 21
4.532055
 31
0.0
 70
   161
 71
     5
 42
0.625
 73
     0
 74
     0
 75
     0
  3
Standard
100
AcDbAlignedDimension
 13
8.1875
 23
3.337336
 33
0.0
 14
8.8125
 24
3.337336
 34
0.0
1001
ACAD_DIMASSOC_CALC_DIMLFAC
1040
-1.0
1001
ACAD_DIMASSOC_DIMLFAC
1040
-1.0
1001
ACAD_DIMASSOC_OVERRIDDEN_DIMLFAC
1040
0.0
1001
ACAD_DSTYLE_DIMJAG_POSITION
1070
   387
1070
     0
1070
   389
1010
0.0
1020
0.0
1030
0.0
1001
ACAD
1000
DSTYLE
1002
{
1070
   144
1040
1.0
1002
}
  0
DIMENSION
  5
29B
330
70
100
AcDbEntity
  8
Dimensions
100
AcDbDimension
280
     0
  2
*D29
 10
9.875
 20
2.054671
 30
0.0
 11
8.5
 21
2.054671
 31
0.0
 70
   161
 71
     5
 42
2.75
 73
     0
 74
     0
 75
     0
  3
Standard
100
AcDbAlignedDimension
 13
7.125
 23
3.024836
 33
0.0
 14
9.875
 24
3.024836
 34
0.0
1001
ACAD_DIMASSOC_CALC_DIMLFAC
1040
-1.0
1001
ACAD_DIMASSOC_DIMLFAC
1040
-1.0
1001
ACAD_DIMASSOC_OVERRIDDEN_DIMLFAC
1040
0.0
1001
ACAD_DSTYLE_DIMJAG_POSITION
1070
   387
1070
     0
1070
   389
1010
0.0
1020
0.0
1030
0.0
1001
ACAD
1000
DSTYLE
1002
{
1070
   144
1040
1.0
1002
}
  0
DIMENSION
  5
2A9
330
70
100
AcDbEntity
  8
Dimensions
100
AcDbDimension
280
     0
  2
*D30
 10
5.836427
 20
7.149836
 30
0.0
 11
5.836427
 21
5.087336
 31
0.0
 70
   160
 71
     5
 42
4.125
 73
     0
 74
     0
 75
     0
  3
Standard
100
AcDbAlignedDimension
 13
7.125
 23
3.024836
 33
0.0
 14
7.25
 24
7.149836
 34
0.0
 50
90.0
100
AcDbRotatedDimension
1001
ACAD_DIMASSOC_CALC_DIMLFAC
1040
-1.0
1001
ACAD_DIMASSOC_DIMLFAC
1040
-1.0
1001
ACAD_DIMASSOC_OVERRIDDEN_DIMLFAC
1040
0.0
1001
ACAD_DSTYLE_DIMJAG_POSITION
1070
   387
1070
     0
1070
   389
1010
0.0
1020
0.0
1030
0.0
1001
ACAD
1000
DSTYLE
1002
{
1070
   144
1040
1.0
1002
}
  0
DIMENSION
  5
2B7
330
70
100
AcDbEntity
  8
Dimensions
100
AcDbDimension
280
     0
  2
*D31
 10
4.019963
 20
4.739091
 30
0.0
 11
2.572686
 21
6.947589
 31
0.0
 70
   163
 71
     5
 42
1.125
 73
     0
 74
     0
 75
     0
  3
Standard
100
AcDbDiametricDimension
 15
3.534723
 25
5.754063
 35
0.0
 40
0.0
1001
ACAD_DIMASSOC_CALC_DIMLFAC
1040
-1.0
1001
ACAD_DIMASSOC_DIMLFAC
1040
-1.0
1001
ACAD_DIMASSOC_OVERRIDDEN_DIMLFAC
1040
0.0
1001
ACAD_DSTYLE_DIMJAG_POSITION
1070
   387
1070
     0
1070
   389
1010
0.0
1020
0.0
1030
0.0
1001
ACAD_DSTYLE_DIMRADIAL_EXTENSION
1070
   387
1070
     1
1070
   388
1040
3.563456
1070
   390
1040
5.861458
1001
ACAD
1000
DSTYLE
1002
{
1070
   144
1040
1.0
1070
   288
1070
     1
1002
}
  0
DIMENSION
  5
2C2
330
70
100
AcDbEntity
  8
Dimensions
100
AcDbDimension
280
     0
  2
*D32
 10
4.055338
 20
5.103848
 30
0.0
 11
2.672438
 21
5.636613
 31
0.0
 70
   163
 71
     5
 42
0.625
 73
     0
 74
     0
 75
     0
  3
Standard
100
AcDbDiametricDimension
 15
3.49932
 25
5.389275
 35
0.0
 40
0.0
1001
ACAD_DIMASSOC_CALC_DIMLFAC
1040
-1.0
1001
ACAD_DIMASSOC_DIMLFAC
1040
-1.0
1001
ACAD_DIMASSOC_OVERRIDDEN_DIMLFAC
1040
0.0
1001
ACAD_DSTYLE_DIMJAG_POSITION
1070
   387
1070
     0
1070
   389
1010
0.0
1020
0.0
1030
0.0
1001
ACAD_DSTYLE_DIMRADIAL_EXTENSION
1070
   387
1070
     1
1070
   388
1040
0.0
1070
   390
1040
0.0
1001
ACAD
1000
DSTYLE
1002
{
1070
   144
1040
1.0
1070
   288
1070
     1
1002
}
  0
MTEXT
  5
2CC
330
70
100
AcDbEntity
  8
Annotations
100
AcDbMText
 10
8.331287
 20
5.781854
 30
0.0
 40
0.12
 41
0.33529
 46
0.0
 71
     1
 72
     5
  1
(10)
 73
     1
 44
1.0
1001
ACAD
1000
ACAD_MTEXT_COLUMN_INFO_BEGIN
1070
    75
1070
     2
1070
    79
1070
     0
1070
    76
1070
     1
1070
    78
1070
     0
1070
    48
1040
0.33529
1070
    49
1040
0.6
1070
    50
1070
     1
1040
0.0
1000
ACAD_MTEXT_COLUMN_INFO_END
  0
MTEXT
  5
2CD
330
70
100
AcDbEntity
  8
Annotations
100
AcDbMText
 10
8.304185
 20
4.866046
 30
0.0
 40
0.12
 41
0.374892
 46
0.0
 71
     1
 72
     5
  1
(10)
 73
     1
 44
1.0
1001
ACAD
1000
ACAD_MTEXT_COLUMN_INFO_BEGIN
1070
    75
1070
     2
1070
    79
1070
     0
1070
    76
1070
     1
1070
    78
1070
     0
1070
    48
1040
0.374892
1070
    49
1040
0.6
1070
    50
1070
     1
1040
0.0
1000
ACAD_MTEXT_COLUMN_INFO_END
  0
DIMENSION
  5
2CE
330
70
100
AcDbEntity
  8
Dimensions
100
AcDbDimension
280
     0
  2
*D33
 10
9.465
 20
6.815402
 30
0.0
 11
8.5
 21
6.815402
 31
0.0
 70
    32
 71
     5
 42
1.93
 73
     0
 74
     0
 75
     0
  3
Standard
100
AcDbAlignedDimension
 13
7.535
 23
6.589836
 33
0.0
 14
9.465
 24
6.589836
 34
0.0
100
AcDbRotatedDimension
1001
ACAD_DIMASSOC_CALC_DIMLFAC
1040
-1.0
1001
ACAD_DIMASSOC_DIMLFAC
1040
-1.0
1001
ACAD_DIMASSOC_OVERRIDDEN_DIMLFAC
1040
0.0
1001
ACAD_DSTYLE_DIMJAG_POSITION
1070
   387
1070
     0
1070
   389
1010
0.0
1020
0.0
1030
0.0
1001
ACAD
1000
DSTYLE
1002
{
1070
   272
1070
     4
1070
   271
1070
     4
1070
   144
1040
1.0
1070
   176
1070
   256
1070
   177
1070
   256
1002
}
  0
DIMENSION
  5
2DC
330
70
100
AcDbEntity
  8
Dimensions
100
AcDbDimension
280
     0
  2
*D34
 10
6.132527
 20
3.024836
 30
0.0
 11
6.132527
 21
3.399836
 31
0.0
 70
    32
 71
     5
 42
0.75
 73
     0
 74
     0
 75
     0
  3
Standard
100
AcDbAlignedDimension
 13
7.9868
 23
3.774836
 33
0.0
 14
7.125
 24
3.024836
 34
0.0
 50
90.0
100
AcDbRotatedDimension
1001
ACAD_DIMASSOC_CALC_DIMLFAC
1040
-1.0
1001
ACAD_DIMASSOC_DIMLFAC
1040
-1.0
1001
ACAD_DIMASSOC_OVERRIDDEN_DIMLFAC
1040
0.0
1001
ACAD_DSTYLE_DIMJAG_POSITION
1070
   387
1070
     0
1070
   389
1010
0.0
1020
0.0
1030
0.0
1001
ACAD
1000
DSTYLE
1002
{
1070
   144
1040
1.0
1070
   176
1070
   256
1070
   177
1070
   256
1002
}
  0
DIMENSION
  5
2EA
330
70
100
AcDbEntity
  8
Dimensions
100
AcDbDimension
280
     0
  2
*D35
 10
6.50692
 20
3.337336
 30
0.0
 11
6.50692
 21
3.556086
 31
0.0
 70
    32
 71
     5
 42
0.4375
 73
     0
 74
     0
 75
     0
  3
Standard
100
AcDbAlignedDimension
 13
7.9868
 23
3.774836
 33
0.0
 14
7.9725
 24
3.337336
 34
0.0
 50
90.0
100
AcDbRotatedDimension
1001
ACAD_DIMASSOC_CALC_DIMLFAC
1040
-1.0
1001
ACAD_DIMASSOC_DIMLFAC
1040
-1.0
1001
ACAD_DIMASSOC_OVERRIDDEN_DIMLFAC
1040
0.0
1001
ACAD_DSTYLE_DIMJAG_POSITION
1070
   387
1070
     0
1070
   389
1010
0.0
1020
0.0
1030
0.0
1001
ACAD
1000
DSTYLE
1002
{
1070
   144
1040
1.0
1070
   176
1070
   256
1070
   177
1070
   256
1002
}
  0
DIMENSION
  5
2F8
330
70
100
AcDbEntity
  8
Dimensions
100
AcDbDimension
280
     0
  2
*D36
 10
6.907819
 20
3.024836
 30
0.0
 11
6.907819
 21
3.181086
 31
0.0
 70
   160
 71
     5
 42
0.3125
 73
     0
 74
     0
 75
     0
  3
Standard
100
AcDbAlignedDimension
 13
7.9725
 23
3.337336
 33
0.0
 14
7.125
 24
3.024836
 34
0.0
 50
90.0
100
AcDbRotatedDimension
1001
ACAD_DIMASSOC_CALC_DIMLFAC
1040
-1.0
1001
ACAD_DIMASSOC_DIMLFAC
1040
-1.0
1001
ACAD_DIMASSOC_OVERRIDDEN_DIMLFAC
1040
0.0
1001
ACAD_DSTYLE_DIMJAG_POSITION
1070
   387
1070
     0
1070
   389
1010
0.0
1020
0.0
1030
0.0
1001
ACAD
1000
DSTYLE
1002
{
1070
   144
1040
1.0
1002
}
  0
ARC
  5
57A
330
70
100
AcDbEntity
  8
Visible
100
AcDbCircle
 10
-9.243717
 20
0.15025
 30
-14.5
 40
0.006
210
-1.0
220
0.0000000000000002
230
-0.0000000000000002
100
AcDbArc
 50
0.0
 51
90.0
  0
ARC
  5
57B
330
70
100
AcDbEntity
  8
Visible
100
AcDbCircle
 10
-9.254715
 20
0.2
 30
-14.5
 40
0.0062500000000001
210
-1.0
220
0.0000000000000002
230
-0.0000000000000002
100
AcDbArc
 50
0.0
 51
90.0
  0
ARC
  5
57C
330
70
100
AcDbEntity
  8
Visible
100
AcDbCircle
 10
-9.266217
 20
0.19375
 30
-14.5
 40
0.0125
210
-1.0
220
0.0000000000000002
230
-0.0000000000000002
100
AcDbArc
 50
90.0
 51
180.0
  0
ARC
  5
57D
330
70
100
AcDbEntity
  8
Visible
100
AcDbCircle
 10
-9.016217
 20
0.19375
 30
-14.5
 40
0.0125
210
-1.0
220
0.0000000000000002
230
-0.0000000000000002
100
AcDbArc
 50
360.0
 51
90.0
  0
LINE
  5
57E
330
70
100
AcDbEntity
  8
Visible
100
AcDbLine
 10
14.5
 20
9.248465
 30
0.2
 11
2.5
 21
9.248465
 31
0.2
  0
ARC
  5
57F
330
70
100
AcDbEntity
  8
Visible
100
AcDbCircle
 10
-9.02772
 20
0.2
 30
-14.5
 40
0.0062499999999999
210
-1.0
220
0.0000000000000002
230
-0.0000000000000002
100
AcDbArc
 50
90.0
 51
180.0
  0
LINE
  5
580
330
70
100
AcDbEntity
  8
Visible
100
AcDbLine
 10
14.5
 20
9.03397
 30
0.2
 11
2.5
 21
9.03397
 31
0.2
  0
ARC
  5
581
330
70
100
AcDbEntity
  8
Visible
100
AcDbCircle
 10
3.100001
 20
9.141219
 30
-0.13125
 40
0.0562500000000003
100
AcDbArc
 50
294.163219
 51
65.829017
  0
ARC
  5
582
330
70
100
AcDbEntity
  8
Visible
100
AcDbCircle
 10
4.300001
 20
9.141219
 30
-0.13125
 40
0.0562500000000003
100
AcDbArc
 50
294.163219
 51
65.829017
  0
ARC
  5
583
330
70
100
AcDbEntity
  8
Visible
100
AcDbCircle
 10
4.300001
 20
9.141219
 30
-0.13125
 40
0.0562500000000003
100
AcDbArc
 50
114.170983
 51
245.836781
  0
ARC
  5
584
330
70
100
AcDbEntity
  8
Visible
100
AcDbCircle
 10
5.500001
 20
9.141219
 30
-0.13125
 40
0.0562499999999999
100
AcDbArc
 50
114.170983
 51
245.836781
  0
ARC
  5
585
330
70
100
AcDbEntity
  8
Visible
100
AcDbCircle
 10
5.500001
 20
9.141219
 30
-0.13125
 40
0.0562499999999998
100
AcDbArc
 50
294.163219
 51
65.829017
  0
ARC
  5
586
330
70
100
AcDbEntity
  8
Visible
100
AcDbCircle
 10
6.700001
 20
9.141219
 30
-0.13125
 40
0.0562499999999998
100
AcDbArc
 50
294.163219
 51
65.829017
  0
ARC
  5
587
330
70
100
AcDbEntity
  8
Visible
100
AcDbCircle
 10
6.700001
 20
9.141219
 30
-0.13125
 40
0.0562499999999999
100
AcDbArc
 50
114.170983
 51
245.836781
  0
CIRCLE
  5
588
330
70
100
AcDbEntity
  8
Visible
100
AcDbCircle
 10
-3.1
 20
9.141217
 30
0.175
 40
0.0312499999999996
210
0.0000000000000002
220
-0.0000000000000003
230
-1.0
  0
CIRCLE
  5
589
330
70
100
AcDbEntity
  8
Visible
100
AcDbCircle
 10
-4.3
 20
9.141217
 30
0.175
 40
0.0312499999999996
210
0.0000000000000002
220
-0.0000000000000003
230
-1.0
  0
CIRCLE
  5
58A
330
70
100
AcDbEntity
  8
Visible
100
AcDbCircle
 10
-5.5
 20
9.141217
 30
0.175
 40
0.0312499999999996
210
0.0000000000000002
220
-0.0000000000000003
230
-1.0
  0
CIRCLE
  5
58B
330
70
100
AcDbEntity
  8
Visible
100
AcDbCircle
 10
-6.7
 20
9.141217
 30
0.175
 40
0.0312499999999996
210
0.0000000000000002
220
-0.0000000000000003
230
-1.0
  0
CIRCLE
  5
58C
330
70
100
AcDbEntity
  8
Visible
100
AcDbCircle
 10
-7.9
 20
9.141217
 30
0.175
 40
0.0312499999999996
210
0.0000000000000002
220
-0.0000000000000003
230
-1.0
  0
CIRCLE
  5
58D
330
70
100
AcDbEntity
  8
Visible
100
AcDbCircle
 10
-9.1
 20
9.141217
 30
0.175
 40
0.0312499999999996
210
0.0000000000000002
220
-0.0000000000000003
230
-1.0
  0
CIRCLE
  5
58E
330
70
100
AcDbEntity
  8
Visible
100
AcDbCircle
 10
-10.3
 20
9.141217
 30
0.175
 40
0.0312499999999996
210
0.0000000000000002
220
-0.0000000000000003
230
-1.0
  0
CIRCLE
  5
58F
330
70
100
AcDbEntity
  8
Visible
100
AcDbCircle
 10
-11.5
 20
9.141217
 30
0.175
 40
0.0312499999999996
210
0.0000000000000002
220
-0.0000000000000003
230
-1.0
  0
CIRCLE
  5
590
330
70
100
AcDbEntity
  8
Visible
100
AcDbCircle
 10
-12.7
 20
9.141217
 30
0.175
 40
0.0312499999999996
210
0.0000000000000002
220
-0.0000000000000003
230
-1.0
  0
CIRCLE
  5
591
330
70
100
AcDbEntity
  8
Visible
100
AcDbCircle
 10
-13.9
 20
9.141217
 30
0.175
 40
0.0312499999999996
210
0.0000000000000002
220
-0.0000000000000003
230
-1.0
  0
ARC
  5
592
330
70
100
AcDbEntity
  8
Visible
100
AcDbCircle
 10
7.900001
 20
9.141219
 30
-0.13125
 40
0.0562499999999999
100
AcDbArc
 50
114.170983
 51
245.836781
  0
LINE
  5
593
330
70
100
AcDbEntity
  8
Visible
100
AcDbLine
 10
14.5
 20
9.237717
 30
0.15025
 11
2.5
 21
9.237717
 31
0.15025
  0
LINE
  5
594
330
70
100
AcDbEntity
  8
Visible
100
AcDbLine
 10
14.5
 20
9.243717
 30
0.15625
 11
14.5
 21
9.248465
 31
0.15625
  0
ARC
  5
595
330
70
100
AcDbEntity
  8
Visible
100
AcDbCircle
 10
7.900001
 20
9.141219
 30
-0.13125
 40
0.0562499999999998
100
AcDbArc
 50
294.163219
 51
65.829017
  0
LINE
  5
596
330
70
100
AcDbEntity
  8
Visible
100
AcDbLine
 10
14.5
 20
9.254715
 30
0.20625
 11
14.5
 21
9.266217
 31
0.20625
  0
SPLINE
  5
597
330
70
100
AcDbEntity
  8
Visible
100
AcDbSpline
 70
     0
 71
     3
 72
    14
 73
    10
 74
     0
 42
0.000000001
 43
0.0000000001
 40
0.3534006752902809
 40
0.3534006752902809
 40
0.3534006752902809
 40
0.3534006752902809
 40
0.6401377059579452
 40
0.6401377059579452
 40
0.9309921460864597
 40
0.9309921460864597
 40
1.221846586214974
 40
1.221846586214974
 40
1.508583616882698
 40
1.508583616882698
 40
1.508583616882698
 40
1.508583616882698
 10
3.07697618192094
 20
9.089897500995903
 30
-0.1312500000000078
 10
3.080415847980134
 20
9.088354307115992
 30
-0.1312500000000075
 10
3.084241029674672
 20
9.087074016273732
 30
-0.1306501495624576
 10
3.092120540627206
 20
9.085376153434822
 30
-0.129339511948533
 10
3.096184423685031
 20
9.084969049314281
 30
-0.1286720409146484
 10
3.103818398491625
 20
9.084969049314281
 30
-0.1286720409146484
 10
3.107882281549336
 20
9.085376153434822
 30
-0.129339511948533
 10
3.115761792501984
 20
9.087074016273732
 30
-0.1306501495624577
 10
3.119586974196522
 20
9.088354307115992
 30
-0.1312500000000085
 10
3.123026640255602
 20
9.089897500995903
 30
-0.1312500000000078
1001
ACAD_VIEW_EDGE_ID
1071
      354
1071
       -1
1071
        2
1071
        0
  0
SPLINE
  5
598
330
70
100
AcDbEntity
  8
Visible
100
AcDbSpline
 70
     0
 71
     3
 72
    14
 73
    10
 74
     0
 42
0.000000001
 43
0.0000000001
 40
0.353400675290341
 40
0.353400675290341
 40
0.353400675290341
 40
0.353400675290341
 40
0.6401377059579452
 40
0.6401377059579452
 40
0.9309921460864597
 40
0.9309921460864597
 40
1.221846586214974
 40
1.221846586214974
 40
1.508583616882638
 40
1.508583616882638
 40
1.508583616882638
 40
1.508583616882638
 10
4.276976181920986
 20
9.089897500995903
 30
-0.1312500000000082
 10
4.280415847980179
 20
9.088354307115992
 30
-0.1312500000000081
 10
4.284241029674603
 20
9.087074016273732
 30
-0.1306501495624572
 10
4.292120540627252
 20
9.085376153434822
 30
-0.1293395119485328
 10
4.296184423685076
 20
9.084969049314281
 30
-0.1286720409146481
 10
4.303818398491671
 20
9.084969049314281
 30
-0.1286720409146481
 10
4.307882281549268
 20
9.085376153434822
 30
-0.1293395119485328
 10
4.315761792501916
 20
9.087074016273732
 30
-0.1306501495624573
 10
4.319586974196568
 20
9.088354307115992
 30
-0.1312500000000081
 10
4.323026640255648
 20
9.089897500995903
 30
-0.1312500000000082
1001
ACAD_VIEW_EDGE_ID
1071
      352
1071
       -1
1071
        2
1071
        0
  0
SPLINE
  5
599
330
70
100
AcDbEntity
  8
Visible
100
AcDbSpline
 70
     0
 71
     3
 72
    14
 73
    10
 74
     0
 42
0.000000001
 43
0.0000000001
 40
0.3534006752902887
 40
0.3534006752902887
 40
0.3534006752902887
 40
0.3534006752902887
 40
0.6401377059579545
 40
0.6401377059579545
 40
0.9309921460864972
 40
0.9309921460864972
 40
1.221846586215012
 40
1.221846586215012
 40
1.508583616882619
 40
1.508583616882619
 40
1.508583616882619
 40
1.508583616882619
 10
5.476976181920917
 20
9.089897500995903
 30
-0.1312500000000086
 10
5.480415847980225
 20
9.088354307115992
 30
-0.1312500000000086
 10
5.484241029674649
 20
9.087074016273732
 30
-0.1306501495624568
 10
5.492120540627297
 20
9.085376153434822
 30
-0.1293395119485325
 10
5.496184423685122
 20
9.084969049314281
 30
-0.1286720409146477
 10
5.503818398491716
 20
9.084969049314281
 30
-0.128672040914648
 10
5.507882281549314
 20
9.085376153434822
 30
-0.1293395119485327
 10
5.515761792501962
 20
9.087074016273732
 30
-0.1306501495624567
 10
5.519586974196613
 20
9.088354307115992
 30
-0.1312500000000085
 10
5.523026640255579
 20
9.089897500995903
 30
-0.1312500000000086
1001
ACAD_VIEW_EDGE_ID
1071
      350
1071
       -1
1071
        2
1071
        0
  0
SPLINE
  5
59A
330
70
100
AcDbEntity
  8
Visible
100
AcDbSpline
 70
     0
 71
     3
 72
    14
 73
    10
 74
     0
 42
0.000000001
 43
0.0000000001
 40
0.3534006752903034
 40
0.3534006752903034
 40
0.3534006752903034
 40
0.3534006752903034
 40
0.6401377059579504
 40
0.6401377059579504
 40
0.9309921460864796
 40
0.9309921460864796
 40
1.221846586215008
 40
1.221846586215008
 40
1.508583616882632
 40
1.508583616882632
 40
1.508583616882632
 40
1.508583616882632
 10
6.676976181920963
 20
9.089897500995903
 30
-0.131250000000009
 10
6.680415847980157
 20
9.088354307115992
 30
-0.131250000000009
 10
6.684241029674581
 20
9.087074016273732
 30
-0.1306501495624565
 10
6.692120540627229
 20
9.085376153434822
 30
-0.1293395119485322
 10
6.696184423685053
 20
9.084969049314281
 30
-0.1286720409146476
 10
6.703818398491648
 20
9.084969049314281
 30
-0.1286720409146476
 10
6.707882281549359
 20
9.085376153434822
 30
-0.1293395119485323
 10
6.715761792501893
 20
9.087074016273732
 30
-0.1306501495624565
 10
6.719586974196545
 20
9.088354307115992
 30
-0.1312500000000088
 10
6.723026640255625
 20
9.089897500995903
 30
-0.131250000000009
1001
ACAD_VIEW_EDGE_ID
1071
      348
1071
       -1
1071
        2
1071
        0
  0
SPLINE
  5
59B
330
70
100
AcDbEntity
  8
Visible
100
AcDbSpline
 70
     0
 71
     3
 72
    14
 73
    10
 74
     0
 42
0.000000001
 43
0.0000000001
 40
0.3534006752903034
 40
0.3534006752903034
 40
0.3534006752903034
 40
0.3534006752903034
 40
0.6401377059579504
 40
0.6401377059579504
 40
0.9309921460864796
 40
0.9309921460864796
 40
1.221846586215008
 40
1.221846586215008
 40
1.508583616882691
 40
1.508583616882691
 40
1.508583616882691
 40
1.508583616882691
 10
7.876976181920895
 20
9.089897500995903
 30
-0.1312500000000094
 10
7.880415847980202
 20
9.088354307115992
 30
-0.1312500000000094
 10
7.884241029674626
 20
9.087074016273732
 30
-0.1306501495624562
 10
7.892120540627274
 20
9.085376153434822
 30
-0.1293395119485319
 10
7.896184423685099
 20
9.084969049314281
 30
-0.1286720409146473
 10
7.903818398491694
 20
9.084969049314281
 30
-0.1286720409146473
 10
7.907882281549291
 20
9.085376153434822
 30
-0.129339511948532
 10
7.915761792501939
 20
9.087074016273732
 30
-0.1306501495624563
 10
7.91958697419659
 20
9.088354307115992
 30
-0.1312500000000094
 10
7.92302664025567
 20
9.089897500995903
 30
-0.1312500000000094
1001
ACAD_VIEW_EDGE_ID
1071
      346
1071
       -1
1071
        2
1071
        0
  0
SPLINE
  5
59C
330
70
100
AcDbEntity
  8
Visible
100
AcDbSpline
 70
     0
 71
     3
 72
    14
 73
    10
 74
     0
 42
0.000000001
 43
0.0000000001
 40
0.3534006752903034
 40
0.3534006752903034
 40
0.3534006752903034
 40
0.3534006752903034
 40
0.6401377059579504
 40
0.6401377059579504
 40
0.9309921460864796
 40
0.9309921460864796
 40
1.221846586215008
 40
1.221846586215008
 40
1.508583616882636
 40
1.508583616882636
 40
1.508583616882636
 40
1.508583616882636
 10
9.07697618192094
 20
9.089897500995903
 30
-0.1312500000000097
 10
9.080415847980134
 20
9.088354307115992
 30
-0.1312500000000098
 10
9.084241029674672
 20
9.087074016273732
 30
-0.1306501495624559
 10
9.092120540627206
 20
9.085376153434822
 30
-0.1293395119485317
 10
9.096184423685031
 20
9.084969049314281
 30
-0.1286720409146471
 10
9.103818398491625
 20
9.084969049314281
 30
-0.128672040914647
 10
9.107882281549336
 20
9.085376153434822
 30
-0.1293395119485317
 10
9.115761792501984
 20
9.087074016273732
 30
-0.1306501495624559
 10
9.119586974196522
 20
9.088354307115992
 30
-0.1312500000000098
 10
9.123026640255602
 20
9.089897500995903
 30
-0.1312500000000097
1001
ACAD_VIEW_EDGE_ID
1071
      344
1071
       -1
1071
        2
1071
        0
  0
SPLINE
  5
59D
330
70
100
AcDbEntity
  8
Visible
100
AcDbSpline
 70
     0
 71
     3
 72
    14
 73
    10
 74
     0
 42
0.000000001
 43
0.0000000001
 40
0.3534006752902992
 40
0.3534006752902992
 40
0.3534006752902992
 40
0.3534006752902992
 40
0.6401377059579487
 40
0.6401377059579487
 40
0.9309921460864778
 40
0.9309921460864778
 40
1.221846586215006
 40
1.221846586215006
 40
1.508583616882668
 40
1.508583616882668
 40
1.508583616882668
 40
1.508583616882668
 10
10.27697618192098
 20
9.089897500995903
 30
-0.1312500000000101
 10
10.28041584798018
 20
9.088354307115992
 30
-0.1312500000000101
 10
10.2842410296746
 20
9.087074016273732
 30
-0.1306501495624559
 10
10.29212054062725
 20
9.085376153434822
 30
-0.1293395119485315
 10
10.29618442368507
 20
9.084969049314281
 30
-0.1286720409146468
 10
10.30381839849144
 20
9.084969049314281
 30
-0.1286720409146468
 10
10.30788228154927
 20
9.085376153434822
 30
-0.1293395119485315
 10
10.31576179250191
 20
9.087074016273732
 30
-0.1306501495624559
 10
10.31958697419657
 20
9.088354307115992
 30
-0.1312500000000102
 10
10.32302664025565
 20
9.089897500995903
 30
-0.1312500000000101
1001
ACAD_VIEW_EDGE_ID
1071
      342
1071
       -1
1071
        2
1071
        0
  0
SPLINE
  5
59E
330
70
100
AcDbEntity
  8
Visible
100
AcDbSpline
 70
     0
 71
     3
 72
    14
 73
    10
 74
     0
 42
0.000000001
 43
0.0000000001
 40
0.353400675290315
 40
0.353400675290315
 40
0.353400675290315
 40
0.353400675290315
 40
0.6401377059579487
 40
0.6401377059579487
 40
0.9309921460864778
 40
0.9309921460864778
 40
1.221846586215006
 40
1.221846586215006
 40
1.50858361688264
 40
1.50858361688264
 40
1.50858361688264
 40
1.50858361688264
 10
11.47697618192092
 20
9.089897500995903
 30
-0.1312500000000105
 10
11.48041584798022
 20
9.088354307115992
 30
-0.1312500000000104
 10
11.48424102967465
 20
9.087074016273732
 30
-0.1306501495624557
 10
11.49212054062729
 20
9.085376153434822
 30
-0.1293395119485313
 10
11.49618442368512
 20
9.084969049314281
 30
-0.1286720409146465
 10
11.50381839849149
 20
9.084969049314281
 30
-0.1286720409146465
 10
11.50788228154931
 20
9.085376153434822
 30
-0.1293395119485313
 10
11.51576179250196
 20
9.087074016273732
 30
-0.1306501495624556
 10
11.51958697419661
 20
9.088354307115992
 30
-0.1312500000000104
 10
11.52302664025558
 20
9.089897500995903
 30
-0.1312500000000105
1001
ACAD_VIEW_EDGE_ID
1071
      340
1071
       -1
1071
        2
1071
        0
  0
SPLINE
  5
59F
330
70
100
AcDbEntity
  8
Visible
100
AcDbSpline
 70
     0
 71
     3
 72
    14
 73
    10
 74
     0
 42
0.000000001
 43
0.0000000001
 40
0.3534006752902819
 40
0.3534006752902819
 40
0.3534006752902819
 40
0.3534006752902819
 40
0.64013770595795
 40
0.64013770595795
 40
0.9309921460864758
 40
0.9309921460864758
 40
1.221846586215001
 40
1.221846586215001
 40
1.508583616882668
 40
1.508583616882668
 40
1.508583616882668
 40
1.508583616882668
 10
12.67697618192096
 20
9.089897500995903
 30
-0.1312500000000109
 10
12.68041584798015
 20
9.088354307115992
 30
-0.131250000000011
 10
12.68424102967458
 20
9.087074016273732
 30
-0.1306501495624553
 10
12.69212054062723
 20
9.085376153434822
 30
-0.129339511948531
 10
12.69618442368505
 20
9.084969049314281
 30
-0.1286720409146462
 10
12.70381839849153
 20
9.084969049314281
 30
-0.1286720409146462
 10
12.70788228154936
 20
9.085376153434822
 30
-0.129339511948531
 10
12.71576179250189
 20
9.087074016273732
 30
-0.1306501495624554
 10
12.71958697419654
 20
9.088354307115992
 30
-0.1312500000000109
 10
12.72302664025562
 20
9.089897500995903
 30
-0.1312500000000109
1001
ACAD_VIEW_EDGE_ID
1071
      338
1071
       -1
1071
        2
1071
        0
  0
SPLINE
  5
5A0
330
70
100
AcDbEntity
  8
Visible
100
AcDbSpline
 70
     0
 71
     3
 72
    14
 73
    10
 74
     0
 42
0.000000001
 43
0.0000000001
 40
0.3534006752902941
 40
0.3534006752902941
 40
0.3534006752902941
 40
0.3534006752902941
 40
0.6401377059579487
 40
0.6401377059579487
 40
0.930992146086475
 40
0.930992146086475
 40
1.221846586215001
 40
1.221846586215001
 40
1.508583616882655
 40
1.508583616882655
 40
1.508583616882655
 40
1.508583616882655
 10
13.87697618192089
 20
9.089897500995903
 30
-0.1312500000000113
 10
13.8804158479802
 20
9.088354307115992
 30
-0.1312500000000113
 10
13.88424102967462
 20
9.087074016273732
 30
-0.1306501495624551
 10
13.89212054062727
 20
9.085376153434822
 30
-0.1293395119485308
 10
13.8961844236851
 20
9.084969049314281
 30
-0.128672040914646
 10
13.90381839849146
 20
9.084969049314281
 30
-0.128672040914646
 10
13.90788228154929
 20
9.085376153434822
 30
-0.1293395119485308
 10
13.91576179250194
 20
9.087074016273732
 30
-0.1306501495624551
 10
13.91958697419659
 20
9.088354307115992
 30
-0.1312500000000113
 10
13.92302664025567
 20
9.089897500995903
 30
-0.1312500000000113
1001
ACAD_VIEW_EDGE_ID
1071
      336
1071
       -1
1071
        2
1071
        0
  0
ARC
  5
5A1
330
70
100
AcDbEntity
  8
Visible
100
AcDbCircle
 10
9.100001
 20
9.141219
 30
-0.13125
 40
0.0562499999999998
100
AcDbArc
 50
294.163219
 51
65.829017
  0
ARC
  5
5A2
330
70
100
AcDbEntity
  8
Visible
100
AcDbCircle
 10
9.100001
 20
9.141219
 30
-0.13125
 40
0.0562499999999999
100
AcDbArc
 50
114.170983
 51
245.836781
  0
ARC
  5
5A3
330
70
100
AcDbEntity
  8
Visible
100
AcDbCircle
 10
10.300001
 20
9.141219
 30
-0.13125
 40
0.0562499999999994
100
AcDbArc
 50
114.170983
 51
245.836781
  0
SPLINE
  5
5A4
330
70
100
AcDbEntity
  8
Visible
100
AcDbSpline
 70
     0
 71
     3
 72
    14
 73
    10
 74
     0
 42
0.000000001
 43
0.0000000001
 40
0.3533445709902794
 40
0.3533445709902794
 40
0.3533445709902794
 40
0.3533445709902794
 40
0.6402314647489052
 40
0.6402314647489052
 40
0.93115002555325
 40
0.93115002555325
 40
1.222068586357594
 40
1.222068586357594
 40
1.50895548011622
 40
1.50895548011622
 40
1.50895548011622
 40
1.50895548011622
 10
13.92303359511834
 20
9.192537476792267
 30
-0.1312500000000112
 10
13.91959247861291
 20
9.194081881648685
 30
-0.1312500000000114
 10
13.91576556415157
 20
9.195363120770707
 30
-0.1306492446292495
 10
13.90788367987852
 20
9.19706179477464
 30
-0.1293364438813668
 10
13.90381923997017
 20
9.197469049314349
 30
-0.1286675418738554
 10
13.89618358220639
 20
9.197469049314349
 30
-0.1286675418738554
 10
13.89211914229827
 20
9.19706179477464
 30
-0.1293364438813667
 10
13.88423725802499
 20
9.195363120770707
 30
-0.1306492446292495
 10
13.88041034356365
 20
9.194081881648685
 30
-0.1312500000000114
 10
13.87696922705822
 20
9.192537476792267
 30
-0.1312500000000112
1001
ACAD_VIEW_EDGE_ID
1071
      328
1071
       -1
1071
        2
1071
        0
  0
SPLINE
  5
5A5
330
70
100
AcDbEntity
  8
Visible
100
AcDbSpline
 70
     0
 71
     3
 72
    14
 73
    10
 74
     0
 42
0.000000001
 43
0.0000000001
 40
0.3533445709902909
 40
0.3533445709902909
 40
0.3533445709902909
 40
0.3533445709902909
 40
0.6402314647489085
 40
0.6402314647489085
 40
0.9311500255532518
 40
0.9311500255532518
 40
1.222068586357595
 40
1.222068586357595
 40
1.508955480116212
 40
1.508955480116212
 40
1.508955480116212
 40
1.508955480116212
 10
12.72303359511829
 20
9.192537476792267
 30
-0.1312500000000108
 10
12.71959247861298
 20
9.194081881648685
 30
-0.131250000000011
 10
12.71576556415152
 20
9.195363120770707
 30
-0.1306492446292498
 10
12.70788367987847
 20
9.19706179477464
 30
-0.129336443881367
 10
12.70381923997013
 20
9.197469049314349
 30
-0.1286675418738556
 10
12.69618358220634
 20
9.197469049314349
 30
-0.1286675418738556
 10
12.69211914229822
 20
9.19706179477464
 30
-0.1293364438813669
 10
12.68423725802506
 20
9.195363120770707
 30
-0.1306492446292496
 10
12.68041034356361
 20
9.194081881648685
 30
-0.131250000000011
 10
12.67696922705829
 20
9.192537476792267
 30
-0.1312500000000109
1001
ACAD_VIEW_EDGE_ID
1071
      326
1071
       -1
1071
        2
1071
        0
  0
SPLINE
  5
5A6
330
70
100
AcDbEntity
  8
Visible
100
AcDbSpline
 70
     0
 71
     3
 72
    14
 73
    10
 74
     0
 42
0.000000001
 43
0.0000000001
 40
0.353344570990275
 40
0.353344570990275
 40
0.353344570990275
 40
0.353344570990275
 40
0.6402314647489057
 40
0.6402314647489057
 40
0.9311500255532523
 40
0.9311500255532523
 40
1.222068586357599
 40
1.222068586357599
 40
1.508955480116229
 40
1.508955480116229
 40
1.508955480116229
 40
1.508955480116229
 10
11.52303359511836
 20
9.192537476792267
 30
-0.1312500000000105
 10
11.51959247861293
 20
9.194081881648685
 30
-0.1312500000000107
 10
11.51576556415159
 20
9.195363120770707
 30
-0.13064924462925
 10
11.50788367987854
 20
9.19706179477464
 30
-0.1293364438813673
 10
11.5038192399702
 20
9.197469049314349
 30
-0.1286675418738559
 10
11.49618358220641
 20
9.197469049314349
 30
-0.1286675418738559
 10
11.49211914229829
 20
9.19706179477464
 30
-0.1293364438813673
 10
11.48423725802502
 20
9.195363120770707
 30
-0.13064924462925
 10
11.48041034356367
 20
9.194081881648685
 30
-0.1312500000000107
 10
11.47696922705825
 20
9.192537476792267
 30
-0.1312500000000105
1001
ACAD_VIEW_EDGE_ID
1071
      324
1071
       -1
1071
        2
1071
        0
  0
SPLINE
  5
5A7
330
70
100
AcDbEntity
  8
Visible
100
AcDbSpline
 70
     0
 71
     3
 72
    14
 73
    10
 74
     0
 42
0.000000001
 43
0.0000000001
 40
0.3533445709902773
 40
0.3533445709902773
 40
0.3533445709902773
 40
0.3533445709902773
 40
0.6402314647489057
 40
0.6402314647489057
 40
0.9311500255532523
 40
0.9311500255532523
 40
1.222068586357599
 40
1.222068586357599
 40
1.508955480116228
 40
1.508955480116228
 40
1.508955480116228
 40
1.508955480116228
 10
10.32303359511832
 20
9.192537476792267
 30
-0.1312500000000101
 10
10.31959247861289
 20
9.194081881648685
 30
-0.1312500000000103
 10
10.31576556415155
 20
9.195363120770707
 30
-0.1306492446292502
 10
10.3078836798785
 20
9.19706179477464
 30
-0.1293364438813676
 10
10.30381923997015
 20
9.197469049314349
 30
-0.1286675418738562
 10
10.29618358220637
 20
9.197469049314349
 30
-0.1286675418738562
 10
10.29211914229825
 20
9.19706179477464
 30
-0.1293364438813676
 10
10.28423725802497
 20
9.195363120770707
 30
-0.1306492446292502
 10
10.28041034356363
 20
9.194081881648685
 30
-0.1312500000000103
 10
10.2769692270582
 20
9.192537476792267
 30
-0.1312500000000101
1001
ACAD_VIEW_EDGE_ID
1071
      322
1071
       -1
1071
        2
1071
        0
  0
SPLINE
  5
5A8
330
70
100
AcDbEntity
  8
Visible
100
AcDbSpline
 70
     0
 71
     3
 72
    14
 73
    10
 74
     0
 42
0.000000001
 43
0.0000000001
 40
0.353344570990294
 40
0.353344570990294
 40
0.353344570990294
 40
0.353344570990294
 40
0.6402314647489073
 40
0.6402314647489073
 40
0.9311500255532539
 40
0.9311500255532539
 40
1.2220685863576
 40
1.2220685863576
 40
1.508955480116213
 40
1.508955480116213
 40
1.508955480116213
 40
1.508955480116213
 10
9.123033595118272
 20
9.192537476792267
 30
-0.1312500000000097
 10
9.119592478612958
 20
9.194081881648685
 30
-0.1312500000000097
 10
9.115765564151502
 20
9.195363120770707
 30
-0.1306492446292506
 10
9.107883679878455
 20
9.19706179477464
 30
-0.1293364438813677
 10
9.103819239970334
 20
9.197469049314349
 30
-0.1286675418738564
 10
9.096183582206435
 20
9.197469049314349
 30
-0.1286675418738564
 10
9.092119142298201
 20
9.19706179477464
 30
-0.1293364438813677
 10
9.084237258025041
 20
9.195363120770707
 30
-0.1306492446292506
 10
9.080410343563585
 20
9.194081881648685
 30
-0.1312500000000099
 10
9.07696922705827
 20
9.192537476792267
 30
-0.1312500000000097
1001
ACAD_VIEW_EDGE_ID
1071
      320
1071
       -1
1071
        2
1071
        0
  0
SPLINE
  5
5A9
330
70
100
AcDbEntity
  8
Visible
100
AcDbSpline
 70
     0
 71
     3
 72
    14
 73
    10
 74
     0
 42
0.000000001
 43
0.0000000001
 40
0.3533445709902639
 40
0.3533445709902639
 40
0.3533445709902639
 40
0.3533445709902639
 40
0.6402314647489073
 40
0.6402314647489073
 40
0.9311500255532539
 40
0.9311500255532539
 40
1.2220685863576
 40
1.2220685863576
 40
1.508955480116213
 40
1.508955480116213
 40
1.508955480116213
 40
1.508955480116213
 10
7.92303359511834
 20
9.192537476792267
 30
-0.1312500000000093
 10
7.919592478612912
 20
9.194081881648685
 30
-0.1312500000000096
 10
7.91576556415157
 20
9.195363120770707
 30
-0.1306492446292509
 10
7.907883679878523
 20
9.19706179477464
 30
-0.129336443881368
 10
7.903819239970403
 20
9.197469049314349
 30
-0.1286675418738567
 10
7.89618358220639
 20
9.197469049314349
 30
-0.1286675418738567
 10
7.89211914229827
 20
9.19706179477464
 30
-0.1293364438813682
 10
7.884237258024995
 20
9.195363120770707
 30
-0.1306492446292508
 10
7.880410343563653
 20
9.194081881648685
 30
-0.1312500000000094
 10
7.876969227058225
 20
9.192537476792267
 30
-0.1312500000000093
1001
ACAD_VIEW_EDGE_ID
1071
      318
1071
       -1
1071
        2
1071
        0
  0
SPLINE
  5
5AA
330
70
100
AcDbEntity
  8
Visible
100
AcDbSpline
 70
     0
 71
     3
 72
    14
 73
    10
 74
     0
 42
0.000000001
 43
0.0000000001
 40
0.3533445709902899
 40
0.3533445709902899
 40
0.3533445709902899
 40
0.3533445709902899
 40
0.640231464748918
 40
0.640231464748918
 40
0.9311500255532783
 40
0.9311500255532783
 40
1.222068586357597
 40
1.222068586357597
 40
1.508955480116238
 40
1.508955480116238
 40
1.508955480116238
 40
1.508955480116238
 10
6.723033595118295
 20
9.192537476792267
 30
-0.1312500000000089
 10
6.71959247861298
 20
9.194081881648685
 30
-0.131250000000009
 10
6.715765564151524
 20
9.195363120770707
 30
-0.1306492446292511
 10
6.707883679878477
 20
9.19706179477464
 30
-0.1293364438813682
 10
6.70381923997013
 20
9.197469049314349
 30
-0.1286675418738569
 10
6.696183582206344
 20
9.197469049314349
 30
-0.1286675418738571
 10
6.692119142298224
 20
9.19706179477464
 30
-0.1293364438813684
 10
6.684237258025063
 20
9.195363120770707
 30
-0.1306492446292511
 10
6.680410343563607
 20
9.194081881648685
 30
-0.1312500000000094
 10
6.676969227058293
 20
9.192537476792267
 30
-0.1312500000000089
1001
ACAD_VIEW_EDGE_ID
1071
      316
1071
       -1
1071
        2
1071
        0
  0
SPLINE
  5
5AB
330
70
100
AcDbEntity
  8
Visible
100
AcDbSpline
 70
     0
 71
     3
 72
    14
 73
    10
 74
     0
 42
0.000000001
 43
0.0000000001
 40
0.3533445709903241
 40
0.3533445709903241
 40
0.3533445709903241
 40
0.3533445709903241
 40
0.6402314647489073
 40
0.6402314647489073
 40
0.9311500255532539
 40
0.9311500255532539
 40
1.2220685863576
 40
1.2220685863576
 40
1.508955480116189
 40
1.508955480116189
 40
1.508955480116189
 40
1.508955480116189
 10
5.523033595118363
 20
9.192537476792267
 30
-0.1312500000000085
 10
5.519592478612935
 20
9.194081881648685
 30
-0.1312500000000086
 10
5.515765564151593
 20
9.195363120770707
 30
-0.1306492446292513
 10
5.507883679878545
 20
9.19706179477464
 30
-0.1293364438813685
 10
5.503819239970198
 20
9.197469049314349
 30
-0.1286675418738572
 10
5.496183582206413
 20
9.197469049314349
 30
-0.1286675418738572
 10
5.492119142298292
 20
9.19706179477464
 30
-0.1293364438813688
 10
5.484237258025018
 20
9.195363120770707
 30
-0.1306492446292513
 10
5.480410343563676
 20
9.194081881648685
 30
-0.1312500000000089
 10
5.476969227058248
 20
9.192537476792267
 30
-0.1312500000000085
1001
ACAD_VIEW_EDGE_ID
1071
      314
1071
       -1
1071
        2
1071
        0
  0
SPLINE
  5
5AC
330
70
100
AcDbEntity
  8
Visible
100
AcDbSpline
 70
     0
 71
     3
 72
    14
 73
    10
 74
     0
 42
0.000000001
 43
0.0000000001
 40
0.3533445709902781
 40
0.3533445709902781
 40
0.3533445709902781
 40
0.3533445709902781
 40
0.6402314647489069
 40
0.6402314647489069
 40
0.9311500255532401
 40
0.9311500255532401
 40
1.222068586357573
 40
1.222068586357573
 40
1.508955480116202
 40
1.508955480116202
 40
1.508955480116202
 40
1.508955480116202
 10
4.323033595118317
 20
9.192537476792267
 30
-0.1312500000000081
 10
4.319592478612889
 20
9.194081881648685
 30
-0.1312500000000083
 10
4.315765564151547
 20
9.195363120770707
 30
-0.1306492446292517
 10
4.3078836798785
 20
9.19706179477464
 30
-0.1293364438813688
 10
4.30381923997038
 20
9.197469049314349
 30
-0.1286675418738575
 10
4.296183582206367
 20
9.197469049314349
 30
-0.1286675418738575
 10
4.292119142298247
 20
9.19706179477464
 30
-0.1293364438813688
 10
4.284237258024973
 20
9.195363120770707
 30
-0.1306492446292517
 10
4.28041034356363
 20
9.194081881648685
 30
-0.1312500000000083
 10
4.276969227058202
 20
9.192537476792267
 30
-0.1312500000000081
1001
ACAD_VIEW_EDGE_ID
1071
      312
1071
       -1
1071
        2
1071
        0
  0
SPLINE
  5
5AD
330
70
100
AcDbEntity
  8
Visible
100
AcDbSpline
 70
     0
 71
     3
 72
    14
 73
    10
 74
     0
 42
0.000000001
 43
0.0000000001
 40
0.353344570990336
 40
0.353344570990336
 40
0.353344570990336
 40
0.353344570990336
 40
0.6402314647489069
 40
0.6402314647489069
 40
0.9311500255532401
 40
0.9311500255532401
 40
1.222068586357573
 40
1.222068586357573
 40
1.508955480116154
 40
1.508955480116154
 40
1.508955480116154
 40
1.508955480116154
 10
3.123033595118272
 20
9.192537476792267
 30
-0.1312500000000077
 10
3.119592478612958
 20
9.194081881648685
 30
-0.1312500000000079
 10
3.115765564151502
 20
9.195363120770707
 30
-0.1306492446292518
 10
3.107883679878455
 20
9.19706179477464
 30
-0.1293364438813691
 10
3.103819239970334
 20
9.197469049314349
 30
-0.1286675418738578
 10
3.096183582206435
 20
9.197469049314349
 30
-0.1286675418738578
 10
3.092119142298201
 20
9.19706179477464
 30
-0.1293364438813691
 10
3.084237258025041
 20
9.195363120770707
 30
-0.1306492446292519
 10
3.080410343563585
 20
9.194081881648685
 30
-0.1312500000000081
 10
3.07696922705827
 20
9.192537476792267
 30
-0.1312500000000077
1001
ACAD_VIEW_EDGE_ID
1071
      310
1071
       -1
1071
        2
1071
        0
  0
LINE
  5
5AE
330
70
100
AcDbEntity
  8
Visible
100
AcDbLine
 10
14.5
 20
9.278717
 30
0.19375
 11
2.5
 21
9.278717
 31
0.19375
  0
ARC
  5
5AF
330
70
100
AcDbEntity
  8
Visible
100
AcDbCircle
 10
10.300001
 20
9.141219
 30
-0.13125
 40
0.0562499999999992
100
AcDbArc
 50
294.163219
 51
65.829017
  0
ARC
  5
5B0
330
70
100
AcDbEntity
  8
Visible
100
AcDbCircle
 10
11.500001
 20
9.141219
 30
-0.13125
 40
0.0562499999999992
100
AcDbArc
 50
294.163219
 51
65.829017
  0
LINE
  5
5B1
330
70
100
AcDbEntity
  8
Visible
100
AcDbLine
 10
14.5
 20
9.003717
 30
0.19375
 11
2.5
 21
9.003717
 31
0.19375
  0
LINE
  5
5B2
330
70
100
AcDbEntity
  8
Visible
100
AcDbLine
 10
14.5
 20
9.016217
 30
0.20625
 11
14.5
 21
9.02772
 31
0.20625
  0
ARC
  5
5B3
330
70
100
AcDbEntity
  8
Visible
100
AcDbCircle
 10
11.500001
 20
9.141219
 30
-0.13125
 40
0.0562499999999994
100
AcDbArc
 50
114.170983
 51
245.836781
  0
ARC
  5
5B4
330
70
100
AcDbEntity
  8
Visible
100
AcDbCircle
 10
12.700001
 20
9.141219
 30
-0.13125
 40
0.0562499999999995
100
AcDbArc
 50
114.170983
 51
245.836781
  0
ARC
  5
5B5
330
70
100
AcDbEntity
  8
Visible
100
AcDbCircle
 10
12.700001
 20
9.141219
 30
-0.13125
 40
0.0562499999999994
100
AcDbArc
 50
294.163219
 51
65.829017
  0
ARC
  5
5B6
330
70
100
AcDbEntity
  8
Visible
100
AcDbCircle
 10
13.900001
 20
9.141219
 30
-0.13125
 40
0.0562499999999993
100
AcDbArc
 50
294.163219
 51
65.829017
  0
ARC
  5
5B7
330
70
100
AcDbEntity
  8
Visible
100
AcDbCircle
 10
13.900001
 20
9.141219
 30
-0.13125
 40
0.0562499999999993
100
AcDbArc
 50
114.170983
 51
245.836781
  0
ARC
  5
5B8
330
70
100
AcDbEntity
  8
Visible
100
AcDbCircle
 10
-9.038717
 20
0.15025
 30
-14.5
 40
0.006
210
-1.0
220
0.0000000000000002
230
-0.0000000000000002
100
AcDbArc
 50
90.0
 51
180.0
  0
ARC
  5
5B9
330
70
100
AcDbEntity
  8
Visible
100
AcDbCircle
 10
9.050717
 20
-0.00025
 30
14.5
 40
0.006
210
1.0
220
-0.0000000000000002
230
0.0000000000000002
100
AcDbArc
 50
180.0
 51
270.0
  0
ARC
  5
5BA
330
70
100
AcDbEntity
  8
Visible
100
AcDbCircle
 10
-9.076217
 20
-0.01225
 30
-14.5
 40
0.006
210
-1.0
220
0.0000000000000002
230
-0.0000000000000002
100
AcDbArc
 50
90.0
 51
180.0
  0
ARC
  5
5BB
330
70
100
AcDbEntity
  8
Visible
100
AcDbCircle
 10
9.089898
 20
-0.12525
 30
14.5
 40
0.0060000000000001
210
1.0
220
-0.0000000000000002
230
0.0000000000000002
100
AcDbArc
 50
183.052883
 51
270.0
  0
ARC
  5
5BC
330
70
100
AcDbEntity
  8
Visible
100
AcDbCircle
 10
3.100001
 20
9.141219
 30
-0.13125
 40
0.0562500000000003
100
AcDbArc
 50
114.170983
 51
245.836781
  0
ARC
  5
5BD
330
70
100
AcDbEntity
  8
Visible
100
AcDbCircle
 10
9.192537
 20
-0.12525
 30
14.5
 40
0.006
210
1.0
220
-0.0000000000000002
230
0.0000000000000002
100
AcDbArc
 50
270.0
 51
356.947117
  0
ARC
  5
5BE
330
70
100
AcDbEntity
  8
Visible
100
AcDbCircle
 10
-9.206217
 20
-0.01225
 30
-14.5
 40
0.006
210
-1.0
220
0.0000000000000002
230
-0.0000000000000002
100
AcDbArc
 50
0.0
 51
90.0
  0
ARC
  5
5BF
330
70
100
AcDbEntity
  8
Visible
100
AcDbCircle
 10
9.231717
 20
-0.00025
 30
14.5
 40
0.006
210
1.0
220
-0.0000000000000002
230
0.0000000000000002
100
AcDbArc
 50
270.0
 51
0.0
  0
ARC
  5
5C0
330
70
100
AcDbEntity
  8
Visible
100
AcDbCircle
 10
9.02772
 20
0.2
 30
2.5
 40
0.0062499999999999
210
1.0
220
-0.0000000000000002
230
0.0
100
AcDbArc
 50
360.0
 51
90.0
  0
ARC
  5
5C1
330
70
100
AcDbEntity
  8
Visible
100
AcDbCircle
 10
9.016217
 20
0.19375
 30
2.5
 40
0.0125
210
1.0
220
-0.0000000000000002
230
0.0
100
AcDbArc
 50
90.0
 51
180.0
  0
ARC
  5
5C2
330
70
100
AcDbEntity
  8
Visible
100
AcDbCircle
 10
9.266217
 20
0.19375
 30
2.5
 40
0.0125
210
1.0
220
-0.0000000000000002
230
0.0
100
AcDbArc
 50
360.0
 51
90.0
  0
ARC
  5
5C3
330
70
100
AcDbEntity
  8
Visible
100
AcDbCircle
 10
9.254715
 20
0.2
 30
2.5
 40
0.0062500000000001
210
1.0
220
-0.0000000000000002
230
0.0
100
AcDbArc
 50
90.0
 51
180.0
  0
ARC
  5
5C4
330
70
100
AcDbEntity
  8
Visible
100
AcDbCircle
 10
9.243717
 20
0.15025
 30
2.5
 40
0.006
210
1.0
220
-0.0000000000000002
230
0.0
100
AcDbArc
 50
90.0
 51
180.0
  0
ARC
  5
5C5
330
70
100
AcDbEntity
  8
Visible
100
AcDbCircle
 10
-9.231717
 20
-0.00025
 30
-2.5
 40
0.006
210
-1.0
220
0.0000000000000002
230
0.0
100
AcDbArc
 50
180.0
 51
270.0
  0
ARC
  5
5C6
330
70
100
AcDbEntity
  8
Visible
100
AcDbCircle
 10
9.206217
 20
-0.01225
 30
2.5
 40
0.006
210
1.0
220
-0.0000000000000002
230
0.0
100
AcDbArc
 50
90.0
 51
180.0
  0
LINE
  5
5C7
330
70
100
AcDbEntity
  8
Visible
100
AcDbLine
 10
14.5
 20
9.089898
 30
-0.13125
 11
14.5
 21
9.192537
 31
-0.13125
  0
LINE
  5
5C8
330
70
100
AcDbEntity
  8
Visible
100
AcDbLine
 10
14.5
 20
9.03397
 30
0.15625
 11
14.5
 21
9.038717
 31
0.15625
  0
ARC
  5
5C9
330
70
100
AcDbEntity
  8
Visible
100
AcDbCircle
 10
-9.192537
 20
-0.12525
 30
-2.5
 40
0.006
210
-1.0
220
0.0000000000000002
230
0.0
100
AcDbArc
 50
183.052883
 51
270.0
  0
LINE
  5
5CA
330
70
100
AcDbEntity
  8
Visible
100
AcDbLine
 10
14.5
 20
9.044717
 30
0.15025
 11
2.5
 21
9.044717
 31
0.15025
  0
ARC
  5
5CB
330
70
100
AcDbEntity
  8
Visible
100
AcDbCircle
 10
-9.089898
 20
-0.12525
 30
-2.5
 40
0.006
210
-1.0
220
0.0000000000000002
230
0.0
100
AcDbArc
 50
270.0
 51
356.947117
  0
LINE
  5
5CC
330
70
100
AcDbEntity
  8
Visible
100
AcDbLine
 10
14.5
 20
9.050717
 30
-0.00625
 11
14.5
 21
9.076217
 31
-0.00625
  0
LINE
  5
5CD
330
70
100
AcDbEntity
  8
Visible
100
AcDbLine
 10
14.5
 20
9.082217
 30
-0.01225
 11
2.5
 21
9.082217
 31
-0.01225
  0
LINE
  5
5CE
330
70
100
AcDbEntity
  8
Visible
100
AcDbLine
 10
14.5
 20
9.082217
 30
-0.09391
 11
14.5
 21
9.083906
 31
-0.12557
  0
ARC
  5
5CF
330
70
100
AcDbEntity
  8
Visible
100
AcDbCircle
 10
9.076217
 20
-0.01225
 30
2.5
 40
0.006
210
1.0
220
-0.0000000000000002
230
0.0
100
AcDbArc
 50
0.0
 51
90.0
  0
LINE
  5
5D0
330
70
100
AcDbEntity
  8
Visible
100
AcDbLine
 10
14.5
 20
9.198529
 30
-0.12557
 11
14.5
 21
9.200217
 31
-0.09391
  0
ARC
  5
5D1
330
70
100
AcDbEntity
  8
Visible
100
AcDbCircle
 10
-9.050717
 20
-0.00025
 30
-2.5
 40
0.006
210
-1.0
220
0.0000000000000002
230
0.0
100
AcDbArc
 50
270.0
 51
0.0
  0
LINE
  5
5D2
330
70
100
AcDbEntity
  8
Visible
100
AcDbLine
 10
14.5
 20
9.200217
 30
-0.01225
 11
2.5
 21
9.200217
 31
-0.01225
  0
LINE
  5
5D3
330
70
100
AcDbEntity
  8
Visible
100
AcDbLine
 10
14.5
 20
9.206217
 30
-0.00625
 11
14.5
 21
9.231717
 31
-0.00625
  0
ARC
  5
5D4
330
70
100
AcDbEntity
  8
Visible
100
AcDbCircle
 10
9.038717
 20
0.15025
 30
2.5
 40
0.006
210
1.0
220
-0.0000000000000002
230
0.0
100
AcDbArc
 50
0.0
 51
90.0
  0
LINE
  5
5D5
330
70
100
AcDbEntity
  8
Visible
100
AcDbLine
 10
2.5
 20
9.02772
 30
0.20625
 11
2.5
 21
9.016217
 31
0.20625
  0
LINE
  5
5D6
330
70
100
AcDbEntity
  8
Visible
100
AcDbLine
 10
2.5
 20
9.266217
 30
0.20625
 11
2.5
 21
9.254715
 31
0.20625
  0
LINE
  5
5D7
330
70
100
AcDbEntity
  8
Visible
100
AcDbLine
 10
2.5
 20
9.248465
 30
0.15625
 11
2.5
 21
9.243717
 31
0.15625
  0
LINE
  5
5D8
330
70
100
AcDbEntity
  8
Visible
100
AcDbLine
 10
2.5
 20
9.231717
 30
-0.00625
 11
2.5
 21
9.206217
 31
-0.00625
  0
LINE
  5
5D9
330
70
100
AcDbEntity
  8
Visible
100
AcDbLine
 10
2.5
 20
9.200217
 30
-0.09391
 11
2.5
 21
9.198529
 31
-0.12557
  0
LINE
  5
5DA
330
70
100
AcDbEntity
  8
Visible
100
AcDbLine
 10
2.5
 20
9.192537
 30
-0.13125
 11
2.5
 21
9.089898
 31
-0.13125
  0
LINE
  5
5DB
330
70
100
AcDbEntity
  8
Visible
100
AcDbLine
 10
2.5
 20
9.083906
 30
-0.12557
 11
2.5
 21
9.082217
 31
-0.09391
  0
LINE
  5
5DC
330
70
100
AcDbEntity
  8
Visible
100
AcDbLine
 10
2.5
 20
9.076217
 30
-0.00625
 11
2.5
 21
9.050717
 31
-0.00625
  0
LINE
  5
5DD
330
70
100
AcDbEntity
  8
Visible
100
AcDbLine
 10
2.5
 20
9.038717
 30
0.15625
 11
2.5
 21
9.03397
 31
0.15625
  0
SPLINE
  5
5DE
330
70
100
AcDbEntity
  8
Visible
100
AcDbSpline
 70
     0
 71
     3
 72
    14
 73
    10
 74
     0
 42
0.000000001
 43
0.0000000001
 40
0.3534006752903034
 40
0.3534006752903034
 40
0.3534006752903034
 40
0.3534006752903034
 40
0.6401377059579504
 40
0.6401377059579504
 40
0.9309921460864796
 40
0.9309921460864796
 40
1.221846586215008
 40
1.221846586215008
 40
1.508583616882691
 40
1.508583616882691
 40
1.508583616882691
 40
1.508583616882691
 10
3.547090609163205
 20
4.733361352347856
 30
-1.312511648030849
 10
3.581487269755598
 20
4.717929413549427
 30
-1.31251164803085
 10
3.619739086700064
 20
4.705126505126827
 30
-1.306513143655318
 10
3.698534196226319
 20
4.688147876737275
 30
-1.293406767516075
 10
3.739173026804564
 20
4.684076835532323
 30
-1.286732057177229
 10
3.815512774870512
 20
4.684076835532323
 30
-1.286732057177228
 10
3.856151605446939
 20
4.688147876737275
 30
-1.293406767516076
 10
3.934946714973193
 20
4.705126505126827
 30
-1.306513143655319
 10
3.973198531919479
 20
4.717929413549427
 30
-1.31251164803085
 10
4.007595192510052
 20
4.733361352347856
 30
-1.312511648030849
1001
ACAD_VIEW_EDGE_ID
1071
      352
1071
       -1
1071
        2
1071
        0
  0
ARC
  5
5DF
330
70
100
AcDbEntity
  8
Visible
100
AcDbCircle
 10
3.777343
 20
5.246577
 30
-1.312512
 40
0.5624999999999987
100
AcDbArc
 50
114.170983
 51
245.836781
  0
SPLINE
  5
5E0
330
70
100
AcDbEntity
  8
Visible
100
AcDbSpline
 70
     0
 71
     3
 72
    14
 73
    10
 74
     0
 42
0.000000001
 43
0.0000000001
 40
0.3533445709902639
 40
0.3533445709902639
 40
0.3533445709902639
 40
0.3533445709902639
 40
0.6402314647489073
 40
0.6402314647489073
 40
0.9311500255532539
 40
0.9311500255532539
 40
1.2220685863576
 40
1.2220685863576
 40
1.508955480116213
 40
1.508955480116213
 40
1.508955480116213
 40
1.508955480116213
 10
4.007664741136977
 20
5.759761110311956
 30
-1.312511648030848
 10
3.973253576083152
 20
5.775205158875905
 30
-1.312511648030851
 10
3.934984431469274
 20
5.788017550095901
 30
-1.306504094323265
 10
3.856165588738804
 20
5.805004290135912
 30
-1.293376086844435
 10
3.815521189657374
 20
5.809076835532323
 30
-1.286687066769323
 10
3.739164612017702
 20
5.809076835532323
 30
-1.286687066769323
 10
3.698520212936273
 20
5.805004290135912
 30
-1.293376086844438
 10
3.619701370203983
 20
5.788017550095901
 30
-1.306504094323264
 10
3.581432225590106
 20
5.775205158875905
 30
-1.312511648030849
 10
3.54702106053628
 20
5.759761110311956
 30
-1.312511648030848
1001
ACAD_VIEW_EDGE_ID
1071
      292
1071
       -1
1071
        2
1071
        0
  0
ARC
  5
5E1
330
70
100
AcDbEntity
  8
Visible
100
AcDbCircle
 10
3.777343
 20
5.246577
 30
-1.312512
 40
0.5624999999999984
100
AcDbArc
 50
294.163219
 51
65.829017
  0
SPLINE
  5
5E2
330
70
100
AcDbEntity
  8
Visible
100
AcDbSpline
 70
     0
 71
     3
 72
    16
 73
    12
 74
     0
 42
0.000000001
 43
0.0000000001
 40
0.5728753219219224
 40
0.5728753219219224
 40
0.5728753219219224
 40
0.5728753219219224
 40
0.7575805202352562
 40
0.7575805202352562
 40
0.9422857185485899
 40
0.9422857185485899
 40
1.062445510927647
 40
1.062445510927647
 40
1.122525407117175
 40
1.122525407117175
 40
1.182605303306704
 40
1.182605303306704
 40
1.182605303306704
 40
1.182605303306704
 10
4.984796728265791
 20
3.996561231329906
 30
2.062488351969241
 10
4.967362556148145
 20
3.979720675277349
 30
2.062488351969241
 10
4.948116553643558
 20
3.961899803760388
 30
2.058946802653582
 10
4.910763316040174
 20
3.928827168734642
 30
2.044098232260198
 10
4.892648768767685
 20
3.913552438158149
 30
2.032860852401839
 10
4.867825635712506
 20
3.893250965547849
 30
2.008937126418204
 10
4.858168899569136
 20
3.885556570032349
 30
1.996867097887486
 10
4.847803573813507
 20
3.877410295483059
 30
1.976008116976099
 10
4.845019459686227
 20
3.875243101292653
 30
1.968596291838069
 10
4.841251462510626
 20
3.872317756109623
 30
1.953279218300309
 10
4.840270859034717
 20
3.871561231329906
 30
1.945372852781518
 10
4.840270859034717
 20
3.871561231329906
 30
1.937488351969244
1001
ACAD_VIEW_EDGE_ID
1071
      242
1071
       -1
1071
        2
1071
        0
  0
SPLINE
  5
5E3
330
70
100
AcDbEntity
  8
Visible
100
AcDbSpline
 70
     0
 71
     3
 72
    14
 73
    10
 74
     0
 42
0.000000001
 43
0.0000000001
 40
-0.0000000000000027
 40
0.0
 40
0.0
 40
0.0
 40
0.0636179894951985
 40
0.0636179894951985
 40
0.127235978990397
 40
0.127235978990397
 40
0.2016892066115481
 40
0.2016892066115481
 40
0.2761424342326993
 40
0.2761424342326993
 40
0.2761424342326993
 40
0.2761424342326993
 10
5.144911324130589
 20
4.174084241742093
 30
1.999988351969242
 10
5.144911324130589
 20
4.174084241742093
 30
2.008337169488297
 10
5.143521963107559
 20
4.172306758024205
 30
2.01698369322469
 10
5.138308789999427
 20
4.165709924733164
 30
2.032337626673683
 10
5.134490043734331
 20
4.160907093824789
 30
2.039053847536419
 10
5.125516346961376
 20
4.149776235166427
 30
2.050184706193835
 10
5.119547309923291
 20
4.142461163510233
 30
2.054957357161064
 10
5.10673124922323
 20
4.127063230289422
 30
2.061106079778892
 10
5.09988322207937
 20
4.118983680773453
 30
2.062488351969241
 10
5.093502301580883
 20
4.111584241742093
 30
2.062488351969241
1001
ACAD_VIEW_EDGE_ID
1071
      240
1071
       -1
1071
        2
1071
        0
  0
ARC
  5
5E4
330
70
100
AcDbEntity
  8
Visible
100
AcDbCircle
 10
-3.777343
 20
5.246577
 30
-2.062488
 40
1.737953899304674
210
0.0
220
0.0
230
-1.0
100
AcDbArc
 50
220.772904
 51
225.992227
  0
SPLINE
  5
5E5
330
70
100
AcDbEntity
  8
Visible
100
AcDbSpline
 70
     0
 71
     3
 72
    14
 73
    10
 74
     0
 42
0.000000001
 43
0.0000000001
 40
0.0
 40
0.0
 40
0.0
 40
0.0
 40
0.0567789068128851
 40
0.0567789068128851
 40
0.1135578136257701
 40
0.1135578136257701
 40
0.1846849610596078
 40
0.1846849610596078
 40
0.2558121084934454
 40
0.2558121084934454
 40
0.2558121084934454
 40
0.2558121084934454
 10
5.222759325182778
 20
4.28156123132976
 30
1.502488351969249
 10
5.222759325182778
 20
4.28156123132976
 30
1.509939652075927
 10
5.221774818488484
 20
4.280082169088927
 30
1.517770862916378
 10
5.217951254007857
 20
4.274392142146098
 30
1.531935761869933
 10
5.21511493312937
 20
4.270192560465147
 30
1.538274758396013
 10
5.208045313280308
 20
4.259853533696514
 30
1.549449748716038
 10
5.203072510617857
 20
4.252661664984771
 30
1.554473998968861
 10
5.192227393687062
 20
4.237282944492108
 30
1.56099110511849
 10
5.186353266852165
 20
4.229099232235967
 30
1.562488351969249
 10
5.180848072635853
 20
4.221561231330269
 30
1.562488351969249
1001
ACAD_VIEW_EDGE_ID
1071
      230
1071
       -1
1071
        2
1071
        0
  0
ELLIPSE
  5
5E6
330
70
100
AcDbEntity
  8
Visible
100
AcDbEllipse
 10
3.777343
 20
5.246577
 30
-12.001901
 11
-0.00000000168112
 21
-1.737953901725155
 31
32.58663565734832
210
-0.0000000000000002
220
-0.9985808046778268
230
-0.0532576429161481
 40
0.0532576428508952
 41
-1.234733176275064
 42
-1.22442313115359
1001
ACAD_VIEW_EDGE_ID
1071
      216
1071
       -1
1071
        2
1071
        0
  0
SPLINE
  5
5E7
330
70
100
AcDbEntity
  8
Visible
100
AcDbSpline
 70
     0
 71
     3
 72
    14
 73
    10
 74
     0
 42
0.000000001
 43
0.0000000001
 40
0.2483038834296459
 40
0.2483038834296459
 40
0.2483038834296459
 40
0.2483038834296459
 40
0.3140507231341782
 40
0.3140507231341782
 40
0.3797975628387103
 40
0.3797975628387103
 40
0.4397221748803599
 40
0.4397221748803599
 40
0.4996467869220095
 40
0.4996467869220095
 40
0.4996467869220095
 40
0.4996467869220095
 10
5.261064745482144
 20
4.341561231329251
 30
-0.0625116480307382
 10
5.256571731955773
 20
4.334195190032914
 30
-0.0625116480307382
 10
5.251670709823883
 20
4.326295676371955
 30
-0.0610817518899052
 10
5.242355366399351
 20
4.31153759785775
 30
-0.0550671011390729
 10
5.237943464519048
 20
4.304677972198987
 30
-0.0504812026429353
 10
5.231053571515076
 20
4.29408255153794
 30
-0.0398857819811354
 10
5.228013134905268
 20
4.289469863291742
 30
-0.03334511548662
 10
5.223859630272272
 20
4.283203991944901
 30
-0.0185941172941506
 10
5.222759325182778
 20
4.28156123132976
 30
-0.0103757703459264
 10
5.222759325182778
 20
4.28156123132976
 30
-0.0025116480307497
1001
ACAD_VIEW_EDGE_ID
1071
      220
1071
       -1
1071
        2
1071
        0
  0
ARC
  5
5E8
330
70
100
AcDbEntity
  8
Visible
100
AcDbCircle
 10
-3.777343
 20
5.246577
 30
-1.562488
 40
1.737953899335954
210
0.0
220
0.0
230
-1.0
100
AcDbArc
 50
216.141608
 51
218.104721
  0
SPLINE
  5
5E9
330
70
100
AcDbEntity
  8
Visible
100
AcDbSpline
 70
     0
 71
     3
 72
    14
 73
    10
 74
     0
 42
0.000000001
 43
0.0000000001
 40
0.0
 40
0.0
 40
0.0
 40
0.0
 40
0.0571594988119229
 40
0.0571594988119229
 40
0.1143189976238457
 40
0.1143189976238457
 40
0.1761211498859576
 40
0.1761211498859576
 40
0.2379233021480695
 40
0.2379233021480695
 40
0.2379233021480695
 40
0.2379233021480695
 10
5.412079987627294
 20
4.65656123132976
 30
-0.1225116480307495
 10
5.412079987627294
 20
4.65656123132976
 30
-0.1150104014675048
 10
5.411542505087709
 20
4.65506561991242
 30
-0.1070428801644798
 10
5.409367355086942
 20
4.64909039590384
 30
-0.0924661316170223
 10
5.407727413525208
 20
4.644613953969383
 30
-0.0858559442929297
 10
5.403798403074688
 20
4.634073441558939
 30
-0.0750306180303009
 10
5.401189479685854
 20
4.627165278539905
 30
-0.0702679436401421
 10
5.395389558301758
 20
4.612168920331896
 30
-0.064010260266943
 10
5.39219625703663
 20
4.604083119913411
 30
-0.0625116480307382
 10
5.389162825773382
 20
4.596561231330269
 30
-0.0625116480307382
1001
ACAD_VIEW_EDGE_ID
1071
      218
1071
       -1
1071
        2
1071
        0
  0
ELLIPSE
  5
5EA
330
70
100
AcDbEntity
  8
Visible
100
AcDbEllipse
 10
3.777343
 20
5.246577
 30
-12.001316
 11
-0.0000000036466229
 21
1.737953904492833
 31
32.58663570924166
210
0.0000000000000002
220
0.9985808046778267
230
-0.0532576429161491
 40
0.0532576427767219
 41
1.224442222447191
 42
1.234752197785066
1001
ACAD_VIEW_EDGE_ID
1071
      212
1071
       -1
1071
        2
1071
        0
  0
SPLINE
  5
5EB
330
70
100
AcDbEntity
  8
Visible
100
AcDbSpline
 70
     0
 71
     3
 72
    14
 73
    10
 74
     0
 42
0.000000001
 43
0.0000000001
 40
0.2344673565167199
 40
0.2344673565167199
 40
0.2344673565167199
 40
0.2344673565167199
 40
0.2941835103807758
 40
0.2941835103807758
 40
0.3538996642448317
 40
0.3538996642448317
 40
0.4120021438198596
 40
0.4120021438198596
 40
0.4620491148503589
 40
0.4620491148503589
 40
0.4620491148503589
 40
0.4620491148503589
 10
5.43779272662141
 20
4.733361352347856
 30
-1.312511648030753
 10
5.435478540126496
 20
4.725874067398763
 30
-1.312511648030753
 10
5.432946181121224
 20
4.717878583178389
 30
-1.311027708395681
 10
5.428155340508965
 20
4.703104340593199
 30
-1.304936438757409
 10
5.425899579393444
 20
4.696325079452435
 30
-1.300328188877665
 10
5.422311250838902
 20
4.685690465901643
 30
-1.289693575327048
 10
5.420722929062321
 20
4.681071324395816
 30
-1.283005118937088
 10
5.418736167064707
 20
4.675332755443378
 30
-1.269251990437831
 10
5.418200171981879
 20
4.673801737042595
 30
-1.262367724878993
 10
5.418076084290078
 20
4.673446504068124
 30
-1.25570710660572
1001
ACAD_VIEW_EDGE_ID
1071
      215
1071
       -1
1071
        2
1071
        0
  0
ARC
  5
5EC
330
70
100
AcDbEntity
  8
Visible
100
AcDbCircle
 10
-3.777343
 20
5.246577
 30
0.062512
 40
1.737953899305989
210
0.0
220
0.0
230
-1.0
100
AcDbArc
 50
201.963261
 51
211.381651
  0
SPLINE
  5
5ED
330
70
100
AcDbEntity
  8
Visible
100
AcDbSpline
 70
     0
 71
     3
 72
    14
 73
    10
 74
     0
 42
0.000000001
 43
0.0000000001
 40
0.0080555077078337
 40
0.0080555077078337
 40
0.0080555077078337
 40
0.0080555077078337
 40
0.058102394010092
 40
0.058102394010092
 40
0.116204788020184
 40
0.116204788020184
 40
0.1759206494951309
 40
0.1759206494951309
 40
0.2356365109700777
 40
0.2356365109700777
 40
0.2356365109700777
 40
0.2356365109700777
 10
5.418086985477202
 20
5.819675958591687
 30
-1.25570710660572
 10
5.418211065401919
 20
5.819320726146543
 30
-1.262367714966023
 10
5.4187470264078
 20
5.817789711696605
 30
-1.269251974052411
 10
5.4207336644522
 20
5.812051148126556
 30
-1.283005101854961
 10
5.422321888192527
 20
5.807432006704402
 30
-1.289693565379538
 10
5.425909992838569
 20
5.796797391436484
 30
-1.3003281806474
 10
5.428165610026553
 20
5.79001813486866
 30
-1.304936431539542
 10
5.43295614276576
 20
5.775243891579521
 30
-1.311027705347618
 10
5.435488337823699
 20
5.767248402094992
 30
-1.312511648030753
 10
5.437802372263831
 20
5.759761110311956
 30
-1.312511648030753
1001
ACAD_VIEW_EDGE_ID
1071
      213
1071
       -1
1071
        2
1071
        0
  0
SPLINE
  5
5EE
330
70
100
AcDbEntity
  8
Visible
100
AcDbSpline
 70
     0
 71
     3
 72
    14
 73
    10
 74
     0
 42
0.000000001
 43
0.0000000001
 40
0.2395581665897176
 40
0.2395581665897176
 40
0.2395581665897176
 40
0.2395581665897176
 40
0.3013598314210617
 40
0.3013598314210617
 40
0.3631614962524059
 40
0.3631614962524059
 40
0.4203210189164567
 40
0.4203210189164567
 40
0.4774805415805076
 40
0.4774805415805076
 40
0.4774805415805076
 40
0.4774805415805076
 10
5.389175411166434
 20
5.896561231329542
 30
-0.0625116480307382
 10
5.392208672865308
 20
5.889039343339391
 30
-0.0625116480307382
 10
5.395401791376571
 20
5.88095354869074
 30
-0.0640102603907111
 10
5.401201372436844
 20
5.865957212716239
 30
-0.0702679289284436
 10
5.403810138315748
 20
5.859049066020816
 30
-0.0750305880948736
 10
5.407738923822762
 20
5.848508541073897
 30
-0.0858558960547562
 10
5.409378773956632
 20
5.84403208371259
 30
-0.092466098430362
 10
5.411553800497131
 20
5.838056843718732
 30
-0.1070428696159102
 10
5.412091251149831
 20
5.836561231330051
 30
-0.1150103983373047
 10
5.412091251149831
 20
5.836561231330051
 30
-0.1225116480307495
1001
ACAD_VIEW_EDGE_ID
1071
      210
1071
       -1
1071
        2
1071
        0
  0
ARC
  5
5EF
330
70
100
AcDbEntity
  8
Visible
100
AcDbCircle
 10
-3.777343
 20
5.246577
 30
1.312512
 40
1.737953899305392
210
0.0
220
0.0
230
-1.0
100
AcDbArc
 50
162.825629
 51
197.175448
  0
SPLINE
  5
5F0
330
70
100
AcDbEntity
  8
Visible
100
AcDbSpline
 70
     0
 71
     3
 72
    14
 73
    10
 74
     0
 42
0.000000001
 43
0.0000000001
 40
0.0
 40
0.0
 40
0.0
 40
0.0
 40
0.0599243819212744
 40
0.0599243819212744
 40
0.1198487638425487
 40
0.1198487638425487
 40
0.1855948696353598
 40
0.1855948696353598
 40
0.2513409754281708
 40
0.2513409754281708
 40
0.2513409754281708
 40
0.2513409754281708
 10
5.222780160629554
 20
6.211561231330051
 30
-0.0025116480307497
 10
5.222780160629554
 20
6.211561231330051
 30
-0.0103757401464022
 10
5.22388040610167
 20
6.209918482982175
 30
-0.0185940727247163
 10
5.228033708997827
 20
6.203652623020389
 30
-0.0333450754957179
 10
5.231074004675974
 20
6.199039933044332
 30
-0.0398857600578144
 10
5.237963578272683
 20
6.188444506997257
 30
-0.0504811861061256
 10
5.242375268198884
 20
6.18158488940935
 30
-0.0550670874680779
 10
5.251690175091425
 20
6.166826808715995
 30
-0.0610817463917903
 10
5.256590972572666
 20
6.158927284905075
 30
-0.0625116480307382
 10
5.261083781009801
 20
6.15156123133056
 30
-0.0625116480307382
1001
ACAD_VIEW_EDGE_ID
1071
      208
1071
       -1
1071
        2
1071
        0
  0
ARC
  5
5F1
330
70
100
AcDbEntity
  8
Visible
100
AcDbCircle
 10
-3.777343
 20
5.246577
 30
0.062512
 40
1.737953899305368
210
0.0
220
0.0
230
-1.0
100
AcDbArc
 50
148.619554
 51
158.037848
  0
SPLINE
  5
5F2
330
70
100
AcDbEntity
  8
Visible
100
AcDbSpline
 70
     0
 71
     3
 72
    14
 73
    10
 74
     0
 42
0.000000001
 43
0.0000000001
 40
0.2599260771323805
 40
0.2599260771323805
 40
0.2599260771323805
 40
0.2599260771323805
 40
0.3310520501563557
 40
0.3310520501563557
 40
0.4021780231803311
 40
0.4021780231803311
 40
0.4589569695733711
 40
0.4589569695733711
 40
0.5157359159664111
 40
0.5157359159664111
 40
0.5157359159664111
 40
0.5157359159664111
 10
5.180870864400276
 20
6.271561231329542
 30
1.562488351969249
 10
5.186375800103633
 20
6.264023232477484
 30
1.562488351969249
 10
5.192249645066112
 20
6.255839531020683
 30
1.560991104894337
 10
5.203094226017128
 20
6.240460853900003
 30
1.554474028465961
 10
5.208066774523103
 20
6.233269017851853
 30
1.549449807714557
 10
5.215136079881631
 20
6.222929970183031
 30
1.538274861477556
 10
5.217972290356556
 20
6.218730355887601
 30
1.531935832876082
 10
5.221795698762434
 20
6.213040295451719
 30
1.51777088465348
 10
5.222780160629554
 20
6.211561231330051
 30
1.509939657270173
 10
5.222780160629554
 20
6.211561231330051
 30
1.502488351969249
1001
ACAD_VIEW_EDGE_ID
1071
      198
1071
       -1
1071
        2
1071
        0
  0
SPLINE
  5
5F3
330
70
100
AcDbEntity
  8
Visible
100
AcDbSpline
 70
     0
 71
     3
 72
    14
 73
    10
 74
     0
 42
0.000000001
 43
0.0000000001
 40
0.282188496018473
 40
0.282188496018473
 40
0.282188496018473
 40
0.282188496018473
 40
0.3612267099131793
 40
0.3612267099131793
 40
0.4402649238078857
 40
0.4402649238078857
 40
0.499250970857251
 40
0.499250970857251
 40
0.5582370179066163
 40
0.5582370179066163
 40
0.5582370179066191
 40
0.5582370179066191
 10
5.093529213567308
 20
6.381538220917718
 30
2.062488351969241
 10
5.100302898305017
 20
6.373682948258647
 30
2.062488351969241
 10
5.107553687821564
 20
6.365117764558817
 30
2.060931802205252
 10
5.121004283759248
 20
6.348923711757379
 30
2.054025648628941
 10
5.127206547400419
 20
6.341297620096156
 30
2.048674318414791
 10
5.135798763980346
 20
6.330604414008121
 30
2.036845322493678
 10
5.139165706053972
 20
6.326362005183909
 30
2.030372110250846
 10
5.143737392832917
 20
6.32057099620215
 30
2.015818241461551
 10
5.14493579822556
 20
6.319038220917718
 30
2.00772930302559
 10
5.14493579822556
 20
6.319038220917718
 30
1.999988351969242
1001
ACAD_VIEW_EDGE_ID
1071
      188
1071
       -1
1071
        2
1071
        0
  0
ARC
  5
5F4
330
70
100
AcDbEntity
  8
Visible
100
AcDbCircle
 10
-3.777343
 20
5.246577
 30
-1.562488
 40
1.73795389933356
210
0.0
220
0.0
230
-1.0
100
AcDbArc
 50
141.896586
 51
143.859666
  0
SPLINE
  5
5F5
330
70
100
AcDbEntity
  8
Visible
100
AcDbSpline
 70
     0
 71
     3
 72
    16
 73
    12
 74
     0
 42
0.000000001
 43
0.0000000001
 40
0.0
 40
0.0
 40
0.0
 40
0.0
 40
0.0600797551141852
 40
0.0600797551141852
 40
0.1201595102283703
 40
0.1201595102283703
 40
0.2403190204567406
 40
0.2403190204567406
 40
0.4250181703352208
 40
0.4250181703352208
 40
0.6097173202137009
 40
0.6097173202137009
 40
0.6097173202137009
 40
0.6097173202137009
 10
4.84031122935994
 20
6.621561231329906
 30
1.937488351969244
 10
4.84031122935994
 20
6.621561231329906
 30
1.945372834267693
 10
4.841291769615054
 20
6.620804709376898
 30
1.953279212932848
 10
4.845059559975197
 20
6.617879347897542
 30
1.968596352929031
 10
4.847843530764293
 20
6.615712134616842
 30
1.976008231275145
 10
4.858208372506851
 20
6.607565752135997
 30
1.996867395770843
 10
4.867864717687552
 20
6.599871211867139
 30
2.008937576475033
 10
4.892686545232209
 20
6.579569613828425
 30
2.03286116123546
 10
4.910799975321424
 20
6.564294953364878
 30
2.044098431087318
 10
4.948150983247614
 20
6.531222472294757
 30
2.058946840506311
 10
4.967395869954998
 20
6.513401686499491
 30
2.062488351969241
 10
4.984829035909569
 20
6.496561231329906
 30
2.062488351969241
1001
ACAD_VIEW_EDGE_ID
1071
      186
1071
       -1
1071
        2
1071
        0
  0
ARC
  5
5F6
330
70
100
AcDbEntity
  8
Visible
100
AcDbCircle
 10
-3.777343
 20
5.246577
 30
-2.062488
 40
1.737953899302769
210
0.0
220
0.0
230
-1.0
100
AcDbArc
 50
134.009254
 51
139.228454
  0
SPLINE
  5
5F7
330
70
100
AcDbEntity
  8
Visible
100
AcDbSpline
 70
     0
 71
     3
 72
    16
 73
    12
 74
     0
 42
0.000000001
 43
0.0000000001
 40
-0.6097173202137006
 40
-0.6097173202137006
 40
-0.6097173202137006
 40
-0.6097173202137006
 40
-0.4250181703352203
 40
-0.4250181703352203
 40
-0.2403190204567402
 40
-0.2403190204567402
 40
-0.1201595102283699
 40
-0.1201595102283699
 40
-0.060079755114185
 40
-0.060079755114185
 40
0.0
 40
0.0
 40
0.0
 40
0.0
 10
2.569856765776421
 20
6.496561231329906
 30
2.062488351969241
 10
2.587289931730992
 20
6.513401686499491
 30
2.062488351969241
 10
2.606534818438376
 20
6.531222472294757
 30
2.058946840506311
 10
2.643885826364567
 20
6.564294953364878
 30
2.044098431087318
 10
2.661999256453782
 20
6.579569613828425
 30
2.032861161235459
 10
2.686821083998438
 20
6.599871211867139
 30
2.008937576475033
 10
2.69647742917914
 20
6.607565752135997
 30
1.996867395770843
 10
2.706842270921697
 20
6.615712134616842
 30
1.976008231275145
 10
2.709626241710793
 20
6.617879347897542
 30
1.968596352929031
 10
2.713394032070937
 20
6.620804709376898
 30
1.953279212932848
 10
2.71437457232605
 20
6.621561231329906
 30
1.945372834267693
 10
2.71437457232605
 20
6.621561231329906
 30
1.937488351969244
1001
ACAD_VIEW_EDGE_ID
1071
       62
1071
       -1
1071
        2
1071
        0
  0
SPLINE
  5
5F8
330
70
100
AcDbEntity
  8
Visible
100
AcDbSpline
 70
     0
 71
     3
 72
    14
 73
    10
 74
     0
 42
0.000000001
 43
0.0000000001
 40
0.5585346536297772
 40
0.5585346536297772
 40
0.5585346536297805
 40
0.5585346536297805
 40
0.6175207006791458
 40
0.6175207006791458
 40
0.6765067477285111
 40
0.6765067477285111
 40
0.7555449616232173
 40
0.7555449616232173
 40
0.8345831755179236
 40
0.8345831755179236
 40
0.8345831755179236
 40
0.8345831755179236
 10
2.40975000346043
 20
6.319038220917718
 30
1.999988351969241
 10
2.40975000346043
 20
6.319038220917718
 30
2.00772930302559
 10
2.410948408853073
 20
6.32057099620215
 30
2.015818241461551
 10
2.415520095632018
 20
6.326362005183909
 30
2.030372110250846
 10
2.418887037705644
 20
6.330604414008121
 30
2.036845322493678
 10
2.427479254285572
 20
6.341297620096156
 30
2.04867431841479
 10
2.433681517926743
 20
6.348923711757379
 30
2.054025648628937
 10
2.447132113864427
 20
6.365117764558817
 30
2.060931802205251
 10
2.454382903380974
 20
6.373682948258647
 30
2.062488351969241
 10
2.461156588118683
 20
6.381538220917718
 30
2.062488351969241
1001
ACAD_VIEW_EDGE_ID
1071
       60
1071
       -1
1071
        2
1071
        0
  0
ARC
  5
5F9
330
70
100
AcDbEntity
  8
Visible
100
AcDbCircle
 10
-3.777343
 20
5.246577
 30
-2.062488
 40
1.737953899302417
210
0.0
220
0.0
230
-1.0
100
AcDbArc
 50
40.771546
 51
45.990746
  0
SPLINE
  5
5FA
330
70
100
AcDbEntity
  8
Visible
100
AcDbSpline
 70
     0
 71
     3
 72
    14
 73
    10
 74
     0
 42
0.000000001
 43
0.0000000001
 40
0.5158838430987983
 40
0.5158838430987983
 40
0.5158838430987983
 40
0.5158838430987983
 40
0.5726627894918382
 40
0.5726627894918382
 40
0.6294417358848781
 40
0.6294417358848781
 40
0.7005677089088533
 40
0.7005677089088533
 40
0.7716936819328284
 40
0.7716936819328284
 40
0.7716936819328284
 40
0.7716936819328284
 10
2.331905641056437
 20
6.211561231330051
 30
1.502488351969249
 10
2.331905641056437
 20
6.211561231330051
 30
1.509939657270173
 10
2.332890102923556
 20
6.213040295451719
 30
1.517770884653479
 10
2.336713511329435
 20
6.218730355887601
 30
1.531935832876082
 10
2.33954972180436
 20
6.222929970183031
 30
1.538274861477556
 10
2.346619027162887
 20
6.233269017851853
 30
1.549449807714556
 10
2.351591575668862
 20
6.240460853900003
 30
1.554474028465961
 10
2.362436156619878
 20
6.255839531020683
 30
1.560991104894337
 10
2.368310001582358
 20
6.264023232477484
 30
1.562488351969249
 10
2.373814937285715
 20
6.271561231329542
 30
1.562488351969249
1001
ACAD_VIEW_EDGE_ID
1071
       50
1071
       -1
1071
        2
1071
        0
  0
ELLIPSE
  5
5FB
330
70
100
AcDbEntity
  8
Visible
100
AcDbEllipse
 10
3.777343
 20
5.246577
 30
-12.001316
 11
0.0000000036380471
 21
1.737953904480769
 31
32.58663570901547
210
0.0000000000000002
220
0.9985808046778267
230
-0.0532576429161491
 40
0.0532576427770451
 41
-1.234752197782628
 42
-1.224442222444672
1001
ACAD_VIEW_EDGE_ID
1071
       36
1071
       -1
1071
        2
1071
        0
  0
SPLINE
  5
5FC
330
70
100
AcDbEntity
  8
Visible
100
AcDbSpline
 70
     0
 71
     3
 72
    14
 73
    10
 74
     0
 42
0.000000001
 43
0.0000000001
 40
-0.251340975428171
 40
-0.251340975428171
 40
-0.251340975428171
 40
-0.251340975428171
 40
-0.1855948696353599
 40
-0.1855948696353599
 40
-0.1198487638425487
 40
-0.1198487638425487
 40
-0.0599243819212744
 40
-0.0599243819212744
 40
0.0
 40
0.0
 40
0.0
 40
0.0
 10
2.293602020676189
 20
6.15156123133056
 30
-0.0625116480307382
 10
2.298094829113324
 20
6.158927284905075
 30
-0.0625116480307382
 10
2.302995626594565
 20
6.166826808715995
 30
-0.0610817463917908
 10
2.312310533487107
 20
6.18158488940935
 30
-0.0550670874680788
 10
2.316722223413307
 20
6.188444506997257
 30
-0.0504811861061256
 10
2.323611797010016
 20
6.199039933044332
 30
-0.0398857600578144
 10
2.326652092688163
 20
6.203652623020389
 30
-0.0333450754957183
 10
2.33080539558432
 20
6.209918482982175
 30
-0.0185940727247158
 10
2.331905641056437
 20
6.211561231330051
 30
-0.0103757401464022
 10
2.331905641056437
 20
6.211561231330051
 30
-0.0025116480307497
1001
ACAD_VIEW_EDGE_ID
1071
       40
1071
       -1
1071
        2
1071
        0
  0
ARC
  5
5FD
330
70
100
AcDbEntity
  8
Visible
100
AcDbCircle
 10
-3.777343
 20
5.246577
 30
-1.562488
 40
1.737953899333561
210
0.0
220
0.0
230
-1.0
100
AcDbArc
 50
36.140334
 51
38.103414
  0
SPLINE
  5
5FE
330
70
100
AcDbEntity
  8
Visible
100
AcDbSpline
 70
     0
 71
     3
 72
    14
 73
    10
 74
     0
 42
0.000000001
 43
0.0000000001
 40
0.4774955618535546
 40
0.4774955618535546
 40
0.4774955618535546
 40
0.4774955618535546
 40
0.5346550845176054
 40
0.5346550845176054
 40
0.5918146071816562
 40
0.5918146071816562
 40
0.6536162720130001
 40
0.6536162720130001
 40
0.7154179368443442
 40
0.7154179368443442
 40
0.7154179368443442
 40
0.7154179368443442
 10
2.142594550536159
 20
5.836561231330051
 30
-0.1225116480307495
 10
2.142594550536159
 20
5.836561231330051
 30
-0.1150103983373047
 10
2.14313200118886
 20
5.838056843718732
 30
-0.1070428696159156
 10
2.145307027729359
 20
5.84403208371259
 30
-0.0924660984303669
 10
2.146946877863229
 20
5.848508541073897
 30
-0.0858558960547562
 10
2.150875663370243
 20
5.859049066020816
 30
-0.0750305880948736
 10
2.153484429249147
 20
5.865957212716239
 30
-0.0702679289284443
 10
2.15928401030942
 20
5.88095354869074
 30
-0.0640102603907118
 10
2.162477128820682
 20
5.889039343339391
 30
-0.0625116480307382
 10
2.165510390519557
 20
5.896561231329542
 30
-0.0625116480307382
1001
ACAD_VIEW_EDGE_ID
1071
       38
1071
       -1
1071
        2
1071
        0
  0
ELLIPSE
  5
5FF
330
70
100
AcDbEntity
  8
Visible
100
AcDbEllipse
 10
3.777343
 20
5.246577
 30
-12.001901
 11
0.0000000016811555
 21
-1.737953901725196
 31
32.58663565734909
210
-0.0000000000000002
220
-0.9985808046778267
230
-0.0532576429161481
 40
0.0532576428508942
 41
1.224423131153598
 42
1.234733176275072
1001
ACAD_VIEW_EDGE_ID
1071
       32
1071
       -1
1071
        2
1071
        0
  0
SPLINE
  5
600
330
70
100
AcDbEntity
  8
Visible
100
AcDbSpline
 70
     0
 71
     3
 72
    14
 73
    10
 74
     0
 42
0.000000001
 43
0.0000000001
 40
0.7045645071596713
 40
0.7045645071596713
 40
0.7045645071596713
 40
0.7045645071596713
 40
0.7642803686346183
 40
0.7642803686346183
 40
0.8239962301095651
 40
0.8239962301095651
 40
0.8820986241196571
 40
0.8820986241196571
 40
0.932145510421915
 40
0.932145510421915
 40
0.932145510421915
 40
0.932145510421915
 10
2.116883429422159
 20
5.759761110311956
 30
-1.312511648030753
 10
2.119197463862292
 20
5.767248402094992
 30
-1.312511648030753
 10
2.12172965892023
 20
5.775243891579521
 30
-1.311027705347619
 10
2.126520191659437
 20
5.79001813486866
 30
-1.304936431539542
 10
2.128775808847422
 20
5.796797391436484
 30
-1.3003281806474
 10
2.132363913493463
 20
5.807432006704402
 30
-1.289693565379538
 10
2.133952137233791
 20
5.812051148126556
 30
-1.283005101854961
 10
2.135938775276372
 20
5.817789711696605
 30
-1.269251974052411
 10
2.136474736284071
 20
5.819320726146543
 30
-1.262367714966023
 10
2.136598816208788
 20
5.819675958591687
 30
-1.25570710660572
1001
ACAD_VIEW_EDGE_ID
1071
       35
1071
       -1
1071
        2
1071
        0
  0
ARC
  5
601
330
70
100
AcDbEntity
  8
Visible
100
AcDbCircle
 10
-3.777343
 20
5.246577
 30
0.062512
 40
1.737953899305292
210
0.0
220
0.0
230
-1.0
100
AcDbArc
 50
21.962152
 51
31.380446
  0
SPLINE
  5
602
330
70
100
AcDbEntity
  8
Visible
100
AcDbSpline
 70
     0
 71
     3
 72
    14
 73
    10
 74
     0
 42
0.000000001
 43
0.0000000001
 40
0.47815473649882
 40
0.47815473649882
 40
0.47815473649882
 40
0.47815473649882
 40
0.5282017075293194
 40
0.5282017075293194
 40
0.5863041871043473
 40
0.5863041871043473
 40
0.6460203409684034
 40
0.6460203409684034
 40
0.7057364948324593
 40
0.7057364948324593
 40
0.7057364948324593
 40
0.7057364948324593
 10
2.136609717395913
 20
4.673446504068124
 30
-1.25570710660572
 10
2.136485629704111
 20
4.673801737042595
 30
-1.262367724878993
 10
2.135949634621283
 20
4.675332755443378
 30
-1.269251990437831
 10
2.133962872623669
 20
4.681071324395816
 30
-1.283005118937088
 10
2.132374550847089
 20
4.685690465901643
 30
-1.289693575327048
 10
2.128786222292546
 20
4.696325079452435
 30
-1.300328188877665
 10
2.126530461177026
 20
4.703104340593199
 30
-1.30493643875741
 10
2.121739620564767
 20
4.717878583178389
 30
-1.311027708395682
 10
2.119207261559495
 20
4.725874067398763
 30
-1.312511648030753
 10
2.116893075064581
 20
4.733361352347856
 30
-1.312511648030753
1001
ACAD_VIEW_EDGE_ID
1071
       33
1071
       -1
1071
        2
1071
        0
  0
SPLINE
  5
603
330
70
100
AcDbEntity
  8
Visible
100
AcDbSpline
 70
     0
 71
     3
 72
    14
 73
    10
 74
     0
 42
0.000000001
 43
0.0000000001
 40
-0.2379233021480692
 40
-0.2379233021480692
 40
-0.2379233021480692
 40
-0.2379233021480692
 40
-0.1761211498859574
 40
-0.1761211498859574
 40
-0.1143189976238457
 40
-0.1143189976238457
 40
-0.0571594988119228
 40
-0.0571594988119228
 40
0.0
 40
0.0
 40
0.0
 40
0.0
 10
2.165522975912608
 20
4.596561231330269
 30
-0.0625116480307382
 10
2.162489544649361
 20
4.604083119913411
 30
-0.0625116480307382
 10
2.159296243384233
 20
4.612168920331896
 30
-0.0640102602669435
 10
2.153496322000137
 20
4.627165278539905
 30
-0.0702679436401426
 10
2.150887398611303
 20
4.634073441558939
 30
-0.0750306180303009
 10
2.146958388160783
 20
4.644613953969383
 30
-0.0858559442929297
 10
2.145318446599048
 20
4.64909039590384
 30
-0.0924661316170223
 10
2.143143296598282
 20
4.65506561991242
 30
-0.1070428801644798
 10
2.142605814058697
 20
4.65656123132976
 30
-0.1150104014675048
 10
2.142605814058697
 20
4.65656123132976
 30
-0.1225116480307495
1001
ACAD_VIEW_EDGE_ID
1071
       30
1071
       -1
1071
        2
1071
        0
  0
ARC
  5
604
330
70
100
AcDbEntity
  8
Visible
100
AcDbCircle
 10
-3.777343
 20
5.246577
 30
1.312512
 40
1.737953899305392
210
0.0
220
0.0
230
-1.0
100
AcDbArc
 50
342.824552
 51
17.174371
  0
SPLINE
  5
605
330
70
100
AcDbEntity
  8
Visible
100
AcDbSpline
 70
     0
 71
     3
 72
    14
 73
    10
 74
     0
 42
0.000000001
 43
0.0000000001
 40
0.4995731737293934
 40
0.4995731737293934
 40
0.4995731737293934
 40
0.4995731737293934
 40
0.5594977857710431
 40
0.5594977857710431
 40
0.6194223978126927
 40
0.6194223978126927
 40
0.6851692375172249
 40
0.6851692375172249
 40
0.7509160772217572
 40
0.7509160772217572
 40
0.7509160772217572
 40
0.7509160772217572
 10
2.331926476503213
 20
4.28156123132976
 30
-0.0025116480307497
 10
2.331926476503213
 20
4.28156123132976
 30
-0.0103757703459264
 10
2.330826171413718
 20
4.283203991944901
 30
-0.0185941172941506
 10
2.326672666780723
 20
4.289469863291742
 30
-0.03334511548662
 10
2.323632230170915
 20
4.29408255153794
 30
-0.0398857819811354
 10
2.316742337166942
 20
4.304677972198987
 30
-0.0504812026429353
 10
2.312330435286639
 20
4.31153759785775
 30
-0.0550671011390733
 10
2.303015091862107
 20
4.326295676371955
 30
-0.0610817518899056
 10
2.298114069730218
 20
4.334195190032914
 30
-0.0625116480307382
 10
2.293621056203846
 20
4.341561231329251
 30
-0.0625116480307382
1001
ACAD_VIEW_EDGE_ID
1071
       28
1071
       -1
1071
        2
1071
        0
  0
ARC
  5
606
330
70
100
AcDbEntity
  8
Visible
100
AcDbCircle
 10
-3.777343
 20
5.246577
 30
0.062512
 40
1.737953899305803
210
0.0
220
0.0
230
-1.0
100
AcDbArc
 50
328.618349
 51
338.036739
  0
SPLINE
  5
607
330
70
100
AcDbEntity
  8
Visible
100
AcDbSpline
 70
     0
 71
     3
 72
    14
 73
    10
 74
     0
 42
0.000000001
 43
0.0000000001
 40
-0.2558121084934451
 40
-0.2558121084934451
 40
-0.2558121084934451
 40
-0.2558121084934451
 40
-0.1846849610596075
 40
-0.1846849610596075
 40
-0.11355781362577
 40
-0.11355781362577
 40
-0.056778906812885
 40
-0.056778906812885
 40
0.0
 40
0.0
 40
0.0
 40
0.0
 10
2.373837729050137
 20
4.221561231330269
 30
1.562488351969249
 10
2.368332534833825
 20
4.229099232235967
 30
1.562488351969249
 10
2.362458407998929
 20
4.237282944492108
 30
1.56099110511849
 10
2.351613291068133
 20
4.252661664984771
 30
1.554473998968861
 10
2.346640488405682
 20
4.259853533696514
 30
1.549449748716038
 10
2.33957086855662
 20
4.270192560465147
 30
1.538274758396013
 10
2.336734547678133
 20
4.274392142146098
 30
1.531935761869933
 10
2.332910983197507
 20
4.280082169088927
 30
1.517770862916378
 10
2.331926476503213
 20
4.28156123132976
 30
1.509939652075927
 10
2.331926476503213
 20
4.28156123132976
 30
1.502488351969249
1001
ACAD_VIEW_EDGE_ID
1071
       18
1071
       -1
1071
        2
1071
        0
  0
SPLINE
  5
608
330
70
100
AcDbEntity
  8
Visible
100
AcDbSpline
 70
     0
 71
     3
 72
    14
 73
    10
 74
     0
 42
0.000000001
 43
0.0000000001
 40
-0.2761424342326992
 40
-0.2761424342326992
 40
-0.2761424342326992
 40
-0.2761424342326992
 40
-0.2016892066115481
 40
-0.2016892066115481
 40
-0.127235978990397
 40
-0.127235978990397
 40
-0.0636179894951985
 40
-0.0636179894951985
 40
0.0
 40
0.0
 40
0.0
 40
0.000000000000001
 10
2.461183500105107
 20
4.111584241742093
 30
2.062488351969241
 10
2.454802579606621
 20
4.118983680773453
 30
2.062488351969241
 10
2.447954552462761
 20
4.127063230289422
 30
2.061106079778892
 10
2.4351384917627
 20
4.142461163510233
 30
2.054957357161064
 10
2.429169454724615
 20
4.149776235166427
 30
2.050184706193835
 10
2.42019575795166
 20
4.160907093824789
 30
2.039053847536419
 10
2.416377011686563
 20
4.165709924733164
 30
2.032337626673683
 10
2.411163838578431
 20
4.172306758024205
 30
2.01698369322469
 10
2.409774477555401
 20
4.174084241742093
 30
2.008337169488297
 10
2.409774477555401
 20
4.174084241742093
 30
1.999988351969242
1001
ACAD_VIEW_EDGE_ID
1071
        8
1071
       -1
1071
        2
1071
        0
  0
CIRCLE
  5
609
330
70
100
AcDbEntity
  8
Visible
100
AcDbCircle
 10
-3.777329
 20
5.246561
 30
1.750012
 40
0.3124999999999955
210
0.0000000000000002
220
-0.0000000000000003
230
-1.0
  0
SPLINE
  5
60A
330
70
100
AcDbEntity
  8
Visible
100
AcDbSpline
 70
     0
 71
     3
 72
    16
 73
    12
 74
     0
 42
0.000000001
 43
0.0000000001
 40
1.184146273205848
 40
1.184146273205848
 40
1.184146273205848
 40
1.184146273205848
 40
1.244226169395376
 40
1.244226169395376
 40
1.304306065584905
 40
1.304306065584905
 40
1.424465857963962
 40
1.424465857963962
 40
1.609171056277296
 40
1.609171056277296
 40
1.793876254590629
 40
1.793876254590629
 40
1.793876254590629
 40
1.793876254590629
 10
2.714414942651274
 20
3.871561231329906
 30
1.937488351969244
 10
2.714414942651274
 20
3.871561231329906
 30
1.945372852781518
 10
2.713434339175364
 20
3.872317756109623
 30
1.953279218300309
 10
2.709666341999763
 20
3.875243101292653
 30
1.968596291838069
 10
2.706882227872483
 20
3.877410295483059
 30
1.976008116976099
 10
2.696516902116854
 20
3.885556570032349
 30
1.996867097887486
 10
2.686860165973484
 20
3.893250965547849
 30
2.008937126418204
 10
2.662037032918306
 20
3.913552438158149
 30
2.032860852401838
 10
2.643922485645816
 20
3.928827168734642
 30
2.044098232260204
 10
2.606569248042433
 20
3.961899803760388
 30
2.058946802653586
 10
2.587323245537845
 20
3.979720675277349
 30
2.062488351969241
 10
2.569889073420199
 20
3.996561231329906
 30
2.062488351969241
1001
ACAD_VIEW_EDGE_ID
1071
        6
1071
       -1
1071
        2
1071
        0
  0
ARC
  5
60B
330
70
100
AcDbEntity
  8
Visible
100
AcDbCircle
 10
-3.777343
 20
5.246577
 30
-1.562488
 40
1.73795389932589
210
0.0
220
0.0
230
-1.0
100
AcDbArc
 50
321.895279
 51
323.858392
  0
ARC
  5
60C
330
70
100
AcDbEntity
  8
Visible
100
AcDbCircle
 10
-3.777343
 20
5.246577
 30
-2.062488
 40
1.73795389930629
210
0.0
220
0.0
230
-1.0
100
AcDbArc
 50
314.007773
 51
319.227096
  0
LINE
  5
60D
330
70
100
AcDbEntity
  8
Visible
100
AcDbLine
 10
5.144911
 20
4.174084
 30
1.999988
 11
2.409774
 21
4.174084
 31
1.999988
  0
LINE
  5
60E
330
70
100
AcDbEntity
  8
Visible
100
AcDbLine
 10
5.144936
 20
6.319038
 30
1.999988
 11
2.40975
 21
6.319038
 31
1.999988
  0
LINE
  5
60F
330
70
100
AcDbEntity
  8
Visible
100
AcDbLine
 10
4.840271
 20
3.871561
 30
1.937488
 11
2.714415
 21
3.871561
 31
1.937488
  0
LINE
  5
610
330
70
100
AcDbEntity
  8
Visible
100
AcDbLine
 10
5.222759
 20
4.281561
 30
1.502488
 11
2.331926
 21
4.281561
 31
1.502488
  0
LINE
  5
611
330
70
100
AcDbEntity
  8
Visible
100
AcDbLine
 10
5.41208
 20
4.656561
 30
-0.122512
 11
2.142606
 21
4.656561
 31
-0.122512
  0
LINE
  5
612
330
70
100
AcDbEntity
  8
Visible
100
AcDbLine
 10
4.840311
 20
6.621561
 30
1.937488
 11
2.714375
 21
6.621561
 31
1.937488
  0
LINE
  5
613
330
70
100
AcDbEntity
  8
Visible
100
AcDbLine
 10
5.22278
 20
6.211561
 30
1.502488
 11
2.331906
 21
6.211561
 31
1.502488
  0
LINE
  5
614
330
70
100
AcDbEntity
  8
Visible
100
AcDbLine
 10
5.412091
 20
5.836561
 30
-0.122512
 11
2.142595
 21
5.836561
 31
-0.122512
  0
LINE
  5
615
330
70
100
AcDbEntity
  8
Visible
100
AcDbLine
 10
9.666419
 20
6.728513
 30
60.0
 11
9.644686
 21
6.809621
 31
60.0
210
0.0
220
1.0
230
0.0
  0
ARC
  5
616
330
70
100
AcDbEntity
  8
Visible
100
AcDbCircle
 10
9.606048
 20
6.712336
 30
60.0
 40
0.0624999999999998
100
AcDbArc
 50
270.0
 51
15.0
  0
LINE
  5
617
330
70
100
AcDbEntity
  8
Visible
100
AcDbLine
 10
9.525
 20
6.649836
 30
60.0
 11
9.606048
 21
6.649836
 31
60.0
210
0.0
220
1.0
230
0.0
  0
ARC
  5
618
330
70
100
AcDbEntity
  8
Visible
100
AcDbCircle
 10
-9.525
 20
6.589836
 30
-60.0
 40
0.06
210
0.0000000000000001
220
0.0
230
-1.0
100
AcDbArc
 50
0.0
 51
90.0
  0
LINE
  5
619
330
70
100
AcDbEntity
  8
Visible
100
AcDbLine
 10
9.465
 20
5.472336
 30
60.0
 11
9.465
 21
6.589836
 31
60.0
210
0.0
220
1.0
230
0.0
  0
ARC
  5
61A
330
70
100
AcDbEntity
  8
Visible
100
AcDbCircle
 10
-9.475
 20
5.472336
 30
-60.0
 40
0.0100000000000005
210
0.0000000000000001
220
0.0
230
-1.0
100
AcDbArc
 50
270.0
 51
360.0
  0
LINE
  5
61B
330
70
100
AcDbEntity
  8
Visible
100
AcDbLine
 10
9.485
 20
5.462336
 30
60.0
 11
9.475
 21
5.462336
 31
60.0
210
0.0
220
1.0
230
0.0
  0
ARC
  5
61C
330
70
100
AcDbEntity
  8
Visible
100
AcDbCircle
 10
9.485
 20
5.452336
 30
60.0
 40
0.0099999999999998
100
AcDbArc
 50
0.0
 51
90.0
  0
LINE
  5
61D
330
70
100
AcDbEntity
  8
Visible
100
AcDbLine
 10
9.495
 20
5.159836
 30
60.0
 11
9.495
 21
5.452336
 31
60.0
210
0.0
220
1.0
230
0.0
  0
ARC
  5
61E
330
70
100
AcDbEntity
  8
Visible
100
AcDbCircle
 10
9.485
 20
5.159836
 30
60.0
 40
0.0099999999999991
100
AcDbArc
 50
270.0
 51
0.0
  0
LINE
  5
61F
330
70
100
AcDbEntity
  8
Visible
100
AcDbLine
 10
9.475
 20
5.149836
 30
60.0
 11
9.485
 21
5.149836
 31
60.0
210
0.0
220
1.0
230
0.0
  0
ARC
  5
620
330
70
100
AcDbEntity
  8
Visible
100
AcDbCircle
 10
-9.475
 20
5.139836
 30
-60.0
 40
0.0099999999999994
210
0.0000000000000001
220
0.0
230
-1.0
100
AcDbArc
 50
360.0
 51
90.0
  0
LINE
  5
621
330
70
100
AcDbEntity
  8
Visible
100
AcDbLine
 10
9.465
 20
5.084836
 30
60.0
 11
9.465
 21
5.139836
 31
60.0
210
0.0
220
1.0
230
0.0
  0
ARC
  5
622
330
70
100
AcDbEntity
  8
Visible
100
AcDbCircle
 10
9.405
 20
5.084836
 30
60.0
 40
0.06
100
AcDbArc
 50
270.0
 51
0.0
  0
LINE
  5
623
330
70
100
AcDbEntity
  8
Visible
100
AcDbLine
 10
9.15
 20
5.024836
 30
60.0
 11
9.405
 21
5.024836
 31
60.0
210
0.0
220
1.0
230
0.0
  0
ARC
  5
624
330
70
100
AcDbEntity
  8
Visible
100
AcDbCircle
 10
-9.15
 20
4.964836
 30
-60.0
 40
0.06
210
0.0000000000000001
220
0.0
230
-1.0
100
AcDbArc
 50
0.0
 51
90.0
  0
LINE
  5
625
330
70
100
AcDbEntity
  8
Visible
100
AcDbLine
 10
9.09
 20
4.14824
 30
60.0
 11
9.09
 21
4.964836
 31
60.0
210
0.0
220
1.0
230
0.0
  0
LINE
  5
626
330
70
100
AcDbEntity
  8
Visible
100
AcDbLine
 10
9.073115
 20
3.831641
 30
60.0
 11
9.09
 21
4.14824
 31
60.0
210
0.0
220
1.0
230
0.0
  0
ARC
  5
627
330
70
100
AcDbEntity
  8
Visible
100
AcDbCircle
 10
9.0132
 20
3.834836
 30
60.0
 40
0.06
100
AcDbArc
 50
270.0
 51
356.947117
  0
LINE
  5
628
330
70
100
AcDbEntity
  8
Visible
100
AcDbLine
 10
7.9868
 20
3.774836
 30
60.0
 11
9.0132
 21
3.774836
 31
60.0
210
0.0
220
1.0
230
0.0
  0
ARC
  5
629
330
70
100
AcDbEntity
  8
Visible
100
AcDbCircle
 10
7.9868
 20
3.834836
 30
60.0
 40
0.0599999999999999
100
AcDbArc
 50
183.052883
 51
270.0
  0
LINE
  5
62A
330
70
100
AcDbEntity
  8
Visible
100
AcDbLine
 10
7.91
 20
4.14824
 30
60.0
 11
7.926885
 21
3.831641
 31
60.0
210
0.0
220
1.0
230
0.0
  0
LINE
  5
62B
330
70
100
AcDbEntity
  8
Visible
100
AcDbLine
 10
7.91
 20
4.964836
 30
60.0
 11
7.91
 21
4.14824
 31
60.0
210
0.0
220
1.0
230
0.0
  0
ARC
  5
62C
330
70
100
AcDbEntity
  8
Visible
100
AcDbCircle
 10
-7.85
 20
4.964836
 30
-60.0
 40
0.06
210
0.0000000000000001
220
0.0
230
-1.0
100
AcDbArc
 50
90.0
 51
180.0
  0
LINE
  5
62D
330
70
100
AcDbEntity
  8
Visible
100
AcDbLine
 10
7.595
 20
5.024836
 30
60.0
 11
7.85
 21
5.024836
 31
60.0
210
0.0
220
1.0
230
0.0
  0
ARC
  5
62E
330
70
100
AcDbEntity
  8
Visible
100
AcDbCircle
 10
7.595
 20
5.084836
 30
60.0
 40
0.06
100
AcDbArc
 50
180.0
 51
270.0
  0
LINE
  5
62F
330
70
100
AcDbEntity
  8
Visible
100
AcDbLine
 10
7.535
 20
5.139836
 30
60.0
 11
7.535
 21
5.084836
 31
60.0
210
0.0
220
1.0
230
0.0
  0
ARC
  5
630
330
70
100
AcDbEntity
  8
Visible
100
AcDbCircle
 10
-7.525
 20
5.139836
 30
-60.0
 40
0.0099999999999994
210
0.0000000000000001
220
0.0
230
-1.0
100
AcDbArc
 50
90.0
 51
180.0
  0
LINE
  5
631
330
70
100
AcDbEntity
  8
Visible
100
AcDbLine
 10
7.515
 20
5.149836
 30
60.0
 11
7.525
 21
5.149836
 31
60.0
210
0.0
220
1.0
230
0.0
  0
ARC
  5
632
330
70
100
AcDbEntity
  8
Visible
100
AcDbCircle
 10
7.515
 20
5.159836
 30
60.0
 40
0.0099999999999996
100
AcDbArc
 50
180.0
 51
270.0
  0
LINE
  5
633
330
70
100
AcDbEntity
  8
Visible
100
AcDbLine
 10
7.505
 20
5.452336
 30
60.0
 11
7.505
 21
5.159836
 31
60.0
210
0.0
220
1.0
230
0.0
  0
ARC
  5
634
330
70
100
AcDbEntity
  8
Visible
100
AcDbCircle
 10
7.515
 20
5.452336
 30
60.0
 40
0.0100000000000001
100
AcDbArc
 50
90.0
 51
180.0
  0
LINE
  5
635
330
70
100
AcDbEntity
  8
Visible
100
AcDbLine
 10
7.525
 20
5.462336
 30
60.0
 11
7.515
 21
5.462336
 31
60.0
210
0.0
220
1.0
230
0.0
  0
ARC
  5
636
330
70
100
AcDbEntity
  8
Visible
100
AcDbCircle
 10
-7.525
 20
5.472336
 30
-60.0
 40
0.0100000000000006
210
0.0000000000000001
220
0.0
230
-1.0
100
AcDbArc
 50
180.0
 51
270.0
  0
LINE
  5
637
330
70
100
AcDbEntity
  8
Visible
100
AcDbLine
 10
7.535
 20
6.589836
 30
60.0
 11
7.535
 21
5.472336
 31
60.0
210
0.0
220
1.0
230
0.0
  0
ARC
  5
638
330
70
100
AcDbEntity
  8
Visible
100
AcDbCircle
 10
-7.475
 20
6.589836
 30
-60.0
 40
0.06
210
0.0000000000000001
220
0.0
230
-1.0
100
AcDbArc
 50
90.0
 51
180.0
  0
LINE
  5
639
330
70
100
AcDbEntity
  8
Visible
100
AcDbLine
 10
7.393952
 20
6.649836
 30
60.0
 11
7.475
 21
6.649836
 31
60.0
210
0.0
220
1.0
230
0.0
  0
ARC
  5
63A
330
70
100
AcDbEntity
  8
Visible
100
AcDbCircle
 10
7.393952
 20
6.712336
 30
60.0
 40
0.0624999999999994
100
AcDbArc
 50
165.0
 51
270.0
  0
LINE
  5
63B
330
70
100
AcDbEntity
  8
Visible
100
AcDbLine
 10
7.355314
 20
6.809621
 30
60.0
 11
7.333581
 21
6.728513
 31
60.0
210
0.0
220
1.0
230
0.0
  0
ARC
  5
63C
330
70
100
AcDbEntity
  8
Visible
100
AcDbCircle
 10
-7.326336
 20
6.817386
 30
-60.0
 40
0.0300000000000023
210
0.0000000000000001
220
0.0
230
-1.0
100
AcDbArc
 50
105.0
 51
195.0
  0
LINE
  5
63D
330
70
100
AcDbEntity
  8
Visible
100
AcDbLine
 10
7.314783
 20
6.85154
 30
60.0
 11
7.334101
 21
6.846364
 31
60.0
210
0.0
220
1.0
230
0.0
  0
ARC
  5
63E
330
70
100
AcDbEntity
  8
Visible
100
AcDbCircle
 10
7.327723
 20
6.899836
 30
60.0
 40
0.0500000000000001
100
AcDbArc
 50
75.0
 51
255.0
  0
LINE
  5
63F
330
70
100
AcDbEntity
  8
Visible
100
AcDbLine
 10
7.359983
 20
6.942956
 30
60.0
 11
7.340664
 21
6.948133
 31
60.0
210
0.0
220
1.0
230
0.0
  0
ARC
  5
640
330
70
100
AcDbEntity
  8
Visible
100
AcDbCircle
 10
-7.367748
 20
6.971934
 30
-60.0
 40
0.0300000000000001
210
0.0000000000000001
220
0.0
230
-1.0
100
AcDbArc
 50
195.0
 51
285.0
  0
LINE
  5
641
330
70
100
AcDbEntity
  8
Visible
100
AcDbLine
 10
7.425393
 20
7.07116
 30
60.0
 11
7.396725
 21
6.964169
 31
60.0
210
0.0
220
1.0
230
0.0
  0
ARC
  5
642
330
70
100
AcDbEntity
  8
Visible
100
AcDbCircle
 10
-7.365023
 20
7.087336
 30
-60.0
 40
0.0625000000000005
210
0.0000000000000001
220
0.0
230
-1.0
100
AcDbArc
 50
90.0
 51
195.0
  0
LINE
  5
643
330
70
100
AcDbEntity
  8
Visible
100
AcDbLine
 10
7.25
 20
7.149836
 30
60.0
 11
7.365023
 21
7.149836
 31
60.0
210
0.0
220
1.0
230
0.0
  0
ARC
  5
644
330
70
100
AcDbEntity
  8
Visible
100
AcDbCircle
 10
-7.25
 20
7.024836
 30
-60.0
 40
0.1250000000000002
210
0.0000000000000001
220
0.0
230
-1.0
100
AcDbArc
 50
360.0
 51
90.0
  0
LINE
  5
645
330
70
100
AcDbEntity
  8
Visible
100
AcDbLine
 10
7.125
 20
3.024836
 30
60.0
 11
7.125
 21
7.024836
 31
60.0
210
0.0
220
1.0
230
0.0
  0
LINE
  5
646
330
70
100
AcDbEntity
  8
Visible
100
AcDbLine
 10
7.61
 20
3.024836
 30
60.0
 11
7.125
 21
3.024836
 31
60.0
210
0.0
220
1.0
230
0.0
  0
ARC
  5
647
330
70
100
AcDbEntity
  8
Visible
100
AcDbCircle
 10
-7.61
 20
3.039836
 30
-60.0
 40
0.0150000000000001
210
0.0000000000000001
220
0.0
230
-1.0
100
AcDbArc
 50
180.0
 51
270.0
  0
LINE
  5
648
330
70
100
AcDbEntity
  8
Visible
100
AcDbLine
 10
7.625
 20
3.072336
 30
60.0
 11
7.625
 21
3.039836
 31
60.0
210
0.0
220
1.0
230
0.0
  0
ARC
  5
649
330
70
100
AcDbEntity
  8
Visible
100
AcDbCircle
 10
7.64
 20
3.072336
 30
60.0
 40
0.015
100
AcDbArc
 50
90.0
 51
180.0
  0
LINE
  5
64A
330
70
100
AcDbEntity
  8
Visible
100
AcDbLine
 10
9.36
 20
3.087336
 30
60.0
 11
7.64
 21
3.087336
 31
60.0
210
0.0
220
1.0
230
0.0
  0
ARC
  5
64B
330
70
100
AcDbEntity
  8
Visible
100
AcDbCircle
 10
9.36
 20
3.072336
 30
60.0
 40
0.0149999999999997
100
AcDbArc
 50
360.0
 51
90.0
  0
LINE
  5
64C
330
70
100
AcDbEntity
  8
Visible
100
AcDbLine
 10
9.375
 20
3.039836
 30
60.0
 11
9.375
 21
3.072336
 31
60.0
210
0.0
220
1.0
230
0.0
  0
ARC
  5
64D
330
70
100
AcDbEntity
  8
Visible
100
AcDbCircle
 10
-9.39
 20
3.039836
 30
-60.0
 40
0.0149999999999999
210
0.0000000000000001
220
0.0
230
-1.0
100
AcDbArc
 50
270.0
 51
360.0
  0
LINE
  5
64E
330
70
100
AcDbEntity
  8
Visible
100
AcDbLine
 10
9.875
 20
3.024836
 30
60.0
 11
9.39
 21
3.024836
 31
60.0
210
0.0
220
1.0
230
0.0
  0
LINE
  5
64F
330
70
100
AcDbEntity
  8
Visible
100
AcDbLine
 10
9.875
 20
7.024836
 30
60.0
 11
9.875
 21
3.024836
 31
60.0
210
0.0
220
1.0
230
0.0
  0
ARC
  5
650
330
70
100
AcDbEntity
  8
Visible
100
AcDbCircle
 10
-9.75
 20
7.024836
 30
-60.0
 40
0.1249999999999996
210
0.0000000000000001
220
0.0
230
-1.0
100
AcDbArc
 50
90.0
 51
180.0
  0
LINE
  5
651
330
70
100
AcDbEntity
  8
Visible
100
AcDbLine
 10
9.634977
 20
7.149836
 30
60.0
 11
9.75
 21
7.149836
 31
60.0
210
0.0
220
1.0
230
0.0
  0
ARC
  5
652
330
70
100
AcDbEntity
  8
Visible
100
AcDbCircle
 10
-9.634977
 20
7.087336
 30
-60.0
 40
0.0624999999999995
210
0.0000000000000001
220
0.0
230
-1.0
100
AcDbArc
 50
345.0
 51
90.0
  0
LINE
  5
653
330
70
100
AcDbEntity
  8
Visible
100
AcDbLine
 10
9.603275
 20
6.964169
 30
60.0
 11
9.574607
 21
7.07116
 31
60.0
210
0.0
220
1.0
230
0.0
  0
ARC
  5
654
330
70
100
AcDbEntity
  8
Visible
100
AcDbCircle
 10
-9.632252
 20
6.971934
 30
-60.0
 40
0.0300000000000006
210
0.0000000000000001
220
0.0
230
-1.0
100
AcDbArc
 50
255.0
 51
345.0
  0
LINE
  5
655
330
70
100
AcDbEntity
  8
Visible
100
AcDbLine
 10
9.659336
 20
6.948133
 30
60.0
 11
9.640017
 21
6.942956
 31
60.0
210
0.0
220
1.0
230
0.0
  0
ARC
  5
656
330
70
100
AcDbEntity
  8
Visible
100
AcDbCircle
 10
9.672277
 20
6.899836
 30
60.0
 40
0.0500000000000008
100
AcDbArc
 50
285.0
 51
105.0
  0
LINE
  5
657
330
70
100
AcDbEntity
  8
Visible
100
AcDbLine
 10
9.665899
 20
6.846364
 30
60.0
 11
9.685217
 21
6.85154
 31
60.0
210
0.0
220
1.0
230
0.0
  0
ARC
  5
658
330
70
100
AcDbEntity
  8
Visible
100
AcDbCircle
 10
-9.673664
 20
6.817386
 30
-60.0
 40
0.0299999999999995
210
0.0000000000000001
220
0.0
230
-1.0
100
AcDbArc
 50
345.0
 51
75.0
  0
ARC
  5
659
330
70
100
AcDbEntity
  8
Visible
100
AcDbCircle
 10
7.9725
 20
3.524836
 30
60.0
 40
0.0625000000000002
100
AcDbArc
 50
90.0
 51
180.0
  0
LINE
  5
65A
330
70
100
AcDbEntity
  8
Visible
100
AcDbLine
 10
9.0275
 20
3.587336
 30
60.0
 11
7.9725
 21
3.587336
 31
60.0
210
0.0
220
1.0
230
0.0
  0
ARC
  5
65B
330
70
100
AcDbEntity
  8
Visible
100
AcDbCircle
 10
9.0275
 20
3.524836
 30
60.0
 40
0.0624999999999998
100
AcDbArc
 50
360.0
 51
90.0
  0
LINE
  5
65C
330
70
100
AcDbEntity
  8
Visible
100
AcDbLine
 10
9.09
 20
3.399836
 30
60.0
 11
9.09
 21
3.524836
 31
60.0
210
0.0
220
1.0
230
0.0
  0
ARC
  5
65D
330
70
100
AcDbEntity
  8
Visible
100
AcDbCircle
 10
9.0275
 20
3.399836
 30
60.0
 40
0.0624999999999996
100
AcDbArc
 50
270.0
 51
0.0
  0
LINE
  5
65E
330
70
100
AcDbEntity
  8
Visible
100
AcDbLine
 10
7.9725
 20
3.337336
 30
60.0
 11
9.0275
 21
3.337336
 31
60.0
210
0.0
220
1.0
230
0.0
  0
ARC
  5
65F
330
70
100
AcDbEntity
  8
Visible
100
AcDbCircle
 10
7.9725
 20
3.399836
 30
60.0
 40
0.0624999999999999
100
AcDbArc
 50
180.0
 51
270.0
  0
LINE
  5
660
330
70
100
AcDbEntity
  8
Visible
100
AcDbLine
 10
7.91
 20
3.524836
 30
60.0
 11
7.91
 21
3.399836
 31
60.0
210
0.0
220
1.0
230
0.0
  0
ARC
  5
661
330
70
100
AcDbEntity
  8
Visible
100
AcDbCircle
 10
9.665
 20
3.259836
 30
60.0
 40
0.06
100
AcDbArc
 50
270.0
 51
360.0
  0
LINE
  5
662
330
70
100
AcDbEntity
  8
Visible
100
AcDbLine
 10
9.319485
 20
3.199836
 30
60.0
 11
9.665
 21
3.199836
 31
60.0
210
0.0
220
1.0
230
0.0
  0
ARC
  5
663
330
70
100
AcDbEntity
  8
Visible
100
AcDbCircle
 10
9.319485
 20
3.259836
 30
60.0
 40
0.0599999999999998
100
AcDbArc
 50
135.0
 51
270.0
  0
LINE
  5
664
330
70
100
AcDbEntity
  8
Visible
100
AcDbLine
 10
9.622574
 20
3.647778
 30
60.0
 11
9.277058
 21
3.302263
 31
60.0
210
0.0
220
1.0
230
0.0
  0
ARC
  5
665
330
70
100
AcDbEntity
  8
Visible
100
AcDbCircle
 10
9.665
 20
3.605352
 30
60.0
 40
0.0600000000000004
100
AcDbArc
 50
360.0
 51
135.0
  0
LINE
  5
666
330
70
100
AcDbEntity
  8
Visible
100
AcDbLine
 10
9.725
 20
3.259836
 30
60.0
 11
9.725
 21
3.605352
 31
60.0
210
0.0
220
1.0
230
0.0
  0
ARC
  5
667
330
70
100
AcDbEntity
  8
Visible
100
AcDbCircle
 10
9.665
 20
4.469321
 30
60.0
 40
0.0599999999999999
100
AcDbArc
 50
225.0
 51
0.0
  0
LINE
  5
668
330
70
100
AcDbEntity
  8
Visible
100
AcDbLine
 10
9.277058
 20
4.77241
 30
60.0
 11
9.622574
 21
4.426895
 31
60.0
210
0.0
220
1.0
230
0.0
  0
ARC
  5
669
330
70
100
AcDbEntity
  8
Visible
100
AcDbCircle
 10
9.319485
 20
4.814836
 30
60.0
 40
0.0599999999999997
100
AcDbArc
 50
90.0
 51
225.0
  0
LINE
  5
66A
330
70
100
AcDbEntity
  8
Visible
100
AcDbLine
 10
9.665
 20
4.874836
 30
60.0
 11
9.319485
 21
4.874836
 31
60.0
210
0.0
220
1.0
230
0.0
  0
ARC
  5
66B
330
70
100
AcDbEntity
  8
Visible
100
AcDbCircle
 10
9.665
 20
4.814836
 30
60.0
 40
0.06
100
AcDbArc
 50
0.0
 51
90.0
  0
LINE
  5
66C
330
70
100
AcDbEntity
  8
Visible
100
AcDbLine
 10
9.725
 20
4.469321
 30
60.0
 11
9.725
 21
4.814836
 31
60.0
210
0.0
220
1.0
230
0.0
  0
LINE
  5
66D
330
70
100
AcDbEntity
  8
Visible
100
AcDbLine
 10
7.680515
 20
4.874836
 30
60.0
 11
7.335
 21
4.874836
 31
60.0
210
0.0
220
1.0
230
0.0
  0
ARC
  5
66E
330
70
100
AcDbEntity
  8
Visible
100
AcDbCircle
 10
7.680515
 20
4.814836
 30
60.0
 40
0.0600000000000002
100
AcDbArc
 50
315.0
 51
90.0
  0
LINE
  5
66F
330
70
100
AcDbEntity
  8
Visible
100
AcDbLine
 10
7.377426
 20
4.426895
 30
60.0
 11
7.722942
 21
4.77241
 31
60.0
210
0.0
220
1.0
230
0.0
  0
ARC
  5
670
330
70
100
AcDbEntity
  8
Visible
100
AcDbCircle
 10
7.335
 20
4.469321
 30
60.0
 40
0.0600000000000001
100
AcDbArc
 50
180.0
 51
315.0
  0
LINE
  5
671
330
70
100
AcDbEntity
  8
Visible
100
AcDbLine
 10
7.275
 20
4.814836
 30
60.0
 11
7.275
 21
4.469321
 31
60.0
210
0.0
220
1.0
230
0.0
  0
ARC
  5
672
330
70
100
AcDbEntity
  8
Visible
100
AcDbCircle
 10
7.335
 20
4.814836
 30
60.0
 40
0.0600000000000004
100
AcDbArc
 50
90.0
 51
180.0
  0
LINE
  5
673
330
70
100
AcDbEntity
  8
Visible
100
AcDbLine
 10
7.722942
 20
3.302263
 30
60.0
 11
7.377426
 21
3.647778
 31
60.0
210
0.0
220
1.0
230
0.0
  0
ARC
  5
674
330
70
100
AcDbEntity
  8
Visible
100
AcDbCircle
 10
7.680515
 20
3.259836
 30
60.0
 40
0.0600000000000002
100
AcDbArc
 50
270.0
 51
45.0
  0
LINE
  5
675
330
70
100
AcDbEntity
  8
Visible
100
AcDbLine
 10
7.335
 20
3.199836
 30
60.0
 11
7.680515
 21
3.199836
 31
60.0
210
0.0
220
1.0
230
0.0
  0
ARC
  5
676
330
70
100
AcDbEntity
  8
Visible
100
AcDbCircle
 10
7.335
 20
3.259836
 30
60.0
 40
0.06
100
AcDbArc
 50
180.0
 51
270.0
  0
LINE
  5
677
330
70
100
AcDbEntity
  8
Visible
100
AcDbLine
 10
7.275
 20
3.605352
 30
60.0
 11
7.275
 21
3.259836
 31
60.0
210
0.0
220
1.0
230
0.0
  0
ARC
  5
678
330
70
100
AcDbEntity
  8
Visible
100
AcDbCircle
 10
7.335
 20
3.605352
 30
60.0
 40
0.06
100
AcDbArc
 50
45.0
 51
180.0
  0
ARC
  5
679
330
70
100
AcDbEntity
  8
Visible
100
AcDbCircle
 10
9.3
 20
4.172336
 30
60.0
 40
0.06
100
AcDbArc
 50
180.0
 51
270.0
  0
LINE
  5
67A
330
70
100
AcDbEntity
  8
Visible
100
AcDbLine
 10
9.24
 20
4.452484
 30
60.0
 11
9.24
 21
4.172336
 31
60.0
210
0.0
220
1.0
230
0.0
  0
ARC
  5
67B
330
70
100
AcDbEntity
  8
Visible
100
AcDbCircle
 10
9.3
 20
4.452484
 30
60.0
 40
0.0599999999999998
100
AcDbArc
 50
45.0
 51
180.0
  0
LINE
  5
67C
330
70
100
AcDbEntity
  8
Visible
100
AcDbLine
 10
9.622574
 20
4.214763
 30
60.0
 11
9.342426
 21
4.49491
 31
60.0
210
0.0
220
1.0
230
0.0
  0
ARC
  5
67D
330
70
100
AcDbEntity
  8
Visible
100
AcDbCircle
 10
9.580147
 20
4.172336
 30
60.0
 40
0.0599999999999999
100
AcDbArc
 50
270.0
 51
45.0
  0
LINE
  5
67E
330
70
100
AcDbEntity
  8
Visible
100
AcDbLine
 10
9.3
 20
4.112336
 30
60.0
 11
9.580147
 21
4.112336
 31
60.0
210
0.0
220
1.0
230
0.0
  0
ARC
  5
67F
330
70
100
AcDbEntity
  8
Visible
100
AcDbCircle
 10
9.580147
 20
3.902336
 30
60.0
 40
0.06
100
AcDbArc
 50
315.0
 51
90.0
  0
LINE
  5
680
330
70
100
AcDbEntity
  8
Visible
100
AcDbLine
 10
9.342426
 20
3.579763
 30
60.0
 11
9.622574
 21
3.85991
 31
60.0
210
0.0
220
1.0
230
0.0
  0
ARC
  5
681
330
70
100
AcDbEntity
  8
Visible
100
AcDbCircle
 10
9.3
 20
3.622189
 30
60.0
 40
0.0600000000000004
100
AcDbArc
 50
180.0
 51
315.0
  0
LINE
  5
682
330
70
100
AcDbEntity
  8
Visible
100
AcDbLine
 10
9.24
 20
3.902336
 30
60.0
 11
9.24
 21
3.622189
 31
60.0
210
0.0
220
1.0
230
0.0
  0
ARC
  5
683
330
70
100
AcDbEntity
  8
Visible
100
AcDbCircle
 10
9.3
 20
3.902336
 30
60.0
 40
0.06
100
AcDbArc
 50
90.0
 51
180.0
  0
LINE
  5
684
330
70
100
AcDbEntity
  8
Visible
100
AcDbLine
 10
9.580147
 20
3.962336
 30
60.0
 11
9.3
 21
3.962336
 31
60.0
210
0.0
220
1.0
230
0.0
  0
LINE
  5
685
330
70
100
AcDbEntity
  8
Visible
100
AcDbLine
 10
7.76
 20
3.622189
 30
60.0
 11
7.76
 21
3.902336
 31
60.0
210
0.0
220
1.0
230
0.0
  0
ARC
  5
686
330
70
100
AcDbEntity
  8
Visible
100
AcDbCircle
 10
7.7
 20
3.622189
 30
60.0
 40
0.0600000000000001
100
AcDbArc
 50
225.0
 51
0.0
  0
LINE
  5
687
330
70
100
AcDbEntity
  8
Visible
100
AcDbLine
 10
7.377426
 20
3.85991
 30
60.0
 11
7.657574
 21
3.579763
 31
60.0
210
0.0
220
1.0
230
0.0
  0
ARC
  5
688
330
70
100
AcDbEntity
  8
Visible
100
AcDbCircle
 10
7.419853
 20
3.902336
 30
60.0
 40
0.0599999999999999
100
AcDbArc
 50
90.0
 51
225.0
  0
LINE
  5
689
330
70
100
AcDbEntity
  8
Visible
100
AcDbLine
 10
7.7
 20
3.962336
 30
60.0
 11
7.419853
 21
3.962336
 31
60.0
210
0.0
220
1.0
230
0.0
  0
ARC
  5
68A
330
70
100
AcDbEntity
  8
Visible
100
AcDbCircle
 10
7.7
 20
3.902336
 30
60.0
 40
0.06
100
AcDbArc
 50
360.0
 51
90.0
  0
LINE
  5
68B
330
70
100
AcDbEntity
  8
Visible
100
AcDbLine
 10
7.76
 20
4.172336
 30
60.0
 11
7.76
 21
4.452484
 31
60.0
210
0.0
220
1.0
230
0.0
  0
ARC
  5
68C
330
70
100
AcDbEntity
  8
Visible
100
AcDbCircle
 10
7.7
 20
4.172336
 30
60.0
 40
0.06
100
AcDbArc
 50
270.0
 51
360.0
  0
LINE
  5
68D
330
70
100
AcDbEntity
  8
Visible
100
AcDbLine
 10
7.419853
 20
4.112336
 30
60.0
 11
7.7
 21
4.112336
 31
60.0
210
0.0
220
1.0
230
0.0
  0
ARC
  5
68E
330
70
100
AcDbEntity
  8
Visible
100
AcDbCircle
 10
7.419853
 20
4.172336
 30
60.0
 40
0.0600000000000001
100
AcDbArc
 50
135.0
 51
270.0
  0
LINE
  5
68F
330
70
100
AcDbEntity
  8
Visible
100
AcDbLine
 10
7.657574
 20
4.49491
 30
60.0
 11
7.377426
 21
4.214763
 31
60.0
210
0.0
220
1.0
230
0.0
  0
ARC
  5
690
330
70
100
AcDbEntity
  8
Visible
100
AcDbCircle
 10
7.7
 20
4.452484
 30
60.0
 40
0.0600000000000002
100
AcDbArc
 50
0.0
 51
135.0
  0
ARC
  5
691
330
70
100
AcDbEntity
  8
Hidden
100
AcDbCircle
 10
8.499984
 20
53.999986
 30
-3.337336
 40
0.5625000000000506
210
0.0000000000000025
220
-1.0
230
0.0000000000000002
100
AcDbArc
 50
0.0
 51
20.313772
  0
ARC
  5
692
330
70
100
AcDbEntity
  8
Hidden
100
AcDbCircle
 10
8.499984
 20
53.999986
 30
-3.337336
 40
0.5625000000000439
210
0.0000000000000023
220
-1.0
230
-0.0000000000000006
100
AcDbArc
 50
159.677074
 51
180.0
  0
LINE
  5
693
330
70
100
AcDbEntity
  8
Hidden
100
AcDbLine
 10
7.937484
 20
3.576607
 30
53.999986
 11
7.937484
 21
3.800661
 31
53.999986
210
0.0
220
1.0
230
0.0
  0
LINE
  5
694
330
70
100
AcDbEntity
  8
Hidden
100
AcDbLine
 10
9.062484
 20
3.576628
 30
53.999986
 11
9.062484
 21
3.800616
 31
53.999986
210
0.0
220
1.0
230
0.0
  0
LINE
  5
695
330
70
100
AcDbEntity
  8
Hidden
100
AcDbLine
 10
7.937484
 20
3.348066
 30
53.999986
 11
7.937484
 21
3.337336
 31
53.999986
210
0.0
220
1.0
230
0.0
  0
LINE
  5
696
330
70
100
AcDbEntity
  8
Hidden
100
AcDbLine
 10
9.062484
 20
3.348045
 30
53.999986
 11
9.062484
 21
3.337336
 31
53.999986
210
0.0
220
1.0
230
0.0
  0
LINE
  5
697
330
70
100
AcDbEntity
  8
Hidden
100
AcDbLine
 10
8.1875
 20
3.087336
 30
54.0
 11
8.1875
 21
3.337336
 31
54.0
210
0.0
220
1.0
230
0.0
  0
LINE
  5
698
330
70
100
AcDbEntity
  8
Hidden
100
AcDbLine
 10
8.8125
 20
3.087336
 30
54.0
 11
8.8125
 21
3.337336
 31
54.0
210
0.0
220
1.0
230
0.0
  0
MTEXT
  5
699
330
70
100
AcDbEntity
  8
Annotations
  6
PHANTOM2
100
AcDbMText
 10
8.415401
 20
9.023105
 30
0.0
 40
0.24
 41
0.0
 46
0.0
 71
     5
 72
     5
  1
A
 73
     1
 44
1.0
  0
CIRCLE
  5
69A
330
70
100
AcDbEntity
  8
Annotations
  6
PHANTOM2
370
    25
100
AcDbCircle
 10
7.900001
 20
9.141219
 30
0.0
 40
0.1737953899305396
  0
LINE
  5
69B
330
70
100
AcDbEntity
  8
Annotations
  6
PHANTOM2
370
    25
100
AcDbLine
 10
8.069405
 20
9.102397
 30
0.0
 11
8.183341
 21
9.076286
 31
0.0
  0
ENDSEC
  0
SECTION
  2
OBJECTS
  0
DICTIONARY
  5
C
330
0
100
AcDbDictionary
281
     1
  3
ACAD_COLOR
350
63
  3
ACAD_DETAILVIEWSTYLE
350
6A
  3
ACAD_FIELDLIST
350
30E
  3
ACAD_GROUP
350
D
  3
ACAD_IMAGE_DICT
350
1F3
  3
ACAD_IMAGE_VARS
350
1F5
  3
ACAD_LAYOUT
350
62
  3
ACAD_MATERIAL
350
10
  3
ACAD_MLEADERSTYLE
350
66
  3
ACAD_MLINESTYLE
350
5F
  3
ACAD_PLOTSETTINGS
350
61
  3
ACAD_PLOTSTYLENAME
350
E
  3
ACAD_SCALELIST
350
42
  3
ACAD_SECTIONVIEWSTYLE
350
68
  3
ACAD_TABLESTYLE
350
64
  3
ACAD_VISUALSTYLE
350
29
  3
ACDB_RECOMPOSE_DATA
350
735
  3
AcDbVariableDictionary
350
72C
  0
DICTIONARY
  5
B5
330
70
100
AcDbDictionary
280
     1
281
     1
  3
ACAD_SORTENTS
360
1E9
  0
DICTIONARY
  5
1ED
330
1EC
100
AcDbDictionary
280
     1
281
     1
  3
ACAD_SORTENTS
360
579
  0
IMAGEDEF_REACTOR
  5
1F4
330
1F1
100
AcDbRasterImageDefReactor
 90
        2
330
1F1
  0
DICTIONARY
  5
278
330
277
100
AcDbDictionary
280
     1
281
     1
  0
DICTIONARY
  5
63
102
{ACAD_REACTORS
330
C
102
}
330
C
100
AcDbDictionary
281
     1
  0
DICTIONARY
  5
6A
102
{ACAD_REACTORS
330
C
102
}
330
C
100
AcDbDictionary
281
     1
  3
Imperial24
350
6B
  0
FIELDLIST
  5
30E
102
{ACAD_REACTORS
330
C
102
}
330
C
100
AcDbIdSet
 90
        3
330
27B
330
27C
330
27D
100
AcDbFieldList
  0
DICTIONARY
  5
D
102
{ACAD_REACTORS
330
C
102
}
330
C
100
AcDbDictionary
281
     1
  0
DICTIONARY
  5
1F3
102
{ACAD_REACTORS
330
C
102
}
330
C
100
AcDbDictionary
281
     1
  3
morse_logo-16 (1)_01-2018(B)_1_1
350
1F2
  0
RASTERVARIABLES
  5
1F5
102
{ACAD_REACTORS
330
C
102
}
330
C
100
AcDbRasterVariables
 90
        0
 70
     0
 71
     1
 72
     5
  0
DICTIONARY
  5
62
102
{ACAD_REACTORS
330
C
102
}
330
C
100
AcDbDictionary
281
     1
  3
Model
350
73
  3
Sheet1
350
6F
  3
Sheet2
350
77
  0
DICTIONARY
  5
10
102
{ACAD_REACTORS
330
C
102
}
330
C
100
AcDbDictionary
281
     1
  3
ByBlock
350
19
  3
ByLayer
350
11
  3
Global
350
21
  0
DICTIONARY
  5
66
102
{ACAD_REACTORS
330
C
102
}
330
C
100
AcDbDictionary
281
     1
  3
Standard
350
67
  0
DICTIONARY
  5
5F
102
{ACAD_REACTORS
330
C
102
}
330
C
100
AcDbDictionary
281
     1
  3
Standard
350
60
  0
DICTIONARY
  5
61
102
{ACAD_REACTORS
330
C
102
}
330
C
100
AcDbDictionary
281
     1
  0
ACDBDICTIONARYWDFLT
  5
E
102
{ACAD_REACTORS
330
C
102
}
330
C
100
AcDbDictionary
281
     1
  3
Normal
350
F
100
AcDbDictionaryWithDefault
340
F
  0
DICTIONARY
  5
42
102
{ACAD_REACTORS
330
C
102
}
330
C
100
AcDbDictionary
281
     1
  3
*A1
350
A5
  3
*A10
350
AE
  3
*A11
350
AF
  3
*A12
350
B0
  3
*A13
350
B1
  3
*A14
350
B2
  3
*A15
350
B3
  3
*A16
350
B4
  3
*A2
350
A6
  3
*A3
350
A7
  3
*A4
350
A8
  3
*A5
350
A9
  3
*A6
350
AA
  3
*A7
350
AB
  3
*A8
350
AC
  3
*A9
350
AD
  3
A0
350
43
  3
A1
350
44
  3
A2
350
45
  3
A3
350
46
  3
A4
350
47
  3
A5
350
48
  3
A6
350
49
  3
A7
350
4A
  3
A8
350
4B
  3
A9
350
4C
  3
B0
350
4D
  3
B1
350
4E
  3
B2
350
4F
  3
B3
350
50
  3
B4
350
51
  3
B5
350
52
  3
B6
350
53
  0
DICTIONARY
  5
68
102
{ACAD_REACTORS
330
C
102
}
330
C
100
AcDbDictionary
281
     1
  3
Imperial24
350
69
  0
DICTIONARY
  5
64
102
{ACAD_REACTORS
330
C
102
}
330
C
100
AcDbDictionary
281
     1
  3
Standard
350
65
  0
DICTIONARY
  5
29
102
{ACAD_REACTORS
330
C
102
}
330
C
100
AcDbDictionary
281
     1
  3
2dWireframe
350
2F
  3
Basic
350
2E
  3
Brighten
350
35
  3
ColorChange
350
39
  3
Conceptual
350
32
  3
Dim
350
34
  3
EdgeColorOff
350
41
  3
Facepattern
350
38
  3
Flat
350
2A
  3
FlatWithEdges
350
2B
  3
Gouraud
350
2C
  3
GouraudWithEdges
350
2D
  3
Hidden
350
31
  3
JitterOff
350
3F
  3
Linepattern
350
37
  3
OverhangOff
350
40
  3
Realistic
350
33
  3
Shaded
350
3E
  3
Shaded with edges
350
3D
  3
Shades of Gray
350
3A
  3
Sketchy
350
3B
  3
Thicken
350
36
  3
Wireframe
350
30
  3
X-Ray
350
3C
  0
XRECORD
  5
735
102
{ACAD_REACTORS
330
C
102
}
330
C
100
AcDbXrecord
280
     1
 90
        1
330
65
330
1F9
330
203
330
204
330
205
330
208
330
2CC
330
2CD
  0
DICTIONARY
  5
72C
102
{ACAD_REACTORS
330
C
102
}
330
C
100
AcDbDictionary
281
     1
  3
ANNOALLVISIBLE
350
731
  3
CANNOSCALE
350
732
  3
CMLEADERSTYLE
350
72E
  3
CTABLESTYLE
350
72D
  3
CVIEWDETAILSTYLE
350
72F
  3
CVIEWSECTIONSTYLE
350
730
  0
SORTENTSTABLE
  5
1E9
102
{ACAD_REACTORS
330
B5
102
}
330
B5
100
AcDbSortentsTable
330
70
  0
SORTENTSTABLE
  5
579
102
{ACAD_REACTORS
330
1ED
102
}
330
1ED
100
AcDbSortentsTable
330
1EC
  0
ACDBDETAILVIEWSTYLE
  5
6B
102
{ACAD_XDICTIONARY
360
738
102
}
102
{ACAD_REACTORS
330
6A
102
}
330
6A
100
AcDbModelDocViewStyle
 70
     0
  3
Imperial24
290
     0
100
AcDbDetailViewStyle
 70
     0
 71
     0
 90
        3
 71
     1
340
55
 62
   256
 40
0.24
340
0
 62
   256
 40
0.24
300

 40
0.36
280
     3
 71
     2
340
5D
 90
       25
 62
   256
 71
     3
340
55
 62
   256
 40
0.24
 90
        1
 40
0.75
 90
        1
300
%<\AcVar ViewType \f "%tc1">% %<\AcVar ViewDetailId>%\PSCALE %<\AcVar ViewScale \f "%sn">%
 71
     4
340
5D
 90
       25
 62
   256
340
5D
 90
       25
 62
   256
280
     0
  0
IMAGEDEF
  5
1F2
102
{ACAD_REACTORS
330
1F3
330
1F4
330
69C
102
}
330
1F3
100
AcDbRasterImageDef
 90
        0
  1
morse_logo-16 (1)_01-2018(B)_1_1.jpg
 10
948.0
 20
333.0
 11
0.264583
 21
0.264583
280
     1
281
     5
  0
LAYOUT
  5
73
102
{ACAD_REACTORS
330
62
102
}
330
62
100
AcDbPlotSettings
  1

  2
AutoCAD PDF (High Quality Print).pc3
  4
ANSI_full_bleed_B_(17.00_x_11.00_Inches)
  6

 40
0.0
 41
0.0
 42
0.0
 43
0.0
 44
431.799988
 45
279.399994
 46
0.0
 47
0.0
 48
0.0
 49
0.0
140
0.0
141
0.0
142
1.0
143
1.290546
 70
 11952
 72
     0
 73
     0
 74
     0
  7

 75
     0
147
0.774866
 76
     0
 77
     2
 78
   300
148
83.353883
149
35.625027
100
AcDbLayout
  1
Model
 70
     1
 71
     0
 10
0.0
 20
0.0
 11
12.0
 21
9.0
 12
0.0
 22
0.0
 32
0.0
 14
0.0
 24
0.0
 34
0.0
 15
0.0
 25
0.0
 35
0.0
146
0.0
 13
0.0
 23
0.0
 33
0.0
 16
1.0
 26
0.0
 36
0.0
 17
0.0
 27
1.0
 37
0.0
 76
     0
330
70
1001
ACAD_PSEXT
1000
AutoCAD PDF (High Quality Print).pc3
1000
DWG To PDF
1000
File
1000

1070
     0
  0
LAYOUT
  5
6F
102
{ACAD_REACTORS
330
62
102
}
330
62
100
AcDbPlotSettings
  1

  2
None
  4

  6

 40
0.0
 41
0.0
 42
0.0
 43
0.0
 44
0.0
 45
0.0
 46
0.0
 47
0.0
 48
0.0
 49
0.0
140
0.0
141
0.0
142
1.0
143
1.0
 70
   688
 72
     0
 73
     0
 74
     5
  7

 75
    16
147
1.0
 76
     0
 77
     2
 78
   300
148
0.0
149
0.0
100
AcDbLayout
  1
Sheet1
 70
     1
 71
     1
 10
0.0
 20
0.0
 11
12.0
 21
9.0
 12
0.0
 22
0.0
 32
0.0
 14
0.0
 24
0.0
 34
0.0
 15
0.0
 25
0.0
 35
0.0
146
0.0
 13
0.0
 23
0.0
 33
0.0
 16
1.0
 26
0.0
 36
0.0
 17
0.0
 27
1.0
 37
0.0
 76
     0
330
6C
  0
LAYOUT
  5
77
102
{ACAD_REACTORS
330
62
102
}
330
62
100
AcDbPlotSettings
  1

  2
None
  4

  6

 40
0.0
 41
0.0
 42
0.0
 43
0.0
 44
0.0
 45
0.0
 46
0.0
 47
0.0
 48
0.0
 49
0.0
140
0.0
141
0.0
142
1.0
143
1.0
 70
   688
 72
     0
 73
     0
 74
     5
  7

 75
    16
147
1.0
 76
     0
 77
     2
 78
   300
148
0.0
149
0.0
100
AcDbLayout
  1
Sheet2
 70
     1
 71
     2
 10
0.0
 20
0.0
 11
12.0
 21
9.0
 12
0.0
 22
0.0
 32
0.0
 14
0.0
 24
0.0
 34
0.0
 15
0.0
 25
0.0
 35
0.0
146
0.0
 13
0.0
 23
0.0
 33
0.0
 16
1.0
 26
0.0
 36
0.0
 17
0.0
 27
1.0
 37
0.0
 76
     0
330
74
  0
MATERIAL
  5
19
102
{ACAD_XDICTIONARY
360
1A
102
}
102
{ACAD_REACTORS
330
10
102
}
330
10
100
AcDbMaterial
  1
ByBlock
 72
     0
 43
0.020833
 43
0.0
 43
0.0
 43
0.0
 43
0.0
 43
0.020833
 43
0.0
 43
0.0
 43
0.0
 43
0.0
 43
1.0
 43
0.0
 43
0.0
 43
0.0
 43
0.0
 43
1.0
 77
     0
 47
0.020833
 47
0.0
 47
0.0
 47
0.0
 47
0.0
 47
0.020833
 47
0.0
 47
0.0
 47
0.0
 47
0.0
 47
1.0
 47
0.0
 47
0.0
 47
0.0
 47
0.0
 47
1.0
171
     0
 49
0.020833
 49
0.0
 49
0.0
 49
0.0
 49
0.0
 49
0.020833
 49
0.0
 49
0.0
 49
0.0
 49
0.0
 49
1.0
 49
0.0
 49
0.0
 49
0.0
 49
0.0
 49
1.0
175
     0
142
0.020833
142
0.0
142
0.0
142
0.0
142
0.0
142
0.020833
142
0.0
142
0.0
142
0.0
142
0.0
142
1.0
142
0.0
142
0.0
142
0.0
142
0.0
142
1.0
179
     0
144
0.020833
144
0.0
144
0.0
144
0.0
144
0.0
144
0.020833
144
0.0
144
0.0
144
0.0
144
0.0
144
1.0
144
0.0
144
0.0
144
0.0
144
0.0
144
1.0
147
0.020833
147
0.0
147
0.0
147
0.0
147
0.0
147
0.020833
147
0.0
147
0.0
147
0.0
147
0.0
147
1.0
147
0.0
147
0.0
147
0.0
147
0.0
147
1.0
  0
MATERIAL
  5
11
102
{ACAD_XDICTIONARY
360
12
102
}
102
{ACAD_REACTORS
330
10
102
}
330
10
100
AcDbMaterial
  1
ByLayer
 72
     0
 43
0.020833
 43
0.0
 43
0.0
 43
0.0
 43
0.0
 43
0.020833
 43
0.0
 43
0.0
 43
0.0
 43
0.0
 43
1.0
 43
0.0
 43
0.0
 43
0.0
 43
0.0
 43
1.0
 77
     0
 47
0.020833
 47
0.0
 47
0.0
 47
0.0
 47
0.0
 47
0.020833
 47
0.0
 47
0.0
 47
0.0
 47
0.0
 47
1.0
 47
0.0
 47
0.0
 47
0.0
 47
0.0
 47
1.0
171
     0
 49
0.020833
 49
0.0
 49
0.0
 49
0.0
 49
0.0
 49
0.020833
 49
0.0
 49
0.0
 49
0.0
 49
0.0
 49
1.0
 49
0.0
 49
0.0
 49
0.0
 49
0.0
 49
1.0
175
     0
142
0.020833
142
0.0
142
0.0
142
0.0
142
0.0
142
0.020833
142
0.0
142
0.0
142
0.0
142
0.0
142
1.0
142
0.0
142
0.0
142
0.0
142
0.0
142
1.0
179
     0
144
0.020833
144
0.0
144
0.0
144
0.0
144
0.0
144
0.020833
144
0.0
144
0.0
144
0.0
144
0.0
144
1.0
144
0.0
144
0.0
144
0.0
144
0.0
144
1.0
147
0.020833
147
0.0
147
0.0
147
0.0
147
0.0
147
0.020833
147
0.0
147
0.0
147
0.0
147
0.0
147
1.0
147
0.0
147
0.0
147
0.0
147
0.0
147
1.0
  0
MATERIAL
  5
21
102
{ACAD_XDICTIONARY
360
22
102
}
102
{ACAD_REACTORS
330
10
102
}
330
10
100
AcDbMaterial
  1
Global
 72
     0
 43
0.020833
 43
0.0
 43
0.0
 43
0.0
 43
0.0
 43
0.020833
 43
0.0
 43
0.0
 43
0.0
 43
0.0
 43
1.0
 43
0.0
 43
0.0
 43
0.0
 43
0.0
 43
1.0
 77
     0
 47
0.020833
 47
0.0
 47
0.0
 47
0.0
 47
0.0
 47
0.020833
 47
0.0
 47
0.0
 47
0.0
 47
0.0
 47
1.0
 47
0.0
 47
0.0
 47
0.0
 47
0.0
 47
1.0
171
     0
 49
0.020833
 49
0.0
 49
0.0
 49
0.0
 49
0.0
 49
0.020833
 49
0.0
 49
0.0
 49
0.0
 49
0.0
 49
1.0
 49
0.0
 49
0.0
 49
0.0
 49
0.0
 49
1.0
175
     0
142
0.020833
142
0.0
142
0.0
142
0.0
142
0.0
142
0.020833
142
0.0
142
0.0
142
0.0
142
0.0
142
1.0
142
0.0
142
0.0
142
0.0
142
0.0
142
1.0
179
     0
144
0.020833
144
0.0
144
0.0
144
0.0
144
0.0
144
0.020833
144
0.0
144
0.0
144
0.0
144
0.0
144
1.0
144
0.0
144
0.0
144
0.0
144
0.0
144
1.0
147
0.020833
147
0.0
147
0.0
147
0.0
147
0.0
147
0.020833
147
0.0
147
0.0
147
0.0
147
0.0
147
1.0
147
0.0
147
0.0
147
0.0
147
0.0
147
1.0
  0
MLEADERSTYLE
  5
67
102
{ACAD_REACTORS
330
66
102
}
330
66
100
AcDbMLeaderStyle
179
     2
170
     2
171
     1
172
     0
 90
        2
 40
0.0
 41
0.0
173
     1
 91
-1056964608
340
5B
 92
       -2
290
     1
 42
0.09
291
     1
 43
0.36
  3
Standard
 44
0.18
300

342
55
174
     1
178
     6
175
     1
176
     0
 93
-1056964608
 45
0.18
292
     0
297
     0
 46
0.18
 94
-1056964608
 47
1.0
 49
1.0
140
1.0
293
     1
141
0.0
294
     1
177
     0
142
1.0
295
     0
296
     0
143
0.125
271
     0
272
     9
273
     9
298
     1
  0
MLINESTYLE
  5
60
102
{ACAD_REACTORS
330
5F
102
}
330
5F
100
AcDbMlineStyle
  2
STANDARD
 70
     0
  3

 62
   256
 51
90.0
 52
90.0
 71
     0
  0
ACDBPLACEHOLDER
  5
F
102
{ACAD_REACTORS
330
E
102
}
330
E
  0
SCALE
  5
A5
102
{ACAD_REACTORS
330
42
102
}
330
42
100
AcDbScale
 70
     0
300
1:2
140
1.0
141
2.0
290
     0
  0
SCALE
  5
AE
102
{ACAD_REACTORS
330
42
102
}
330
42
100
AcDbScale
 70
     0
300
1:50
140
1.0
141
50.0
290
     0
  0
SCALE
  5
AF
102
{ACAD_REACTORS
330
42
102
}
330
42
100
AcDbScale
 70
     0
300
1:100
140
1.0
141
100.0
290
     0
  0
SCALE
  5
B0
102
{ACAD_REACTORS
330
42
102
}
330
42
100
AcDbScale
 70
     0
300
2:1
140
2.0
141
1.0
290
     0
  0
SCALE
  5
B1
102
{ACAD_REACTORS
330
42
102
}
330
42
100
AcDbScale
 70
     0
300
4:1
140
4.0
141
1.0
290
     0
  0
SCALE
  5
B2
102
{ACAD_REACTORS
330
42
102
}
330
42
100
AcDbScale
 70
     0
300
8:1
140
8.0
141
1.0
290
     0
  0
SCALE
  5
B3
102
{ACAD_REACTORS
330
42
102
}
330
42
100
AcDbScale
 70
     0
300
10:1
140
10.0
141
1.0
290
     0
  0
SCALE
  5
B4
102
{ACAD_REACTORS
330
42
102
}
330
42
100
AcDbScale
 70
     0
300
100:1
140
100.0
141
1.0
290
     0
  0
SCALE
  5
A6
102
{ACAD_REACTORS
330
42
102
}
330
42
100
AcDbScale
 70
     0
300
1:4
140
1.0
141
4.0
290
     0
  0
SCALE
  5
A7
102
{ACAD_REACTORS
330
42
102
}
330
42
100
AcDbScale
 70
     0
300
1:5
140
1.0
141
5.0
290
     0
  0
SCALE
  5
A8
102
{ACAD_REACTORS
330
42
102
}
330
42
100
AcDbScale
 70
     0
300
1:8
140
1.0
141
8.0
290
     0
  0
SCALE
  5
A9
102
{ACAD_REACTORS
330
42
102
}
330
42
100
AcDbScale
 70
     0
300
1:10
140
1.0
141
10.0
290
     0
  0
SCALE
  5
AA
102
{ACAD_REACTORS
330
42
102
}
330
42
100
AcDbScale
 70
     0
300
1:16
140
1.0
141
16.0
290
     0
  0
SCALE
  5
AB
102
{ACAD_REACTORS
330
42
102
}
330
42
100
AcDbScale
 70
     0
300
1:20
140
1.0
141
20.0
290
     0
  0
SCALE
  5
AC
102
{ACAD_REACTORS
330
42
102
}
330
42
100
AcDbScale
 70
     0
300
1:30
140
1.0
141
30.0
290
     0
  0
SCALE
  5
AD
102
{ACAD_REACTORS
330
42
102
}
330
42
100
AcDbScale
 70
     0
300
1:40
140
1.0
141
40.0
290
     0
  0
SCALE
  5
43
102
{ACAD_REACTORS
330
42
102
}
330
42
100
AcDbScale
 70
     0
300
1:1
140
1.0
141
1.0
290
     1
  0
SCALE
  5
44
102
{ACAD_REACTORS
330
42
102
}
330
42
100
AcDbScale
 70
     0
300
1/128" = 1'-0"
140
0.007813
141
12.0
290
     0
  0
SCALE
  5
45
102
{ACAD_REACTORS
330
42
102
}
330
42
100
AcDbScale
 70
     0
300
1/64" = 1'-0"
140
0.015625
141
12.0
290
     0
  0
SCALE
  5
46
102
{ACAD_REACTORS
330
42
102
}
330
42
100
AcDbScale
 70
     0
300
1/32" = 1'-0"
140
0.03125
141
12.0
290
     0
  0
SCALE
  5
47
102
{ACAD_REACTORS
330
42
102
}
330
42
100
AcDbScale
 70
     0
300
1/16" = 1'-0"
140
0.0625
141
12.0
290
     0
  0
SCALE
  5
48
102
{ACAD_REACTORS
330
42
102
}
330
42
100
AcDbScale
 70
     0
300
3/32" = 1'-0"
140
0.09375
141
12.0
290
     0
  0
SCALE
  5
49
102
{ACAD_REACTORS
330
42
102
}
330
42
100
AcDbScale
 70
     0
300
1/8" = 1'-0"
140
0.125
141
12.0
290
     0
  0
SCALE
  5
4A
102
{ACAD_REACTORS
330
42
102
}
330
42
100
AcDbScale
 70
     0
300
3/16" = 1'-0"
140
0.1875
141
12.0
290
     0
  0
SCALE
  5
4B
102
{ACAD_REACTORS
330
42
102
}
330
42
100
AcDbScale
 70
     0
300
1/4" = 1'-0"
140
0.25
141
12.0
290
     0
  0
SCALE
  5
4C
102
{ACAD_REACTORS
330
42
102
}
330
42
100
AcDbScale
 70
     0
300
3/8" = 1'-0"
140
0.375
141
12.0
290
     0
  0
SCALE
  5
4D
102
{ACAD_REACTORS
330
42
102
}
330
42
100
AcDbScale
 70
     0
300
1/2" = 1'-0"
140
0.5
141
12.0
290
     0
  0
SCALE
  5
4E
102
{ACAD_REACTORS
330
42
102
}
330
42
100
AcDbScale
 70
     0
300
3/4" = 1'-0"
140
0.75
141
12.0
290
     0
  0
SCALE
  5
4F
102
{ACAD_REACTORS
330
42
102
}
330
42
100
AcDbScale
 70
     0
300
1" = 1'-0"
140
1.0
141
12.0
290
     0
  0
SCALE
  5
50
102
{ACAD_REACTORS
330
42
102
}
330
42
100
AcDbScale
 70
     0
300
1-1/2" = 1'-0"
140
1.5
141
12.0
290
     0
  0
SCALE
  5
51
102
{ACAD_REACTORS
330
42
102
}
330
42
100
AcDbScale
 70
     0
300
3" = 1'-0"
140
3.0
141
12.0
290
     0
  0
SCALE
  5
52
102
{ACAD_REACTORS
330
42
102
}
330
42
100
AcDbScale
 70
     0
300
6" = 1'-0"
140
6.0
141
12.0
290
     0
  0
SCALE
  5
53
102
{ACAD_REACTORS
330
42
102
}
330
42
100
AcDbScale
 70
     0
300
1'-0" = 1'-0"
140
12.0
141
12.0
290
     0
  0
ACDBSECTIONVIEWSTYLE
  5
69
102
{ACAD_XDICTIONARY
360
736
102
}
102
{ACAD_REACTORS
330
68
102
}
330
68
100
AcDbModelDocViewStyle
 70
     0
  3
Imperial24
290
     0
100
AcDbSectionViewStyle
 70
     0
 71
     0
 90
       78
 71
     1
340
55
 62
   256
 40
0.24
340
0
340
0
 62
   256
 40
0.24
300
I, O, Q, S, X, Z
 40
0.48
 90
        3
 40
0.18
 90
        1
 71
     2
340
5D
 90
       25
 62
   256
340
5D
 90
       50
 62
   256
 40
0.24
 40
0.0
 40
0.24
 71
     3
340
55
 62
   256
 40
0.24
 90
        1
 40
0.75
 90
        1
300
%<\AcVar ViewType \f "%tc1">% %<\AcVar ViewSectionStartId>%-%<\AcVar ViewSectionEndId>%\PSCALE %<\AcVar ViewScale \f "%sn">%
 71
     4
 62
   256
 62
   257
300
ANSI31
 40
1.0
 90
        0
290
     0
290
     0
 90
        6
 40
0.0
 40
1.570796
 40
0.261799
 40
1.308997
 40
-0.261799
 40
1.832596
  0
TABLESTYLE
  5
65
102
{ACAD_XDICTIONARY
360
733
102
}
102
{ACAD_REACTORS
330
64
102
}
330
64
100
AcDbTableStyle
280
     0
  3
Standard
 70
     0
 71
     0
 40
0.06
 41
0.06
280
     0
281
     0
  7
Standard
140
0.18
170
     2
 62
     0
 63
     7
283
     0
 90
      512
 91
        0
  1

274
    -2
284
     1
 64
     0
275
    -2
285
     1
 65
     0
276
    -2
286
     1
 66
     0
277
    -2
287
     1
 67
     0
278
    -2
288
     1
 68
     0
279
    -2
289
     1
 69
     0
  7
Standard
140
0.25
170
     5
 62
     0
 63
     7
283
     0
 90
      512
 91
        0
  1

274
    -2
284
     1
 64
     0
275
    -2
285
     1
 65
     0
276
    -2
286
     1
 66
     0
277
    -2
287
     1
 67
     0
278
    -2
288
     1
 68
     0
279
    -2
289
     1
 69
     0
  7
Standard
140
0.18
170
     5
 62
     0
 63
     7
283
     0
 90
      512
 91
        0
  1

274
    -2
284
     1
 64
     0
275
    -2
285
     1
 65
     0
276
    -2
286
     1
 66
     0
277
    -2
287
     1
 67
     0
278
    -2
288
     1
 68
     0
279
    -2
289
     1
 69
     0
  0
VISUALSTYLE
  5
2F
102
{ACAD_REACTORS
330
29
102
}
330
29
100
AcDbVisualStyle
  2
2dWireframe
 70
     4
177
     3
291
     0
 70
    58
 90
        0
176
     1
 90
        2
176
     1
 90
        0
176
     1
 90
        0
176
     1
 40
0.6
176
     1
 40
30.0
176
     1
 62
     7
420
 16777215
176
     1
 90
        1
176
     1
 90
        4
176
     1
 62
     7
176
     1
 62
   257
176
     1
 90
        1
176
     1
 90
        1
176
     1
 40
1.0
176
     1
 90
        0
176
     1
 62
   257
176
     1
 40
1.0
176
     1
 90
        1
176
     1
 90
        6
176
     1
 90
        2
176
     1
 62
     7
176
     1
 90
        5
176
     1
 90
        0
176
     1
 90
        0
176
     1
290
     0
176
     1
 90
        1
176
     1
 40
0.0
176
     1
 90
        0
176
     1
290
     1
176
     1
290
     1
176
     1
290
     0
176
     1
290
     0
176
     1
290
     0
176
     1
290
     0
176
     1
290
     0
176
     1
290
     0
176
     1
290
     0
176
     1
 90
       50
176
     1
 40
0.0
176
     1
 40
1.0
176
     1
 90
        0
176
     1
 62
    18
420
        0
176
     1
 90
       50
176
     1
 90
        3
176
     1
 62
     5
420
      255
176
     1
290
     0
176
     1
 90
       50
176
     1
 90
       50
176
     1
 90
       50
176
     1
290
     0
176
     1
 90
       50
176
     1
 62
   256
176
     0
 40
1.0
176
     0
 90
        2
176
     1
  1
strokes_ogs.tif
176
     1
290
     0
176
     1
 40
1.0
176
     1
 40
1.0
176
     1
1001
ACAD
1000
AcDbSavedByObjectVersion
1070
     0
  0
VISUALSTYLE
  5
2E
102
{ACAD_REACTORS
330
29
102
}
330
29
100
AcDbVisualStyle
  2
Basic
 70
     7
177
     3
291
     1
 70
    58
 90
        1
176
     1
 90
        0
176
     1
 90
        1
176
     1
 90
        0
176
     1
 40
0.6
176
     1
 40
30.0
176
     1
 62
     7
420
 16777215
176
     1
 90
        0
176
     1
 90
        4
176
     1
 62
     7
176
     1
 62
   257
176
     1
 90
        1
176
     1
 90
        1
176
     1
 40
1.0
176
     1
 90
        8
176
     1
 62
     7
176
     1
 40
1.0
176
     1
 90
        1
176
     1
 90
        6
176
     1
 90
        2
176
     1
 62
     7
176
     1
 90
        5
176
     1
 90
        0
176
     1
 90
        0
176
     1
290
     0
176
     1
 90
        1
176
     1
 40
0.0
176
     1
 90
        0
176
     1
290
     0
176
     1
290
     1
176
     1
290
     1
176
     1
290
     0
176
     1
290
     0
176
     1
290
     0
176
     1
290
     0
176
     1
290
     0
176
     1
290
     0
176
     1
 90
       50
176
     1
 40
0.0
176
     1
 40
1.0
176
     1
 90
        0
176
     1
 62
    18
420
        0
176
     1
 90
       50
176
     1
 90
        3
176
     1
 62
     5
420
      255
176
     1
290
     0
176
     1
 90
       50
176
     1
 90
       50
176
     1
 90
       50
176
     1
290
     0
176
     1
 90
       50
176
     1
 62
   256
176
     0
 40
1.0
176
     0
 90
        2
176
     1
  1
strokes_ogs.tif
176
     1
290
     0
176
     1
 40
1.0
176
     1
 40
1.0
176
     1
1001
ACAD
1000
AcDbSavedByObjectVersion
1070
     0
  0
VISUALSTYLE
  5
35
102
{ACAD_REACTORS
330
29
102
}
330
29
100
AcDbVisualStyle
  2
Brighten
 70
    12
177
     3
291
     1
 70
    58
 90
        2
176
     1
 90
        2
176
     1
 90
        0
176
     1
 90
        0
176
     1
 40
0.6
176
     1
 40
30.0
176
     1
 62
     7
420
 16777215
176
     1
 90
        1
176
     1
 90
        4
176
     1
 62
     7
176
     1
 62
   257
176
     1
 90
        1
176
     1
 90
        1
176
     1
 40
1.0
176
     1
 90
        8
176
     1
 62
     7
176
     1
 40
1.0
176
     1
 90
        1
176
     1
 90
        6
176
     1
 90
        2
176
     1
 62
     7
176
     1
 90
        5
176
     1
 90
        0
176
     1
 90
        0
176
     1
290
     0
176
     1
 90
        1
176
     1
 40
50.0
176
     1
 90
        0
176
     1
290
     0
176
     1
290
     1
176
     1
290
     1
176
     1
290
     0
176
     1
290
     0
176
     1
290
     0
176
     1
290
     0
176
     1
290
     0
176
     1
290
     0
176
     1
 90
       50
176
     1
 40
0.0
176
     1
 40
1.0
176
     1
 90
        0
176
     1
 62
    18
420
        0
176
     1
 90
       50
176
     1
 90
        3
176
     1
 62
     5
420
      255
176
     1
290
     0
176
     1
 90
       50
176
     1
 90
       50
176
     1
 90
       50
176
     1
290
     0
176
     1
 90
       50
176
     1
 62
   256
176
     0
 40
1.0
176
     0
 90
        2
176
     1
  1
strokes_ogs.tif
176
     1
290
     0
176
     1
 40
1.0
176
     1
 40
1.0
176
     1
1001
ACAD
1000
AcDbSavedByObjectVersion
1070
     0
  0
VISUALSTYLE
  5
39
102
{ACAD_REACTORS
330
29
102
}
330
29
100
AcDbVisualStyle
  2
ColorChange
 70
    16
177
     3
291
     1
 70
    58
 90
        2
176
     1
 90
        2
176
     1
 90
        3
176
     1
 90
        0
176
     1
 40
0.6
176
     1
 40
30.0
176
     1
 62
     8
420
  8421504
176
     1
 90
        1
176
     1
 90
        4
176
     1
 62
     7
176
     1
 62
   257
176
     1
 90
        1
176
     1
 90
        1
176
     1
 40
1.0
176
     1
 90
        8
176
     1
 62
     8
420
  8421504
176
     1
 40
1.0
176
     1
 90
        1
176
     1
 90
        6
176
     1
 90
        2
176
     1
 62
     7
176
     1
 90
        5
176
     1
 90
        0
176
     1
 90
        0
176
     1
290
     0
176
     1
 90
        1
176
     1
 40
0.0
176
     1
 90
        0
176
     1
290
     0
176
     1
290
     1
176
     1
290
     1
176
     1
290
     0
176
     1
290
     0
176
     1
290
     0
176
     1
290
     0
176
     1
290
     0
176
     1
290
     0
176
     1
 90
       50
176
     1
 40
0.0
176
     1
 40
1.0
176
     1
 90
        0
176
     1
 62
    18
420
        0
176
     1
 90
       50
176
     1
 90
        3
176
     1
 62
     5
420
      255
176
     1
290
     0
176
     1
 90
       50
176
     1
 90
       50
176
     1
 90
       50
176
     1
290
     0
176
     1
 90
       50
176
     1
 62
   256
176
     0
 40
1.0
176
     0
 90
        2
176
     1
  1
strokes_ogs.tif
176
     1
290
     0
176
     1
 40
1.0
176
     1
 40
1.0
176
     1
1001
ACAD
1000
AcDbSavedByObjectVersion
1070
     0
  0
VISUALSTYLE
  5
32
102
{ACAD_REACTORS
330
29
102
}
330
29
100
AcDbVisualStyle
  2
Conceptual
 70
     9
177
     3
291
     0
 70
    58
 90
        3
176
     1
 90
        2
176
     1
 90
        0
176
     1
 90
        0
176
     1
 40
0.6
176
     1
 40
30.0
176
     1
 62
     7
420
 16777215
176
     1
 90
        2
176
     1
 90
        2
176
     1
 62
     7
176
     1
 62
   257
176
     1
 90
        1
176
     1
 90
        1
176
     1
 40
179.0
176
     1
 90
        8
176
     1
 62
     7
176
     1
 40
1.0
176
     1
 90
        1
176
     1
 90
        6
176
     1
 90
        2
176
     1
 62
     7
176
     1
 90
        3
176
     1
 90
        0
176
     1
 90
        0
176
     1
290
     0
176
     1
 90
        1
176
     1
 40
0.0
176
     1
 90
        0
176
     1
290
     0
176
     1
290
     1
176
     1
290
     1
176
     1
290
     0
176
     1
290
     0
176
     1
290
     0
176
     1
290
     0
176
     1
290
     0
176
     1
290
     0
176
     1
 90
       50
176
     1
 40
0.0
176
     1
 40
1.0
176
     1
 90
        0
176
     1
 62
    18
420
        0
176
     1
 90
       50
176
     1
 90
        3
176
     1
 62
     5
420
      255
176
     1
290
     0
176
     1
 90
       50
176
     1
 90
       50
176
     1
 90
       50
176
     1
290
     0
176
     1
 90
       50
176
     1
 62
   256
176
     0
 40
1.0
176
     0
 90
        2
176
     1
  1
strokes_ogs.tif
176
     1
290
     0
176
     1
 40
1.0
176
     1
 40
1.0
176
     1
1001
ACAD
1000
AcDbSavedByObjectVersion
1070
     0
  0
VISUALSTYLE
  5
34
102
{ACAD_REACTORS
330
29
102
}
330
29
100
AcDbVisualStyle
  2
Dim
 70
    11
177
     3
291
     1
 70
    58
 90
        2
176
     1
 90
        2
176
     1
 90
        0
176
     1
 90
        0
176
     1
 40
0.6
176
     1
 40
30.0
176
     1
 62
     7
420
 16777215
176
     1
 90
        1
176
     1
 90
        4
176
     1
 62
     7
176
     1
 62
   257
176
     1
 90
        1
176
     1
 90
        1
176
     1
 40
1.0
176
     1
 90
        8
176
     1
 62
     7
176
     1
 40
1.0
176
     1
 90
        1
176
     1
 90
        6
176
     1
 90
        2
176
     1
 62
     7
176
     1
 90
        5
176
     1
 90
        0
176
     1
 90
        0
176
     1
290
     0
176
     1
 90
        1
176
     1
 40
-50.0
176
     1
 90
        0
176
     1
290
     0
176
     1
290
     1
176
     1
290
     1
176
     1
290
     0
176
     1
290
     0
176
     1
290
     0
176
     1
290
     0
176
     1
290
     0
176
     1
290
     0
176
     1
 90
       50
176
     1
 40
0.0
176
     1
 40
1.0
176
     1
 90
        0
176
     1
 62
    18
420
        0
176
     1
 90
       50
176
     1
 90
        3
176
     1
 62
     5
420
      255
176
     1
290
     0
176
     1
 90
       50
176
     1
 90
       50
176
     1
 90
       50
176
     1
290
     0
176
     1
 90
       50
176
     1
 62
   256
176
     0
 40
1.0
176
     0
 90
        2
176
     1
  1
strokes_ogs.tif
176
     1
290
     0
176
     1
 40
1.0
176
     1
 40
1.0
176
     1
1001
ACAD
1000
AcDbSavedByObjectVersion
1070
     0
  0
VISUALSTYLE
  5
41
102
{ACAD_REACTORS
330
29
102
}
330
29
100
AcDbVisualStyle
  2
EdgeColorOff
 70
    22
177
     3
291
     1
 70
    58
 90
        2
176
     0
 90
        2
176
     0
 90
        0
176
     0
 90
        0
176
     0
 40
0.6
176
     0
 40
30.0
176
     0
 62
     7
420
 16777215
176
     0
 90
        1
176
     0
 90
        4
176
     0
 62
     7
176
     0
 62
   257
176
     0
 90
        1
176
     0
 90
        1
176
     0
 40
1.0
176
     0
 90
        8
176
     2
 62
     7
176
     0
 40
1.0
176
     0
 90
        1
176
     0
 90
        6
176
     0
 90
        2
176
     0
 62
     7
176
     0
 90
        5
176
     0
 90
        0
176
     0
 90
        0
176
     0
290
     0
176
     0
 90
        1
176
     0
 40
0.0
176
     0
 90
        0
176
     0
290
     0
176
     0
290
     1
176
     0
290
     1
176
     0
290
     0
176
     0
290
     0
176
     0
290
     0
176
     0
290
     0
176
     0
290
     0
176
     0
290
     0
176
     0
 90
       50
176
     0
 40
0.0
176
     0
 40
1.0
176
     0
 90
        0
176
     0
 62
    18
420
        0
176
     0
 90
       50
176
     0
 90
        3
176
     0
 62
     5
420
      255
176
     0
290
     0
176
     0
 90
       50
176
     0
 90
       50
176
     0
 90
       50
176
     0
290
     0
176
     0
 90
       50
176
     0
 62
   256
176
     0
 40
1.0
176
     0
 90
        2
176
     0
  1
strokes_ogs.tif
176
     0
290
     0
176
     0
 40
1.0
176
     0
 40
1.0
176
     0
1001
ACAD
1000
AcDbSavedByObjectVersion
1070
     0
  0
VISUALSTYLE
  5
38
102
{ACAD_REACTORS
330
29
102
}
330
29
100
AcDbVisualStyle
  2
Facepattern
 70
    15
177
     3
291
     1
 70
    58
 90
        2
176
     1
 90
        2
176
     1
 90
        0
176
     1
 90
        0
176
     1
 40
0.6
176
     1
 40
30.0
176
     1
 62
     7
420
 16777215
176
     1
 90
        1
176
     1
 90
        4
176
     1
 62
     7
176
     1
 62
   257
176
     1
 90
        1
176
     1
 90
        1
176
     1
 40
1.0
176
     1
 90
        8
176
     1
 62
     7
176
     1
 40
1.0
176
     1
 90
        1
176
     1
 90
        6
176
     1
 90
        2
176
     1
 62
     7
176
     1
 90
        5
176
     1
 90
        0
176
     1
 90
        0
176
     1
290
     0
176
     1
 90
        1
176
     1
 40
0.0
176
     1
 90
        0
176
     1
290
     0
176
     1
290
     1
176
     1
290
     1
176
     1
290
     0
176
     1
290
     0
176
     1
290
     0
176
     1
290
     0
176
     1
290
     0
176
     1
290
     0
176
     1
 90
       50
176
     1
 40
0.0
176
     1
 40
1.0
176
     1
 90
        0
176
     1
 62
    18
420
        0
176
     1
 90
       50
176
     1
 90
        3
176
     1
 62
     5
420
      255
176
     1
290
     0
176
     1
 90
       50
176
     1
 90
       50
176
     1
 90
       50
176
     1
290
     0
176
     1
 90
       50
176
     1
 62
   256
176
     0
 40
1.0
176
     0
 90
        2
176
     1
  1
strokes_ogs.tif
176
     1
290
     0
176
     1
 40
1.0
176
     1
 40
1.0
176
     1
1001
ACAD
1000
AcDbSavedByObjectVersion
1070
     0
  0
VISUALSTYLE
  5
2A
102
{ACAD_REACTORS
330
29
102
}
330
29
100
AcDbVisualStyle
  2
Flat
 70
     0
177
     3
291
     1
 70
    58
 90
        2
176
     1
 90
        1
176
     1
 90
        1
176
     1
 90
        2
176
     1
 40
0.6
176
     1
 40
30.0
176
     1
 62
     7
420
 16777215
176
     1
 90
        0
176
     1
 90
        0
176
     1
 62
     7
176
     1
 62
   257
176
     1
 90
        1
176
     1
 90
        1
176
     1
 40
1.0
176
     1
 90
        8
176
     1
 62
     7
176
     1
 40
1.0
176
     1
 90
        1
176
     1
 90
        6
176
     1
 90
        2
176
     1
 62
     7
176
     1
 90
        5
176
     1
 90
        0
176
     1
 90
        0
176
     1
290
     0
176
     1
 90
       13
176
     1
 40
0.0
176
     1
 90
        0
176
     1
290
     0
176
     1
290
     1
176
     1
290
     1
176
     1
290
     0
176
     1
290
     0
176
     1
290
     0
176
     1
290
     0
176
     1
290
     0
176
     1
290
     0
176
     1
 90
       50
176
     1
 40
0.0
176
     1
 40
1.0
176
     1
 90
        0
176
     1
 62
    18
420
        0
176
     1
 90
       50
176
     1
 90
        3
176
     1
 62
     5
420
      255
176
     1
290
     0
176
     1
 90
       50
176
     1
 90
       50
176
     1
 90
       50
176
     1
290
     0
176
     1
 90
       50
176
     1
 62
   256
176
     0
 40
1.0
176
     0
 90
        2
176
     1
  1
strokes_ogs.tif
176
     1
290
     0
176
     1
 40
1.0
176
     1
 40
1.0
176
     1
1001
ACAD
1000
AcDbSavedByObjectVersion
1070
     0
  0
VISUALSTYLE
  5
2B
102
{ACAD_REACTORS
330
29
102
}
330
29
100
AcDbVisualStyle
  2
FlatWithEdges
 70
     1
177
     3
291
     1
 70
    58
 90
        2
176
     1
 90
        1
176
     1
 90
        1
176
     1
 90
        2
176
     1
 40
0.6
176
     1
 40
30.0
176
     1
 62
     7
420
 16777215
176
     1
 90
        1
176
     1
 90
        0
176
     1
 62
     7
176
     1
 62
   257
176
     1
 90
        1
176
     1
 90
        1
176
     1
 40
1.0
176
     1
 90
        0
176
     1
 62
   257
176
     1
 40
1.0
176
     1
 90
        1
176
     1
 90
        6
176
     1
 90
        2
176
     1
 62
     7
176
     1
 90
        5
176
     1
 90
        0
176
     1
 90
        0
176
     1
290
     0
176
     1
 90
       13
176
     1
 40
0.0
176
     1
 90
        0
176
     1
290
     0
176
     1
290
     1
176
     1
290
     1
176
     1
290
     0
176
     1
290
     0
176
     1
290
     0
176
     1
290
     0
176
     1
290
     0
176
     1
290
     0
176
     1
 90
       50
176
     1
 40
0.0
176
     1
 40
1.0
176
     1
 90
        0
176
     1
 62
    18
420
        0
176
     1
 90
       50
176
     1
 90
        3
176
     1
 62
     5
420
      255
176
     1
290
     0
176
     1
 90
       50
176
     1
 90
       50
176
     1
 90
       50
176
     1
290
     0
176
     1
 90
       50
176
     1
 62
   256
176
     0
 40
1.0
176
     0
 90
        2
176
     1
  1
strokes_ogs.tif
176
     1
290
     0
176
     1
 40
1.0
176
     1
 40
1.0
176
     1
1001
ACAD
1000
AcDbSavedByObjectVersion
1070
     0
  0
VISUALSTYLE
  5
2C
102
{ACAD_REACTORS
330
29
102
}
330
29
100
AcDbVisualStyle
  2
Gouraud
 70
     2
177
     3
291
     1
 70
    58
 90
        2
176
     1
 90
        2
176
     1
 90
        1
176
     1
 90
        2
176
     1
 40
0.6
176
     1
 40
30.0
176
     1
 62
     7
420
 16777215
176
     1
 90
        0
176
     1
 90
        0
176
     1
 62
     7
176
     1
 62
   257
176
     1
 90
        1
176
     1
 90
        1
176
     1
 40
1.0
176
     1
 90
        0
176
     1
 62
     7
176
     1
 40
1.0
176
     1
 90
        1
176
     1
 90
        6
176
     1
 90
        2
176
     1
 62
     7
176
     1
 90
        5
176
     1
 90
        0
176
     1
 90
        0
176
     1
290
     0
176
     1
 90
       13
176
     1
 40
0.0
176
     1
 90
        0
176
     1
290
     0
176
     1
290
     1
176
     1
290
     1
176
     1
290
     0
176
     1
290
     0
176
     1
290
     0
176
     1
290
     0
176
     1
290
     0
176
     1
290
     0
176
     1
 90
       50
176
     1
 40
0.0
176
     1
 40
1.0
176
     1
 90
        0
176
     1
 62
    18
420
        0
176
     1
 90
       50
176
     1
 90
        3
176
     1
 62
     5
420
      255
176
     1
290
     0
176
     1
 90
       50
176
     1
 90
       50
176
     1
 90
       50
176
     1
290
     0
176
     1
 90
       50
176
     1
 62
   256
176
     0
 40
1.0
176
     0
 90
        2
176
     1
  1
strokes_ogs.tif
176
     1
290
     0
176
     1
 40
1.0
176
     1
 40
1.0
176
     1
1001
ACAD
1000
AcDbSavedByObjectVersion
1070
     0
  0
VISUALSTYLE
  5
2D
102
{ACAD_REACTORS
330
29
102
}
330
29
100
AcDbVisualStyle
  2
GouraudWithEdges
 70
     3
177
     3
291
     1
 70
    58
 90
        2
176
     1
 90
        2
176
     1
 90
        1
176
     1
 90
        2
176
     1
 40
0.6
176
     1
 40
30.0
176
     1
 62
     7
420
 16777215
176
     1
 90
        1
176
     1
 90
        0
176
     1
 62
     7
176
     1
 62
   257
176
     1
 90
        1
176
     1
 90
        1
176
     1
 40
1.0
176
     1
 90
        0
176
     1
 62
   257
176
     1
 40
1.0
176
     1
 90
        1
176
     1
 90
        6
176
     1
 90
        2
176
     1
 62
     7
176
     1
 90
        5
176
     1
 90
        0
176
     1
 90
        0
176
     1
290
     0
176
     1
 90
       13
176
     1
 40
0.0
176
     1
 90
        0
176
     1
290
     0
176
     1
290
     1
176
     1
290
     1
176
     1
290
     0
176
     1
290
     0
176
     1
290
     0
176
     1
290
     0
176
     1
290
     0
176
     1
290
     0
176
     1
 90
       50
176
     1
 40
0.0
176
     1
 40
1.0
176
     1
 90
        0
176
     1
 62
    18
420
        0
176
     1
 90
       50
176
     1
 90
        3
176
     1
 62
     5
420
      255
176
     1
290
     0
176
     1
 90
       50
176
     1
 90
       50
176
     1
 90
       50
176
     1
290
     0
176
     1
 90
       50
176
     1
 62
   256
176
     0
 40
1.0
176
     0
 90
        2
176
     1
  1
strokes_ogs.tif
176
     1
290
     0
176
     1
 40
1.0
176
     1
 40
1.0
176
     1
1001
ACAD
1000
AcDbSavedByObjectVersion
1070
     0
  0
VISUALSTYLE
  5
31
102
{ACAD_REACTORS
330
29
102
}
330
29
100
AcDbVisualStyle
  2
Hidden
 70
     6
177
     3
291
     0
 70
    58
 90
        1
176
     1
 90
        2
176
     1
 90
        2
176
     1
 90
        0
176
     1
 40
0.6
176
     1
 40
30.0
176
     1
 62
     7
420
 16777215
176
     1
 90
        2
176
     1
 90
        2
176
     1
 62
     7
176
     1
 62
   257
176
     1
 90
        2
176
     1
 90
        1
176
     1
 40
40.0
176
     1
 90
        0
176
     1
 62
   257
176
     1
 40
1.0
176
     1
 90
        1
176
     1
 90
        6
176
     1
 90
        2
176
     1
 62
     7
176
     1
 90
        3
176
     1
 90
        0
176
     1
 90
        0
176
     1
290
     0
176
     1
 90
        1
176
     1
 40
0.0
176
     1
 90
        0
176
     1
290
     0
176
     1
290
     1
176
     1
290
     1
176
     1
290
     0
176
     1
290
     0
176
     1
290
     0
176
     1
290
     0
176
     1
290
     0
176
     1
290
     0
176
     1
 90
       50
176
     1
 40
0.0
176
     1
 40
1.0
176
     1
 90
        0
176
     1
 62
    18
420
        0
176
     1
 90
       50
176
     1
 90
        3
176
     1
 62
     5
420
      255
176
     1
290
     0
176
     1
 90
       50
176
     1
 90
       50
176
     1
 90
       50
176
     1
290
     0
176
     1
 90
       50
176
     1
 62
   256
176
     0
 40
1.0
176
     0
 90
        2
176
     1
  1
strokes_ogs.tif
176
     1
290
     0
176
     1
 40
1.0
176
     1
 40
1.0
176
     1
1001
ACAD
1000
AcDbSavedByObjectVersion
1070
     0
  0
VISUALSTYLE
  5
3F
102
{ACAD_REACTORS
330
29
102
}
330
29
100
AcDbVisualStyle
  2
JitterOff
 70
    20
177
     3
291
     1
 70
    58
 90
        2
176
     0
 90
        2
176
     0
 90
        0
176
     0
 90
        0
176
     0
 40
0.6
176
     0
 40
30.0
176
     0
 62
     7
420
 16777215
176
     0
 90
        1
176
     0
 90
        4
176
     0
 62
     7
176
     0
 62
   257
176
     0
 90
        1
176
     0
 90
        1
176
     0
 40
1.0
176
     0
 90
       10
176
     2
 62
     7
176
     0
 40
1.0
176
     0
 90
        1
176
     0
 90
        6
176
     0
 90
        2
176
     0
 62
     7
176
     0
 90
        5
176
     0
 90
        0
176
     0
 90
        0
176
     0
290
     0
176
     0
 90
        1
176
     0
 40
0.0
176
     0
 90
        0
176
     0
290
     0
176
     0
290
     1
176
     0
290
     1
176
     0
290
     0
176
     0
290
     0
176
     0
290
     0
176
     0
290
     0
176
     0
290
     0
176
     0
290
     0
176
     0
 90
       50
176
     0
 40
0.0
176
     0
 40
1.0
176
     0
 90
        0
176
     0
 62
    18
420
        0
176
     0
 90
       50
176
     0
 90
        3
176
     0
 62
     5
420
      255
176
     0
290
     0
176
     0
 90
       50
176
     0
 90
       50
176
     0
 90
       50
176
     0
290
     0
176
     0
 90
       50
176
     0
 62
   256
176
     0
 40
1.0
176
     0
 90
        2
176
     0
  1
strokes_ogs.tif
176
     0
290
     0
176
     0
 40
1.0
176
     0
 40
1.0
176
     0
1001
ACAD
1000
AcDbSavedByObjectVersion
1070
     0
  0
VISUALSTYLE
  5
37
102
{ACAD_REACTORS
330
29
102
}
330
29
100
AcDbVisualStyle
  2
Linepattern
 70
    14
177
     3
291
     1
 70
    58
 90
        2
176
     1
 90
        2
176
     1
 90
        0
176
     1
 90
        0
176
     1
 40
0.6
176
     1
 40
30.0
176
     1
 62
     7
420
 16777215
176
     1
 90
        1
176
     1
 90
        4
176
     1
 62
     7
176
     1
 62
   257
176
     1
 90
        7
176
     1
 90
        7
176
     1
 40
1.0
176
     1
 90
        8
176
     1
 62
     7
176
     1
 40
1.0
176
     1
 90
        1
176
     1
 90
        6
176
     1
 90
        2
176
     1
 62
     7
176
     1
 90
        5
176
     1
 90
        0
176
     1
 90
        0
176
     1
290
     0
176
     1
 90
        1
176
     1
 40
0.0
176
     1
 90
        0
176
     1
290
     0
176
     1
290
     1
176
     1
290
     1
176
     1
290
     0
176
     1
290
     0
176
     1
290
     0
176
     1
290
     0
176
     1
290
     0
176
     1
290
     0
176
     1
 90
       50
176
     1
 40
0.0
176
     1
 40
1.0
176
     1
 90
        0
176
     1
 62
    18
420
        0
176
     1
 90
       50
176
     1
 90
        3
176
     1
 62
     5
420
      255
176
     1
290
     0
176
     1
 90
       50
176
     1
 90
       50
176
     1
 90
       50
176
     1
290
     0
176
     1
 90
       50
176
     1
 62
   256
176
     0
 40
1.0
176
     0
 90
        2
176
     1
  1
strokes_ogs.tif
176
     1
290
     0
176
     1
 40
1.0
176
     1
 40
1.0
176
     1
1001
ACAD
1000
AcDbSavedByObjectVersion
1070
     0
  0
VISUALSTYLE
  5
40
102
{ACAD_REACTORS
330
29
102
}
330
29
100
AcDbVisualStyle
  2
OverhangOff
 70
    21
177
     3
291
     1
 70
    58
 90
        2
176
     0
 90
        2
176
     0
 90
        0
176
     0
 90
        0
176
     0
 40
0.6
176
     0
 40
30.0
176
     0
 62
     7
420
 16777215
176
     0
 90
        1
176
     0
 90
        4
176
     0
 62
     7
176
     0
 62
   257
176
     0
 90
        1
176
     0
 90
        1
176
     0
 40
1.0
176
     0
 90
        9
176
     2
 62
     7
176
     0
 40
1.0
176
     0
 90
        1
176
     0
 90
        6
176
     0
 90
        2
176
     0
 62
     7
176
     0
 90
        5
176
     0
 90
        0
176
     0
 90
        0
176
     0
290
     0
176
     0
 90
        1
176
     0
 40
0.0
176
     0
 90
        0
176
     0
290
     0
176
     0
290
     1
176
     0
290
     1
176
     0
290
     0
176
     0
290
     0
176
     0
290
     0
176
     0
290
     0
176
     0
290
     0
176
     0
290
     0
176
     0
 90
       50
176
     0
 40
0.0
176
     0
 40
1.0
176
     0
 90
        0
176
     0
 62
    18
420
        0
176
     0
 90
       50
176
     0
 90
        3
176
     0
 62
     5
420
      255
176
     0
290
     0
176
     0
 90
       50
176
     0
 90
       50
176
     0
 90
       50
176
     0
290
     0
176
     0
 90
       50
176
     0
 62
   256
176
     0
 40
1.0
176
     0
 90
        2
176
     0
  1
strokes_ogs.tif
176
     0
290
     0
176
     0
 40
1.0
176
     0
 40
1.0
176
     0
1001
ACAD
1000
AcDbSavedByObjectVersion
1070
     0
  0
VISUALSTYLE
  5
33
102
{ACAD_REACTORS
330
29
102
}
330
29
100
AcDbVisualStyle
  2
Realistic
 70
     8
177
     3
291
     0
 70
    58
 90
        2
176
     1
 90
        3
176
     1
 90
        0
176
     1
 90
        2
176
     1
 40
0.6
176
     1
 40
30.0
176
     1
 62
     7
420
 16777215
176
     1
 90
        0
176
     1
 90
        0
176
     1
 62
     7
176
     1
 62
   257
176
     1
 90
        1
176
     1
 90
        1
176
     1
 40
1.0
176
     1
 90
        8
176
     1
 62
   257
176
     1
 40
1.0
176
     1
 90
        1
176
     1
 90
        6
176
     1
 90
        2
176
     1
 62
     7
176
     1
 90
        3
176
     1
 90
        0
176
     1
 90
        0
176
     1
290
     0
176
     1
 90
       13
176
     1
 40
0.0
176
     1
 90
        0
176
     1
290
     0
176
     1
290
     1
176
     1
290
     1
176
     1
290
     0
176
     1
290
     0
176
     1
290
     0
176
     1
290
     0
176
     1
290
     0
176
     1
290
     0
176
     1
 90
       50
176
     1
 40
0.0
176
     1
 40
1.0
176
     1
 90
        0
176
     1
 62
    18
420
        0
176
     1
 90
       50
176
     1
 90
        3
176
     1
 62
     5
420
      255
176
     1
290
     0
176
     1
 90
       50
176
     1
 90
       50
176
     1
 90
       50
176
     1
290
     0
176
     1
 90
       50
176
     1
 62
   256
176
     0
 40
1.0
176
     0
 90
        2
176
     1
  1
strokes_ogs.tif
176
     1
290
     0
176
     1
 40
1.0
176
     1
 40
1.0
176
     1
1001
ACAD
1000
AcDbSavedByObjectVersion
1070
     0
  0
VISUALSTYLE
  5
3E
102
{ACAD_REACTORS
330
29
102
}
330
29
100
AcDbVisualStyle
  2
Shaded
 70
    27
177
     3
291
     0
 70
    58
 90
        2
176
     1
 90
        2
176
     1
 90
        1
176
     1
 90
        2
176
     1
 40
0.6
176
     1
 40
30.0
176
     1
 62
     7
420
 16777215
176
     1
 90
        0
176
     1
 90
        4
176
     1
 62
     7
176
     1
 62
   257
176
     1
 90
        1
176
     1
 90
        1
176
     1
 40
1.0
176
     1
 90
        8
176
     1
 62
   257
176
     1
 40
1.0
176
     1
 90
        1
176
     1
 90
        6
176
     1
 90
        2
176
     1
 62
     8
420
  7895160
176
     1
 90
        3
176
     1
 90
        0
176
     1
 90
        0
176
     1
290
     0
176
     1
 90
        5
176
     1
 40
0.0
176
     1
 90
        0
176
     1
290
     0
176
     1
290
     1
176
     1
290
     1
176
     1
290
     0
176
     1
290
     0
176
     1
290
     0
176
     1
290
     0
176
     1
290
     0
176
     1
290
     0
176
     1
 90
       50
176
     1
 40
0.0
176
     1
 40
1.0
176
     1
 90
        0
176
     1
 62
    18
420
        0
176
     1
 90
       50
176
     1
 90
        3
176
     1
 62
     5
420
      255
176
     1
290
     0
176
     1
 90
       50
176
     1
 90
       50
176
     1
 90
       50
176
     1
290
     0
176
     1
 90
       50
176
     1
 62
   256
176
     0
 40
1.0
176
     0
 90
        2
176
     1
  1
strokes_ogs.tif
176
     1
290
     0
176
     1
 40
1.0
176
     1
 40
1.0
176
     1
1001
ACAD
1000
AcDbSavedByObjectVersion
1070
     0
  0
VISUALSTYLE
  5
3D
102
{ACAD_REACTORS
330
29
102
}
330
29
100
AcDbVisualStyle
  2
Shaded with edges
 70
    26
177
     3
291
     0
 70
    58
 90
        2
176
     1
 90
        2
176
     1
 90
        1
176
     1
 90
        2
176
     1
 40
0.6
176
     1
 40
30.0
176
     1
 62
     7
420
 16777215
176
     1
 90
        1
176
     1
 90
        2
176
     1
 62
     7
176
     1
 62
   257
176
     1
 90
        2
176
     1
 90
        1
176
     1
 40
1.0
176
     1
 90
        8
176
     1
 62
   257
176
     1
 40
1.0
176
     1
 90
        1
176
     1
 90
        6
176
     1
 90
        2
176
     1
 62
     7
176
     1
 90
        3
176
     1
 90
        0
176
     1
 90
        0
176
     1
290
     0
176
     1
 90
        5
176
     1
 40
0.0
176
     1
 90
        0
176
     1
290
     0
176
     1
290
     1
176
     1
290
     1
176
     1
290
     0
176
     1
290
     0
176
     1
290
     0
176
     1
290
     0
176
     1
290
     0
176
     1
290
     0
176
     1
 90
       50
176
     1
 40
0.0
176
     1
 40
1.0
176
     1
 90
        0
176
     1
 62
    18
420
        0
176
     1
 90
       50
176
     1
 90
        3
176
     1
 62
     5
420
      255
176
     1
290
     0
176
     1
 90
       50
176
     1
 90
       50
176
     1
 90
       50
176
     1
290
     0
176
     1
 90
       50
176
     1
 62
   256
176
     0
 40
1.0
176
     0
 90
        2
176
     1
  1
strokes_ogs.tif
176
     1
290
     0
176
     1
 40
1.0
176
     1
 40
1.0
176
     1
1001
ACAD
1000
AcDbSavedByObjectVersion
1070
     0
  0
VISUALSTYLE
  5
3A
102
{ACAD_REACTORS
330
29
102
}
330
29
100
AcDbVisualStyle
  2
Shades of Gray
 70
    23
177
     3
291
     0
 70
    58
 90
        2
176
     1
 90
        2
176
     1
 90
        3
176
     1
 90
        0
176
     1
 40
0.6
176
     1
 40
30.0
176
     1
 62
     7
420
 16777215
176
     1
 90
        2
176
     1
 90
        2
176
     1
 62
     7
176
     1
 62
     7
176
     1
 90
        1
176
     1
 90
        1
176
     1
 40
40.0
176
     1
 90
        8
176
     1
 62
     7
176
     1
 40
1.0
176
     1
 90
        1
176
     1
 90
        6
176
     1
 90
        2
176
     1
 62
     7
176
     1
 90
        3
176
     1
 90
        0
176
     1
 90
        0
176
     1
290
     0
176
     1
 90
        1
176
     1
 40
0.0
176
     1
 90
        0
176
     1
290
     0
176
     1
290
     1
176
     1
290
     1
176
     1
290
     0
176
     1
290
     0
176
     1
290
     0
176
     1
290
     0
176
     1
290
     0
176
     1
290
     0
176
     1
 90
       50
176
     1
 40
0.0
176
     1
 40
1.0
176
     1
 90
        0
176
     1
 62
    18
420
        0
176
     1
 90
       50
176
     1
 90
        3
176
     1
 62
     5
420
      255
176
     1
290
     0
176
     1
 90
       50
176
     1
 90
       50
176
     1
 90
       50
176
     1
290
     0
176
     1
 90
       50
176
     1
 62
   256
176
     0
 40
1.0
176
     0
 90
        2
176
     1
  1
strokes_ogs.tif
176
     1
290
     0
176
     1
 40
1.0
176
     1
 40
1.0
176
     1
1001
ACAD
1000
AcDbSavedByObjectVersion
1070
     0
  0
VISUALSTYLE
  5
3B
102
{ACAD_REACTORS
330
29
102
}
330
29
100
AcDbVisualStyle
  2
Sketchy
 70
    24
177
     3
291
     0
 70
    58
 90
        1
176
     1
 90
        2
176
     1
 90
        2
176
     1
 90
        0
176
     1
 40
0.6
176
     1
 40
30.0
176
     1
 62
     7
420
 16777215
176
     1
 90
        2
176
     1
 90
        2
176
     1
 62
     7
176
     1
 62
     7
176
     1
 90
        1
176
     1
 90
        1
176
     1
 40
40.0
176
     1
 90
       11
176
     1
 62
     7
176
     1
 40
1.0
176
     1
 90
        1
176
     1
 90
        6
176
     1
 90
        2
176
     1
 62
     7
176
     1
 90
        6
176
     1
 90
        0
176
     1
 90
        0
176
     1
290
     0
176
     1
 90
        1
176
     1
 40
0.0
176
     1
 90
        0
176
     1
290
     0
176
     1
290
     1
176
     1
290
     1
176
     1
290
     0
176
     1
290
     0
176
     1
290
     0
176
     1
290
     0
176
     1
290
     0
176
     1
290
     0
176
     1
 90
       50
176
     1
 40
0.0
176
     1
 40
1.0
176
     1
 90
        0
176
     1
 62
    18
420
        0
176
     1
 90
       50
176
     1
 90
        3
176
     1
 62
     5
420
      255
176
     1
290
     0
176
     1
 90
       50
176
     1
 90
       50
176
     1
 90
       50
176
     1
290
     0
176
     1
 90
       50
176
     1
 62
   256
176
     0
 40
1.0
176
     0
 90
        2
176
     1
  1
strokes_ogs.tif
176
     1
290
     0
176
     1
 40
1.0
176
     1
 40
1.0
176
     1
1001
ACAD
1000
AcDbSavedByObjectVersion
1070
     0
  0
VISUALSTYLE
  5
36
102
{ACAD_REACTORS
330
29
102
}
330
29
100
AcDbVisualStyle
  2
Thicken
 70
    13
177
     3
291
     1
 70
    58
 90
        2
176
     1
 90
        2
176
     1
 90
        0
176
     1
 90
        0
176
     1
 40
0.6
176
     1
 40
30.0
176
     1
 62
     7
420
 16777215
176
     1
 90
        1
176
     1
 90
        4
176
     1
 62
     7
176
     1
 62
   257
176
     1
 90
        1
176
     1
 90
        1
176
     1
 40
1.0
176
     1
 90
       12
176
     1
 62
     7
176
     1
 40
1.0
176
     1
 90
        1
176
     1
 90
        6
176
     1
 90
        2
176
     1
 62
     7
176
     1
 90
        5
176
     1
 90
        0
176
     1
 90
        0
176
     1
290
     0
176
     1
 90
        1
176
     1
 40
0.0
176
     1
 90
        0
176
     1
290
     0
176
     1
290
     1
176
     1
290
     1
176
     1
290
     0
176
     1
290
     0
176
     1
290
     0
176
     1
290
     0
176
     1
290
     0
176
     1
290
     0
176
     1
 90
       50
176
     1
 40
0.0
176
     1
 40
1.0
176
     1
 90
        0
176
     1
 62
    18
420
        0
176
     1
 90
       50
176
     1
 90
        3
176
     1
 62
     5
420
      255
176
     1
290
     0
176
     1
 90
       50
176
     1
 90
       50
176
     1
 90
       50
176
     1
290
     0
176
     1
 90
       50
176
     1
 62
   256
176
     0
 40
1.0
176
     0
 90
        2
176
     1
  1
strokes_ogs.tif
176
     1
290
     0
176
     1
 40
1.0
176
     1
 40
1.0
176
     1
1001
ACAD
1000
AcDbSavedByObjectVersion
1070
     0
  0
VISUALSTYLE
  5
30
102
{ACAD_REACTORS
330
29
102
}
330
29
100
AcDbVisualStyle
  2
Wireframe
 70
     5
177
     3
291
     0
 70
    58
 90
        0
176
     1
 90
        2
176
     1
 90
        0
176
     1
 90
        0
176
     1
 40
0.6
176
     1
 40
30.0
176
     1
 62
     7
420
 16777215
176
     1
 90
        1
176
     1
 90
        4
176
     1
 62
     7
176
     1
 62
   257
176
     1
 90
        1
176
     1
 90
        1
176
     1
 40
1.0
176
     1
 90
        0
176
     1
 62
   257
176
     1
 40
1.0
176
     1
 90
        1
176
     1
 90
        6
176
     1
 90
        2
176
     1
 62
     7
176
     1
 90
        3
176
     1
 90
        0
176
     1
 90
        0
176
     1
290
     0
176
     1
 90
        1
176
     1
 40
0.0
176
     1
 90
        0
176
     1
290
     0
176
     1
290
     1
176
     1
290
     1
176
     1
290
     0
176
     1
290
     0
176
     1
290
     0
176
     1
290
     0
176
     1
290
     0
176
     1
290
     0
176
     1
 90
       50
176
     1
 40
0.0
176
     1
 40
1.0
176
     1
 90
        0
176
     1
 62
    18
420
        0
176
     1
 90
       50
176
     1
 90
        3
176
     1
 62
     5
420
      255
176
     1
290
     0
176
     1
 90
       50
176
     1
 90
       50
176
     1
 90
       50
176
     1
290
     0
176
     1
 90
       50
176
     1
 62
   256
176
     0
 40
1.0
176
     0
 90
        2
176
     1
  1
strokes_ogs.tif
176
     1
290
     0
176
     1
 40
1.0
176
     1
 40
1.0
176
     1
1001
ACAD
1000
AcDbSavedByObjectVersion
1070
     0
  0
VISUALSTYLE
  5
3C
102
{ACAD_REACTORS
330
29
102
}
330
29
100
AcDbVisualStyle
  2
X-Ray
 70
    25
177
     3
291
     0
 70
    58
 90
        2
176
     1
 90
        2
176
     1
 90
        1
176
     1
 90
        1
176
     1
 40
0.5
176
     1
 40
30.0
176
     1
 62
     7
420
 16777215
176
     1
 90
        1
176
     1
 90
        0
176
     1
 62
     7
176
     1
 62
   257
176
     1
 90
        1
176
     1
 90
        1
176
     1
 40
1.0
176
     1
 90
        8
176
     1
 62
     7
176
     1
 40
1.0
176
     1
 90
        1
176
     1
 90
        6
176
     1
 90
        2
176
     1
 62
     7
176
     1
 90
        3
176
     1
 90
        0
176
     1
 90
        0
176
     1
290
     0
176
     1
 90
       13
176
     1
 40
0.0
176
     1
 90
        0
176
     1
290
     0
176
     1
290
     1
176
     1
290
     1
176
     1
290
     0
176
     1
290
     0
176
     1
290
     0
176
     1
290
     0
176
     1
290
     0
176
     1
290
     0
176
     1
 90
       50
176
     1
 40
0.0
176
     1
 40
1.0
176
     1
 90
        0
176
     1
 62
    18
420
        0
176
     1
 90
       50
176
     1
 90
        3
176
     1
 62
     5
420
      255
176
     1
290
     0
176
     1
 90
       50
176
     1
 90
       50
176
     1
 90
       50
176
     1
290
     0
176
     1
 90
       50
176
     1
 62
   256
176
     0
 40
1.0
176
     0
 90
        2
176
     1
  1
strokes_ogs.tif
176
     1
290
     0
176
     1
 40
1.0
176
     1
 40
1.0
176
     1
1001
ACAD
1000
AcDbSavedByObjectVersion
1070
     0
  0
DICTIONARYVAR
  5
731
102
{ACAD_REACTORS
330
72C
102
}
330
72C
100
DictionaryVariables
280
     0
  1
0
  0
DICTIONARYVAR
  5
732
102
{ACAD_REACTORS
330
72C
102
}
330
72C
100
DictionaryVariables
280
     0
  1
1:1
  0
DICTIONARYVAR
  5
72E
102
{ACAD_REACTORS
330
72C
102
}
330
72C
100
DictionaryVariables
280
     0
  1
STANDARD
  0
DICTIONARYVAR
  5
72D
102
{ACAD_REACTORS
330
72C
102
}
330
72C
100
DictionaryVariables
280
     0
  1
STANDARD
  0
DICTIONARYVAR
  5
72F
102
{ACAD_REACTORS
330
72C
102
}
330
72C
100
DictionaryVariables
280
     0
  1
Imperial24
  0
DICTIONARYVAR
  5
730
102
{ACAD_REACTORS
330
72C
102
}
330
72C
100
DictionaryVariables
280
     0
  1
Imperial24
  0
DICTIONARY
  5
738
330
6B
100
AcDbDictionary
280
     1
281
     1
  3
ACAD_XREC_ROUNDTRIP
360
739
  0
DICTIONARY
  5
1A
330
19
100
AcDbDictionary
280
     1
281
     1
  3
BUMPTILE
360
1C
  3
DIFFUSETILE
360
1B
  3
OPACITYTILE
360
1F
  3
REFLECTIONTILE
360
1E
  3
REFRACTIONTILE
360
20
  3
SPECULARTILE
360
1D
  0
DICTIONARY
  5
12
330
11
100
AcDbDictionary
280
     1
281
     1
  3
BUMPTILE
360
14
  3
DIFFUSETILE
360
13
  3
OPACITYTILE
360
17
  3
REFLECTIONTILE
360
16
  3
REFRACTIONTILE
360
18
  3
SPECULARTILE
360
15
  0
DICTIONARY
  5
22
330
21
100
AcDbDictionary
280
     1
281
     1
  3
BUMPTILE
360
24
  3
DIFFUSETILE
360
23
  3
OPACITYTILE
360
27
  3
REFLECTIONTILE
360
26
  3
REFRACTIONTILE
360
28
  3
SPECULARTILE
360
25
  0
DICTIONARY
  5
736
330
69
100
AcDbDictionary
280
     1
281
     1
  3
ACAD_XREC_ROUNDTRIP
360
737
  0
DICTIONARY
  5
733
330
65
100
AcDbDictionary
280
     1
281
     1
  3
ACAD_ROUNDTRIP_2008_TABLESTYLE_CELLSTYLEMAP
360
734
  0
XRECORD
  5
739
102
{ACAD_REACTORS
330
738
102
}
330
738
100
AcDbXrecord
280
     1
102
DISPLAYNAME
  1
Imperial24
102
FLAGS
 90
        0
  0
XRECORD
  5
1C
102
{ACAD_REACTORS
330
1A
102
}
330
1A
100
AcDbXrecord
280
     1
270
     1
271
     1
  0
XRECORD
  5
1B
102
{ACAD_REACTORS
330
1A
102
}
330
1A
100
AcDbXrecord
280
     1
270
     1
271
     1
  0
XRECORD
  5
1F
102
{ACAD_REACTORS
330
1A
102
}
330
1A
100
AcDbXrecord
280
     1
270
     1
271
     1
  0
XRECORD
  5
1E
102
{ACAD_REACTORS
330
1A
102
}
330
1A
100
AcDbXrecord
280
     1
270
     1
271
     1
  0
XRECORD
  5
20
102
{ACAD_REACTORS
330
1A
102
}
330
1A
100
AcDbXrecord
280
     1
270
     1
271
     1
  0
XRECORD
  5
1D
102
{ACAD_REACTORS
330
1A
102
}
330
1A
100
AcDbXrecord
280
     1
270
     1
271
     1
  0
XRECORD
  5
14
102
{ACAD_REACTORS
330
12
102
}
330
12
100
AcDbXrecord
280
     1
270
     1
271
     1
  0
XRECORD
  5
13
102
{ACAD_REACTORS
330
12
102
}
330
12
100
AcDbXrecord
280
     1
270
     1
271
     1
  0
XRECORD
  5
17
102
{ACAD_REACTORS
330
12
102
}
330
12
100
AcDbXrecord
280
     1
270
     1
271
     1
  0
XRECORD
  5
16
102
{ACAD_REACTORS
330
12
102
}
330
12
100
AcDbXrecord
280
     1
270
     1
271
     1
  0
XRECORD
  5
18
102
{ACAD_REACTORS
330
12
102
}
330
12
100
AcDbXrecord
280
     1
270
     1
271
     1
  0
XRECORD
  5
15
102
{ACAD_REACTORS
330
12
102
}
330
12
100
AcDbXrecord
280
     1
270
     1
271
     1
  0
XRECORD
  5
24
102
{ACAD_REACTORS
330
22
102
}
330
22
100
AcDbXrecord
280
     1
270
     1
271
     1
  0
XRECORD
  5
23
102
{ACAD_REACTORS
330
22
102
}
330
22
100
AcDbXrecord
280
     1
270
     1
271
     1
  0
XRECORD
  5
27
102
{ACAD_REACTORS
330
22
102
}
330
22
100
AcDbXrecord
280
     1
270
     1
271
     1
  0
XRECORD
  5
26
102
{ACAD_REACTORS
330
22
102
}
330
22
100
AcDbXrecord
280
     1
270
     1
271
     1
  0
XRECORD
  5
28
102
{ACAD_REACTORS
330
22
102
}
330
22
100
AcDbXrecord
280
     1
270
     1
271
     1
  0
XRECORD
  5
25
102
{ACAD_REACTORS
330
22
102
}
330
22
100
AcDbXrecord
280
     1
270
     1
271
     1
  0
XRECORD
  5
737
102
{ACAD_REACTORS
330
736
102
}
330
736
100
AcDbXrecord
280
     1
102
DISPLAYNAME
  1
Imperial24
102
FLAGS
 90
        0
  0
CELLSTYLEMAP
  5
734
102
{ACAD_REACTORS
330
733
102
}
330
733
100
AcDbCellStyleMap
 90
        3
300
CELLSTYLE
  1
TABLEFORMAT_BEGIN
 90
        5
170
     1
 91
        0
 92
    32768
 62
   257
 93
        1
300
CONTENTFORMAT
  1
CONTENTFORMAT_BEGIN
 90
        0
 91
        0
 92
      512
 93
        0
300

 40
0.0
140
1.0
 94
        5
 62
     0
340
55
144
0.25
309
CONTENTFORMAT_END
171
     0
 94
        0
309
TABLEFORMAT_END
  1
CELLSTYLE_BEGIN
 90
        1
 91
        1
300
_TITLE
309
CELLSTYLE_END
300
CELLSTYLE
  1
TABLEFORMAT_BEGIN
 90
        5
170
     1
 91
        0
 92
        0
 62
   257
 93
        1
300
CONTENTFORMAT
  1
CONTENTFORMAT_BEGIN
 90
        0
 91
        0
 92
      512
 93
        0
300

 40
0.0
140
1.0
 94
        5
 62
     0
340
55
144
0.18
309
CONTENTFORMAT_END
171
     0
 94
        0
309
TABLEFORMAT_END
  1
CELLSTYLE_BEGIN
 90
        2
 91
        1
300
_HEADER
309
CELLSTYLE_END
300
CELLSTYLE
  1
TABLEFORMAT_BEGIN
 90
        5
170
     1
 91
        0
 92
        0
 62
   257
 93
        1
300
CONTENTFORMAT
  1
CONTENTFORMAT_BEGIN
 90
        0
 91
        0
 92
      512
 93
        0
300

 40
0.0
140
1.0
 94
        2
 62
     0
340
55
144
0.18
309
CONTENTFORMAT_END
171
     0
 94
        0
309
TABLEFORMAT_END
  1
CELLSTYLE_BEGIN
 90
        3
 91
        2
300
_DATA
309
CELLSTYLE_END
  0
ENDSEC
  0
EOF
