  0
SECTION
  2
HEADER
  9
$ACADVER
  1
AC1027
  9
$ACADMAINTVER
 70
   125
  9
$DWGCODEPAGE
  3
ANSI_1252
  9
$LASTSAVEDBY
  1
Administrator
  9
$REQUIREDVERSIONS
160
                 0
  9
$INSBASE
 10
0.0
 20
0.0
 30
0.0
  9
$EXTMIN
 10
0.0
 20
0.0
 30
-1.750037
  9
$EXTMAX
 10
17.0
 20
11.0
 30
120.0
  9
$LIMMIN
 10
0.0
 20
0.0
  9
$LIMMAX
 10
17.0
 20
11.0
  9
$ORTHOMODE
 70
     0
  9
$REGENMODE
 70
     1
  9
$FILLMODE
 70
     1
  9
$QTEXTMODE
 70
     0
  9
$MIRRTEXT
 70
     0
  9
$LTSCALE
 40
0.75
  9
$ATTMODE
 70
     1
  9
$TEXTSIZE
 40
0.12
  9
$TRACEWID
 40
0.05
  9
$TEXTSTYLE
  7
Standard
  9
$CLAYER
  8
Titleblock
  9
$CELTYPE
  6
ByLayer
  9
$CECOLOR
 62
   256
  9
$CELTSCALE
 40
1.0
  9
$DISPSILH
 70
     0
  9
$DIMSCALE
 40
1.0
  9
$DIMASZ
 40
0.12
  9
$DIMEXO
 40
0.05
  9
$DIMDLI
 40
0.339411
  9
$DIMRND
 40
0.0
  9
$DIMDLE
 40
0.0
  9
$DIMEXE
 40
0.1
  9
$DIMTP
 40
0.01
  9
$DIMTM
 40
0.01
  9
$DIMTXT
 40
0.12
  9
$DIMCEN
 40
0.0
  9
$DIMTSZ
 40
0.0
  9
$DIMTOL
 70
     0
  9
$DIMLIM
 70
     0
  9
$DIMTIH
 70
     1
  9
$DIMTOH
 70
     1
  9
$DIMSE1
 70
     0
  9
$DIMSE2
 70
     0
  9
$DIMTAD
 70
     0
  9
$DIMZIN
 70
    12
  9
$DIMBLK
  1

  9
$DIMASO
 70
     1
  9
$DIMSHO
 70
     1
  9
$DIMPOST
  1
in
  9
$DIMAPOST
  1
mm
  9
$DIMALT
 70
     0
  9
$DIMALTD
 70
     2
  9
$DIMALTF
 40
25.4
  9
$DIMLFAC
 40
1.0
  9
$DIMTOFL
 70
     0
  9
$DIMTVP
 40
0.0
  9
$DIMTIX
 70
     0
  9
$DIMSOXD
 70
     0
  9
$DIMSAH
 70
     0
  9
$DIMBLK1
  1

  9
$DIMBLK2
  1

  9
$DIMSTYLE
  2
Standard
  9
$DIMCLRD
 70
   256
  9
$DIMCLRE
 70
   256
  9
$DIMCLRT
 70
   256
  9
$DIMTFAC
 40
1.0
  9
$DIMGAP
 40
0.06
  9
$DIMJUST
 70
     0
  9
$DIMSD1
 70
     0
  9
$DIMSD2
 70
     0
  9
$DIMTOLJ
 70
     1
  9
$DIMTZIN
 70
    12
  9
$DIMALTZ
 70
    12
  9
$DIMALTTZ
 70
    12
  9
$DIMUPT
 70
     0
  9
$DIMDEC
 70
     3
  9
$DIMTDEC
 70
     3
  9
$DIMALTU
 70
     2
  9
$DIMALTTD
 70
     2
  9
$DIMTXSTY
  7
Standard
  9
$DIMAUNIT
 70
     0
  9
$DIMADEC
 70
     2
  9
$DIMALTRND
 40
0.0
  9
$DIMAZIN
 70
     3
  9
$DIMDSEP
 70
    46
  9
$DIMATFIT
 70
     3
  9
$DIMFRAC
 70
     0
  9
$DIMLDRBLK
  1

  9
$DIMLUNIT
 70
     5
  9
$DIMLWD
 70
    -2
  9
$DIMLWE
 70
    -2
  9
$DIMTMOVE
 70
     0
  9
$DIMFXL
 40
1.0
  9
$DIMFXLON
 70
     0
  9
$DIMJOGANG
 40
0.785398
  9
$DIMTFILL
 70
     0
  9
$DIMTFILLCLR
 70
     0
  9
$DIMARCSYM
 70
     1
  9
$DIMLTYPE
  6

  9
$DIMLTEX1
  6

  9
$DIMLTEX2
  6

  9
$DIMTXTDIRECTION
 70
     0
  9
$LUNITS
 70
     2
  9
$LUPREC
 70
     4
  9
$SKETCHINC
 40
0.1
  9
$FILLETRAD
 40
0.0
  9
$AUNITS
 70
     0
  9
$AUPREC
 70
     0
  9
$MENU
  1
.
  9
$ELEVATION
 40
0.0
  9
$PELEVATION
 40
0.0
  9
$THICKNESS
 40
0.0
  9
$LIMCHECK
 70
     0
  9
$CHAMFERA
 40
0.0
  9
$CHAMFERB
 40
0.0
  9
$CHAMFERC
 40
0.0
  9
$CHAMFERD
 40
0.0
  9
$SKPOLY
 70
     0
  9
$TDCREATE
 40
2459326.448391204
  9
$TDUCREATE
 40
2459326.740057870
  9
$TDUPDATE
 40
2459326.448391204
  9
$TDUUPDATE
 40
2459326.740057870
  9
$TDINDWG
 40
0.0000000000
  9
$TDUSRTIMER
 40
0.0000000000
  9
$USRTIMER
 70
     1
  9
$ANGBASE
 50
0.0
  9
$ANGDIR
 70
     0
  9
$PDMODE
 70
     0
  9
$PDSIZE
 40
0.0
  9
$PLINEWID
 40
0.0
  9
$SPLFRAME
 70
     0
  9
$SPLINETYPE
 70
     6
  9
$SPLINESEGS
 70
     8
  9
$HANDSEED
  5
7D7
  9
$SURFTAB1
 70
     6
  9
$SURFTAB2
 70
     6
  9
$SURFTYPE
 70
     6
  9
$SURFU
 70
     6
  9
$SURFV
 70
     6
  9
$UCSBASE
  2

  9
$UCSNAME
  2

  9
$UCSORG
 10
0.0
 20
0.0
 30
0.0
  9
$UCSXDIR
 10
1.0
 20
0.0
 30
0.0
  9
$UCSYDIR
 10
0.0
 20
1.0
 30
0.0
  9
$UCSORTHOREF
  2

  9
$UCSORTHOVIEW
 70
     0
  9
$UCSORGTOP
 10
0.0
 20
0.0
 30
0.0
  9
$UCSORGBOTTOM
 10
0.0
 20
0.0
 30
0.0
  9
$UCSORGLEFT
 10
0.0
 20
0.0
 30
0.0
  9
$UCSORGRIGHT
 10
0.0
 20
0.0
 30
0.0
  9
$UCSORGFRONT
 10
0.0
 20
0.0
 30
0.0
  9
$UCSORGBACK
 10
0.0
 20
0.0
 30
0.0
  9
$PUCSBASE
  2

  9
$PUCSNAME
  2

  9
$PUCSORG
 10
0.0
 20
0.0
 30
0.0
  9
$PUCSXDIR
 10
1.0
 20
0.0
 30
0.0
  9
$PUCSYDIR
 10
0.0
 20
1.0
 30
0.0
  9
$PUCSORTHOREF
  2

  9
$PUCSORTHOVIEW
 70
     0
  9
$PUCSORGTOP
 10
0.0
 20
0.0
 30
0.0
  9
$PUCSORGBOTTOM
 10
0.0
 20
0.0
 30
0.0
  9
$PUCSORGLEFT
 10
0.0
 20
0.0
 30
0.0
  9
$PUCSORGRIGHT
 10
0.0
 20
0.0
 30
0.0
  9
$PUCSORGFRONT
 10
0.0
 20
0.0
 30
0.0
  9
$PUCSORGBACK
 10
0.0
 20
0.0
 30
0.0
  9
$USERI1
 70
     0
  9
$USERI2
 70
     0
  9
$USERI3
 70
     0
  9
$USERI4
 70
     0
  9
$USERI5
 70
     0
  9
$USERR1
 40
0.0
  9
$USERR2
 40
0.0
  9
$USERR3
 40
0.0
  9
$USERR4
 40
0.0
  9
$USERR5
 40
0.0
  9
$WORLDVIEW
 70
     1
  9
$SHADEDGE
 70
     3
  9
$SHADEDIF
 70
    70
  9
$TILEMODE
 70
     1
  9
$MAXACTVP
 70
    64
  9
$PINSBASE
 10
0.0
 20
0.0
 30
0.0
  9
$PLIMCHECK
 70
     0
  9
$PEXTMIN
 10
1.000000E+20
 20
1.000000E+20
 30
1.000000E+20
  9
$PEXTMAX
 10
-1.000000E+20
 20
-1.000000E+20
 30
-1.000000E+20
  9
$PLIMMIN
 10
0.0
 20
0.0
  9
$PLIMMAX
 10
12.0
 20
9.0
  9
$UNITMODE
 70
     0
  9
$VISRETAIN
 70
     1
  9
$PLINEGEN
 70
     0
  9
$PSLTSCALE
 70
     1
  9
$TREEDEPTH
 70
  3020
  9
$CMLSTYLE
  2
Standard
  9
$CMLJUST
 70
     0
  9
$CMLSCALE
 40
1.0
  9
$PROXYGRAPHICS
 70
     1
  9
$MEASUREMENT
 70
     0
  9
$CELWEIGHT
370
    -1
  9
$ENDCAPS
280
     0
  9
$JOINSTYLE
280
     0
  9
$LWDISPLAY
290
     0
  9
$INSUNITS
 70
     1
  9
$HYPERLINKBASE
  1

  9
$STYLESHEET
  1

  9
$XEDIT
290
     1
  9
$CEPSNTYPE
380
     0
  9
$PSTYLEMODE
290
     1
  9
$FINGERPRINTGUID
  2
{F3E8573F-FC9C-814E-9EFF-0E14B4716B10}
  9
$VERSIONGUID
  2
{7A1B0654-2CA4-2548-9BA8-5EDCE8A3386B}
  9
$EXTNAMES
290
     1
  9
$PSVPSCALE
 40
0.0
  9
$OLESTARTUP
290
     0
  9
$SORTENTS
280
   127
  9
$INDEXCTL
280
     0
  9
$HIDETEXT
280
     1
  9
$XCLIPFRAME
280
     0
  9
$HALOGAP
280
     0
  9
$OBSCOLOR
 70
   257
  9
$OBSLTYPE
280
     0
  9
$INTERSECTIONDISPLAY
280
     0
  9
$INTERSECTIONCOLOR
 70
   257
  9
$DIMASSOC
280
     2
  9
$PROJECTNAME
  1

  9
$CAMERADISPLAY
290
     0
  9
$LENSLENGTH
 40
50.0
  9
$CAMERAHEIGHT
 40
0.0
  9
$STEPSPERSEC
 40
2.0
  9
$STEPSIZE
 40
6.0
  9
$3DDWFPREC
 40
2.0
  9
$PSOLWIDTH
 40
0.25
  9
$PSOLHEIGHT
 40
4.0
  9
$LOFTANG1
 40
1.570796
  9
$LOFTANG2
 40
1.570796
  9
$LOFTMAG1
 40
0.0
  9
$LOFTMAG2
 40
0.0
  9
$LOFTPARAM
 70
     7
  9
$LOFTNORMALS
280
     1
  9
$LATITUDE
 40
37.795
  9
$LONGITUDE
 40
-122.394
  9
$NORTHDIRECTION
 40
0.0
  9
$TIMEZONE
 70
 -8000
  9
$LIGHTGLYPHDISPLAY
280
     1
  9
$TILEMODELIGHTSYNCH
280
     1
  9
$CMATERIAL
347
11
  9
$SOLIDHIST
280
     0
  9
$SHOWHIST
280
     1
  9
$DWFFRAME
280
     2
  9
$DGNFRAME
280
     0
  9
$REALWORLDSCALE
290
     1
  9
$INTERFERECOLOR
 62
     1
  9
$INTERFEREOBJVS
345
33
  9
$INTERFEREVPVS
346
30
  9
$CSHADOW
280
     0
  9
$SHADOWPLANELOCATION
 40
0.0
  0
ENDSEC
  0
SECTION
  2
CLASSES
  0
CLASS
  1
ACDBDICTIONARYWDFLT
  2
AcDbDictionaryWithDefault
  3
ObjectDBX Classes
 90
        0
 91
        1
280
     0
281
     0
  0
CLASS
  1
MATERIAL
  2
AcDbMaterial
  3
ObjectDBX Classes
 90
     1153
 91
        3
280
     0
281
     0
  0
CLASS
  1
VISUALSTYLE
  2
AcDbVisualStyle
  3
ObjectDBX Classes
 90
     4095
 91
       24
280
     0
281
     0
  0
CLASS
  1
SCALE
  2
AcDbScale
  3
ObjectDBX Classes
 90
     1153
 91
       33
280
     0
281
     0
  0
CLASS
  1
TABLESTYLE
  2
AcDbTableStyle
  3
ObjectDBX Classes
 90
     4095
 91
        1
280
     0
281
     0
  0
CLASS
  1
MLEADERSTYLE
  2
AcDbMLeaderStyle
  3
ACDB_MLEADERSTYLE_CLASS
 90
     4095
 91
        1
280
     0
281
     0
  0
CLASS
  1
ACDBSECTIONVIEWSTYLE
  2
AcDbSectionViewStyle
  3
ObjectDBX Classes
 90
     1025
 91
        1
280
     0
281
     0
  0
CLASS
  1
ACDBDETAILVIEWSTYLE
  2
AcDbDetailViewStyle
  3
ObjectDBX Classes
 90
     1025
 91
        1
280
     0
281
     0
  0
CLASS
  1
ACMESCOPE
  2
AcMeScope
  3
AcMeServices
 90
     1024
 91
        1
280
     0
281
     0
  0
CLASS
  1
ACMECOMMANDHISTORY
  2
AcMeCommandHistory
  3
AcMeServices
 90
     1024
 91
        1
280
     0
281
     0
  0
CLASS
  1
ACIMSYSVARMAN
  2
AcImSysVarManager
  3
AcMeServices
 90
     1024
 91
        1
280
     0
281
     0
  0
CLASS
  1
ACIMINTSYSVAR
  2
AcImIntSysVar
  3
AcMeServices
 90
     1024
 91
        1
280
     0
281
     0
  0
CLASS
  1
ACMESTATEMGR
  2
AcMeStateMgr
  3
AcMeServices
 90
     1024
 91
        1
280
     0
281
     0
  0
CLASS
  1
ACGREFMASTER
  2
AcGrefMaster
  3
AcAttribServices
 90
     1024
 91
        1
280
     0
281
     0
  0
CLASS
  1
SORTENTSTABLE
  2
AcDbSortentsTable
  3
ObjectDBX Classes
 90
        0
 91
        6
280
     0
281
     0
  0
CLASS
  1
IMAGE
  2
AcDbRasterImage
  3
ISM
 90
     2175
 91
        1
280
     0
281
     1
  0
CLASS
  1
IMAGEDEF
  2
AcDbRasterImageDef
  3
ISM
 90
        0
 91
        1
280
     0
281
     0
  0
CLASS
  1
IMAGEDEF_REACTOR
  2
AcDbRasterImageDefReactor
  3
ISM
 90
        1
 91
        2
280
     0
281
     0
  0
CLASS
  1
RASTERVARIABLES
  2
AcDbRasterVariables
  3
ISM
 90
        0
 91
        1
280
     0
281
     0
  0
CLASS
  1
FIELD
  2
AcDbField
  3
ObjectDBX Classes
 90
     1152
 91
        4
280
     0
281
     0
  0
CLASS
  1
FIELDLIST
  2
AcDbFieldList
  3
ObjectDBX Classes
 90
     1152
 91
        1
280
     0
281
     0
  0
CLASS
  1
DICTIONARYVAR
  2
AcDbDictionaryVar
  3
ObjectDBX Classes
 90
        0
 91
        6
280
     0
281
     0
  0
CLASS
  1
CELLSTYLEMAP
  2
AcDbCellStyleMap
  3
ObjectDBX Classes
 90
     1152
 91
        1
280
     0
281
     0
  0
ENDSEC
  0
SECTION
  2
TABLES
  0
TABLE
  2
VPORT
  5
8
330
0
100
AcDbSymbolTable
 70
     1
1001
ACAD
1000
DbSaveVer
1071
      223
  0
VPORT
  5
57
330
8
100
AcDbSymbolTableRecord
100
AcDbViewportTableRecord
  2
*Active
 70
     0
 10
0.0
 20
0.0
 11
1.0
 21
1.0
 12
8.5
 22
5.5
 13
0.0
 23
0.0
 14
0.5
 24
0.5
 15
0.0
 25
0.0
 16
0.0
 26
0.0
 36
1.0
 17
0.0
 27
0.0
 37
0.0
 40
11.0
 41
1.779601
 42
50.0
 43
0.0
 44
0.0
 50
0.0
 51
0.0
 71
     0
 72
 20000
 73
     1
 74
     0
 75
     0
 76
     0
 77
     0
 78
     0
281
     0
 65
     1
110
0.0
120
0.0
130
0.0
111
1.0
121
0.0
131
0.0
112
0.0
122
1.0
132
0.0
 79
     0
146
0.0
348
2F
 60
     3
 61
     5
292
     1
282
     1
141
0.0
142
0.0
 63
   250
421
  3355443
  0
ENDTAB
  0
TABLE
  2
LTYPE
  5
5
330
0
100
AcDbSymbolTable
 70
    10
  0
LTYPE
  5
5B
330
5
100
AcDbSymbolTableRecord
100
AcDbLinetypeTableRecord
  2
ByBlock
 70
     0
  3

 72
    65
 73
     0
 40
0.0
  0
LTYPE
  5
5C
330
5
100
AcDbSymbolTableRecord
100
AcDbLinetypeTableRecord
  2
ByLayer
 70
     0
  3

 72
    65
 73
     0
 40
0.0
  0
LTYPE
  5
5D
330
5
100
AcDbSymbolTableRecord
100
AcDbLinetypeTableRecord
  2
Continuous
 70
     0
  3
Solid line
 72
    65
 73
     0
 40
0.0
  0
LTYPE
  5
81
330
5
100
AcDbSymbolTableRecord
100
AcDbLinetypeTableRecord
  2
HIDDEN
 70
     0
  3
Hidden __ __ __ __ __ __ __ __ __ __ __ __ __ _
 72
    65
 73
     2
 40
0.375
 49
0.25
 74
     0
 49
-0.125
 74
     0
  0
LTYPE
  5
82
330
5
100
AcDbSymbolTableRecord
100
AcDbLinetypeTableRecord
  2
PHANTOM2
 70
     0
  3
Phantom (.5x) ___ _ _ ___ _ _ ___ _ _ ___ _ _
 72
    65
 73
     6
 40
1.25
 49
0.625
 74
     0
 49
-0.125
 74
     0
 49
0.125
 74
     0
 49
-0.125
 74
     0
 49
0.125
 74
     0
 49
-0.125
 74
     0
  0
LTYPE
  5
83
330
5
100
AcDbSymbolTableRecord
100
AcDbLinetypeTableRecord
  2
CENTER
 70
     0
  3
Center ____ _ ____ _ ____ _ ____ _ ____ _ ____
 72
    65
 73
     4
 40
2.0
 49
1.25
 74
     0
 49
-0.25
 74
     0
 49
0.25
 74
     0
 49
-0.25
 74
     0
  0
LTYPE
  5
9D
330
5
100
AcDbSymbolTableRecord
100
AcDbLinetypeTableRecord
  2
CENTER2
 70
     0
  3
Center (.5x) ___ _ ___ _ ___ _ ___ _ ___ _ ___
 72
    65
 73
     4
 40
1.125
 49
0.75
 74
     0
 49
-0.125
 74
     0
 49
0.125
 74
     0
 49
-0.125
 74
     0
  0
LTYPE
  5
9E
330
5
100
AcDbSymbolTableRecord
100
AcDbLinetypeTableRecord
  2
HIDDEN2
 70
     0
  3
Hidden (.5x) _ _ _ _ _ _ _ _ _ _ _ _ _ _ _ _ _
 72
    65
 73
     2
 40
0.1875
 49
0.125
 74
     0
 49
-0.0625
 74
     0
  0
LTYPE
  5
9F
330
5
100
AcDbSymbolTableRecord
100
AcDbLinetypeTableRecord
  2
Amconstr
 70
     0
  3
_______________________
 72
    65
 73
     2
 40
9999.0
 49
9999.0
 74
     0
 49
0.0
 74
     0
  0
LTYPE
  5
A0
330
5
100
AcDbSymbolTableRecord
100
AcDbLinetypeTableRecord
  2
Amzigzag2
 70
     0
  3
/\/-/\/-/\/-/\/-/\/-/\/
 72
    65
 73
     2
 40
0.4401
 49
0.0001
 74
     4
 75
   136
340
9A
 46
0.0016
 50
0.0
 44
0.0
 45
0.0
 49
-0.44
 74
     0
  0
LTYPE
  5
A1
330
5
100
AcDbSymbolTableRecord
100
AcDbLinetypeTableRecord
  2
ACANSTGB
 70
     0
  3
__ . . __ . .
 72
    65
 73
     6
 40
0.354331
 49
0.15748
 74
     0
 49
-0.03937
 74
     0
 49
0.03937
 74
     0
 49
-0.03937
 74
     0
 49
0.03937
 74
     0
 49
-0.03937
 74
     0
  0
LTYPE
  5
A2
330
5
100
AcDbSymbolTableRecord
100
AcDbLinetypeTableRecord
  2
ACANSTGL
 70
     0
  3
_ _ _ _ _
 72
    65
 73
     2
 40
0.11811
 49
0.07874
 74
     0
 49
-0.03937
 74
     0
  0
ENDTAB
  0
TABLE
  2
LAYER
  5
2
330
0
100
AcDbSymbolTable
 70
    12
  0
LAYER
  5
54
330
2
100
AcDbSymbolTableRecord
100
AcDbLayerTableRecord
  2
0
 70
     0
 62
     7
  6
Continuous
370
    -3
390
F
347
21
348
0
1001
AcAecLayerStandard
1000

1000

  0
LAYER
  5
79
330
2
100
AcDbSymbolTableRecord
100
AcDbLayerTableRecord
  2
Defpoints
 70
     0
 62
     7
  6
Continuous
290
     0
370
    -3
390
F
347
21
348
0
1001
AcAecLayerStandard
1000

1000

  0
LAYER
  5
BC
330
2
100
AcDbSymbolTableRecord
100
AcDbLayerTableRecord
  2
Visible
 70
     0
 62
     7
  6
Continuous
370
    50
390
F
347
21
348
0
  0
LAYER
  5
15C
330
2
100
AcDbSymbolTableRecord
100
AcDbLayerTableRecord
  2
Hidden
 70
     0
 62
     7
  6
HIDDEN2
370
    25
390
F
347
21
348
0
  0
LAYER
  5
21D
330
2
100
AcDbSymbolTableRecord
100
AcDbLayerTableRecord
  2
Titleblock
 70
     0
 62
     7
  6
Continuous
370
    -3
390
F
347
21
348
0
1001
AcAecLayerStandard
1000

1000

1001
AcCmTransparency
1071
        0
  0
LAYER
  5
242
330
2
100
AcDbSymbolTableRecord
100
AcDbLayerTableRecord
  2
Border
 70
     0
 62
     7
  6
Continuous
370
    -3
390
F
347
21
348
0
1001
AcAecLayerStandard
1000

1000

1001
AcCmTransparency
1071
        0
  0
LAYER
  5
263
330
2
100
AcDbSymbolTableRecord
100
AcDbLayerTableRecord
  2
Dimensions
 70
     0
 62
     7
  6
Continuous
370
    25
390
F
347
21
348
0
  0
LAYER
  5
2E2
330
2
100
AcDbSymbolTableRecord
100
AcDbLayerTableRecord
  2
Annotations
 70
     0
 62
     7
  6
Continuous
370
    25
390
F
347
21
348
0
  0
ENDTAB
  0
TABLE
  2
STYLE
  5
3
330
0
100
AcDbSymbolTable
 70
     4
  0
STYLE
  5
55
330
3
100
AcDbSymbolTableRecord
100
AcDbTextStyleTableRecord
  2
Standard
 70
     0
 40
0.0
 41
1.0
 50
0.0
 71
     0
 42
0.12
  3
arial.ttf
  4

1001
ACAD
1000
Arial
1071
       34
  0
STYLE
  5
5A
330
3
100
AcDbSymbolTableRecord
100
AcDbTextStyleTableRecord
  2
Annotative
 70
     0
 40
0.0
 41
1.0
 50
0.0
 71
     0
 42
0.2
  3
txt
  4

1001
AcadAnnotative
1000
AnnotativeData
1002
{
1070
     1
1070
     1
1002
}
  0
STYLE
  5
9A
330
3
100
AcDbSymbolTableRecord
100
AcDbTextStyleTableRecord
  2

 70
     1
 40
0.0
 41
1.0
 50
0.0
 71
     0
 42
0.12
  3
genltshp.shx
  4

  0
STYLE
  5
9B
330
3
100
AcDbSymbolTableRecord
100
AcDbTextStyleTableRecord
  2
ACANSGDT
 70
     0
 40
0.0
 41
1.0
 50
0.0
 71
     0
 42
0.12
  3
amgdt.shx
  4

  0
ENDTAB
  0
TABLE
  2
VIEW
  5
6
330
0
100
AcDbSymbolTable
 70
     0
  0
ENDTAB
  0
TABLE
  2
UCS
  5
7
330
0
100
AcDbSymbolTable
 70
     0
  0
ENDTAB
  0
TABLE
  2
APPID
  5
9
330
0
100
AcDbSymbolTable
 70
    27
  0
APPID
  5
56
330
9
100
AcDbSymbolTableRecord
100
AcDbRegAppTableRecord
  2
ACAD
 70
     0
  0
APPID
  5
5E
330
9
100
AcDbSymbolTableRecord
100
AcDbRegAppTableRecord
  2
AcadAnnotative
 70
     0
  0
APPID
  5
78
330
9
100
AcDbSymbolTableRecord
100
AcDbRegAppTableRecord
  2
ACAD_PSEXT
 70
     0
  0
APPID
  5
7A
330
9
100
AcDbSymbolTableRecord
100
AcDbRegAppTableRecord
  2
MCAD_NO_VIS
 70
     0
  0
APPID
  5
7B
330
9
100
AcDbSymbolTableRecord
100
AcDbRegAppTableRecord
  2
ACAD_TEMP_GRAPHIC
 70
     0
  0
APPID
  5
84
330
9
100
AcDbSymbolTableRecord
100
AcDbRegAppTableRecord
  2
ACAD_DSTYLE_DIMJAG
 70
     0
  0
APPID
  5
85
330
9
100
AcDbSymbolTableRecord
100
AcDbRegAppTableRecord
  2
ACAD_DSTYLE_DIMTALN
 70
     0
  0
APPID
  5
86
330
9
100
AcDbSymbolTableRecord
100
AcDbRegAppTableRecord
  2
ACAD_NAV_VCDISPLAY
 70
     0
  0
APPID
  5
87
330
9
100
AcDbSymbolTableRecord
100
AcDbRegAppTableRecord
  2
AcAecLayerStandard
 70
     0
  0
APPID
  5
88
330
9
100
AcDbSymbolTableRecord
100
AcDbRegAppTableRecord
  2
AcCmTransparency
 70
     0
  0
APPID
  5
89
330
9
100
AcDbSymbolTableRecord
100
AcDbRegAppTableRecord
  2
ACAD_DSTYLE_DIMBREAK
 70
     0
  0
APPID
  5
8A
330
9
100
AcDbSymbolTableRecord
100
AcDbRegAppTableRecord
  2
ACAD_DSTYLE_DIMRADIAL_EXTENSION
 70
     0
  0
APPID
  5
8B
330
9
100
AcDbSymbolTableRecord
100
AcDbRegAppTableRecord
  2
FUSIONTITLEBLOCK
 70
     0
  0
APPID
  5
8C
330
9
100
AcDbSymbolTableRecord
100
AcDbRegAppTableRecord
  2
FUSIONCURRENTTITLEBLOCK
 70
     0
  0
APPID
  5
8D
330
9
100
AcDbSymbolTableRecord
100
AcDbRegAppTableRecord
  2
AcSynergy
 70
     0
  0
APPID
  5
8E
330
9
100
AcDbSymbolTableRecord
100
AcDbRegAppTableRecord
  2
ACAD_VIEW_EDGE_ID
 70
     0
  0
APPID
  5
8F
330
9
100
AcDbSymbolTableRecord
100
AcDbRegAppTableRecord
  2
GENIUS_GENSCREG_15
 70
     0
  0
APPID
  5
90
330
9
100
AcDbSymbolTableRecord
100
AcDbRegAppTableRecord
  2
GENIUS_GENOBJ-N-SDF_13
 70
     0
  0
APPID
  5
91
330
9
100
AcDbSymbolTableRecord
100
AcDbRegAppTableRecord
  2
GENIUS_GENODEF_13
 70
     0
  0
APPID
  5
92
330
9
100
AcDbSymbolTableRecord
100
AcDbRegAppTableRecord
  2
ACAD_DIMASSOC_CALC_DIMLFAC
 70
     0
  0
APPID
  5
93
330
9
100
AcDbSymbolTableRecord
100
AcDbRegAppTableRecord
  2
ACAD_DIMASSOC_DIMLFAC
 70
     0
  0
APPID
  5
94
330
9
100
AcDbSymbolTableRecord
100
AcDbRegAppTableRecord
  2
ACAD_DIMASSOC_OVERRIDDEN_DIMLFAC
 70
     0
  0
APPID
  5
95
330
9
100
AcDbSymbolTableRecord
100
AcDbRegAppTableRecord
  2
FD_ATT_APPNAME
 70
     0
  0
APPID
  5
96
330
9
100
AcDbSymbolTableRecord
100
AcDbRegAppTableRecord
  2
SYNERGY_BODY_TBR_ID
 70
     0
  0
APPID
  5
97
330
9
100
AcDbSymbolTableRecord
100
AcDbRegAppTableRecord
  2
FusionCutBodyId
 70
     0
  0
APPID
  5
98
330
9
100
AcDbSymbolTableRecord
100
AcDbRegAppTableRecord
  2
ACAD_DSTYLE_DIMJAG_POSITION
 70
     0
  0
APPID
  5
99
330
9
100
AcDbSymbolTableRecord
100
AcDbRegAppTableRecord
  2
ACATTRIBSERVICES
 70
     0
  0
ENDTAB
  0
TABLE
  2
DIMSTYLE
  5
A
330
0
100
AcDbSymbolTable
 70
     2
100
AcDbDimStyleTable
 71
     1
340
58
  0
DIMSTYLE
105
58
102
{ACAD_REACTORS
330
262
330
271
330
27F
330
28D
330
29B
330
2A9
330
2B7
330
2C5
330
2D3
330
2EB
330
2F5
330
2FF
330
30D
330
31B
102
}
330
A
100
AcDbSymbolTableRecord
100
AcDbDimStyleTableRecord
  2
Standard
 70
     0
  3
in
  4
mm
 41
0.12
 42
0.05
 43
0.339411
 44
0.1
 47
0.01
 48
0.01
 78
    12
 79
     3
 90
        1
140
0.12
141
0.0
147
0.06
176
   256
177
   256
178
   256
179
     2
271
     3
272
     3
277
     5
284
    12
285
    12
286
    12
340
55
  0
DIMSTYLE
105
59
330
A
100
AcDbSymbolTableRecord
100
AcDbDimStyleTableRecord
  2
Annotative
 70
     0
  3
in
  4
mm
 40
0.0
 43
0.339411
 78
    12
 79
     3
140
0.12
179
     2
271
     3
272
     3
277
     5
284
    12
285
    12
286
    12
340
55
1001
AcadAnnotative
1000
AnnotativeData
1002
{
1070
     1
1070
     1
1002
}
  0
ENDTAB
  0
TABLE
  2
BLOCK_RECORD
  5
1
330
0
100
AcDbSymbolTable
 70
    35
  0
BLOCK_RECORD
  5
70
102
{ACAD_XDICTIONARY
360
B5
102
}
330
1
100
AcDbSymbolTableRecord
100
AcDbBlockTableRecord
  2
*Model_Space
340
73
 70
     0
280
     1
281
     0
  0
BLOCK_RECORD
  5
6C
330
1
100
AcDbSymbolTableRecord
100
AcDbBlockTableRecord
  2
*Paper_Space
340
6F
 70
     0
280
     1
281
     0
  0
BLOCK_RECORD
  5
74
330
1
100
AcDbSymbolTableRecord
100
AcDbBlockTableRecord
  2
*Paper_Space0
340
77
 70
     0
280
     1
281
     0
  0
BLOCK_RECORD
  5
21E
102
{ACAD_XDICTIONARY
360
21F
102
}
330
1
100
AcDbSymbolTableRecord
100
AcDbBlockTableRecord
  2
Shower
340
0
102
{BLKREFS
331
21C
102
}
 70
     1
280
     1
281
     0
1001
FUSIONTITLEBLOCK
1000
TitleBlock
  0
BLOCK_RECORD
  5
243
330
1
100
AcDbSymbolTableRecord
100
AcDbBlockTableRecord
  2
ANSI_B_SHEET
340
0
310
2800000020000000200000000100080000000000000400000000000000000000000000000000000000000000000080000080000000808000800000008000800080800000C0C0C000C0DCC000F0CAA6000020400000206000002080000020A0000020C0000020E00000400000004020000040400000406000004080000040A0
310
000040C0000040E00000600000006020000060400000606000006080000060A0000060C0000060E00000800000008020000080400000806000008080000080A0000080C0000080E00000A0000000A0200000A0400000A0600000A0800000A0A00000A0C00000A0E00000C0000000C0200000C0400000C0600000C0800000C0
310
A00000C0C00000C0E00000E0000000E0200000E0400000E0600000E0800000E0A00000E0C00000E0E00040000000400020004000400040006000400080004000A0004000C0004000E00040200000402020004020400040206000402080004020A0004020C0004020E000404000004040200040404000404060004040800040
310
40A0004040C0004040E00040600000406020004060400040606000406080004060A0004060C0004060E00040800000408020004080400040806000408080004080A0004080C0004080E00040A0000040A0200040A0400040A0600040A0800040A0A00040A0C00040A0E00040C0000040C0200040C0400040C0600040C08000
310
40C0A00040C0C00040C0E00040E0000040E0200040E0400040E0600040E0800040E0A00040E0C00040E0E00080000000800020008000400080006000800080008000A0008000C0008000E00080200000802020008020400080206000802080008020A0008020C0008020E00080400000804020008040400080406000804080
310
008040A0008040C0008040E00080600000806020008060400080606000806080008060A0008060C0008060E00080800000808020008080400080806000808080008080A0008080C0008080E00080A0000080A0200080A0400080A0600080A0800080A0A00080A0C00080A0E00080C0000080C0200080C0400080C0600080C0
310
800080C0A00080C0C00080C0E00080E0000080E0200080E0400080E0600080E0800080E0A00080E0C00080E0E000C0000000C0002000C0004000C0006000C0008000C000A000C000C000C000E000C0200000C0202000C0204000C0206000C0208000C020A000C020C000C020E000C0400000C0402000C0404000C0406000C0
310
408000C040A000C040C000C040E000C0600000C0602000C0604000C0606000C0608000C060A000C060C000C060E000C0800000C0802000C0804000C0806000C0808000C080A000C080C000C080E000C0A00000C0A02000C0A04000C0A06000C0A08000C0A0A000C0A0C000C0A0E000C0C00000C0C02000C0C04000C0C06000
310
C0C08000C0C0A000F0FBFF00A4A0A000808080000000FF0000FF000000FFFF00FF000000FF00FF00FFFF0000FFFFFF0049494949494949494949494949494949494949494949494949494949494949494949494949494949494949494949494949494949494949494949494949494949494949494949494949494949494949
310
494949494949494949494949494949494949494949494949494949494949494949494949494949494949494949494949494949494949494949494949494949494949494949494949494949494949494949494949494949494949494949494949494949494949494949494949494949494949FFFF4949494949494949494949
310
494949494949494949494949494949FFFF4949FFFFFFFFFFFFFFFFFFFFFFFFFFFFFFFFFFFFFFFFFFFFFFFFFFFFFFFFFFFF494949FF4949494949494949494949494949494949494949494949494949FF49494949FF4949494949494949494949494949494949494949494949494949FF49494949FF49494949494949494949
310
49494949494949494949494949494949FF49494949FF4949494949494949494949494949494949494949494949494949FF49494949FF4949494949494949494949494949494949494949494949494949FF49494949FF4949494949494949494949494949494949494949494949494949FF49494949FF494949494949494949
310
4949494949494949494949494949494949FF49494949FF4949494949494949494949494949494949494949494949494949FF49494949FF4949494949494949494949494949494949494949494949494949FF49494949FF4949494949494949494949494949494949494949494949494949FF49494949FF4949494949494949
310
494949494949494949494949494949494949FF49494949FF4949494949494949494949494949494949494949494949494949FF49494949FF4949494949494949494949494949494949494949494949494949FF49494949FF4949494949494949494949494949494949494949494949494949FF49494949FF49494949494949
310
49494949494949494949494949494949494949FF49494949FF4949494949494949494949494949494949494949494949494949FF494949FFFFFFFFFFFFFFFFFFFFFFFFFFFFFFFFFFFFFFFFFFFFFFFFFFFFFFFFFFFF4949FFFF4949494949494949494949494949494949494949494949494949FFFF49494949494949494949
310
49494949494949494949494949494949494949494949494949494949494949494949494949494949494949494949494949494949494949494949494949494949494949494949494949494949494949494949494949494949494949494949494949494949494949494949494949494949494949494949494949494949494949
310
4949494949494949494949494949494949494949494949494949494949494949494949494949494949494949494949494949494949494949
102
{BLKREFS
331
241
102
}
 70
     1
280
     1
281
     0
  0
BLOCK_RECORD
  5
264
330
1
100
AcDbSymbolTableRecord
100
AcDbBlockTableRecord
  2
*D6
340
0
 70
     0
280
     1
281
     0
  0
BLOCK_RECORD
  5
272
330
1
100
AcDbSymbolTableRecord
100
AcDbBlockTableRecord
  2
*D7
340
0
 70
     0
280
     1
281
     0
  0
BLOCK_RECORD
  5
280
330
1
100
AcDbSymbolTableRecord
100
AcDbBlockTableRecord
  2
*D8
340
0
 70
     0
280
     1
281
     0
  0
BLOCK_RECORD
  5
28E
330
1
100
AcDbSymbolTableRecord
100
AcDbBlockTableRecord
  2
*D9
340
0
 70
     0
280
     1
281
     0
  0
BLOCK_RECORD
  5
29C
330
1
100
AcDbSymbolTableRecord
100
AcDbBlockTableRecord
  2
*D10
340
0
 70
     0
280
     1
281
     0
  0
BLOCK_RECORD
  5
2AA
330
1
100
AcDbSymbolTableRecord
100
AcDbBlockTableRecord
  2
*D11
340
0
 70
     0
280
     1
281
     0
  0
BLOCK_RECORD
  5
2B8
330
1
100
AcDbSymbolTableRecord
100
AcDbBlockTableRecord
  2
*D12
340
0
 70
     0
280
     1
281
     0
  0
BLOCK_RECORD
  5
2C6
330
1
100
AcDbSymbolTableRecord
100
AcDbBlockTableRecord
  2
*D13
340
0
 70
     0
280
     1
281
     0
  0
BLOCK_RECORD
  5
2D4
330
1
100
AcDbSymbolTableRecord
100
AcDbBlockTableRecord
  2
*D14
340
0
 70
     0
280
     1
281
     0
  0
BLOCK_RECORD
  5
2EC
330
1
100
AcDbSymbolTableRecord
100
AcDbBlockTableRecord
  2
*D15
340
0
 70
     0
280
     1
281
     0
  0
BLOCK_RECORD
  5
2F6
330
1
100
AcDbSymbolTableRecord
100
AcDbBlockTableRecord
  2
*D16
340
0
 70
     0
280
     1
281
     0
  0
BLOCK_RECORD
  5
300
330
1
100
AcDbSymbolTableRecord
100
AcDbBlockTableRecord
  2
*D17
340
0
 70
     0
280
     1
281
     0
  0
BLOCK_RECORD
  5
30E
330
1
100
AcDbSymbolTableRecord
100
AcDbBlockTableRecord
  2
*D18
340
0
 70
     0
280
     1
281
     0
  0
BLOCK_RECORD
  5
31C
330
1
100
AcDbSymbolTableRecord
100
AcDbBlockTableRecord
  2
*D19
340
0
 70
     0
280
     1
281
     0
  0
BLOCK_RECORD
  5
332
330
1
100
AcDbSymbolTableRecord
100
AcDbBlockTableRecord
  2
*D21
340
0
 70
     0
280
     1
281
     0
  0
BLOCK_RECORD
  5
33F
330
1
100
AcDbSymbolTableRecord
100
AcDbBlockTableRecord
  2
*D22
340
0
 70
     0
280
     1
281
     0
  0
BLOCK_RECORD
  5
34C
330
1
100
AcDbSymbolTableRecord
100
AcDbBlockTableRecord
  2
*D23
340
0
 70
     0
280
     1
281
     0
  0
BLOCK_RECORD
  5
359
330
1
100
AcDbSymbolTableRecord
100
AcDbBlockTableRecord
  2
*D24
340
0
 70
     0
280
     1
281
     0
  0
BLOCK_RECORD
  5
366
330
1
100
AcDbSymbolTableRecord
100
AcDbBlockTableRecord
  2
*D25
340
0
 70
     0
280
     1
281
     0
  0
BLOCK_RECORD
  5
373
330
1
100
AcDbSymbolTableRecord
100
AcDbBlockTableRecord
  2
*D26
340
0
 70
     0
280
     1
281
     0
  0
BLOCK_RECORD
  5
380
330
1
100
AcDbSymbolTableRecord
100
AcDbBlockTableRecord
  2
*D27
340
0
 70
     0
280
     1
281
     0
  0
BLOCK_RECORD
  5
38D
330
1
100
AcDbSymbolTableRecord
100
AcDbBlockTableRecord
  2
*D28
340
0
 70
     0
280
     1
281
     0
  0
BLOCK_RECORD
  5
39A
330
1
100
AcDbSymbolTableRecord
100
AcDbBlockTableRecord
  2
*D29
340
0
 70
     0
280
     1
281
     0
  0
BLOCK_RECORD
  5
3A7
330
1
100
AcDbSymbolTableRecord
100
AcDbBlockTableRecord
  2
*D30
340
0
 70
     0
280
     1
281
     0
  0
BLOCK_RECORD
  5
3B0
330
1
100
AcDbSymbolTableRecord
100
AcDbBlockTableRecord
  2
*D31
340
0
 70
     0
280
     1
281
     0
  0
BLOCK_RECORD
  5
3B9
330
1
100
AcDbSymbolTableRecord
100
AcDbBlockTableRecord
  2
*D32
340
0
 70
     0
280
     1
281
     0
  0
BLOCK_RECORD
  5
3C6
330
1
100
AcDbSymbolTableRecord
100
AcDbBlockTableRecord
  2
*D33
340
0
 70
     0
280
     1
281
     0
  0
BLOCK_RECORD
  5
3D3
330
1
100
AcDbSymbolTableRecord
100
AcDbBlockTableRecord
  2
*D34
340
0
 70
     0
280
     1
281
     0
  0
ENDTAB
  0
ENDSEC
  0
SECTION
  2
BLOCKS
  0
BLOCK
  5
71
330
70
100
AcDbEntity
  8
0
100
AcDbBlockBegin
  2
*Model_Space
 70
     0
 10
0.0
 20
0.0
 30
0.0
  3
*Model_Space
  1

  0
ENDBLK
  5
72
330
70
100
AcDbEntity
  8
0
100
AcDbBlockEnd
  0
BLOCK
  5
6D
330
6C
100
AcDbEntity
 67
     1
  8
0
100
AcDbBlockBegin
  2
*Paper_Space
 70
     0
 10
0.0
 20
0.0
 30
0.0
  3
*Paper_Space
  1

  0
ENDBLK
  5
6E
330
6C
100
AcDbEntity
 67
     1
  8
0
100
AcDbBlockEnd
  0
BLOCK
  5
75
330
74
100
AcDbEntity
 67
     1
  8
0
100
AcDbBlockBegin
  2
*Paper_Space0
 70
     0
 10
0.0
 20
0.0
 30
0.0
  3
*Paper_Space0
  1

  0
ENDBLK
  5
76
330
74
100
AcDbEntity
 67
     1
  8
0
100
AcDbBlockEnd
  0
BLOCK
  5
221
330
21E
100
AcDbEntity
  8
0
100
AcDbBlockBegin
  2
Shower
 70
     2
 10
0.0
 20
0.0
 30
0.0
  3
Shower
  1

  0
LWPOLYLINE
  5
222
330
21E
100
AcDbEntity
  8
Titleblock
100
AcDbPolyline
 90
        4
 70
     1
 43
0.0
 10
0.0
 20
0.0
 10
-4.9375
 20
0.0
 10
-4.9375
 20
2.5
 10
0.0
 20
2.5
  0
IMAGE
  5
223
330
21E
100
AcDbEntity
  8
Titleblock
  6
Continuous
160
               140
310
8C0000000100000084000000060000000500000000000000008013C000B87FA8928AB03F000000000000000000000000008013C035B4911D6523F03F000000000000000001000000008001C035B4911D6523F03F000000000000000001000000008001C000B87FA8928AB03F000000000000000000000000008013C000B87F
310
A8928AB03F0000000000000000
370
     0
100
AcDbRasterImage
 90
        0
 10
-4.875
 20
0.064614
 30
0.0
 11
0.0028349156118143
 21
0.0
 31
0.0
 12
0.0
 22
0.0028349156118143
 32
0.0
 13
948.0
 23
333.0
340
224
 70
    15
280
     0
281
    50
282
    50
283
     0
290
     0
360
226
 71
     1
 91
        2
 14
-0.5
 24
-0.5
 14
947.5
 24
332.5
  0
LWPOLYLINE
  5
228
330
21E
100
AcDbEntity
  8
Titleblock
  6
Continuous
370
    25
100
AcDbPolyline
 90
        4
 70
     1
 43
0.0
 10
0.0
 20
1.0625
 10
-4.9375
 20
1.061638
 10
-4.9375
 20
0.0
 10
0.0
 20
0.0
  0
LWPOLYLINE
  5
229
330
21E
100
AcDbEntity
  8
Titleblock
  6
Continuous
370
    25
100
AcDbPolyline
 90
        4
 70
     1
 43
0.0
 10
-1.75
 20
2.5
 10
0.0
 20
2.5
 10
0.0
 20
2.5
 10
-1.75
 20
2.5
  0
ATTDEF
  5
22A
330
21E
100
AcDbEntity
  8
Titleblock
  6
Continuous
370
    25
100
AcDbText
 10
-3.6875
 20
2.3125
 30
0.0
 40
0.12
  1

100
AcDbAttributeDefinition
280
     0
  3

  2
PROJECT
 70
     0
280
     1
  0
MTEXT
  5
22B
330
21E
100
AcDbEntity
  8
Titleblock
  6
Continuous
370
    25
100
AcDbMText
 10
-4.875
 20
1.653875
 30
0.0
 40
0.12
 41
0.6875
 46
0.0
 71
     1
 72
     5
  1
Description:
 73
     1
 44
1.0
1001
ACAD
1000
ACAD_MTEXT_COLUMN_INFO_BEGIN
1070
    75
1070
     2
1070
    79
1070
     0
1070
    76
1070
     1
1070
    78
1070
     0
1070
    48
1040
0.6875
1070
    49
1040
0.6
1070
    50
1070
     1
1040
0.0
1000
ACAD_MTEXT_COLUMN_INFO_END
  0
ATTDEF
  5
22C
330
21E
100
AcDbEntity
  8
Titleblock
  6
Continuous
370
    25
100
AcDbText
 10
-1.6875
 20
0.6875
 30
0.0
 40
0.12
  1

100
AcDbAttributeDefinition
280
     0
  3

  2
DRAWN_DATE
 70
     0
280
     1
  0
ATTDEF
  5
22D
330
21E
100
AcDbEntity
  8
Titleblock
  6
Continuous
370
    25
100
AcDbText
 10
-4.3125
 20
1.8125
 30
0.0
 40
0.3048
  1

100
AcDbAttributeDefinition
280
     0
  3

  2
TITLE_1
 70
     0
280
     1
  0
ATTDEF
  5
22E
330
21E
100
AcDbEntity
  8
Titleblock
  6
Continuous
370
    25
100
AcDbText
 10
-1.6875
 20
0.91994
 30
0.0
 40
0.12
  1

100
AcDbAttributeDefinition
280
     0
  3

  2
SCALE
 70
     0
280
     1
  0
LWPOLYLINE
  5
22F
330
21E
100
AcDbEntity
  8
Titleblock
  6
Continuous
370
    25
100
AcDbPolyline
 90
        4
 70
     1
 43
0.0
 10
0.0
 20
1.0625
 10
0.0
 20
1.0625
 10
0.0
 20
0.0
 10
0.0
 20
0.0
  0
LWPOLYLINE
  5
230
330
21E
100
AcDbEntity
  8
Titleblock
  6
Continuous
370
    25
100
AcDbPolyline
 90
        4
 70
     1
 43
0.0
 10
0.0
 20
1.0625
 10
0.0
 20
1.0625
 10
0.0
 20
0.0
 10
0.0
 20
0.0
  0
LINE
  5
231
330
21E
100
AcDbEntity
  8
Titleblock
  6
Continuous
370
    25
100
AcDbLine
 10
-2.125
 20
1.062165
 30
0.0
 11
-2.125
 21
0.0
 31
0.0
  0
LWPOLYLINE
  5
232
330
21E
100
AcDbEntity
  8
Titleblock
  6
Continuous
370
    25
100
AcDbPolyline
 90
        4
 70
     1
 43
0.0
 10
-4.9375
 20
2.5
 10
0.0
 20
2.5
 10
0.0
 20
2.5
 10
-4.9375
 20
2.5
  0
LINE
  5
233
330
21E
100
AcDbEntity
  8
Titleblock
  6
Continuous
370
    25
100
AcDbLine
 10
-4.9375
 20
2.25
 30
0.0
 11
0.0
 21
2.25
 31
0.0
  0
LINE
  5
234
330
21E
100
AcDbEntity
  8
Titleblock
  6
Continuous
370
    25
100
AcDbLine
 10
-4.9375
 20
1.6875
 30
0.0
 11
0.0
 21
1.6875
 31
0.0
  0
MTEXT
  5
235
330
21E
100
AcDbEntity
  8
Titleblock
100
AcDbMText
 10
-4.875
 20
2.467284
 30
0.0
 40
0.12
 41
0.375
 46
0.0
 71
     1
 72
     5
  1
Project:
 73
     1
 44
1.0
1001
ACAD
1000
ACAD_MTEXT_COLUMN_INFO_BEGIN
1070
    75
1070
     2
1070
    79
1070
     0
1070
    76
1070
     1
1070
    78
1070
     0
1070
    48
1040
0.375
1070
    49
1040
0.6
1070
    50
1070
     1
1040
0.0
1000
ACAD_MTEXT_COLUMN_INFO_END
  0
MTEXT
  5
236
330
21E
100
AcDbEntity
  8
Titleblock
100
AcDbMText
 10
-2.0625
 20
1.045477
 30
0.0
 40
0.075
 41
0.375
 46
0.0
 71
     1
 72
     5
  1
Scale:
 73
     1
 44
1.0
1001
ACAD
1000
ACAD_MTEXT_COLUMN_INFO_BEGIN
1070
    75
1070
     2
1070
    79
1070
     0
1070
    76
1070
     1
1070
    78
1070
     0
1070
    48
1040
0.375
1070
    49
1040
0.6
1070
    50
1070
     1
1040
0.0
1000
ACAD_MTEXT_COLUMN_INFO_END
  0
MTEXT
  5
237
330
21E
100
AcDbEntity
  8
Titleblock
100
AcDbMText
 10
-2.0625
 20
0.857735
 30
0.0
 40
0.075
 41
0.375
 46
0.0
 71
     1
 72
     5
  1
Date Drawn:
 73
     1
 44
1.0
1001
ACAD
1000
ACAD_MTEXT_COLUMN_INFO_BEGIN
1070
    75
1070
     2
1070
    79
1070
     0
1070
    76
1070
     1
1070
    78
1070
     0
1070
    48
1040
0.375
1070
    49
1040
0.6
1070
    50
1070
     1
1040
0.0
1000
ACAD_MTEXT_COLUMN_INFO_END
  0
LINE
  5
238
330
21E
100
AcDbEntity
  8
Titleblock
100
AcDbLine
 10
-2.125
 20
0.875
 30
0.0
 11
0.0
 21
0.875
 31
0.0
  0
LINE
  5
239
330
21E
100
AcDbEntity
  8
Titleblock
100
AcDbLine
 10
-2.125
 20
0.625
 30
0.0
 11
0.0
 21
0.625
 31
0.0
  0
MTEXT
  5
23A
330
21E
100
AcDbEntity
  8
Titleblock
100
AcDbMText
 10
-4.875
 20
2.220603
 30
0.0
 40
0.12
 41
0.625
 46
0.0
 71
     1
 72
     5
  1
Title:
 73
     1
 44
1.0
1001
ACAD
1000
ACAD_MTEXT_COLUMN_INFO_BEGIN
1070
    75
1070
     2
1070
    79
1070
     0
1070
    76
1070
     1
1070
    78
1070
     0
1070
    48
1040
0.625
1070
    49
1040
0.6
1070
    50
1070
     1
1040
0.0
1000
ACAD_MTEXT_COLUMN_INFO_END
  0
ENDBLK
  5
23B
330
21E
100
AcDbEntity
  8
0
100
AcDbBlockEnd
  0
BLOCK
  5
244
330
243
100
AcDbEntity
  8
0
100
AcDbBlockBegin
  2
ANSI_B_SHEET
 70
     0
 10
0.0
 20
0.0
 30
0.0
  3
ANSI_B_SHEET
  1

  0
LINE
  5
245
330
243
100
AcDbEntity
  8
Border
100
AcDbLine
 10
0.0
 20
0.0
 30
0.0
 11
0.5
 21
0.0
 31
0.0
  0
LINE
  5
246
330
243
100
AcDbEntity
  8
Border
100
AcDbLine
 10
16.5
 20
0.0
 30
0.0
 11
17.0
 21
0.0
 31
0.0
  0
LINE
  5
247
330
243
100
AcDbEntity
  8
Border
100
AcDbLine
 10
0.62
 20
0.38
 30
0.0
 11
16.38
 21
0.38
 31
0.0
  0
LINE
  5
248
330
243
100
AcDbEntity
  8
Border
100
AcDbLine
 10
17.0
 20
0.0
 30
0.0
 11
17.0
 21
0.5
 31
0.0
  0
LINE
  5
249
330
243
100
AcDbEntity
  8
Border
100
AcDbLine
 10
17.0
 20
10.5
 30
0.0
 11
17.0
 21
11.0
 31
0.0
  0
LINE
  5
24A
330
243
100
AcDbEntity
  8
Border
100
AcDbLine
 10
16.38
 20
0.38
 30
0.0
 11
16.38
 21
10.62
 31
0.0
  0
LINE
  5
24B
330
243
100
AcDbEntity
  8
Border
100
AcDbLine
 10
17.0
 20
11.0
 30
0.0
 11
16.5
 21
11.0
 31
0.0
  0
LINE
  5
24C
330
243
100
AcDbEntity
  8
Border
100
AcDbLine
 10
0.5
 20
11.0
 30
0.0
 11
0.0
 21
11.0
 31
0.0
  0
LINE
  5
24D
330
243
100
AcDbEntity
  8
Border
100
AcDbLine
 10
16.38
 20
10.62
 30
0.0
 11
0.62
 21
10.62
 31
0.0
  0
LINE
  5
24E
330
243
100
AcDbEntity
  8
Border
100
AcDbLine
 10
0.0
 20
11.0
 30
0.0
 11
0.0
 21
10.5
 31
0.0
  0
LINE
  5
24F
330
243
100
AcDbEntity
  8
Border
100
AcDbLine
 10
0.0
 20
0.5
 30
0.0
 11
0.0
 21
0.0
 31
0.0
  0
LINE
  5
250
330
243
100
AcDbEntity
  8
Border
100
AcDbLine
 10
0.62
 20
10.62
 30
0.0
 11
0.62
 21
0.38
 31
0.0
  0
LINE
  5
251
330
243
100
AcDbEntity
  8
Border
100
AcDbLine
 10
8.413397
 20
0.23
 30
0.0
 11
8.586603
 21
0.23
 31
0.0
  0
LINE
  5
252
330
243
100
AcDbEntity
  8
Border
100
AcDbLine
 10
8.5
 20
0.38
 30
0.0
 11
8.5
 21
0.13
 31
0.0
  0
LINE
  5
253
330
243
100
AcDbEntity
  8
Border
100
AcDbLine
 10
8.5
 20
0.38
 30
0.0
 11
8.413397
 21
0.23
 31
0.0
  0
LINE
  5
254
330
243
100
AcDbEntity
  8
Border
100
AcDbLine
 10
8.5
 20
0.38
 30
0.0
 11
8.586603
 21
0.23
 31
0.0
  0
LINE
  5
255
330
243
100
AcDbEntity
  8
Border
100
AcDbLine
 10
0.47
 20
5.586603
 30
0.0
 11
0.47
 21
5.413397
 31
0.0
  0
LINE
  5
256
330
243
100
AcDbEntity
  8
Border
100
AcDbLine
 10
0.62
 20
5.5
 30
0.0
 11
0.37
 21
5.5
 31
0.0
  0
LINE
  5
257
330
243
100
AcDbEntity
  8
Border
100
AcDbLine
 10
0.62
 20
5.5
 30
0.0
 11
0.47
 21
5.586603
 31
0.0
  0
LINE
  5
258
330
243
100
AcDbEntity
  8
Border
100
AcDbLine
 10
0.62
 20
5.5
 30
0.0
 11
0.47
 21
5.413397
 31
0.0
  0
LINE
  5
259
330
243
100
AcDbEntity
  8
Border
100
AcDbLine
 10
16.53
 20
5.586603
 30
0.0
 11
16.53
 21
5.413397
 31
0.0
  0
LINE
  5
25A
330
243
100
AcDbEntity
  8
Border
100
AcDbLine
 10
16.38
 20
5.5
 30
0.0
 11
16.63
 21
5.5
 31
0.0
  0
LINE
  5
25B
330
243
100
AcDbEntity
  8
Border
100
AcDbLine
 10
16.38
 20
5.5
 30
0.0
 11
16.53
 21
5.586603
 31
0.0
  0
LINE
  5
25C
330
243
100
AcDbEntity
  8
Border
100
AcDbLine
 10
16.38
 20
5.5
 30
0.0
 11
16.53
 21
5.413397
 31
0.0
  0
LINE
  5
25D
330
243
100
AcDbEntity
  8
Border
100
AcDbLine
 10
8.413397
 20
10.77
 30
0.0
 11
8.586603
 21
10.77
 31
0.0
  0
LINE
  5
25E
330
243
100
AcDbEntity
  8
Border
100
AcDbLine
 10
8.5
 20
10.62
 30
0.0
 11
8.5
 21
10.87
 31
0.0
  0
LINE
  5
25F
330
243
100
AcDbEntity
  8
Border
100
AcDbLine
 10
8.5
 20
10.62
 30
0.0
 11
8.413397
 21
10.77
 31
0.0
  0
LINE
  5
260
330
243
100
AcDbEntity
  8
Border
100
AcDbLine
 10
8.5
 20
10.62
 30
0.0
 11
8.586603
 21
10.77
 31
0.0
  0
ENDBLK
  5
261
330
243
100
AcDbEntity
  8
0
100
AcDbBlockEnd
  0
BLOCK
  5
265
330
264
100
AcDbEntity
  8
0
100
AcDbBlockBegin
  2
*D6
 70
     1
 10
0.0
 20
0.0
 30
0.0
  3
*D6
  1

  0
LINE
  5
266
330
264
100
AcDbEntity
  8
Dimensions
440
 16777216
370
    -2
100
AcDbLine
 10
7.200178
 20
7.117514
 30
0.0
 11
5.493677
 21
7.117514
 31
0.0
  0
LINE
  5
267
330
264
100
AcDbEntity
  8
Dimensions
440
 16777216
370
    -2
100
AcDbLine
 10
7.075178
 20
2.992514
 30
0.0
 11
5.493677
 21
2.992514
 31
0.0
  0
LINE
  5
268
330
264
100
AcDbEntity
  8
Dimensions
440
 16777216
370
    -2
100
AcDbLine
 10
5.593677
 20
6.997514
 30
0.0
 11
5.593677
 21
5.256528
 31
0.0
  0
LINE
  5
269
330
264
100
AcDbEntity
  8
Dimensions
440
 16777216
370
    -2
100
AcDbLine
 10
5.593677
 20
3.112514
 30
0.0
 11
5.593677
 21
4.8535
 31
0.0
  0
SOLID
  5
26A
330
264
100
AcDbEntity
  8
Dimensions
440
 16777216
100
AcDbTrace
 10
5.573677
 20
6.997514
 30
0.0
 11
5.613677
 21
6.997514
 31
0.0
 12
5.593677
 22
7.117514
 32
0.0
 13
5.593677
 23
7.117514
 33
0.0
  0
SOLID
  5
26B
330
264
100
AcDbEntity
  8
Dimensions
440
 16777216
100
AcDbTrace
 10
5.573677
 20
3.112514
 30
0.0
 11
5.613677
 21
3.112514
 31
0.0
 12
5.593677
 22
2.992514
 32
0.0
 13
5.593677
 23
2.992514
 33
0.0
  0
MTEXT
  5
26C
330
264
100
AcDbEntity
  8
Dimensions
440
 16777216
100
AcDbMText
 10
5.593677
 20
5.055014
 30
0.0
 40
0.12
 41
0.0
 46
0.0
 71
     5
 72
     1
  1
\A1;4{\H1x;\S1/8;}in
 73
     1
 44
1.0
  0
POINT
  5
26D
330
264
100
AcDbEntity
  8
Defpoints
 62
     0
440
 16777216
100
AcDbPoint
 10
7.250178
 20
7.117514
 30
0.0
  0
POINT
  5
26E
330
264
100
AcDbEntity
  8
Defpoints
 62
     0
440
 16777216
100
AcDbPoint
 10
7.125178
 20
2.992514
 30
0.0
  0
POINT
  5
26F
330
264
100
AcDbEntity
  8
Defpoints
 62
     0
440
 16777216
100
AcDbPoint
 10
5.593677
 20
2.992514
 30
0.0
  0
ENDBLK
  5
270
330
264
100
AcDbEntity
  8
0
100
AcDbBlockEnd
  0
BLOCK
  5
273
330
272
100
AcDbEntity
  8
0
100
AcDbBlockBegin
  2
*D7
 70
     1
 10
0.0
 20
0.0
 30
0.0
  3
*D7
  1

  0
LINE
  5
274
330
272
100
AcDbEntity
  8
Dimensions
440
 16777216
370
    -2
100
AcDbLine
 10
7.125178
 20
7.042514
 30
0.0
 11
7.125178
 21
7.771336
 31
0.0
  0
LINE
  5
275
330
272
100
AcDbEntity
  8
Dimensions
440
 16777216
370
    -2
100
AcDbLine
 10
9.875178
 20
7.042514
 30
0.0
 11
9.875178
 21
7.771336
 31
0.0
  0
LINE
  5
276
330
272
100
AcDbEntity
  8
Dimensions
440
 16777216
370
    -2
100
AcDbLine
 10
7.245178
 20
7.671336
 30
0.0
 11
8.291037
 21
7.671336
 31
0.0
  0
LINE
  5
277
330
272
100
AcDbEntity
  8
Dimensions
440
 16777216
370
    -2
100
AcDbLine
 10
9.755178
 20
7.671336
 30
0.0
 11
8.709319
 21
7.671336
 31
0.0
  0
SOLID
  5
278
330
272
100
AcDbEntity
  8
Dimensions
440
 16777216
100
AcDbTrace
 10
7.245178
 20
7.691336
 30
0.0
 11
7.245178
 21
7.651336
 31
0.0
 12
7.125178
 22
7.671336
 32
0.0
 13
7.125178
 23
7.671336
 33
0.0
  0
SOLID
  5
279
330
272
100
AcDbEntity
  8
Dimensions
440
 16777216
100
AcDbTrace
 10
9.755178
 20
7.691336
 30
0.0
 11
9.755178
 21
7.651336
 31
0.0
 12
9.875178
 22
7.671336
 32
0.0
 13
9.875178
 23
7.671336
 33
0.0
  0
MTEXT
  5
27A
330
272
100
AcDbEntity
  8
Dimensions
440
 16777216
100
AcDbMText
 10
8.500178
 20
7.671336
 30
0.0
 40
0.12
 41
0.0
 46
0.0
 71
     5
 72
     1
  1
\A1;2{\H1x;\S3/4;}in
 73
     1
 44
1.0
  0
POINT
  5
27B
330
272
100
AcDbEntity
  8
Defpoints
 62
     0
440
 16777216
100
AcDbPoint
 10
7.125178
 20
6.992514
 30
0.0
  0
POINT
  5
27C
330
272
100
AcDbEntity
  8
Defpoints
 62
     0
440
 16777216
100
AcDbPoint
 10
9.875178
 20
6.992514
 30
0.0
  0
POINT
  5
27D
330
272
100
AcDbEntity
  8
Defpoints
 62
     0
440
 16777216
100
AcDbPoint
 10
9.875178
 20
7.671336
 30
0.0
  0
ENDBLK
  5
27E
330
272
100
AcDbEntity
  8
0
100
AcDbBlockEnd
  0
BLOCK
  5
281
330
280
100
AcDbEntity
  8
0
100
AcDbBlockBegin
  2
*D8
 70
     1
 10
0.0
 20
0.0
 30
0.0
  3
*D8
  1

  0
LINE
  5
282
330
280
100
AcDbEntity
  8
Dimensions
440
 16777216
370
    -2
100
AcDbLine
 10
7.937661
 20
3.594284
 30
0.0
 11
7.937612
 21
6.250744
 31
0.0
  0
LINE
  5
283
330
280
100
AcDbEntity
  8
Dimensions
440
 16777216
370
    -2
100
AcDbLine
 10
9.062661
 20
3.594305
 30
0.0
 11
9.062612
 21
6.250765
 31
0.0
  0
LINE
  5
284
330
280
100
AcDbEntity
  8
Dimensions
440
 16777216
370
    -2
100
AcDbLine
 10
8.057614
 20
6.150746
 30
0.0
 11
8.299645
 21
6.150751
 31
0.0
  0
LINE
  5
285
330
280
100
AcDbEntity
  8
Dimensions
440
 16777216
370
    -2
100
AcDbLine
 10
8.942614
 20
6.150763
 30
0.0
 11
8.700654
 21
6.150758
 31
0.0
  0
SOLID
  5
286
330
280
100
AcDbEntity
  8
Dimensions
440
 16777216
100
AcDbTrace
 10
8.057613
 20
6.170746
 30
0.0
 11
8.057614
 21
6.130746
 31
0.0
 12
7.937614
 22
6.150744
 32
0.0
 13
7.937614
 23
6.150744
 33
0.0
  0
SOLID
  5
287
330
280
100
AcDbEntity
  8
Dimensions
440
 16777216
100
AcDbTrace
 10
8.942613
 20
6.170763
 30
0.0
 11
8.942614
 21
6.130763
 31
0.0
 12
9.062614
 22
6.150765
 32
0.0
 13
9.062614
 23
6.150765
 33
0.0
  0
MTEXT
  5
288
330
280
100
AcDbEntity
  8
Dimensions
440
 16777216
100
AcDbMText
 10
8.50015
 20
6.150754
 30
0.0
 40
0.12
 41
0.0
 46
0.0
 71
     5
 72
     1
  1
\A1;1{\H1x;\S1/8;}in
 73
     1
 44
1.0
  0
POINT
  5
289
330
280
100
AcDbEntity
  8
Defpoints
 62
     0
440
 16777216
100
AcDbPoint
 10
7.937662
 20
3.544284
 30
0.0
  0
POINT
  5
28A
330
280
100
AcDbEntity
  8
Defpoints
 62
     0
440
 16777216
100
AcDbPoint
 10
9.062662
 20
3.544305
 30
0.0
  0
POINT
  5
28B
330
280
100
AcDbEntity
  8
Defpoints
 62
     0
440
 16777216
100
AcDbPoint
 10
9.062614
 20
6.150765
 30
0.0
  0
ENDBLK
  5
28C
330
280
100
AcDbEntity
  8
0
100
AcDbBlockEnd
  0
BLOCK
  5
28F
330
28E
100
AcDbEntity
  8
0
100
AcDbBlockBegin
  2
*D9
 70
     1
 10
0.0
 20
0.0
 30
0.0
  3
*D9
  1

  0
LINE
  5
290
330
28E
100
AcDbEntity
  8
Dimensions
440
 16777216
370
    -2
100
AcDbLine
 10
8.187678
 20
3.355014
 30
0.0
 11
8.187678
 21
5.240071
 31
0.0
  0
LINE
  5
291
330
28E
100
AcDbEntity
  8
Dimensions
440
 16777216
370
    -2
100
AcDbLine
 10
8.812678
 20
3.355014
 30
0.0
 11
8.812678
 21
5.240071
 31
0.0
  0
LINE
  5
292
330
28E
100
AcDbEntity
  8
Dimensions
440
 16777216
370
    -2
100
AcDbLine
 10
8.307678
 20
5.140071
 30
0.0
 11
8.336917
 21
5.140071
 31
0.0
  0
LINE
  5
293
330
28E
100
AcDbEntity
  8
Dimensions
440
 16777216
370
    -2
100
AcDbLine
 10
8.692678
 20
5.140071
 30
0.0
 11
8.663439
 21
5.140071
 31
0.0
  0
SOLID
  5
294
330
28E
100
AcDbEntity
  8
Dimensions
440
 16777216
100
AcDbTrace
 10
8.307678
 20
5.160071
 30
0.0
 11
8.307678
 21
5.120071
 31
0.0
 12
8.187678
 22
5.140071
 32
0.0
 13
8.187678
 23
5.140071
 33
0.0
  0
SOLID
  5
295
330
28E
100
AcDbEntity
  8
Dimensions
440
 16777216
100
AcDbTrace
 10
8.692678
 20
5.160071
 30
0.0
 11
8.692678
 21
5.120071
 31
0.0
 12
8.812678
 22
5.140071
 32
0.0
 13
8.812678
 23
5.140071
 33
0.0
  0
MTEXT
  5
296
330
28E
100
AcDbEntity
  8
Dimensions
440
 16777216
100
AcDbMText
 10
8.500178
 20
5.140071
 30
0.0
 40
0.12
 41
0.0
 46
0.0
 71
     5
 72
     1
  1
\A1;{\H1x;\S5/8;}in
 73
     1
 44
1.0
  0
POINT
  5
297
330
28E
100
AcDbEntity
  8
Defpoints
 62
     0
440
 16777216
100
AcDbPoint
 10
8.187678
 20
3.305014
 30
0.0
  0
POINT
  5
298
330
28E
100
AcDbEntity
  8
Defpoints
 62
     0
440
 16777216
100
AcDbPoint
 10
8.812678
 20
3.305014
 30
0.0
  0
POINT
  5
299
330
28E
100
AcDbEntity
  8
Defpoints
 62
     0
440
 16777216
100
AcDbPoint
 10
8.812678
 20
5.140071
 30
0.0
  0
ENDBLK
  5
29A
330
28E
100
AcDbEntity
  8
0
100
AcDbBlockEnd
  0
BLOCK
  5
29D
330
29C
100
AcDbEntity
  8
0
100
AcDbBlockBegin
  2
*D10
 70
     1
 10
0.0
 20
0.0
 30
0.0
  3
*D10
  1

  0
LINE
  5
29E
330
29C
100
AcDbEntity
  8
Dimensions
440
 16777216
370
    -2
100
AcDbLine
 10
14.5
 20
9.198945
 30
0.0
 11
14.5
 21
9.435677
 31
0.0
  0
LINE
  5
29F
330
29C
100
AcDbEntity
  8
Dimensions
440
 16777216
370
    -2
100
AcDbLine
 10
14.2
 20
9.130195
 30
0.0
 11
14.2
 21
9.435677
 31
0.0
  0
LINE
  5
2A0
330
29C
100
AcDbEntity
  8
Dimensions
440
 16777216
370
    -2
100
AcDbLine
 10
14.62
 20
9.335677
 30
0.0
 11
14.74
 21
9.335677
 31
0.0
  0
LINE
  5
2A1
330
29C
100
AcDbEntity
  8
Dimensions
440
 16777216
370
    -2
100
AcDbLine
 10
14.08
 20
9.335677
 30
0.0
 11
13.96
 21
9.335677
 31
0.0
  0
SOLID
  5
2A2
330
29C
100
AcDbEntity
  8
Dimensions
440
 16777216
100
AcDbTrace
 10
14.62
 20
9.355677
 30
0.0
 11
14.62
 21
9.315677
 31
0.0
 12
14.5
 22
9.335677
 32
0.0
 13
14.5
 23
9.335677
 33
0.0
  0
SOLID
  5
2A3
330
29C
100
AcDbEntity
  8
Dimensions
440
 16777216
100
AcDbTrace
 10
14.08
 20
9.355677
 30
0.0
 11
14.08
 21
9.315677
 31
0.0
 12
14.2
 22
9.335677
 32
0.0
 13
14.2
 23
9.335677
 33
0.0
  0
MTEXT
  5
2A4
330
29C
100
AcDbEntity
  8
Dimensions
440
 16777216
100
AcDbMText
 10
14.35
 20
9.335677
 30
0.0
 40
0.12
 41
0.0
 46
0.0
 71
     5
 72
     1
  1
\A1;6in
 73
     1
 44
1.0
  0
POINT
  5
2A5
330
29C
100
AcDbEntity
  8
Defpoints
 62
     0
440
 16777216
100
AcDbPoint
 10
14.5
 20
9.148945
 30
0.0
  0
POINT
  5
2A6
330
29C
100
AcDbEntity
  8
Defpoints
 62
     0
440
 16777216
100
AcDbPoint
 10
14.2
 20
9.080195
 30
0.0
  0
POINT
  5
2A7
330
29C
100
AcDbEntity
  8
Defpoints
 62
     0
440
 16777216
100
AcDbPoint
 10
14.2
 20
9.335677
 30
0.0
  0
ENDBLK
  5
2A8
330
29C
100
AcDbEntity
  8
0
100
AcDbBlockEnd
  0
BLOCK
  5
2AB
330
2AA
100
AcDbEntity
  8
0
100
AcDbBlockBegin
  2
*D11
 70
     1
 10
0.0
 20
0.0
 30
0.0
  3
*D11
  1

  0
LINE
  5
2AC
330
2AA
100
AcDbEntity
  8
Dimensions
440
 16777216
370
    -2
100
AcDbLine
 10
14.2
 20
9.130195
 30
0.0
 11
14.2
 21
9.770403
 31
0.0
  0
LINE
  5
2AD
330
2AA
100
AcDbEntity
  8
Dimensions
440
 16777216
370
    -2
100
AcDbLine
 10
13.6
 20
9.130195
 30
0.0
 11
13.6
 21
9.770403
 31
0.0
  0
LINE
  5
2AE
330
2AA
100
AcDbEntity
  8
Dimensions
440
 16777216
370
    -2
100
AcDbLine
 10
14.32
 20
9.670403
 30
0.0
 11
14.44
 21
9.670403
 31
0.0
  0
LINE
  5
2AF
330
2AA
100
AcDbEntity
  8
Dimensions
440
 16777216
370
    -2
100
AcDbLine
 10
13.48
 20
9.670403
 30
0.0
 11
13.36
 21
9.670403
 31
0.0
  0
SOLID
  5
2B0
330
2AA
100
AcDbEntity
  8
Dimensions
440
 16777216
100
AcDbTrace
 10
14.32
 20
9.690403
 30
0.0
 11
14.32
 21
9.650403
 31
0.0
 12
14.2
 22
9.670403
 32
0.0
 13
14.2
 23
9.670403
 33
0.0
  0
SOLID
  5
2B1
330
2AA
100
AcDbEntity
  8
Dimensions
440
 16777216
100
AcDbTrace
 10
13.48
 20
9.690403
 30
0.0
 11
13.48
 21
9.650403
 31
0.0
 12
13.6
 22
9.670403
 32
0.0
 13
13.6
 23
9.670403
 33
0.0
  0
MTEXT
  5
2B2
330
2AA
100
AcDbEntity
  8
Dimensions
440
 16777216
100
AcDbMText
 10
13.9
 20
9.670403
 30
0.0
 40
0.12
 41
0.0
 46
0.0
 71
     5
 72
     1
  1
\A1;12in
 73
     1
 44
1.0
  0
POINT
  5
2B3
330
2AA
100
AcDbEntity
  8
Defpoints
 62
     0
440
 16777216
100
AcDbPoint
 10
14.2
 20
9.080195
 30
0.0
  0
POINT
  5
2B4
330
2AA
100
AcDbEntity
  8
Defpoints
 62
     0
440
 16777216
100
AcDbPoint
 10
13.6
 20
9.080195
 30
0.0
  0
POINT
  5
2B5
330
2AA
100
AcDbEntity
  8
Defpoints
 62
     0
440
 16777216
100
AcDbPoint
 10
13.6
 20
9.670403
 30
0.0
  0
ENDBLK
  5
2B6
330
2AA
100
AcDbEntity
  8
0
100
AcDbBlockEnd
  0
BLOCK
  5
2B9
330
2B8
100
AcDbEntity
  8
0
100
AcDbBlockBegin
  2
*D12
 70
     1
 10
0.0
 20
0.0
 30
0.0
  3
*D12
  1

  0
LINE
  5
2BA
330
2B8
100
AcDbEntity
  8
Dimensions
440
 16777216
370
    -2
100
AcDbLine
 10
2.5
 20
9.198945
 30
0.0
 11
2.5
 21
9.454786
 31
0.0
  0
LINE
  5
2BB
330
2B8
100
AcDbEntity
  8
Dimensions
440
 16777216
370
    -2
100
AcDbLine
 10
2.8
 20
9.130195
 30
0.0
 11
2.8
 21
9.454786
 31
0.0
  0
LINE
  5
2BC
330
2B8
100
AcDbEntity
  8
Dimensions
440
 16777216
370
    -2
100
AcDbLine
 10
2.38
 20
9.354786
 30
0.0
 11
2.26
 21
9.354786
 31
0.0
  0
LINE
  5
2BD
330
2B8
100
AcDbEntity
  8
Dimensions
440
 16777216
370
    -2
100
AcDbLine
 10
2.92
 20
9.354786
 30
0.0
 11
3.04
 21
9.354786
 31
0.0
  0
SOLID
  5
2BE
330
2B8
100
AcDbEntity
  8
Dimensions
440
 16777216
100
AcDbTrace
 10
2.38
 20
9.374786
 30
0.0
 11
2.38
 21
9.334786
 31
0.0
 12
2.5
 22
9.354786
 32
0.0
 13
2.5
 23
9.354786
 33
0.0
  0
SOLID
  5
2BF
330
2B8
100
AcDbEntity
  8
Dimensions
440
 16777216
100
AcDbTrace
 10
2.92
 20
9.374786
 30
0.0
 11
2.92
 21
9.334786
 31
0.0
 12
2.8
 22
9.354786
 32
0.0
 13
2.8
 23
9.354786
 33
0.0
  0
MTEXT
  5
2C0
330
2B8
100
AcDbEntity
  8
Dimensions
440
 16777216
100
AcDbMText
 10
2.65
 20
9.354786
 30
0.0
 40
0.12
 41
0.0
 46
0.0
 71
     5
 72
     1
  1
\A1;6in
 73
     1
 44
1.0
  0
POINT
  5
2C1
330
2B8
100
AcDbEntity
  8
Defpoints
 62
     0
440
 16777216
100
AcDbPoint
 10
2.5
 20
9.148945
 30
0.0
  0
POINT
  5
2C2
330
2B8
100
AcDbEntity
  8
Defpoints
 62
     0
440
 16777216
100
AcDbPoint
 10
2.8
 20
9.080195
 30
0.0
  0
POINT
  5
2C3
330
2B8
100
AcDbEntity
  8
Defpoints
 62
     0
440
 16777216
100
AcDbPoint
 10
2.8
 20
9.354786
 30
0.0
  0
ENDBLK
  5
2C4
330
2B8
100
AcDbEntity
  8
0
100
AcDbBlockEnd
  0
BLOCK
  5
2C7
330
2C6
100
AcDbEntity
  8
0
100
AcDbBlockBegin
  2
*D13
 70
     1
 10
0.0
 20
0.0
 30
0.0
  3
*D13
  1

  0
LINE
  5
2C8
330
2C6
100
AcDbEntity
  8
Dimensions
440
 16777216
370
    -2
100
AcDbLine
 10
2.8
 20
9.130195
 30
0.0
 11
2.8
 21
9.708769
 31
0.0
  0
LINE
  5
2C9
330
2C6
100
AcDbEntity
  8
Dimensions
440
 16777216
370
    -2
100
AcDbLine
 10
3.4
 20
9.130195
 30
0.0
 11
3.4
 21
9.708769
 31
0.0
  0
LINE
  5
2CA
330
2C6
100
AcDbEntity
  8
Dimensions
440
 16777216
370
    -2
100
AcDbLine
 10
2.68
 20
9.608769
 30
0.0
 11
2.56
 21
9.608769
 31
0.0
  0
LINE
  5
2CB
330
2C6
100
AcDbEntity
  8
Dimensions
440
 16777216
370
    -2
100
AcDbLine
 10
3.52
 20
9.608769
 30
0.0
 11
3.64
 21
9.608769
 31
0.0
  0
SOLID
  5
2CC
330
2C6
100
AcDbEntity
  8
Dimensions
440
 16777216
100
AcDbTrace
 10
2.68
 20
9.628769
 30
0.0
 11
2.68
 21
9.588769
 31
0.0
 12
2.8
 22
9.608769
 32
0.0
 13
2.8
 23
9.608769
 33
0.0
  0
SOLID
  5
2CD
330
2C6
100
AcDbEntity
  8
Dimensions
440
 16777216
100
AcDbTrace
 10
3.52
 20
9.628769
 30
0.0
 11
3.52
 21
9.588769
 31
0.0
 12
3.4
 22
9.608769
 32
0.0
 13
3.4
 23
9.608769
 33
0.0
  0
MTEXT
  5
2CE
330
2C6
100
AcDbEntity
  8
Dimensions
440
 16777216
100
AcDbMText
 10
3.060618
 20
9.608769
 30
0.0
 40
0.12
 41
0.0
 46
0.0
 71
     5
 72
     1
  1
\A1;12in
 73
     1
 44
1.0
  0
POINT
  5
2CF
330
2C6
100
AcDbEntity
  8
Defpoints
 62
     0
440
 16777216
100
AcDbPoint
 10
2.8
 20
9.080195
 30
0.0
  0
POINT
  5
2D0
330
2C6
100
AcDbEntity
  8
Defpoints
 62
     0
440
 16777216
100
AcDbPoint
 10
3.4
 20
9.080195
 30
0.0
  0
POINT
  5
2D1
330
2C6
100
AcDbEntity
  8
Defpoints
 62
     0
440
 16777216
100
AcDbPoint
 10
3.4
 20
9.608769
 30
0.0
  0
ENDBLK
  5
2D2
330
2C6
100
AcDbEntity
  8
0
100
AcDbBlockEnd
  0
BLOCK
  5
2D5
330
2D4
100
AcDbEntity
  8
0
100
AcDbBlockBegin
  2
*D14
 70
     1
 10
0.0
 20
0.0
 30
0.0
  3
*D14
  1

  0
LINE
  5
2D6
330
2D4
100
AcDbEntity
  8
Dimensions
440
 16777216
370
    -2
100
AcDbLine
 10
14.5
 20
9.198945
 30
0.0
 11
14.5
 21
10.124118
 31
0.0
  0
LINE
  5
2D7
330
2D4
100
AcDbEntity
  8
Dimensions
440
 16777216
370
    -2
100
AcDbLine
 10
2.5
 20
9.198945
 30
0.0
 11
2.5
 21
10.124118
 31
0.0
  0
LINE
  5
2D8
330
2D4
100
AcDbEntity
  8
Dimensions
440
 16777216
370
    -2
100
AcDbLine
 10
14.38
 20
10.024118
 30
0.0
 11
8.756862
 21
10.024118
 31
0.0
  0
LINE
  5
2D9
330
2D4
100
AcDbEntity
  8
Dimensions
440
 16777216
370
    -2
100
AcDbLine
 10
2.62
 20
10.024118
 30
0.0
 11
8.243138
 21
10.024118
 31
0.0
  0
SOLID
  5
2DA
330
2D4
100
AcDbEntity
  8
Dimensions
440
 16777216
100
AcDbTrace
 10
14.38
 20
10.044118
 30
0.0
 11
14.38
 21
10.004118
 31
0.0
 12
14.5
 22
10.024118
 32
0.0
 13
14.5
 23
10.024118
 33
0.0
  0
SOLID
  5
2DB
330
2D4
100
AcDbEntity
  8
Dimensions
440
 16777216
100
AcDbTrace
 10
2.62
 20
10.044118
 30
0.0
 11
2.62
 21
10.004118
 31
0.0
 12
2.5
 22
10.024118
 32
0.0
 13
2.5
 23
10.024118
 33
0.0
  0
MTEXT
  5
2DC
330
2D4
100
AcDbEntity
  8
Dimensions
440
 16777216
100
AcDbMText
 10
8.5
 20
10.024118
 30
0.0
 40
0.12
 41
0.0
 46
0.0
 71
     5
 72
     1
  1
\A1;240in
 73
     1
 44
1.0
  0
POINT
  5
2DD
330
2D4
100
AcDbEntity
  8
Defpoints
 62
     0
440
 16777216
100
AcDbPoint
 10
14.5
 20
9.148945
 30
0.0
  0
POINT
  5
2DE
330
2D4
100
AcDbEntity
  8
Defpoints
 62
     0
440
 16777216
100
AcDbPoint
 10
2.5
 20
9.148945
 30
0.0
  0
POINT
  5
2DF
330
2D4
100
AcDbEntity
  8
Defpoints
 62
     0
440
 16777216
100
AcDbPoint
 10
2.5
 20
10.024118
 30
0.0
  0
ENDBLK
  5
2E0
330
2D4
100
AcDbEntity
  8
0
100
AcDbBlockEnd
  0
BLOCK
  5
2ED
330
2EC
100
AcDbEntity
  8
0
100
AcDbBlockBegin
  2
*D15
 70
     1
 10
0.0
 20
0.0
 30
0.0
  3
*D15
  1

  0
LINE
  5
2EE
330
2EC
100
AcDbEntity
  8
Dimensions
440
 16777216
370
    -2
100
AcDbLine
 10
4.166005
 20
7.150061
 30
0.0
 11
3.973031
 21
7.150061
 31
0.0
  0
LINE
  5
2EF
330
2EC
100
AcDbEntity
  8
Dimensions
440
 16777216
370
    -2
100
AcDbLine
 10
3.973031
 20
7.150061
 30
0.0
 11
3.647829
 21
5.687994
 31
0.0
  0
MTEXT
  5
2F0
330
2EC
100
AcDbEntity
  8
Dimensions
440
 16777216
100
AcDbMText
 10
4.437438
 20
7.150061
 30
0.0
 40
0.12
 41
0.0
 46
0.0
 71
     5
 72
     1
  1
\A1;∅1{\H1x;\S1/8;}in
 73
     1
 44
1.0
  0
SOLID
  5
2F1
330
2EC
100
AcDbEntity
  8
Dimensions
440
 16777216
100
AcDbTrace
 10
3.628306
 20
5.692336
 30
0.0
 11
3.667352
 21
5.683652
 31
0.0
 12
3.621775
 22
5.570857
 32
0.0
 13
3.621775
 23
5.570857
 33
0.0
  0
POINT
  5
2F2
330
2EC
100
AcDbEntity
  8
Defpoints
 62
     0
440
 16777216
100
AcDbPoint
 10
3.621775
 20
5.570857
 30
0.0
  0
POINT
  5
2F3
330
2EC
100
AcDbEntity
  8
Defpoints
 62
     0
440
 16777216
100
AcDbPoint
 10
3.377515
 20
4.472694
 30
0.0
  0
ENDBLK
  5
2F4
330
2EC
100
AcDbEntity
  8
0
100
AcDbBlockEnd
  0
BLOCK
  5
2F7
330
2F6
100
AcDbEntity
  8
0
100
AcDbBlockBegin
  2
*D16
 70
     1
 10
0.0
 20
0.0
 30
0.0
  3
*D16
  1

  0
LINE
  5
2F8
330
2F6
100
AcDbEntity
  8
Dimensions
440
 16777216
370
    -2
100
AcDbLine
 10
2.761493
 20
6.820918
 30
0.0
 11
2.954222
 21
6.820918
 31
0.0
  0
LINE
  5
2F9
330
2F6
100
AcDbEntity
  8
Dimensions
440
 16777216
370
    -2
100
AcDbLine
 10
2.954222
 20
6.820918
 30
0.0
 11
3.374158
 21
5.435659
 31
0.0
  0
MTEXT
  5
2FA
330
2F6
100
AcDbEntity
  8
Dimensions
440
 16777216
100
AcDbMText
 10
2.536432
 20
6.820918
 30
0.0
 40
0.12
 41
0.0
 46
0.0
 71
     5
 72
     1
  1
\A1;∅{\H1x;\S5/8;}in
 73
     1
 44
1.0
  0
SOLID
  5
2FB
330
2F6
100
AcDbEntity
  8
Dimensions
440
 16777216
100
AcDbTrace
 10
3.393298
 20
5.441461
 30
0.0
 11
3.355019
 21
5.429857
 31
0.0
 12
3.408972
 22
5.32082
 32
0.0
 13
3.408972
 23
5.32082
 33
0.0
  0
POINT
  5
2FC
330
2F6
100
AcDbEntity
  8
Defpoints
 62
     0
440
 16777216
100
AcDbPoint
 10
3.408972
 20
5.32082
 30
0.0
  0
POINT
  5
2FD
330
2F6
100
AcDbEntity
  8
Defpoints
 62
     0
440
 16777216
100
AcDbPoint
 10
3.59029
 20
4.722699
 30
0.0
  0
ENDBLK
  5
2FE
330
2F6
100
AcDbEntity
  8
0
100
AcDbBlockEnd
  0
BLOCK
  5
301
330
300
100
AcDbEntity
  8
0
100
AcDbBlockBegin
  2
*D17
 70
     1
 10
0.0
 20
0.0
 30
0.0
  3
*D17
  1

  0
LINE
  5
302
330
300
100
AcDbEntity
  8
Dimensions
440
 16777216
370
    -2
100
AcDbLine
 10
7.936978
 20
3.742514
 30
0.0
 11
5.79336
 21
3.742514
 31
0.0
  0
LINE
  5
303
330
300
100
AcDbEntity
  8
Dimensions
440
 16777216
370
    -2
100
AcDbLine
 10
7.075178
 20
2.992514
 30
0.0
 11
5.79336
 21
2.992514
 31
0.0
  0
LINE
  5
304
330
300
100
AcDbEntity
  8
Dimensions
440
 16777216
370
    -2
100
AcDbLine
 10
5.89336
 20
3.862514
 30
0.0
 11
5.89336
 21
3.982514
 31
0.0
  0
LINE
  5
305
330
300
100
AcDbEntity
  8
Dimensions
440
 16777216
370
    -2
100
AcDbLine
 10
5.89336
 20
2.872514
 30
0.0
 11
5.89336
 21
2.752514
 31
0.0
  0
SOLID
  5
306
330
300
100
AcDbEntity
  8
Dimensions
440
 16777216
100
AcDbTrace
 10
5.87336
 20
3.862514
 30
0.0
 11
5.91336
 21
3.862514
 31
0.0
 12
5.89336
 22
3.742514
 32
0.0
 13
5.89336
 23
3.742514
 33
0.0
  0
SOLID
  5
307
330
300
100
AcDbEntity
  8
Dimensions
440
 16777216
100
AcDbTrace
 10
5.87336
 20
2.872514
 30
0.0
 11
5.91336
 21
2.872514
 31
0.0
 12
5.89336
 22
2.992514
 32
0.0
 13
5.89336
 23
2.992514
 33
0.0
  0
MTEXT
  5
308
330
300
100
AcDbEntity
  8
Dimensions
440
 16777216
100
AcDbMText
 10
5.89336
 20
3.367514
 30
0.0
 40
0.12
 41
0.0
 46
0.0
 71
     5
 72
     1
  1
\A1;{\H1x;\S3/4;}in
 73
     1
 44
1.0
  0
POINT
  5
309
330
300
100
AcDbEntity
  8
Defpoints
 62
     0
440
 16777216
100
AcDbPoint
 10
7.986978
 20
3.742514
 30
0.0
  0
POINT
  5
30A
330
300
100
AcDbEntity
  8
Defpoints
 62
     0
440
 16777216
100
AcDbPoint
 10
7.125178
 20
2.992514
 30
0.0
  0
POINT
  5
30B
330
300
100
AcDbEntity
  8
Defpoints
 62
     0
440
 16777216
100
AcDbPoint
 10
5.89336
 20
2.992514
 30
0.0
  0
ENDBLK
  5
30C
330
300
100
AcDbEntity
  8
0
100
AcDbBlockEnd
  0
BLOCK
  5
30F
330
30E
100
AcDbEntity
  8
0
100
AcDbBlockBegin
  2
*D18
 70
     1
 10
0.0
 20
0.0
 30
0.0
  3
*D18
  1

  0
LINE
  5
310
330
30E
100
AcDbEntity
  8
Dimensions
440
 16777216
370
    -2
100
AcDbLine
 10
7.936978
 20
3.742514
 30
0.0
 11
6.291301
 21
3.742514
 31
0.0
  0
LINE
  5
311
330
30E
100
AcDbEntity
  8
Dimensions
440
 16777216
370
    -2
100
AcDbLine
 10
7.922678
 20
3.305014
 30
0.0
 11
6.291301
 21
3.305014
 31
0.0
  0
LINE
  5
312
330
30E
100
AcDbEntity
  8
Dimensions
440
 16777216
370
    -2
100
AcDbLine
 10
6.391301
 20
3.862514
 30
0.0
 11
6.391301
 21
3.982514
 31
0.0
  0
LINE
  5
313
330
30E
100
AcDbEntity
  8
Dimensions
440
 16777216
370
    -2
100
AcDbLine
 10
6.391301
 20
3.185014
 30
0.0
 11
6.391301
 21
3.065014
 31
0.0
  0
SOLID
  5
314
330
30E
100
AcDbEntity
  8
Dimensions
440
 16777216
100
AcDbTrace
 10
6.371301
 20
3.862514
 30
0.0
 11
6.411301
 21
3.862514
 31
0.0
 12
6.391301
 22
3.742514
 32
0.0
 13
6.391301
 23
3.742514
 33
0.0
  0
SOLID
  5
315
330
30E
100
AcDbEntity
  8
Dimensions
440
 16777216
100
AcDbTrace
 10
6.371301
 20
3.185014
 30
0.0
 11
6.411301
 21
3.185014
 31
0.0
 12
6.391301
 22
3.305014
 32
0.0
 13
6.391301
 23
3.305014
 33
0.0
  0
MTEXT
  5
316
330
30E
100
AcDbEntity
  8
Dimensions
440
 16777216
100
AcDbMText
 10
6.391301
 20
3.523764
 30
0.0
 40
0.12
 41
0.0
 46
0.0
 71
     5
 72
     1
  1
\A1;{\H1x;\S1/2;}in
 73
     1
 44
1.0
  0
POINT
  5
317
330
30E
100
AcDbEntity
  8
Defpoints
 62
     0
440
 16777216
100
AcDbPoint
 10
7.986978
 20
3.742514
 30
0.0
  0
POINT
  5
318
330
30E
100
AcDbEntity
  8
Defpoints
 62
     0
440
 16777216
100
AcDbPoint
 10
7.972678
 20
3.305014
 30
0.0
  0
POINT
  5
319
330
30E
100
AcDbEntity
  8
Defpoints
 62
     0
440
 16777216
100
AcDbPoint
 10
6.391301
 20
3.305014
 30
0.0
  0
ENDBLK
  5
31A
330
30E
100
AcDbEntity
  8
0
100
AcDbBlockEnd
  0
BLOCK
  5
31D
330
31C
100
AcDbEntity
  8
0
100
AcDbBlockBegin
  2
*D19
 70
     1
 10
0.0
 20
0.0
 30
0.0
  3
*D19
  1

  0
LINE
  5
31E
330
31C
100
AcDbEntity
  8
Dimensions
440
 16777216
370
    -2
100
AcDbLine
 10
7.922678
 20
3.305014
 30
0.0
 11
6.746353
 21
3.305014
 31
0.0
  0
LINE
  5
31F
330
31C
100
AcDbEntity
  8
Dimensions
440
 16777216
370
    -2
100
AcDbLine
 10
7.075178
 20
2.992514
 30
0.0
 11
6.746353
 21
2.992514
 31
0.0
  0
LINE
  5
320
330
31C
100
AcDbEntity
  8
Dimensions
440
 16777216
370
    -2
100
AcDbLine
 10
6.846353
 20
3.425014
 30
0.0
 11
6.846353
 21
3.545014
 31
0.0
  0
LINE
  5
321
330
31C
100
AcDbEntity
  8
Dimensions
440
 16777216
370
    -2
100
AcDbLine
 10
6.846353
 20
2.872514
 30
0.0
 11
6.846353
 21
2.752514
 31
0.0
  0
SOLID
  5
322
330
31C
100
AcDbEntity
  8
Dimensions
440
 16777216
100
AcDbTrace
 10
6.826353
 20
3.425014
 30
0.0
 11
6.866353
 21
3.425014
 31
0.0
 12
6.846353
 22
3.305014
 32
0.0
 13
6.846353
 23
3.305014
 33
0.0
  0
SOLID
  5
323
330
31C
100
AcDbEntity
  8
Dimensions
440
 16777216
100
AcDbTrace
 10
6.826353
 20
2.872514
 30
0.0
 11
6.866353
 21
2.872514
 31
0.0
 12
6.846353
 22
2.992514
 32
0.0
 13
6.846353
 23
2.992514
 33
0.0
  0
MTEXT
  5
324
330
31C
100
AcDbEntity
  8
Dimensions
440
 16777216
100
AcDbMText
 10
6.846353
 20
3.148764
 30
0.0
 40
0.12
 41
0.0
 46
0.0
 71
     5
 72
     1
  1
\A1;{\H1x;\S3/8;}in
 73
     1
 44
1.0
  0
POINT
  5
325
330
31C
100
AcDbEntity
  8
Defpoints
 62
     0
440
 16777216
100
AcDbPoint
 10
7.972678
 20
3.305014
 30
0.0
  0
POINT
  5
326
330
31C
100
AcDbEntity
  8
Defpoints
 62
     0
440
 16777216
100
AcDbPoint
 10
7.125178
 20
2.992514
 30
0.0
  0
POINT
  5
327
330
31C
100
AcDbEntity
  8
Defpoints
 62
     0
440
 16777216
100
AcDbPoint
 10
6.846353
 20
2.992514
 30
0.0
  0
ENDBLK
  5
328
330
31C
100
AcDbEntity
  8
0
100
AcDbBlockEnd
  0
BLOCK
  5
333
330
332
100
AcDbEntity
  8
0
100
AcDbBlockBegin
  2
*D21
 70
     1
 10
0.0
 20
0.0
 30
0.0
  3
*D21
  1

  0
LINE
  5
753
330
332
100
AcDbEntity
  8
Dimensions
440
 16777216
370
    -2
100
AcDbLine
 10
7.200178
 20
7.117514
 30
0.0
 11
5.493677
 21
7.117514
 31
0.0
  0
LINE
  5
754
330
332
100
AcDbEntity
  8
Dimensions
440
 16777216
370
    -2
100
AcDbLine
 10
7.075178
 20
2.992514
 30
0.0
 11
5.493677
 21
2.992514
 31
0.0
  0
LINE
  5
755
330
332
100
AcDbEntity
  8
Dimensions
440
 16777216
370
    -2
100
AcDbLine
 10
5.593677
 20
6.997514
 30
0.0
 11
5.593677
 21
5.256528
 31
0.0
  0
LINE
  5
756
330
332
100
AcDbEntity
  8
Dimensions
440
 16777216
370
    -2
100
AcDbLine
 10
5.593677
 20
3.112514
 30
0.0
 11
5.593677
 21
4.8535
 31
0.0
  0
SOLID
  5
757
330
332
100
AcDbEntity
  8
Dimensions
440
 16777216
100
AcDbTrace
 10
5.573677
 20
6.997514
 30
0.0
 11
5.613677
 21
6.997514
 31
0.0
 12
5.593677
 22
7.117514
 32
0.0
 13
5.593677
 23
7.117514
 33
0.0
  0
SOLID
  5
758
330
332
100
AcDbEntity
  8
Dimensions
440
 16777216
100
AcDbTrace
 10
5.573677
 20
3.112514
 30
0.0
 11
5.613677
 21
3.112514
 31
0.0
 12
5.593677
 22
2.992514
 32
0.0
 13
5.593677
 23
2.992514
 33
0.0
  0
MTEXT
  5
759
330
332
100
AcDbEntity
  8
Dimensions
440
 16777216
100
AcDbMText
 10
5.593677
 20
5.055014
 30
0.0
 40
0.12
 41
0.0
 46
0.0
 71
     5
 72
     1
  1
\A1;4{\H1x;\S1/8;}in
 73
     1
 44
1.0
  0
POINT
  5
75A
330
332
100
AcDbEntity
  8
Defpoints
 62
     0
440
 16777216
100
AcDbPoint
 10
7.250178
 20
7.117514
 30
0.0
  0
POINT
  5
75B
330
332
100
AcDbEntity
  8
Defpoints
 62
     0
440
 16777216
100
AcDbPoint
 10
7.125178
 20
2.992514
 30
0.0
  0
POINT
  5
75C
330
332
100
AcDbEntity
  8
Defpoints
 62
     0
440
 16777216
100
AcDbPoint
 10
5.593677
 20
2.992514
 30
0.0
  0
ENDBLK
  5
334
330
332
100
AcDbEntity
  8
0
100
AcDbBlockEnd
  0
BLOCK
  5
340
330
33F
100
AcDbEntity
  8
0
100
AcDbBlockBegin
  2
*D22
 70
     1
 10
0.0
 20
0.0
 30
0.0
  3
*D22
  1

  0
LINE
  5
75D
330
33F
100
AcDbEntity
  8
Dimensions
440
 16777216
370
    -2
100
AcDbLine
 10
7.125178
 20
7.042514
 30
0.0
 11
7.125178
 21
7.771336
 31
0.0
  0
LINE
  5
75E
330
33F
100
AcDbEntity
  8
Dimensions
440
 16777216
370
    -2
100
AcDbLine
 10
9.875178
 20
7.042514
 30
0.0
 11
9.875178
 21
7.771336
 31
0.0
  0
LINE
  5
75F
330
33F
100
AcDbEntity
  8
Dimensions
440
 16777216
370
    -2
100
AcDbLine
 10
7.245178
 20
7.671336
 30
0.0
 11
8.291037
 21
7.671336
 31
0.0
  0
LINE
  5
760
330
33F
100
AcDbEntity
  8
Dimensions
440
 16777216
370
    -2
100
AcDbLine
 10
9.755178
 20
7.671336
 30
0.0
 11
8.709319
 21
7.671336
 31
0.0
  0
SOLID
  5
761
330
33F
100
AcDbEntity
  8
Dimensions
440
 16777216
100
AcDbTrace
 10
7.245178
 20
7.691336
 30
0.0
 11
7.245178
 21
7.651336
 31
0.0
 12
7.125178
 22
7.671336
 32
0.0
 13
7.125178
 23
7.671336
 33
0.0
  0
SOLID
  5
762
330
33F
100
AcDbEntity
  8
Dimensions
440
 16777216
100
AcDbTrace
 10
9.755178
 20
7.691336
 30
0.0
 11
9.755178
 21
7.651336
 31
0.0
 12
9.875178
 22
7.671336
 32
0.0
 13
9.875178
 23
7.671336
 33
0.0
  0
MTEXT
  5
763
330
33F
100
AcDbEntity
  8
Dimensions
440
 16777216
100
AcDbMText
 10
8.500178
 20
7.671336
 30
0.0
 40
0.12
 41
0.0
 46
0.0
 71
     5
 72
     1
  1
\A1;2{\H1x;\S3/4;}in
 73
     1
 44
1.0
  0
POINT
  5
764
330
33F
100
AcDbEntity
  8
Defpoints
 62
     0
440
 16777216
100
AcDbPoint
 10
7.125178
 20
6.992514
 30
0.0
  0
POINT
  5
765
330
33F
100
AcDbEntity
  8
Defpoints
 62
     0
440
 16777216
100
AcDbPoint
 10
9.875178
 20
6.992514
 30
0.0
  0
POINT
  5
766
330
33F
100
AcDbEntity
  8
Defpoints
 62
     0
440
 16777216
100
AcDbPoint
 10
9.875178
 20
7.671336
 30
0.0
  0
ENDBLK
  5
341
330
33F
100
AcDbEntity
  8
0
100
AcDbBlockEnd
  0
BLOCK
  5
34D
330
34C
100
AcDbEntity
  8
0
100
AcDbBlockBegin
  2
*D23
 70
     1
 10
0.0
 20
0.0
 30
0.0
  3
*D23
  1

  0
LINE
  5
767
330
34C
100
AcDbEntity
  8
Dimensions
440
 16777216
370
    -2
100
AcDbLine
 10
7.937661
 20
3.594284
 30
0.0
 11
7.937612
 21
6.250744
 31
0.0
  0
LINE
  5
768
330
34C
100
AcDbEntity
  8
Dimensions
440
 16777216
370
    -2
100
AcDbLine
 10
9.062661
 20
3.594305
 30
0.0
 11
9.062612
 21
6.250765
 31
0.0
  0
LINE
  5
769
330
34C
100
AcDbEntity
  8
Dimensions
440
 16777216
370
    -2
100
AcDbLine
 10
8.057614
 20
6.150746
 30
0.0
 11
8.299645
 21
6.150751
 31
0.0
  0
LINE
  5
76A
330
34C
100
AcDbEntity
  8
Dimensions
440
 16777216
370
    -2
100
AcDbLine
 10
8.942614
 20
6.150763
 30
0.0
 11
8.700654
 21
6.150758
 31
0.0
  0
SOLID
  5
76B
330
34C
100
AcDbEntity
  8
Dimensions
440
 16777216
100
AcDbTrace
 10
8.057613
 20
6.170746
 30
0.0
 11
8.057614
 21
6.130746
 31
0.0
 12
7.937614
 22
6.150744
 32
0.0
 13
7.937614
 23
6.150744
 33
0.0
  0
SOLID
  5
76C
330
34C
100
AcDbEntity
  8
Dimensions
440
 16777216
100
AcDbTrace
 10
8.942613
 20
6.170763
 30
0.0
 11
8.942614
 21
6.130763
 31
0.0
 12
9.062614
 22
6.150765
 32
0.0
 13
9.062614
 23
6.150765
 33
0.0
  0
MTEXT
  5
76D
330
34C
100
AcDbEntity
  8
Dimensions
440
 16777216
100
AcDbMText
 10
8.50015
 20
6.150754
 30
0.0
 40
0.12
 41
0.0
 46
0.0
 71
     5
 72
     1
  1
\A1;1{\H1x;\S1/8;}in
 73
     1
 44
1.0
  0
POINT
  5
76E
330
34C
100
AcDbEntity
  8
Defpoints
 62
     0
440
 16777216
100
AcDbPoint
 10
7.937662
 20
3.544284
 30
0.0
  0
POINT
  5
76F
330
34C
100
AcDbEntity
  8
Defpoints
 62
     0
440
 16777216
100
AcDbPoint
 10
9.062662
 20
3.544305
 30
0.0
  0
POINT
  5
770
330
34C
100
AcDbEntity
  8
Defpoints
 62
     0
440
 16777216
100
AcDbPoint
 10
9.062614
 20
6.150765
 30
0.0
  0
ENDBLK
  5
34E
330
34C
100
AcDbEntity
  8
0
100
AcDbBlockEnd
  0
BLOCK
  5
35A
330
359
100
AcDbEntity
  8
0
100
AcDbBlockBegin
  2
*D24
 70
     1
 10
0.0
 20
0.0
 30
0.0
  3
*D24
  1

  0
LINE
  5
771
330
359
100
AcDbEntity
  8
Dimensions
440
 16777216
370
    -2
100
AcDbLine
 10
8.187678
 20
3.355014
 30
0.0
 11
8.187678
 21
5.240071
 31
0.0
  0
LINE
  5
772
330
359
100
AcDbEntity
  8
Dimensions
440
 16777216
370
    -2
100
AcDbLine
 10
8.812678
 20
3.355014
 30
0.0
 11
8.812678
 21
5.240071
 31
0.0
  0
LINE
  5
773
330
359
100
AcDbEntity
  8
Dimensions
440
 16777216
370
    -2
100
AcDbLine
 10
8.307678
 20
5.140071
 30
0.0
 11
8.336917
 21
5.140071
 31
0.0
  0
LINE
  5
774
330
359
100
AcDbEntity
  8
Dimensions
440
 16777216
370
    -2
100
AcDbLine
 10
8.692678
 20
5.140071
 30
0.0
 11
8.663439
 21
5.140071
 31
0.0
  0
SOLID
  5
775
330
359
100
AcDbEntity
  8
Dimensions
440
 16777216
100
AcDbTrace
 10
8.307678
 20
5.160071
 30
0.0
 11
8.307678
 21
5.120071
 31
0.0
 12
8.187678
 22
5.140071
 32
0.0
 13
8.187678
 23
5.140071
 33
0.0
  0
SOLID
  5
776
330
359
100
AcDbEntity
  8
Dimensions
440
 16777216
100
AcDbTrace
 10
8.692678
 20
5.160071
 30
0.0
 11
8.692678
 21
5.120071
 31
0.0
 12
8.812678
 22
5.140071
 32
0.0
 13
8.812678
 23
5.140071
 33
0.0
  0
MTEXT
  5
777
330
359
100
AcDbEntity
  8
Dimensions
440
 16777216
100
AcDbMText
 10
8.500178
 20
5.140071
 30
0.0
 40
0.12
 41
0.0
 46
0.0
 71
     5
 72
     1
  1
\A1;{\H1x;\S5/8;}in
 73
     1
 44
1.0
  0
POINT
  5
778
330
359
100
AcDbEntity
  8
Defpoints
 62
     0
440
 16777216
100
AcDbPoint
 10
8.187678
 20
3.305014
 30
0.0
  0
POINT
  5
779
330
359
100
AcDbEntity
  8
Defpoints
 62
     0
440
 16777216
100
AcDbPoint
 10
8.812678
 20
3.305014
 30
0.0
  0
POINT
  5
77A
330
359
100
AcDbEntity
  8
Defpoints
 62
     0
440
 16777216
100
AcDbPoint
 10
8.812678
 20
5.140071
 30
0.0
  0
ENDBLK
  5
35B
330
359
100
AcDbEntity
  8
0
100
AcDbBlockEnd
  0
BLOCK
  5
367
330
366
100
AcDbEntity
  8
0
100
AcDbBlockBegin
  2
*D25
 70
     1
 10
0.0
 20
0.0
 30
0.0
  3
*D25
  1

  0
LINE
  5
77B
330
366
100
AcDbEntity
  8
Dimensions
440
 16777216
370
    -2
100
AcDbLine
 10
14.5
 20
9.198945
 30
0.0
 11
14.5
 21
9.435677
 31
0.0
  0
LINE
  5
77C
330
366
100
AcDbEntity
  8
Dimensions
440
 16777216
370
    -2
100
AcDbLine
 10
14.2
 20
9.130195
 30
0.0
 11
14.2
 21
9.435677
 31
0.0
  0
LINE
  5
77D
330
366
100
AcDbEntity
  8
Dimensions
440
 16777216
370
    -2
100
AcDbLine
 10
14.62
 20
9.335677
 30
0.0
 11
14.74
 21
9.335677
 31
0.0
  0
LINE
  5
77E
330
366
100
AcDbEntity
  8
Dimensions
440
 16777216
370
    -2
100
AcDbLine
 10
14.08
 20
9.335677
 30
0.0
 11
13.96
 21
9.335677
 31
0.0
  0
SOLID
  5
77F
330
366
100
AcDbEntity
  8
Dimensions
440
 16777216
100
AcDbTrace
 10
14.62
 20
9.355677
 30
0.0
 11
14.62
 21
9.315677
 31
0.0
 12
14.5
 22
9.335677
 32
0.0
 13
14.5
 23
9.335677
 33
0.0
  0
SOLID
  5
780
330
366
100
AcDbEntity
  8
Dimensions
440
 16777216
100
AcDbTrace
 10
14.08
 20
9.355677
 30
0.0
 11
14.08
 21
9.315677
 31
0.0
 12
14.2
 22
9.335677
 32
0.0
 13
14.2
 23
9.335677
 33
0.0
  0
MTEXT
  5
781
330
366
100
AcDbEntity
  8
Dimensions
440
 16777216
100
AcDbMText
 10
14.35
 20
9.335677
 30
0.0
 40
0.12
 41
0.0
 46
0.0
 71
     5
 72
     1
  1
\A1;6in
 73
     1
 44
1.0
  0
POINT
  5
782
330
366
100
AcDbEntity
  8
Defpoints
 62
     0
440
 16777216
100
AcDbPoint
 10
14.5
 20
9.148945
 30
0.0
  0
POINT
  5
783
330
366
100
AcDbEntity
  8
Defpoints
 62
     0
440
 16777216
100
AcDbPoint
 10
14.2
 20
9.080195
 30
0.0
  0
POINT
  5
784
330
366
100
AcDbEntity
  8
Defpoints
 62
     0
440
 16777216
100
AcDbPoint
 10
14.2
 20
9.335677
 30
0.0
  0
ENDBLK
  5
368
330
366
100
AcDbEntity
  8
0
100
AcDbBlockEnd
  0
BLOCK
  5
374
330
373
100
AcDbEntity
  8
0
100
AcDbBlockBegin
  2
*D26
 70
     1
 10
0.0
 20
0.0
 30
0.0
  3
*D26
  1

  0
LINE
  5
785
330
373
100
AcDbEntity
  8
Dimensions
440
 16777216
370
    -2
100
AcDbLine
 10
14.2
 20
9.130195
 30
0.0
 11
14.2
 21
9.770403
 31
0.0
  0
LINE
  5
786
330
373
100
AcDbEntity
  8
Dimensions
440
 16777216
370
    -2
100
AcDbLine
 10
13.6
 20
9.130195
 30
0.0
 11
13.6
 21
9.770403
 31
0.0
  0
LINE
  5
787
330
373
100
AcDbEntity
  8
Dimensions
440
 16777216
370
    -2
100
AcDbLine
 10
14.32
 20
9.670403
 30
0.0
 11
14.44
 21
9.670403
 31
0.0
  0
LINE
  5
788
330
373
100
AcDbEntity
  8
Dimensions
440
 16777216
370
    -2
100
AcDbLine
 10
13.48
 20
9.670403
 30
0.0
 11
13.36
 21
9.670403
 31
0.0
  0
SOLID
  5
789
330
373
100
AcDbEntity
  8
Dimensions
440
 16777216
100
AcDbTrace
 10
14.32
 20
9.690403
 30
0.0
 11
14.32
 21
9.650403
 31
0.0
 12
14.2
 22
9.670403
 32
0.0
 13
14.2
 23
9.670403
 33
0.0
  0
SOLID
  5
78A
330
373
100
AcDbEntity
  8
Dimensions
440
 16777216
100
AcDbTrace
 10
13.48
 20
9.690403
 30
0.0
 11
13.48
 21
9.650403
 31
0.0
 12
13.6
 22
9.670403
 32
0.0
 13
13.6
 23
9.670403
 33
0.0
  0
MTEXT
  5
78B
330
373
100
AcDbEntity
  8
Dimensions
440
 16777216
100
AcDbMText
 10
13.9
 20
9.670403
 30
0.0
 40
0.12
 41
0.0
 46
0.0
 71
     5
 72
     1
  1
\A1;12in
 73
     1
 44
1.0
  0
POINT
  5
78C
330
373
100
AcDbEntity
  8
Defpoints
 62
     0
440
 16777216
100
AcDbPoint
 10
14.2
 20
9.080195
 30
0.0
  0
POINT
  5
78D
330
373
100
AcDbEntity
  8
Defpoints
 62
     0
440
 16777216
100
AcDbPoint
 10
13.6
 20
9.080195
 30
0.0
  0
POINT
  5
78E
330
373
100
AcDbEntity
  8
Defpoints
 62
     0
440
 16777216
100
AcDbPoint
 10
13.6
 20
9.670403
 30
0.0
  0
ENDBLK
  5
375
330
373
100
AcDbEntity
  8
0
100
AcDbBlockEnd
  0
BLOCK
  5
381
330
380
100
AcDbEntity
  8
0
100
AcDbBlockBegin
  2
*D27
 70
     1
 10
0.0
 20
0.0
 30
0.0
  3
*D27
  1

  0
LINE
  5
78F
330
380
100
AcDbEntity
  8
Dimensions
440
 16777216
370
    -2
100
AcDbLine
 10
2.5
 20
9.198945
 30
0.0
 11
2.5
 21
9.454786
 31
0.0
  0
LINE
  5
790
330
380
100
AcDbEntity
  8
Dimensions
440
 16777216
370
    -2
100
AcDbLine
 10
2.8
 20
9.130195
 30
0.0
 11
2.8
 21
9.454786
 31
0.0
  0
LINE
  5
791
330
380
100
AcDbEntity
  8
Dimensions
440
 16777216
370
    -2
100
AcDbLine
 10
2.38
 20
9.354786
 30
0.0
 11
2.26
 21
9.354786
 31
0.0
  0
LINE
  5
792
330
380
100
AcDbEntity
  8
Dimensions
440
 16777216
370
    -2
100
AcDbLine
 10
2.92
 20
9.354786
 30
0.0
 11
3.04
 21
9.354786
 31
0.0
  0
SOLID
  5
793
330
380
100
AcDbEntity
  8
Dimensions
440
 16777216
100
AcDbTrace
 10
2.38
 20
9.374786
 30
0.0
 11
2.38
 21
9.334786
 31
0.0
 12
2.5
 22
9.354786
 32
0.0
 13
2.5
 23
9.354786
 33
0.0
  0
SOLID
  5
794
330
380
100
AcDbEntity
  8
Dimensions
440
 16777216
100
AcDbTrace
 10
2.92
 20
9.374786
 30
0.0
 11
2.92
 21
9.334786
 31
0.0
 12
2.8
 22
9.354786
 32
0.0
 13
2.8
 23
9.354786
 33
0.0
  0
MTEXT
  5
795
330
380
100
AcDbEntity
  8
Dimensions
440
 16777216
100
AcDbMText
 10
2.65
 20
9.354786
 30
0.0
 40
0.12
 41
0.0
 46
0.0
 71
     5
 72
     1
  1
\A1;6in
 73
     1
 44
1.0
  0
POINT
  5
796
330
380
100
AcDbEntity
  8
Defpoints
 62
     0
440
 16777216
100
AcDbPoint
 10
2.5
 20
9.148945
 30
0.0
  0
POINT
  5
797
330
380
100
AcDbEntity
  8
Defpoints
 62
     0
440
 16777216
100
AcDbPoint
 10
2.8
 20
9.080195
 30
0.0
  0
POINT
  5
798
330
380
100
AcDbEntity
  8
Defpoints
 62
     0
440
 16777216
100
AcDbPoint
 10
2.8
 20
9.354786
 30
0.0
  0
ENDBLK
  5
382
330
380
100
AcDbEntity
  8
0
100
AcDbBlockEnd
  0
BLOCK
  5
38E
330
38D
100
AcDbEntity
  8
0
100
AcDbBlockBegin
  2
*D28
 70
     1
 10
0.0
 20
0.0
 30
0.0
  3
*D28
  1

  0
LINE
  5
799
330
38D
100
AcDbEntity
  8
Dimensions
440
 16777216
370
    -2
100
AcDbLine
 10
2.8
 20
9.130195
 30
0.0
 11
2.8
 21
9.708769
 31
0.0
  0
LINE
  5
79A
330
38D
100
AcDbEntity
  8
Dimensions
440
 16777216
370
    -2
100
AcDbLine
 10
3.4
 20
9.130195
 30
0.0
 11
3.4
 21
9.708769
 31
0.0
  0
LINE
  5
79B
330
38D
100
AcDbEntity
  8
Dimensions
440
 16777216
370
    -2
100
AcDbLine
 10
2.68
 20
9.608769
 30
0.0
 11
2.56
 21
9.608769
 31
0.0
  0
LINE
  5
79C
330
38D
100
AcDbEntity
  8
Dimensions
440
 16777216
370
    -2
100
AcDbLine
 10
3.52
 20
9.608769
 30
0.0
 11
3.64
 21
9.608769
 31
0.0
  0
SOLID
  5
79D
330
38D
100
AcDbEntity
  8
Dimensions
440
 16777216
100
AcDbTrace
 10
2.68
 20
9.628769
 30
0.0
 11
2.68
 21
9.588769
 31
0.0
 12
2.8
 22
9.608769
 32
0.0
 13
2.8
 23
9.608769
 33
0.0
  0
SOLID
  5
79E
330
38D
100
AcDbEntity
  8
Dimensions
440
 16777216
100
AcDbTrace
 10
3.52
 20
9.628769
 30
0.0
 11
3.52
 21
9.588769
 31
0.0
 12
3.4
 22
9.608769
 32
0.0
 13
3.4
 23
9.608769
 33
0.0
  0
MTEXT
  5
79F
330
38D
100
AcDbEntity
  8
Dimensions
440
 16777216
100
AcDbMText
 10
3.060618
 20
9.608769
 30
0.0
 40
0.12
 41
0.0
 46
0.0
 71
     5
 72
     1
  1
\A1;12in
 73
     1
 44
1.0
  0
POINT
  5
7A0
330
38D
100
AcDbEntity
  8
Defpoints
 62
     0
440
 16777216
100
AcDbPoint
 10
2.8
 20
9.080195
 30
0.0
  0
POINT
  5
7A1
330
38D
100
AcDbEntity
  8
Defpoints
 62
     0
440
 16777216
100
AcDbPoint
 10
3.4
 20
9.080195
 30
0.0
  0
POINT
  5
7A2
330
38D
100
AcDbEntity
  8
Defpoints
 62
     0
440
 16777216
100
AcDbPoint
 10
3.4
 20
9.608769
 30
0.0
  0
ENDBLK
  5
38F
330
38D
100
AcDbEntity
  8
0
100
AcDbBlockEnd
  0
BLOCK
  5
39B
330
39A
100
AcDbEntity
  8
0
100
AcDbBlockBegin
  2
*D29
 70
     1
 10
0.0
 20
0.0
 30
0.0
  3
*D29
  1

  0
LINE
  5
7A3
330
39A
100
AcDbEntity
  8
Dimensions
440
 16777216
370
    -2
100
AcDbLine
 10
14.5
 20
9.198945
 30
0.0
 11
14.5
 21
10.124118
 31
0.0
  0
LINE
  5
7A4
330
39A
100
AcDbEntity
  8
Dimensions
440
 16777216
370
    -2
100
AcDbLine
 10
2.5
 20
9.198945
 30
0.0
 11
2.5
 21
10.124118
 31
0.0
  0
LINE
  5
7A5
330
39A
100
AcDbEntity
  8
Dimensions
440
 16777216
370
    -2
100
AcDbLine
 10
14.38
 20
10.024118
 30
0.0
 11
8.756862
 21
10.024118
 31
0.0
  0
LINE
  5
7A6
330
39A
100
AcDbEntity
  8
Dimensions
440
 16777216
370
    -2
100
AcDbLine
 10
2.62
 20
10.024118
 30
0.0
 11
8.243138
 21
10.024118
 31
0.0
  0
SOLID
  5
7A7
330
39A
100
AcDbEntity
  8
Dimensions
440
 16777216
100
AcDbTrace
 10
14.38
 20
10.044118
 30
0.0
 11
14.38
 21
10.004118
 31
0.0
 12
14.5
 22
10.024118
 32
0.0
 13
14.5
 23
10.024118
 33
0.0
  0
SOLID
  5
7A8
330
39A
100
AcDbEntity
  8
Dimensions
440
 16777216
100
AcDbTrace
 10
2.62
 20
10.044118
 30
0.0
 11
2.62
 21
10.004118
 31
0.0
 12
2.5
 22
10.024118
 32
0.0
 13
2.5
 23
10.024118
 33
0.0
  0
MTEXT
  5
7A9
330
39A
100
AcDbEntity
  8
Dimensions
440
 16777216
100
AcDbMText
 10
8.5
 20
10.024118
 30
0.0
 40
0.12
 41
0.0
 46
0.0
 71
     5
 72
     1
  1
\A1;240in
 73
     1
 44
1.0
  0
POINT
  5
7AA
330
39A
100
AcDbEntity
  8
Defpoints
 62
     0
440
 16777216
100
AcDbPoint
 10
14.5
 20
9.148945
 30
0.0
  0
POINT
  5
7AB
330
39A
100
AcDbEntity
  8
Defpoints
 62
     0
440
 16777216
100
AcDbPoint
 10
2.5
 20
9.148945
 30
0.0
  0
POINT
  5
7AC
330
39A
100
AcDbEntity
  8
Defpoints
 62
     0
440
 16777216
100
AcDbPoint
 10
2.5
 20
10.024118
 30
0.0
  0
ENDBLK
  5
39C
330
39A
100
AcDbEntity
  8
0
100
AcDbBlockEnd
  0
BLOCK
  5
3A8
330
3A7
100
AcDbEntity
  8
0
100
AcDbBlockBegin
  2
*D30
 70
     1
 10
0.0
 20
0.0
 30
0.0
  3
*D30
  1

  0
LINE
  5
7AD
330
3A7
100
AcDbEntity
  8
Dimensions
440
 16777216
370
    -2
100
AcDbLine
 10
4.166005
 20
7.150061
 30
0.0
 11
3.973031
 21
7.150061
 31
0.0
  0
LINE
  5
7AE
330
3A7
100
AcDbEntity
  8
Dimensions
440
 16777216
370
    -2
100
AcDbLine
 10
3.973031
 20
7.150061
 30
0.0
 11
3.647829
 21
5.687994
 31
0.0
  0
MTEXT
  5
7AF
330
3A7
100
AcDbEntity
  8
Dimensions
440
 16777216
100
AcDbMText
 10
4.437438
 20
7.150061
 30
0.0
 40
0.12
 41
0.0
 46
0.0
 71
     5
 72
     1
  1
\A1;∅1{\H1x;\S1/8;}in
 73
     1
 44
1.0
  0
SOLID
  5
7B0
330
3A7
100
AcDbEntity
  8
Dimensions
440
 16777216
100
AcDbTrace
 10
3.628306
 20
5.692336
 30
0.0
 11
3.667352
 21
5.683652
 31
0.0
 12
3.621775
 22
5.570857
 32
0.0
 13
3.621775
 23
5.570857
 33
0.0
  0
POINT
  5
7B1
330
3A7
100
AcDbEntity
  8
Defpoints
 62
     0
440
 16777216
100
AcDbPoint
 10
3.621775
 20
5.570857
 30
0.0
  0
POINT
  5
7B2
330
3A7
100
AcDbEntity
  8
Defpoints
 62
     0
440
 16777216
100
AcDbPoint
 10
3.377515
 20
4.472694
 30
0.0
  0
ENDBLK
  5
3A9
330
3A7
100
AcDbEntity
  8
0
100
AcDbBlockEnd
  0
BLOCK
  5
3B1
330
3B0
100
AcDbEntity
  8
0
100
AcDbBlockBegin
  2
*D31
 70
     1
 10
0.0
 20
0.0
 30
0.0
  3
*D31
  1

  0
LINE
  5
7B3
330
3B0
100
AcDbEntity
  8
Dimensions
440
 16777216
370
    -2
100
AcDbLine
 10
2.761493
 20
6.820918
 30
0.0
 11
2.954222
 21
6.820918
 31
0.0
  0
LINE
  5
7B4
330
3B0
100
AcDbEntity
  8
Dimensions
440
 16777216
370
    -2
100
AcDbLine
 10
2.954222
 20
6.820918
 30
0.0
 11
3.374158
 21
5.435659
 31
0.0
  0
MTEXT
  5
7B5
330
3B0
100
AcDbEntity
  8
Dimensions
440
 16777216
100
AcDbMText
 10
2.536432
 20
6.820918
 30
0.0
 40
0.12
 41
0.0
 46
0.0
 71
     5
 72
     1
  1
\A1;∅{\H1x;\S5/8;}in
 73
     1
 44
1.0
  0
SOLID
  5
7B6
330
3B0
100
AcDbEntity
  8
Dimensions
440
 16777216
100
AcDbTrace
 10
3.393298
 20
5.441461
 30
0.0
 11
3.355019
 21
5.429857
 31
0.0
 12
3.408972
 22
5.32082
 32
0.0
 13
3.408972
 23
5.32082
 33
0.0
  0
POINT
  5
7B7
330
3B0
100
AcDbEntity
  8
Defpoints
 62
     0
440
 16777216
100
AcDbPoint
 10
3.408972
 20
5.32082
 30
0.0
  0
POINT
  5
7B8
330
3B0
100
AcDbEntity
  8
Defpoints
 62
     0
440
 16777216
100
AcDbPoint
 10
3.59029
 20
4.722699
 30
0.0
  0
ENDBLK
  5
3B2
330
3B0
100
AcDbEntity
  8
0
100
AcDbBlockEnd
  0
BLOCK
  5
3BA
330
3B9
100
AcDbEntity
  8
0
100
AcDbBlockBegin
  2
*D32
 70
     1
 10
0.0
 20
0.0
 30
0.0
  3
*D32
  1

  0
LINE
  5
7B9
330
3B9
100
AcDbEntity
  8
Dimensions
440
 16777216
370
    -2
100
AcDbLine
 10
7.936978
 20
3.742514
 30
0.0
 11
5.79336
 21
3.742514
 31
0.0
  0
LINE
  5
7BA
330
3B9
100
AcDbEntity
  8
Dimensions
440
 16777216
370
    -2
100
AcDbLine
 10
7.075178
 20
2.992514
 30
0.0
 11
5.79336
 21
2.992514
 31
0.0
  0
LINE
  5
7BB
330
3B9
100
AcDbEntity
  8
Dimensions
440
 16777216
370
    -2
100
AcDbLine
 10
5.89336
 20
3.862514
 30
0.0
 11
5.89336
 21
3.982514
 31
0.0
  0
LINE
  5
7BC
330
3B9
100
AcDbEntity
  8
Dimensions
440
 16777216
370
    -2
100
AcDbLine
 10
5.89336
 20
2.872514
 30
0.0
 11
5.89336
 21
2.752514
 31
0.0
  0
SOLID
  5
7BD
330
3B9
100
AcDbEntity
  8
Dimensions
440
 16777216
100
AcDbTrace
 10
5.87336
 20
3.862514
 30
0.0
 11
5.91336
 21
3.862514
 31
0.0
 12
5.89336
 22
3.742514
 32
0.0
 13
5.89336
 23
3.742514
 33
0.0
  0
SOLID
  5
7BE
330
3B9
100
AcDbEntity
  8
Dimensions
440
 16777216
100
AcDbTrace
 10
5.87336
 20
2.872514
 30
0.0
 11
5.91336
 21
2.872514
 31
0.0
 12
5.89336
 22
2.992514
 32
0.0
 13
5.89336
 23
2.992514
 33
0.0
  0
MTEXT
  5
7BF
330
3B9
100
AcDbEntity
  8
Dimensions
440
 16777216
100
AcDbMText
 10
5.89336
 20
3.367514
 30
0.0
 40
0.12
 41
0.0
 46
0.0
 71
     5
 72
     1
  1
\A1;{\H1x;\S3/4;}in
 73
     1
 44
1.0
  0
POINT
  5
7C0
330
3B9
100
AcDbEntity
  8
Defpoints
 62
     0
440
 16777216
100
AcDbPoint
 10
7.986978
 20
3.742514
 30
0.0
  0
POINT
  5
7C1
330
3B9
100
AcDbEntity
  8
Defpoints
 62
     0
440
 16777216
100
AcDbPoint
 10
7.125178
 20
2.992514
 30
0.0
  0
POINT
  5
7C2
330
3B9
100
AcDbEntity
  8
Defpoints
 62
     0
440
 16777216
100
AcDbPoint
 10
5.89336
 20
2.992514
 30
0.0
  0
ENDBLK
  5
3BB
330
3B9
100
AcDbEntity
  8
0
100
AcDbBlockEnd
  0
BLOCK
  5
3C7
330
3C6
100
AcDbEntity
  8
0
100
AcDbBlockBegin
  2
*D33
 70
     1
 10
0.0
 20
0.0
 30
0.0
  3
*D33
  1

  0
LINE
  5
7C3
330
3C6
100
AcDbEntity
  8
Dimensions
440
 16777216
370
    -2
100
AcDbLine
 10
7.936978
 20
3.742514
 30
0.0
 11
6.291301
 21
3.742514
 31
0.0
  0
LINE
  5
7C4
330
3C6
100
AcDbEntity
  8
Dimensions
440
 16777216
370
    -2
100
AcDbLine
 10
7.922678
 20
3.305014
 30
0.0
 11
6.291301
 21
3.305014
 31
0.0
  0
LINE
  5
7C5
330
3C6
100
AcDbEntity
  8
Dimensions
440
 16777216
370
    -2
100
AcDbLine
 10
6.391301
 20
3.862514
 30
0.0
 11
6.391301
 21
3.982514
 31
0.0
  0
LINE
  5
7C6
330
3C6
100
AcDbEntity
  8
Dimensions
440
 16777216
370
    -2
100
AcDbLine
 10
6.391301
 20
3.185014
 30
0.0
 11
6.391301
 21
3.065014
 31
0.0
  0
SOLID
  5
7C7
330
3C6
100
AcDbEntity
  8
Dimensions
440
 16777216
100
AcDbTrace
 10
6.371301
 20
3.862514
 30
0.0
 11
6.411301
 21
3.862514
 31
0.0
 12
6.391301
 22
3.742514
 32
0.0
 13
6.391301
 23
3.742514
 33
0.0
  0
SOLID
  5
7C8
330
3C6
100
AcDbEntity
  8
Dimensions
440
 16777216
100
AcDbTrace
 10
6.371301
 20
3.185014
 30
0.0
 11
6.411301
 21
3.185014
 31
0.0
 12
6.391301
 22
3.305014
 32
0.0
 13
6.391301
 23
3.305014
 33
0.0
  0
MTEXT
  5
7C9
330
3C6
100
AcDbEntity
  8
Dimensions
440
 16777216
100
AcDbMText
 10
6.391301
 20
3.523764
 30
0.0
 40
0.12
 41
0.0
 46
0.0
 71
     5
 72
     1
  1
\A1;{\H1x;\S1/2;}in
 73
     1
 44
1.0
  0
POINT
  5
7CA
330
3C6
100
AcDbEntity
  8
Defpoints
 62
     0
440
 16777216
100
AcDbPoint
 10
7.986978
 20
3.742514
 30
0.0
  0
POINT
  5
7CB
330
3C6
100
AcDbEntity
  8
Defpoints
 62
     0
440
 16777216
100
AcDbPoint
 10
7.972678
 20
3.305014
 30
0.0
  0
POINT
  5
7CC
330
3C6
100
AcDbEntity
  8
Defpoints
 62
     0
440
 16777216
100
AcDbPoint
 10
6.391301
 20
3.305014
 30
0.0
  0
ENDBLK
  5
3C8
330
3C6
100
AcDbEntity
  8
0
100
AcDbBlockEnd
  0
BLOCK
  5
3D4
330
3D3
100
AcDbEntity
  8
0
100
AcDbBlockBegin
  2
*D34
 70
     1
 10
0.0
 20
0.0
 30
0.0
  3
*D34
  1

  0
LINE
  5
7CD
330
3D3
100
AcDbEntity
  8
Dimensions
440
 16777216
370
    -2
100
AcDbLine
 10
7.922678
 20
3.305014
 30
0.0
 11
6.746353
 21
3.305014
 31
0.0
  0
LINE
  5
7CE
330
3D3
100
AcDbEntity
  8
Dimensions
440
 16777216
370
    -2
100
AcDbLine
 10
7.075178
 20
2.992514
 30
0.0
 11
6.746353
 21
2.992514
 31
0.0
  0
LINE
  5
7CF
330
3D3
100
AcDbEntity
  8
Dimensions
440
 16777216
370
    -2
100
AcDbLine
 10
6.846353
 20
3.425014
 30
0.0
 11
6.846353
 21
3.545014
 31
0.0
  0
LINE
  5
7D0
330
3D3
100
AcDbEntity
  8
Dimensions
440
 16777216
370
    -2
100
AcDbLine
 10
6.846353
 20
2.872514
 30
0.0
 11
6.846353
 21
2.752514
 31
0.0
  0
SOLID
  5
7D1
330
3D3
100
AcDbEntity
  8
Dimensions
440
 16777216
100
AcDbTrace
 10
6.826353
 20
3.425014
 30
0.0
 11
6.866353
 21
3.425014
 31
0.0
 12
6.846353
 22
3.305014
 32
0.0
 13
6.846353
 23
3.305014
 33
0.0
  0
SOLID
  5
7D2
330
3D3
100
AcDbEntity
  8
Dimensions
440
 16777216
100
AcDbTrace
 10
6.826353
 20
2.872514
 30
0.0
 11
6.866353
 21
2.872514
 31
0.0
 12
6.846353
 22
2.992514
 32
0.0
 13
6.846353
 23
2.992514
 33
0.0
  0
MTEXT
  5
7D3
330
3D3
100
AcDbEntity
  8
Dimensions
440
 16777216
100
AcDbMText
 10
6.846353
 20
3.148764
 30
0.0
 40
0.12
 41
0.0
 46
0.0
 71
     5
 72
     1
  1
\A1;{\H1x;\S3/8;}in
 73
     1
 44
1.0
  0
POINT
  5
7D4
330
3D3
100
AcDbEntity
  8
Defpoints
 62
     0
440
 16777216
100
AcDbPoint
 10
7.972678
 20
3.305014
 30
0.0
  0
POINT
  5
7D5
330
3D3
100
AcDbEntity
  8
Defpoints
 62
     0
440
 16777216
100
AcDbPoint
 10
7.125178
 20
2.992514
 30
0.0
  0
POINT
  5
7D6
330
3D3
100
AcDbEntity
  8
Defpoints
 62
     0
440
 16777216
100
AcDbPoint
 10
6.846353
 20
2.992514
 30
0.0
  0
ENDBLK
  5
3D5
330
3D3
100
AcDbEntity
  8
0
100
AcDbBlockEnd
  0
ENDSEC
  0
SECTION
  2
ENTITIES
  0
INSERT
  5
21C
330
70
100
AcDbEntity
  8
Titleblock
100
AcDbBlockReference
 66
     1
  2
Shower
 10
16.38
 20
0.38
 30
0.0
  0
ATTRIB
  5
23C
330
21C
100
AcDbEntity
  8
Titleblock
  6
Continuous
370
    25
100
AcDbText
 10
12.6925
 20
2.6925
 30
0.0
 40
0.12
  1
Railing Products and Mock Ups
100
AcDbAttribute
280
     0
  2
PROJECT
 70
     0
280
     1
1001
FD_ATT_APPNAME
1005
22A
  0
ATTRIB
  5
23D
330
21C
100
AcDbEntity
  8
Titleblock
  6
Continuous
370
    25
100
AcDbText
 10
14.6925
 20
1.0675
 30
0.0
 40
0.12
  1
8/13/2019
100
AcDbAttribute
280
     0
  2
DRAWN_DATE
 70
     0
280
     1
1001
FD_ATT_APPNAME
1005
22C
  0
ATTRIB
  5
23E
330
21C
100
AcDbEntity
  8
Titleblock
  6
Continuous
370
    25
100
AcDbText
 10
12.0675
 20
2.1925
 30
0.0
 40
0.3048
  1
A42-0073AEY20CB
100
AcDbAttribute
280
     0
  2
TITLE_1
 70
     0
280
     1
1001
FD_ATT_APPNAME
1005
22D
  0
ATTRIB
  5
23F
330
21C
100
AcDbEntity
  8
Titleblock
  6
Continuous
370
    25
100
AcDbText
 10
14.6925
 20
1.29994
 30
0.0
 40
0.12
  1
1:30
100
AcDbAttribute
280
     0
  2
SCALE
 70
     0
280
     1
1001
FD_ATT_APPNAME
1005
22E
  0
SEQEND
  5
240
330
21C
100
AcDbEntity
  8
Titleblock
  0
INSERT
  5
241
330
70
100
AcDbEntity
  8
Border
100
AcDbBlockReference
  2
ANSI_B_SHEET
 10
0.0
 20
0.0
 30
0.0
  0
DIMENSION
  5
262
330
70
100
AcDbEntity
  8
Dimensions
100
AcDbDimension
280
     0
  2
*D21
 10
5.593677
 20
2.992514
 30
0.0
 11
5.593677
 21
5.055014
 31
0.0
 70
   160
 71
     5
 42
4.125
 73
     0
 74
     0
 75
     0
  3
Standard
100
AcDbAlignedDimension
 13
7.250178
 23
7.117514
 33
0.0
 14
7.125178
 24
2.992514
 34
0.0
 50
90.0
100
AcDbRotatedDimension
1001
ACAD_DIMASSOC_CALC_DIMLFAC
1040
-1.0
1001
ACAD_DIMASSOC_DIMLFAC
1040
-1.0
1001
ACAD_DIMASSOC_OVERRIDDEN_DIMLFAC
1040
0.0
1001
ACAD_DSTYLE_DIMJAG_POSITION
1070
   387
1070
     0
1070
   389
1010
0.0
1020
0.0
1030
0.0
1001
ACAD
1000
DSTYLE
1002
{
1070
   144
1040
1.0
1002
}
  0
DIMENSION
  5
271
330
70
100
AcDbEntity
  8
Dimensions
100
AcDbDimension
280
     0
  2
*D22
 10
9.875178
 20
7.671336
 30
0.0
 11
8.500178
 21
7.671336
 31
0.0
 70
    33
 71
     5
 42
2.75
 73
     0
 74
     0
 75
     0
  3
Standard
100
AcDbAlignedDimension
 13
7.125178
 23
6.992514
 33
0.0
 14
9.875178
 24
6.992514
 34
0.0
1001
ACAD_DIMASSOC_CALC_DIMLFAC
1040
-1.0
1001
ACAD_DIMASSOC_DIMLFAC
1040
-1.0
1001
ACAD_DIMASSOC_OVERRIDDEN_DIMLFAC
1040
0.0
1001
ACAD_DSTYLE_DIMJAG_POSITION
1070
   387
1070
     0
1070
   389
1010
0.0
1020
0.0
1030
0.0
1001
ACAD
1000
DSTYLE
1002
{
1070
   144
1040
1.0
1070
   176
1070
   256
1070
   177
1070
   256
1002
}
  0
DIMENSION
  5
27F
330
70
100
AcDbEntity
  8
Dimensions
100
AcDbDimension
280
     0
  2
*D23
 10
9.062614
 20
6.150765
 30
0.0
 11
8.50015
 21
6.150754
 31
0.0
 70
   161
 71
     5
 42
1.125
 73
     0
 74
     0
 75
     0
  3
Standard
100
AcDbAlignedDimension
 13
7.937662
 23
3.544284
 33
0.0
 14
9.062662
 24
3.544305
 34
0.0
1001
ACAD_DIMASSOC_CALC_DIMLFAC
1040
-1.0
1001
ACAD_DIMASSOC_DIMLFAC
1040
-1.0
1001
ACAD_DIMASSOC_OVERRIDDEN_DIMLFAC
1040
0.0
1001
ACAD_DSTYLE_DIMJAG_POSITION
1070
   387
1070
     0
1070
   389
1010
0.0
1020
0.0
1030
0.0
1001
ACAD
1000
DSTYLE
1002
{
1070
   144
1040
1.0
1002
}
  0
DIMENSION
  5
28D
330
70
100
AcDbEntity
  8
Dimensions
100
AcDbDimension
280
     0
  2
*D24
 10
8.812678
 20
5.140071
 30
0.0
 11
8.500178
 21
5.140071
 31
0.0
 70
   161
 71
     5
 42
0.625
 73
     0
 74
     0
 75
     0
  3
Standard
100
AcDbAlignedDimension
 13
8.187678
 23
3.305014
 33
0.0
 14
8.812678
 24
3.305014
 34
0.0
1001
ACAD_DIMASSOC_CALC_DIMLFAC
1040
-1.0
1001
ACAD_DIMASSOC_DIMLFAC
1040
-1.0
1001
ACAD_DIMASSOC_OVERRIDDEN_DIMLFAC
1040
0.0
1001
ACAD_DSTYLE_DIMJAG_POSITION
1070
   387
1070
     0
1070
   389
1010
0.0
1020
0.0
1030
0.0
1001
ACAD
1000
DSTYLE
1002
{
1070
   144
1040
1.0
1002
}
  0
DIMENSION
  5
29B
330
70
100
AcDbEntity
  8
Dimensions
100
AcDbDimension
280
     0
  2
*D25
 10
14.2
 20
9.335677
 30
0.0
 11
14.35
 21
9.335677
 31
0.0
 70
   160
 71
     5
 42
6.0
 73
     0
 74
     0
 75
     0
  3
Standard
100
AcDbAlignedDimension
 13
14.5
 23
9.148945
 33
0.0
 14
14.2
 24
9.080195
 34
0.0
100
AcDbRotatedDimension
1001
ACAD_DIMASSOC_CALC_DIMLFAC
1040
-20.0
1001
ACAD_DIMASSOC_DIMLFAC
1040
-20.0
1001
ACAD_DIMASSOC_OVERRIDDEN_DIMLFAC
1040
0.0
1001
ACAD
1000
DSTYLE
1002
{
1070
   144
1040
20.0
1002
}
  0
DIMENSION
  5
2A9
330
70
100
AcDbEntity
  8
Dimensions
100
AcDbDimension
280
     0
  2
*D26
 10
13.6
 20
9.670403
 30
0.0
 11
13.9
 21
9.670403
 31
0.0
 70
   161
 71
     5
 42
12.0
 73
     0
 74
     0
 75
     0
  3
Standard
100
AcDbAlignedDimension
 13
14.2
 23
9.080195
 33
0.0
 14
13.6
 24
9.080195
 34
0.0
1001
ACAD_DIMASSOC_CALC_DIMLFAC
1040
-20.0
1001
ACAD_DIMASSOC_DIMLFAC
1040
-20.0
1001
ACAD_DIMASSOC_OVERRIDDEN_DIMLFAC
1040
0.0
1001
ACAD
1000
DSTYLE
1002
{
1070
   144
1040
20.0
1002
}
  0
DIMENSION
  5
2B7
330
70
100
AcDbEntity
  8
Dimensions
100
AcDbDimension
280
     0
  2
*D27
 10
2.8
 20
9.354786
 30
0.0
 11
2.65
 21
9.354786
 31
0.0
 70
   160
 71
     5
 42
6.0
 73
     0
 74
     0
 75
     0
  3
Standard
100
AcDbAlignedDimension
 13
2.5
 23
9.148945
 33
0.0
 14
2.8
 24
9.080195
 34
0.0
100
AcDbRotatedDimension
1001
ACAD_DIMASSOC_CALC_DIMLFAC
1040
-20.0
1001
ACAD_DIMASSOC_DIMLFAC
1040
-20.0
1001
ACAD_DIMASSOC_OVERRIDDEN_DIMLFAC
1040
0.0
1001
ACAD
1000
DSTYLE
1002
{
1070
   144
1040
20.0
1002
}
  0
DIMENSION
  5
2C5
330
70
100
AcDbEntity
  8
Dimensions
100
AcDbDimension
280
     0
  2
*D28
 10
3.4
 20
9.608769
 30
0.0
 11
3.060618
 21
9.608769
 31
0.0
 70
   161
 71
     5
 42
12.0
 73
     0
 74
     0
 75
     0
  3
Standard
100
AcDbAlignedDimension
 13
2.8
 23
9.080195
 33
0.0
 14
3.4
 24
9.080195
 34
0.0
1001
ACAD_DIMASSOC_CALC_DIMLFAC
1040
-20.0
1001
ACAD_DIMASSOC_DIMLFAC
1040
-20.0
1001
ACAD_DIMASSOC_OVERRIDDEN_DIMLFAC
1040
0.0
1001
ACAD
1000
DSTYLE
1002
{
1070
   144
1040
20.0
1002
}
  0
DIMENSION
  5
2D3
330
70
100
AcDbEntity
  8
Dimensions
100
AcDbDimension
280
     0
  2
*D29
 10
2.5
 20
10.024118
 30
0.0
 11
8.5
 21
10.024118
 31
0.0
 70
   161
 71
     5
 42
240.0
 73
     0
 74
     0
 75
     0
  3
Standard
100
AcDbAlignedDimension
 13
14.5
 23
9.148945
 33
0.0
 14
2.5
 24
9.148945
 34
0.0
1001
ACAD_DIMASSOC_CALC_DIMLFAC
1040
-20.0
1001
ACAD_DIMASSOC_DIMLFAC
1040
-20.0
1001
ACAD_DIMASSOC_OVERRIDDEN_DIMLFAC
1040
0.0
1001
ACAD
1000
DSTYLE
1002
{
1070
   144
1040
20.0
1002
}
  0
MTEXT
  5
2E1
330
70
100
AcDbEntity
  8
Annotations
100
AcDbMText
 10
8.364173
 20
6.491221
 30
0.0
 40
0.12
 41
0.567564
 46
0.0
 71
     1
 72
     5
  1
(20)
 73
     1
 44
1.0
1001
ACAD
1000
ACAD_MTEXT_COLUMN_INFO_BEGIN
1070
    75
1070
     2
1070
    79
1070
     0
1070
    76
1070
     1
1070
    78
1070
     0
1070
    48
1040
0.567564
1070
    49
1040
0.6
1070
    50
1070
     1
1040
0.0
1000
ACAD_MTEXT_COLUMN_INFO_END
  0
MTEXT
  5
2E3
330
70
100
AcDbEntity
  8
Annotations
100
AcDbMText
 10
8.347696
 20
5.444962
 30
0.0
 40
0.12
 41
0.282411
 46
0.0
 71
     1
 72
     5
  1
(20)
 73
     1
 44
1.0
1001
ACAD
1000
ACAD_MTEXT_COLUMN_INFO_BEGIN
1070
    75
1070
     2
1070
    79
1070
     0
1070
    76
1070
     1
1070
    78
1070
     0
1070
    48
1040
0.282411
1070
    49
1040
0.6
1070
    50
1070
     1
1040
0.0
1000
ACAD_MTEXT_COLUMN_INFO_END
  0
MTEXT
  5
2E4
102
{ACAD_XDICTIONARY
360
2E5
102
}
330
70
100
AcDbEntity
  8
Annotations
100
AcDbMText
 10
3.499645
 20
2.768807
 30
0.0
 40
0.24
 41
1.702101
 46
0.768186
 71
     2
 72
     5
  1
DETAIL A\PSCALE 1:1
 73
     1
 44
1.0
  0
DIMENSION
  5
2EB
330
70
100
AcDbEntity
  8
Dimensions
100
AcDbDimension
280
     0
  2
*D30
 10
3.377515
 20
4.472694
 30
0.0
 11
4.437438
 21
7.150061
 31
0.0
 70
   163
 71
     5
 42
1.125
 73
     0
 74
     0
 75
     0
  3
Standard
100
AcDbDiametricDimension
 15
3.621775
 25
5.570857
 35
0.0
 40
0.0
1001
ACAD_DIMASSOC_CALC_DIMLFAC
1040
-1.0
1001
ACAD_DIMASSOC_DIMLFAC
1040
-1.0
1001
ACAD_DIMASSOC_OVERRIDDEN_DIMLFAC
1040
0.0
1001
ACAD_DSTYLE_DIMJAG_POSITION
1070
   387
1070
     0
1070
   389
1010
0.0
1020
0.0
1030
0.0
1001
ACAD_DSTYLE_DIMRADIAL_EXTENSION
1070
   387
1070
     1
1070
   388
1040
0.421728
1070
   390
1040
2.719729
1001
ACAD
1000
DSTYLE
1002
{
1070
   144
1040
1.0
1070
   288
1070
     1
1002
}
  0
DIMENSION
  5
2F5
330
70
100
AcDbEntity
  8
Dimensions
100
AcDbDimension
280
     0
  2
*D31
 10
3.59029
 20
4.722699
 30
0.0
 11
2.536432
 21
6.820918
 31
0.0
 70
   163
 71
     5
 42
0.625
 73
     0
 74
     0
 75
     0
  3
Standard
100
AcDbDiametricDimension
 15
3.408972
 25
5.32082
 35
0.0
 40
0.0
1001
ACAD_DIMASSOC_CALC_DIMLFAC
1040
-1.0
1001
ACAD_DIMASSOC_DIMLFAC
1040
-1.0
1001
ACAD_DIMASSOC_OVERRIDDEN_DIMLFAC
1040
0.0
1001
ACAD_DSTYLE_DIMJAG_POSITION
1070
   387
1070
     0
1070
   389
1010
0.0
1020
0.0
1030
0.0
1001
ACAD_DSTYLE_DIMRADIAL_EXTENSION
1070
   387
1070
     1
1070
   388
1040
0.0
1070
   390
1040
0.0
1001
ACAD
1000
DSTYLE
1002
{
1070
   144
1040
1.0
1070
   288
1070
     1
1002
}
  0
DIMENSION
  5
2FF
330
70
100
AcDbEntity
  8
Dimensions
100
AcDbDimension
280
     0
  2
*D32
 10
5.89336
 20
2.992514
 30
0.0
 11
5.89336
 21
3.367514
 31
0.0
 70
    32
 71
     5
 42
0.75
 73
     0
 74
     0
 75
     0
  3
Standard
100
AcDbAlignedDimension
 13
7.986978
 23
3.742514
 33
0.0
 14
7.125178
 24
2.992514
 34
0.0
 50
270.0
100
AcDbRotatedDimension
1001
ACAD_DIMASSOC_CALC_DIMLFAC
1040
-1.0
1001
ACAD_DIMASSOC_DIMLFAC
1040
-1.0
1001
ACAD_DIMASSOC_OVERRIDDEN_DIMLFAC
1040
0.0
1001
ACAD_DSTYLE_DIMJAG_POSITION
1070
   387
1070
     0
1070
   389
1010
0.0
1020
0.0
1030
0.0
1001
ACAD
1000
DSTYLE
1002
{
1070
   144
1040
1.0
1070
   176
1070
   256
1070
   177
1070
   256
1002
}
  0
DIMENSION
  5
30D
330
70
100
AcDbEntity
  8
Dimensions
100
AcDbDimension
280
     0
  2
*D33
 10
6.391301
 20
3.305014
 30
0.0
 11
6.391301
 21
3.523764
 31
0.0
 70
    32
 71
     5
 42
0.4375
 73
     0
 74
     0
 75
     0
  3
Standard
100
AcDbAlignedDimension
 13
7.986978
 23
3.742514
 33
0.0
 14
7.972678
 24
3.305014
 34
0.0
 50
270.0
100
AcDbRotatedDimension
1001
ACAD_DIMASSOC_CALC_DIMLFAC
1040
-1.0
1001
ACAD_DIMASSOC_DIMLFAC
1040
-1.0
1001
ACAD_DIMASSOC_OVERRIDDEN_DIMLFAC
1040
0.0
1001
ACAD_DSTYLE_DIMJAG_POSITION
1070
   387
1070
     0
1070
   389
1010
0.0
1020
0.0
1030
0.0
1001
ACAD
1000
DSTYLE
1002
{
1070
   144
1040
1.0
1070
   176
1070
   256
1070
   177
1070
   256
1002
}
  0
DIMENSION
  5
31B
330
70
100
AcDbEntity
  8
Dimensions
100
AcDbDimension
280
     0
  2
*D34
 10
6.846353
 20
2.992514
 30
0.0
 11
6.846353
 21
3.148764
 31
0.0
 70
   160
 71
     5
 42
0.3125
 73
     0
 74
     0
 75
     0
  3
Standard
100
AcDbAlignedDimension
 13
7.972678
 23
3.305014
 33
0.0
 14
7.125178
 24
2.992514
 34
0.0
 50
270.0
100
AcDbRotatedDimension
1001
ACAD_DIMASSOC_CALC_DIMLFAC
1040
-1.0
1001
ACAD_DIMASSOC_DIMLFAC
1040
-1.0
1001
ACAD_DIMASSOC_OVERRIDDEN_DIMLFAC
1040
0.0
1001
ACAD_DSTYLE_DIMJAG_POSITION
1070
   387
1070
     0
1070
   389
1010
0.0
1020
0.0
1030
0.0
1001
ACAD
1000
DSTYLE
1002
{
1070
   144
1040
1.0
1002
}
  0
CIRCLE
  5
56D
330
70
100
AcDbEntity
  8
Visible
100
AcDbCircle
 10
-2.8
 20
9.080195
 30
0.0875
 40
0.0156249999999998
210
0.0000000000000002
220
-0.0000000000000003
230
-1.0
  0
CIRCLE
  5
56E
330
70
100
AcDbEntity
  8
Visible
100
AcDbCircle
 10
-3.4
 20
9.080195
 30
0.0875
 40
0.0156249999999998
210
0.0000000000000002
220
-0.0000000000000003
230
-1.0
  0
CIRCLE
  5
56F
330
70
100
AcDbEntity
  8
Visible
100
AcDbCircle
 10
-4.0
 20
9.080195
 30
0.0875
 40
0.0156249999999998
210
0.0000000000000002
220
-0.0000000000000003
230
-1.0
  0
CIRCLE
  5
570
330
70
100
AcDbEntity
  8
Visible
100
AcDbCircle
 10
-4.6
 20
9.080195
 30
0.0875
 40
0.0156249999999998
210
0.0000000000000002
220
-0.0000000000000003
230
-1.0
  0
CIRCLE
  5
571
330
70
100
AcDbEntity
  8
Visible
100
AcDbCircle
 10
-5.2
 20
9.080195
 30
0.0875
 40
0.0156249999999998
210
0.0000000000000002
220
-0.0000000000000003
230
-1.0
  0
CIRCLE
  5
572
330
70
100
AcDbEntity
  8
Visible
100
AcDbCircle
 10
-5.8
 20
9.080195
 30
0.0875
 40
0.0156249999999998
210
0.0000000000000002
220
-0.0000000000000003
230
-1.0
  0
CIRCLE
  5
573
330
70
100
AcDbEntity
  8
Visible
100
AcDbCircle
 10
-6.4
 20
9.080195
 30
0.0875
 40
0.0156249999999998
210
0.0000000000000002
220
-0.0000000000000003
230
-1.0
  0
CIRCLE
  5
574
330
70
100
AcDbEntity
  8
Visible
100
AcDbCircle
 10
-7.0
 20
9.080195
 30
0.0875
 40
0.0156249999999998
210
0.0000000000000002
220
-0.0000000000000003
230
-1.0
  0
CIRCLE
  5
575
330
70
100
AcDbEntity
  8
Visible
100
AcDbCircle
 10
-7.6
 20
9.080195
 30
0.0875
 40
0.0156249999999998
210
0.0000000000000002
220
-0.0000000000000003
230
-1.0
  0
CIRCLE
  5
576
330
70
100
AcDbEntity
  8
Visible
100
AcDbCircle
 10
-8.2
 20
9.080195
 30
0.0875
 40
0.0156249999999998
210
0.0000000000000002
220
-0.0000000000000003
230
-1.0
  0
CIRCLE
  5
577
330
70
100
AcDbEntity
  8
Visible
100
AcDbCircle
 10
-8.8
 20
9.080195
 30
0.0875
 40
0.0156249999999998
210
0.0000000000000002
220
-0.0000000000000003
230
-1.0
  0
CIRCLE
  5
578
330
70
100
AcDbEntity
  8
Visible
100
AcDbCircle
 10
-9.4
 20
9.080195
 30
0.0875
 40
0.0156249999999998
210
0.0000000000000002
220
-0.0000000000000003
230
-1.0
  0
CIRCLE
  5
579
330
70
100
AcDbEntity
  8
Visible
100
AcDbCircle
 10
-10.0
 20
9.080195
 30
0.0875
 40
0.0156249999999998
210
0.0000000000000002
220
-0.0000000000000003
230
-1.0
  0
CIRCLE
  5
57A
330
70
100
AcDbEntity
  8
Visible
100
AcDbCircle
 10
-10.6
 20
9.080195
 30
0.0875
 40
0.0156249999999998
210
0.0000000000000002
220
-0.0000000000000003
230
-1.0
  0
CIRCLE
  5
57B
330
70
100
AcDbEntity
  8
Visible
100
AcDbCircle
 10
-11.2
 20
9.080195
 30
0.0875
 40
0.0156249999999998
210
0.0000000000000002
220
-0.0000000000000003
230
-1.0
  0
CIRCLE
  5
57C
330
70
100
AcDbEntity
  8
Visible
100
AcDbCircle
 10
-11.8
 20
9.080195
 30
0.0875
 40
0.0156249999999998
210
0.0000000000000002
220
-0.0000000000000003
230
-1.0
  0
CIRCLE
  5
57D
330
70
100
AcDbEntity
  8
Visible
100
AcDbCircle
 10
-12.4
 20
9.080195
 30
0.0875
 40
0.0156249999999998
210
0.0000000000000002
220
-0.0000000000000003
230
-1.0
  0
CIRCLE
  5
57E
330
70
100
AcDbEntity
  8
Visible
100
AcDbCircle
 10
-13.0
 20
9.080195
 30
0.0875
 40
0.0156249999999998
210
0.0000000000000002
220
-0.0000000000000003
230
-1.0
  0
CIRCLE
  5
57F
330
70
100
AcDbEntity
  8
Visible
100
AcDbCircle
 10
-13.6
 20
9.080195
 30
0.0875
 40
0.0156249999999998
210
0.0000000000000002
220
-0.0000000000000003
230
-1.0
  0
LINE
  5
580
330
70
100
AcDbEntity
  8
Visible
100
AcDbLine
 10
2.5
 20
9.026571
 30
0.078125
 11
2.5
 21
9.028945
 31
0.078125
  0
LINE
  5
581
330
70
100
AcDbEntity
  8
Visible
100
AcDbLine
 10
14.5
 20
9.026571
 30
0.078125
 11
14.5
 21
9.028945
 31
0.078125
  0
CIRCLE
  5
582
330
70
100
AcDbEntity
  8
Visible
100
AcDbCircle
 10
-14.2
 20
9.080195
 30
0.0875
 40
0.0156249999999998
210
0.0000000000000002
220
-0.0000000000000003
230
-1.0
  0
ARC
  5
583
330
70
100
AcDbEntity
  8
Visible
100
AcDbCircle
 10
-9.028945
 20
0.075125
 30
-2.5
 40
0.003
210
-1.0
220
0.0000000000000002
230
0.0
100
AcDbArc
 50
90.0
 51
180.0
  0
ARC
  5
584
330
70
100
AcDbEntity
  8
Visible
100
AcDbCircle
 10
-9.028945
 20
0.075125
 30
-14.5
 40
0.003
210
-1.0
220
0.0000000000000002
230
-0.0000000000000002
100
AcDbArc
 50
90.0
 51
180.0
  0
ARC
  5
585
330
70
100
AcDbEntity
  8
Visible
100
AcDbCircle
 10
9.034945
 20
-0.000125
 30
2.5
 40
0.003
210
1.0
220
-0.0000000000000002
230
0.0
100
AcDbArc
 50
180.0
 51
270.0
  0
ARC
  5
586
330
70
100
AcDbEntity
  8
Visible
100
AcDbCircle
 10
9.034945
 20
-0.000125
 30
14.5
 40
0.003
210
1.0
220
-0.0000000000000002
230
0.0000000000000002
100
AcDbArc
 50
180.0
 51
270.0
  0
ARC
  5
587
330
70
100
AcDbEntity
  8
Visible
100
AcDbCircle
 10
-9.047695
 20
-0.006125
 30
-2.5
 40
0.003
210
-1.0
220
0.0000000000000002
230
0.0
100
AcDbArc
 50
90.0
 51
180.0
  0
ARC
  5
588
330
70
100
AcDbEntity
  8
Visible
100
AcDbCircle
 10
-9.047695
 20
-0.006125
 30
-14.5
 40
0.003
210
-1.0
220
0.0000000000000002
230
-0.0000000000000002
100
AcDbArc
 50
90.0
 51
180.0
  0
ARC
  5
589
330
70
100
AcDbEntity
  8
Visible
100
AcDbCircle
 10
-9.112695
 20
-0.006125
 30
-2.5
 40
0.003
210
-1.0
220
0.0000000000000002
230
0.0
100
AcDbArc
 50
0.0
 51
90.0
  0
ARC
  5
58A
330
70
100
AcDbEntity
  8
Visible
100
AcDbCircle
 10
-9.112695
 20
-0.006125
 30
-14.5
 40
0.003
210
-1.0
220
0.0000000000000002
230
-0.0000000000000002
100
AcDbArc
 50
0.0
 51
90.0
  0
ARC
  5
58B
330
70
100
AcDbEntity
  8
Visible
100
AcDbCircle
 10
9.125445
 20
-0.000125
 30
2.5
 40
0.003
210
1.0
220
-0.0000000000000002
230
0.0
100
AcDbArc
 50
270.0
 51
0.0
  0
ARC
  5
58C
330
70
100
AcDbEntity
  8
Visible
100
AcDbCircle
 10
9.125445
 20
-0.000125
 30
14.5
 40
0.003
210
1.0
220
-0.0000000000000002
230
0.0000000000000002
100
AcDbArc
 50
270.0
 51
0.0
  0
ARC
  5
58D
330
70
100
AcDbEntity
  8
Visible
100
AcDbCircle
 10
-9.131445
 20
0.075125
 30
-2.5
 40
0.003
210
-1.0
220
0.0000000000000002
230
0.0
100
AcDbArc
 50
0.0
 51
90.0
  0
ARC
  5
58E
330
70
100
AcDbEntity
  8
Visible
100
AcDbCircle
 10
-9.131445
 20
0.075125
 30
-14.5
 40
0.003
210
-1.0
220
0.0000000000000002
230
-0.0000000000000002
100
AcDbArc
 50
0.0
 51
90.0
  0
ARC
  5
58F
330
70
100
AcDbEntity
  8
Visible
100
AcDbCircle
 10
-9.136944
 20
0.1
 30
-2.5
 40
0.003125
210
-1.0
220
0.0000000000000002
230
0.0
100
AcDbArc
 50
0.0
 51
90.0
  0
ARC
  5
590
330
70
100
AcDbEntity
  8
Visible
100
AcDbCircle
 10
-9.136944
 20
0.1
 30
-14.5
 40
0.003125
210
-1.0
220
0.0000000000000002
230
-0.0000000000000002
100
AcDbArc
 50
0.0
 51
90.0
  0
ARC
  5
591
330
70
100
AcDbEntity
  8
Visible
100
AcDbCircle
 10
-9.142695
 20
0.096875
 30
-2.5
 40
0.00625
210
-1.0
220
0.0000000000000002
230
0.0
100
AcDbArc
 50
90.0
 51
180.0
  0
ARC
  5
592
330
70
100
AcDbEntity
  8
Visible
100
AcDbCircle
 10
-9.142695
 20
0.096875
 30
-14.5
 40
0.00625
210
-1.0
220
0.0000000000000002
230
-0.0000000000000002
100
AcDbArc
 50
90.0
 51
180.0
  0
ARC
  5
593
330
70
100
AcDbEntity
  8
Visible
100
AcDbCircle
 10
-9.017695
 20
0.096875
 30
-2.5
 40
0.00625
210
-1.0
220
0.0000000000000002
230
0.0
100
AcDbArc
 50
360.0
 51
90.0
  0
ARC
  5
594
330
70
100
AcDbEntity
  8
Visible
100
AcDbCircle
 10
-9.017695
 20
0.096875
 30
-14.5
 40
0.00625
210
-1.0
220
0.0000000000000002
230
-0.0000000000000002
100
AcDbArc
 50
360.0
 51
90.0
  0
ARC
  5
595
330
70
100
AcDbEntity
  8
Visible
100
AcDbCircle
 10
-9.023446
 20
0.1
 30
-2.5
 40
0.003125
210
-1.0
220
0.0000000000000002
230
0.0
100
AcDbArc
 50
90.0
 51
180.0
  0
ARC
  5
596
330
70
100
AcDbEntity
  8
Visible
100
AcDbCircle
 10
-9.023446
 20
0.1
 30
-14.5
 40
0.003125
210
-1.0
220
0.0000000000000002
230
-0.0000000000000002
100
AcDbArc
 50
90.0
 51
180.0
  0
ARC
  5
597
330
70
100
AcDbEntity
  8
Visible
100
AcDbCircle
 10
9.054535
 20
-0.062625
 30
14.5
 40
0.003
210
1.0
220
-0.0000000000000002
230
0.0000000000000002
100
AcDbArc
 50
183.052883
 51
270.0
  0
ARC
  5
598
330
70
100
AcDbEntity
  8
Visible
100
AcDbCircle
 10
9.054535
 20
-0.062625
 30
2.5
 40
0.003
210
1.0
220
-0.0000000000000002
230
0.0
100
AcDbArc
 50
183.052883
 51
270.0
  0
ARC
  5
599
330
70
100
AcDbEntity
  8
Visible
100
AcDbCircle
 10
-2.800001
 20
9.080196
 30
0.065625
 40
0.0281249999999988
210
0.0
220
-0.0000000000000003
230
-1.0
100
AcDbArc
 50
294.163219
 51
65.829017
  0
ARC
  5
59A
330
70
100
AcDbEntity
  8
Visible
100
AcDbCircle
 10
-2.800001
 20
9.080196
 30
0.065625
 40
0.0281249999999988
210
0.0
220
-0.0000000000000003
230
-1.0
100
AcDbArc
 50
114.170983
 51
245.836781
  0
ARC
  5
59B
330
70
100
AcDbEntity
  8
Visible
100
AcDbCircle
 10
3.400001
 20
9.080196
 30
-0.065625
 40
0.0281249999999988
100
AcDbArc
 50
294.163219
 51
65.829017
  0
ARC
  5
59C
330
70
100
AcDbEntity
  8
Visible
100
AcDbCircle
 10
3.400001
 20
9.080196
 30
-0.065625
 40
0.0281249999999988
100
AcDbArc
 50
114.170983
 51
245.836781
  0
ARC
  5
59D
330
70
100
AcDbEntity
  8
Visible
100
AcDbCircle
 10
4.000001
 20
9.080196
 30
-0.065625
 40
0.0281249999999988
100
AcDbArc
 50
114.170983
 51
245.836781
  0
ARC
  5
59E
330
70
100
AcDbEntity
  8
Visible
100
AcDbCircle
 10
4.000001
 20
9.080196
 30
-0.065625
 40
0.0281249999999988
100
AcDbArc
 50
294.163219
 51
65.829017
  0
ARC
  5
59F
330
70
100
AcDbEntity
  8
Visible
100
AcDbCircle
 10
4.600001
 20
9.080196
 30
-0.065625
 40
0.0281249999999997
100
AcDbArc
 50
294.163219
 51
65.829017
  0
ARC
  5
5A0
330
70
100
AcDbEntity
  8
Visible
100
AcDbCircle
 10
4.600001
 20
9.080196
 30
-0.065625
 40
0.0281249999999997
100
AcDbArc
 50
114.170983
 51
245.836781
  0
ARC
  5
5A1
330
70
100
AcDbEntity
  8
Visible
100
AcDbCircle
 10
5.200001
 20
9.080196
 30
-0.065625
 40
0.0281249999999997
100
AcDbArc
 50
114.170983
 51
245.836781
  0
ARC
  5
5A2
330
70
100
AcDbEntity
  8
Visible
100
AcDbCircle
 10
5.200001
 20
9.080196
 30
-0.065625
 40
0.0281249999999997
100
AcDbArc
 50
294.163219
 51
65.829017
  0
ARC
  5
5A3
330
70
100
AcDbEntity
  8
Visible
100
AcDbCircle
 10
5.800001
 20
9.080196
 30
-0.065625
 40
0.0281249999999997
100
AcDbArc
 50
294.163219
 51
65.829017
  0
ARC
  5
5A4
330
70
100
AcDbEntity
  8
Visible
100
AcDbCircle
 10
5.800001
 20
9.080196
 30
-0.065625
 40
0.0281249999999997
100
AcDbArc
 50
114.170983
 51
245.836781
  0
ARC
  5
5A5
330
70
100
AcDbEntity
  8
Visible
100
AcDbCircle
 10
6.400001
 20
9.080196
 30
-0.065625
 40
0.0281249999999997
100
AcDbArc
 50
114.170983
 51
245.836781
  0
ARC
  5
5A6
330
70
100
AcDbEntity
  8
Visible
100
AcDbCircle
 10
6.400001
 20
9.080196
 30
-0.065625
 40
0.0281249999999997
100
AcDbArc
 50
294.163219
 51
65.829017
  0
ARC
  5
5A7
330
70
100
AcDbEntity
  8
Visible
100
AcDbCircle
 10
7.000001
 20
9.080196
 30
-0.065625
 40
0.0281249999999997
100
AcDbArc
 50
294.163219
 51
65.829017
  0
ARC
  5
5A8
330
70
100
AcDbEntity
  8
Visible
100
AcDbCircle
 10
7.000001
 20
9.080196
 30
-0.065625
 40
0.0281249999999997
100
AcDbArc
 50
114.170983
 51
245.836781
  0
ARC
  5
5A9
330
70
100
AcDbEntity
  8
Visible
100
AcDbCircle
 10
7.600001
 20
9.080196
 30
-0.065625
 40
0.0281250000000002
100
AcDbArc
 50
114.170983
 51
245.836781
  0
ARC
  5
5AA
330
70
100
AcDbEntity
  8
Visible
100
AcDbCircle
 10
7.600001
 20
9.080196
 30
-0.065625
 40
0.0281250000000002
100
AcDbArc
 50
294.163219
 51
65.829017
  0
ARC
  5
5AB
330
70
100
AcDbEntity
  8
Visible
100
AcDbCircle
 10
8.200001
 20
9.080196
 30
-0.065625
 40
0.0281250000000002
100
AcDbArc
 50
294.163219
 51
65.829017
  0
ARC
  5
5AC
330
70
100
AcDbEntity
  8
Visible
100
AcDbCircle
 10
8.200001
 20
9.080196
 30
-0.065625
 40
0.0281250000000002
100
AcDbArc
 50
114.170983
 51
245.836781
  0
ARC
  5
5AD
330
70
100
AcDbEntity
  8
Visible
100
AcDbCircle
 10
8.800001
 20
9.080196
 30
-0.065625
 40
0.0281250000000002
100
AcDbArc
 50
114.170983
 51
245.836781
  0
ARC
  5
5AE
330
70
100
AcDbEntity
  8
Visible
100
AcDbCircle
 10
8.800001
 20
9.080196
 30
-0.065625
 40
0.0281250000000002
100
AcDbArc
 50
294.163219
 51
65.829017
  0
ARC
  5
5AF
330
70
100
AcDbEntity
  8
Visible
100
AcDbCircle
 10
9.400001
 20
9.080196
 30
-0.065625
 40
0.0281250000000002
100
AcDbArc
 50
294.163219
 51
65.829017
  0
ARC
  5
5B0
330
70
100
AcDbEntity
  8
Visible
100
AcDbCircle
 10
9.400001
 20
9.080196
 30
-0.065625
 40
0.0281250000000002
100
AcDbArc
 50
114.170983
 51
245.836781
  0
ARC
  5
5B1
330
70
100
AcDbEntity
  8
Visible
100
AcDbCircle
 10
10.000001
 20
9.080196
 30
-0.065625
 40
0.0281249999999999
100
AcDbArc
 50
114.170983
 51
245.836781
  0
ARC
  5
5B2
330
70
100
AcDbEntity
  8
Visible
100
AcDbCircle
 10
10.000001
 20
9.080196
 30
-0.065625
 40
0.0281249999999999
100
AcDbArc
 50
294.163219
 51
65.829017
  0
ARC
  5
5B3
330
70
100
AcDbEntity
  8
Visible
100
AcDbCircle
 10
10.600001
 20
9.080196
 30
-0.065625
 40
0.0281249999999999
100
AcDbArc
 50
294.163219
 51
65.829017
  0
ARC
  5
5B4
330
70
100
AcDbEntity
  8
Visible
100
AcDbCircle
 10
10.600001
 20
9.080196
 30
-0.065625
 40
0.0281249999999999
100
AcDbArc
 50
114.170983
 51
245.836781
  0
ARC
  5
5B5
330
70
100
AcDbEntity
  8
Visible
100
AcDbCircle
 10
11.200001
 20
9.080196
 30
-0.065625
 40
0.0281249999999999
100
AcDbArc
 50
114.170983
 51
245.836781
  0
ARC
  5
5B6
330
70
100
AcDbEntity
  8
Visible
100
AcDbCircle
 10
11.200001
 20
9.080196
 30
-0.065625
 40
0.0281249999999999
100
AcDbArc
 50
294.163219
 51
65.829017
  0
ARC
  5
5B7
330
70
100
AcDbEntity
  8
Visible
100
AcDbCircle
 10
11.800001
 20
9.080196
 30
-0.065625
 40
0.0281249999999999
100
AcDbArc
 50
294.163219
 51
65.829017
  0
ARC
  5
5B8
330
70
100
AcDbEntity
  8
Visible
100
AcDbCircle
 10
11.800001
 20
9.080196
 30
-0.065625
 40
0.0281249999999999
100
AcDbArc
 50
114.170983
 51
245.836781
  0
ARC
  5
5B9
330
70
100
AcDbEntity
  8
Visible
100
AcDbCircle
 10
12.400001
 20
9.080196
 30
-0.065625
 40
0.0281249999999997
100
AcDbArc
 50
114.170983
 51
245.836781
  0
ARC
  5
5BA
330
70
100
AcDbEntity
  8
Visible
100
AcDbCircle
 10
12.400001
 20
9.080196
 30
-0.065625
 40
0.0281249999999996
100
AcDbArc
 50
294.163219
 51
65.829017
  0
LINE
  5
5BB
330
70
100
AcDbEntity
  8
Visible
100
AcDbLine
 10
14.5
 20
9.031945
 30
0.075125
 11
2.5
 21
9.031945
 31
0.075125
  0
LINE
  5
5BC
330
70
100
AcDbEntity
  8
Visible
100
AcDbLine
 10
2.5
 20
9.034945
 30
-0.003125
 11
2.5
 21
9.047695
 31
-0.003125
  0
LINE
  5
5BD
330
70
100
AcDbEntity
  8
Visible
100
AcDbLine
 10
14.5
 20
9.034945
 30
-0.003125
 11
14.5
 21
9.047695
 31
-0.003125
  0
LINE
  5
5BE
330
70
100
AcDbEntity
  8
Visible
100
AcDbLine
 10
14.5
 20
9.050695
 30
-0.006125
 11
2.5
 21
9.050695
 31
-0.006125
  0
LINE
  5
5BF
330
70
100
AcDbEntity
  8
Visible
100
AcDbLine
 10
2.5
 20
9.050695
 30
-0.046955
 11
2.5
 21
9.051539
 31
-0.062785
  0
LINE
  5
5C0
330
70
100
AcDbEntity
  8
Visible
100
AcDbLine
 10
14.5
 20
9.050695
 30
-0.046955
 11
14.5
 21
9.051539
 31
-0.062785
  0
LINE
  5
5C1
330
70
100
AcDbEntity
  8
Visible
100
AcDbLine
 10
2.5
 20
9.108851
 30
-0.062785
 11
2.5
 21
9.109695
 31
-0.046955
  0
LINE
  5
5C2
330
70
100
AcDbEntity
  8
Visible
100
AcDbLine
 10
14.5
 20
9.108851
 30
-0.062785
 11
14.5
 21
9.109695
 31
-0.046955
  0
ARC
  5
5C3
330
70
100
AcDbEntity
  8
Visible
100
AcDbCircle
 10
13.000001
 20
9.080196
 30
-0.065625
 40
0.0281249999999996
100
AcDbArc
 50
294.163219
 51
65.829017
  0
ARC
  5
5C4
330
70
100
AcDbEntity
  8
Visible
100
AcDbCircle
 10
13.000001
 20
9.080196
 30
-0.065625
 40
0.0281249999999997
100
AcDbArc
 50
114.170983
 51
245.836781
  0
LINE
  5
5C5
330
70
100
AcDbEntity
  8
Visible
100
AcDbLine
 10
14.5
 20
9.109695
 30
-0.006125
 11
2.5
 21
9.109695
 31
-0.006125
  0
ARC
  5
5C6
330
70
100
AcDbEntity
  8
Visible
100
AcDbCircle
 10
13.600001
 20
9.080196
 30
-0.065625
 40
0.0281249999999998
100
AcDbArc
 50
114.170983
 51
245.836781
  0
ARC
  5
5C7
330
70
100
AcDbEntity
  8
Visible
100
AcDbCircle
 10
9.105855
 20
-0.062625
 30
2.5
 40
0.003
210
1.0
220
-0.0000000000000002
230
0.0
100
AcDbArc
 50
270.0
 51
356.947117
  0
ARC
  5
5C8
330
70
100
AcDbEntity
  8
Visible
100
AcDbCircle
 10
9.105855
 20
-0.062625
 30
14.5
 40
0.003
210
1.0
220
-0.0000000000000002
230
0.0000000000000002
100
AcDbArc
 50
270.0
 51
356.947117
  0
ARC
  5
5C9
330
70
100
AcDbEntity
  8
Visible
100
AcDbCircle
 10
13.600001
 20
9.080196
 30
-0.065625
 40
0.0281249999999997
100
AcDbArc
 50
294.163219
 51
65.829017
  0
LINE
  5
5CA
330
70
100
AcDbEntity
  8
Visible
100
AcDbLine
 10
2.5
 20
9.112695
 30
-0.003125
 11
2.5
 21
9.125445
 31
-0.003125
  0
ARC
  5
5CB
330
70
100
AcDbEntity
  8
Visible
100
AcDbCircle
 10
14.200001
 20
9.080196
 30
-0.065625
 40
0.0281249999999997
100
AcDbArc
 50
294.163219
 51
65.829017
  0
ARC
  5
5CC
330
70
100
AcDbEntity
  8
Visible
100
AcDbCircle
 10
14.200001
 20
9.080196
 30
-0.065625
 40
0.0281249999999997
100
AcDbArc
 50
114.170983
 51
245.836781
  0
LINE
  5
5CD
330
70
100
AcDbEntity
  8
Visible
100
AcDbLine
 10
14.5
 20
9.112695
 30
-0.003125
 11
14.5
 21
9.125445
 31
-0.003125
  0
LINE
  5
5CE
330
70
100
AcDbEntity
  8
Visible
100
AcDbLine
 10
14.5
 20
9.128445
 30
0.075125
 11
2.5
 21
9.128445
 31
0.075125
  0
LINE
  5
5CF
330
70
100
AcDbEntity
  8
Visible
100
AcDbLine
 10
2.5
 20
9.131445
 30
0.078125
 11
2.5
 21
9.133819
 31
0.078125
  0
LINE
  5
5D0
330
70
100
AcDbEntity
  8
Visible
100
AcDbLine
 10
14.5
 20
9.131445
 30
0.078125
 11
14.5
 21
9.133819
 31
0.078125
  0
LINE
  5
5D1
330
70
100
AcDbEntity
  8
Visible
100
AcDbLine
 10
2.5
 20
9.136944
 30
0.103125
 11
2.5
 21
9.142695
 31
0.103125
  0
LINE
  5
5D2
330
70
100
AcDbEntity
  8
Visible
100
AcDbLine
 10
14.5
 20
9.136944
 30
0.103125
 11
14.5
 21
9.142695
 31
0.103125
  0
LINE
  5
5D3
330
70
100
AcDbEntity
  8
Visible
100
AcDbLine
 10
14.5
 20
9.148945
 30
0.096875
 11
2.5
 21
9.148945
 31
0.096875
  0
LINE
  5
5D4
330
70
100
AcDbEntity
  8
Visible
100
AcDbLine
 10
14.5
 20
9.011445
 30
0.096875
 11
2.5
 21
9.011445
 31
0.096875
  0
LINE
  5
5D5
330
70
100
AcDbEntity
  8
Visible
100
AcDbLine
 10
2.5
 20
9.017695
 30
0.103125
 11
2.5
 21
9.023446
 31
0.103125
  0
LINE
  5
5D6
330
70
100
AcDbEntity
  8
Visible
100
AcDbLine
 10
14.5
 20
9.017695
 30
0.103125
 11
14.5
 21
9.023446
 31
0.103125
  0
LINE
  5
5D7
330
70
100
AcDbEntity
  8
Visible
100
AcDbLine
 10
2.5
 20
9.054535
 30
-0.065625
 11
2.5
 21
9.105855
 31
-0.065625
  0
LINE
  5
5D8
330
70
100
AcDbEntity
  8
Visible
100
AcDbLine
 10
14.5
 20
9.054535
 30
-0.065625
 11
14.5
 21
9.105855
 31
-0.065625
  0
SPLINE
  5
5D9
330
70
100
AcDbEntity
  8
Visible
100
AcDbSpline
 70
     0
 71
     3
 72
    14
 73
    10
 74
     0
 42
0.000000001
 43
0.0000000001
 40
0.3533445709902794
 40
0.3533445709902794
 40
0.3533445709902794
 40
0.3533445709902794
 40
0.6402314647489052
 40
0.6402314647489052
 40
0.93115002555325
 40
0.93115002555325
 40
1.222068586357594
 40
1.222068586357594
 40
1.50895548011622
 40
1.50895548011622
 40
1.50895548011622
 40
1.50895548011622
 10
14.2115167975594
 20
9.105855114761652
 30
-0.065625000000005
 10
14.20979623930668
 20
9.106627317189861
 30
-0.0656250000000051
 10
14.20788278207601
 20
9.107267936750872
 30
-0.0653246223146241
 10
14.20394183993949
 20
9.108117273752839
 30
-0.0646682219406827
 10
14.20190961998531
 20
9.108320901022693
 30
-0.064333770936927
 10
14.19809179110342
 20
9.108320901022693
 30
-0.064333770936927
 10
14.19605957114936
 20
9.108117273752839
 30
-0.0646682219406827
 10
14.19211862901272
 20
9.107267936750872
 30
-0.0653246223146241
 10
14.19020517178205
 20
9.106627317189861
 30
-0.0656250000000051
 10
14.18848461352934
 20
9.105855114761652
 30
-0.065625000000005
1001
ACAD_VIEW_EDGE_ID
1071
        0
1071
       -1
1071
        2
1071
        0
  0
SPLINE
  5
5DA
330
70
100
AcDbEntity
  8
Visible
100
AcDbSpline
 70
     0
 71
     3
 72
    14
 73
    10
 74
     0
 42
0.000000001
 43
0.0000000001
 40
0.3534006752902941
 40
0.3534006752902941
 40
0.3534006752902941
 40
0.3534006752902941
 40
0.6401377059579487
 40
0.6401377059579487
 40
0.930992146086475
 40
0.930992146086475
 40
1.221846586215001
 40
1.221846586215001
 40
1.508583616882655
 40
1.508583616882655
 40
1.508583616882655
 40
1.508583616882655
 10
14.18848809096073
 20
9.05453512686347
 30
-0.065625000000005
 10
14.19020792399033
 20
9.053763529923514
 30
-0.065625000000005
 10
14.19212051483754
 20
9.053123384502384
 30
-0.0653250747812269
 10
14.19606027031386
 20
9.052274453082929
 30
-0.0646697559742647
 10
14.19809221184278
 20
9.052070901022659
 30
-0.0643360204573223
 10
14.20190919924596
 20
9.052070901022659
 30
-0.0643360204573223
 10
14.20394114077487
 20
9.052274453082929
 30
-0.0646697559742647
 10
14.20788089625119
 20
9.053123384502384
 30
-0.0653250747812269
 10
14.20979348709852
 20
9.053763529923514
 30
-0.065625000000005
 10
14.21151332012806
 20
9.05453512686347
 30
-0.065625000000005
1001
ACAD_VIEW_EDGE_ID
1071
        2
1071
       -1
1071
        2
1071
        0
  0
SPLINE
  5
5DB
330
70
100
AcDbEntity
  8
Visible
100
AcDbSpline
 70
     0
 71
     3
 72
    14
 73
    10
 74
     0
 42
0.000000001
 43
0.0000000001
 40
0.3533445709904288
 40
0.3533445709904288
 40
0.3533445709904288
 40
0.3533445709904288
 40
0.6402314647489295
 40
0.6402314647489295
 40
0.9311500255532628
 40
0.9311500255532628
 40
1.222068586357596
 40
1.222068586357596
 40
1.508955480116216
 40
1.508955480116216
 40
1.508955480116216
 40
1.508955480116216
 10
2.788484613529362
 20
9.105855114761652
 30
-0.0656250000000013
 10
2.790205171782076
 20
9.106627317189861
 30
-0.0656250000000013
 10
2.792118629012747
 20
9.107267936750872
 30
-0.0653246223146266
 10
2.796059571149385
 20
9.108117273752839
 30
-0.064668221940685
 10
2.798091791103445
 20
9.108320901022693
 30
-0.0643337709369296
 10
2.801909619985337
 20
9.108320901022693
 30
-0.0643337709369296
 10
2.803941839939511
 20
9.108117273752839
 30
-0.0646682219406849
 10
2.807882782076035
 20
9.107267936750872
 30
-0.0653246223146267
 10
2.809796239306706
 20
9.106627317189861
 30
-0.0656250000000015
 10
2.81151679755942
 20
9.105855114761652
 30
-0.0656250000000013
1001
ACAD_VIEW_EDGE_ID
1071
       65
1071
       -1
1071
        2
1071
        0
  0
SPLINE
  5
5DC
330
70
100
AcDbEntity
  8
Visible
100
AcDbSpline
 70
     0
 71
     3
 72
    14
 73
    10
 74
     0
 42
0.000000001
 43
0.0000000001
 40
0.353344570990188
 40
0.353344570990188
 40
0.353344570990188
 40
0.353344570990188
 40
0.6402314647489295
 40
0.6402314647489295
 40
0.9311500255532628
 40
0.9311500255532628
 40
1.222068586357596
 40
1.222068586357596
 40
1.508955480116357
 40
1.508955480116357
 40
1.508955480116357
 40
1.508955480116357
 10
3.411516797559386
 20
9.105855114761652
 30
-0.0656250000000015
 10
3.409796239306729
 20
9.106627317189861
 30
-0.0656250000000017
 10
3.407882782076001
 20
9.107267936750872
 30
-0.0653246223146267
 10
3.403941839939477
 20
9.108117273752839
 30
-0.0646682219406848
 10
3.401909619985303
 20
9.108320901022693
 30
-0.0643337709369294
 10
3.398091791103411
 20
9.108320901022693
 30
-0.0643337709369294
 10
3.396059571149351
 20
9.108117273752839
 30
-0.0646682219406848
 10
3.39211862901277
 20
9.107267936750872
 30
-0.0653246223146267
 10
3.390205171782042
 20
9.106627317189861
 30
-0.0656250000000017
 10
3.388484613529385
 20
9.105855114761652
 30
-0.0656250000000015
1001
ACAD_VIEW_EDGE_ID
1071
       67
1071
       -1
1071
        2
1071
        0
  0
SPLINE
  5
5DD
330
70
100
AcDbEntity
  8
Visible
100
AcDbSpline
 70
     0
 71
     3
 72
    14
 73
    10
 74
     0
 42
0.000000001
 43
0.0000000001
 40
0.3533445709901679
 40
0.3533445709901679
 40
0.3533445709901679
 40
0.3533445709901679
 40
0.6402314647489295
 40
0.6402314647489295
 40
0.9311500255532628
 40
0.9311500255532628
 40
1.222068586357596
 40
1.222068586357596
 40
1.508955480116216
 40
1.508955480116216
 40
1.508955480116216
 40
1.508955480116216
 10
4.011516797559409
 20
9.105855114761652
 30
-0.0656250000000017
 10
4.009796239306695
 20
9.106627317189861
 30
-0.0656250000000022
 10
4.007882782076023
 20
9.107267936750872
 30
-0.0653246223146266
 10
4.0039418399395
 20
9.108117273752839
 30
-0.0646682219406847
 10
4.001909619985326
 20
9.108320901022693
 30
-0.0643337709369293
 10
3.998091791103433
 20
9.108320901022693
 30
-0.0643337709369293
 10
3.996059571149373
 20
9.108117273752839
 30
-0.0646682219406847
 10
3.992118629012736
 20
9.107267936750872
 30
-0.0653246223146264
 10
3.990205171782065
 20
9.106627317189861
 30
-0.0656250000000019
 10
3.988484613529351
 20
9.105855114761652
 30
-0.0656250000000017
1001
ACAD_VIEW_EDGE_ID
1071
       69
1071
       -1
1071
        2
1071
        0
  0
SPLINE
  5
5DE
330
70
100
AcDbEntity
  8
Visible
100
AcDbSpline
 70
     0
 71
     3
 72
    14
 73
    10
 74
     0
 42
0.000000001
 43
0.0000000001
 40
0.3533445709903012
 40
0.3533445709903012
 40
0.3533445709903012
 40
0.3533445709903012
 40
0.6402314647489323
 40
0.6402314647489323
 40
0.9311500255532655
 40
0.9311500255532655
 40
1.222068586357625
 40
1.222068586357625
 40
1.508955480116172
 40
1.508955480116172
 40
1.508955480116172
 40
1.508955480116172
 10
4.611516797559374
 20
9.105855114761652
 30
-0.0656250000000019
 10
4.609796239306717
 20
9.106627317189861
 30
-0.0656250000000019
 10
4.607882782075989
 20
9.107267936750872
 30
-0.0653246223146261
 10
4.603941839939466
 20
9.108117273752839
 30
-0.0646682219406848
 10
4.601909619985349
 20
9.108320901022693
 30
-0.0643337709369292
 10
4.598091791103456
 20
9.108320901022693
 30
-0.0643337709369292
 10
4.596059571149339
 20
9.108117273752839
 30
-0.0646682219406849
 10
4.592118629012759
 20
9.107267936750872
 30
-0.0653246223146264
 10
4.590205171782031
 20
9.106627317189861
 30
-0.0656250000000018
 10
4.588484613529374
 20
9.105855114761652
 30
-0.0656250000000019
1001
ACAD_VIEW_EDGE_ID
1071
       71
1071
       -1
1071
        2
1071
        0
  0
SPLINE
  5
5DF
330
70
100
AcDbEntity
  8
Visible
100
AcDbSpline
 70
     0
 71
     3
 72
    14
 73
    10
 74
     0
 42
0.000000001
 43
0.0000000001
 40
0.3533445709902788
 40
0.3533445709902788
 40
0.3533445709902788
 40
0.3533445709902788
 40
0.6402314647489098
 40
0.6402314647489098
 40
0.9311500255532431
 40
0.9311500255532431
 40
1.222068586357576
 40
1.222068586357576
 40
1.508955480116267
 40
1.508955480116267
 40
1.508955480116267
 40
1.508955480116267
 10
5.211516797559397
 20
9.105855114761652
 30
-0.0656250000000021
 10
5.209796239306683
 20
9.106627317189861
 30
-0.0656250000000024
 10
5.207882782076012
 20
9.107267936750872
 30
-0.0653246223146259
 10
5.203941839939489
 20
9.108117273752839
 30
-0.0646682219406847
 10
5.201909619985315
 20
9.108320901022693
 30
-0.064333770936929
 10
5.198091791103422
 20
9.108320901022693
 30
-0.064333770936929
 10
5.196059571149362
 20
9.108117273752839
 30
-0.0646682219406847
 10
5.192118629012725
 20
9.107267936750872
 30
-0.065324622314626
 10
5.190205171782054
 20
9.106627317189861
 30
-0.0656250000000023
 10
5.18848461352934
 20
9.105855114761652
 30
-0.0656250000000021
1001
ACAD_VIEW_EDGE_ID
1071
       73
1071
       -1
1071
        2
1071
        0
  0
SPLINE
  5
5E0
330
70
100
AcDbEntity
  8
Visible
100
AcDbSpline
 70
     0
 71
     3
 72
    14
 73
    10
 74
     0
 42
0.000000001
 43
0.0000000001
 40
0.3533445709903481
 40
0.3533445709903481
 40
0.3533445709903481
 40
0.3533445709903481
 40
0.640231464748919
 40
0.640231464748919
 40
0.9311500255532523
 40
0.9311500255532523
 40
1.222068586357585
 40
1.222068586357585
 40
1.508955480116204
 40
1.508955480116204
 40
1.508955480116204
 40
1.508955480116204
 10
5.81151679755942
 20
9.105855114761652
 30
-0.0656250000000023
 10
5.809796239306706
 20
9.106627317189861
 30
-0.0656250000000022
 10
5.807882782076035
 20
9.107267936750872
 30
-0.0653246223146258
 10
5.803941839939511
 20
9.108117273752839
 30
-0.0646682219406845
 10
5.801909619985337
 20
9.108320901022693
 30
-0.0643337709369289
 10
5.798091791103445
 20
9.108320901022693
 30
-0.0643337709369289
 10
5.796059571149385
 20
9.108117273752839
 30
-0.0646682219406845
 10
5.792118629012747
 20
9.107267936750872
 30
-0.0653246223146258
 10
5.790205171782076
 20
9.106627317189861
 30
-0.0656250000000021
 10
5.788484613529362
 20
9.105855114761652
 30
-0.0656250000000023
1001
ACAD_VIEW_EDGE_ID
1071
       75
1071
       -1
1071
        2
1071
        0
  0
SPLINE
  5
5E1
330
70
100
AcDbEntity
  8
Visible
100
AcDbSpline
 70
     0
 71
     3
 72
    14
 73
    10
 74
     0
 42
0.000000001
 43
0.0000000001
 40
0.353344570990224
 40
0.353344570990224
 40
0.353344570990224
 40
0.353344570990224
 40
0.6402314647489247
 40
0.6402314647489247
 40
0.9311500255532314
 40
0.9311500255532314
 40
1.222068586357564
 40
1.222068586357564
 40
1.508955480116255
 40
1.508955480116255
 40
1.508955480116255
 40
1.508955480116255
 10
6.411516797559386
 20
9.105855114761652
 30
-0.0656250000000024
 10
6.409796239306729
 20
9.106627317189861
 30
-0.0656250000000027
 10
6.407882782076001
 20
9.107267936750872
 30
-0.0653246223146258
 10
6.403941839939477
 20
9.108117273752839
 30
-0.0646682219406844
 10
6.401909619985303
 20
9.108320901022693
 30
-0.0643337709369288
 10
6.398091791103411
 20
9.108320901022693
 30
-0.0643337709369288
 10
6.396059571149351
 20
9.108117273752839
 30
-0.0646682219406844
 10
6.39211862901277
 20
9.107267936750872
 30
-0.0653246223146258
 10
6.390205171782042
 20
9.106627317189861
 30
-0.0656250000000027
 10
6.388484613529385
 20
9.105855114761652
 30
-0.0656250000000025
1001
ACAD_VIEW_EDGE_ID
1071
       77
1071
       -1
1071
        2
1071
        0
  0
SPLINE
  5
5E2
330
70
100
AcDbEntity
  8
Visible
100
AcDbSpline
 70
     0
 71
     3
 72
    14
 73
    10
 74
     0
 42
0.000000001
 43
0.0000000001
 40
0.353344570990288
 40
0.353344570990288
 40
0.353344570990288
 40
0.353344570990288
 40
0.640231464748919
 40
0.640231464748919
 40
0.9311500255532523
 40
0.9311500255532523
 40
1.222068586357585
 40
1.222068586357585
 40
1.508955480116216
 40
1.508955480116216
 40
1.508955480116216
 40
1.508955480116216
 10
7.011516797559409
 20
9.105855114761652
 30
-0.0656250000000026
 10
7.009796239306695
 20
9.106627317189861
 30
-0.0656250000000027
 10
7.007882782076023
 20
9.107267936750872
 30
-0.0653246223146255
 10
7.0039418399395
 20
9.108117273752839
 30
-0.0646682219406843
 10
7.001909619985326
 20
9.108320901022693
 30
-0.0643337709369286
 10
6.998091791103433
 20
9.108320901022693
 30
-0.0643337709369286
 10
6.996059571149373
 20
9.108117273752839
 30
-0.0646682219406846
 10
6.992118629012736
 20
9.107267936750872
 30
-0.0653246223146259
 10
6.990205171782065
 20
9.106627317189861
 30
-0.0656250000000027
 10
6.988484613529351
 20
9.105855114761652
 30
-0.0656250000000027
1001
ACAD_VIEW_EDGE_ID
1071
       79
1071
       -1
1071
        2
1071
        0
  0
SPLINE
  5
5E3
330
70
100
AcDbEntity
  8
Visible
100
AcDbSpline
 70
     0
 71
     3
 72
    14
 73
    10
 74
     0
 42
0.000000001
 43
0.0000000001
 40
0.3533445709902781
 40
0.3533445709902781
 40
0.3533445709902781
 40
0.3533445709902781
 40
0.6402314647489069
 40
0.6402314647489069
 40
0.9311500255532401
 40
0.9311500255532401
 40
1.222068586357573
 40
1.222068586357573
 40
1.508955480116214
 40
1.508955480116214
 40
1.508955480116214
 40
1.508955480116214
 10
7.611516797559374
 20
9.105855114761652
 30
-0.0656250000000028
 10
7.609796239306717
 20
9.106627317189861
 30
-0.0656250000000029
 10
7.607882782075989
 20
9.107267936750872
 30
-0.0653246223146256
 10
7.603941839939466
 20
9.108117273752839
 30
-0.0646682219406841
 10
7.601909619985349
 20
9.108320901022693
 30
-0.0643337709369285
 10
7.598091791103456
 20
9.108320901022693
 30
-0.0643337709369285
 10
7.596059571149339
 20
9.108117273752839
 30
-0.0646682219406841
 10
7.592118629012759
 20
9.107267936750872
 30
-0.0653246223146256
 10
7.590205171782031
 20
9.106627317189861
 30
-0.065625000000003
 10
7.588484613529374
 20
9.105855114761652
 30
-0.0656250000000028
1001
ACAD_VIEW_EDGE_ID
1071
       81
1071
       -1
1071
        2
1071
        0
  0
SPLINE
  5
5E4
330
70
100
AcDbEntity
  8
Visible
100
AcDbSpline
 70
     0
 71
     3
 72
    14
 73
    10
 74
     0
 42
0.000000001
 43
0.0000000001
 40
0.3533445709902714
 40
0.3533445709902714
 40
0.3533445709902714
 40
0.3533445709902714
 40
0.640231464748926
 40
0.640231464748926
 40
0.9311500255532326
 40
0.9311500255532326
 40
1.222068586357565
 40
1.222068586357565
 40
1.508955480116207
 40
1.508955480116207
 40
1.508955480116207
 40
1.508955480116207
 10
8.211516797559397
 20
9.105855114761652
 30
-0.065625000000003
 10
8.209796239306683
 20
9.106627317189861
 30
-0.065625000000003
 10
8.207882782076012
 20
9.107267936750872
 30
-0.0653246223146254
 10
8.203941839939489
 20
9.108117273752839
 30
-0.0646682219406841
 10
8.201909619985315
 20
9.108320901022693
 30
-0.0643337709369284
 10
8.198091791103422
 20
9.108320901022693
 30
-0.0643337709369284
 10
8.196059571149362
 20
9.108117273752839
 30
-0.064668221940684
 10
8.192118629012725
 20
9.107267936750872
 30
-0.0653246223146255
 10
8.190205171782054
 20
9.106627317189861
 30
-0.0656250000000032
 10
8.18848461352934
 20
9.105855114761652
 30
-0.065625000000003
1001
ACAD_VIEW_EDGE_ID
1071
       83
1071
       -1
1071
        2
1071
        0
  0
SPLINE
  5
5E5
330
70
100
AcDbEntity
  8
Visible
100
AcDbSpline
 70
     0
 71
     3
 72
    14
 73
    10
 74
     0
 42
0.000000001
 43
0.0000000001
 40
0.353344570990336
 40
0.353344570990336
 40
0.353344570990336
 40
0.353344570990336
 40
0.6402314647489069
 40
0.6402314647489069
 40
0.9311500255532401
 40
0.9311500255532401
 40
1.222068586357573
 40
1.222068586357573
 40
1.508955480116154
 40
1.508955480116154
 40
1.508955480116154
 40
1.508955480116154
 10
8.81151679755942
 20
9.105855114761652
 30
-0.0656250000000032
 10
8.809796239306706
 20
9.106627317189861
 30
-0.0656250000000033
 10
8.807882782076035
 20
9.107267936750872
 30
-0.0653246223146252
 10
8.803941839939511
 20
9.108117273752839
 30
-0.0646682219406839
 10
8.801909619985394
 20
9.108320901022693
 30
-0.0643337709369282
 10
8.798091791103445
 20
9.108320901022693
 30
-0.0643337709369282
 10
8.796059571149385
 20
9.108117273752839
 30
-0.0646682219406839
 10
8.792118629012747
 20
9.107267936750872
 30
-0.0653246223146253
 10
8.790205171782076
 20
9.106627317189861
 30
-0.0656250000000034
 10
8.788484613529362
 20
9.105855114761652
 30
-0.0656250000000032
1001
ACAD_VIEW_EDGE_ID
1071
       85
1071
       -1
1071
        2
1071
        0
  0
SPLINE
  5
5E6
330
70
100
AcDbEntity
  8
Visible
100
AcDbSpline
 70
     0
 71
     3
 72
    14
 73
    10
 74
     0
 42
0.000000001
 43
0.0000000001
 40
0.3533445709902781
 40
0.3533445709902781
 40
0.3533445709902781
 40
0.3533445709902781
 40
0.6402314647489069
 40
0.6402314647489069
 40
0.9311500255532401
 40
0.9311500255532401
 40
1.222068586357573
 40
1.222068586357573
 40
1.508955480116202
 40
1.508955480116202
 40
1.508955480116202
 40
1.508955480116202
 10
9.411516797559386
 20
9.105855114761652
 30
-0.0656250000000034
 10
9.409796239306729
 20
9.106627317189861
 30
-0.0656250000000035
 10
9.407882782076001
 20
9.107267936750872
 30
-0.0653246223146252
 10
9.403941839939477
 20
9.108117273752839
 30
-0.0646682219406837
 10
9.401909619985417
 20
9.108320901022693
 30
-0.0643337709369281
 10
9.398091791103411
 20
9.108320901022693
 30
-0.0643337709369281
 10
9.396059571149351
 20
9.108117273752839
 30
-0.0646682219406837
 10
9.39211862901277
 20
9.107267936750872
 30
-0.0653246223146252
 10
9.390205171782042
 20
9.106627317189861
 30
-0.0656250000000035
 10
9.388484613529385
 20
9.105855114761652
 30
-0.0656250000000034
1001
ACAD_VIEW_EDGE_ID
1071
       87
1071
       -1
1071
        2
1071
        0
  0
SPLINE
  5
5E7
330
70
100
AcDbEntity
  8
Visible
100
AcDbSpline
 70
     0
 71
     3
 72
    14
 73
    10
 74
     0
 42
0.000000001
 43
0.0000000001
 40
0.3533445709903241
 40
0.3533445709903241
 40
0.3533445709903241
 40
0.3533445709903241
 40
0.6402314647489073
 40
0.6402314647489073
 40
0.9311500255532539
 40
0.9311500255532539
 40
1.2220685863576
 40
1.2220685863576
 40
1.508955480116189
 40
1.508955480116189
 40
1.508955480116189
 40
1.508955480116189
 10
10.01151679755941
 20
9.105855114761652
 30
-0.0656250000000036
 10
10.00979623930669
 20
9.106627317189861
 30
-0.0656250000000037
 10
10.00788278207602
 20
9.107267936750872
 30
-0.065324622314625
 10
10.0039418399395
 20
9.108117273752839
 30
-0.0646682219406836
 10
10.00190961998532
 20
9.108320901022693
 30
-0.064333770936928
 10
9.998091791103433
 20
9.108320901022693
 30
-0.064333770936928
 10
9.996059571149373
 20
9.108117273752839
 30
-0.0646682219406837
 10
9.992118629012736
 20
9.107267936750872
 30
-0.065324622314625
 10
9.990205171782065
 20
9.106627317189861
 30
-0.0656250000000038
 10
9.988484613529351
 20
9.105855114761652
 30
-0.0656250000000036
1001
ACAD_VIEW_EDGE_ID
1071
       89
1071
       -1
1071
        2
1071
        0
  0
SPLINE
  5
5E8
330
70
100
AcDbEntity
  8
Visible
100
AcDbSpline
 70
     0
 71
     3
 72
    14
 73
    10
 74
     0
 42
0.000000001
 43
0.0000000001
 40
0.3533445709902899
 40
0.3533445709902899
 40
0.3533445709902899
 40
0.3533445709902899
 40
0.640231464748918
 40
0.640231464748918
 40
0.9311500255532783
 40
0.9311500255532783
 40
1.222068586357597
 40
1.222068586357597
 40
1.508955480116238
 40
1.508955480116238
 40
1.508955480116238
 40
1.508955480116238
 10
10.61151679755937
 20
9.105855114761652
 30
-0.0656250000000038
 10
10.60979623930672
 20
9.106627317189861
 30
-0.0656250000000038
 10
10.60788278207599
 20
9.107267936750872
 30
-0.0653246223146249
 10
10.60394183993946
 20
9.108117273752839
 30
-0.0646682219406835
 10
10.60190961998535
 20
9.108320901022693
 30
-0.0643337709369278
 10
10.59809179110345
 20
9.108320901022693
 30
-0.0643337709369279
 10
10.59605957114934
 20
9.108117273752839
 30
-0.0646682219406835
 10
10.59211862901276
 20
9.107267936750872
 30
-0.0653246223146249
 10
10.59020517178203
 20
9.106627317189861
 30
-0.0656250000000041
 10
10.58848461352937
 20
9.105855114761652
 30
-0.0656250000000038
1001
ACAD_VIEW_EDGE_ID
1071
       91
1071
       -1
1071
        2
1071
        0
  0
SPLINE
  5
5E9
330
70
100
AcDbEntity
  8
Visible
100
AcDbSpline
 70
     0
 71
     3
 72
    14
 73
    10
 74
     0
 42
0.000000001
 43
0.0000000001
 40
0.3533445709902639
 40
0.3533445709902639
 40
0.3533445709902639
 40
0.3533445709902639
 40
0.6402314647489073
 40
0.6402314647489073
 40
0.9311500255532539
 40
0.9311500255532539
 40
1.2220685863576
 40
1.2220685863576
 40
1.508955480116213
 40
1.508955480116213
 40
1.508955480116213
 40
1.508955480116213
 10
11.21151679755939
 20
9.105855114761652
 30
-0.065625000000004
 10
11.20979623930668
 20
9.106627317189861
 30
-0.0656250000000041
 10
11.20788278207601
 20
9.107267936750872
 30
-0.0653246223146248
 10
11.20394183993949
 20
9.108117273752839
 30
-0.0646682219406833
 10
11.20190961998543
 20
9.108320901022693
 30
-0.0643337709369277
 10
11.19809179110342
 20
9.108320901022693
 30
-0.0643337709369277
 10
11.19605957114936
 20
9.108117273752839
 30
-0.0646682219406835
 10
11.19211862901272
 20
9.107267936750872
 30
-0.0653246223146248
 10
11.19020517178205
 20
9.106627317189861
 30
-0.065625000000004
 10
11.18848461352934
 20
9.105855114761652
 30
-0.065625000000004
1001
ACAD_VIEW_EDGE_ID
1071
       93
1071
       -1
1071
        2
1071
        0
  0
SPLINE
  5
5EA
330
70
100
AcDbEntity
  8
Visible
100
AcDbSpline
 70
     0
 71
     3
 72
    14
 73
    10
 74
     0
 42
0.000000001
 43
0.0000000001
 40
0.353344570990294
 40
0.353344570990294
 40
0.353344570990294
 40
0.353344570990294
 40
0.6402314647489073
 40
0.6402314647489073
 40
0.9311500255532539
 40
0.9311500255532539
 40
1.2220685863576
 40
1.2220685863576
 40
1.508955480116213
 40
1.508955480116213
 40
1.508955480116213
 40
1.508955480116213
 10
11.81151679755942
 20
9.105855114761652
 30
-0.0656250000000042
 10
11.8097962393067
 20
9.106627317189861
 30
-0.0656250000000042
 10
11.80788278207603
 20
9.107267936750872
 30
-0.0653246223146247
 10
11.80394183993951
 20
9.108117273752839
 30
-0.0646682219406832
 10
11.80190961998539
 20
9.108320901022693
 30
-0.0643337709369276
 10
11.79809179110344
 20
9.108320901022693
 30
-0.0643337709369276
 10
11.79605957114938
 20
9.108117273752839
 30
-0.0646682219406832
 10
11.79211862901275
 20
9.107267936750872
 30
-0.0653246223146247
 10
11.79020517178207
 20
9.106627317189861
 30
-0.0656250000000043
 10
11.78848461352936
 20
9.105855114761652
 30
-0.0656250000000042
1001
ACAD_VIEW_EDGE_ID
1071
       95
1071
       -1
1071
        2
1071
        0
  0
SPLINE
  5
5EB
330
70
100
AcDbEntity
  8
Visible
100
AcDbSpline
 70
     0
 71
     3
 72
    14
 73
    10
 74
     0
 42
0.000000001
 43
0.0000000001
 40
0.3533445709902773
 40
0.3533445709902773
 40
0.3533445709902773
 40
0.3533445709902773
 40
0.6402314647489057
 40
0.6402314647489057
 40
0.9311500255532523
 40
0.9311500255532523
 40
1.222068586357599
 40
1.222068586357599
 40
1.508955480116228
 40
1.508955480116228
 40
1.508955480116228
 40
1.508955480116228
 10
12.41151679755938
 20
9.105855114761652
 30
-0.0656250000000044
 10
12.40979623930673
 20
9.106627317189861
 30
-0.0656250000000045
 10
12.407882782076
 20
9.107267936750872
 30
-0.0653246223146245
 10
12.40394183993948
 20
9.108117273752839
 30
-0.0646682219406832
 10
12.4019096199853
 20
9.108320901022693
 30
-0.0643337709369274
 10
12.39809179110341
 20
9.108320901022693
 30
-0.0643337709369274
 10
12.39605957114935
 20
9.108117273752839
 30
-0.0646682219406832
 10
12.39211862901277
 20
9.107267936750872
 30
-0.0653246223146245
 10
12.39020517178204
 20
9.106627317189861
 30
-0.0656250000000045
 10
12.38848461352938
 20
9.105855114761652
 30
-0.0656250000000044
1001
ACAD_VIEW_EDGE_ID
1071
       97
1071
       -1
1071
        2
1071
        0
  0
SPLINE
  5
5EC
330
70
100
AcDbEntity
  8
Visible
100
AcDbSpline
 70
     0
 71
     3
 72
    14
 73
    10
 74
     0
 42
0.000000001
 43
0.0000000001
 40
0.353344570990275
 40
0.353344570990275
 40
0.353344570990275
 40
0.353344570990275
 40
0.6402314647489057
 40
0.6402314647489057
 40
0.9311500255532523
 40
0.9311500255532523
 40
1.222068586357599
 40
1.222068586357599
 40
1.508955480116229
 40
1.508955480116229
 40
1.508955480116229
 40
1.508955480116229
 10
13.01151679755941
 20
9.105855114761652
 30
-0.0656250000000046
 10
13.00979623930669
 20
9.106627317189861
 30
-0.0656250000000047
 10
13.00788278207602
 20
9.107267936750872
 30
-0.0653246223146243
 10
13.0039418399395
 20
9.108117273752839
 30
-0.064668221940683
 10
13.00190961998533
 20
9.108320901022693
 30
-0.0643337709369273
 10
12.99809179110343
 20
9.108320901022693
 30
-0.0643337709369273
 10
12.99605957114937
 20
9.108117273752839
 30
-0.064668221940683
 10
12.99211862901273
 20
9.107267936750872
 30
-0.0653246223146244
 10
12.99020517178206
 20
9.106627317189861
 30
-0.0656250000000047
 10
12.98848461352935
 20
9.105855114761652
 30
-0.0656250000000046
1001
ACAD_VIEW_EDGE_ID
1071
       99
1071
       -1
1071
        2
1071
        0
  0
SPLINE
  5
5ED
330
70
100
AcDbEntity
  8
Visible
100
AcDbSpline
 70
     0
 71
     3
 72
    14
 73
    10
 74
     0
 42
0.000000001
 43
0.0000000001
 40
0.3533445709902909
 40
0.3533445709902909
 40
0.3533445709902909
 40
0.3533445709902909
 40
0.6402314647489085
 40
0.6402314647489085
 40
0.9311500255532518
 40
0.9311500255532518
 40
1.222068586357595
 40
1.222068586357595
 40
1.508955480116212
 40
1.508955480116212
 40
1.508955480116212
 40
1.508955480116212
 10
13.61151679755937
 20
9.105855114761652
 30
-0.0656250000000048
 10
13.60979623930672
 20
9.106627317189861
 30
-0.0656250000000049
 10
13.60788278207599
 20
9.107267936750872
 30
-0.0653246223146242
 10
13.60394183993946
 20
9.108117273752839
 30
-0.0646682219406828
 10
13.60190961998535
 20
9.108320901022693
 30
-0.0643337709369272
 10
13.59809179110345
 20
9.108320901022693
 30
-0.0643337709369272
 10
13.59605957114934
 20
9.108117273752839
 30
-0.0646682219406828
 10
13.59211862901276
 20
9.107267936750872
 30
-0.0653246223146242
 10
13.59020517178203
 20
9.106627317189861
 30
-0.0656250000000048
 10
13.58848461352937
 20
9.105855114761652
 30
-0.0656250000000048
1001
ACAD_VIEW_EDGE_ID
1071
      101
1071
       -1
1071
        2
1071
        0
  0
SPLINE
  5
5EE
330
70
100
AcDbEntity
  8
Visible
100
AcDbSpline
 70
     0
 71
     3
 72
    14
 73
    10
 74
     0
 42
0.000000001
 43
0.0000000001
 40
0.3534006752902819
 40
0.3534006752902819
 40
0.3534006752902819
 40
0.3534006752902819
 40
0.64013770595795
 40
0.64013770595795
 40
0.9309921460864758
 40
0.9309921460864758
 40
1.221846586215001
 40
1.221846586215001
 40
1.508583616882668
 40
1.508583616882668
 40
1.508583616882668
 40
1.508583616882668
 10
13.58848809096071
 20
9.05453512686347
 30
-0.0656250000000048
 10
13.5902079239903
 20
9.053763529923514
 30
-0.0656250000000048
 10
13.59212051483757
 20
9.053123384502384
 30
-0.065325074781227
 10
13.59606027031384
 20
9.052274453082929
 30
-0.0646697559742648
 10
13.59809221184275
 20
9.052070901022659
 30
-0.0643360204573225
 10
13.60190919924599
 20
9.052070901022659
 30
-0.0643360204573225
 10
13.60394114077491
 20
9.052274453082929
 30
-0.0646697559742648
 10
13.60788089625123
 20
9.053123384502384
 30
-0.065325074781227
 10
13.6097934870985
 20
9.053763529923514
 30
-0.0656250000000048
 10
13.61151332012804
 20
9.05453512686347
 30
-0.0656250000000048
1001
ACAD_VIEW_EDGE_ID
1071
      127
1071
       -1
1071
        2
1071
        0
  0
SPLINE
  5
5EF
330
70
100
AcDbEntity
  8
Visible
100
AcDbSpline
 70
     0
 71
     3
 72
    14
 73
    10
 74
     0
 42
0.000000001
 43
0.0000000001
 40
0.353400675290315
 40
0.353400675290315
 40
0.353400675290315
 40
0.353400675290315
 40
0.6401377059579487
 40
0.6401377059579487
 40
0.9309921460864778
 40
0.9309921460864778
 40
1.221846586215006
 40
1.221846586215006
 40
1.50858361688264
 40
1.50858361688264
 40
1.50858361688264
 40
1.50858361688264
 10
12.98848809096069
 20
9.05453512686347
 30
-0.0656250000000046
 10
12.99020792399034
 20
9.053763529923514
 30
-0.0656250000000046
 10
12.99212051483755
 20
9.053123384502384
 30
-0.0653250747812272
 10
12.99606027031387
 20
9.052274453082929
 30
-0.064669755974265
 10
12.99809221184279
 20
9.052070901022659
 30
-0.0643360204573226
 10
13.00190919924597
 20
9.052070901022659
 30
-0.0643360204573226
 10
13.00394114077488
 20
9.052274453082929
 30
-0.064669755974265
 10
13.00788089625121
 20
9.053123384502384
 30
-0.0653250747812272
 10
13.00979348709853
 20
9.053763529923514
 30
-0.0656250000000046
 10
13.01151332012807
 20
9.05453512686347
 30
-0.0656250000000046
1001
ACAD_VIEW_EDGE_ID
1071
      133
1071
       -1
1071
        2
1071
        0
  0
SPLINE
  5
5F0
330
70
100
AcDbEntity
  8
Visible
100
AcDbSpline
 70
     0
 71
     3
 72
    14
 73
    10
 74
     0
 42
0.000000001
 43
0.0000000001
 40
0.3534006752902992
 40
0.3534006752902992
 40
0.3534006752902992
 40
0.3534006752902992
 40
0.6401377059579487
 40
0.6401377059579487
 40
0.9309921460864778
 40
0.9309921460864778
 40
1.221846586215006
 40
1.221846586215006
 40
1.508583616882668
 40
1.508583616882668
 40
1.508583616882668
 40
1.508583616882668
 10
12.38848809096072
 20
9.05453512686347
 30
-0.0656250000000044
 10
12.39020792399031
 20
9.053763529923514
 30
-0.0656250000000044
 10
12.39212051483753
 20
9.053123384502384
 30
-0.0653250747812273
 10
12.39606027031385
 20
9.052274453082929
 30
-0.0646697559742651
 10
12.39809221184276
 20
9.052070901022659
 30
-0.0643360204573227
 10
12.401909199246
 20
9.052070901022659
 30
-0.0643360204573227
 10
12.40394114077492
 20
9.052274453082929
 30
-0.0646697559742651
 10
12.40788089625118
 20
9.053123384502384
 30
-0.0653250747812273
 10
12.40979348709851
 20
9.053763529923514
 30
-0.0656250000000044
 10
12.41151332012805
 20
9.05453512686347
 30
-0.0656250000000044
1001
ACAD_VIEW_EDGE_ID
1071
      143
1071
       -1
1071
        2
1071
        0
  0
SPLINE
  5
5F1
330
70
100
AcDbEntity
  8
Visible
100
AcDbSpline
 70
     0
 71
     3
 72
    14
 73
    10
 74
     0
 42
0.000000001
 43
0.0000000001
 40
0.3534006752903034
 40
0.3534006752903034
 40
0.3534006752903034
 40
0.3534006752903034
 40
0.6401377059579504
 40
0.6401377059579504
 40
0.9309921460864796
 40
0.9309921460864796
 40
1.221846586215008
 40
1.221846586215008
 40
1.508583616882636
 40
1.508583616882636
 40
1.508583616882636
 40
1.508583616882636
 10
11.7884880909607
 20
9.05453512686347
 30
-0.0656250000000042
 10
11.79020792399035
 20
9.053763529923514
 30
-0.0656250000000043
 10
11.79212051483756
 20
9.053123384502384
 30
-0.0653250747812273
 10
11.79606027031389
 20
9.052274453082929
 30
-0.0646697559742652
 10
11.7980922118428
 20
9.052070901022659
 30
-0.0643360204573229
 10
11.80190919924609
 20
9.052070901022659
 30
-0.0643360204573229
 10
11.80394114077489
 20
9.052274453082929
 30
-0.0646697559742652
 10
11.80788089625122
 20
9.053123384502384
 30
-0.0653250747812273
 10
11.80979348709854
 20
9.053763529923514
 30
-0.0656250000000043
 10
11.81151332012803
 20
9.05453512686347
 30
-0.0656250000000042
1001
ACAD_VIEW_EDGE_ID
1071
      149
1071
       -1
1071
        2
1071
        0
  0
SPLINE
  5
5F2
330
70
100
AcDbEntity
  8
Visible
100
AcDbSpline
 70
     0
 71
     3
 72
    14
 73
    10
 74
     0
 42
0.000000001
 43
0.0000000001
 40
0.3534006752903034
 40
0.3534006752903034
 40
0.3534006752903034
 40
0.3534006752903034
 40
0.6401377059579504
 40
0.6401377059579504
 40
0.9309921460864796
 40
0.9309921460864796
 40
1.221846586215008
 40
1.221846586215008
 40
1.508583616882691
 40
1.508583616882691
 40
1.508583616882691
 40
1.508583616882691
 10
11.18848809096073
 20
9.05453512686347
 30
-0.065625000000004
 10
11.19020792399033
 20
9.053763529923514
 30
-0.0656250000000041
 10
11.19212051483754
 20
9.053123384502384
 30
-0.0653250747812275
 10
11.19606027031386
 20
9.052274453082929
 30
-0.0646697559742653
 10
11.19809221184278
 20
9.052070901022659
 30
-0.064336020457323
 10
11.20190919924607
 20
9.052070901022659
 30
-0.064336020457323
 10
11.20394114077487
 20
9.052274453082929
 30
-0.0646697559742653
 10
11.20788089625119
 20
9.053123384502384
 30
-0.0653250747812275
 10
11.20979348709852
 20
9.053763529923514
 30
-0.0656250000000041
 10
11.21151332012806
 20
9.05453512686347
 30
-0.065625000000004
1001
ACAD_VIEW_EDGE_ID
1071
      159
1071
       -1
1071
        2
1071
        0
  0
SPLINE
  5
5F3
330
70
100
AcDbEntity
  8
Visible
100
AcDbSpline
 70
     0
 71
     3
 72
    14
 73
    10
 74
     0
 42
0.000000001
 43
0.0000000001
 40
0.3534006752903034
 40
0.3534006752903034
 40
0.3534006752903034
 40
0.3534006752903034
 40
0.6401377059579504
 40
0.6401377059579504
 40
0.9309921460864796
 40
0.9309921460864796
 40
1.221846586215008
 40
1.221846586215008
 40
1.508583616882632
 40
1.508583616882632
 40
1.508583616882632
 40
1.508583616882632
 10
10.58848809096071
 20
9.05453512686347
 30
-0.0656250000000038
 10
10.5902079239903
 20
9.053763529923514
 30
-0.0656250000000038
 10
10.59212051483757
 20
9.053123384502384
 30
-0.0653250747812276
 10
10.59606027031384
 20
9.052274453082929
 30
-0.0646697559742655
 10
10.59809221184275
 20
9.052070901022659
 30
-0.0643360204573231
 10
10.60190919924599
 20
9.052070901022659
 30
-0.0643360204573231
 10
10.60394114077491
 20
9.052274453082929
 30
-0.0646697559742655
 10
10.60788089625123
 20
9.053123384502384
 30
-0.0653250747812276
 10
10.6097934870985
 20
9.053763529923514
 30
-0.0656250000000037
 10
10.61151332012804
 20
9.05453512686347
 30
-0.0656250000000038
1001
ACAD_VIEW_EDGE_ID
1071
      165
1071
       -1
1071
        2
1071
        0
  0
SPLINE
  5
5F4
330
70
100
AcDbEntity
  8
Visible
100
AcDbSpline
 70
     0
 71
     3
 72
    14
 73
    10
 74
     0
 42
0.000000001
 43
0.0000000001
 40
0.3534006752902887
 40
0.3534006752902887
 40
0.3534006752902887
 40
0.3534006752902887
 40
0.6401377059579545
 40
0.6401377059579545
 40
0.9309921460864972
 40
0.9309921460864972
 40
1.221846586215012
 40
1.221846586215012
 40
1.508583616882619
 40
1.508583616882619
 40
1.508583616882619
 40
1.508583616882619
 10
9.988488090960686
 20
9.05453512686347
 30
-0.0656250000000036
 10
9.99020792399034
 20
9.053763529923514
 30
-0.0656250000000037
 10
9.992120514837552
 20
9.053123384502384
 30
-0.0653250747812277
 10
9.996060270313876
 20
9.052274453082929
 30
-0.0646697559742656
 10
9.998092211842788
 20
9.052070901022659
 30
-0.0643360204573232
 10
10.00190919924608
 20
9.052070901022659
 30
-0.0643360204573233
 10
10.00394114077488
 20
9.052274453082929
 30
-0.0646697559742657
 10
10.00788089625121
 20
9.053123384502384
 30
-0.0653250747812277
 10
10.00979348709853
 20
9.053763529923514
 30
-0.0656250000000036
 10
10.01151332012807
 20
9.05453512686347
 30
-0.0656250000000036
1001
ACAD_VIEW_EDGE_ID
1071
      175
1071
       -1
1071
        2
1071
        0
  0
SPLINE
  5
5F5
330
70
100
AcDbEntity
  8
Visible
100
AcDbSpline
 70
     0
 71
     3
 72
    14
 73
    10
 74
     0
 42
0.000000001
 43
0.0000000001
 40
0.353400675290341
 40
0.353400675290341
 40
0.353400675290341
 40
0.353400675290341
 40
0.6401377059579452
 40
0.6401377059579452
 40
0.9309921460864597
 40
0.9309921460864597
 40
1.221846586214974
 40
1.221846586214974
 40
1.508583616882638
 40
1.508583616882638
 40
1.508583616882638
 40
1.508583616882638
 10
9.38848809096072
 20
9.05453512686347
 30
-0.0656250000000034
 10
9.390207923990317
 20
9.053763529923514
 30
-0.0656250000000034
 10
9.392120514837529
 20
9.053123384502384
 30
-0.0653250747812279
 10
9.396060270313853
 20
9.052274453082929
 30
-0.0646697559742657
 10
9.398092211842765
 20
9.052070901022659
 30
-0.0643360204573234
 10
9.401909199246063
 20
9.052070901022659
 30
-0.0643360204573234
 10
9.403941140774918
 20
9.052274453082929
 30
-0.0646697559742657
 10
9.407880896251185
 20
9.053123384502384
 30
-0.065325074781228
 10
9.409793487098511
 20
9.053763529923514
 30
-0.0656250000000034
 10
9.411513320128051
 20
9.05453512686347
 30
-0.0656250000000034
1001
ACAD_VIEW_EDGE_ID
1071
      181
1071
       -1
1071
        2
1071
        0
  0
SPLINE
  5
5F6
330
70
100
AcDbEntity
  8
Visible
100
AcDbSpline
 70
     0
 71
     3
 72
    14
 73
    10
 74
     0
 42
0.000000001
 43
0.0000000001
 40
0.3534006752902809
 40
0.3534006752902809
 40
0.3534006752902809
 40
0.3534006752902809
 40
0.6401377059579452
 40
0.6401377059579452
 40
0.9309921460864597
 40
0.9309921460864597
 40
1.221846586214974
 40
1.221846586214974
 40
1.508583616882698
 40
1.508583616882698
 40
1.508583616882698
 40
1.508583616882698
 10
8.788488090960697
 20
9.05453512686347
 30
-0.0656250000000033
 10
8.790207923990351
 20
9.053763529923514
 30
-0.0656250000000031
 10
8.792120514837563
 20
9.053123384502384
 30
-0.0653250747812281
 10
8.796060270313887
 20
9.052274453082929
 30
-0.0646697559742659
 10
8.798092211842799
 20
9.052070901022659
 30
-0.0643360204573235
 10
8.801909199246097
 20
9.052070901022659
 30
-0.0643360204573235
 10
8.803941140774895
 20
9.052274453082929
 30
-0.0646697559742659
 10
8.807880896251219
 20
9.053123384502384
 30
-0.0653250747812282
 10
8.809793487098545
 20
9.053763529923514
 30
-0.0656250000000036
 10
8.811513320128028
 20
9.05453512686347
 30
-0.0656250000000033
1001
ACAD_VIEW_EDGE_ID
1071
      191
1071
       -1
1071
        2
1071
        0
  0
SPLINE
  5
5F7
330
70
100
AcDbEntity
  8
Visible
100
AcDbSpline
 70
     0
 71
     3
 72
    14
 73
    10
 74
     0
 42
0.000000001
 43
0.0000000001
 40
0.3534006752902096
 40
0.3534006752902096
 40
0.3534006752902096
 40
0.3534006752902096
 40
0.6401377059579052
 40
0.6401377059579052
 40
0.930992146086392
 40
0.930992146086392
 40
1.221846586214934
 40
1.221846586214934
 40
1.508583616882627
 40
1.508583616882627
 40
1.508583616882627
 40
1.508583616882627
 10
8.188488090960731
 20
9.05453512686347
 30
-0.065625000000003
 10
8.190207923990328
 20
9.053763529923514
 30
-0.0656250000000032
 10
8.19212051483754
 20
9.053123384502384
 30
-0.0653250747812283
 10
8.196060270313864
 20
9.052274453082929
 30
-0.064669755974266
 10
8.198092211842777
 20
9.052070901022659
 30
-0.0643360204573238
 10
8.20190919924596
 20
9.052070901022659
 30
-0.0643360204573236
 10
8.203941140774873
 20
9.052274453082929
 30
-0.064669755974266
 10
8.207880896251197
 20
9.053123384502384
 30
-0.0653250747812283
 10
8.209793487098522
 20
9.053763529923514
 30
-0.0656250000000031
 10
8.211513320128062
 20
9.05453512686347
 30
-0.065625000000003
1001
ACAD_VIEW_EDGE_ID
1071
      197
1071
       -1
1071
        2
1071
        0
  0
SPLINE
  5
5F8
330
70
100
AcDbEntity
  8
Visible
100
AcDbSpline
 70
     0
 71
     3
 72
    14
 73
    10
 74
     0
 42
0.000000001
 43
0.0000000001
 40
0.3534006752902096
 40
0.3534006752902096
 40
0.3534006752902096
 40
0.3534006752902096
 40
0.6401377059579052
 40
0.6401377059579052
 40
0.930992146086392
 40
0.930992146086392
 40
1.221846586214934
 40
1.221846586214934
 40
1.508583616882567
 40
1.508583616882567
 40
1.508583616882567
 40
1.508583616882567
 10
7.588488090960709
 20
9.05453512686347
 30
-0.0656250000000029
 10
7.590207923990305
 20
9.053763529923514
 30
-0.0656250000000031
 10
7.592120514837574
 20
9.053123384502384
 30
-0.0653250747812285
 10
7.596060270313842
 20
9.052274453082929
 30
-0.0646697559742661
 10
7.598092211842754
 20
9.052070901022659
 30
-0.0643360204573239
 10
7.601909199245994
 20
9.052070901022659
 30
-0.0643360204573237
 10
7.603941140774907
 20
9.052274453082929
 30
-0.0646697559742661
 10
7.607880896251231
 20
9.053123384502384
 30
-0.0653250747812283
 10
7.6097934870985
 20
9.053763529923514
 30
-0.0656250000000027
 10
7.61151332012804
 20
9.05453512686347
 30
-0.0656250000000029
1001
ACAD_VIEW_EDGE_ID
1071
      207
1071
       -1
1071
        2
1071
        0
  0
SPLINE
  5
5F9
330
70
100
AcDbEntity
  8
Visible
100
AcDbSpline
 70
     0
 71
     3
 72
    14
 73
    10
 74
     0
 42
0.000000001
 43
0.0000000001
 40
0.3534006752903376
 40
0.3534006752903376
 40
0.3534006752903376
 40
0.3534006752903376
 40
0.6401377059579441
 40
0.6401377059579441
 40
0.9309921460864584
 40
0.9309921460864584
 40
1.221846586214999
 40
1.221846586214999
 40
1.50858361688264
 40
1.50858361688264
 40
1.50858361688264
 40
1.50858361688264
 10
6.988488090960686
 20
9.05453512686347
 30
-0.0656250000000027
 10
6.99020792399034
 20
9.053763529923514
 30
-0.0656250000000025
 10
6.992120514837552
 20
9.053123384502384
 30
-0.0653250747812283
 10
6.996060270313876
 20
9.052274453082929
 30
-0.0646697559742662
 10
6.998092211842788
 20
9.052070901022659
 30
-0.0643360204573239
 10
7.001909199246085
 20
9.052070901022659
 30
-0.0643360204573239
 10
7.003941140774884
 20
9.052274453082929
 30
-0.0646697559742664
 10
7.007880896251208
 20
9.053123384502384
 30
-0.0653250747812287
 10
7.009793487098534
 20
9.053763529923514
 30
-0.0656250000000026
 10
7.011513320128074
 20
9.05453512686347
 30
-0.0656250000000027
1001
ACAD_VIEW_EDGE_ID
1071
      213
1071
       -1
1071
        2
1071
        0
  0
SPLINE
  5
5FA
330
70
100
AcDbEntity
  8
Visible
100
AcDbSpline
 70
     0
 71
     3
 72
    14
 73
    10
 74
     0
 42
0.000000001
 43
0.0000000001
 40
0.3534006752902895
 40
0.3534006752902895
 40
0.3534006752902895
 40
0.3534006752902895
 40
0.6401377059579441
 40
0.6401377059579441
 40
0.9309921460864584
 40
0.9309921460864584
 40
1.221846586214946
 40
1.221846586214946
 40
1.508583616882694
 40
1.508583616882694
 40
1.508583616882694
 40
1.508583616882694
 10
6.38848809096072
 20
9.05453512686347
 30
-0.0656250000000025
 10
6.390207923990317
 20
9.053763529923514
 30
-0.0656250000000023
 10
6.392120514837529
 20
9.053123384502384
 30
-0.0653250747812285
 10
6.396060270313853
 20
9.052274453082929
 30
-0.0646697559742664
 10
6.398092211842765
 20
9.052070901022659
 30
-0.0643360204573241
 10
6.401909199246006
 20
9.052070901022659
 30
-0.0643360204573241
 10
6.403941140774918
 20
9.052274453082929
 30
-0.0646697559742662
 10
6.407880896251185
 20
9.053123384502384
 30
-0.0653250747812286
 10
6.409793487098511
 20
9.053763529923514
 30
-0.0656250000000027
 10
6.411513320128051
 20
9.05453512686347
 30
-0.0656250000000025
1001
ACAD_VIEW_EDGE_ID
1071
      223
1071
       -1
1071
        2
1071
        0
  0
SPLINE
  5
5FB
330
70
100
AcDbEntity
  8
Visible
100
AcDbSpline
 70
     0
 71
     3
 72
    14
 73
    10
 74
     0
 42
0.000000001
 43
0.0000000001
 40
0.3534006752903244
 40
0.3534006752903244
 40
0.3534006752903244
 40
0.3534006752903244
 40
0.6401377059579307
 40
0.6401377059579307
 40
0.9309921460864451
 40
0.9309921460864451
 40
1.221846586214933
 40
1.221846586214933
 40
1.508583616882621
 40
1.508583616882621
 40
1.508583616882621
 40
1.508583616882621
 10
5.788488090960697
 20
9.05453512686347
 30
-0.0656250000000023
 10
5.790207923990351
 20
9.053763529923514
 30
-0.0656250000000024
 10
5.792120514837563
 20
9.053123384502384
 30
-0.0653250747812285
 10
5.796060270313887
 20
9.052274453082929
 30
-0.0646697559742665
 10
5.798092211842799
 20
9.052070901022659
 30
-0.0643360204573242
 10
5.801909199245983
 20
9.052070901022659
 30
-0.0643360204573242
 10
5.803941140774895
 20
9.052274453082929
 30
-0.0646697559742663
 10
5.807880896251219
 20
9.053123384502384
 30
-0.0653250747812287
 10
5.809793487098545
 20
9.053763529923514
 30
-0.0656250000000023
 10
5.811513320128028
 20
9.05453512686347
 30
-0.0656250000000023
1001
ACAD_VIEW_EDGE_ID
1071
      229
1071
       -1
1071
        2
1071
        0
  0
SPLINE
  5
5FC
330
70
100
AcDbEntity
  8
Visible
100
AcDbSpline
 70
     0
 71
     3
 72
    14
 73
    10
 74
     0
 42
0.000000001
 43
0.0000000001
 40
0.3534006752903849
 40
0.3534006752903849
 40
0.3534006752903849
 40
0.3534006752903849
 40
0.6401377059579307
 40
0.6401377059579307
 40
0.9309921460864451
 40
0.9309921460864451
 40
1.221846586214959
 40
1.221846586214959
 40
1.508583616882613
 40
1.508583616882613
 40
1.508583616882613
 40
1.508583616882613
 10
5.188488090960731
 20
9.05453512686347
 30
-0.0656250000000021
 10
5.190207923990328
 20
9.053763529923514
 30
-0.0656250000000022
 10
5.19212051483754
 20
9.053123384502384
 30
-0.0653250747812286
 10
5.196060270313864
 20
9.052274453082929
 30
-0.0646697559742666
 10
5.198092211842777
 20
9.052070901022659
 30
-0.0643360204573243
 10
5.20190919924596
 20
9.052070901022659
 30
-0.0643360204573243
 10
5.203941140774873
 20
9.052274453082929
 30
-0.0646697559742665
 10
5.207880896251197
 20
9.053123384502384
 30
-0.0653250747812287
 10
5.209793487098522
 20
9.053763529923514
 30
-0.0656250000000019
 10
5.211513320128062
 20
9.05453512686347
 30
-0.0656250000000021
1001
ACAD_VIEW_EDGE_ID
1071
      239
1071
       -1
1071
        2
1071
        0
  0
SPLINE
  5
5FD
330
70
100
AcDbEntity
  8
Visible
100
AcDbSpline
 70
     0
 71
     3
 72
    14
 73
    10
 74
     0
 42
0.000000001
 43
0.0000000001
 40
0.3534006752904113
 40
0.3534006752904113
 40
0.3534006752904113
 40
0.3534006752904113
 40
0.6401377059579572
 40
0.6401377059579572
 40
0.9309921460864716
 40
0.9309921460864716
 40
1.221846586214986
 40
1.221846586214986
 40
1.50858361688264
 40
1.50858361688264
 40
1.50858361688264
 40
1.50858361688264
 10
4.588488090960709
 20
9.05453512686347
 30
-0.0656250000000019
 10
4.590207923990305
 20
9.053763529923514
 30
-0.0656250000000019
 10
4.592120514837574
 20
9.053123384502384
 30
-0.0653250747812287
 10
4.596060270313842
 20
9.052274453082929
 30
-0.0646697559742668
 10
4.598092211842754
 20
9.052070901022659
 30
-0.0643360204573245
 10
4.601909199245994
 20
9.052070901022659
 30
-0.0643360204573245
 10
4.603941140774907
 20
9.052274453082929
 30
-0.0646697559742668
 10
4.607880896251231
 20
9.053123384502384
 30
-0.0653250747812289
 10
4.6097934870985
 20
9.053763529923514
 30
-0.0656250000000018
 10
4.61151332012804
 20
9.05453512686347
 30
-0.0656250000000019
1001
ACAD_VIEW_EDGE_ID
1071
      245
1071
       -1
1071
        2
1071
        0
  0
SPLINE
  5
5FE
330
70
100
AcDbEntity
  8
Visible
100
AcDbSpline
 70
     0
 71
     3
 72
    14
 73
    10
 74
     0
 42
0.000000001
 43
0.0000000001
 40
0.3534006752901739
 40
0.3534006752901739
 40
0.3534006752901739
 40
0.3534006752901739
 40
0.6401377059579348
 40
0.6401377059579348
 40
0.9309921460864785
 40
0.9309921460864785
 40
1.221846586215022
 40
1.221846586215022
 40
1.508583616882542
 40
1.508583616882542
 40
1.508583616882542
 40
1.508583616882542
 10
3.988488090960686
 20
9.05453512686347
 30
-0.0656250000000017
 10
3.99020792399034
 20
9.053763529923514
 30
-0.0656250000000022
 10
3.992120514837552
 20
9.053123384502384
 30
-0.0653250747812289
 10
3.996060270313876
 20
9.052274453082929
 30
-0.0646697559742668
 10
3.998092211842788
 20
9.052070901022659
 30
-0.0643360204573246
 10
4.001909199245972
 20
9.052070901022659
 30
-0.0643360204573246
 10
4.003941140774884
 20
9.052274453082929
 30
-0.0646697559742668
 10
4.007880896251208
 20
9.053123384502384
 30
-0.0653250747812286
 10
4.009793487098534
 20
9.053763529923514
 30
-0.0656250000000014
 10
4.011513320128074
 20
9.05453512686347
 30
-0.0656250000000017
1001
ACAD_VIEW_EDGE_ID
1071
      255
1071
       -1
1071
        2
1071
        0
  0
SPLINE
  5
5FF
330
70
100
AcDbEntity
  8
Visible
100
AcDbSpline
 70
     0
 71
     3
 72
    14
 73
    10
 74
     0
 42
0.000000001
 43
0.0000000001
 40
0.3534006752901739
 40
0.3534006752901739
 40
0.3534006752901739
 40
0.3534006752901739
 40
0.6401377059579348
 40
0.6401377059579348
 40
0.9309921460864785
 40
0.9309921460864785
 40
1.221846586215022
 40
1.221846586215022
 40
1.508583616882783
 40
1.508583616882783
 40
1.508583616882783
 40
1.508583616882783
 10
3.38848809096072
 20
9.05453512686347
 30
-0.0656250000000015
 10
3.390207923990317
 20
9.053763529923514
 30
-0.065625000000002
 10
3.392120514837529
 20
9.053123384502384
 30
-0.065325074781229
 10
3.396060270313853
 20
9.052274453082929
 30
-0.0646697559742669
 10
3.398092211842765
 20
9.052070901022659
 30
-0.0643360204573247
 10
3.401909199246006
 20
9.052070901022659
 30
-0.0643360204573247
 10
3.403941140774918
 20
9.052274453082929
 30
-0.0646697559742669
 10
3.407880896251185
 20
9.053123384502384
 30
-0.065325074781229
 10
3.409793487098511
 20
9.053763529923514
 30
-0.0656250000000015
 10
3.411513320128051
 20
9.05453512686347
 30
-0.0656250000000015
1001
ACAD_VIEW_EDGE_ID
1071
      261
1071
       -1
1071
        2
1071
        0
  0
SPLINE
  5
600
330
70
100
AcDbEntity
  8
Visible
100
AcDbSpline
 70
     0
 71
     3
 72
    14
 73
    10
 74
     0
 42
0.000000001
 43
0.0000000001
 40
0.3534006752901739
 40
0.3534006752901739
 40
0.3534006752901739
 40
0.3534006752901739
 40
0.6401377059579348
 40
0.6401377059579348
 40
0.9309921460864785
 40
0.9309921460864785
 40
1.221846586215022
 40
1.221846586215022
 40
1.508583616882422
 40
1.508583616882422
 40
1.508583616882422
 40
1.508583616882422
 10
2.811513320128028
 20
9.05453512686347
 30
-0.0656250000000013
 10
2.809793487098545
 20
9.053763529923514
 30
-0.0656250000000014
 10
2.807880896251219
 20
9.053123384502384
 30
-0.0653250747812291
 10
2.803941140774895
 20
9.052274453082929
 30
-0.064669755974267
 10
2.801909199245983
 20
9.052070901022659
 30
-0.0643360204573249
 10
2.798092211842799
 20
9.052070901022659
 30
-0.0643360204573249
 10
2.796060270313887
 20
9.052274453082929
 30
-0.064669755974267
 10
2.792120514837563
 20
9.053123384502384
 30
-0.0653250747812287
 10
2.790207923990351
 20
9.053763529923514
 30
-0.0656250000000004
 10
2.788488090960697
 20
9.05453512686347
 30
-0.0656250000000013
1001
ACAD_VIEW_EDGE_ID
1071
      420
1071
       -1
1071
        2
1071
        0
  0
LINE
  5
601
330
70
100
AcDbEntity
  8
Visible
100
AcDbLine
 10
14.5
 20
9.026571
 30
0.1
 11
2.5
 21
9.026571
 31
0.1
  0
LINE
  5
602
330
70
100
AcDbEntity
  8
Visible
100
AcDbLine
 10
14.5
 20
9.133819
 30
0.1
 11
2.5
 21
9.133819
 31
0.1
  0
ARC
  5
603
330
70
100
AcDbEntity
  8
Visible
100
AcDbCircle
 10
-7.972678
 20
3.492514
 30
-120.0
 40
0.0625000000000005
210
0.0000000000000001
220
0.0
230
-1.0
100
AcDbArc
 50
0.0
 51
90.0
  0
ARC
  5
604
330
70
100
AcDbEntity
  8
Visible
100
AcDbCircle
 10
-7.986978
 20
3.802514
 30
-120.0
 40
0.0599999999999999
210
0.0000000000000001
220
0.0
230
-1.0
100
AcDbArc
 50
270.0
 51
356.947117
  0
LINE
  5
605
330
70
100
AcDbEntity
  8
Visible
100
AcDbLine
 10
7.640178
 20
3.055014
 30
120.0
 11
9.360178
 21
3.055014
 31
120.0
210
0.0
220
1.0
230
0.0
  0
ARC
  5
606
330
70
100
AcDbEntity
  8
Hidden
100
AcDbCircle
 10
8.500162
 20
113.999986
 30
-3.305014
 40
0.5625000000000439
210
0.0000000000000023
220
-1.0
230
-0.0000000000000006
100
AcDbArc
 50
159.677074
 51
180.0
  0
LINE
  5
607
330
70
100
AcDbEntity
  8
Visible
100
AcDbLine
 10
9.027678
 20
3.305014
 30
120.0
 11
7.972678
 21
3.305014
 31
120.0
210
0.0
220
1.0
230
0.0
  0
ARC
  5
608
330
70
100
AcDbEntity
  8
Hidden
100
AcDbCircle
 10
8.500162
 20
113.999986
 30
-3.305014
 40
0.5624999999998025
210
0.0000000000000025
220
-1.0
230
0.0000000000000002
100
AcDbArc
 50
0.0
 51
20.313772
  0
ARC
  5
609
330
70
100
AcDbEntity
  8
Visible
100
AcDbCircle
 10
-9.027678
 20
3.492514
 30
-120.0
 40
0.0624999999999996
210
0.0000000000000001
220
0.0
230
-1.0
100
AcDbArc
 50
90.0
 51
180.0
  0
LINE
  5
60A
330
70
100
AcDbEntity
  8
Visible
100
AcDbLine
 10
7.972678
 20
3.555014
 30
120.0
 11
9.027678
 21
3.555014
 31
120.0
210
0.0
220
1.0
230
0.0
  0
ARC
  5
60B
330
70
100
AcDbEntity
  8
Visible
100
AcDbCircle
 10
-9.013378
 20
3.802514
 30
-120.0
 40
0.0600000000000005
210
0.0000000000000001
220
0.0
230
-1.0
100
AcDbArc
 50
183.052883
 51
270.0
  0
LINE
  5
60C
330
70
100
AcDbEntity
  8
Visible
100
AcDbLine
 10
9.013378
 20
3.742514
 30
120.0
 11
7.986978
 21
3.742514
 31
120.0
210
0.0
220
1.0
230
0.0
  0
ARC
  5
60D
330
70
100
AcDbEntity
  8
Visible
100
AcDbCircle
 10
-7.700178
 20
4.420161
 30
-120.0
 40
0.0600000000000001
210
0.0000000000000001
220
0.0
230
-1.0
100
AcDbArc
 50
45.0
 51
180.0
  0
LINE
  5
60E
330
70
100
AcDbEntity
  8
Visible
100
AcDbLine
 10
7.377604
 20
4.18244
 30
120.0
 11
7.657752
 21
4.462588
 31
120.0
210
0.0
220
1.0
230
0.0
  0
ARC
  5
60F
330
70
100
AcDbEntity
  8
Visible
100
AcDbCircle
 10
-7.420031
 20
4.140014
 30
-120.0
 40
0.06
210
0.0000000000000001
220
0.0
230
-1.0
100
AcDbArc
 50
270.0
 51
45.0
  0
LINE
  5
610
330
70
100
AcDbEntity
  8
Visible
100
AcDbLine
 10
7.700178
 20
4.080014
 30
120.0
 11
7.420031
 21
4.080014
 31
120.0
210
0.0
220
1.0
230
0.0
  0
ARC
  5
611
330
70
100
AcDbEntity
  8
Visible
100
AcDbCircle
 10
-7.700178
 20
4.140014
 30
-120.0
 40
0.0600000000000001
210
0.0000000000000001
220
0.0
230
-1.0
100
AcDbArc
 50
180.0
 51
270.0
  0
LINE
  5
612
330
70
100
AcDbEntity
  8
Visible
100
AcDbLine
 10
7.760178
 20
4.420161
 30
120.0
 11
7.760178
 21
4.140014
 31
120.0
210
0.0
220
1.0
230
0.0
  0
ARC
  5
613
330
70
100
AcDbEntity
  8
Visible
100
AcDbCircle
 10
-7.700178
 20
3.870014
 30
-120.0
 40
0.06
210
0.0000000000000001
220
0.0
230
-1.0
100
AcDbArc
 50
90.0
 51
180.0
  0
LINE
  5
614
330
70
100
AcDbEntity
  8
Visible
100
AcDbLine
 10
7.420031
 20
3.930014
 30
120.0
 11
7.700178
 21
3.930014
 31
120.0
210
0.0
220
1.0
230
0.0
  0
ARC
  5
615
330
70
100
AcDbEntity
  8
Visible
100
AcDbCircle
 10
-7.420031
 20
3.870014
 30
-120.0
 40
0.0599999999999999
210
0.0000000000000001
220
0.0
230
-1.0
100
AcDbArc
 50
315.0
 51
90.0
  0
LINE
  5
616
330
70
100
AcDbEntity
  8
Visible
100
AcDbLine
 10
7.657752
 20
3.54744
 30
120.0
 11
7.377604
 21
3.827588
 31
120.0
210
0.0
220
1.0
230
0.0
  0
ARC
  5
617
330
70
100
AcDbEntity
  8
Visible
100
AcDbCircle
 10
-7.700178
 20
3.589867
 30
-120.0
 40
0.0600000000000001
210
0.0000000000000001
220
0.0
230
-1.0
100
AcDbArc
 50
180.0
 51
315.0
  0
LINE
  5
618
330
70
100
AcDbEntity
  8
Visible
100
AcDbLine
 10
7.760178
 20
3.870014
 30
120.0
 11
7.760178
 21
3.589867
 31
120.0
210
0.0
220
1.0
230
0.0
  0
LINE
  5
619
330
70
100
AcDbEntity
  8
Visible
100
AcDbLine
 10
9.300178
 20
3.930014
 30
120.0
 11
9.580325
 21
3.930014
 31
120.0
210
0.0
220
1.0
230
0.0
  0
ARC
  5
61A
330
70
100
AcDbEntity
  8
Visible
100
AcDbCircle
 10
-9.300178
 20
3.870014
 30
-120.0
 40
0.06
210
0.0000000000000001
220
0.0
230
-1.0
100
AcDbArc
 50
0.0
 51
90.0
  0
LINE
  5
61B
330
70
100
AcDbEntity
  8
Visible
100
AcDbLine
 10
9.240178
 20
3.589867
 30
120.0
 11
9.240178
 21
3.870014
 31
120.0
210
0.0
220
1.0
230
0.0
  0
ARC
  5
61C
330
70
100
AcDbEntity
  8
Visible
100
AcDbCircle
 10
-9.300178
 20
3.589867
 30
-120.0
 40
0.0600000000000001
210
0.0000000000000001
220
0.0
230
-1.0
100
AcDbArc
 50
225.0
 51
0.0
  0
LINE
  5
61D
330
70
100
AcDbEntity
  8
Visible
100
AcDbLine
 10
9.622752
 20
3.827588
 30
120.0
 11
9.342604
 21
3.54744
 31
120.0
210
0.0
220
1.0
230
0.0
  0
ARC
  5
61E
330
70
100
AcDbEntity
  8
Visible
100
AcDbCircle
 10
-9.580325
 20
3.870014
 30
-120.0
 40
0.06
210
0.0000000000000001
220
0.0
230
-1.0
100
AcDbArc
 50
90.0
 51
225.0
  0
LINE
  5
61F
330
70
100
AcDbEntity
  8
Visible
100
AcDbLine
 10
9.580325
 20
4.080014
 30
120.0
 11
9.300178
 21
4.080014
 31
120.0
210
0.0
220
1.0
230
0.0
  0
ARC
  5
620
330
70
100
AcDbEntity
  8
Visible
100
AcDbCircle
 10
-9.580325
 20
4.140014
 30
-120.0
 40
0.06
210
0.0000000000000001
220
0.0
230
-1.0
100
AcDbArc
 50
135.0
 51
270.0
  0
LINE
  5
621
330
70
100
AcDbEntity
  8
Visible
100
AcDbLine
 10
9.342604
 20
4.462588
 30
120.0
 11
9.622752
 21
4.18244
 31
120.0
210
0.0
220
1.0
230
0.0
  0
ARC
  5
622
330
70
100
AcDbEntity
  8
Visible
100
AcDbCircle
 10
-9.300178
 20
4.420161
 30
-120.0
 40
0.06
210
0.0000000000000001
220
0.0
230
-1.0
100
AcDbArc
 50
0.0
 51
135.0
  0
LINE
  5
623
330
70
100
AcDbEntity
  8
Visible
100
AcDbLine
 10
9.240178
 20
4.140014
 30
120.0
 11
9.240178
 21
4.420161
 31
120.0
210
0.0
220
1.0
230
0.0
  0
ARC
  5
624
330
70
100
AcDbEntity
  8
Visible
100
AcDbCircle
 10
-9.300178
 20
4.140014
 30
-120.0
 40
0.06
210
0.0000000000000001
220
0.0
230
-1.0
100
AcDbArc
 50
270.0
 51
0.0
  0
ARC
  5
625
330
70
100
AcDbEntity
  8
Visible
100
AcDbCircle
 10
-7.335178
 20
3.573029
 30
-120.0
 40
0.06
210
0.0000000000000001
220
0.0
230
-1.0
100
AcDbArc
 50
0.0
 51
135.0
  0
LINE
  5
626
330
70
100
AcDbEntity
  8
Visible
100
AcDbLine
 10
7.275178
 20
3.227514
 30
120.0
 11
7.275178
 21
3.573029
 31
120.0
210
0.0
220
1.0
230
0.0
  0
ARC
  5
627
330
70
100
AcDbEntity
  8
Visible
100
AcDbCircle
 10
-7.335178
 20
3.227514
 30
-120.0
 40
0.06
210
0.0000000000000001
220
0.0
230
-1.0
100
AcDbArc
 50
270.0
 51
0.0
  0
LINE
  5
628
330
70
100
AcDbEntity
  8
Visible
100
AcDbLine
 10
7.680693
 20
3.167514
 30
120.0
 11
7.335178
 21
3.167514
 31
120.0
210
0.0
220
1.0
230
0.0
  0
ARC
  5
629
330
70
100
AcDbEntity
  8
Visible
100
AcDbCircle
 10
-7.680693
 20
3.227514
 30
-120.0
 40
0.0600000000000002
210
0.0000000000000001
220
0.0
230
-1.0
100
AcDbArc
 50
135.0
 51
270.0
  0
LINE
  5
62A
330
70
100
AcDbEntity
  8
Visible
100
AcDbLine
 10
7.377604
 20
3.615456
 30
120.0
 11
7.72312
 21
3.26994
 31
120.0
210
0.0
220
1.0
230
0.0
  0
ARC
  5
62B
330
70
100
AcDbEntity
  8
Visible
100
AcDbCircle
 10
-7.335178
 20
4.782514
 30
-120.0
 40
0.0600000000000005
210
0.0000000000000001
220
0.0
230
-1.0
100
AcDbArc
 50
0.0
 51
90.0
  0
LINE
  5
62C
330
70
100
AcDbEntity
  8
Visible
100
AcDbLine
 10
7.275178
 20
4.436999
 30
120.0
 11
7.275178
 21
4.782514
 31
120.0
210
0.0
220
1.0
230
0.0
  0
ARC
  5
62D
330
70
100
AcDbEntity
  8
Visible
100
AcDbCircle
 10
-7.335178
 20
4.436999
 30
-120.0
 40
0.0600000000000002
210
0.0000000000000001
220
0.0
230
-1.0
100
AcDbArc
 50
225.0
 51
360.0
  0
LINE
  5
62E
330
70
100
AcDbEntity
  8
Visible
100
AcDbLine
 10
7.72312
 20
4.740088
 30
120.0
 11
7.377604
 21
4.394572
 31
120.0
210
0.0
220
1.0
230
0.0
  0
ARC
  5
62F
330
70
100
AcDbEntity
  8
Visible
100
AcDbCircle
 10
-7.680693
 20
4.782514
 30
-120.0
 40
0.06
210
0.0000000000000001
220
0.0
230
-1.0
100
AcDbArc
 50
90.0
 51
225.0
  0
LINE
  5
630
330
70
100
AcDbEntity
  8
Visible
100
AcDbLine
 10
7.335178
 20
4.842514
 30
120.0
 11
7.680693
 21
4.842514
 31
120.0
210
0.0
220
1.0
230
0.0
  0
LINE
  5
631
330
70
100
AcDbEntity
  8
Visible
100
AcDbLine
 10
9.725178
 20
4.782514
 30
120.0
 11
9.725178
 21
4.436999
 31
120.0
210
0.0
220
1.0
230
0.0
  0
ARC
  5
632
330
70
100
AcDbEntity
  8
Visible
100
AcDbCircle
 10
-9.665178
 20
4.782514
 30
-120.0
 40
0.06
210
0.0000000000000001
220
0.0
230
-1.0
100
AcDbArc
 50
90.0
 51
180.0
  0
LINE
  5
633
330
70
100
AcDbEntity
  8
Visible
100
AcDbLine
 10
9.319663
 20
4.842514
 30
120.0
 11
9.665178
 21
4.842514
 31
120.0
210
0.0
220
1.0
230
0.0
  0
ARC
  5
634
330
70
100
AcDbEntity
  8
Visible
100
AcDbCircle
 10
-9.319663
 20
4.782514
 30
-120.0
 40
0.0599999999999995
210
0.0000000000000001
220
0.0
230
-1.0
100
AcDbArc
 50
315.0
 51
90.0
  0
LINE
  5
635
330
70
100
AcDbEntity
  8
Visible
100
AcDbLine
 10
9.622752
 20
4.394572
 30
120.0
 11
9.277236
 21
4.740088
 31
120.0
210
0.0
220
1.0
230
0.0
  0
ARC
  5
636
330
70
100
AcDbEntity
  8
Visible
100
AcDbCircle
 10
-9.665178
 20
4.436999
 30
-120.0
 40
0.06
210
0.0000000000000001
220
0.0
230
-1.0
100
AcDbArc
 50
180.0
 51
315.0
  0
LINE
  5
637
330
70
100
AcDbEntity
  8
Visible
100
AcDbLine
 10
9.725178
 20
3.573029
 30
120.0
 11
9.725178
 21
3.227514
 31
120.0
210
0.0
220
1.0
230
0.0
  0
ARC
  5
638
330
70
100
AcDbEntity
  8
Visible
100
AcDbCircle
 10
-9.665178
 20
3.573029
 30
-120.0
 40
0.0600000000000002
210
0.0000000000000001
220
0.0
230
-1.0
100
AcDbArc
 50
45.0
 51
180.0
  0
LINE
  5
639
330
70
100
AcDbEntity
  8
Visible
100
AcDbLine
 10
9.277236
 20
3.26994
 30
120.0
 11
9.622752
 21
3.615456
 31
120.0
210
0.0
220
1.0
230
0.0
  0
ARC
  5
63A
330
70
100
AcDbEntity
  8
Visible
100
AcDbCircle
 10
-9.319663
 20
3.227514
 30
-120.0
 40
0.06
210
0.0000000000000001
220
0.0
230
-1.0
100
AcDbArc
 50
270.0
 51
45.0
  0
LINE
  5
63B
330
70
100
AcDbEntity
  8
Visible
100
AcDbLine
 10
9.665178
 20
3.167514
 30
120.0
 11
9.319663
 21
3.167514
 31
120.0
210
0.0
220
1.0
230
0.0
  0
ARC
  5
63C
330
70
100
AcDbEntity
  8
Visible
100
AcDbCircle
 10
-9.665178
 20
3.227514
 30
-120.0
 40
0.06
210
0.0000000000000001
220
0.0
230
-1.0
100
AcDbArc
 50
180.0
 51
270.0
  0
LINE
  5
63D
330
70
100
AcDbEntity
  8
Visible
100
AcDbLine
 10
7.910178
 20
3.367514
 30
120.0
 11
7.910178
 21
3.492514
 31
120.0
210
0.0
220
1.0
230
0.0
  0
ARC
  5
63E
330
70
100
AcDbEntity
  8
Visible
100
AcDbCircle
 10
-7.972678
 20
3.367514
 30
-120.0
 40
0.0625
210
0.0000000000000001
220
0.0
230
-1.0
100
AcDbArc
 50
270.0
 51
0.0
  0
ARC
  5
63F
330
70
100
AcDbEntity
  8
Visible
100
AcDbCircle
 10
-9.027678
 20
3.367514
 30
-120.0
 40
0.0624999999999994
210
0.0000000000000001
220
0.0
230
-1.0
100
AcDbArc
 50
180.0
 51
270.0
  0
LINE
  5
640
330
70
100
AcDbEntity
  8
Visible
100
AcDbLine
 10
9.090178
 20
3.492514
 30
120.0
 11
9.090178
 21
3.367514
 31
120.0
210
0.0
220
1.0
230
0.0
  0
ARC
  5
641
330
70
100
AcDbEntity
  8
Visible
100
AcDbCircle
 10
9.673842
 20
6.785063
 30
120.0
 40
0.0299999999999998
100
AcDbArc
 50
105.0
 51
195.0
  0
LINE
  5
642
330
70
100
AcDbEntity
  8
Visible
100
AcDbLine
 10
9.685395
 20
6.819218
 30
120.0
 11
9.666077
 21
6.814041
 31
120.0
210
0.0
220
1.0
230
0.0
  0
ARC
  5
643
330
70
100
AcDbEntity
  8
Visible
100
AcDbCircle
 10
-9.672454
 20
6.867514
 30
-120.0
 40
0.0500000000000008
210
0.0000000000000001
220
0.0
230
-1.0
100
AcDbArc
 50
75.0
 51
255.0
  0
LINE
  5
644
330
70
100
AcDbEntity
  8
Visible
100
AcDbLine
 10
9.640195
 20
6.910634
 30
120.0
 11
9.659514
 21
6.91581
 31
120.0
210
0.0
220
1.0
230
0.0
  0
ARC
  5
645
330
70
100
AcDbEntity
  8
Visible
100
AcDbCircle
 10
9.63243
 20
6.939612
 30
120.0
 40
0.0300000000000004
100
AcDbArc
 50
195.0
 51
285.0
  0
LINE
  5
646
330
70
100
AcDbEntity
  8
Visible
100
AcDbLine
 10
9.574785
 20
7.038838
 30
120.0
 11
9.603453
 21
6.931847
 31
120.0
210
0.0
220
1.0
230
0.0
  0
ARC
  5
647
330
70
100
AcDbEntity
  8
Visible
100
AcDbCircle
 10
9.635155
 20
7.055014
 30
120.0
 40
0.0624999999999991
100
AcDbArc
 50
90.0
 51
195.0
  0
LINE
  5
648
330
70
100
AcDbEntity
  8
Visible
100
AcDbLine
 10
9.750178
 20
7.117514
 30
120.0
 11
9.635155
 21
7.117514
 31
120.0
210
0.0
220
1.0
230
0.0
  0
ARC
  5
649
330
70
100
AcDbEntity
  8
Visible
100
AcDbCircle
 10
9.750178
 20
6.992514
 30
120.0
 40
0.125
100
AcDbArc
 50
360.0
 51
90.0
  0
LINE
  5
64A
330
70
100
AcDbEntity
  8
Visible
100
AcDbLine
 10
9.875178
 20
2.992514
 30
120.0
 11
9.875178
 21
6.992514
 31
120.0
210
0.0
220
1.0
230
0.0
  0
LINE
  5
64B
330
70
100
AcDbEntity
  8
Visible
100
AcDbLine
 10
9.390178
 20
2.992514
 30
120.0
 11
9.875178
 21
2.992514
 31
120.0
210
0.0
220
1.0
230
0.0
  0
ARC
  5
64C
330
70
100
AcDbEntity
  8
Visible
100
AcDbCircle
 10
9.390178
 20
3.007514
 30
120.0
 40
0.015
100
AcDbArc
 50
180.0
 51
270.0
  0
LINE
  5
64D
330
70
100
AcDbEntity
  8
Visible
100
AcDbLine
 10
9.375178
 20
3.040014
 30
120.0
 11
9.375178
 21
3.007514
 31
120.0
210
0.0
220
1.0
230
0.0
  0
ARC
  5
64E
330
70
100
AcDbEntity
  8
Visible
100
AcDbCircle
 10
-9.360178
 20
3.040014
 30
-120.0
 40
0.0149999999999997
210
0.0000000000000001
220
0.0
230
-1.0
100
AcDbArc
 50
90.0
 51
180.0
  0
ARC
  5
64F
330
70
100
AcDbEntity
  8
Visible
100
AcDbCircle
 10
-7.640178
 20
3.040014
 30
-120.0
 40
0.015
210
0.0000000000000001
220
0.0
230
-1.0
100
AcDbArc
 50
360.0
 51
90.0
  0
LINE
  5
650
330
70
100
AcDbEntity
  8
Visible
100
AcDbLine
 10
7.625178
 20
3.007514
 30
120.0
 11
7.625178
 21
3.040014
 31
120.0
210
0.0
220
1.0
230
0.0
  0
ARC
  5
651
330
70
100
AcDbEntity
  8
Visible
100
AcDbCircle
 10
7.610178
 20
3.007514
 30
120.0
 40
0.015
100
AcDbArc
 50
270.0
 51
360.0
  0
LINE
  5
652
330
70
100
AcDbEntity
  8
Visible
100
AcDbLine
 10
7.125178
 20
2.992514
 30
120.0
 11
7.610178
 21
2.992514
 31
120.0
210
0.0
220
1.0
230
0.0
  0
LINE
  5
653
330
70
100
AcDbEntity
  8
Visible
100
AcDbLine
 10
7.125178
 20
6.992514
 30
120.0
 11
7.125178
 21
2.992514
 31
120.0
210
0.0
220
1.0
230
0.0
  0
ARC
  5
654
330
70
100
AcDbEntity
  8
Visible
100
AcDbCircle
 10
7.250178
 20
6.992514
 30
120.0
 40
0.1250000000000003
100
AcDbArc
 50
90.0
 51
180.0
  0
LINE
  5
655
330
70
100
AcDbEntity
  8
Visible
100
AcDbLine
 10
7.365201
 20
7.117514
 30
120.0
 11
7.250178
 21
7.117514
 31
120.0
210
0.0
220
1.0
230
0.0
  0
ARC
  5
656
330
70
100
AcDbEntity
  8
Visible
100
AcDbCircle
 10
7.365201
 20
7.055014
 30
120.0
 40
0.0625000000000002
100
AcDbArc
 50
345.0
 51
90.0
  0
LINE
  5
657
330
70
100
AcDbEntity
  8
Visible
100
AcDbLine
 10
7.396903
 20
6.931847
 30
120.0
 11
7.425571
 21
7.038838
 31
120.0
210
0.0
220
1.0
230
0.0
  0
ARC
  5
658
330
70
100
AcDbEntity
  8
Visible
100
AcDbCircle
 10
7.367926
 20
6.939612
 30
120.0
 40
0.0300000000000001
100
AcDbArc
 50
255.0
 51
345.0
  0
LINE
  5
659
330
70
100
AcDbEntity
  8
Visible
100
AcDbLine
 10
7.340842
 20
6.91581
 30
120.0
 11
7.360161
 21
6.910634
 31
120.0
210
0.0
220
1.0
230
0.0
  0
ARC
  5
65A
330
70
100
AcDbEntity
  8
Visible
100
AcDbCircle
 10
-7.327901
 20
6.867514
 30
-120.0
 40
0.0500000000000001
210
0.0000000000000001
220
0.0
230
-1.0
100
AcDbArc
 50
285.0
 51
105.0
  0
LINE
  5
65B
330
70
100
AcDbEntity
  8
Visible
100
AcDbLine
 10
7.334279
 20
6.814041
 30
120.0
 11
7.314961
 21
6.819218
 31
120.0
210
0.0
220
1.0
230
0.0
  0
ARC
  5
65C
330
70
100
AcDbEntity
  8
Visible
100
AcDbCircle
 10
7.326514
 20
6.785063
 30
120.0
 40
0.0300000000000039
100
AcDbArc
 50
345.0
 51
75.0
  0
LINE
  5
65D
330
70
100
AcDbEntity
  8
Visible
100
AcDbLine
 10
7.333759
 20
6.69619
 30
120.0
 11
7.355492
 21
6.777299
 31
120.0
210
0.0
220
1.0
230
0.0
  0
ARC
  5
65E
330
70
100
AcDbEntity
  8
Visible
100
AcDbCircle
 10
-7.39413
 20
6.680014
 30
-120.0
 40
0.0624999999999998
210
0.0000000000000001
220
0.0
230
-1.0
100
AcDbArc
 50
270.0
 51
15.0
  0
LINE
  5
65F
330
70
100
AcDbEntity
  8
Visible
100
AcDbLine
 10
7.475178
 20
6.617514
 30
120.0
 11
7.39413
 21
6.617514
 31
120.0
210
0.0
220
1.0
230
0.0
  0
ARC
  5
660
330
70
100
AcDbEntity
  8
Visible
100
AcDbCircle
 10
7.475178
 20
6.557514
 30
120.0
 40
0.06
100
AcDbArc
 50
0.0
 51
90.0
  0
LINE
  5
661
330
70
100
AcDbEntity
  8
Visible
100
AcDbLine
 10
7.535178
 20
5.440014
 30
120.0
 11
7.535178
 21
6.557514
 31
120.0
210
0.0
220
1.0
230
0.0
  0
ARC
  5
662
330
70
100
AcDbEntity
  8
Visible
100
AcDbCircle
 10
7.525178
 20
5.440014
 30
120.0
 40
0.0100000000000005
100
AcDbArc
 50
270.0
 51
360.0
  0
LINE
  5
663
330
70
100
AcDbEntity
  8
Visible
100
AcDbLine
 10
7.515178
 20
5.430014
 30
120.0
 11
7.525178
 21
5.430014
 31
120.0
210
0.0
220
1.0
230
0.0
  0
ARC
  5
664
330
70
100
AcDbEntity
  8
Visible
100
AcDbCircle
 10
-7.515178
 20
5.420014
 30
-120.0
 40
0.01
210
0.0000000000000001
220
0.0
230
-1.0
100
AcDbArc
 50
360.0
 51
90.0
  0
LINE
  5
665
330
70
100
AcDbEntity
  8
Visible
100
AcDbLine
 10
7.505178
 20
5.127514
 30
120.0
 11
7.505178
 21
5.420014
 31
120.0
210
0.0
220
1.0
230
0.0
  0
ARC
  5
666
330
70
100
AcDbEntity
  8
Visible
100
AcDbCircle
 10
-7.515178
 20
5.127514
 30
-120.0
 40
0.0099999999999994
210
0.0000000000000001
220
0.0
230
-1.0
100
AcDbArc
 50
270.0
 51
0.0
  0
LINE
  5
667
330
70
100
AcDbEntity
  8
Visible
100
AcDbLine
 10
7.525178
 20
5.117514
 30
120.0
 11
7.515178
 21
5.117514
 31
120.0
210
0.0
220
1.0
230
0.0
  0
ARC
  5
668
330
70
100
AcDbEntity
  8
Visible
100
AcDbCircle
 10
7.525178
 20
5.107514
 30
120.0
 40
0.0099999999999997
100
AcDbArc
 50
360.0
 51
90.0
  0
LINE
  5
669
330
70
100
AcDbEntity
  8
Visible
100
AcDbLine
 10
7.535178
 20
5.052514
 30
120.0
 11
7.535178
 21
5.107514
 31
120.0
210
0.0
220
1.0
230
0.0
  0
ARC
  5
66A
330
70
100
AcDbEntity
  8
Visible
100
AcDbCircle
 10
-7.595178
 20
5.052514
 30
-120.0
 40
0.06
210
0.0000000000000001
220
0.0
230
-1.0
100
AcDbArc
 50
270.0
 51
0.0
  0
LINE
  5
66B
330
70
100
AcDbEntity
  8
Visible
100
AcDbLine
 10
7.850178
 20
4.992514
 30
120.0
 11
7.595178
 21
4.992514
 31
120.0
210
0.0
220
1.0
230
0.0
  0
ARC
  5
66C
330
70
100
AcDbEntity
  8
Visible
100
AcDbCircle
 10
7.850178
 20
4.932514
 30
120.0
 40
0.06
100
AcDbArc
 50
0.0
 51
90.0
  0
LINE
  5
66D
330
70
100
AcDbEntity
  8
Visible
100
AcDbLine
 10
7.910178
 20
4.115917
 30
120.0
 11
7.910178
 21
4.932514
 31
120.0
210
0.0
220
1.0
230
0.0
  0
LINE
  5
66E
330
70
100
AcDbEntity
  8
Visible
100
AcDbLine
 10
7.927063
 20
3.799318
 30
120.0
 11
7.910178
 21
4.115917
 31
120.0
210
0.0
220
1.0
230
0.0
  0
LINE
  5
66F
330
70
100
AcDbEntity
  8
Visible
100
AcDbLine
 10
9.090178
 20
4.115917
 30
120.0
 11
9.073293
 21
3.799318
 31
120.0
210
0.0
220
1.0
230
0.0
  0
LINE
  5
670
330
70
100
AcDbEntity
  8
Visible
100
AcDbLine
 10
9.090178
 20
4.932514
 30
120.0
 11
9.090178
 21
4.115917
 31
120.0
210
0.0
220
1.0
230
0.0
  0
ARC
  5
671
330
70
100
AcDbEntity
  8
Visible
100
AcDbCircle
 10
9.150178
 20
4.932514
 30
120.0
 40
0.06
100
AcDbArc
 50
90.0
 51
180.0
  0
LINE
  5
672
330
70
100
AcDbEntity
  8
Visible
100
AcDbLine
 10
9.405178
 20
4.992514
 30
120.0
 11
9.150178
 21
4.992514
 31
120.0
210
0.0
220
1.0
230
0.0
  0
ARC
  5
673
330
70
100
AcDbEntity
  8
Visible
100
AcDbCircle
 10
-9.405178
 20
5.052514
 30
-120.0
 40
0.06
210
0.0000000000000001
220
0.0
230
-1.0
100
AcDbArc
 50
180.0
 51
270.0
  0
LINE
  5
674
330
70
100
AcDbEntity
  8
Visible
100
AcDbLine
 10
9.465178
 20
5.107514
 30
120.0
 11
9.465178
 21
5.052514
 31
120.0
210
0.0
220
1.0
230
0.0
  0
ARC
  5
675
330
70
100
AcDbEntity
  8
Visible
100
AcDbCircle
 10
9.475178
 20
5.107514
 30
120.0
 40
0.0099999999999994
100
AcDbArc
 50
90.0
 51
180.0
  0
LINE
  5
676
330
70
100
AcDbEntity
  8
Visible
100
AcDbLine
 10
9.485178
 20
5.117514
 30
120.0
 11
9.475178
 21
5.117514
 31
120.0
210
0.0
220
1.0
230
0.0
  0
ARC
  5
677
330
70
100
AcDbEntity
  8
Visible
100
AcDbCircle
 10
-9.485178
 20
5.127514
 30
-120.0
 40
0.0099999999999991
210
0.0000000000000001
220
0.0
230
-1.0
100
AcDbArc
 50
180.0
 51
270.0
  0
LINE
  5
678
330
70
100
AcDbEntity
  8
Visible
100
AcDbLine
 10
9.495178
 20
5.420014
 30
120.0
 11
9.495178
 21
5.127514
 31
120.0
210
0.0
220
1.0
230
0.0
  0
ARC
  5
679
330
70
100
AcDbEntity
  8
Visible
100
AcDbCircle
 10
-9.485178
 20
5.420014
 30
-120.0
 40
0.0100000000000001
210
0.0000000000000001
220
0.0
230
-1.0
100
AcDbArc
 50
90.0
 51
180.0
  0
LINE
  5
67A
330
70
100
AcDbEntity
  8
Visible
100
AcDbLine
 10
9.475178
 20
5.430014
 30
120.0
 11
9.485178
 21
5.430014
 31
120.0
210
0.0
220
1.0
230
0.0
  0
ARC
  5
67B
330
70
100
AcDbEntity
  8
Visible
100
AcDbCircle
 10
9.475178
 20
5.440014
 30
120.0
 40
0.0100000000000005
100
AcDbArc
 50
180.0
 51
270.0
  0
LINE
  5
67C
330
70
100
AcDbEntity
  8
Visible
100
AcDbLine
 10
9.465178
 20
6.557514
 30
120.0
 11
9.465178
 21
5.440014
 31
120.0
210
0.0
220
1.0
230
0.0
  0
ARC
  5
67D
330
70
100
AcDbEntity
  8
Visible
100
AcDbCircle
 10
9.525178
 20
6.557514
 30
120.0
 40
0.06
100
AcDbArc
 50
90.0
 51
180.0
  0
LINE
  5
67E
330
70
100
AcDbEntity
  8
Visible
100
AcDbLine
 10
9.606226
 20
6.617514
 30
120.0
 11
9.525178
 21
6.617514
 31
120.0
210
0.0
220
1.0
230
0.0
  0
ARC
  5
67F
330
70
100
AcDbEntity
  8
Visible
100
AcDbCircle
 10
-9.606226
 20
6.680014
 30
-120.0
 40
0.0624999999999993
210
0.0000000000000001
220
0.0
230
-1.0
100
AcDbArc
 50
165.0
 51
270.0
  0
LINE
  5
680
330
70
100
AcDbEntity
  8
Visible
100
AcDbLine
 10
9.644864
 20
6.777299
 30
120.0
 11
9.666597
 21
6.69619
 31
120.0
210
0.0
220
1.0
230
0.0
  0
LINE
  5
681
330
70
100
AcDbEntity
  8
Hidden
100
AcDbLine
 10
9.062662
 20
3.315723
 30
113.999986
 11
9.062662
 21
3.305014
 31
113.999986
210
0.0
220
1.0
230
0.0
  0
LINE
  5
682
330
70
100
AcDbEntity
  8
Hidden
100
AcDbLine
 10
7.937662
 20
3.315744
 30
113.999986
 11
7.937662
 21
3.305014
 31
113.999986
210
0.0
220
1.0
230
0.0
  0
LINE
  5
683
330
70
100
AcDbEntity
  8
Hidden
100
AcDbLine
 10
7.937662
 20
3.544284
 30
113.999986
 11
7.937662
 21
3.768339
 31
113.999986
210
0.0
220
1.0
230
0.0
  0
LINE
  5
684
330
70
100
AcDbEntity
  8
Hidden
100
AcDbLine
 10
9.062662
 20
3.544305
 30
113.999986
 11
9.062662
 21
3.768294
 31
113.999986
210
0.0
220
1.0
230
0.0
  0
LINE
  5
685
330
70
100
AcDbEntity
  8
Hidden
100
AcDbLine
 10
8.187678
 20
3.055014
 30
114.0
 11
8.187678
 21
3.305014
 31
114.0
210
0.0
220
1.0
230
0.0
  0
LINE
  5
686
330
70
100
AcDbEntity
  8
Hidden
100
AcDbLine
 10
8.812678
 20
3.055014
 30
114.0
 11
8.812678
 21
3.305014
 31
114.0
210
0.0
220
1.0
230
0.0
  0
SPLINE
  5
687
330
70
100
AcDbEntity
  8
Visible
100
AcDbSpline
 70
     0
 71
     3
 72
    14
 73
    10
 74
     0
 42
0.000000001
 43
0.0000000001
 40
0.3534006752903849
 40
0.3534006752903849
 40
0.3534006752903849
 40
0.3534006752903849
 40
0.6401377059579307
 40
0.6401377059579307
 40
0.9309921460864451
 40
0.9309921460864451
 40
1.221846586214959
 40
1.221846586214959
 40
1.508583616882613
 40
1.508583616882613
 40
1.508583616882613
 40
1.508583616882613
 10
3.269392621577935
 20
4.508559578654967
 30
-1.312537271662746
 10
3.303789282170328
 20
4.493127639856538
 30
-1.312537271662747
 10
3.342041099114794
 20
4.480324731433938
 30
-1.306538767287277
 10
3.420836208641048
 20
4.463346103044386
 30
-1.293432391148037
 10
3.461475039219294
 20
4.459275061839434
 30
-1.286757680809191
 10
3.537814787283423
 20
4.459275061839434
 30
-1.286757680809191
 10
3.578453617861669
 20
4.463346103044386
 30
-1.293432391148034
 10
3.657248727387923
 20
4.480324731433938
 30
-1.306538767287279
 10
3.695500544334208
 20
4.493127639856538
 30
-1.312537271662742
 10
3.729897204924782
 20
4.508559578654967
 30
-1.312537271662746
1001
ACAD_VIEW_EDGE_ID
1071
      313
1071
       -1
1071
        2
1071
        0
  0
SPLINE
  5
688
330
70
100
AcDbEntity
  8
Visible
100
AcDbSpline
 70
     0
 71
     3
 72
    14
 73
    10
 74
     0
 42
0.000000001
 43
0.0000000001
 40
0.3533445709902788
 40
0.3533445709902788
 40
0.3533445709902788
 40
0.3533445709902788
 40
0.6402314647489098
 40
0.6402314647489098
 40
0.9311500255532431
 40
0.9311500255532431
 40
1.222068586357576
 40
1.222068586357576
 40
1.508955480116267
 40
1.508955480116267
 40
1.508955480116267
 40
1.508955480116267
 10
3.729966753551707
 20
5.534959336619067
 30
-1.312537271662746
 10
3.695555588497882
 20
5.550403385183017
 30
-1.312537271662752
 10
3.657286443884004
 20
5.563215776403012
 30
-1.306529717955223
 10
3.578467601153533
 20
5.580202516443023
 30
-1.293401710476397
 10
3.537823202070285
 20
5.584275061839434
 30
-1.286712690401285
 10
3.461466624432432
 20
5.584275061839434
 30
-1.286712690401285
 10
3.420822225351002
 20
5.580202516443023
 30
-1.293401710476397
 10
3.342003382618713
 20
5.563215776403012
 30
-1.306529717955225
 10
3.303734238004835
 20
5.550403385183017
 30
-1.31253727166275
 10
3.26932307295101
 20
5.534959336619067
 30
-1.312537271662746
1001
ACAD_VIEW_EDGE_ID
1071
      309
1071
       -1
1071
        2
1071
        0
  0
SPLINE
  5
689
330
70
100
AcDbEntity
  8
Visible
100
AcDbSpline
 70
     0
 71
     3
 72
    14
 73
    10
 74
     0
 42
0.000000001
 43
0.0000000001
 40
-0.2999758474858649
 40
-0.2999758474858649
 40
-0.2999758474858649
 40
-0.2999758474858649
 40
-0.2086541094167196
 40
-0.2086541094167196
 40
-0.1173323713475742
 40
-0.1173323713475742
 40
-0.0586661856737871
 40
-0.0586661856737871
 40
0.0
 40
0.0
 40
0.0
 40
0.0000000000000031
 10
2.519154918343701
 20
3.886782468049204
 30
2.062462728337283
 10
2.510085851914482
 20
3.894616993971794
 30
2.062462728337283
 10
2.500333172401951
 20
3.903250751482119
 30
2.060925140465954
 10
2.482094607246835
 20
3.919816821882704
 30
2.053780492649386
 10
2.473602699923503
 20
3.927748715774214
 30
2.048187841619471
 10
2.462465407155832
 20
3.938325210307084
 30
2.035877810889159
 10
2.458361375483946
 20
3.94227843740191
 30
2.029689646818976
 10
2.452699563120404
 20
3.947768636817272
 30
2.015588996063618
 10
2.451156260791321
 20
3.949282468049204
 30
2.007661702835157
 10
2.451156260791321
 20
3.949282468049204
 30
1.999962728337284
1001
ACAD_VIEW_EDGE_ID
1071
      242
1071
       -1
1071
        2
1071
        0
  0
ELLIPSE
  5
68A
330
70
100
AcDbEntity
  8
Visible
100
AcDbEllipse
 10
3.499645
 20
5.021775
 30
-12.001341
 11
-0.0000000242119524
 21
1.499856237130787
 31
28.12230444620319
210
0.0000000000000002
220
0.9985808046778268
230
-0.053257642916149
 40
0.0532576437538189
 41
-1.1787257396843
 42
-1.166512273610908
1001
ACAD_VIEW_EDGE_ID
1071
      202
1071
       -1
1071
        2
1071
        0
  0
SPLINE
  5
68B
330
70
100
AcDbEntity
  8
Visible
100
AcDbSpline
 70
     0
 71
     3
 72
    16
 73
    12
 74
     0
 42
0.000000001
 43
0.0000000001
 40
1.393980906292
 40
1.393980906292
 40
1.393980906292
 40
1.393980906292
 40
1.439039995121913
 40
1.439039995121913
 40
1.484099083951826
 40
1.484099083951826
 40
1.63737337059047
 40
1.63737337059047
 40
1.889799933009821
 40
1.889799933009821
 40
2.142226495429173
 40
2.142226495429173
 40
2.142226495429173
 40
2.142226495429173
 10
2.900561524840668
 20
3.646759457637017
 30
1.937462728337285
 10
2.900561524840668
 20
3.646759457637017
 30
1.94337599458793
 10
2.89951814042979
 20
3.647212779378605
 30
1.94969233454238
 10
2.895507574197836
 20
3.648970746788108
 30
1.961636491407205
 10
2.89257321540208
 20
3.650263316912969
 30
1.967277077805918
 10
2.878822741362455
 20
3.656387215978611
 30
1.988510994392814
 10
2.861178806253519
 20
3.664486005411163
 30
2.002854247197566
 10
2.819667408390159
 20
3.684605208007269
 30
2.029437841901334
 10
2.789633804797631
 20
3.700159492311286
 30
2.041690956846009
 10
2.729012517844239
 20
3.734565208545973
 30
2.058320747541904
 10
2.698380995718252
 20
3.753452413449849
 30
2.062462728337283
 10
2.670772301011311
 20
3.771759457637017
 30
2.062462728337283
1001
ACAD_VIEW_EDGE_ID
1071
      240
1071
       -1
1071
        2
1071
        0
  0
SPLINE
  5
68C
330
70
100
AcDbEntity
  8
Visible
100
AcDbSpline
 70
     0
 71
     3
 72
    16
 73
    12
 74
     0
 42
0.000000001
 43
0.0000000001
 40
-0.7482003227465741
 40
-0.7482003227465741
 40
-0.7482003227465741
 40
-0.7482003227465741
 40
-0.4957941895997644
 40
-0.4957941895997644
 40
-0.2433880564529542
 40
-0.2433880564529542
 40
-0.0901209190987049
 40
-0.0901209190987049
 40
-0.0450604595493527
 40
-0.0450604595493527
 40
0.0
 40
0.0
 40
0.0
 40
0.0
 10
2.670725237810984
 20
6.271759457637017
 30
2.062462728337283
 10
2.698331008867171
 20
6.2900660595933
 30
2.062462728337283
 10
2.728959269561528
 20
6.30895295384289
 30
2.058320939401087
 10
2.78957386802358
 20
6.343358351028655
 30
2.041691646993415
 10
2.819604035488737
 20
6.358912626350502
 30
2.029438792579261
 10
2.86111086551682
 20
6.379032142500363
 30
2.002855551060753
 10
2.878752969019842
 20
6.387131171779401
 30
1.98851207534399
 10
2.892502077276731
 20
6.393255316577779
 30
1.967278274773879
 10
2.895436282036826
 20
6.394548000624126
 30
1.961637409619627
 10
2.89944660182482
 20
6.396306108565113
 30
1.949692742515681
 10
2.900489900435786
 20
6.396759457637017
 30
1.943376174472371
 10
2.900489900435786
 20
6.396759457637017
 30
1.937462728337285
1001
ACAD_VIEW_EDGE_ID
1071
      228
1071
       -1
1071
        2
1071
        0
  0
ELLIPSE
  5
68D
330
70
100
AcDbEntity
  8
Visible
100
AcDbEllipse
 10
3.499645
 20
5.021775
 30
-12.001926
 11
-0.0000000056109867
 21
-1.499856259262401
 31
28.12230486117146
210
-0.0000000000000002
220
-0.9985808046778267
230
-0.0532576429161481
 40
0.0532576431059314
 41
1.16648964774915
 42
1.178703229592266
1001
ACAD_VIEW_EDGE_ID
1071
      198
1071
       -1
1071
        2
1071
        0
  0
SPLINE
  5
68E
330
70
100
AcDbEntity
  8
Visible
100
AcDbSpline
 70
     0
 71
     3
 72
    14
 73
    10
 74
     0
 42
0.000000001
 43
0.0000000001
 40
0.6144780609237943
 40
0.6144780609237943
 40
0.614478060923809
 40
0.614478060923809
 40
0.6731443077153703
 40
0.6731443077153703
 40
0.7318105545069315
 40
0.7318105545069315
 40
0.8231289593636239
 40
0.8231289593636239
 40
0.9144473642203164
 40
0.9144473642203164
 40
0.9144473642203164
 40
0.9144473642203164
 10
2.451124338856971
 20
6.09423644722483
 30
1.999962728337282
 10
2.451124338856971
 20
6.09423644722483
 30
2.007661710855862
 10
2.452667553849096
 20
6.095750282931476
 30
2.015589046528663
 10
2.458329106239034
 20
6.101240558155041
 30
2.029689814040556
 10
2.462432967589847
 20
6.105193858045822
 30
2.035878050658698
 10
2.473569618727196
 20
6.115770377971784
 30
2.048187953452587
 10
2.482060929894942
 20
6.12370219767763
 30
2.053780547767857
 10
2.500298263985314
 20
6.140268177994585
 30
2.060925136450033
 10
2.51005030732449
 20
6.148901918615592
 30
2.062462728337283
 10
2.519118793376037
 20
6.15673644722483
 30
2.062462728337283
1001
ACAD_VIEW_EDGE_ID
1071
      226
1071
       -1
1071
        2
1071
        0
  0
SPLINE
  5
68F
330
70
100
AcDbEntity
  8
Visible
100
AcDbSpline
 70
     0
 71
     3
 72
    14
 73
    10
 74
     0
 42
0.000000001
 43
0.0000000001
 40
0.548267053147581
 40
0.548267053147581
 40
0.548267053147581
 40
0.548267053147581
 40
0.609880331606208
 40
0.609880331606208
 40
0.671493610064835
 40
0.671493610064835
 40
0.7450606464131703
 40
0.7450606464131703
 40
0.8186276827615055
 40
0.8186276827615055
 40
0.8186276827615055
 40
0.8186276827615055
 10
2.351440256434216
 20
5.986759457637162
 30
1.502462728337268
 10
2.351440256434216
 20
5.986759457637162
 30
1.510548460418454
 10
2.352893160757957
 20
5.9884945705071
 30
1.518880455556204
 10
2.358283792666043
 20
5.994853159196281
 30
1.533608746449239
 10
2.36221578705954
 20
5.99945876394122
 30
1.540014848383014
 10
2.371488370790757
 20
6.010153011089641
 30
1.550709095532434
 10
2.377693108222956
 20
6.017210513875397
 30
1.555284156015039
 10
2.390983175666406
 20
6.031991248495614
 30
1.561158070513619
 10
2.398069625591233
 20
6.039711166129563
 30
1.562462728337268
 10
2.404667376293218
 20
6.046759457636653
 30
1.562462728337268
1001
ACAD_VIEW_EDGE_ID
1071
      216
1071
       -1
1071
        2
1071
        0
  0
SPLINE
  5
690
330
70
100
AcDbEntity
  8
Visible
100
AcDbSpline
 70
     0
 71
     3
 72
    14
 73
    10
 74
     0
 42
0.000000001
 43
0.0000000001
 40
-0.2623717034380767
 40
-0.2623717034380767
 40
-0.2623717034380767
 40
-0.2623717034380767
 40
-0.188252733009125
 40
-0.188252733009125
 40
-0.1141337625801735
 40
-0.1141337625801735
 40
-0.0570668812900868
 40
-0.0570668812900868
 40
0.0
 40
0.0
 40
0.0
 40
0.0
 10
2.303579671955958
 20
5.926759457637672
 30
-0.0625372716627302
 10
2.309448695556056
 20
5.934516204781175
 30
-0.0625372716627302
 10
2.315860088861882
 20
5.942817538360031
 30
-0.0609585870991283
 10
2.328053703022305
 20
5.958279087513801
 30
-0.0542811115793209
 10
2.33383420066093
 20
5.965442906739554
 30
-0.0491875196736391
 10
2.342127950836584
 20
5.975586251715867
 30
-0.0380198606444897
 10
2.345516856425092
 20
5.979674071375484
 30
-0.031808431270306
 10
2.350182746506106
 20
5.985268087819349
 30
-0.0178178877088349
 10
2.351440256434216
 20
5.986759457637162
 30
-0.0100263636955496
 10
2.351440256434216
 20
5.986759457637162
 30
-0.0025372716627299
1001
ACAD_VIEW_EDGE_ID
1071
      206
1071
       -1
1071
        2
1071
        0
  0
CIRCLE
  5
691
330
70
100
AcDbEntity
  8
Visible
100
AcDbCircle
 10
-3.499631
 20
5.021759
 30
1.750037
 40
0.3124999999999955
210
0.0000000000000002
220
-0.0000000000000003
230
-1.0
  0
SPLINE
  5
692
330
70
100
AcDbEntity
  8
Visible
100
AcDbSpline
 70
     0
 71
     3
 72
    14
 73
    10
 74
     0
 42
0.000000001
 43
0.0000000001
 40
0.484902962358191
 40
0.484902962358191
 40
0.484902962358191
 40
0.484902962358191
 40
0.5434434347888986
 40
0.5434434347888986
 40
0.601983907219606
 40
0.601983907219606
 40
0.6640682877199944
 40
0.6640682877199944
 40
0.7261526682203828
 40
0.7261526682203828
 40
0.7261526682203828
 40
0.7261526682203828
 10
2.120700668263452
 20
5.611759457637162
 30
-0.12253727166273
 10
2.120700668263452
 20
5.611759457637162
 30
-0.1148547949657868
 10
2.121368868347417
 20
5.613328401746912
 30
-0.1067252550237661
 10
2.124045208685856
 20
5.619525564006835
 30
-0.0919459592475989
 10
2.126056034176144
 20
5.624149162464163
 30
-0.0852947530930242
 10
2.130788570555523
 20
5.634830759963733
 30
-0.074613155592806
 10
2.133873924523868
 20
5.641698239000106
 30
-0.070000149554708
 10
2.140686258162531
 20
5.656492725873249
 30
-0.0639646421179467
 10
2.144415452577959
 20
5.664416726900526
 30
-0.0625372716627302
 10
2.147946313973079
 20
5.671759457636653
 30
-0.0625372716627302
1001
ACAD_VIEW_EDGE_ID
1071
      204
1071
       -1
1071
        2
1071
        0
  0
SPLINE
  5
693
330
70
100
AcDbEntity
  8
Visible
100
AcDbSpline
 70
     0
 71
     3
 72
    14
 73
    10
 74
     0
 42
0.000000001
 43
0.0000000001
 40
0.7105114453619116
 40
0.7105114453619116
 40
0.7105114453619116
 40
0.7105114453619116
 40
0.7721996936759035
 40
0.7721996936759035
 40
0.8338879419898951
 40
0.8338879419898951
 40
0.8911697695449614
 40
0.8911697695449614
 40
0.9403961069874775
 40
0.9403961069874775
 40
0.9403961069874775
 40
0.9403961069874775
 10
2.090315030580313
 20
5.534959336619067
 30
-1.312537271662734
 10
2.093084975704186
 20
5.542566285288557
 30
-1.312537271662734
 10
2.096117437429711
 20
5.550683154189755
 30
-1.311007241053657
 10
2.10185418571018
 20
5.565663127106745
 30
-1.304722068142492
 10
2.104555203253767
 20
5.572527101612649
 30
-1.299966017267333
 10
2.108743081094871
 20
5.583015186735792
 30
-1.289185317578655
 10
2.110561359588245
 20
5.58748357303375
 30
-1.282589808605982
 10
2.11283721025029
 20
5.593037618675225
 30
-1.269049829847495
 10
2.11345346978851
 20
5.594524783005908
 30
-1.262284015746568
 10
2.113597939582177
 20
5.594874184898799
 30
-1.2557327302377
1001
ACAD_VIEW_EDGE_ID
1071
      201
1071
       -1
1071
        2
1071
        0
  0
SPLINE
  5
694
330
70
100
AcDbEntity
  8
Visible
100
AcDbSpline
 70
     0
 71
     3
 72
    14
 73
    10
 74
     0
 42
0.000000001
 43
0.0000000001
 40
0.482288452386129
 40
0.482288452386129
 40
0.482288452386129
 40
0.482288452386129
 40
0.531514772143506
 40
0.531514772143506
 40
0.5887965828735983
 40
0.5887965828735983
 40
0.650485386845814
 40
0.650485386845814
 40
0.7121741908180298
 40
0.7121741908180298
 40
0.7121741908180298
 40
0.7121741908180298
 10
2.113610843964124
 20
4.448644730375235
 30
-1.2557327302377
 10
2.113466365040949
 20
4.448994132068037
 30
-1.262284011996195
 10
2.112850066916507
 20
4.450481294838027
 30
-1.269049817776898
 10
2.110574077511046
 20
4.456035322986281
 30
-1.282589770717947
 10
2.108755689547251
 20
4.460503690741461
 30
-1.289185261063429
 10
2.10456754610459
 20
4.470991757143565
 30
-1.299965978195908
 10
2.101866345004964
 20
4.477855747052672
 30
-1.30472204630772
 10
2.09612920420659
 20
4.492835744609692
 30
-1.311007238725613
 10
2.093096533522839
 20
4.500952622805925
 30
-1.312537271662734
 10
2.090326394998555
 20
4.508559578654967
 30
-1.312537271662734
1001
ACAD_VIEW_EDGE_ID
1071
      199
1071
       -1
1071
        2
1071
        0
  0
SPLINE
  5
695
330
70
100
AcDbEntity
  8
Visible
100
AcDbSpline
 70
     0
 71
     3
 72
    14
 73
    10
 74
     0
 42
0.000000001
 43
0.0000000001
 40
-0.2412510625045164
 40
-0.2412510625045164
 40
-0.2412510625045164
 40
-0.2412510625045164
 40
-0.1791661418657249
 40
-0.1791661418657249
 40
-0.1170812212269333
 40
-0.1170812212269333
 40
-0.0585406106134666
 40
-0.0585406106134666
 40
0.0
 40
0.0
 40
0.0
 40
0.0
 10
2.14796132144329
 20
4.371759457637381
 30
-0.0625372716627302
 10
2.144430259797445
 20
4.37910217073113
 30
-0.0625372716627302
 10
2.140700847925472
 20
4.387026160311506
 30
-0.0639646347626355
 10
2.133888103098797
 20
4.401820647262866
 30
-0.0700001332070421
 10
2.130802555519039
 20
4.408688137675198
 30
-0.0746131379583477
 10
2.126069727701178
 20
4.419369736573571
 30
-0.0852947368572534
 10
2.124058777248137
 20
4.423993335178238
 30
-0.0919459314792479
 10
2.121382266544969
 20
4.430190505874634
 30
-0.1067252261679763
 10
2.120714021266394
 20
4.431759457636871
 30
-0.1148547768315666
 10
2.120714021266394
 20
4.431759457636871
 30
-0.12253727166273
1001
ACAD_VIEW_EDGE_ID
1071
      196
1071
       -1
1071
        2
1071
        0
  0
SPLINE
  5
696
330
70
100
AcDbEntity
  8
Visible
100
AcDbSpline
 70
     0
 71
     3
 72
    14
 73
    10
 74
     0
 42
0.000000001
 43
0.0000000001
 40
0.5198256049735535
 40
0.5198256049735535
 40
0.5198256049735535
 40
0.5198256049735535
 40
0.5768924791651113
 40
0.5768924791651113
 40
0.6339593533566693
 40
0.6339593533566693
 40
0.7080799722401357
 40
0.7080799722401357
 40
0.782200591123602
 40
0.782200591123602
 40
0.782200591123602
 40
0.782200591123602
 10
2.351466485602941
 20
4.056759457636871
 30
-0.0025372716627303
 10
2.351466485602941
 20
4.056759457636871
 30
-0.0100263627639845
 10
2.350208907075284
 20
4.058250826557923
 30
-0.0178178636606572
 10
2.345542798204405
 20
4.063844796919511
 30
-0.0318083355819736
 10
2.342153744442839
 20
4.067932570274933
 30
-0.0380197178679724
 10
2.333859568097977
 20
4.078075877145238
 30
-0.0491874270638815
 10
2.328078725669911
 20
4.085239730487955
 30
-0.0542810580146735
 10
2.315884401476068
 20
4.100701335401026
 30
-0.0609585807266786
 10
2.30947264248607
 20
4.109002691122441
 30
-0.0625372716627302
 10
2.303603285956342
 20
4.116759457636362
 30
-0.0625372716627302
1001
ACAD_VIEW_EDGE_ID
1071
      194
1071
       -1
1071
        2
1071
        0
  0
SPLINE
  5
697
330
70
100
AcDbEntity
  8
Visible
100
AcDbSpline
 70
     0
 71
     3
 72
    14
 73
    10
 74
     0
 42
0.000000001
 43
0.0000000001
 40
-0.2703647549806882
 40
-0.2703647549806882
 40
-0.2703647549806882
 40
-0.2703647549806882
 40
-0.1967961042666675
 40
-0.1967961042666675
 40
-0.1232274535526467
 40
-0.1232274535526467
 40
-0.0616137267763235
 40
-0.0616137267763235
 40
0.0
 40
0.0
 40
0.0
 40
0.0
 10
2.4046965906291
 20
3.996759457637381
 30
1.562462728337268
 10
2.398098494255464
 20
4.003807715758739
 30
1.562462728337268
 10
2.391011663938115
 20
4.011527609169206
 30
1.561158084335644
 10
2.377720849783145
 20
4.026308340786272
 30
1.555284189174612
 10
2.371515746004661
 20
4.033365864946972
 30
1.550709134769722
 10
2.362242645791411
 20
4.044060112701117
 30
1.540014887015429
 10
2.358310437219188
 20
4.048665712447473
 30
1.533608818913297
 10
2.352919489858322
 20
4.055024321191012
 30
1.518880538761173
 10
2.351466485602941
 20
4.056759457636871
 30
1.510548519252796
 10
2.351466485602941
 20
4.056759457636871
 30
1.502462728337268
1001
ACAD_VIEW_EDGE_ID
1071
      184
1071
       -1
1071
        2
1071
        0
  0
SPLINE
  5
698
330
70
100
AcDbEntity
  8
Visible
100
AcDbSpline
 70
     0
 71
     3
 72
    14
 73
    10
 74
     0
 42
0.000000001
 43
0.0000000001
 40
0.0
 40
0.0
 40
0.0
 40
0.0
 40
0.0616137267763235
 40
0.0616137267763235
 40
0.123227453552647
 40
0.123227453552647
 40
0.1967961042666678
 40
0.1967961042666678
 40
0.2703647549806885
 40
0.2703647549806885
 40
0.2703647549806885
 40
0.2703647549806885
 10
4.647823340897957
 20
4.056759457636871
 30
1.502462728337268
 10
4.647823340897957
 20
4.056759457636871
 30
1.510548519252796
 10
4.646370336642576
 20
4.055024321191012
 30
1.518880538761173
 10
4.64097938928171
 20
4.048665712447473
 30
1.533608818913297
 10
4.637047180709487
 20
4.044060112701117
 30
1.540014887015429
 10
4.627774080496237
 20
4.033365864946972
 30
1.550709134769722
 10
4.621568976717753
 20
4.026308340786272
 30
1.555284189174612
 10
4.608278162562783
 20
4.011527609169206
 30
1.561158084335644
 10
4.601191332245434
 20
4.003807715758739
 30
1.562462728337268
 10
4.594593235871798
 20
3.996759457637381
 30
1.562462728337268
1001
ACAD_VIEW_EDGE_ID
1071
       64
1071
       -1
1071
        2
1071
        0
  0
SPLINE
  5
699
330
70
100
AcDbEntity
  8
Visible
100
AcDbSpline
 70
     0
 71
     3
 72
    14
 73
    10
 74
     0
 42
0.000000001
 43
0.0000000001
 40
0.257277626570168
 40
0.257277626570168
 40
0.257277626570168
 40
0.257277626570168
 40
0.3313982454536343
 40
0.3313982454536343
 40
0.4055188643371006
 40
0.4055188643371006
 40
0.4625857385286584
 40
0.4625857385286584
 40
0.5196526127202163
 40
0.5196526127202163
 40
0.5196526127202163
 40
0.5196526127202163
 10
4.695686540544556
 20
4.116759457636362
 30
-0.0625372716627302
 10
4.689817184014827
 20
4.109002691122441
 30
-0.0625372716627302
 10
4.68340542502483
 20
4.100701335401026
 30
-0.0609585807266777
 10
4.671211100830987
 20
4.085239730487955
 30
-0.0542810580146727
 10
4.665430258402921
 20
4.078075877145238
 30
-0.0491874270638815
 10
4.657136082058059
 20
4.067932570274933
 30
-0.0380197178679724
 10
4.653747028296493
 20
4.063844796919511
 30
-0.0318083355819803
 10
4.649080919425614
 20
4.058250826557923
 30
-0.017817863660659
 10
4.647823340897957
 20
4.056759457636871
 30
-0.0100263627639845
 10
4.647823340897957
 20
4.056759457636871
 30
-0.0025372716627299
1001
ACAD_VIEW_EDGE_ID
1071
       54
1071
       -1
1071
        2
1071
        0
  0
SPLINE
  5
69A
330
70
100
AcDbEntity
  8
Visible
100
AcDbSpline
 70
     0
 71
     3
 72
    14
 73
    10
 74
     0
 42
0.000000001
 43
0.0000000001
 40
0.0
 40
0.0
 40
0.0
 40
0.0
 40
0.0585406106134667
 40
0.0585406106134667
 40
0.1170812212269334
 40
0.1170812212269334
 40
0.1791661418657251
 40
0.1791661418657251
 40
0.2412510625045167
 40
0.2412510625045167
 40
0.2412510625045167
 40
0.2412510625045167
 10
4.878575805234504
 20
4.431759457636871
 30
-0.12253727166273
 10
4.878575805234504
 20
4.431759457636871
 30
-0.1148547768315666
 10
4.877907559955929
 20
4.430190505874634
 30
-0.1067252261679763
 10
4.875231049252761
 20
4.423993335178238
 30
-0.0919459314792475
 10
4.87322009879972
 20
4.419369736573571
 30
-0.0852947368572534
 10
4.868487270981859
 20
4.408688137675198
 30
-0.0746131379583477
 10
4.865401723402101
 20
4.401820647262866
 30
-0.0700001332070499
 10
4.858588978577245
 20
4.387026160311506
 30
-0.0639646347626395
 10
4.854859566703453
 20
4.37910217073113
 30
-0.0625372716627302
 10
4.851328505057608
 20
4.371759457637381
 30
-0.0625372716627302
1001
ACAD_VIEW_EDGE_ID
1071
       52
1071
       -1
1071
        2
1071
        0
  0
SPLINE
  5
69B
330
70
100
AcDbEntity
  8
Visible
100
AcDbSpline
 70
     0
 71
     3
 72
    14
 73
    10
 74
     0
 42
0.000000001
 43
0.0000000001
 40
0.2362814269711965
 40
0.2362814269711965
 40
0.2362814269711965
 40
0.2362814269711965
 40
0.2979702309434122
 40
0.2979702309434122
 40
0.3596590349156277
 40
0.3596590349156277
 40
0.41694084564572
 40
0.41694084564572
 40
0.4661671654030923
 40
0.4661671654030923
 40
0.4661671654030923
 40
0.4661671654030923
 10
4.908963431502343
 20
4.508559578654967
 30
-1.312537271662734
 10
4.906193292978059
 20
4.500952622805925
 30
-1.312537271662734
 10
4.903160622294308
 20
4.492835744609692
 30
-1.311007238725612
 10
4.897423481495934
 20
4.477855747052672
 30
-1.30472204630772
 10
4.894722280396308
 20
4.470991757143565
 30
-1.299965978195908
 10
4.890534136953647
 20
4.460503690741461
 30
-1.289185261063429
 10
4.888715748989852
 20
4.456035322986281
 30
-1.282589770717947
 10
4.886439759584391
 20
4.450481294838027
 30
-1.269049817776898
 10
4.885823461459949
 20
4.448994132068037
 30
-1.262284011996195
 10
4.885678982536774
 20
4.448644730375235
 30
-1.2557327302377
1001
ACAD_VIEW_EDGE_ID
1071
       49
1071
       -1
1071
        2
1071
        0
  0
SPLINE
  5
69C
330
70
100
AcDbEntity
  8
Visible
100
AcDbSpline
 70
     0
 71
     3
 72
    14
 73
    10
 74
     0
 42
0.000000001
 43
0.0000000001
 40
0.0080554901125518
 40
0.0080554901125518
 40
0.0080554901125518
 40
0.0080554901125518
 40
0.0572818275550662
 40
0.0572818275550662
 40
0.1145636551101324
 40
0.1145636551101324
 40
0.1762519034241242
 40
0.1762519034241242
 40
0.237940151738116
 40
0.237940151738116
 40
0.237940151738116
 40
0.237940151738116
 10
4.885691886918721
 20
5.594874184898799
 30
-1.2557327302377
 10
4.885836356712388
 20
5.594524783005908
 30
-1.262284015746569
 10
4.886452616250608
 20
5.593037618675225
 30
-1.269049829847495
 10
4.888728466912652
 20
5.58748357303375
 30
-1.282589808605982
 10
4.890546745406027
 20
5.583015186735792
 30
-1.289185317578655
 10
4.894734623247131
 20
5.572527101612649
 30
-1.299966017267333
 10
4.897435640790718
 20
5.565663127106745
 30
-1.304722068142492
 10
4.903172389071187
 20
5.550683154189755
 30
-1.311007241053656
 10
4.906204850796711
 20
5.542566285288557
 30
-1.312537271662734
 10
4.908974795920585
 20
5.534959336619067
 30
-1.312537271662734
1001
ACAD_VIEW_EDGE_ID
1071
       47
1071
       -1
1071
        2
1071
        0
  0
SPLINE
  5
69D
330
70
100
AcDbEntity
  8
Visible
100
AcDbSpline
 70
     0
 71
     3
 72
    14
 73
    10
 74
     0
 42
0.000000001
 43
0.0000000001
 40
0.2436832066627163
 40
0.2436832066627163
 40
0.2436832066627163
 40
0.2436832066627163
 40
0.3057675871631047
 40
0.3057675871631047
 40
0.367851967663493
 40
0.367851967663493
 40
0.4263924400942006
 40
0.4263924400942006
 40
0.4849329125249082
 40
0.4849329125249082
 40
0.4849329125249082
 40
0.4849329125249082
 10
4.851343512527819
 20
5.671759457636653
 30
-0.0625372716627302
 10
4.854874373922939
 20
5.664416726900526
 30
-0.0625372716627302
 10
4.858603568338367
 20
5.656492725873249
 30
-0.0639646421179458
 10
4.86541590197703
 20
5.641698239000106
 30
-0.0700001495547074
 10
4.868501255945375
 20
5.634830759963733
 30
-0.074613155592806
 10
4.873233792324754
 20
5.624149162464163
 30
-0.0852947530930242
 10
4.875244617815042
 20
5.619525564006835
 30
-0.0919459592476098
 10
4.877920958153481
 20
5.613328401746912
 30
-0.1067252550237776
 10
4.878589158237446
 20
5.611759457637162
 30
-0.1148547949657868
 10
4.878589158237446
 20
5.611759457637162
 30
-0.12253727166273
1001
ACAD_VIEW_EDGE_ID
1071
       44
1071
       -1
1071
        2
1071
        0
  0
SPLINE
  5
69E
330
70
100
AcDbEntity
  8
Visible
100
AcDbSpline
 70
     0
 71
     3
 72
    14
 73
    10
 74
     0
 42
0.000000001
 43
0.0000000001
 40
0.0
 40
0.0
 40
0.0
 40
0.0
 40
0.0570668812900867
 40
0.0570668812900867
 40
0.1141337625801733
 40
0.1141337625801733
 40
0.1882527330091249
 40
0.1882527330091249
 40
0.2623717034380765
 40
0.2623717034380765
 40
0.2623717034380765
 40
0.2623717034380765
 10
4.647849570066682
 20
5.986759457637162
 30
-0.0025372716627299
 10
4.647849570066682
 20
5.986759457637162
 30
-0.0100263636955496
 10
4.649107079994792
 20
5.985268087819349
 30
-0.0178178877088353
 10
4.653772970075806
 20
5.979674071375484
 30
-0.031808431270306
 10
4.657161875664314
 20
5.975586251715867
 30
-0.0380198606444897
 10
4.665455625839967
 20
5.965442906739554
 30
-0.0491875196736391
 10
4.671236123478593
 20
5.958279087513801
 30
-0.0542811115793072
 10
4.683429737639016
 20
5.942817538360031
 30
-0.0609585870991167
 10
4.689841130944842
 20
5.934516204781175
 30
-0.0625372716627302
 10
4.69571015454494
 20
5.926759457637672
 30
-0.0625372716627302
1001
ACAD_VIEW_EDGE_ID
1071
       42
1071
       -1
1071
        2
1071
        0
  0
ARC
  5
69F
330
70
100
AcDbEntity
  8
Visible
100
AcDbCircle
 10
3.499645
 20
5.021775
 30
-1.312537
 40
0.5624999999999939
100
AcDbArc
 50
294.163219
 51
65.829017
  0
ARC
  5
6A0
330
70
100
AcDbEntity
  8
Visible
100
AcDbCircle
 10
3.499645
 20
5.021775
 30
-1.312537
 40
0.5624999999999942
100
AcDbArc
 50
114.170983
 51
245.836781
  0
SPLINE
  5
6A1
330
70
100
AcDbEntity
  8
Visible
100
AcDbSpline
 70
     0
 71
     3
 72
    14
 73
    10
 74
     0
 42
0.000000001
 43
0.0000000001
 40
0.2783092636492126
 40
0.2783092636492126
 40
0.2783092636492126
 40
0.2783092636492126
 40
0.3518762999975479
 40
0.3518762999975479
 40
0.4254433363458833
 40
0.4254433363458833
 40
0.4870566148045105
 40
0.4870566148045105
 40
0.5486698932631376
 40
0.5486698932631376
 40
0.5486698932631376
 40
0.5486698932631376
 10
4.59462245020768
 20
6.046759457636653
 30
1.562462728337268
 10
4.601220200909665
 20
6.039711166129563
 30
1.562462728337268
 10
4.608306650834492
 20
6.031991248495614
 30
1.561158070513619
 10
4.621596718277942
 20
6.017210513875397
 30
1.555284156015039
 10
4.627801455710141
 20
6.010153011089641
 30
1.550709095532434
 10
4.637074039441358
 20
5.99945876394122
 30
1.540014848383014
 10
4.641006033834855
 20
5.994853159196281
 30
1.533608746449239
 10
4.64639666574294
 20
5.9884945705071
 30
1.518880455556204
 10
4.647849570066682
 20
5.986759457637162
 30
1.510548460418454
 10
4.647849570066682
 20
5.986759457637162
 30
1.502462728337268
1001
ACAD_VIEW_EDGE_ID
1071
       32
1071
       -1
1071
        2
1071
        0
  0
ARC
  5
6A2
330
70
100
AcDbEntity
  8
Visible
100
AcDbCircle
 10
-3.499645
 20
5.021775
 30
-2.062463
 40
1.499856265805085
210
0.0
220
0.0
230
-1.0
100
AcDbArc
 50
303.547953
 51
310.822864
  0
SPLINE
  5
6A3
330
70
100
AcDbEntity
  8
Visible
100
AcDbSpline
 70
     0
 71
     3
 72
    14
 73
    10
 74
     0
 42
0.000000001
 43
0.0000000001
 40
0.3135063921672202
 40
0.3135063921672202
 40
0.3135063921672202
 40
0.3135063921672202
 40
0.4048247970239128
 40
0.4048247970239128
 40
0.4961432018806053
 40
0.4961432018806053
 40
0.5548094486721667
 40
0.5548094486721667
 40
0.6134756954637281
 40
0.6134756954637281
 40
0.6134756954637376
 40
0.6134756954637376
 10
4.480171033124861
 20
6.15673644722483
 30
2.062462728337283
 10
4.489239519178227
 20
6.148901918615592
 30
2.062462728337283
 10
4.498991562515584
 20
6.140268177994585
 30
2.060925136450028
 10
4.517228896605956
 20
6.12370219767763
 30
2.053780547767847
 10
4.525720207773701
 20
6.115770377971784
 30
2.048187953452588
 10
4.53685685891105
 20
6.105193858045822
 30
2.035878050658698
 10
4.540960720261864
 20
6.101240558155041
 30
2.029689814040556
 10
4.546622272651802
 20
6.095750282931476
 30
2.015589046528663
 10
4.548165487643927
 20
6.09423644722483
 30
2.007661710855862
 10
4.548165487643927
 20
6.09423644722483
 30
1.999962728337283
1001
ACAD_VIEW_EDGE_ID
1071
       22
1071
       -1
1071
        2
1071
        0
  0
ARC
  5
6A4
330
70
100
AcDbEntity
  8
Visible
100
AcDbCircle
 10
-3.499645
 20
5.021775
 30
-2.062463
 40
1.499856265806251
210
0.0
220
0.0
230
-1.0
100
AcDbArc
 50
49.175312
 51
56.44989
  0
ARC
  5
6A5
330
70
100
AcDbEntity
  8
Visible
100
AcDbCircle
 10
-3.499645
 20
5.021775
 30
-1.562463
 40
1.499856265807451
210
0.0
220
0.0
230
-1.0
100
AcDbArc
 50
43.108997
 51
45.646705
  0
ARC
  5
6A6
330
70
100
AcDbEntity
  8
Visible
100
AcDbCircle
 10
-3.499645
 20
5.021775
 30
0.062537
 40
1.499856265802898
210
0.0
220
0.0
230
-1.0
100
AcDbArc
 50
25.681267
 51
37.112412
  0
SPLINE
  5
6A7
330
70
100
AcDbEntity
  8
Visible
100
AcDbSpline
 70
     0
 71
     3
 72
    16
 73
    12
 74
     0
 42
0.000000001
 43
0.0000000001
 40
0.0
 40
0.0
 40
0.0
 40
0.0
 40
0.0450604595493526
 40
0.0450604595493526
 40
0.0901209190987051
 40
0.0901209190987051
 40
0.2433880564529544
 40
0.2433880564529544
 40
0.4957941895997644
 40
0.4957941895997644
 40
0.7482003227465743
 40
0.7482003227465743
 40
0.7482003227465743
 40
0.7482003227465743
 10
4.098799926065112
 20
6.396759457637017
 30
1.937462728337285
 10
4.098799926065112
 20
6.396759457637017
 30
1.943376174472371
 10
4.099843224676078
 20
6.396306108565113
 30
1.949692742515681
 10
4.103853544464072
 20
6.394548000624126
 30
1.961637409619627
 10
4.106787749224167
 20
6.393255316577779
 30
1.967278274773879
 10
4.120536857481056
 20
6.387131171779401
 30
1.98851207534399
 10
4.138178960984078
 20
6.379032142500363
 30
2.002855551060753
 10
4.179685791012161
 20
6.358912626350502
 30
2.029438792579261
 10
4.209715958477318
 20
6.343358351028655
 30
2.041691646993415
 10
4.27033055693937
 20
6.30895295384289
 30
2.058320939401087
 10
4.300958817633727
 20
6.2900660595933
 30
2.062462728337283
 10
4.328564588689914
 20
6.271759457637017
 30
2.062462728337283
1001
ACAD_VIEW_EDGE_ID
1071
       20
1071
       -1
1071
        2
1071
        0
  0
ARC
  5
6A8
330
70
100
AcDbEntity
  8
Visible
100
AcDbCircle
 10
-3.499645
 20
5.021775
 30
1.312537
 40
1.499856265802863
210
0.0
220
0.0
230
-1.0
100
AcDbArc
 50
339.99047
 51
20.008262
  0
SPLINE
  5
6A9
330
70
100
AcDbEntity
  8
Visible
100
AcDbSpline
 70
     0
 71
     3
 72
    16
 73
    12
 74
     0
 42
0.000000001
 43
0.0000000001
 40
0.6465508641689527
 40
0.6465508641689527
 40
0.6465508641689527
 40
0.6465508641689527
 40
0.8989774265883042
 40
0.8989774265883042
 40
1.151403989007655
 40
1.151403989007655
 40
1.3046782756463
 40
1.3046782756463
 40
1.349737364476212
 40
1.349737364476212
 40
1.394796453306126
 40
1.394796453306126
 40
1.394796453306126
 40
1.394796453306126
 10
4.328517525489587
 20
3.771759457637017
 30
2.062462728337283
 10
4.300908830782645
 20
3.753452413449849
 30
2.062462728337283
 10
4.270277308656659
 20
3.734565208545973
 30
2.058320747541904
 10
4.209656021703267
 20
3.700159492311286
 30
2.041690956846009
 10
4.179622418110739
 20
3.684605208007269
 30
2.029437841901334
 10
4.138111020247379
 20
3.664486005411163
 30
2.002854247197566
 10
4.120467085138443
 20
3.656387215978611
 30
1.988510994392814
 10
4.106716611098818
 20
3.650263316912969
 30
1.967277077805918
 10
4.103782252303062
 20
3.648970746788108
 30
1.961636491407205
 10
4.099771686071107
 20
3.647212779378605
 30
1.94969233454238
 10
4.09872830166023
 20
3.646759457637017
 30
1.94337599458793
 10
4.09872830166023
 20
3.646759457637017
 30
1.937462728337285
1001
ACAD_VIEW_EDGE_ID
1071
        8
1071
       -1
1071
        2
1071
        0
  0
ARC
  5
6AA
330
70
100
AcDbEntity
  8
Visible
100
AcDbCircle
 10
-3.499645
 20
5.021775
 30
0.062537
 40
1.499856265802469
210
0.0
220
0.0
230
-1.0
100
AcDbArc
 50
322.886093
 51
334.31741
  0
ARC
  5
6AB
330
70
100
AcDbEntity
  8
Visible
100
AcDbCircle
 10
-3.499645
 20
5.021775
 30
-1.562463
 40
1.499856265814582
210
0.0
220
0.0
230
-1.0
100
AcDbArc
 50
314.35159
 51
316.88937
  0
ARC
  5
6AC
330
70
100
AcDbEntity
  8
Visible
100
AcDbCircle
 10
-3.499645
 20
5.021775
 30
-1.562463
 40
1.499856265820581
210
0.0
220
0.0
230
-1.0
100
AcDbArc
 50
223.11063
 51
225.64841
  0
SPLINE
  5
6AD
330
70
100
AcDbEntity
  8
Visible
100
AcDbSpline
 70
     0
 71
     3
 72
    14
 73
    10
 74
     0
 42
0.000000001
 43
0.0000000001
 40
-0.0000000000000072
 40
0.0
 40
0.0
 40
0.0
 40
0.0586661856737872
 40
0.0586661856737872
 40
0.1173323713475743
 40
0.1173323713475743
 40
0.2086541094167197
 40
0.2086541094167197
 40
0.299975847485865
 40
0.299975847485865
 40
0.299975847485865
 40
0.299975847485865
 10
4.548133565709576
 20
3.949282468049204
 30
1.999962728337284
 10
4.548133565709576
 20
3.949282468049204
 30
2.007661702835157
 10
4.546590263380494
 20
3.947768636817272
 30
2.015588996063618
 10
4.540928451016952
 20
3.94227843740191
 30
2.029689646818976
 10
4.536824419345066
 20
3.938325210307084
 30
2.035877810889159
 10
4.525687126577395
 20
3.927748715774214
 30
2.048187841619471
 10
4.517195219254062
 20
3.919816821882704
 30
2.053780492649386
 10
4.498956654098947
 20
3.903250751482119
 30
2.060925140465954
 10
4.489203974586416
 20
3.894616993971794
 30
2.062462728337283
 10
4.480134908157197
 20
3.886782468049204
 30
2.062462728337283
1001
ACAD_VIEW_EDGE_ID
1071
        6
1071
       -1
1071
        2
1071
        0
  0
ARC
  5
6AE
330
70
100
AcDbEntity
  8
Visible
100
AcDbCircle
 10
-3.499645
 20
5.021775
 30
0.062537
 40
1.499856265802258
210
0.0
220
0.0
230
-1.0
100
AcDbArc
 50
205.68259
 51
217.113907
  0
ARC
  5
6AF
330
70
100
AcDbEntity
  8
Visible
100
AcDbCircle
 10
-3.499645
 20
5.021775
 30
1.312537
 40
1.499856265802862
210
0.0
220
0.0
230
-1.0
100
AcDbArc
 50
159.991738
 51
200.00953
  0
ARC
  5
6B0
330
70
100
AcDbEntity
  8
Visible
100
AcDbCircle
 10
-3.499645
 20
5.021775
 30
0.062537
 40
1.499856265802845
210
0.0
220
0.0
230
-1.0
100
AcDbArc
 50
142.887588
 51
154.318733
  0
LINE
  5
6B1
330
70
100
AcDbEntity
  8
Visible
100
AcDbLine
 10
4.548165
 20
6.094236
 30
1.999963
 11
2.451124
 21
6.094236
 31
1.999963
  0
LINE
  5
6B2
330
70
100
AcDbEntity
  8
Visible
100
AcDbLine
 10
4.548134
 20
3.949282
 30
1.999963
 11
2.451156
 21
3.949282
 31
1.999963
  0
LINE
  5
6B3
330
70
100
AcDbEntity
  8
Visible
100
AcDbLine
 10
4.64785
 20
5.986759
 30
1.502463
 11
2.35144
 21
5.986759
 31
1.502463
  0
ARC
  5
6B4
330
70
100
AcDbEntity
  8
Visible
100
AcDbCircle
 10
-3.499645
 20
5.021775
 30
-1.562463
 40
1.499856265807451
210
0.0
220
0.0
230
-1.0
100
AcDbArc
 50
134.353295
 51
136.891003
  0
LINE
  5
6B5
330
70
100
AcDbEntity
  8
Visible
100
AcDbLine
 10
4.0988
 20
6.396759
 30
1.937463
 11
2.90049
 21
6.396759
 31
1.937463
  0
ARC
  5
6B6
330
70
100
AcDbEntity
  8
Visible
100
AcDbCircle
 10
-3.499645
 20
5.021775
 30
-2.062463
 40
1.499856265799266
210
0.0
220
0.0
230
-1.0
100
AcDbArc
 50
123.55011
 51
130.824688
  0
LINE
  5
6B7
330
70
100
AcDbEntity
  8
Visible
100
AcDbLine
 10
4.098728
 20
3.646759
 30
1.937463
 11
2.900562
 21
3.646759
 31
1.937463
  0
ARC
  5
6B8
330
70
100
AcDbEntity
  8
Visible
100
AcDbCircle
 10
-3.499645
 20
5.021775
 30
-2.062463
 40
1.49985626580578
210
0.0
220
0.0
230
-1.0
100
AcDbArc
 50
229.177136
 51
236.452047
  0
LINE
  5
6B9
330
70
100
AcDbEntity
  8
Visible
100
AcDbLine
 10
4.647823
 20
4.056759
 30
1.502463
 11
2.351466
 21
4.056759
 31
1.502463
  0
LINE
  5
6BA
330
70
100
AcDbEntity
  8
Visible
100
AcDbLine
 10
4.878576
 20
4.431759
 30
-0.122537
 11
2.120714
 21
4.431759
 31
-0.122537
  0
LINE
  5
6BB
330
70
100
AcDbEntity
  8
Visible
100
AcDbLine
 10
4.878589
 20
5.611759
 30
-0.122537
 11
2.120701
 21
5.611759
 31
-0.122537
  0
ELLIPSE
  5
6BC
330
70
100
AcDbEntity
  8
Visible
100
AcDbEllipse
 10
3.499645
 20
5.021775
 30
-12.001926
 11
0.0000000056113053
 21
-1.499856259262062
 31
28.12230486116511
210
-0.0000000000000002
220
-0.9985808046778268
230
-0.0532576429161481
 40
0.0532576431059409
 41
-1.178703229592172
 42
-1.166489647749052
1001
ACAD_VIEW_EDGE_ID
1071
       50
1071
       -1
1071
        2
1071
        0
  0
ELLIPSE
  5
6BD
330
70
100
AcDbEntity
  8
Visible
100
AcDbEllipse
 10
3.499645
 20
5.021775
 30
-12.001341
 11
0.0000000242171196
 21
1.499856237124693
 31
28.12230444608892
210
0.0000000000000002
220
0.9985808046778268
230
-0.053257642916149
 40
0.0532576437539966
 41
1.166512273609159
 42
1.178725739682611
1001
ACAD_VIEW_EDGE_ID
1071
       46
1071
       -1
1071
        2
1071
        0
  0
MTEXT
  5
6BE
330
70
100
AcDbEntity
  8
Annotations
  6
PHANTOM2
100
AcDbMText
 10
5.208413
 20
8.785444
 30
0.0
 40
0.24
 41
0.0
 46
0.0
 71
     5
 72
     5
  1
A
 73
     1
 44
1.0
  0
CIRCLE
  5
6BF
330
70
100
AcDbEntity
  8
Annotations
  6
PHANTOM2
370
    25
100
AcDbCircle
 10
5.200001
 20
9.080196
 30
0.0
 40
0.0749928132901516
  0
ENDSEC
  0
SECTION
  2
OBJECTS
  0
DICTIONARY
  5
C
330
0
100
AcDbDictionary
281
     1
  3
ACAD_COLOR
350
63
  3
ACAD_DETAILVIEWSTYLE
350
6A
  3
ACAD_FIELDLIST
350
330
  3
ACAD_GROUP
350
D
  3
ACAD_IMAGE_DICT
350
225
  3
ACAD_IMAGE_VARS
350
227
  3
ACAD_LAYOUT
350
62
  3
ACAD_MATERIAL
350
10
  3
ACAD_MLEADERSTYLE
350
66
  3
ACAD_MLINESTYLE
350
5F
  3
ACAD_PLOTSETTINGS
350
61
  3
ACAD_PLOTSTYLENAME
350
E
  3
ACAD_SCALELIST
350
42
  3
ACAD_SECTIONVIEWSTYLE
350
68
  3
ACAD_TABLESTYLE
350
64
  3
ACAD_VISUALSTYLE
350
29
  3
ACDB_RECOMPOSE_DATA
350
74E
  3
AcDbVariableDictionary
350
745
  0
DICTIONARY
  5
B5
330
70
100
AcDbDictionary
280
     1
281
     1
  3
ACAD_SORTENTS
360
21B
  0
DICTIONARY
  5
21F
330
21E
100
AcDbDictionary
280
     1
281
     1
  3
ACAD_SORTENTS
360
56C
  0
IMAGEDEF_REACTOR
  5
226
330
223
100
AcDbRasterImageDefReactor
 90
        2
330
223
  0
DICTIONARY
  5
2E5
330
2E4
100
AcDbDictionary
280
     1
281
     1
  0
DICTIONARY
  5
63
102
{ACAD_REACTORS
330
C
102
}
330
C
100
AcDbDictionary
281
     1
  0
DICTIONARY
  5
6A
102
{ACAD_REACTORS
330
C
102
}
330
C
100
AcDbDictionary
281
     1
  3
Imperial24
350
6B
  0
FIELDLIST
  5
330
102
{ACAD_REACTORS
330
C
102
}
330
C
100
AcDbIdSet
 90
        3
330
2E8
330
2E9
330
2EA
100
AcDbFieldList
  0
DICTIONARY
  5
D
102
{ACAD_REACTORS
330
C
102
}
330
C
100
AcDbDictionary
281
     1
  0
DICTIONARY
  5
225
102
{ACAD_REACTORS
330
C
102
}
330
C
100
AcDbDictionary
281
     1
  3
morse_logo-16 (1)_01-2018(B)_1_1
350
224
  0
RASTERVARIABLES
  5
227
102
{ACAD_REACTORS
330
C
102
}
330
C
100
AcDbRasterVariables
 90
        0
 70
     0
 71
     1
 72
     5
  0
DICTIONARY
  5
62
102
{ACAD_REACTORS
330
C
102
}
330
C
100
AcDbDictionary
281
     1
  3
Model
350
73
  3
Sheet1
350
6F
  3
Sheet2
350
77
  0
DICTIONARY
  5
10
102
{ACAD_REACTORS
330
C
102
}
330
C
100
AcDbDictionary
281
     1
  3
ByBlock
350
19
  3
ByLayer
350
11
  3
Global
350
21
  0
DICTIONARY
  5
66
102
{ACAD_REACTORS
330
C
102
}
330
C
100
AcDbDictionary
281
     1
  3
Standard
350
67
  0
DICTIONARY
  5
5F
102
{ACAD_REACTORS
330
C
102
}
330
C
100
AcDbDictionary
281
     1
  3
Standard
350
60
  0
DICTIONARY
  5
61
102
{ACAD_REACTORS
330
C
102
}
330
C
100
AcDbDictionary
281
     1
  0
ACDBDICTIONARYWDFLT
  5
E
102
{ACAD_REACTORS
330
C
102
}
330
C
100
AcDbDictionary
281
     1
  3
Normal
350
F
100
AcDbDictionaryWithDefault
340
F
  0
DICTIONARY
  5
42
102
{ACAD_REACTORS
330
C
102
}
330
C
100
AcDbDictionary
281
     1
  3
*A1
350
A5
  3
*A10
350
AE
  3
*A11
350
AF
  3
*A12
350
B0
  3
*A13
350
B1
  3
*A14
350
B2
  3
*A15
350
B3
  3
*A16
350
B4
  3
*A2
350
A6
  3
*A3
350
A7
  3
*A4
350
A8
  3
*A5
350
A9
  3
*A6
350
AA
  3
*A7
350
AB
  3
*A8
350
AC
  3
*A9
350
AD
  3
A0
350
43
  3
A1
350
44
  3
A2
350
45
  3
A3
350
46
  3
A4
350
47
  3
A5
350
48
  3
A6
350
49
  3
A7
350
4A
  3
A8
350
4B
  3
A9
350
4C
  3
B0
350
4D
  3
B1
350
4E
  3
B2
350
4F
  3
B3
350
50
  3
B4
350
51
  3
B5
350
52
  3
B6
350
53
  0
DICTIONARY
  5
68
102
{ACAD_REACTORS
330
C
102
}
330
C
100
AcDbDictionary
281
     1
  3
Imperial24
350
69
  0
DICTIONARY
  5
64
102
{ACAD_REACTORS
330
C
102
}
330
C
100
AcDbDictionary
281
     1
  3
Standard
350
65
  0
DICTIONARY
  5
29
102
{ACAD_REACTORS
330
C
102
}
330
C
100
AcDbDictionary
281
     1
  3
2dWireframe
350
2F
  3
Basic
350
2E
  3
Brighten
350
35
  3
ColorChange
350
39
  3
Conceptual
350
32
  3
Dim
350
34
  3
EdgeColorOff
350
41
  3
Facepattern
350
38
  3
Flat
350
2A
  3
FlatWithEdges
350
2B
  3
Gouraud
350
2C
  3
GouraudWithEdges
350
2D
  3
Hidden
350
31
  3
JitterOff
350
3F
  3
Linepattern
350
37
  3
OverhangOff
350
40
  3
Realistic
350
33
  3
Shaded
350
3E
  3
Shaded with edges
350
3D
  3
Shades of Gray
350
3A
  3
Sketchy
350
3B
  3
Thicken
350
36
  3
Wireframe
350
30
  3
X-Ray
350
3C
  0
XRECORD
  5
74E
102
{ACAD_REACTORS
330
C
102
}
330
C
100
AcDbXrecord
280
     1
 90
        1
330
65
330
22B
330
235
330
236
330
237
330
23A
330
2E1
330
2E3
  0
DICTIONARY
  5
745
102
{ACAD_REACTORS
330
C
102
}
330
C
100
AcDbDictionary
281
     1
  3
ANNOALLVISIBLE
350
74A
  3
CANNOSCALE
350
74B
  3
CMLEADERSTYLE
350
747
  3
CTABLESTYLE
350
746
  3
CVIEWDETAILSTYLE
350
748
  3
CVIEWSECTIONSTYLE
350
749
  0
SORTENTSTABLE
  5
21B
102
{ACAD_REACTORS
330
B5
102
}
330
B5
100
AcDbSortentsTable
330
70
  0
SORTENTSTABLE
  5
56C
102
{ACAD_REACTORS
330
21F
102
}
330
21F
100
AcDbSortentsTable
330
21E
  0
ACDBDETAILVIEWSTYLE
  5
6B
102
{ACAD_XDICTIONARY
360
751
102
}
102
{ACAD_REACTORS
330
6A
102
}
330
6A
100
AcDbModelDocViewStyle
 70
     0
  3
Imperial24
290
     0
100
AcDbDetailViewStyle
 70
     0
 71
     0
 90
        3
 71
     1
340
55
 62
   256
 40
0.24
340
0
 62
   256
 40
0.24
300

 40
0.36
280
     3
 71
     2
340
5D
 90
       25
 62
   256
 71
     3
340
55
 62
   256
 40
0.24
 90
        1
 40
0.75
 90
        1
300
%<\AcVar ViewType \f "%tc1">% %<\AcVar ViewDetailId>%\PSCALE %<\AcVar ViewScale \f "%sn">%
 71
     4
340
5D
 90
       25
 62
   256
340
5D
 90
       25
 62
   256
280
     0
  0
IMAGEDEF
  5
224
102
{ACAD_REACTORS
330
225
330
226
330
6C0
102
}
330
225
100
AcDbRasterImageDef
 90
        0
  1
morse_logo-16 (1)_01-2018(B)_1_1.jpg
 10
948.0
 20
333.0
 11
0.264583
 21
0.264583
280
     1
281
     5
  0
LAYOUT
  5
73
102
{ACAD_REACTORS
330
62
102
}
330
62
100
AcDbPlotSettings
  1

  2
AutoCAD PDF (High Quality Print).pc3
  4
ANSI_full_bleed_B_(17.00_x_11.00_Inches)
  6

 40
0.0
 41
0.0
 42
0.0
 43
0.0
 44
431.799988
 45
279.399994
 46
0.0
 47
0.0
 48
0.0
 49
0.0
140
0.0
141
0.0
142
1.0
143
1.793331
 70
 11952
 72
     0
 73
     0
 74
     0
  7

 75
     0
147
0.557622
 76
     0
 77
     2
 78
   300
148
269.679479
149
60.626604
100
AcDbLayout
  1
Model
 70
     1
 71
     0
 10
0.0
 20
0.0
 11
12.0
 21
9.0
 12
0.0
 22
0.0
 32
0.0
 14
0.0
 24
0.0
 34
0.0
 15
0.0
 25
0.0
 35
0.0
146
0.0
 13
0.0
 23
0.0
 33
0.0
 16
1.0
 26
0.0
 36
0.0
 17
0.0
 27
1.0
 37
0.0
 76
     0
330
70
1001
ACAD_PSEXT
1000
AutoCAD PDF (High Quality Print).pc3
1000
DWG To PDF
1000
File
1000

1070
     0
  0
LAYOUT
  5
6F
102
{ACAD_REACTORS
330
62
102
}
330
62
100
AcDbPlotSettings
  1

  2
None
  4

  6

 40
0.0
 41
0.0
 42
0.0
 43
0.0
 44
0.0
 45
0.0
 46
0.0
 47
0.0
 48
0.0
 49
0.0
140
0.0
141
0.0
142
1.0
143
1.0
 70
   688
 72
     0
 73
     0
 74
     5
  7

 75
    16
147
1.0
 76
     0
 77
     2
 78
   300
148
0.0
149
0.0
100
AcDbLayout
  1
Sheet1
 70
     1
 71
     1
 10
0.0
 20
0.0
 11
12.0
 21
9.0
 12
0.0
 22
0.0
 32
0.0
 14
0.0
 24
0.0
 34
0.0
 15
0.0
 25
0.0
 35
0.0
146
0.0
 13
0.0
 23
0.0
 33
0.0
 16
1.0
 26
0.0
 36
0.0
 17
0.0
 27
1.0
 37
0.0
 76
     0
330
6C
  0
LAYOUT
  5
77
102
{ACAD_REACTORS
330
62
102
}
330
62
100
AcDbPlotSettings
  1

  2
None
  4

  6

 40
0.0
 41
0.0
 42
0.0
 43
0.0
 44
0.0
 45
0.0
 46
0.0
 47
0.0
 48
0.0
 49
0.0
140
0.0
141
0.0
142
1.0
143
1.0
 70
   688
 72
     0
 73
     0
 74
     5
  7

 75
    16
147
1.0
 76
     0
 77
     2
 78
   300
148
0.0
149
0.0
100
AcDbLayout
  1
Sheet2
 70
     1
 71
     2
 10
0.0
 20
0.0
 11
12.0
 21
9.0
 12
0.0
 22
0.0
 32
0.0
 14
0.0
 24
0.0
 34
0.0
 15
0.0
 25
0.0
 35
0.0
146
0.0
 13
0.0
 23
0.0
 33
0.0
 16
1.0
 26
0.0
 36
0.0
 17
0.0
 27
1.0
 37
0.0
 76
     0
330
74
  0
MATERIAL
  5
19
102
{ACAD_XDICTIONARY
360
1A
102
}
102
{ACAD_REACTORS
330
10
102
}
330
10
100
AcDbMaterial
  1
ByBlock
 72
     0
 43
0.020833
 43
0.0
 43
0.0
 43
0.0
 43
0.0
 43
0.020833
 43
0.0
 43
0.0
 43
0.0
 43
0.0
 43
1.0
 43
0.0
 43
0.0
 43
0.0
 43
0.0
 43
1.0
 77
     0
 47
0.020833
 47
0.0
 47
0.0
 47
0.0
 47
0.0
 47
0.020833
 47
0.0
 47
0.0
 47
0.0
 47
0.0
 47
1.0
 47
0.0
 47
0.0
 47
0.0
 47
0.0
 47
1.0
171
     0
 49
0.020833
 49
0.0
 49
0.0
 49
0.0
 49
0.0
 49
0.020833
 49
0.0
 49
0.0
 49
0.0
 49
0.0
 49
1.0
 49
0.0
 49
0.0
 49
0.0
 49
0.0
 49
1.0
175
     0
142
0.020833
142
0.0
142
0.0
142
0.0
142
0.0
142
0.020833
142
0.0
142
0.0
142
0.0
142
0.0
142
1.0
142
0.0
142
0.0
142
0.0
142
0.0
142
1.0
179
     0
144
0.020833
144
0.0
144
0.0
144
0.0
144
0.0
144
0.020833
144
0.0
144
0.0
144
0.0
144
0.0
144
1.0
144
0.0
144
0.0
144
0.0
144
0.0
144
1.0
147
0.020833
147
0.0
147
0.0
147
0.0
147
0.0
147
0.020833
147
0.0
147
0.0
147
0.0
147
0.0
147
1.0
147
0.0
147
0.0
147
0.0
147
0.0
147
1.0
  0
MATERIAL
  5
11
102
{ACAD_XDICTIONARY
360
12
102
}
102
{ACAD_REACTORS
330
10
102
}
330
10
100
AcDbMaterial
  1
ByLayer
 72
     0
 43
0.020833
 43
0.0
 43
0.0
 43
0.0
 43
0.0
 43
0.020833
 43
0.0
 43
0.0
 43
0.0
 43
0.0
 43
1.0
 43
0.0
 43
0.0
 43
0.0
 43
0.0
 43
1.0
 77
     0
 47
0.020833
 47
0.0
 47
0.0
 47
0.0
 47
0.0
 47
0.020833
 47
0.0
 47
0.0
 47
0.0
 47
0.0
 47
1.0
 47
0.0
 47
0.0
 47
0.0
 47
0.0
 47
1.0
171
     0
 49
0.020833
 49
0.0
 49
0.0
 49
0.0
 49
0.0
 49
0.020833
 49
0.0
 49
0.0
 49
0.0
 49
0.0
 49
1.0
 49
0.0
 49
0.0
 49
0.0
 49
0.0
 49
1.0
175
     0
142
0.020833
142
0.0
142
0.0
142
0.0
142
0.0
142
0.020833
142
0.0
142
0.0
142
0.0
142
0.0
142
1.0
142
0.0
142
0.0
142
0.0
142
0.0
142
1.0
179
     0
144
0.020833
144
0.0
144
0.0
144
0.0
144
0.0
144
0.020833
144
0.0
144
0.0
144
0.0
144
0.0
144
1.0
144
0.0
144
0.0
144
0.0
144
0.0
144
1.0
147
0.020833
147
0.0
147
0.0
147
0.0
147
0.0
147
0.020833
147
0.0
147
0.0
147
0.0
147
0.0
147
1.0
147
0.0
147
0.0
147
0.0
147
0.0
147
1.0
  0
MATERIAL
  5
21
102
{ACAD_XDICTIONARY
360
22
102
}
102
{ACAD_REACTORS
330
10
102
}
330
10
100
AcDbMaterial
  1
Global
 72
     0
 43
0.020833
 43
0.0
 43
0.0
 43
0.0
 43
0.0
 43
0.020833
 43
0.0
 43
0.0
 43
0.0
 43
0.0
 43
1.0
 43
0.0
 43
0.0
 43
0.0
 43
0.0
 43
1.0
 77
     0
 47
0.020833
 47
0.0
 47
0.0
 47
0.0
 47
0.0
 47
0.020833
 47
0.0
 47
0.0
 47
0.0
 47
0.0
 47
1.0
 47
0.0
 47
0.0
 47
0.0
 47
0.0
 47
1.0
171
     0
 49
0.020833
 49
0.0
 49
0.0
 49
0.0
 49
0.0
 49
0.020833
 49
0.0
 49
0.0
 49
0.0
 49
0.0
 49
1.0
 49
0.0
 49
0.0
 49
0.0
 49
0.0
 49
1.0
175
     0
142
0.020833
142
0.0
142
0.0
142
0.0
142
0.0
142
0.020833
142
0.0
142
0.0
142
0.0
142
0.0
142
1.0
142
0.0
142
0.0
142
0.0
142
0.0
142
1.0
179
     0
144
0.020833
144
0.0
144
0.0
144
0.0
144
0.0
144
0.020833
144
0.0
144
0.0
144
0.0
144
0.0
144
1.0
144
0.0
144
0.0
144
0.0
144
0.0
144
1.0
147
0.020833
147
0.0
147
0.0
147
0.0
147
0.0
147
0.020833
147
0.0
147
0.0
147
0.0
147
0.0
147
1.0
147
0.0
147
0.0
147
0.0
147
0.0
147
1.0
  0
MLEADERSTYLE
  5
67
102
{ACAD_REACTORS
330
66
102
}
330
66
100
AcDbMLeaderStyle
179
     2
170
     2
171
     1
172
     0
 90
        2
 40
0.0
 41
0.0
173
     1
 91
-1056964608
340
5B
 92
       -2
290
     1
 42
0.09
291
     1
 43
0.36
  3
Standard
 44
0.18
300

342
55
174
     1
178
     6
175
     1
176
     0
 93
-1056964608
 45
0.18
292
     0
297
     0
 46
0.18
 94
-1056964608
 47
1.0
 49
1.0
140
1.0
293
     1
141
0.0
294
     1
177
     0
142
1.0
295
     0
296
     0
143
0.125
271
     0
272
     9
273
     9
298
     1
  0
MLINESTYLE
  5
60
102
{ACAD_REACTORS
330
5F
102
}
330
5F
100
AcDbMlineStyle
  2
STANDARD
 70
     0
  3

 62
   256
 51
90.0
 52
90.0
 71
     0
  0
ACDBPLACEHOLDER
  5
F
102
{ACAD_REACTORS
330
E
102
}
330
E
  0
SCALE
  5
A5
102
{ACAD_REACTORS
330
42
102
}
330
42
100
AcDbScale
 70
     0
300
1:2
140
1.0
141
2.0
290
     0
  0
SCALE
  5
AE
102
{ACAD_REACTORS
330
42
102
}
330
42
100
AcDbScale
 70
     0
300
1:50
140
1.0
141
50.0
290
     0
  0
SCALE
  5
AF
102
{ACAD_REACTORS
330
42
102
}
330
42
100
AcDbScale
 70
     0
300
1:100
140
1.0
141
100.0
290
     0
  0
SCALE
  5
B0
102
{ACAD_REACTORS
330
42
102
}
330
42
100
AcDbScale
 70
     0
300
2:1
140
2.0
141
1.0
290
     0
  0
SCALE
  5
B1
102
{ACAD_REACTORS
330
42
102
}
330
42
100
AcDbScale
 70
     0
300
4:1
140
4.0
141
1.0
290
     0
  0
SCALE
  5
B2
102
{ACAD_REACTORS
330
42
102
}
330
42
100
AcDbScale
 70
     0
300
8:1
140
8.0
141
1.0
290
     0
  0
SCALE
  5
B3
102
{ACAD_REACTORS
330
42
102
}
330
42
100
AcDbScale
 70
     0
300
10:1
140
10.0
141
1.0
290
     0
  0
SCALE
  5
B4
102
{ACAD_REACTORS
330
42
102
}
330
42
100
AcDbScale
 70
     0
300
100:1
140
100.0
141
1.0
290
     0
  0
SCALE
  5
A6
102
{ACAD_REACTORS
330
42
102
}
330
42
100
AcDbScale
 70
     0
300
1:4
140
1.0
141
4.0
290
     0
  0
SCALE
  5
A7
102
{ACAD_REACTORS
330
42
102
}
330
42
100
AcDbScale
 70
     0
300
1:5
140
1.0
141
5.0
290
     0
  0
SCALE
  5
A8
102
{ACAD_REACTORS
330
42
102
}
330
42
100
AcDbScale
 70
     0
300
1:8
140
1.0
141
8.0
290
     0
  0
SCALE
  5
A9
102
{ACAD_REACTORS
330
42
102
}
330
42
100
AcDbScale
 70
     0
300
1:10
140
1.0
141
10.0
290
     0
  0
SCALE
  5
AA
102
{ACAD_REACTORS
330
42
102
}
330
42
100
AcDbScale
 70
     0
300
1:16
140
1.0
141
16.0
290
     0
  0
SCALE
  5
AB
102
{ACAD_REACTORS
330
42
102
}
330
42
100
AcDbScale
 70
     0
300
1:20
140
1.0
141
20.0
290
     0
  0
SCALE
  5
AC
102
{ACAD_REACTORS
330
42
102
}
330
42
100
AcDbScale
 70
     0
300
1:30
140
1.0
141
30.0
290
     0
  0
SCALE
  5
AD
102
{ACAD_REACTORS
330
42
102
}
330
42
100
AcDbScale
 70
     0
300
1:40
140
1.0
141
40.0
290
     0
  0
SCALE
  5
43
102
{ACAD_REACTORS
330
42
102
}
330
42
100
AcDbScale
 70
     0
300
1:1
140
1.0
141
1.0
290
     1
  0
SCALE
  5
44
102
{ACAD_REACTORS
330
42
102
}
330
42
100
AcDbScale
 70
     0
300
1/128" = 1'-0"
140
0.007813
141
12.0
290
     0
  0
SCALE
  5
45
102
{ACAD_REACTORS
330
42
102
}
330
42
100
AcDbScale
 70
     0
300
1/64" = 1'-0"
140
0.015625
141
12.0
290
     0
  0
SCALE
  5
46
102
{ACAD_REACTORS
330
42
102
}
330
42
100
AcDbScale
 70
     0
300
1/32" = 1'-0"
140
0.03125
141
12.0
290
     0
  0
SCALE
  5
47
102
{ACAD_REACTORS
330
42
102
}
330
42
100
AcDbScale
 70
     0
300
1/16" = 1'-0"
140
0.0625
141
12.0
290
     0
  0
SCALE
  5
48
102
{ACAD_REACTORS
330
42
102
}
330
42
100
AcDbScale
 70
     0
300
3/32" = 1'-0"
140
0.09375
141
12.0
290
     0
  0
SCALE
  5
49
102
{ACAD_REACTORS
330
42
102
}
330
42
100
AcDbScale
 70
     0
300
1/8" = 1'-0"
140
0.125
141
12.0
290
     0
  0
SCALE
  5
4A
102
{ACAD_REACTORS
330
42
102
}
330
42
100
AcDbScale
 70
     0
300
3/16" = 1'-0"
140
0.1875
141
12.0
290
     0
  0
SCALE
  5
4B
102
{ACAD_REACTORS
330
42
102
}
330
42
100
AcDbScale
 70
     0
300
1/4" = 1'-0"
140
0.25
141
12.0
290
     0
  0
SCALE
  5
4C
102
{ACAD_REACTORS
330
42
102
}
330
42
100
AcDbScale
 70
     0
300
3/8" = 1'-0"
140
0.375
141
12.0
290
     0
  0
SCALE
  5
4D
102
{ACAD_REACTORS
330
42
102
}
330
42
100
AcDbScale
 70
     0
300
1/2" = 1'-0"
140
0.5
141
12.0
290
     0
  0
SCALE
  5
4E
102
{ACAD_REACTORS
330
42
102
}
330
42
100
AcDbScale
 70
     0
300
3/4" = 1'-0"
140
0.75
141
12.0
290
     0
  0
SCALE
  5
4F
102
{ACAD_REACTORS
330
42
102
}
330
42
100
AcDbScale
 70
     0
300
1" = 1'-0"
140
1.0
141
12.0
290
     0
  0
SCALE
  5
50
102
{ACAD_REACTORS
330
42
102
}
330
42
100
AcDbScale
 70
     0
300
1-1/2" = 1'-0"
140
1.5
141
12.0
290
     0
  0
SCALE
  5
51
102
{ACAD_REACTORS
330
42
102
}
330
42
100
AcDbScale
 70
     0
300
3" = 1'-0"
140
3.0
141
12.0
290
     0
  0
SCALE
  5
52
102
{ACAD_REACTORS
330
42
102
}
330
42
100
AcDbScale
 70
     0
300
6" = 1'-0"
140
6.0
141
12.0
290
     0
  0
SCALE
  5
53
102
{ACAD_REACTORS
330
42
102
}
330
42
100
AcDbScale
 70
     0
300
1'-0" = 1'-0"
140
12.0
141
12.0
290
     0
  0
ACDBSECTIONVIEWSTYLE
  5
69
102
{ACAD_XDICTIONARY
360
74F
102
}
102
{ACAD_REACTORS
330
68
102
}
330
68
100
AcDbModelDocViewStyle
 70
     0
  3
Imperial24
290
     0
100
AcDbSectionViewStyle
 70
     0
 71
     0
 90
       78
 71
     1
340
55
 62
   256
 40
0.24
340
0
340
0
 62
   256
 40
0.24
300
I, O, Q, S, X, Z
 40
0.48
 90
        3
 40
0.18
 90
        1
 71
     2
340
5D
 90
       25
 62
   256
340
5D
 90
       50
 62
   256
 40
0.24
 40
0.0
 40
0.24
 71
     3
340
55
 62
   256
 40
0.24
 90
        1
 40
0.75
 90
        1
300
%<\AcVar ViewType \f "%tc1">% %<\AcVar ViewSectionStartId>%-%<\AcVar ViewSectionEndId>%\PSCALE %<\AcVar ViewScale \f "%sn">%
 71
     4
 62
   256
 62
   257
300
ANSI31
 40
1.0
 90
        0
290
     0
290
     0
 90
        6
 40
0.0
 40
1.570796
 40
0.261799
 40
1.308997
 40
-0.261799
 40
1.832596
  0
TABLESTYLE
  5
65
102
{ACAD_XDICTIONARY
360
74C
102
}
102
{ACAD_REACTORS
330
64
102
}
330
64
100
AcDbTableStyle
280
     0
  3
Standard
 70
     0
 71
     0
 40
0.06
 41
0.06
280
     0
281
     0
  7
Standard
140
0.18
170
     2
 62
     0
 63
     7
283
     0
 90
      512
 91
        0
  1

274
    -2
284
     1
 64
     0
275
    -2
285
     1
 65
     0
276
    -2
286
     1
 66
     0
277
    -2
287
     1
 67
     0
278
    -2
288
     1
 68
     0
279
    -2
289
     1
 69
     0
  7
Standard
140
0.25
170
     5
 62
     0
 63
     7
283
     0
 90
      512
 91
        0
  1

274
    -2
284
     1
 64
     0
275
    -2
285
     1
 65
     0
276
    -2
286
     1
 66
     0
277
    -2
287
     1
 67
     0
278
    -2
288
     1
 68
     0
279
    -2
289
     1
 69
     0
  7
Standard
140
0.18
170
     5
 62
     0
 63
     7
283
     0
 90
      512
 91
        0
  1

274
    -2
284
     1
 64
     0
275
    -2
285
     1
 65
     0
276
    -2
286
     1
 66
     0
277
    -2
287
     1
 67
     0
278
    -2
288
     1
 68
     0
279
    -2
289
     1
 69
     0
  0
VISUALSTYLE
  5
2F
102
{ACAD_REACTORS
330
29
102
}
330
29
100
AcDbVisualStyle
  2
2dWireframe
 70
     4
177
     3
291
     0
 70
    58
 90
        0
176
     1
 90
        2
176
     1
 90
        0
176
     1
 90
        0
176
     1
 40
0.6
176
     1
 40
30.0
176
     1
 62
     7
420
 16777215
176
     1
 90
        1
176
     1
 90
        4
176
     1
 62
     7
176
     1
 62
   257
176
     1
 90
        1
176
     1
 90
        1
176
     1
 40
1.0
176
     1
 90
        0
176
     1
 62
   257
176
     1
 40
1.0
176
     1
 90
        1
176
     1
 90
        6
176
     1
 90
        2
176
     1
 62
     7
176
     1
 90
        5
176
     1
 90
        0
176
     1
 90
        0
176
     1
290
     0
176
     1
 90
        1
176
     1
 40
0.0
176
     1
 90
        0
176
     1
290
     1
176
     1
290
     1
176
     1
290
     0
176
     1
290
     0
176
     1
290
     0
176
     1
290
     0
176
     1
290
     0
176
     1
290
     0
176
     1
290
     0
176
     1
 90
       50
176
     1
 40
0.0
176
     1
 40
1.0
176
     1
 90
        0
176
     1
 62
    18
420
        0
176
     1
 90
       50
176
     1
 90
        3
176
     1
 62
     5
420
      255
176
     1
290
     0
176
     1
 90
       50
176
     1
 90
       50
176
     1
 90
       50
176
     1
290
     0
176
     1
 90
       50
176
     1
 62
   256
176
     0
 40
1.0
176
     0
 90
        2
176
     1
  1
strokes_ogs.tif
176
     1
290
     0
176
     1
 40
1.0
176
     1
 40
1.0
176
     1
1001
ACAD
1000
AcDbSavedByObjectVersion
1070
     0
  0
VISUALSTYLE
  5
2E
102
{ACAD_REACTORS
330
29
102
}
330
29
100
AcDbVisualStyle
  2
Basic
 70
     7
177
     3
291
     1
 70
    58
 90
        1
176
     1
 90
        0
176
     1
 90
        1
176
     1
 90
        0
176
     1
 40
0.6
176
     1
 40
30.0
176
     1
 62
     7
420
 16777215
176
     1
 90
        0
176
     1
 90
        4
176
     1
 62
     7
176
     1
 62
   257
176
     1
 90
        1
176
     1
 90
        1
176
     1
 40
1.0
176
     1
 90
        8
176
     1
 62
     7
176
     1
 40
1.0
176
     1
 90
        1
176
     1
 90
        6
176
     1
 90
        2
176
     1
 62
     7
176
     1
 90
        5
176
     1
 90
        0
176
     1
 90
        0
176
     1
290
     0
176
     1
 90
        1
176
     1
 40
0.0
176
     1
 90
        0
176
     1
290
     0
176
     1
290
     1
176
     1
290
     1
176
     1
290
     0
176
     1
290
     0
176
     1
290
     0
176
     1
290
     0
176
     1
290
     0
176
     1
290
     0
176
     1
 90
       50
176
     1
 40
0.0
176
     1
 40
1.0
176
     1
 90
        0
176
     1
 62
    18
420
        0
176
     1
 90
       50
176
     1
 90
        3
176
     1
 62
     5
420
      255
176
     1
290
     0
176
     1
 90
       50
176
     1
 90
       50
176
     1
 90
       50
176
     1
290
     0
176
     1
 90
       50
176
     1
 62
   256
176
     0
 40
1.0
176
     0
 90
        2
176
     1
  1
strokes_ogs.tif
176
     1
290
     0
176
     1
 40
1.0
176
     1
 40
1.0
176
     1
1001
ACAD
1000
AcDbSavedByObjectVersion
1070
     0
  0
VISUALSTYLE
  5
35
102
{ACAD_REACTORS
330
29
102
}
330
29
100
AcDbVisualStyle
  2
Brighten
 70
    12
177
     3
291
     1
 70
    58
 90
        2
176
     1
 90
        2
176
     1
 90
        0
176
     1
 90
        0
176
     1
 40
0.6
176
     1
 40
30.0
176
     1
 62
     7
420
 16777215
176
     1
 90
        1
176
     1
 90
        4
176
     1
 62
     7
176
     1
 62
   257
176
     1
 90
        1
176
     1
 90
        1
176
     1
 40
1.0
176
     1
 90
        8
176
     1
 62
     7
176
     1
 40
1.0
176
     1
 90
        1
176
     1
 90
        6
176
     1
 90
        2
176
     1
 62
     7
176
     1
 90
        5
176
     1
 90
        0
176
     1
 90
        0
176
     1
290
     0
176
     1
 90
        1
176
     1
 40
50.0
176
     1
 90
        0
176
     1
290
     0
176
     1
290
     1
176
     1
290
     1
176
     1
290
     0
176
     1
290
     0
176
     1
290
     0
176
     1
290
     0
176
     1
290
     0
176
     1
290
     0
176
     1
 90
       50
176
     1
 40
0.0
176
     1
 40
1.0
176
     1
 90
        0
176
     1
 62
    18
420
        0
176
     1
 90
       50
176
     1
 90
        3
176
     1
 62
     5
420
      255
176
     1
290
     0
176
     1
 90
       50
176
     1
 90
       50
176
     1
 90
       50
176
     1
290
     0
176
     1
 90
       50
176
     1
 62
   256
176
     0
 40
1.0
176
     0
 90
        2
176
     1
  1
strokes_ogs.tif
176
     1
290
     0
176
     1
 40
1.0
176
     1
 40
1.0
176
     1
1001
ACAD
1000
AcDbSavedByObjectVersion
1070
     0
  0
VISUALSTYLE
  5
39
102
{ACAD_REACTORS
330
29
102
}
330
29
100
AcDbVisualStyle
  2
ColorChange
 70
    16
177
     3
291
     1
 70
    58
 90
        2
176
     1
 90
        2
176
     1
 90
        3
176
     1
 90
        0
176
     1
 40
0.6
176
     1
 40
30.0
176
     1
 62
     8
420
  8421504
176
     1
 90
        1
176
     1
 90
        4
176
     1
 62
     7
176
     1
 62
   257
176
     1
 90
        1
176
     1
 90
        1
176
     1
 40
1.0
176
     1
 90
        8
176
     1
 62
     8
420
  8421504
176
     1
 40
1.0
176
     1
 90
        1
176
     1
 90
        6
176
     1
 90
        2
176
     1
 62
     7
176
     1
 90
        5
176
     1
 90
        0
176
     1
 90
        0
176
     1
290
     0
176
     1
 90
        1
176
     1
 40
0.0
176
     1
 90
        0
176
     1
290
     0
176
     1
290
     1
176
     1
290
     1
176
     1
290
     0
176
     1
290
     0
176
     1
290
     0
176
     1
290
     0
176
     1
290
     0
176
     1
290
     0
176
     1
 90
       50
176
     1
 40
0.0
176
     1
 40
1.0
176
     1
 90
        0
176
     1
 62
    18
420
        0
176
     1
 90
       50
176
     1
 90
        3
176
     1
 62
     5
420
      255
176
     1
290
     0
176
     1
 90
       50
176
     1
 90
       50
176
     1
 90
       50
176
     1
290
     0
176
     1
 90
       50
176
     1
 62
   256
176
     0
 40
1.0
176
     0
 90
        2
176
     1
  1
strokes_ogs.tif
176
     1
290
     0
176
     1
 40
1.0
176
     1
 40
1.0
176
     1
1001
ACAD
1000
AcDbSavedByObjectVersion
1070
     0
  0
VISUALSTYLE
  5
32
102
{ACAD_REACTORS
330
29
102
}
330
29
100
AcDbVisualStyle
  2
Conceptual
 70
     9
177
     3
291
     0
 70
    58
 90
        3
176
     1
 90
        2
176
     1
 90
        0
176
     1
 90
        0
176
     1
 40
0.6
176
     1
 40
30.0
176
     1
 62
     7
420
 16777215
176
     1
 90
        2
176
     1
 90
        2
176
     1
 62
     7
176
     1
 62
   257
176
     1
 90
        1
176
     1
 90
        1
176
     1
 40
179.0
176
     1
 90
        8
176
     1
 62
     7
176
     1
 40
1.0
176
     1
 90
        1
176
     1
 90
        6
176
     1
 90
        2
176
     1
 62
     7
176
     1
 90
        3
176
     1
 90
        0
176
     1
 90
        0
176
     1
290
     0
176
     1
 90
        1
176
     1
 40
0.0
176
     1
 90
        0
176
     1
290
     0
176
     1
290
     1
176
     1
290
     1
176
     1
290
     0
176
     1
290
     0
176
     1
290
     0
176
     1
290
     0
176
     1
290
     0
176
     1
290
     0
176
     1
 90
       50
176
     1
 40
0.0
176
     1
 40
1.0
176
     1
 90
        0
176
     1
 62
    18
420
        0
176
     1
 90
       50
176
     1
 90
        3
176
     1
 62
     5
420
      255
176
     1
290
     0
176
     1
 90
       50
176
     1
 90
       50
176
     1
 90
       50
176
     1
290
     0
176
     1
 90
       50
176
     1
 62
   256
176
     0
 40
1.0
176
     0
 90
        2
176
     1
  1
strokes_ogs.tif
176
     1
290
     0
176
     1
 40
1.0
176
     1
 40
1.0
176
     1
1001
ACAD
1000
AcDbSavedByObjectVersion
1070
     0
  0
VISUALSTYLE
  5
34
102
{ACAD_REACTORS
330
29
102
}
330
29
100
AcDbVisualStyle
  2
Dim
 70
    11
177
     3
291
     1
 70
    58
 90
        2
176
     1
 90
        2
176
     1
 90
        0
176
     1
 90
        0
176
     1
 40
0.6
176
     1
 40
30.0
176
     1
 62
     7
420
 16777215
176
     1
 90
        1
176
     1
 90
        4
176
     1
 62
     7
176
     1
 62
   257
176
     1
 90
        1
176
     1
 90
        1
176
     1
 40
1.0
176
     1
 90
        8
176
     1
 62
     7
176
     1
 40
1.0
176
     1
 90
        1
176
     1
 90
        6
176
     1
 90
        2
176
     1
 62
     7
176
     1
 90
        5
176
     1
 90
        0
176
     1
 90
        0
176
     1
290
     0
176
     1
 90
        1
176
     1
 40
-50.0
176
     1
 90
        0
176
     1
290
     0
176
     1
290
     1
176
     1
290
     1
176
     1
290
     0
176
     1
290
     0
176
     1
290
     0
176
     1
290
     0
176
     1
290
     0
176
     1
290
     0
176
     1
 90
       50
176
     1
 40
0.0
176
     1
 40
1.0
176
     1
 90
        0
176
     1
 62
    18
420
        0
176
     1
 90
       50
176
     1
 90
        3
176
     1
 62
     5
420
      255
176
     1
290
     0
176
     1
 90
       50
176
     1
 90
       50
176
     1
 90
       50
176
     1
290
     0
176
     1
 90
       50
176
     1
 62
   256
176
     0
 40
1.0
176
     0
 90
        2
176
     1
  1
strokes_ogs.tif
176
     1
290
     0
176
     1
 40
1.0
176
     1
 40
1.0
176
     1
1001
ACAD
1000
AcDbSavedByObjectVersion
1070
     0
  0
VISUALSTYLE
  5
41
102
{ACAD_REACTORS
330
29
102
}
330
29
100
AcDbVisualStyle
  2
EdgeColorOff
 70
    22
177
     3
291
     1
 70
    58
 90
        2
176
     0
 90
        2
176
     0
 90
        0
176
     0
 90
        0
176
     0
 40
0.6
176
     0
 40
30.0
176
     0
 62
     7
420
 16777215
176
     0
 90
        1
176
     0
 90
        4
176
     0
 62
     7
176
     0
 62
   257
176
     0
 90
        1
176
     0
 90
        1
176
     0
 40
1.0
176
     0
 90
        8
176
     2
 62
     7
176
     0
 40
1.0
176
     0
 90
        1
176
     0
 90
        6
176
     0
 90
        2
176
     0
 62
     7
176
     0
 90
        5
176
     0
 90
        0
176
     0
 90
        0
176
     0
290
     0
176
     0
 90
        1
176
     0
 40
0.0
176
     0
 90
        0
176
     0
290
     0
176
     0
290
     1
176
     0
290
     1
176
     0
290
     0
176
     0
290
     0
176
     0
290
     0
176
     0
290
     0
176
     0
290
     0
176
     0
290
     0
176
     0
 90
       50
176
     0
 40
0.0
176
     0
 40
1.0
176
     0
 90
        0
176
     0
 62
    18
420
        0
176
     0
 90
       50
176
     0
 90
        3
176
     0
 62
     5
420
      255
176
     0
290
     0
176
     0
 90
       50
176
     0
 90
       50
176
     0
 90
       50
176
     0
290
     0
176
     0
 90
       50
176
     0
 62
   256
176
     0
 40
1.0
176
     0
 90
        2
176
     0
  1
strokes_ogs.tif
176
     0
290
     0
176
     0
 40
1.0
176
     0
 40
1.0
176
     0
1001
ACAD
1000
AcDbSavedByObjectVersion
1070
     0
  0
VISUALSTYLE
  5
38
102
{ACAD_REACTORS
330
29
102
}
330
29
100
AcDbVisualStyle
  2
Facepattern
 70
    15
177
     3
291
     1
 70
    58
 90
        2
176
     1
 90
        2
176
     1
 90
        0
176
     1
 90
        0
176
     1
 40
0.6
176
     1
 40
30.0
176
     1
 62
     7
420
 16777215
176
     1
 90
        1
176
     1
 90
        4
176
     1
 62
     7
176
     1
 62
   257
176
     1
 90
        1
176
     1
 90
        1
176
     1
 40
1.0
176
     1
 90
        8
176
     1
 62
     7
176
     1
 40
1.0
176
     1
 90
        1
176
     1
 90
        6
176
     1
 90
        2
176
     1
 62
     7
176
     1
 90
        5
176
     1
 90
        0
176
     1
 90
        0
176
     1
290
     0
176
     1
 90
        1
176
     1
 40
0.0
176
     1
 90
        0
176
     1
290
     0
176
     1
290
     1
176
     1
290
     1
176
     1
290
     0
176
     1
290
     0
176
     1
290
     0
176
     1
290
     0
176
     1
290
     0
176
     1
290
     0
176
     1
 90
       50
176
     1
 40
0.0
176
     1
 40
1.0
176
     1
 90
        0
176
     1
 62
    18
420
        0
176
     1
 90
       50
176
     1
 90
        3
176
     1
 62
     5
420
      255
176
     1
290
     0
176
     1
 90
       50
176
     1
 90
       50
176
     1
 90
       50
176
     1
290
     0
176
     1
 90
       50
176
     1
 62
   256
176
     0
 40
1.0
176
     0
 90
        2
176
     1
  1
strokes_ogs.tif
176
     1
290
     0
176
     1
 40
1.0
176
     1
 40
1.0
176
     1
1001
ACAD
1000
AcDbSavedByObjectVersion
1070
     0
  0
VISUALSTYLE
  5
2A
102
{ACAD_REACTORS
330
29
102
}
330
29
100
AcDbVisualStyle
  2
Flat
 70
     0
177
     3
291
     1
 70
    58
 90
        2
176
     1
 90
        1
176
     1
 90
        1
176
     1
 90
        2
176
     1
 40
0.6
176
     1
 40
30.0
176
     1
 62
     7
420
 16777215
176
     1
 90
        0
176
     1
 90
        0
176
     1
 62
     7
176
     1
 62
   257
176
     1
 90
        1
176
     1
 90
        1
176
     1
 40
1.0
176
     1
 90
        8
176
     1
 62
     7
176
     1
 40
1.0
176
     1
 90
        1
176
     1
 90
        6
176
     1
 90
        2
176
     1
 62
     7
176
     1
 90
        5
176
     1
 90
        0
176
     1
 90
        0
176
     1
290
     0
176
     1
 90
       13
176
     1
 40
0.0
176
     1
 90
        0
176
     1
290
     0
176
     1
290
     1
176
     1
290
     1
176
     1
290
     0
176
     1
290
     0
176
     1
290
     0
176
     1
290
     0
176
     1
290
     0
176
     1
290
     0
176
     1
 90
       50
176
     1
 40
0.0
176
     1
 40
1.0
176
     1
 90
        0
176
     1
 62
    18
420
        0
176
     1
 90
       50
176
     1
 90
        3
176
     1
 62
     5
420
      255
176
     1
290
     0
176
     1
 90
       50
176
     1
 90
       50
176
     1
 90
       50
176
     1
290
     0
176
     1
 90
       50
176
     1
 62
   256
176
     0
 40
1.0
176
     0
 90
        2
176
     1
  1
strokes_ogs.tif
176
     1
290
     0
176
     1
 40
1.0
176
     1
 40
1.0
176
     1
1001
ACAD
1000
AcDbSavedByObjectVersion
1070
     0
  0
VISUALSTYLE
  5
2B
102
{ACAD_REACTORS
330
29
102
}
330
29
100
AcDbVisualStyle
  2
FlatWithEdges
 70
     1
177
     3
291
     1
 70
    58
 90
        2
176
     1
 90
        1
176
     1
 90
        1
176
     1
 90
        2
176
     1
 40
0.6
176
     1
 40
30.0
176
     1
 62
     7
420
 16777215
176
     1
 90
        1
176
     1
 90
        0
176
     1
 62
     7
176
     1
 62
   257
176
     1
 90
        1
176
     1
 90
        1
176
     1
 40
1.0
176
     1
 90
        0
176
     1
 62
   257
176
     1
 40
1.0
176
     1
 90
        1
176
     1
 90
        6
176
     1
 90
        2
176
     1
 62
     7
176
     1
 90
        5
176
     1
 90
        0
176
     1
 90
        0
176
     1
290
     0
176
     1
 90
       13
176
     1
 40
0.0
176
     1
 90
        0
176
     1
290
     0
176
     1
290
     1
176
     1
290
     1
176
     1
290
     0
176
     1
290
     0
176
     1
290
     0
176
     1
290
     0
176
     1
290
     0
176
     1
290
     0
176
     1
 90
       50
176
     1
 40
0.0
176
     1
 40
1.0
176
     1
 90
        0
176
     1
 62
    18
420
        0
176
     1
 90
       50
176
     1
 90
        3
176
     1
 62
     5
420
      255
176
     1
290
     0
176
     1
 90
       50
176
     1
 90
       50
176
     1
 90
       50
176
     1
290
     0
176
     1
 90
       50
176
     1
 62
   256
176
     0
 40
1.0
176
     0
 90
        2
176
     1
  1
strokes_ogs.tif
176
     1
290
     0
176
     1
 40
1.0
176
     1
 40
1.0
176
     1
1001
ACAD
1000
AcDbSavedByObjectVersion
1070
     0
  0
VISUALSTYLE
  5
2C
102
{ACAD_REACTORS
330
29
102
}
330
29
100
AcDbVisualStyle
  2
Gouraud
 70
     2
177
     3
291
     1
 70
    58
 90
        2
176
     1
 90
        2
176
     1
 90
        1
176
     1
 90
        2
176
     1
 40
0.6
176
     1
 40
30.0
176
     1
 62
     7
420
 16777215
176
     1
 90
        0
176
     1
 90
        0
176
     1
 62
     7
176
     1
 62
   257
176
     1
 90
        1
176
     1
 90
        1
176
     1
 40
1.0
176
     1
 90
        0
176
     1
 62
     7
176
     1
 40
1.0
176
     1
 90
        1
176
     1
 90
        6
176
     1
 90
        2
176
     1
 62
     7
176
     1
 90
        5
176
     1
 90
        0
176
     1
 90
        0
176
     1
290
     0
176
     1
 90
       13
176
     1
 40
0.0
176
     1
 90
        0
176
     1
290
     0
176
     1
290
     1
176
     1
290
     1
176
     1
290
     0
176
     1
290
     0
176
     1
290
     0
176
     1
290
     0
176
     1
290
     0
176
     1
290
     0
176
     1
 90
       50
176
     1
 40
0.0
176
     1
 40
1.0
176
     1
 90
        0
176
     1
 62
    18
420
        0
176
     1
 90
       50
176
     1
 90
        3
176
     1
 62
     5
420
      255
176
     1
290
     0
176
     1
 90
       50
176
     1
 90
       50
176
     1
 90
       50
176
     1
290
     0
176
     1
 90
       50
176
     1
 62
   256
176
     0
 40
1.0
176
     0
 90
        2
176
     1
  1
strokes_ogs.tif
176
     1
290
     0
176
     1
 40
1.0
176
     1
 40
1.0
176
     1
1001
ACAD
1000
AcDbSavedByObjectVersion
1070
     0
  0
VISUALSTYLE
  5
2D
102
{ACAD_REACTORS
330
29
102
}
330
29
100
AcDbVisualStyle
  2
GouraudWithEdges
 70
     3
177
     3
291
     1
 70
    58
 90
        2
176
     1
 90
        2
176
     1
 90
        1
176
     1
 90
        2
176
     1
 40
0.6
176
     1
 40
30.0
176
     1
 62
     7
420
 16777215
176
     1
 90
        1
176
     1
 90
        0
176
     1
 62
     7
176
     1
 62
   257
176
     1
 90
        1
176
     1
 90
        1
176
     1
 40
1.0
176
     1
 90
        0
176
     1
 62
   257
176
     1
 40
1.0
176
     1
 90
        1
176
     1
 90
        6
176
     1
 90
        2
176
     1
 62
     7
176
     1
 90
        5
176
     1
 90
        0
176
     1
 90
        0
176
     1
290
     0
176
     1
 90
       13
176
     1
 40
0.0
176
     1
 90
        0
176
     1
290
     0
176
     1
290
     1
176
     1
290
     1
176
     1
290
     0
176
     1
290
     0
176
     1
290
     0
176
     1
290
     0
176
     1
290
     0
176
     1
290
     0
176
     1
 90
       50
176
     1
 40
0.0
176
     1
 40
1.0
176
     1
 90
        0
176
     1
 62
    18
420
        0
176
     1
 90
       50
176
     1
 90
        3
176
     1
 62
     5
420
      255
176
     1
290
     0
176
     1
 90
       50
176
     1
 90
       50
176
     1
 90
       50
176
     1
290
     0
176
     1
 90
       50
176
     1
 62
   256
176
     0
 40
1.0
176
     0
 90
        2
176
     1
  1
strokes_ogs.tif
176
     1
290
     0
176
     1
 40
1.0
176
     1
 40
1.0
176
     1
1001
ACAD
1000
AcDbSavedByObjectVersion
1070
     0
  0
VISUALSTYLE
  5
31
102
{ACAD_REACTORS
330
29
102
}
330
29
100
AcDbVisualStyle
  2
Hidden
 70
     6
177
     3
291
     0
 70
    58
 90
        1
176
     1
 90
        2
176
     1
 90
        2
176
     1
 90
        0
176
     1
 40
0.6
176
     1
 40
30.0
176
     1
 62
     7
420
 16777215
176
     1
 90
        2
176
     1
 90
        2
176
     1
 62
     7
176
     1
 62
   257
176
     1
 90
        2
176
     1
 90
        1
176
     1
 40
40.0
176
     1
 90
        0
176
     1
 62
   257
176
     1
 40
1.0
176
     1
 90
        1
176
     1
 90
        6
176
     1
 90
        2
176
     1
 62
     7
176
     1
 90
        3
176
     1
 90
        0
176
     1
 90
        0
176
     1
290
     0
176
     1
 90
        1
176
     1
 40
0.0
176
     1
 90
        0
176
     1
290
     0
176
     1
290
     1
176
     1
290
     1
176
     1
290
     0
176
     1
290
     0
176
     1
290
     0
176
     1
290
     0
176
     1
290
     0
176
     1
290
     0
176
     1
 90
       50
176
     1
 40
0.0
176
     1
 40
1.0
176
     1
 90
        0
176
     1
 62
    18
420
        0
176
     1
 90
       50
176
     1
 90
        3
176
     1
 62
     5
420
      255
176
     1
290
     0
176
     1
 90
       50
176
     1
 90
       50
176
     1
 90
       50
176
     1
290
     0
176
     1
 90
       50
176
     1
 62
   256
176
     0
 40
1.0
176
     0
 90
        2
176
     1
  1
strokes_ogs.tif
176
     1
290
     0
176
     1
 40
1.0
176
     1
 40
1.0
176
     1
1001
ACAD
1000
AcDbSavedByObjectVersion
1070
     0
  0
VISUALSTYLE
  5
3F
102
{ACAD_REACTORS
330
29
102
}
330
29
100
AcDbVisualStyle
  2
JitterOff
 70
    20
177
     3
291
     1
 70
    58
 90
        2
176
     0
 90
        2
176
     0
 90
        0
176
     0
 90
        0
176
     0
 40
0.6
176
     0
 40
30.0
176
     0
 62
     7
420
 16777215
176
     0
 90
        1
176
     0
 90
        4
176
     0
 62
     7
176
     0
 62
   257
176
     0
 90
        1
176
     0
 90
        1
176
     0
 40
1.0
176
     0
 90
       10
176
     2
 62
     7
176
     0
 40
1.0
176
     0
 90
        1
176
     0
 90
        6
176
     0
 90
        2
176
     0
 62
     7
176
     0
 90
        5
176
     0
 90
        0
176
     0
 90
        0
176
     0
290
     0
176
     0
 90
        1
176
     0
 40
0.0
176
     0
 90
        0
176
     0
290
     0
176
     0
290
     1
176
     0
290
     1
176
     0
290
     0
176
     0
290
     0
176
     0
290
     0
176
     0
290
     0
176
     0
290
     0
176
     0
290
     0
176
     0
 90
       50
176
     0
 40
0.0
176
     0
 40
1.0
176
     0
 90
        0
176
     0
 62
    18
420
        0
176
     0
 90
       50
176
     0
 90
        3
176
     0
 62
     5
420
      255
176
     0
290
     0
176
     0
 90
       50
176
     0
 90
       50
176
     0
 90
       50
176
     0
290
     0
176
     0
 90
       50
176
     0
 62
   256
176
     0
 40
1.0
176
     0
 90
        2
176
     0
  1
strokes_ogs.tif
176
     0
290
     0
176
     0
 40
1.0
176
     0
 40
1.0
176
     0
1001
ACAD
1000
AcDbSavedByObjectVersion
1070
     0
  0
VISUALSTYLE
  5
37
102
{ACAD_REACTORS
330
29
102
}
330
29
100
AcDbVisualStyle
  2
Linepattern
 70
    14
177
     3
291
     1
 70
    58
 90
        2
176
     1
 90
        2
176
     1
 90
        0
176
     1
 90
        0
176
     1
 40
0.6
176
     1
 40
30.0
176
     1
 62
     7
420
 16777215
176
     1
 90
        1
176
     1
 90
        4
176
     1
 62
     7
176
     1
 62
   257
176
     1
 90
        7
176
     1
 90
        7
176
     1
 40
1.0
176
     1
 90
        8
176
     1
 62
     7
176
     1
 40
1.0
176
     1
 90
        1
176
     1
 90
        6
176
     1
 90
        2
176
     1
 62
     7
176
     1
 90
        5
176
     1
 90
        0
176
     1
 90
        0
176
     1
290
     0
176
     1
 90
        1
176
     1
 40
0.0
176
     1
 90
        0
176
     1
290
     0
176
     1
290
     1
176
     1
290
     1
176
     1
290
     0
176
     1
290
     0
176
     1
290
     0
176
     1
290
     0
176
     1
290
     0
176
     1
290
     0
176
     1
 90
       50
176
     1
 40
0.0
176
     1
 40
1.0
176
     1
 90
        0
176
     1
 62
    18
420
        0
176
     1
 90
       50
176
     1
 90
        3
176
     1
 62
     5
420
      255
176
     1
290
     0
176
     1
 90
       50
176
     1
 90
       50
176
     1
 90
       50
176
     1
290
     0
176
     1
 90
       50
176
     1
 62
   256
176
     0
 40
1.0
176
     0
 90
        2
176
     1
  1
strokes_ogs.tif
176
     1
290
     0
176
     1
 40
1.0
176
     1
 40
1.0
176
     1
1001
ACAD
1000
AcDbSavedByObjectVersion
1070
     0
  0
VISUALSTYLE
  5
40
102
{ACAD_REACTORS
330
29
102
}
330
29
100
AcDbVisualStyle
  2
OverhangOff
 70
    21
177
     3
291
     1
 70
    58
 90
        2
176
     0
 90
        2
176
     0
 90
        0
176
     0
 90
        0
176
     0
 40
0.6
176
     0
 40
30.0
176
     0
 62
     7
420
 16777215
176
     0
 90
        1
176
     0
 90
        4
176
     0
 62
     7
176
     0
 62
   257
176
     0
 90
        1
176
     0
 90
        1
176
     0
 40
1.0
176
     0
 90
        9
176
     2
 62
     7
176
     0
 40
1.0
176
     0
 90
        1
176
     0
 90
        6
176
     0
 90
        2
176
     0
 62
     7
176
     0
 90
        5
176
     0
 90
        0
176
     0
 90
        0
176
     0
290
     0
176
     0
 90
        1
176
     0
 40
0.0
176
     0
 90
        0
176
     0
290
     0
176
     0
290
     1
176
     0
290
     1
176
     0
290
     0
176
     0
290
     0
176
     0
290
     0
176
     0
290
     0
176
     0
290
     0
176
     0
290
     0
176
     0
 90
       50
176
     0
 40
0.0
176
     0
 40
1.0
176
     0
 90
        0
176
     0
 62
    18
420
        0
176
     0
 90
       50
176
     0
 90
        3
176
     0
 62
     5
420
      255
176
     0
290
     0
176
     0
 90
       50
176
     0
 90
       50
176
     0
 90
       50
176
     0
290
     0
176
     0
 90
       50
176
     0
 62
   256
176
     0
 40
1.0
176
     0
 90
        2
176
     0
  1
strokes_ogs.tif
176
     0
290
     0
176
     0
 40
1.0
176
     0
 40
1.0
176
     0
1001
ACAD
1000
AcDbSavedByObjectVersion
1070
     0
  0
VISUALSTYLE
  5
33
102
{ACAD_REACTORS
330
29
102
}
330
29
100
AcDbVisualStyle
  2
Realistic
 70
     8
177
     3
291
     0
 70
    58
 90
        2
176
     1
 90
        3
176
     1
 90
        0
176
     1
 90
        2
176
     1
 40
0.6
176
     1
 40
30.0
176
     1
 62
     7
420
 16777215
176
     1
 90
        0
176
     1
 90
        0
176
     1
 62
     7
176
     1
 62
   257
176
     1
 90
        1
176
     1
 90
        1
176
     1
 40
1.0
176
     1
 90
        8
176
     1
 62
   257
176
     1
 40
1.0
176
     1
 90
        1
176
     1
 90
        6
176
     1
 90
        2
176
     1
 62
     7
176
     1
 90
        3
176
     1
 90
        0
176
     1
 90
        0
176
     1
290
     0
176
     1
 90
       13
176
     1
 40
0.0
176
     1
 90
        0
176
     1
290
     0
176
     1
290
     1
176
     1
290
     1
176
     1
290
     0
176
     1
290
     0
176
     1
290
     0
176
     1
290
     0
176
     1
290
     0
176
     1
290
     0
176
     1
 90
       50
176
     1
 40
0.0
176
     1
 40
1.0
176
     1
 90
        0
176
     1
 62
    18
420
        0
176
     1
 90
       50
176
     1
 90
        3
176
     1
 62
     5
420
      255
176
     1
290
     0
176
     1
 90
       50
176
     1
 90
       50
176
     1
 90
       50
176
     1
290
     0
176
     1
 90
       50
176
     1
 62
   256
176
     0
 40
1.0
176
     0
 90
        2
176
     1
  1
strokes_ogs.tif
176
     1
290
     0
176
     1
 40
1.0
176
     1
 40
1.0
176
     1
1001
ACAD
1000
AcDbSavedByObjectVersion
1070
     0
  0
VISUALSTYLE
  5
3E
102
{ACAD_REACTORS
330
29
102
}
330
29
100
AcDbVisualStyle
  2
Shaded
 70
    27
177
     3
291
     0
 70
    58
 90
        2
176
     1
 90
        2
176
     1
 90
        1
176
     1
 90
        2
176
     1
 40
0.6
176
     1
 40
30.0
176
     1
 62
     7
420
 16777215
176
     1
 90
        0
176
     1
 90
        4
176
     1
 62
     7
176
     1
 62
   257
176
     1
 90
        1
176
     1
 90
        1
176
     1
 40
1.0
176
     1
 90
        8
176
     1
 62
   257
176
     1
 40
1.0
176
     1
 90
        1
176
     1
 90
        6
176
     1
 90
        2
176
     1
 62
     8
420
  7895160
176
     1
 90
        3
176
     1
 90
        0
176
     1
 90
        0
176
     1
290
     0
176
     1
 90
        5
176
     1
 40
0.0
176
     1
 90
        0
176
     1
290
     0
176
     1
290
     1
176
     1
290
     1
176
     1
290
     0
176
     1
290
     0
176
     1
290
     0
176
     1
290
     0
176
     1
290
     0
176
     1
290
     0
176
     1
 90
       50
176
     1
 40
0.0
176
     1
 40
1.0
176
     1
 90
        0
176
     1
 62
    18
420
        0
176
     1
 90
       50
176
     1
 90
        3
176
     1
 62
     5
420
      255
176
     1
290
     0
176
     1
 90
       50
176
     1
 90
       50
176
     1
 90
       50
176
     1
290
     0
176
     1
 90
       50
176
     1
 62
   256
176
     0
 40
1.0
176
     0
 90
        2
176
     1
  1
strokes_ogs.tif
176
     1
290
     0
176
     1
 40
1.0
176
     1
 40
1.0
176
     1
1001
ACAD
1000
AcDbSavedByObjectVersion
1070
     0
  0
VISUALSTYLE
  5
3D
102
{ACAD_REACTORS
330
29
102
}
330
29
100
AcDbVisualStyle
  2
Shaded with edges
 70
    26
177
     3
291
     0
 70
    58
 90
        2
176
     1
 90
        2
176
     1
 90
        1
176
     1
 90
        2
176
     1
 40
0.6
176
     1
 40
30.0
176
     1
 62
     7
420
 16777215
176
     1
 90
        1
176
     1
 90
        2
176
     1
 62
     7
176
     1
 62
   257
176
     1
 90
        2
176
     1
 90
        1
176
     1
 40
1.0
176
     1
 90
        8
176
     1
 62
   257
176
     1
 40
1.0
176
     1
 90
        1
176
     1
 90
        6
176
     1
 90
        2
176
     1
 62
     7
176
     1
 90
        3
176
     1
 90
        0
176
     1
 90
        0
176
     1
290
     0
176
     1
 90
        5
176
     1
 40
0.0
176
     1
 90
        0
176
     1
290
     0
176
     1
290
     1
176
     1
290
     1
176
     1
290
     0
176
     1
290
     0
176
     1
290
     0
176
     1
290
     0
176
     1
290
     0
176
     1
290
     0
176
     1
 90
       50
176
     1
 40
0.0
176
     1
 40
1.0
176
     1
 90
        0
176
     1
 62
    18
420
        0
176
     1
 90
       50
176
     1
 90
        3
176
     1
 62
     5
420
      255
176
     1
290
     0
176
     1
 90
       50
176
     1
 90
       50
176
     1
 90
       50
176
     1
290
     0
176
     1
 90
       50
176
     1
 62
   256
176
     0
 40
1.0
176
     0
 90
        2
176
     1
  1
strokes_ogs.tif
176
     1
290
     0
176
     1
 40
1.0
176
     1
 40
1.0
176
     1
1001
ACAD
1000
AcDbSavedByObjectVersion
1070
     0
  0
VISUALSTYLE
  5
3A
102
{ACAD_REACTORS
330
29
102
}
330
29
100
AcDbVisualStyle
  2
Shades of Gray
 70
    23
177
     3
291
     0
 70
    58
 90
        2
176
     1
 90
        2
176
     1
 90
        3
176
     1
 90
        0
176
     1
 40
0.6
176
     1
 40
30.0
176
     1
 62
     7
420
 16777215
176
     1
 90
        2
176
     1
 90
        2
176
     1
 62
     7
176
     1
 62
     7
176
     1
 90
        1
176
     1
 90
        1
176
     1
 40
40.0
176
     1
 90
        8
176
     1
 62
     7
176
     1
 40
1.0
176
     1
 90
        1
176
     1
 90
        6
176
     1
 90
        2
176
     1
 62
     7
176
     1
 90
        3
176
     1
 90
        0
176
     1
 90
        0
176
     1
290
     0
176
     1
 90
        1
176
     1
 40
0.0
176
     1
 90
        0
176
     1
290
     0
176
     1
290
     1
176
     1
290
     1
176
     1
290
     0
176
     1
290
     0
176
     1
290
     0
176
     1
290
     0
176
     1
290
     0
176
     1
290
     0
176
     1
 90
       50
176
     1
 40
0.0
176
     1
 40
1.0
176
     1
 90
        0
176
     1
 62
    18
420
        0
176
     1
 90
       50
176
     1
 90
        3
176
     1
 62
     5
420
      255
176
     1
290
     0
176
     1
 90
       50
176
     1
 90
       50
176
     1
 90
       50
176
     1
290
     0
176
     1
 90
       50
176
     1
 62
   256
176
     0
 40
1.0
176
     0
 90
        2
176
     1
  1
strokes_ogs.tif
176
     1
290
     0
176
     1
 40
1.0
176
     1
 40
1.0
176
     1
1001
ACAD
1000
AcDbSavedByObjectVersion
1070
     0
  0
VISUALSTYLE
  5
3B
102
{ACAD_REACTORS
330
29
102
}
330
29
100
AcDbVisualStyle
  2
Sketchy
 70
    24
177
     3
291
     0
 70
    58
 90
        1
176
     1
 90
        2
176
     1
 90
        2
176
     1
 90
        0
176
     1
 40
0.6
176
     1
 40
30.0
176
     1
 62
     7
420
 16777215
176
     1
 90
        2
176
     1
 90
        2
176
     1
 62
     7
176
     1
 62
     7
176
     1
 90
        1
176
     1
 90
        1
176
     1
 40
40.0
176
     1
 90
       11
176
     1
 62
     7
176
     1
 40
1.0
176
     1
 90
        1
176
     1
 90
        6
176
     1
 90
        2
176
     1
 62
     7
176
     1
 90
        6
176
     1
 90
        0
176
     1
 90
        0
176
     1
290
     0
176
     1
 90
        1
176
     1
 40
0.0
176
     1
 90
        0
176
     1
290
     0
176
     1
290
     1
176
     1
290
     1
176
     1
290
     0
176
     1
290
     0
176
     1
290
     0
176
     1
290
     0
176
     1
290
     0
176
     1
290
     0
176
     1
 90
       50
176
     1
 40
0.0
176
     1
 40
1.0
176
     1
 90
        0
176
     1
 62
    18
420
        0
176
     1
 90
       50
176
     1
 90
        3
176
     1
 62
     5
420
      255
176
     1
290
     0
176
     1
 90
       50
176
     1
 90
       50
176
     1
 90
       50
176
     1
290
     0
176
     1
 90
       50
176
     1
 62
   256
176
     0
 40
1.0
176
     0
 90
        2
176
     1
  1
strokes_ogs.tif
176
     1
290
     0
176
     1
 40
1.0
176
     1
 40
1.0
176
     1
1001
ACAD
1000
AcDbSavedByObjectVersion
1070
     0
  0
VISUALSTYLE
  5
36
102
{ACAD_REACTORS
330
29
102
}
330
29
100
AcDbVisualStyle
  2
Thicken
 70
    13
177
     3
291
     1
 70
    58
 90
        2
176
     1
 90
        2
176
     1
 90
        0
176
     1
 90
        0
176
     1
 40
0.6
176
     1
 40
30.0
176
     1
 62
     7
420
 16777215
176
     1
 90
        1
176
     1
 90
        4
176
     1
 62
     7
176
     1
 62
   257
176
     1
 90
        1
176
     1
 90
        1
176
     1
 40
1.0
176
     1
 90
       12
176
     1
 62
     7
176
     1
 40
1.0
176
     1
 90
        1
176
     1
 90
        6
176
     1
 90
        2
176
     1
 62
     7
176
     1
 90
        5
176
     1
 90
        0
176
     1
 90
        0
176
     1
290
     0
176
     1
 90
        1
176
     1
 40
0.0
176
     1
 90
        0
176
     1
290
     0
176
     1
290
     1
176
     1
290
     1
176
     1
290
     0
176
     1
290
     0
176
     1
290
     0
176
     1
290
     0
176
     1
290
     0
176
     1
290
     0
176
     1
 90
       50
176
     1
 40
0.0
176
     1
 40
1.0
176
     1
 90
        0
176
     1
 62
    18
420
        0
176
     1
 90
       50
176
     1
 90
        3
176
     1
 62
     5
420
      255
176
     1
290
     0
176
     1
 90
       50
176
     1
 90
       50
176
     1
 90
       50
176
     1
290
     0
176
     1
 90
       50
176
     1
 62
   256
176
     0
 40
1.0
176
     0
 90
        2
176
     1
  1
strokes_ogs.tif
176
     1
290
     0
176
     1
 40
1.0
176
     1
 40
1.0
176
     1
1001
ACAD
1000
AcDbSavedByObjectVersion
1070
     0
  0
VISUALSTYLE
  5
30
102
{ACAD_REACTORS
330
29
102
}
330
29
100
AcDbVisualStyle
  2
Wireframe
 70
     5
177
     3
291
     0
 70
    58
 90
        0
176
     1
 90
        2
176
     1
 90
        0
176
     1
 90
        0
176
     1
 40
0.6
176
     1
 40
30.0
176
     1
 62
     7
420
 16777215
176
     1
 90
        1
176
     1
 90
        4
176
     1
 62
     7
176
     1
 62
   257
176
     1
 90
        1
176
     1
 90
        1
176
     1
 40
1.0
176
     1
 90
        0
176
     1
 62
   257
176
     1
 40
1.0
176
     1
 90
        1
176
     1
 90
        6
176
     1
 90
        2
176
     1
 62
     7
176
     1
 90
        3
176
     1
 90
        0
176
     1
 90
        0
176
     1
290
     0
176
     1
 90
        1
176
     1
 40
0.0
176
     1
 90
        0
176
     1
290
     0
176
     1
290
     1
176
     1
290
     1
176
     1
290
     0
176
     1
290
     0
176
     1
290
     0
176
     1
290
     0
176
     1
290
     0
176
     1
290
     0
176
     1
 90
       50
176
     1
 40
0.0
176
     1
 40
1.0
176
     1
 90
        0
176
     1
 62
    18
420
        0
176
     1
 90
       50
176
     1
 90
        3
176
     1
 62
     5
420
      255
176
     1
290
     0
176
     1
 90
       50
176
     1
 90
       50
176
     1
 90
       50
176
     1
290
     0
176
     1
 90
       50
176
     1
 62
   256
176
     0
 40
1.0
176
     0
 90
        2
176
     1
  1
strokes_ogs.tif
176
     1
290
     0
176
     1
 40
1.0
176
     1
 40
1.0
176
     1
1001
ACAD
1000
AcDbSavedByObjectVersion
1070
     0
  0
VISUALSTYLE
  5
3C
102
{ACAD_REACTORS
330
29
102
}
330
29
100
AcDbVisualStyle
  2
X-Ray
 70
    25
177
     3
291
     0
 70
    58
 90
        2
176
     1
 90
        2
176
     1
 90
        1
176
     1
 90
        1
176
     1
 40
0.5
176
     1
 40
30.0
176
     1
 62
     7
420
 16777215
176
     1
 90
        1
176
     1
 90
        0
176
     1
 62
     7
176
     1
 62
   257
176
     1
 90
        1
176
     1
 90
        1
176
     1
 40
1.0
176
     1
 90
        8
176
     1
 62
     7
176
     1
 40
1.0
176
     1
 90
        1
176
     1
 90
        6
176
     1
 90
        2
176
     1
 62
     7
176
     1
 90
        3
176
     1
 90
        0
176
     1
 90
        0
176
     1
290
     0
176
     1
 90
       13
176
     1
 40
0.0
176
     1
 90
        0
176
     1
290
     0
176
     1
290
     1
176
     1
290
     1
176
     1
290
     0
176
     1
290
     0
176
     1
290
     0
176
     1
290
     0
176
     1
290
     0
176
     1
290
     0
176
     1
 90
       50
176
     1
 40
0.0
176
     1
 40
1.0
176
     1
 90
        0
176
     1
 62
    18
420
        0
176
     1
 90
       50
176
     1
 90
        3
176
     1
 62
     5
420
      255
176
     1
290
     0
176
     1
 90
       50
176
     1
 90
       50
176
     1
 90
       50
176
     1
290
     0
176
     1
 90
       50
176
     1
 62
   256
176
     0
 40
1.0
176
     0
 90
        2
176
     1
  1
strokes_ogs.tif
176
     1
290
     0
176
     1
 40
1.0
176
     1
 40
1.0
176
     1
1001
ACAD
1000
AcDbSavedByObjectVersion
1070
     0
  0
DICTIONARYVAR
  5
74A
102
{ACAD_REACTORS
330
745
102
}
330
745
100
DictionaryVariables
280
     0
  1
0
  0
DICTIONARYVAR
  5
74B
102
{ACAD_REACTORS
330
745
102
}
330
745
100
DictionaryVariables
280
     0
  1
1:1
  0
DICTIONARYVAR
  5
747
102
{ACAD_REACTORS
330
745
102
}
330
745
100
DictionaryVariables
280
     0
  1
STANDARD
  0
DICTIONARYVAR
  5
746
102
{ACAD_REACTORS
330
745
102
}
330
745
100
DictionaryVariables
280
     0
  1
STANDARD
  0
DICTIONARYVAR
  5
748
102
{ACAD_REACTORS
330
745
102
}
330
745
100
DictionaryVariables
280
     0
  1
Imperial24
  0
DICTIONARYVAR
  5
749
102
{ACAD_REACTORS
330
745
102
}
330
745
100
DictionaryVariables
280
     0
  1
Imperial24
  0
DICTIONARY
  5
751
330
6B
100
AcDbDictionary
280
     1
281
     1
  3
ACAD_XREC_ROUNDTRIP
360
752
  0
DICTIONARY
  5
1A
330
19
100
AcDbDictionary
280
     1
281
     1
  3
BUMPTILE
360
1C
  3
DIFFUSETILE
360
1B
  3
OPACITYTILE
360
1F
  3
REFLECTIONTILE
360
1E
  3
REFRACTIONTILE
360
20
  3
SPECULARTILE
360
1D
  0
DICTIONARY
  5
12
330
11
100
AcDbDictionary
280
     1
281
     1
  3
BUMPTILE
360
14
  3
DIFFUSETILE
360
13
  3
OPACITYTILE
360
17
  3
REFLECTIONTILE
360
16
  3
REFRACTIONTILE
360
18
  3
SPECULARTILE
360
15
  0
DICTIONARY
  5
22
330
21
100
AcDbDictionary
280
     1
281
     1
  3
BUMPTILE
360
24
  3
DIFFUSETILE
360
23
  3
OPACITYTILE
360
27
  3
REFLECTIONTILE
360
26
  3
REFRACTIONTILE
360
28
  3
SPECULARTILE
360
25
  0
DICTIONARY
  5
74F
330
69
100
AcDbDictionary
280
     1
281
     1
  3
ACAD_XREC_ROUNDTRIP
360
750
  0
DICTIONARY
  5
74C
330
65
100
AcDbDictionary
280
     1
281
     1
  3
ACAD_ROUNDTRIP_2008_TABLESTYLE_CELLSTYLEMAP
360
74D
  0
XRECORD
  5
752
102
{ACAD_REACTORS
330
751
102
}
330
751
100
AcDbXrecord
280
     1
102
DISPLAYNAME
  1
Imperial24
102
FLAGS
 90
        0
  0
XRECORD
  5
1C
102
{ACAD_REACTORS
330
1A
102
}
330
1A
100
AcDbXrecord
280
     1
270
     1
271
     1
  0
XRECORD
  5
1B
102
{ACAD_REACTORS
330
1A
102
}
330
1A
100
AcDbXrecord
280
     1
270
     1
271
     1
  0
XRECORD
  5
1F
102
{ACAD_REACTORS
330
1A
102
}
330
1A
100
AcDbXrecord
280
     1
270
     1
271
     1
  0
XRECORD
  5
1E
102
{ACAD_REACTORS
330
1A
102
}
330
1A
100
AcDbXrecord
280
     1
270
     1
271
     1
  0
XRECORD
  5
20
102
{ACAD_REACTORS
330
1A
102
}
330
1A
100
AcDbXrecord
280
     1
270
     1
271
     1
  0
XRECORD
  5
1D
102
{ACAD_REACTORS
330
1A
102
}
330
1A
100
AcDbXrecord
280
     1
270
     1
271
     1
  0
XRECORD
  5
14
102
{ACAD_REACTORS
330
12
102
}
330
12
100
AcDbXrecord
280
     1
270
     1
271
     1
  0
XRECORD
  5
13
102
{ACAD_REACTORS
330
12
102
}
330
12
100
AcDbXrecord
280
     1
270
     1
271
     1
  0
XRECORD
  5
17
102
{ACAD_REACTORS
330
12
102
}
330
12
100
AcDbXrecord
280
     1
270
     1
271
     1
  0
XRECORD
  5
16
102
{ACAD_REACTORS
330
12
102
}
330
12
100
AcDbXrecord
280
     1
270
     1
271
     1
  0
XRECORD
  5
18
102
{ACAD_REACTORS
330
12
102
}
330
12
100
AcDbXrecord
280
     1
270
     1
271
     1
  0
XRECORD
  5
15
102
{ACAD_REACTORS
330
12
102
}
330
12
100
AcDbXrecord
280
     1
270
     1
271
     1
  0
XRECORD
  5
24
102
{ACAD_REACTORS
330
22
102
}
330
22
100
AcDbXrecord
280
     1
270
     1
271
     1
  0
XRECORD
  5
23
102
{ACAD_REACTORS
330
22
102
}
330
22
100
AcDbXrecord
280
     1
270
     1
271
     1
  0
XRECORD
  5
27
102
{ACAD_REACTORS
330
22
102
}
330
22
100
AcDbXrecord
280
     1
270
     1
271
     1
  0
XRECORD
  5
26
102
{ACAD_REACTORS
330
22
102
}
330
22
100
AcDbXrecord
280
     1
270
     1
271
     1
  0
XRECORD
  5
28
102
{ACAD_REACTORS
330
22
102
}
330
22
100
AcDbXrecord
280
     1
270
     1
271
     1
  0
XRECORD
  5
25
102
{ACAD_REACTORS
330
22
102
}
330
22
100
AcDbXrecord
280
     1
270
     1
271
     1
  0
XRECORD
  5
750
102
{ACAD_REACTORS
330
74F
102
}
330
74F
100
AcDbXrecord
280
     1
102
DISPLAYNAME
  1
Imperial24
102
FLAGS
 90
        0
  0
CELLSTYLEMAP
  5
74D
102
{ACAD_REACTORS
330
74C
102
}
330
74C
100
AcDbCellStyleMap
 90
        3
300
CELLSTYLE
  1
TABLEFORMAT_BEGIN
 90
        5
170
     1
 91
        0
 92
    32768
 62
   257
 93
        1
300
CONTENTFORMAT
  1
CONTENTFORMAT_BEGIN
 90
        0
 91
        0
 92
      512
 93
        0
300

 40
0.0
140
1.0
 94
        5
 62
     0
340
55
144
0.25
309
CONTENTFORMAT_END
171
     0
 94
        0
309
TABLEFORMAT_END
  1
CELLSTYLE_BEGIN
 90
        1
 91
        1
300
_TITLE
309
CELLSTYLE_END
300
CELLSTYLE
  1
TABLEFORMAT_BEGIN
 90
        5
170
     1
 91
        0
 92
        0
 62
   257
 93
        1
300
CONTENTFORMAT
  1
CONTENTFORMAT_BEGIN
 90
        0
 91
        0
 92
      512
 93
        0
300

 40
0.0
140
1.0
 94
        5
 62
     0
340
55
144
0.18
309
CONTENTFORMAT_END
171
     0
 94
        0
309
TABLEFORMAT_END
  1
CELLSTYLE_BEGIN
 90
        2
 91
        1
300
_HEADER
309
CELLSTYLE_END
300
CELLSTYLE
  1
TABLEFORMAT_BEGIN
 90
        5
170
     1
 91
        0
 92
        0
 62
   257
 93
        1
300
CONTENTFORMAT
  1
CONTENTFORMAT_BEGIN
 90
        0
 91
        0
 92
      512
 93
        0
300

 40
0.0
140
1.0
 94
        2
 62
     0
340
55
144
0.18
309
CONTENTFORMAT_END
171
     0
 94
        0
309
TABLEFORMAT_END
  1
CELLSTYLE_BEGIN
 90
        3
 91
        2
300
_DATA
309
CELLSTYLE_END
  0
ENDSEC
  0
EOF
