  0
SECTION
  2
HEADER
  9
$ACADVER
  1
AC1027
  9
$ACADMAINTVER
 70
   125
  9
$DWGCODEPAGE
  3
ANSI_1252
  9
$LASTSAVEDBY
  1
Administrator
  9
$REQUIREDVERSIONS
160
                 0
  9
$INSBASE
 10
0.0
 20
0.0
 30
0.0
  9
$EXTMIN
 10
0.0
 20
0.0
 30
-0.206252
  9
$EXTMAX
 10
17.0
 20
11.0
 30
60.0
  9
$LIMMIN
 10
0.0
 20
0.0
  9
$LIMMAX
 10
17.0
 20
11.0
  9
$ORTHOMODE
 70
     0
  9
$REGENMODE
 70
     1
  9
$FILLMODE
 70
     1
  9
$QTEXTMODE
 70
     0
  9
$MIRRTEXT
 70
     0
  9
$LTSCALE
 40
0.75
  9
$ATTMODE
 70
     1
  9
$TEXTSIZE
 40
0.12
  9
$TRACEWID
 40
0.05
  9
$TEXTSTYLE
  7
Standard
  9
$CLAYER
  8
Titleblock
  9
$CELTYPE
  6
ByLayer
  9
$CECOLOR
 62
   256
  9
$CELTSCALE
 40
1.0
  9
$DISPSILH
 70
     0
  9
$DIMSCALE
 40
1.0
  9
$DIMASZ
 40
0.12
  9
$DIMEXO
 40
0.05
  9
$DIMDLI
 40
0.339411
  9
$DIMRND
 40
0.0
  9
$DIMDLE
 40
0.0
  9
$DIMEXE
 40
0.1
  9
$DIMTP
 40
0.01
  9
$DIMTM
 40
0.01
  9
$DIMTXT
 40
0.12
  9
$DIMCEN
 40
0.0
  9
$DIMTSZ
 40
0.0
  9
$DIMTOL
 70
     0
  9
$DIMLIM
 70
     0
  9
$DIMTIH
 70
     1
  9
$DIMTOH
 70
     1
  9
$DIMSE1
 70
     0
  9
$DIMSE2
 70
     0
  9
$DIMTAD
 70
     0
  9
$DIMZIN
 70
    12
  9
$DIMBLK
  1

  9
$DIMASO
 70
     1
  9
$DIMSHO
 70
     1
  9
$DIMPOST
  1
in
  9
$DIMAPOST
  1
mm
  9
$DIMALT
 70
     0
  9
$DIMALTD
 70
     2
  9
$DIMALTF
 40
25.4
  9
$DIMLFAC
 40
1.0
  9
$DIMTOFL
 70
     0
  9
$DIMTVP
 40
0.0
  9
$DIMTIX
 70
     0
  9
$DIMSOXD
 70
     0
  9
$DIMSAH
 70
     0
  9
$DIMBLK1
  1

  9
$DIMBLK2
  1

  9
$DIMSTYLE
  2
Standard
  9
$DIMCLRD
 70
   256
  9
$DIMCLRE
 70
   256
  9
$DIMCLRT
 70
   256
  9
$DIMTFAC
 40
1.0
  9
$DIMGAP
 40
0.06
  9
$DIMJUST
 70
     0
  9
$DIMSD1
 70
     0
  9
$DIMSD2
 70
     0
  9
$DIMTOLJ
 70
     1
  9
$DIMTZIN
 70
    12
  9
$DIMALTZ
 70
    12
  9
$DIMALTTZ
 70
    12
  9
$DIMUPT
 70
     0
  9
$DIMDEC
 70
     3
  9
$DIMTDEC
 70
     3
  9
$DIMALTU
 70
     2
  9
$DIMALTTD
 70
     2
  9
$DIMTXSTY
  7
Standard
  9
$DIMAUNIT
 70
     0
  9
$DIMADEC
 70
     2
  9
$DIMALTRND
 40
0.0
  9
$DIMAZIN
 70
     3
  9
$DIMDSEP
 70
    46
  9
$DIMATFIT
 70
     3
  9
$DIMFRAC
 70
     0
  9
$DIMLDRBLK
  1

  9
$DIMLUNIT
 70
     2
  9
$DIMLWD
 70
    -2
  9
$DIMLWE
 70
    -2
  9
$DIMTMOVE
 70
     0
  9
$DIMFXL
 40
1.0
  9
$DIMFXLON
 70
     0
  9
$DIMJOGANG
 40
0.785398
  9
$DIMTFILL
 70
     0
  9
$DIMTFILLCLR
 70
     0
  9
$DIMARCSYM
 70
     1
  9
$DIMLTYPE
  6

  9
$DIMLTEX1
  6

  9
$DIMLTEX2
  6

  9
$DIMTXTDIRECTION
 70
     0
  9
$LUNITS
 70
     2
  9
$LUPREC
 70
     4
  9
$SKETCHINC
 40
0.1
  9
$FILLETRAD
 40
0.0
  9
$AUNITS
 70
     0
  9
$AUPREC
 70
     0
  9
$MENU
  1
.
  9
$ELEVATION
 40
0.0
  9
$PELEVATION
 40
0.0
  9
$THICKNESS
 40
0.0
  9
$LIMCHECK
 70
     0
  9
$CHAMFERA
 40
0.0
  9
$CHAMFERB
 40
0.0
  9
$CHAMFERC
 40
0.0
  9
$CHAMFERD
 40
0.0
  9
$SKPOLY
 70
     0
  9
$TDCREATE
 40
2459327.454421296
  9
$TDUCREATE
 40
2459327.746087963
  9
$TDUPDATE
 40
2459327.454421296
  9
$TDUUPDATE
 40
2459327.746087963
  9
$TDINDWG
 40
0.0000115741
  9
$TDUSRTIMER
 40
0.0000115741
  9
$USRTIMER
 70
     1
  9
$ANGBASE
 50
0.0
  9
$ANGDIR
 70
     0
  9
$PDMODE
 70
     0
  9
$PDSIZE
 40
0.0
  9
$PLINEWID
 40
0.0
  9
$SPLFRAME
 70
     0
  9
$SPLINETYPE
 70
     6
  9
$SPLINESEGS
 70
     8
  9
$HANDSEED
  5
484
  9
$SURFTAB1
 70
     6
  9
$SURFTAB2
 70
     6
  9
$SURFTYPE
 70
     6
  9
$SURFU
 70
     6
  9
$SURFV
 70
     6
  9
$UCSBASE
  2

  9
$UCSNAME
  2

  9
$UCSORG
 10
0.0
 20
0.0
 30
0.0
  9
$UCSXDIR
 10
1.0
 20
0.0
 30
0.0
  9
$UCSYDIR
 10
0.0
 20
1.0
 30
0.0
  9
$UCSORTHOREF
  2

  9
$UCSORTHOVIEW
 70
     0
  9
$UCSORGTOP
 10
0.0
 20
0.0
 30
0.0
  9
$UCSORGBOTTOM
 10
0.0
 20
0.0
 30
0.0
  9
$UCSORGLEFT
 10
0.0
 20
0.0
 30
0.0
  9
$UCSORGRIGHT
 10
0.0
 20
0.0
 30
0.0
  9
$UCSORGFRONT
 10
0.0
 20
0.0
 30
0.0
  9
$UCSORGBACK
 10
0.0
 20
0.0
 30
0.0
  9
$PUCSBASE
  2

  9
$PUCSNAME
  2

  9
$PUCSORG
 10
0.0
 20
0.0
 30
0.0
  9
$PUCSXDIR
 10
1.0
 20
0.0
 30
0.0
  9
$PUCSYDIR
 10
0.0
 20
1.0
 30
0.0
  9
$PUCSORTHOREF
  2

  9
$PUCSORTHOVIEW
 70
     0
  9
$PUCSORGTOP
 10
0.0
 20
0.0
 30
0.0
  9
$PUCSORGBOTTOM
 10
0.0
 20
0.0
 30
0.0
  9
$PUCSORGLEFT
 10
0.0
 20
0.0
 30
0.0
  9
$PUCSORGRIGHT
 10
0.0
 20
0.0
 30
0.0
  9
$PUCSORGFRONT
 10
0.0
 20
0.0
 30
0.0
  9
$PUCSORGBACK
 10
0.0
 20
0.0
 30
0.0
  9
$USERI1
 70
     0
  9
$USERI2
 70
     0
  9
$USERI3
 70
     0
  9
$USERI4
 70
     0
  9
$USERI5
 70
     0
  9
$USERR1
 40
0.0
  9
$USERR2
 40
0.0
  9
$USERR3
 40
0.0
  9
$USERR4
 40
0.0
  9
$USERR5
 40
0.0
  9
$WORLDVIEW
 70
     1
  9
$SHADEDGE
 70
     3
  9
$SHADEDIF
 70
    70
  9
$TILEMODE
 70
     1
  9
$MAXACTVP
 70
    64
  9
$PINSBASE
 10
0.0
 20
0.0
 30
0.0
  9
$PLIMCHECK
 70
     0
  9
$PEXTMIN
 10
1.000000E+20
 20
1.000000E+20
 30
1.000000E+20
  9
$PEXTMAX
 10
-1.000000E+20
 20
-1.000000E+20
 30
-1.000000E+20
  9
$PLIMMIN
 10
0.0
 20
0.0
  9
$PLIMMAX
 10
12.0
 20
9.0
  9
$UNITMODE
 70
     0
  9
$VISRETAIN
 70
     1
  9
$PLINEGEN
 70
     0
  9
$PSLTSCALE
 70
     1
  9
$TREEDEPTH
 70
  3020
  9
$CMLSTYLE
  2
Standard
  9
$CMLJUST
 70
     0
  9
$CMLSCALE
 40
1.0
  9
$PROXYGRAPHICS
 70
     1
  9
$MEASUREMENT
 70
     0
  9
$CELWEIGHT
370
    -1
  9
$ENDCAPS
280
     0
  9
$JOINSTYLE
280
     0
  9
$LWDISPLAY
290
     0
  9
$INSUNITS
 70
     1
  9
$HYPERLINKBASE
  1

  9
$STYLESHEET
  1

  9
$XEDIT
290
     1
  9
$CEPSNTYPE
380
     0
  9
$PSTYLEMODE
290
     1
  9
$FINGERPRINTGUID
  2
{139005EE-E5DF-D24C-A1E1-055272100BDD}
  9
$VERSIONGUID
  2
{4E0E2842-8B12-6441-AD0E-1E8515FAA05D}
  9
$EXTNAMES
290
     1
  9
$PSVPSCALE
 40
0.0
  9
$OLESTARTUP
290
     0
  9
$SORTENTS
280
   127
  9
$INDEXCTL
280
     0
  9
$HIDETEXT
280
     1
  9
$XCLIPFRAME
280
     0
  9
$HALOGAP
280
     0
  9
$OBSCOLOR
 70
   257
  9
$OBSLTYPE
280
     0
  9
$INTERSECTIONDISPLAY
280
     0
  9
$INTERSECTIONCOLOR
 70
   257
  9
$DIMASSOC
280
     2
  9
$PROJECTNAME
  1

  9
$CAMERADISPLAY
290
     0
  9
$LENSLENGTH
 40
50.0
  9
$CAMERAHEIGHT
 40
0.0
  9
$STEPSPERSEC
 40
2.0
  9
$STEPSIZE
 40
6.0
  9
$3DDWFPREC
 40
2.0
  9
$PSOLWIDTH
 40
0.25
  9
$PSOLHEIGHT
 40
4.0
  9
$LOFTANG1
 40
1.570796
  9
$LOFTANG2
 40
1.570796
  9
$LOFTMAG1
 40
0.0
  9
$LOFTMAG2
 40
0.0
  9
$LOFTPARAM
 70
     7
  9
$LOFTNORMALS
280
     1
  9
$LATITUDE
 40
37.795
  9
$LONGITUDE
 40
-122.394
  9
$NORTHDIRECTION
 40
0.0
  9
$TIMEZONE
 70
 -8000
  9
$LIGHTGLYPHDISPLAY
280
     1
  9
$TILEMODELIGHTSYNCH
280
     1
  9
$CMATERIAL
347
11
  9
$SOLIDHIST
280
     0
  9
$SHOWHIST
280
     1
  9
$DWFFRAME
280
     2
  9
$DGNFRAME
280
     0
  9
$REALWORLDSCALE
290
     1
  9
$INTERFERECOLOR
 62
     1
  9
$INTERFEREOBJVS
345
33
  9
$INTERFEREVPVS
346
30
  9
$CSHADOW
280
     0
  9
$SHADOWPLANELOCATION
 40
0.0
  0
ENDSEC
  0
SECTION
  2
CLASSES
  0
CLASS
  1
ACDBDICTIONARYWDFLT
  2
AcDbDictionaryWithDefault
  3
ObjectDBX Classes
 90
        0
 91
        1
280
     0
281
     0
  0
CLASS
  1
MATERIAL
  2
AcDbMaterial
  3
ObjectDBX Classes
 90
     1153
 91
        3
280
     0
281
     0
  0
CLASS
  1
VISUALSTYLE
  2
AcDbVisualStyle
  3
ObjectDBX Classes
 90
     4095
 91
       24
280
     0
281
     0
  0
CLASS
  1
SCALE
  2
AcDbScale
  3
ObjectDBX Classes
 90
     1153
 91
       33
280
     0
281
     0
  0
CLASS
  1
TABLESTYLE
  2
AcDbTableStyle
  3
ObjectDBX Classes
 90
     4095
 91
        1
280
     0
281
     0
  0
CLASS
  1
MLEADERSTYLE
  2
AcDbMLeaderStyle
  3
ACDB_MLEADERSTYLE_CLASS
 90
     4095
 91
        1
280
     0
281
     0
  0
CLASS
  1
ACDBSECTIONVIEWSTYLE
  2
AcDbSectionViewStyle
  3
ObjectDBX Classes
 90
     1025
 91
        1
280
     0
281
     0
  0
CLASS
  1
ACDBDETAILVIEWSTYLE
  2
AcDbDetailViewStyle
  3
ObjectDBX Classes
 90
     1025
 91
        1
280
     0
281
     0
  0
CLASS
  1
ACMESCOPE
  2
AcMeScope
  3
AcMeServices
 90
     1024
 91
        1
280
     0
281
     0
  0
CLASS
  1
ACMECOMMANDHISTORY
  2
AcMeCommandHistory
  3
AcMeServices
 90
     1024
 91
        1
280
     0
281
     0
  0
CLASS
  1
ACIMSYSVARMAN
  2
AcImSysVarManager
  3
AcMeServices
 90
     1024
 91
        1
280
     0
281
     0
  0
CLASS
  1
ACIMINTSYSVAR
  2
AcImIntSysVar
  3
AcMeServices
 90
     1024
 91
        1
280
     0
281
     0
  0
CLASS
  1
ACMESTATEMGR
  2
AcMeStateMgr
  3
AcMeServices
 90
     1024
 91
        1
280
     0
281
     0
  0
CLASS
  1
ACGREFMASTER
  2
AcGrefMaster
  3
AcAttribServices
 90
     1024
 91
        1
280
     0
281
     0
  0
CLASS
  1
SORTENTSTABLE
  2
AcDbSortentsTable
  3
ObjectDBX Classes
 90
        0
 91
        5
280
     0
281
     0
  0
CLASS
  1
IMAGE
  2
AcDbRasterImage
  3
ISM
 90
     2175
 91
        1
280
     0
281
     1
  0
CLASS
  1
IMAGEDEF
  2
AcDbRasterImageDef
  3
ISM
 90
        0
 91
        1
280
     0
281
     0
  0
CLASS
  1
IMAGEDEF_REACTOR
  2
AcDbRasterImageDefReactor
  3
ISM
 90
        1
 91
        2
280
     0
281
     0
  0
CLASS
  1
RASTERVARIABLES
  2
AcDbRasterVariables
  3
ISM
 90
        0
 91
        1
280
     0
281
     0
  0
CLASS
  1
DICTIONARYVAR
  2
AcDbDictionaryVar
  3
ObjectDBX Classes
 90
        0
 91
        6
280
     0
281
     0
  0
CLASS
  1
CELLSTYLEMAP
  2
AcDbCellStyleMap
  3
ObjectDBX Classes
 90
     1152
 91
        1
280
     0
281
     0
  0
ENDSEC
  0
SECTION
  2
TABLES
  0
TABLE
  2
VPORT
  5
8
330
0
100
AcDbSymbolTable
 70
     1
1001
ACAD
1000
DbSaveVer
1071
      223
  0
VPORT
  5
57
330
8
100
AcDbSymbolTableRecord
100
AcDbViewportTableRecord
  2
*Active
 70
     0
 10
0.0
 20
0.0
 11
1.0
 21
1.0
 12
8.5
 22
5.5
 13
0.0
 23
0.0
 14
0.5
 24
0.5
 15
0.0
 25
0.0
 16
0.0
 26
0.0
 36
1.0
 17
0.0
 27
0.0
 37
0.0
 40
11.0
 41
1.77906
 42
50.0
 43
0.0
 44
0.0
 50
0.0
 51
0.0
 71
     0
 72
 20000
 73
     1
 74
     0
 75
     0
 76
     0
 77
     0
 78
     0
281
     0
 65
     1
110
0.0
120
0.0
130
0.0
111
1.0
121
0.0
131
0.0
112
0.0
122
1.0
132
0.0
 79
     0
146
0.0
348
2F
 60
     3
 61
     5
292
     1
282
     1
141
0.0
142
0.0
 63
   250
421
  3355443
  0
ENDTAB
  0
TABLE
  2
LTYPE
  5
5
330
0
100
AcDbSymbolTable
 70
    10
  0
LTYPE
  5
5B
330
5
100
AcDbSymbolTableRecord
100
AcDbLinetypeTableRecord
  2
ByBlock
 70
     0
  3

 72
    65
 73
     0
 40
0.0
  0
LTYPE
  5
5C
330
5
100
AcDbSymbolTableRecord
100
AcDbLinetypeTableRecord
  2
ByLayer
 70
     0
  3

 72
    65
 73
     0
 40
0.0
  0
LTYPE
  5
5D
330
5
100
AcDbSymbolTableRecord
100
AcDbLinetypeTableRecord
  2
Continuous
 70
     0
  3
Solid line
 72
    65
 73
     0
 40
0.0
  0
LTYPE
  5
81
330
5
100
AcDbSymbolTableRecord
100
AcDbLinetypeTableRecord
  2
HIDDEN
 70
     0
  3
Hidden __ __ __ __ __ __ __ __ __ __ __ __ __ _
 72
    65
 73
     2
 40
0.375
 49
0.25
 74
     0
 49
-0.125
 74
     0
  0
LTYPE
  5
82
330
5
100
AcDbSymbolTableRecord
100
AcDbLinetypeTableRecord
  2
PHANTOM2
 70
     0
  3
Phantom (.5x) ___ _ _ ___ _ _ ___ _ _ ___ _ _
 72
    65
 73
     6
 40
1.25
 49
0.625
 74
     0
 49
-0.125
 74
     0
 49
0.125
 74
     0
 49
-0.125
 74
     0
 49
0.125
 74
     0
 49
-0.125
 74
     0
  0
LTYPE
  5
83
330
5
100
AcDbSymbolTableRecord
100
AcDbLinetypeTableRecord
  2
CENTER
 70
     0
  3
Center ____ _ ____ _ ____ _ ____ _ ____ _ ____
 72
    65
 73
     4
 40
2.0
 49
1.25
 74
     0
 49
-0.25
 74
     0
 49
0.25
 74
     0
 49
-0.25
 74
     0
  0
LTYPE
  5
99
330
5
100
AcDbSymbolTableRecord
100
AcDbLinetypeTableRecord
  2
CENTER2
 70
     0
  3
Center (.5x) ___ _ ___ _ ___ _ ___ _ ___ _ ___
 72
    65
 73
     4
 40
1.125
 49
0.75
 74
     0
 49
-0.125
 74
     0
 49
0.125
 74
     0
 49
-0.125
 74
     0
  0
LTYPE
  5
9A
330
5
100
AcDbSymbolTableRecord
100
AcDbLinetypeTableRecord
  2
HIDDEN2
 70
     0
  3
Hidden (.5x) _ _ _ _ _ _ _ _ _ _ _ _ _ _ _ _ _
 72
    65
 73
     2
 40
0.1875
 49
0.125
 74
     0
 49
-0.0625
 74
     0
  0
LTYPE
  5
9B
330
5
100
AcDbSymbolTableRecord
100
AcDbLinetypeTableRecord
  2
Amconstr
 70
     0
  3
_______________________
 72
    65
 73
     2
 40
9999.0
 49
9999.0
 74
     0
 49
0.0
 74
     0
  0
LTYPE
  5
9C
330
5
100
AcDbSymbolTableRecord
100
AcDbLinetypeTableRecord
  2
Amzigzag2
 70
     0
  3
/\/-/\/-/\/-/\/-/\/-/\/
 72
    65
 73
     2
 40
0.4401
 49
0.0001
 74
     4
 75
   136
340
96
 46
0.0016
 50
0.0
 44
0.0
 45
0.0
 49
-0.44
 74
     0
  0
LTYPE
  5
9D
330
5
100
AcDbSymbolTableRecord
100
AcDbLinetypeTableRecord
  2
ACANSTGB
 70
     0
  3
__ . . __ . .
 72
    65
 73
     6
 40
0.354331
 49
0.15748
 74
     0
 49
-0.03937
 74
     0
 49
0.03937
 74
     0
 49
-0.03937
 74
     0
 49
0.03937
 74
     0
 49
-0.03937
 74
     0
  0
LTYPE
  5
9E
330
5
100
AcDbSymbolTableRecord
100
AcDbLinetypeTableRecord
  2
ACANSTGL
 70
     0
  3
_ _ _ _ _
 72
    65
 73
     2
 40
0.11811
 49
0.07874
 74
     0
 49
-0.03937
 74
     0
  0
ENDTAB
  0
TABLE
  2
LAYER
  5
2
330
0
100
AcDbSymbolTable
 70
     9
  0
LAYER
  5
54
330
2
100
AcDbSymbolTableRecord
100
AcDbLayerTableRecord
  2
0
 70
     0
 62
     7
  6
Continuous
370
    -3
390
F
347
21
348
0
1001
AcAecLayerStandard
1000

1000

  0
LAYER
  5
79
330
2
100
AcDbSymbolTableRecord
100
AcDbLayerTableRecord
  2
Defpoints
 70
     0
 62
     7
  6
Continuous
290
     0
370
    -3
390
F
347
21
348
0
1001
AcAecLayerStandard
1000

1000

  0
LAYER
  5
B8
330
2
100
AcDbSymbolTableRecord
100
AcDbLayerTableRecord
  2
Visible
 70
     0
 62
     7
  6
Continuous
370
    25
390
F
347
21
348
0
  0
LAYER
  5
D1
330
2
100
AcDbSymbolTableRecord
100
AcDbLayerTableRecord
  2
Hidden
 70
     0
 62
     7
  6
HIDDEN2
370
    13
390
F
347
21
348
0
  0
LAYER
  5
11D
330
2
100
AcDbSymbolTableRecord
100
AcDbLayerTableRecord
  2
Titleblock
 70
     0
 62
     7
  6
Continuous
370
    -3
390
F
347
21
348
0
1001
AcAecLayerStandard
1000

1000

1001
AcCmTransparency
1071
        0
  0
LAYER
  5
142
330
2
100
AcDbSymbolTableRecord
100
AcDbLayerTableRecord
  2
Border
 70
     0
 62
     7
  6
Continuous
370
    -3
390
F
347
21
348
0
1001
AcAecLayerStandard
1000

1000

1001
AcCmTransparency
1071
        0
  0
LAYER
  5
163
330
2
100
AcDbSymbolTableRecord
100
AcDbLayerTableRecord
  2
Dimensions
 70
     0
 62
     7
  6
Continuous
370
    13
390
F
347
21
348
0
  0
ENDTAB
  0
TABLE
  2
STYLE
  5
3
330
0
100
AcDbSymbolTable
 70
     4
  0
STYLE
  5
55
330
3
100
AcDbSymbolTableRecord
100
AcDbTextStyleTableRecord
  2
Standard
 70
     0
 40
0.0
 41
1.0
 50
0.0
 71
     0
 42
0.12
  3
arial.ttf
  4

1001
ACAD
1000
Arial
1071
       34
  0
STYLE
  5
5A
330
3
100
AcDbSymbolTableRecord
100
AcDbTextStyleTableRecord
  2
Annotative
 70
     0
 40
0.0
 41
1.0
 50
0.0
 71
     0
 42
0.2
  3
txt
  4

1001
AcadAnnotative
1000
AnnotativeData
1002
{
1070
     1
1070
     1
1002
}
  0
STYLE
  5
96
330
3
100
AcDbSymbolTableRecord
100
AcDbTextStyleTableRecord
  2

 70
     1
 40
0.0
 41
1.0
 50
0.0
 71
     0
 42
0.12
  3
genltshp.shx
  4

  0
STYLE
  5
97
330
3
100
AcDbSymbolTableRecord
100
AcDbTextStyleTableRecord
  2
ACANSGDT
 70
     0
 40
0.0
 41
1.0
 50
0.0
 71
     0
 42
0.12
  3
amgdt.shx
  4

  0
ENDTAB
  0
TABLE
  2
VIEW
  5
6
330
0
100
AcDbSymbolTable
 70
     0
  0
ENDTAB
  0
TABLE
  2
UCS
  5
7
330
0
100
AcDbSymbolTable
 70
     0
  0
ENDTAB
  0
TABLE
  2
APPID
  5
9
330
0
100
AcDbSymbolTable
 70
    23
  0
APPID
  5
56
330
9
100
AcDbSymbolTableRecord
100
AcDbRegAppTableRecord
  2
ACAD
 70
     0
  0
APPID
  5
5E
330
9
100
AcDbSymbolTableRecord
100
AcDbRegAppTableRecord
  2
AcadAnnotative
 70
     0
  0
APPID
  5
78
330
9
100
AcDbSymbolTableRecord
100
AcDbRegAppTableRecord
  2
ACAD_PSEXT
 70
     0
  0
APPID
  5
7A
330
9
100
AcDbSymbolTableRecord
100
AcDbRegAppTableRecord
  2
MCAD_NO_VIS
 70
     0
  0
APPID
  5
7B
330
9
100
AcDbSymbolTableRecord
100
AcDbRegAppTableRecord
  2
ACAD_TEMP_GRAPHIC
 70
     0
  0
APPID
  5
84
330
9
100
AcDbSymbolTableRecord
100
AcDbRegAppTableRecord
  2
ACAD_DSTYLE_DIMJAG
 70
     0
  0
APPID
  5
85
330
9
100
AcDbSymbolTableRecord
100
AcDbRegAppTableRecord
  2
ACAD_DSTYLE_DIMTALN
 70
     0
  0
APPID
  5
86
330
9
100
AcDbSymbolTableRecord
100
AcDbRegAppTableRecord
  2
ACAD_NAV_VCDISPLAY
 70
     0
  0
APPID
  5
87
330
9
100
AcDbSymbolTableRecord
100
AcDbRegAppTableRecord
  2
AcAecLayerStandard
 70
     0
  0
APPID
  5
88
330
9
100
AcDbSymbolTableRecord
100
AcDbRegAppTableRecord
  2
AcCmTransparency
 70
     0
  0
APPID
  5
89
330
9
100
AcDbSymbolTableRecord
100
AcDbRegAppTableRecord
  2
ACAD_DSTYLE_DIMBREAK
 70
     0
  0
APPID
  5
8A
330
9
100
AcDbSymbolTableRecord
100
AcDbRegAppTableRecord
  2
FUSIONTITLEBLOCK
 70
     0
  0
APPID
  5
8B
330
9
100
AcDbSymbolTableRecord
100
AcDbRegAppTableRecord
  2
FUSIONCURRENTTITLEBLOCK
 70
     0
  0
APPID
  5
8C
330
9
100
AcDbSymbolTableRecord
100
AcDbRegAppTableRecord
  2
AcSynergy
 70
     0
  0
APPID
  5
8D
330
9
100
AcDbSymbolTableRecord
100
AcDbRegAppTableRecord
  2
GENIUS_GENSCREG_15
 70
     0
  0
APPID
  5
8E
330
9
100
AcDbSymbolTableRecord
100
AcDbRegAppTableRecord
  2
GENIUS_GENOBJ-N-SDF_13
 70
     0
  0
APPID
  5
8F
330
9
100
AcDbSymbolTableRecord
100
AcDbRegAppTableRecord
  2
GENIUS_GENODEF_13
 70
     0
  0
APPID
  5
90
330
9
100
AcDbSymbolTableRecord
100
AcDbRegAppTableRecord
  2
ACAD_DIMASSOC_CALC_DIMLFAC
 70
     0
  0
APPID
  5
91
330
9
100
AcDbSymbolTableRecord
100
AcDbRegAppTableRecord
  2
ACAD_DIMASSOC_DIMLFAC
 70
     0
  0
APPID
  5
92
330
9
100
AcDbSymbolTableRecord
100
AcDbRegAppTableRecord
  2
ACAD_DIMASSOC_OVERRIDDEN_DIMLFAC
 70
     0
  0
APPID
  5
93
330
9
100
AcDbSymbolTableRecord
100
AcDbRegAppTableRecord
  2
FD_ATT_APPNAME
 70
     0
  0
APPID
  5
94
330
9
100
AcDbSymbolTableRecord
100
AcDbRegAppTableRecord
  2
ACAD_DSTYLE_DIMJAG_POSITION
 70
     0
  0
APPID
  5
95
330
9
100
AcDbSymbolTableRecord
100
AcDbRegAppTableRecord
  2
ACATTRIBSERVICES
 70
     0
  0
ENDTAB
  0
TABLE
  2
DIMSTYLE
  5
A
330
0
100
AcDbSymbolTable
 70
     2
100
AcDbDimStyleTable
 71
     1
340
58
  0
DIMSTYLE
105
58
102
{ACAD_REACTORS
330
162
330
171
330
17F
330
18D
330
19B
330
1A9
330
1B7
330
1C5
330
1D3
102
}
330
A
100
AcDbSymbolTableRecord
100
AcDbDimStyleTableRecord
  2
Standard
 70
     0
  3
in
  4
mm
 41
0.12
 42
0.05
 43
0.339411
 44
0.1
 47
0.01
 48
0.01
 78
    12
 79
     3
 90
        1
140
0.12
141
0.0
147
0.06
176
   256
177
   256
178
   256
179
     2
271
     3
272
     3
284
    12
285
    12
286
    12
340
55
  0
DIMSTYLE
105
59
330
A
100
AcDbSymbolTableRecord
100
AcDbDimStyleTableRecord
  2
Annotative
 70
     0
  3
in
  4
mm
 40
0.0
 43
0.339411
 78
    12
 79
     3
140
0.12
179
     2
271
     3
272
     3
284
    12
285
    12
286
    12
340
55
1001
AcadAnnotative
1000
AnnotativeData
1002
{
1070
     1
1070
     1
1002
}
  0
ENDTAB
  0
TABLE
  2
BLOCK_RECORD
  5
1
330
0
100
AcDbSymbolTable
 70
    23
  0
BLOCK_RECORD
  5
70
102
{ACAD_XDICTIONARY
360
B1
102
}
330
1
100
AcDbSymbolTableRecord
100
AcDbBlockTableRecord
  2
*Model_Space
340
73
 70
     0
280
     1
281
     0
  0
BLOCK_RECORD
  5
6C
330
1
100
AcDbSymbolTableRecord
100
AcDbBlockTableRecord
  2
*Paper_Space
340
6F
 70
     0
280
     1
281
     0
  0
BLOCK_RECORD
  5
74
330
1
100
AcDbSymbolTableRecord
100
AcDbBlockTableRecord
  2
*Paper_Space0
340
77
 70
     0
280
     1
281
     0
  0
BLOCK_RECORD
  5
11E
102
{ACAD_XDICTIONARY
360
11F
102
}
330
1
100
AcDbSymbolTableRecord
100
AcDbBlockTableRecord
  2
Shower
340
0
102
{BLKREFS
331
11C
102
}
 70
     1
280
     1
281
     0
1001
FUSIONTITLEBLOCK
1000
TitleBlock
  0
BLOCK_RECORD
  5
143
330
1
100
AcDbSymbolTableRecord
100
AcDbBlockTableRecord
  2
ANSI_B_SHEET
340
0
310
2800000020000000200000000100080000000000000400000000000000000000000000000000000000000000000080000080000000808000800000008000800080800000C0C0C000C0DCC000F0CAA6000020400000206000002080000020A0000020C0000020E00000400000004020000040400000406000004080000040A0
310
000040C0000040E00000600000006020000060400000606000006080000060A0000060C0000060E00000800000008020000080400000806000008080000080A0000080C0000080E00000A0000000A0200000A0400000A0600000A0800000A0A00000A0C00000A0E00000C0000000C0200000C0400000C0600000C0800000C0
310
A00000C0C00000C0E00000E0000000E0200000E0400000E0600000E0800000E0A00000E0C00000E0E00040000000400020004000400040006000400080004000A0004000C0004000E00040200000402020004020400040206000402080004020A0004020C0004020E000404000004040200040404000404060004040800040
310
40A0004040C0004040E00040600000406020004060400040606000406080004060A0004060C0004060E00040800000408020004080400040806000408080004080A0004080C0004080E00040A0000040A0200040A0400040A0600040A0800040A0A00040A0C00040A0E00040C0000040C0200040C0400040C0600040C08000
310
40C0A00040C0C00040C0E00040E0000040E0200040E0400040E0600040E0800040E0A00040E0C00040E0E00080000000800020008000400080006000800080008000A0008000C0008000E00080200000802020008020400080206000802080008020A0008020C0008020E00080400000804020008040400080406000804080
310
008040A0008040C0008040E00080600000806020008060400080606000806080008060A0008060C0008060E00080800000808020008080400080806000808080008080A0008080C0008080E00080A0000080A0200080A0400080A0600080A0800080A0A00080A0C00080A0E00080C0000080C0200080C0400080C0600080C0
310
800080C0A00080C0C00080C0E00080E0000080E0200080E0400080E0600080E0800080E0A00080E0C00080E0E000C0000000C0002000C0004000C0006000C0008000C000A000C000C000C000E000C0200000C0202000C0204000C0206000C0208000C020A000C020C000C020E000C0400000C0402000C0404000C0406000C0
310
408000C040A000C040C000C040E000C0600000C0602000C0604000C0606000C0608000C060A000C060C000C060E000C0800000C0802000C0804000C0806000C0808000C080A000C080C000C080E000C0A00000C0A02000C0A04000C0A06000C0A08000C0A0A000C0A0C000C0A0E000C0C00000C0C02000C0C04000C0C06000
310
C0C08000C0C0A000F0FBFF00A4A0A000808080000000FF0000FF000000FFFF00FF000000FF00FF00FFFF0000FFFFFF0049494949494949494949494949494949494949494949494949494949494949494949494949494949494949494949494949494949494949494949494949494949494949494949494949494949494949
310
494949494949494949494949494949494949494949494949494949494949494949494949494949494949494949494949494949494949494949494949494949494949494949494949494949494949494949494949494949494949494949494949494949494949494949494949494949494949FFFF4949494949494949494949
310
494949494949494949494949494949FFFF4949FFFFFFFFFFFFFFFFFFFFFFFFFFFFFFFFFFFFFFFFFFFFFFFFFFFFFFFFFFFF494949FF4949494949494949494949494949494949494949494949494949FF49494949FF4949494949494949494949494949494949494949494949494949FF49494949FF49494949494949494949
310
49494949494949494949494949494949FF49494949FF4949494949494949494949494949494949494949494949494949FF49494949FF4949494949494949494949494949494949494949494949494949FF49494949FF4949494949494949494949494949494949494949494949494949FF49494949FF494949494949494949
310
4949494949494949494949494949494949FF49494949FF4949494949494949494949494949494949494949494949494949FF49494949FF4949494949494949494949494949494949494949494949494949FF49494949FF4949494949494949494949494949494949494949494949494949FF49494949FF4949494949494949
310
494949494949494949494949494949494949FF49494949FF4949494949494949494949494949494949494949494949494949FF49494949FF4949494949494949494949494949494949494949494949494949FF49494949FF4949494949494949494949494949494949494949494949494949FF49494949FF49494949494949
310
49494949494949494949494949494949494949FF49494949FF4949494949494949494949494949494949494949494949494949FF494949FFFFFFFFFFFFFFFFFFFFFFFFFFFFFFFFFFFFFFFFFFFFFFFFFFFFFFFFFFFF4949FFFF4949494949494949494949494949494949494949494949494949FFFF49494949494949494949
310
49494949494949494949494949494949494949494949494949494949494949494949494949494949494949494949494949494949494949494949494949494949494949494949494949494949494949494949494949494949494949494949494949494949494949494949494949494949494949494949494949494949494949
310
4949494949494949494949494949494949494949494949494949494949494949494949494949494949494949494949494949494949494949
102
{BLKREFS
331
141
102
}
 70
     1
280
     1
281
     0
  0
BLOCK_RECORD
  5
164
330
1
100
AcDbSymbolTableRecord
100
AcDbBlockTableRecord
  2
*D5
340
0
 70
     0
280
     1
281
     0
  0
BLOCK_RECORD
  5
172
330
1
100
AcDbSymbolTableRecord
100
AcDbBlockTableRecord
  2
*D6
340
0
 70
     0
280
     1
281
     0
  0
BLOCK_RECORD
  5
180
330
1
100
AcDbSymbolTableRecord
100
AcDbBlockTableRecord
  2
*D7
340
0
 70
     0
280
     1
281
     0
  0
BLOCK_RECORD
  5
18E
330
1
100
AcDbSymbolTableRecord
100
AcDbBlockTableRecord
  2
*D8
340
0
 70
     0
280
     1
281
     0
  0
BLOCK_RECORD
  5
19C
330
1
100
AcDbSymbolTableRecord
100
AcDbBlockTableRecord
  2
*D9
340
0
 70
     0
280
     1
281
     0
  0
BLOCK_RECORD
  5
1AA
330
1
100
AcDbSymbolTableRecord
100
AcDbBlockTableRecord
  2
*D10
340
0
 70
     0
280
     1
281
     0
  0
BLOCK_RECORD
  5
1B8
330
1
100
AcDbSymbolTableRecord
100
AcDbBlockTableRecord
  2
*D11
340
0
 70
     0
280
     1
281
     0
  0
BLOCK_RECORD
  5
1C6
330
1
100
AcDbSymbolTableRecord
100
AcDbBlockTableRecord
  2
*D12
340
0
 70
     0
280
     1
281
     0
  0
BLOCK_RECORD
  5
1D4
330
1
100
AcDbSymbolTableRecord
100
AcDbBlockTableRecord
  2
*D13
340
0
 70
     0
280
     1
281
     0
  0
BLOCK_RECORD
  5
1E2
330
1
100
AcDbSymbolTableRecord
100
AcDbBlockTableRecord
  2
*D14
340
0
 70
     0
280
     1
281
     0
  0
BLOCK_RECORD
  5
1EF
330
1
100
AcDbSymbolTableRecord
100
AcDbBlockTableRecord
  2
*D15
340
0
 70
     0
280
     1
281
     0
  0
BLOCK_RECORD
  5
1FC
330
1
100
AcDbSymbolTableRecord
100
AcDbBlockTableRecord
  2
*D16
340
0
 70
     0
280
     1
281
     0
  0
BLOCK_RECORD
  5
209
330
1
100
AcDbSymbolTableRecord
100
AcDbBlockTableRecord
  2
*D17
340
0
 70
     0
280
     1
281
     0
  0
BLOCK_RECORD
  5
216
330
1
100
AcDbSymbolTableRecord
100
AcDbBlockTableRecord
  2
*D18
340
0
 70
     0
280
     1
281
     0
  0
BLOCK_RECORD
  5
223
330
1
100
AcDbSymbolTableRecord
100
AcDbBlockTableRecord
  2
*D19
340
0
 70
     0
280
     1
281
     0
  0
BLOCK_RECORD
  5
230
330
1
100
AcDbSymbolTableRecord
100
AcDbBlockTableRecord
  2
*D20
340
0
 70
     0
280
     1
281
     0
  0
BLOCK_RECORD
  5
23D
330
1
100
AcDbSymbolTableRecord
100
AcDbBlockTableRecord
  2
*D21
340
0
 70
     0
280
     1
281
     0
  0
BLOCK_RECORD
  5
24A
330
1
100
AcDbSymbolTableRecord
100
AcDbBlockTableRecord
  2
*D22
340
0
 70
     0
280
     1
281
     0
  0
ENDTAB
  0
ENDSEC
  0
SECTION
  2
BLOCKS
  0
BLOCK
  5
71
330
70
100
AcDbEntity
  8
0
100
AcDbBlockBegin
  2
*Model_Space
 70
     0
 10
0.0
 20
0.0
 30
0.0
  3
*Model_Space
  1

  0
ENDBLK
  5
72
330
70
100
AcDbEntity
  8
0
100
AcDbBlockEnd
  0
BLOCK
  5
6D
330
6C
100
AcDbEntity
 67
     1
  8
0
100
AcDbBlockBegin
  2
*Paper_Space
 70
     0
 10
0.0
 20
0.0
 30
0.0
  3
*Paper_Space
  1

  0
ENDBLK
  5
6E
330
6C
100
AcDbEntity
 67
     1
  8
0
100
AcDbBlockEnd
  0
BLOCK
  5
75
330
74
100
AcDbEntity
 67
     1
  8
0
100
AcDbBlockBegin
  2
*Paper_Space0
 70
     0
 10
0.0
 20
0.0
 30
0.0
  3
*Paper_Space0
  1

  0
ENDBLK
  5
76
330
74
100
AcDbEntity
 67
     1
  8
0
100
AcDbBlockEnd
  0
BLOCK
  5
121
330
11E
100
AcDbEntity
  8
0
100
AcDbBlockBegin
  2
Shower
 70
     2
 10
0.0
 20
0.0
 30
0.0
  3
Shower
  1

  0
LWPOLYLINE
  5
122
330
11E
100
AcDbEntity
  8
Titleblock
100
AcDbPolyline
 90
        4
 70
     1
 43
0.0
 10
0.0
 20
0.0
 10
-4.9375
 20
0.0
 10
-4.9375
 20
2.5
 10
0.0
 20
2.5
  0
IMAGE
  5
123
330
11E
100
AcDbEntity
  8
Titleblock
  6
Continuous
160
               140
310
8C0000000100000084000000060000000500000000000000008013C000B87FA8928AB03F000000000000000000000000008013C035B4911D6523F03F000000000000000001000000008001C035B4911D6523F03F000000000000000001000000008001C000B87FA8928AB03F000000000000000000000000008013C000B87F
310
A8928AB03F0000000000000000
370
     0
100
AcDbRasterImage
 90
        0
 10
-4.875
 20
0.064614
 30
0.0
 11
0.0028349156118143
 21
0.0
 31
0.0
 12
0.0
 22
0.0028349156118143
 32
0.0
 13
948.0
 23
333.0
340
124
 70
    15
280
     0
281
    50
282
    50
283
     0
290
     0
360
126
 71
     1
 91
        2
 14
-0.5
 24
-0.5
 14
947.5
 24
332.5
  0
LWPOLYLINE
  5
128
330
11E
100
AcDbEntity
  8
Titleblock
  6
Continuous
370
    25
100
AcDbPolyline
 90
        4
 70
     1
 43
0.0
 10
0.0
 20
1.0625
 10
-4.9375
 20
1.061638
 10
-4.9375
 20
0.0
 10
0.0
 20
0.0
  0
LWPOLYLINE
  5
129
330
11E
100
AcDbEntity
  8
Titleblock
  6
Continuous
370
    25
100
AcDbPolyline
 90
        4
 70
     1
 43
0.0
 10
-1.75
 20
2.5
 10
0.0
 20
2.5
 10
0.0
 20
2.5
 10
-1.75
 20
2.5
  0
ATTDEF
  5
12A
330
11E
100
AcDbEntity
  8
Titleblock
  6
Continuous
370
    25
100
AcDbText
 10
-3.6875
 20
2.3125
 30
0.0
 40
0.12
  1

100
AcDbAttributeDefinition
280
     0
  3

  2
PROJECT
 70
     0
280
     1
  0
MTEXT
  5
12B
330
11E
100
AcDbEntity
  8
Titleblock
  6
Continuous
370
    25
100
AcDbMText
 10
-4.875
 20
1.653875
 30
0.0
 40
0.12
 41
0.6875
 46
0.0
 71
     1
 72
     5
  1
Description:
 73
     1
 44
1.0
1001
ACAD
1000
ACAD_MTEXT_COLUMN_INFO_BEGIN
1070
    75
1070
     2
1070
    79
1070
     0
1070
    76
1070
     1
1070
    78
1070
     0
1070
    48
1040
0.6875
1070
    49
1040
0.6
1070
    50
1070
     1
1040
0.0
1000
ACAD_MTEXT_COLUMN_INFO_END
  0
ATTDEF
  5
12C
330
11E
100
AcDbEntity
  8
Titleblock
  6
Continuous
370
    25
100
AcDbText
 10
-1.6875
 20
0.6875
 30
0.0
 40
0.12
  1

100
AcDbAttributeDefinition
280
     0
  3

  2
DRAWN_DATE
 70
     0
280
     1
  0
ATTDEF
  5
12D
330
11E
100
AcDbEntity
  8
Titleblock
  6
Continuous
370
    25
100
AcDbText
 10
-4.3125
 20
1.8125
 30
0.0
 40
0.3048
  1

100
AcDbAttributeDefinition
280
     0
  3

  2
TITLE_1
 70
     0
280
     1
  0
ATTDEF
  5
12E
330
11E
100
AcDbEntity
  8
Titleblock
  6
Continuous
370
    25
100
AcDbText
 10
-1.6875
 20
0.91994
 30
0.0
 40
0.12
  1

100
AcDbAttributeDefinition
280
     0
  3

  2
SCALE
 70
     0
280
     1
  0
LWPOLYLINE
  5
12F
330
11E
100
AcDbEntity
  8
Titleblock
  6
Continuous
370
    25
100
AcDbPolyline
 90
        4
 70
     1
 43
0.0
 10
0.0
 20
1.0625
 10
0.0
 20
1.0625
 10
0.0
 20
0.0
 10
0.0
 20
0.0
  0
LWPOLYLINE
  5
130
330
11E
100
AcDbEntity
  8
Titleblock
  6
Continuous
370
    25
100
AcDbPolyline
 90
        4
 70
     1
 43
0.0
 10
0.0
 20
1.0625
 10
0.0
 20
1.0625
 10
0.0
 20
0.0
 10
0.0
 20
0.0
  0
LINE
  5
131
330
11E
100
AcDbEntity
  8
Titleblock
  6
Continuous
370
    25
100
AcDbLine
 10
-2.125
 20
1.062165
 30
0.0
 11
-2.125
 21
0.0
 31
0.0
  0
LWPOLYLINE
  5
132
330
11E
100
AcDbEntity
  8
Titleblock
  6
Continuous
370
    25
100
AcDbPolyline
 90
        4
 70
     1
 43
0.0
 10
-4.9375
 20
2.5
 10
0.0
 20
2.5
 10
0.0
 20
2.5
 10
-4.9375
 20
2.5
  0
LINE
  5
133
330
11E
100
AcDbEntity
  8
Titleblock
  6
Continuous
370
    25
100
AcDbLine
 10
-4.9375
 20
2.25
 30
0.0
 11
0.0
 21
2.25
 31
0.0
  0
LINE
  5
134
330
11E
100
AcDbEntity
  8
Titleblock
  6
Continuous
370
    25
100
AcDbLine
 10
-4.9375
 20
1.6875
 30
0.0
 11
0.0
 21
1.6875
 31
0.0
  0
MTEXT
  5
135
330
11E
100
AcDbEntity
  8
Titleblock
100
AcDbMText
 10
-4.875
 20
2.467284
 30
0.0
 40
0.12
 41
0.375
 46
0.0
 71
     1
 72
     5
  1
Project:
 73
     1
 44
1.0
1001
ACAD
1000
ACAD_MTEXT_COLUMN_INFO_BEGIN
1070
    75
1070
     2
1070
    79
1070
     0
1070
    76
1070
     1
1070
    78
1070
     0
1070
    48
1040
0.375
1070
    49
1040
0.6
1070
    50
1070
     1
1040
0.0
1000
ACAD_MTEXT_COLUMN_INFO_END
  0
MTEXT
  5
136
330
11E
100
AcDbEntity
  8
Titleblock
100
AcDbMText
 10
-2.0625
 20
1.045477
 30
0.0
 40
0.075
 41
0.375
 46
0.0
 71
     1
 72
     5
  1
Scale:
 73
     1
 44
1.0
1001
ACAD
1000
ACAD_MTEXT_COLUMN_INFO_BEGIN
1070
    75
1070
     2
1070
    79
1070
     0
1070
    76
1070
     1
1070
    78
1070
     0
1070
    48
1040
0.375
1070
    49
1040
0.6
1070
    50
1070
     1
1040
0.0
1000
ACAD_MTEXT_COLUMN_INFO_END
  0
MTEXT
  5
137
330
11E
100
AcDbEntity
  8
Titleblock
100
AcDbMText
 10
-2.0625
 20
0.857735
 30
0.0
 40
0.075
 41
0.375
 46
0.0
 71
     1
 72
     5
  1
Date Drawn:
 73
     1
 44
1.0
1001
ACAD
1000
ACAD_MTEXT_COLUMN_INFO_BEGIN
1070
    75
1070
     2
1070
    79
1070
     0
1070
    76
1070
     1
1070
    78
1070
     0
1070
    48
1040
0.375
1070
    49
1040
0.6
1070
    50
1070
     1
1040
0.0
1000
ACAD_MTEXT_COLUMN_INFO_END
  0
LINE
  5
138
330
11E
100
AcDbEntity
  8
Titleblock
100
AcDbLine
 10
-2.125
 20
0.875
 30
0.0
 11
0.0
 21
0.875
 31
0.0
  0
LINE
  5
139
330
11E
100
AcDbEntity
  8
Titleblock
100
AcDbLine
 10
-2.125
 20
0.625
 30
0.0
 11
0.0
 21
0.625
 31
0.0
  0
MTEXT
  5
13A
330
11E
100
AcDbEntity
  8
Titleblock
100
AcDbMText
 10
-4.875
 20
2.220603
 30
0.0
 40
0.12
 41
0.625
 46
0.0
 71
     1
 72
     5
  1
Title:
 73
     1
 44
1.0
1001
ACAD
1000
ACAD_MTEXT_COLUMN_INFO_BEGIN
1070
    75
1070
     2
1070
    79
1070
     0
1070
    76
1070
     1
1070
    78
1070
     0
1070
    48
1040
0.625
1070
    49
1040
0.6
1070
    50
1070
     1
1040
0.0
1000
ACAD_MTEXT_COLUMN_INFO_END
  0
ENDBLK
  5
13B
330
11E
100
AcDbEntity
  8
0
100
AcDbBlockEnd
  0
BLOCK
  5
144
330
143
100
AcDbEntity
  8
0
100
AcDbBlockBegin
  2
ANSI_B_SHEET
 70
     0
 10
0.0
 20
0.0
 30
0.0
  3
ANSI_B_SHEET
  1

  0
LINE
  5
145
330
143
100
AcDbEntity
  8
Border
100
AcDbLine
 10
0.0
 20
0.0
 30
0.0
 11
0.5
 21
0.0
 31
0.0
  0
LINE
  5
146
330
143
100
AcDbEntity
  8
Border
100
AcDbLine
 10
16.5
 20
0.0
 30
0.0
 11
17.0
 21
0.0
 31
0.0
  0
LINE
  5
147
330
143
100
AcDbEntity
  8
Border
100
AcDbLine
 10
0.62
 20
0.38
 30
0.0
 11
16.38
 21
0.38
 31
0.0
  0
LINE
  5
148
330
143
100
AcDbEntity
  8
Border
100
AcDbLine
 10
17.0
 20
0.0
 30
0.0
 11
17.0
 21
0.5
 31
0.0
  0
LINE
  5
149
330
143
100
AcDbEntity
  8
Border
100
AcDbLine
 10
17.0
 20
10.5
 30
0.0
 11
17.0
 21
11.0
 31
0.0
  0
LINE
  5
14A
330
143
100
AcDbEntity
  8
Border
100
AcDbLine
 10
16.38
 20
0.38
 30
0.0
 11
16.38
 21
10.62
 31
0.0
  0
LINE
  5
14B
330
143
100
AcDbEntity
  8
Border
100
AcDbLine
 10
17.0
 20
11.0
 30
0.0
 11
16.5
 21
11.0
 31
0.0
  0
LINE
  5
14C
330
143
100
AcDbEntity
  8
Border
100
AcDbLine
 10
0.5
 20
11.0
 30
0.0
 11
0.0
 21
11.0
 31
0.0
  0
LINE
  5
14D
330
143
100
AcDbEntity
  8
Border
100
AcDbLine
 10
16.38
 20
10.62
 30
0.0
 11
0.62
 21
10.62
 31
0.0
  0
LINE
  5
14E
330
143
100
AcDbEntity
  8
Border
100
AcDbLine
 10
0.0
 20
11.0
 30
0.0
 11
0.0
 21
10.5
 31
0.0
  0
LINE
  5
14F
330
143
100
AcDbEntity
  8
Border
100
AcDbLine
 10
0.0
 20
0.5
 30
0.0
 11
0.0
 21
0.0
 31
0.0
  0
LINE
  5
150
330
143
100
AcDbEntity
  8
Border
100
AcDbLine
 10
0.62
 20
10.62
 30
0.0
 11
0.62
 21
0.38
 31
0.0
  0
LINE
  5
151
330
143
100
AcDbEntity
  8
Border
100
AcDbLine
 10
8.413397
 20
0.23
 30
0.0
 11
8.586603
 21
0.23
 31
0.0
  0
LINE
  5
152
330
143
100
AcDbEntity
  8
Border
100
AcDbLine
 10
8.5
 20
0.38
 30
0.0
 11
8.5
 21
0.13
 31
0.0
  0
LINE
  5
153
330
143
100
AcDbEntity
  8
Border
100
AcDbLine
 10
8.5
 20
0.38
 30
0.0
 11
8.413397
 21
0.23
 31
0.0
  0
LINE
  5
154
330
143
100
AcDbEntity
  8
Border
100
AcDbLine
 10
8.5
 20
0.38
 30
0.0
 11
8.586603
 21
0.23
 31
0.0
  0
LINE
  5
155
330
143
100
AcDbEntity
  8
Border
100
AcDbLine
 10
0.47
 20
5.586603
 30
0.0
 11
0.47
 21
5.413397
 31
0.0
  0
LINE
  5
156
330
143
100
AcDbEntity
  8
Border
100
AcDbLine
 10
0.62
 20
5.5
 30
0.0
 11
0.37
 21
5.5
 31
0.0
  0
LINE
  5
157
330
143
100
AcDbEntity
  8
Border
100
AcDbLine
 10
0.62
 20
5.5
 30
0.0
 11
0.47
 21
5.586603
 31
0.0
  0
LINE
  5
158
330
143
100
AcDbEntity
  8
Border
100
AcDbLine
 10
0.62
 20
5.5
 30
0.0
 11
0.47
 21
5.413397
 31
0.0
  0
LINE
  5
159
330
143
100
AcDbEntity
  8
Border
100
AcDbLine
 10
16.53
 20
5.586603
 30
0.0
 11
16.53
 21
5.413397
 31
0.0
  0
LINE
  5
15A
330
143
100
AcDbEntity
  8
Border
100
AcDbLine
 10
16.38
 20
5.5
 30
0.0
 11
16.63
 21
5.5
 31
0.0
  0
LINE
  5
15B
330
143
100
AcDbEntity
  8
Border
100
AcDbLine
 10
16.38
 20
5.5
 30
0.0
 11
16.53
 21
5.586603
 31
0.0
  0
LINE
  5
15C
330
143
100
AcDbEntity
  8
Border
100
AcDbLine
 10
16.38
 20
5.5
 30
0.0
 11
16.53
 21
5.413397
 31
0.0
  0
LINE
  5
15D
330
143
100
AcDbEntity
  8
Border
100
AcDbLine
 10
8.413397
 20
10.77
 30
0.0
 11
8.586603
 21
10.77
 31
0.0
  0
LINE
  5
15E
330
143
100
AcDbEntity
  8
Border
100
AcDbLine
 10
8.5
 20
10.62
 30
0.0
 11
8.5
 21
10.87
 31
0.0
  0
LINE
  5
15F
330
143
100
AcDbEntity
  8
Border
100
AcDbLine
 10
8.5
 20
10.62
 30
0.0
 11
8.413397
 21
10.77
 31
0.0
  0
LINE
  5
160
330
143
100
AcDbEntity
  8
Border
100
AcDbLine
 10
8.5
 20
10.62
 30
0.0
 11
8.586603
 21
10.77
 31
0.0
  0
ENDBLK
  5
161
330
143
100
AcDbEntity
  8
0
100
AcDbBlockEnd
  0
BLOCK
  5
165
330
164
100
AcDbEntity
  8
0
100
AcDbBlockBegin
  2
*D5
 70
     1
 10
0.0
 20
0.0
 30
0.0
  3
*D5
  1

  0
LINE
  5
166
330
164
100
AcDbEntity
  8
Dimensions
440
 16777216
370
    -2
100
AcDbLine
 10
9.790618
 20
7.562517
 30
0.0
 11
11.0955
 21
7.562517
 31
0.0
  0
LINE
  5
167
330
164
100
AcDbEntity
  8
Dimensions
440
 16777216
370
    -2
100
AcDbLine
 10
9.7906
 20
3.43748
 30
0.0
 11
11.0955
 21
3.43748
 31
0.0
  0
LINE
  5
168
330
164
100
AcDbEntity
  8
Dimensions
440
 16777216
370
    -2
100
AcDbLine
 10
10.9955
 20
7.442517
 30
0.0
 11
10.9955
 21
5.621267
 31
0.0
  0
LINE
  5
169
330
164
100
AcDbEntity
  8
Dimensions
440
 16777216
370
    -2
100
AcDbLine
 10
10.9955
 20
3.55748
 30
0.0
 11
10.9955
 21
5.37873
 31
0.0
  0
SOLID
  5
16A
330
164
100
AcDbEntity
  8
Dimensions
440
 16777216
100
AcDbTrace
 10
10.9755
 20
7.442517
 30
0.0
 11
11.0155
 21
7.442517
 31
0.0
 12
10.9955
 22
7.562517
 32
0.0
 13
10.9955
 23
7.562517
 33
0.0
  0
SOLID
  5
16B
330
164
100
AcDbEntity
  8
Dimensions
440
 16777216
100
AcDbTrace
 10
10.9755
 20
3.55748
 30
0.0
 11
11.0155
 21
3.55748
 31
0.0
 12
10.9955
 22
3.43748
 32
0.0
 13
10.9955
 23
3.43748
 33
0.0
  0
MTEXT
  5
16C
330
164
100
AcDbEntity
  8
Dimensions
440
 16777216
100
AcDbMText
 10
10.9955
 20
5.499999
 30
0.0
 40
0.12
 41
0.0
 46
0.0
 71
     5
 72
     1
  1
\A1;4.125in
 73
     1
 44
1.0
  0
POINT
  5
16D
330
164
100
AcDbEntity
  8
Defpoints
 62
     0
440
 16777216
100
AcDbPoint
 10
9.740618
 20
7.562517
 30
0.0
  0
POINT
  5
16E
330
164
100
AcDbEntity
  8
Defpoints
 62
     0
440
 16777216
100
AcDbPoint
 10
9.7406
 20
3.43748
 30
0.0
  0
POINT
  5
16F
330
164
100
AcDbEntity
  8
Defpoints
 62
     0
440
 16777216
100
AcDbPoint
 10
10.9955
 20
3.43748
 30
0.0
  0
ENDBLK
  5
170
330
164
100
AcDbEntity
  8
0
100
AcDbBlockEnd
  0
BLOCK
  5
173
330
172
100
AcDbEntity
  8
0
100
AcDbBlockBegin
  2
*D6
 70
     1
 10
0.0
 20
0.0
 30
0.0
  3
*D6
  1

  0
LINE
  5
174
330
172
100
AcDbEntity
  8
Dimensions
440
 16777216
370
    -2
100
AcDbLine
 10
9.041012
 20
4.187492
 30
0.0
 11
10.294545
 21
4.187492
 31
0.0
  0
LINE
  5
175
330
172
100
AcDbEntity
  8
Dimensions
440
 16777216
370
    -2
100
AcDbLine
 10
9.7906
 20
3.43748
 30
0.0
 11
10.294545
 21
3.43748
 31
0.0
  0
LINE
  5
176
330
172
100
AcDbEntity
  8
Dimensions
440
 16777216
370
    -2
100
AcDbLine
 10
10.194545
 20
4.067492
 30
0.0
 11
10.194545
 21
3.933509
 31
0.0
  0
LINE
  5
177
330
172
100
AcDbEntity
  8
Dimensions
440
 16777216
370
    -2
100
AcDbLine
 10
10.194545
 20
3.55748
 30
0.0
 11
10.194545
 21
3.691463
 31
0.0
  0
SOLID
  5
178
330
172
100
AcDbEntity
  8
Dimensions
440
 16777216
100
AcDbTrace
 10
10.174545
 20
4.067492
 30
0.0
 11
10.214545
 21
4.067492
 31
0.0
 12
10.194545
 22
4.187492
 32
0.0
 13
10.194545
 23
4.187492
 33
0.0
  0
SOLID
  5
179
330
172
100
AcDbEntity
  8
Dimensions
440
 16777216
100
AcDbTrace
 10
10.174545
 20
3.55748
 30
0.0
 11
10.214545
 21
3.55748
 31
0.0
 12
10.194545
 22
3.43748
 32
0.0
 13
10.194545
 23
3.43748
 33
0.0
  0
MTEXT
  5
17A
330
172
100
AcDbEntity
  8
Dimensions
440
 16777216
100
AcDbMText
 10
10.194545
 20
3.812486
 30
0.0
 40
0.12
 41
0.0
 46
0.0
 71
     5
 72
     1
  1
\A1;.75in
 73
     1
 44
1.0
  0
POINT
  5
17B
330
172
100
AcDbEntity
  8
Defpoints
 62
     0
440
 16777216
100
AcDbPoint
 10
8.991012
 20
4.187492
 30
0.0
  0
POINT
  5
17C
330
172
100
AcDbEntity
  8
Defpoints
 62
     0
440
 16777216
100
AcDbPoint
 10
9.7406
 20
3.43748
 30
0.0
  0
POINT
  5
17D
330
172
100
AcDbEntity
  8
Defpoints
 62
     0
440
 16777216
100
AcDbPoint
 10
10.194545
 20
3.43748
 30
0.0
  0
ENDBLK
  5
17E
330
172
100
AcDbEntity
  8
0
100
AcDbBlockEnd
  0
BLOCK
  5
181
330
180
100
AcDbEntity
  8
0
100
AcDbBlockBegin
  2
*D7
 70
     1
 10
0.0
 20
0.0
 30
0.0
  3
*D7
  1

  0
LINE
  5
182
330
180
100
AcDbEntity
  8
Dimensions
440
 16777216
370
    -2
100
AcDbLine
 10
8.812621
 20
4.137492
 30
0.0
 11
8.812621
 21
3.112659
 31
0.0
  0
LINE
  5
183
330
180
100
AcDbEntity
  8
Dimensions
440
 16777216
370
    -2
100
AcDbLine
 10
8.187621
 20
4.137492
 30
0.0
 11
8.187621
 21
3.112659
 31
0.0
  0
LINE
  5
184
330
180
100
AcDbEntity
  8
Dimensions
440
 16777216
370
    -2
100
AcDbLine
 10
8.692621
 20
3.212659
 30
0.0
 11
8.307621
 21
3.212659
 31
0.0
  0
LINE
  5
185
330
180
100
AcDbEntity
  8
Dimensions
440
 16777216
370
    -2
100
AcDbLine
 10
8.187621
 20
3.212659
 30
0.0
 11
6.902287
 21
3.212659
 31
0.0
  0
SOLID
  5
186
330
180
100
AcDbEntity
  8
Dimensions
440
 16777216
100
AcDbTrace
 10
8.692621
 20
3.232659
 30
0.0
 11
8.692621
 21
3.192659
 31
0.0
 12
8.812621
 22
3.212659
 32
0.0
 13
8.812621
 23
3.212659
 33
0.0
  0
SOLID
  5
187
330
180
100
AcDbEntity
  8
Dimensions
440
 16777216
100
AcDbTrace
 10
8.307621
 20
3.232659
 30
0.0
 11
8.307621
 21
3.192659
 31
0.0
 12
8.187621
 22
3.212659
 32
0.0
 13
8.187621
 23
3.212659
 33
0.0
  0
MTEXT
  5
188
330
180
100
AcDbEntity
  8
Dimensions
440
 16777216
100
AcDbMText
 10
6.387212
 20
3.212659
 30
0.0
 40
0.12
 41
0.0
 46
0.0
 71
     5
 72
     1
  1
\A1;(10) %%C.625in
 73
     1
 44
1.0
  0
POINT
  5
189
330
180
100
AcDbEntity
  8
Defpoints
 62
     0
440
 16777216
100
AcDbPoint
 10
8.812621
 20
4.187492
 30
0.0
  0
POINT
  5
18A
330
180
100
AcDbEntity
  8
Defpoints
 62
     0
440
 16777216
100
AcDbPoint
 10
8.187621
 20
4.187492
 30
0.0
  0
POINT
  5
18B
330
180
100
AcDbEntity
  8
Defpoints
 62
     0
440
 16777216
100
AcDbPoint
 10
8.187621
 20
3.212659
 30
0.0
  0
ENDBLK
  5
18C
330
180
100
AcDbEntity
  8
0
100
AcDbBlockEnd
  0
BLOCK
  5
18F
330
18E
100
AcDbEntity
  8
0
100
AcDbBlockBegin
  2
*D8
 70
     1
 10
0.0
 20
0.0
 30
0.0
  3
*D8
  1

  0
LINE
  5
190
330
18E
100
AcDbEntity
  8
Dimensions
440
 16777216
370
    -2
100
AcDbLine
 10
9.165815
 20
7.062517
 30
0.0
 11
10.467161
 21
7.062517
 31
0.0
  0
LINE
  5
191
330
18E
100
AcDbEntity
  8
Dimensions
440
 16777216
370
    -2
100
AcDbLine
 10
9.041012
 20
4.187492
 30
0.0
 11
10.467161
 21
4.187492
 31
0.0
  0
LINE
  5
192
330
18E
100
AcDbEntity
  8
Dimensions
440
 16777216
370
    -2
100
AcDbLine
 10
10.367161
 20
6.942517
 30
0.0
 11
10.367161
 21
5.746273
 31
0.0
  0
LINE
  5
193
330
18E
100
AcDbEntity
  8
Dimensions
440
 16777216
370
    -2
100
AcDbLine
 10
10.367161
 20
4.307492
 30
0.0
 11
10.367161
 21
5.503736
 31
0.0
  0
SOLID
  5
194
330
18E
100
AcDbEntity
  8
Dimensions
440
 16777216
100
AcDbTrace
 10
10.347161
 20
6.942517
 30
0.0
 11
10.387161
 21
6.942517
 31
0.0
 12
10.367161
 22
7.062517
 32
0.0
 13
10.367161
 23
7.062517
 33
0.0
  0
SOLID
  5
195
330
18E
100
AcDbEntity
  8
Dimensions
440
 16777216
100
AcDbTrace
 10
10.347161
 20
4.307492
 30
0.0
 11
10.387161
 21
4.307492
 31
0.0
 12
10.367161
 22
4.187492
 32
0.0
 13
10.367161
 23
4.187492
 33
0.0
  0
MTEXT
  5
196
330
18E
100
AcDbEntity
  8
Dimensions
440
 16777216
100
AcDbMText
 10
10.367161
 20
5.625004
 30
0.0
 40
0.12
 41
0.0
 46
0.0
 71
     5
 72
     1
  1
\A1;2.875in
 73
     1
 44
1.0
  0
POINT
  5
197
330
18E
100
AcDbEntity
  8
Defpoints
 62
     0
440
 16777216
100
AcDbPoint
 10
9.115815
 20
7.062517
 30
0.0
  0
POINT
  5
198
330
18E
100
AcDbEntity
  8
Defpoints
 62
     0
440
 16777216
100
AcDbPoint
 10
8.991012
 20
4.187492
 30
0.0
  0
POINT
  5
199
330
18E
100
AcDbEntity
  8
Defpoints
 62
     0
440
 16777216
100
AcDbPoint
 10
10.367161
 20
4.187492
 30
0.0
  0
ENDBLK
  5
19A
330
18E
100
AcDbEntity
  8
0
100
AcDbBlockEnd
  0
BLOCK
  5
19D
330
19C
100
AcDbEntity
  8
0
100
AcDbBlockBegin
  2
*D9
 70
     1
 10
0.0
 20
0.0
 30
0.0
  3
*D9
  1

  0
LINE
  5
19E
330
19C
100
AcDbEntity
  8
Dimensions
440
 16777216
370
    -2
100
AcDbLine
 10
7.249995
 20
3.396973
 30
0.0
 11
7.249994
 21
1.989328
 31
0.0
  0
LINE
  5
19F
330
19C
100
AcDbEntity
  8
Dimensions
440
 16777216
370
    -2
100
AcDbLine
 10
9.750005
 20
3.39697
 30
0.0
 11
9.750003
 21
1.989325
 31
0.0
  0
LINE
  5
1A0
330
19C
100
AcDbEntity
  8
Dimensions
440
 16777216
370
    -2
100
AcDbLine
 10
7.369994
 20
2.089328
 30
0.0
 11
8.266465
 21
2.089327
 31
0.0
  0
LINE
  5
1A1
330
19C
100
AcDbEntity
  8
Dimensions
440
 16777216
370
    -2
100
AcDbLine
 10
9.630003
 20
2.089325
 30
0.0
 11
8.733532
 21
2.089326
 31
0.0
  0
SOLID
  5
1A2
330
19C
100
AcDbEntity
  8
Dimensions
440
 16777216
100
AcDbTrace
 10
7.369994
 20
2.109328
 30
0.0
 11
7.369994
 21
2.069328
 31
0.0
 12
7.249994
 22
2.089328
 32
0.0
 13
7.249994
 23
2.089328
 33
0.0
  0
SOLID
  5
1A3
330
19C
100
AcDbEntity
  8
Dimensions
440
 16777216
100
AcDbTrace
 10
9.630003
 20
2.109325
 30
0.0
 11
9.630003
 21
2.069325
 31
0.0
 12
9.750003
 22
2.089325
 32
0.0
 13
9.750003
 23
2.089325
 33
0.0
  0
MTEXT
  5
1A4
330
19C
100
AcDbEntity
  8
Dimensions
440
 16777216
100
AcDbMText
 10
8.499998
 20
2.089327
 30
0.0
 40
0.12
 41
0.0
 46
0.0
 71
     5
 72
     1
  1
\A1;2.5in
 73
     1
 44
1.0
  0
POINT
  5
1A5
330
19C
100
AcDbEntity
  8
Defpoints
 62
     0
440
 16777216
100
AcDbPoint
 10
7.249995
 20
3.446973
 30
0.0
  0
POINT
  5
1A6
330
19C
100
AcDbEntity
  8
Defpoints
 62
     0
440
 16777216
100
AcDbPoint
 10
9.750005
 20
3.44697
 30
0.0
  0
POINT
  5
1A7
330
19C
100
AcDbEntity
  8
Defpoints
 62
     0
440
 16777216
100
AcDbPoint
 10
9.750003
 20
2.089325
 30
0.0
  0
ENDBLK
  5
1A8
330
19C
100
AcDbEntity
  8
0
100
AcDbBlockEnd
  0
BLOCK
  5
1AB
330
1AA
100
AcDbEntity
  8
0
100
AcDbBlockBegin
  2
*D10
 70
     1
 10
0.0
 20
0.0
 30
0.0
  3
*D10
  1

  0
LINE
  5
1AC
330
1AA
100
AcDbEntity
  8
Dimensions
440
 16777216
370
    -2
100
AcDbLine
 10
7.999979
 20
4.247557
 30
0.0
 11
7.999979
 21
6.662717
 31
0.0
  0
LINE
  5
1AD
330
1AA
100
AcDbEntity
  8
Dimensions
440
 16777216
370
    -2
100
AcDbLine
 10
9.00008
 20
4.24719
 30
0.0
 11
9.00008
 21
6.662717
 31
0.0
  0
LINE
  5
1AE
330
1AA
100
AcDbEntity
  8
Dimensions
440
 16777216
370
    -2
100
AcDbLine
 10
8.119979
 20
6.562717
 30
0.0
 11
8.343072
 21
6.562717
 31
0.0
  0
LINE
  5
1AF
330
1AA
100
AcDbEntity
  8
Dimensions
440
 16777216
370
    -2
100
AcDbLine
 10
8.88008
 20
6.562717
 30
0.0
 11
8.656987
 21
6.562717
 31
0.0
  0
SOLID
  5
1B0
330
1AA
100
AcDbEntity
  8
Dimensions
440
 16777216
100
AcDbTrace
 10
8.119979
 20
6.582717
 30
0.0
 11
8.119979
 21
6.542717
 31
0.0
 12
7.999979
 22
6.562717
 32
0.0
 13
7.999979
 23
6.562717
 33
0.0
  0
SOLID
  5
1B1
330
1AA
100
AcDbEntity
  8
Dimensions
440
 16777216
100
AcDbTrace
 10
8.88008
 20
6.582717
 30
0.0
 11
8.88008
 21
6.542717
 31
0.0
 12
9.00008
 22
6.562717
 32
0.0
 13
9.00008
 23
6.562717
 33
0.0
  0
MTEXT
  5
1B2
330
1AA
100
AcDbEntity
  8
Dimensions
440
 16777216
100
AcDbMText
 10
8.50003
 20
6.562717
 30
0.0
 40
0.12
 41
0.0
 46
0.0
 71
     5
 72
     1
  1
\A1;1in
 73
     1
 44
1.0
  0
POINT
  5
1B3
330
1AA
100
AcDbEntity
  8
Defpoints
 62
     0
440
 16777216
100
AcDbPoint
 10
7.999979
 20
4.197557
 30
0.0
  0
POINT
  5
1B4
330
1AA
100
AcDbEntity
  8
Defpoints
 62
     0
440
 16777216
100
AcDbPoint
 10
9.00008
 20
4.19719
 30
0.0
  0
POINT
  5
1B5
330
1AA
100
AcDbEntity
  8
Defpoints
 62
     0
440
 16777216
100
AcDbPoint
 10
9.00008
 20
6.562717
 30
0.0
  0
ENDBLK
  5
1B6
330
1AA
100
AcDbEntity
  8
0
100
AcDbBlockEnd
  0
BLOCK
  5
1B9
330
1B8
100
AcDbEntity
  8
0
100
AcDbBlockBegin
  2
*D11
 70
     1
 10
0.0
 20
0.0
 30
0.0
  3
*D11
  1

  0
LINE
  5
1BA
330
1B8
100
AcDbEntity
  8
Dimensions
440
 16777216
370
    -2
100
AcDbLine
 10
14.5
 20
9.39968
 30
0.0
 11
14.5
 21
9.863059
 31
0.0
  0
LINE
  5
1BB
330
1B8
100
AcDbEntity
  8
Dimensions
440
 16777216
370
    -2
100
AcDbLine
 10
2.5
 20
9.39968
 30
0.0
 11
2.5
 21
9.863059
 31
0.0
  0
LINE
  5
1BC
330
1B8
100
AcDbEntity
  8
Dimensions
440
 16777216
370
    -2
100
AcDbLine
 10
14.38
 20
9.763059
 30
0.0
 11
8.750191
 21
9.763059
 31
0.0
  0
LINE
  5
1BD
330
1B8
100
AcDbEntity
  8
Dimensions
440
 16777216
370
    -2
100
AcDbLine
 10
2.62
 20
9.763059
 30
0.0
 11
8.249809
 21
9.763059
 31
0.0
  0
SOLID
  5
1BE
330
1B8
100
AcDbEntity
  8
Dimensions
440
 16777216
100
AcDbTrace
 10
14.38
 20
9.783059
 30
0.0
 11
14.38
 21
9.743059
 31
0.0
 12
14.5
 22
9.763059
 32
0.0
 13
14.5
 23
9.763059
 33
0.0
  0
SOLID
  5
1BF
330
1B8
100
AcDbEntity
  8
Dimensions
440
 16777216
100
AcDbTrace
 10
2.62
 20
9.783059
 30
0.0
 11
2.62
 21
9.743059
 31
0.0
 12
2.5
 22
9.763059
 32
0.0
 13
2.5
 23
9.763059
 33
0.0
  0
MTEXT
  5
1C0
330
1B8
100
AcDbEntity
  8
Dimensions
440
 16777216
100
AcDbMText
 10
8.5
 20
9.763059
 30
0.0
 40
0.12
 41
0.0
 46
0.0
 71
     5
 72
     1
  1
\A1;120in
 73
     1
 44
1.0
  0
POINT
  5
1C1
330
1B8
100
AcDbEntity
  8
Defpoints
 62
     0
440
 16777216
100
AcDbPoint
 10
14.5
 20
9.34968
 30
0.0
  0
POINT
  5
1C2
330
1B8
100
AcDbEntity
  8
Defpoints
 62
     0
440
 16777216
100
AcDbPoint
 10
2.5
 20
9.34968
 30
0.0
  0
POINT
  5
1C3
330
1B8
100
AcDbEntity
  8
Defpoints
 62
     0
440
 16777216
100
AcDbPoint
 10
2.5
 20
9.763059
 30
0.0
  0
ENDBLK
  5
1C4
330
1B8
100
AcDbEntity
  8
0
100
AcDbBlockEnd
  0
BLOCK
  5
1C7
330
1C6
100
AcDbEntity
  8
0
100
AcDbBlockBegin
  2
*D12
 70
     1
 10
0.0
 20
0.0
 30
0.0
  3
*D12
  1

  0
LINE
  5
1C8
330
1C6
100
AcDbEntity
  8
Dimensions
440
 16777216
370
    -2
100
AcDbLine
 10
2.5
 20
9.200577
 30
0.0
 11
2.5
 21
8.581245
 31
0.0
  0
LINE
  5
1C9
330
1C6
100
AcDbEntity
  8
Dimensions
440
 16777216
370
    -2
100
AcDbLine
 10
3.1
 20
9.249666
 30
0.0
 11
3.1
 21
8.581245
 31
0.0
  0
LINE
  5
1CA
330
1C6
100
AcDbEntity
  8
Dimensions
440
 16777216
370
    -2
100
AcDbLine
 10
2.38
 20
8.681245
 30
0.0
 11
2.26
 21
8.681245
 31
0.0
  0
LINE
  5
1CB
330
1C6
100
AcDbEntity
  8
Dimensions
440
 16777216
370
    -2
100
AcDbLine
 10
3.22
 20
8.681245
 30
0.0
 11
3.34
 21
8.681245
 31
0.0
  0
SOLID
  5
1CC
330
1C6
100
AcDbEntity
  8
Dimensions
440
 16777216
100
AcDbTrace
 10
2.38
 20
8.701245
 30
0.0
 11
2.38
 21
8.661245
 31
0.0
 12
2.5
 22
8.681245
 32
0.0
 13
2.5
 23
8.681245
 33
0.0
  0
SOLID
  5
1CD
330
1C6
100
AcDbEntity
  8
Dimensions
440
 16777216
100
AcDbTrace
 10
3.22
 20
8.701245
 30
0.0
 11
3.22
 21
8.661245
 31
0.0
 12
3.1
 22
8.681245
 32
0.0
 13
3.1
 23
8.681245
 33
0.0
  0
MTEXT
  5
1CE
330
1C6
100
AcDbEntity
  8
Dimensions
440
 16777216
100
AcDbMText
 10
2.822721
 20
8.681245
 30
0.0
 40
0.12
 41
0.0
 46
0.0
 71
     5
 72
     1
  1
\A1;6in
 73
     1
 44
1.0
  0
POINT
  5
1CF
330
1C6
100
AcDbEntity
  8
Defpoints
 62
     0
440
 16777216
100
AcDbPoint
 10
2.5
 20
9.250577
 30
0.0
  0
POINT
  5
1D0
330
1C6
100
AcDbEntity
  8
Defpoints
 62
     0
440
 16777216
100
AcDbPoint
 10
3.1
 20
9.299666
 30
0.0
  0
POINT
  5
1D1
330
1C6
100
AcDbEntity
  8
Defpoints
 62
     0
440
 16777216
100
AcDbPoint
 10
3.1
 20
8.681245
 30
0.0
  0
ENDBLK
  5
1D2
330
1C6
100
AcDbEntity
  8
0
100
AcDbBlockEnd
  0
BLOCK
  5
1D5
330
1D4
100
AcDbEntity
  8
0
100
AcDbBlockBegin
  2
*D13
 70
     1
 10
0.0
 20
0.0
 30
0.0
  3
*D13
  1

  0
LINE
  5
1D6
330
1D4
100
AcDbEntity
  8
Dimensions
440
 16777216
370
    -2
100
AcDbLine
 10
3.1
 20
9.249666
 30
0.0
 11
3.1
 21
8.181432
 31
0.0
  0
LINE
  5
1D7
330
1D4
100
AcDbEntity
  8
Dimensions
440
 16777216
370
    -2
100
AcDbLine
 10
4.3
 20
9.249666
 30
0.0
 11
4.3
 21
8.181432
 31
0.0
  0
LINE
  5
1D8
330
1D4
100
AcDbEntity
  8
Dimensions
440
 16777216
370
    -2
100
AcDbLine
 10
3.22
 20
8.281432
 30
0.0
 11
3.496426
 21
8.281432
 31
0.0
  0
LINE
  5
1D9
330
1D4
100
AcDbEntity
  8
Dimensions
440
 16777216
370
    -2
100
AcDbLine
 10
4.18
 20
8.281432
 30
0.0
 11
3.903574
 21
8.281432
 31
0.0
  0
SOLID
  5
1DA
330
1D4
100
AcDbEntity
  8
Dimensions
440
 16777216
100
AcDbTrace
 10
3.22
 20
8.301432
 30
0.0
 11
3.22
 21
8.261432
 31
0.0
 12
3.1
 22
8.281432
 32
0.0
 13
3.1
 23
8.281432
 33
0.0
  0
SOLID
  5
1DB
330
1D4
100
AcDbEntity
  8
Dimensions
440
 16777216
100
AcDbTrace
 10
4.18
 20
8.301432
 30
0.0
 11
4.18
 21
8.261432
 31
0.0
 12
4.3
 22
8.281432
 32
0.0
 13
4.3
 23
8.281432
 33
0.0
  0
MTEXT
  5
1DC
330
1D4
100
AcDbEntity
  8
Dimensions
440
 16777216
100
AcDbMText
 10
3.7
 20
8.281432
 30
0.0
 40
0.12
 41
0.0
 46
0.0
 71
     5
 72
     1
  1
\A1;12in
 73
     1
 44
1.0
  0
POINT
  5
1DD
330
1D4
100
AcDbEntity
  8
Defpoints
 62
     0
440
 16777216
100
AcDbPoint
 10
3.1
 20
9.299666
 30
0.0
  0
POINT
  5
1DE
330
1D4
100
AcDbEntity
  8
Defpoints
 62
     0
440
 16777216
100
AcDbPoint
 10
4.3
 20
9.299666
 30
0.0
  0
POINT
  5
1DF
330
1D4
100
AcDbEntity
  8
Defpoints
 62
     0
440
 16777216
100
AcDbPoint
 10
4.3
 20
8.281432
 30
0.0
  0
ENDBLK
  5
1E0
330
1D4
100
AcDbEntity
  8
0
100
AcDbBlockEnd
  0
BLOCK
  5
1E3
330
1E2
100
AcDbEntity
  8
0
100
AcDbBlockBegin
  2
*D14
 70
     1
 10
0.0
 20
0.0
 30
0.0
  3
*D14
  1

  0
LINE
  5
42A
330
1E2
100
AcDbEntity
  8
Dimensions
440
 16777216
370
    -2
100
AcDbLine
 10
9.790618
 20
7.562517
 30
0.0
 11
11.0955
 21
7.562517
 31
0.0
  0
LINE
  5
42B
330
1E2
100
AcDbEntity
  8
Dimensions
440
 16777216
370
    -2
100
AcDbLine
 10
9.7906
 20
3.43748
 30
0.0
 11
11.0955
 21
3.43748
 31
0.0
  0
LINE
  5
42C
330
1E2
100
AcDbEntity
  8
Dimensions
440
 16777216
370
    -2
100
AcDbLine
 10
10.9955
 20
7.442517
 30
0.0
 11
10.9955
 21
5.621267
 31
0.0
  0
LINE
  5
42D
330
1E2
100
AcDbEntity
  8
Dimensions
440
 16777216
370
    -2
100
AcDbLine
 10
10.9955
 20
3.55748
 30
0.0
 11
10.9955
 21
5.37873
 31
0.0
  0
SOLID
  5
42E
330
1E2
100
AcDbEntity
  8
Dimensions
440
 16777216
100
AcDbTrace
 10
10.9755
 20
7.442517
 30
0.0
 11
11.0155
 21
7.442517
 31
0.0
 12
10.9955
 22
7.562517
 32
0.0
 13
10.9955
 23
7.562517
 33
0.0
  0
SOLID
  5
42F
330
1E2
100
AcDbEntity
  8
Dimensions
440
 16777216
100
AcDbTrace
 10
10.9755
 20
3.55748
 30
0.0
 11
11.0155
 21
3.55748
 31
0.0
 12
10.9955
 22
3.43748
 32
0.0
 13
10.9955
 23
3.43748
 33
0.0
  0
MTEXT
  5
430
330
1E2
100
AcDbEntity
  8
Dimensions
440
 16777216
100
AcDbMText
 10
10.9955
 20
5.499999
 30
0.0
 40
0.12
 41
0.0
 46
0.0
 71
     5
 72
     1
  1
\A1;4.125in
 73
     1
 44
1.0
  0
POINT
  5
431
330
1E2
100
AcDbEntity
  8
Defpoints
 62
     0
440
 16777216
100
AcDbPoint
 10
9.740618
 20
7.562517
 30
0.0
  0
POINT
  5
432
330
1E2
100
AcDbEntity
  8
Defpoints
 62
     0
440
 16777216
100
AcDbPoint
 10
9.7406
 20
3.43748
 30
0.0
  0
POINT
  5
433
330
1E2
100
AcDbEntity
  8
Defpoints
 62
     0
440
 16777216
100
AcDbPoint
 10
10.9955
 20
3.43748
 30
0.0
  0
ENDBLK
  5
1E4
330
1E2
100
AcDbEntity
  8
0
100
AcDbBlockEnd
  0
BLOCK
  5
1F0
330
1EF
100
AcDbEntity
  8
0
100
AcDbBlockBegin
  2
*D15
 70
     1
 10
0.0
 20
0.0
 30
0.0
  3
*D15
  1

  0
LINE
  5
434
330
1EF
100
AcDbEntity
  8
Dimensions
440
 16777216
370
    -2
100
AcDbLine
 10
9.041012
 20
4.187492
 30
0.0
 11
10.294545
 21
4.187492
 31
0.0
  0
LINE
  5
435
330
1EF
100
AcDbEntity
  8
Dimensions
440
 16777216
370
    -2
100
AcDbLine
 10
9.7906
 20
3.43748
 30
0.0
 11
10.294545
 21
3.43748
 31
0.0
  0
LINE
  5
436
330
1EF
100
AcDbEntity
  8
Dimensions
440
 16777216
370
    -2
100
AcDbLine
 10
10.194545
 20
4.067492
 30
0.0
 11
10.194545
 21
3.933509
 31
0.0
  0
LINE
  5
437
330
1EF
100
AcDbEntity
  8
Dimensions
440
 16777216
370
    -2
100
AcDbLine
 10
10.194545
 20
3.55748
 30
0.0
 11
10.194545
 21
3.691463
 31
0.0
  0
SOLID
  5
438
330
1EF
100
AcDbEntity
  8
Dimensions
440
 16777216
100
AcDbTrace
 10
10.174545
 20
4.067492
 30
0.0
 11
10.214545
 21
4.067492
 31
0.0
 12
10.194545
 22
4.187492
 32
0.0
 13
10.194545
 23
4.187492
 33
0.0
  0
SOLID
  5
439
330
1EF
100
AcDbEntity
  8
Dimensions
440
 16777216
100
AcDbTrace
 10
10.174545
 20
3.55748
 30
0.0
 11
10.214545
 21
3.55748
 31
0.0
 12
10.194545
 22
3.43748
 32
0.0
 13
10.194545
 23
3.43748
 33
0.0
  0
MTEXT
  5
43A
330
1EF
100
AcDbEntity
  8
Dimensions
440
 16777216
100
AcDbMText
 10
10.194545
 20
3.812486
 30
0.0
 40
0.12
 41
0.0
 46
0.0
 71
     5
 72
     1
  1
\A1;.75in
 73
     1
 44
1.0
  0
POINT
  5
43B
330
1EF
100
AcDbEntity
  8
Defpoints
 62
     0
440
 16777216
100
AcDbPoint
 10
8.991012
 20
4.187492
 30
0.0
  0
POINT
  5
43C
330
1EF
100
AcDbEntity
  8
Defpoints
 62
     0
440
 16777216
100
AcDbPoint
 10
9.7406
 20
3.43748
 30
0.0
  0
POINT
  5
43D
330
1EF
100
AcDbEntity
  8
Defpoints
 62
     0
440
 16777216
100
AcDbPoint
 10
10.194545
 20
3.43748
 30
0.0
  0
ENDBLK
  5
1F1
330
1EF
100
AcDbEntity
  8
0
100
AcDbBlockEnd
  0
BLOCK
  5
1FD
330
1FC
100
AcDbEntity
  8
0
100
AcDbBlockBegin
  2
*D16
 70
     1
 10
0.0
 20
0.0
 30
0.0
  3
*D16
  1

  0
LINE
  5
43E
330
1FC
100
AcDbEntity
  8
Dimensions
440
 16777216
370
    -2
100
AcDbLine
 10
8.812621
 20
4.137492
 30
0.0
 11
8.812621
 21
3.112659
 31
0.0
  0
LINE
  5
43F
330
1FC
100
AcDbEntity
  8
Dimensions
440
 16777216
370
    -2
100
AcDbLine
 10
8.187621
 20
4.137492
 30
0.0
 11
8.187621
 21
3.112659
 31
0.0
  0
LINE
  5
440
330
1FC
100
AcDbEntity
  8
Dimensions
440
 16777216
370
    -2
100
AcDbLine
 10
8.692621
 20
3.212659
 30
0.0
 11
8.307621
 21
3.212659
 31
0.0
  0
LINE
  5
441
330
1FC
100
AcDbEntity
  8
Dimensions
440
 16777216
370
    -2
100
AcDbLine
 10
8.187621
 20
3.212659
 30
0.0
 11
6.902287
 21
3.212659
 31
0.0
  0
SOLID
  5
442
330
1FC
100
AcDbEntity
  8
Dimensions
440
 16777216
100
AcDbTrace
 10
8.692621
 20
3.232659
 30
0.0
 11
8.692621
 21
3.192659
 31
0.0
 12
8.812621
 22
3.212659
 32
0.0
 13
8.812621
 23
3.212659
 33
0.0
  0
SOLID
  5
443
330
1FC
100
AcDbEntity
  8
Dimensions
440
 16777216
100
AcDbTrace
 10
8.307621
 20
3.232659
 30
0.0
 11
8.307621
 21
3.192659
 31
0.0
 12
8.187621
 22
3.212659
 32
0.0
 13
8.187621
 23
3.212659
 33
0.0
  0
MTEXT
  5
444
330
1FC
100
AcDbEntity
  8
Dimensions
440
 16777216
100
AcDbMText
 10
6.387212
 20
3.212659
 30
0.0
 40
0.12
 41
0.0
 46
0.0
 71
     5
 72
     1
  1
\A1;(10) %%C.625in
 73
     1
 44
1.0
  0
POINT
  5
445
330
1FC
100
AcDbEntity
  8
Defpoints
 62
     0
440
 16777216
100
AcDbPoint
 10
8.812621
 20
4.187492
 30
0.0
  0
POINT
  5
446
330
1FC
100
AcDbEntity
  8
Defpoints
 62
     0
440
 16777216
100
AcDbPoint
 10
8.187621
 20
4.187492
 30
0.0
  0
POINT
  5
447
330
1FC
100
AcDbEntity
  8
Defpoints
 62
     0
440
 16777216
100
AcDbPoint
 10
8.187621
 20
3.212659
 30
0.0
  0
ENDBLK
  5
1FE
330
1FC
100
AcDbEntity
  8
0
100
AcDbBlockEnd
  0
BLOCK
  5
20A
330
209
100
AcDbEntity
  8
0
100
AcDbBlockBegin
  2
*D17
 70
     1
 10
0.0
 20
0.0
 30
0.0
  3
*D17
  1

  0
LINE
  5
448
330
209
100
AcDbEntity
  8
Dimensions
440
 16777216
370
    -2
100
AcDbLine
 10
9.165815
 20
7.062517
 30
0.0
 11
10.467161
 21
7.062517
 31
0.0
  0
LINE
  5
449
330
209
100
AcDbEntity
  8
Dimensions
440
 16777216
370
    -2
100
AcDbLine
 10
9.041012
 20
4.187492
 30
0.0
 11
10.467161
 21
4.187492
 31
0.0
  0
LINE
  5
44A
330
209
100
AcDbEntity
  8
Dimensions
440
 16777216
370
    -2
100
AcDbLine
 10
10.367161
 20
6.942517
 30
0.0
 11
10.367161
 21
5.746273
 31
0.0
  0
LINE
  5
44B
330
209
100
AcDbEntity
  8
Dimensions
440
 16777216
370
    -2
100
AcDbLine
 10
10.367161
 20
4.307492
 30
0.0
 11
10.367161
 21
5.503736
 31
0.0
  0
SOLID
  5
44C
330
209
100
AcDbEntity
  8
Dimensions
440
 16777216
100
AcDbTrace
 10
10.347161
 20
6.942517
 30
0.0
 11
10.387161
 21
6.942517
 31
0.0
 12
10.367161
 22
7.062517
 32
0.0
 13
10.367161
 23
7.062517
 33
0.0
  0
SOLID
  5
44D
330
209
100
AcDbEntity
  8
Dimensions
440
 16777216
100
AcDbTrace
 10
10.347161
 20
4.307492
 30
0.0
 11
10.387161
 21
4.307492
 31
0.0
 12
10.367161
 22
4.187492
 32
0.0
 13
10.367161
 23
4.187492
 33
0.0
  0
MTEXT
  5
44E
330
209
100
AcDbEntity
  8
Dimensions
440
 16777216
100
AcDbMText
 10
10.367161
 20
5.625004
 30
0.0
 40
0.12
 41
0.0
 46
0.0
 71
     5
 72
     1
  1
\A1;2.875in
 73
     1
 44
1.0
  0
POINT
  5
44F
330
209
100
AcDbEntity
  8
Defpoints
 62
     0
440
 16777216
100
AcDbPoint
 10
9.115815
 20
7.062517
 30
0.0
  0
POINT
  5
450
330
209
100
AcDbEntity
  8
Defpoints
 62
     0
440
 16777216
100
AcDbPoint
 10
8.991012
 20
4.187492
 30
0.0
  0
POINT
  5
451
330
209
100
AcDbEntity
  8
Defpoints
 62
     0
440
 16777216
100
AcDbPoint
 10
10.367161
 20
4.187492
 30
0.0
  0
ENDBLK
  5
20B
330
209
100
AcDbEntity
  8
0
100
AcDbBlockEnd
  0
BLOCK
  5
217
330
216
100
AcDbEntity
  8
0
100
AcDbBlockBegin
  2
*D18
 70
     1
 10
0.0
 20
0.0
 30
0.0
  3
*D18
  1

  0
LINE
  5
452
330
216
100
AcDbEntity
  8
Dimensions
440
 16777216
370
    -2
100
AcDbLine
 10
7.249995
 20
3.396973
 30
0.0
 11
7.249994
 21
1.989328
 31
0.0
  0
LINE
  5
453
330
216
100
AcDbEntity
  8
Dimensions
440
 16777216
370
    -2
100
AcDbLine
 10
9.750005
 20
3.39697
 30
0.0
 11
9.750003
 21
1.989325
 31
0.0
  0
LINE
  5
454
330
216
100
AcDbEntity
  8
Dimensions
440
 16777216
370
    -2
100
AcDbLine
 10
7.369994
 20
2.089328
 30
0.0
 11
8.266465
 21
2.089327
 31
0.0
  0
LINE
  5
455
330
216
100
AcDbEntity
  8
Dimensions
440
 16777216
370
    -2
100
AcDbLine
 10
9.630003
 20
2.089325
 30
0.0
 11
8.733532
 21
2.089326
 31
0.0
  0
SOLID
  5
456
330
216
100
AcDbEntity
  8
Dimensions
440
 16777216
100
AcDbTrace
 10
7.369994
 20
2.109328
 30
0.0
 11
7.369994
 21
2.069328
 31
0.0
 12
7.249994
 22
2.089328
 32
0.0
 13
7.249994
 23
2.089328
 33
0.0
  0
SOLID
  5
457
330
216
100
AcDbEntity
  8
Dimensions
440
 16777216
100
AcDbTrace
 10
9.630003
 20
2.109325
 30
0.0
 11
9.630003
 21
2.069325
 31
0.0
 12
9.750003
 22
2.089325
 32
0.0
 13
9.750003
 23
2.089325
 33
0.0
  0
MTEXT
  5
458
330
216
100
AcDbEntity
  8
Dimensions
440
 16777216
100
AcDbMText
 10
8.499998
 20
2.089327
 30
0.0
 40
0.12
 41
0.0
 46
0.0
 71
     5
 72
     1
  1
\A1;2.5in
 73
     1
 44
1.0
  0
POINT
  5
459
330
216
100
AcDbEntity
  8
Defpoints
 62
     0
440
 16777216
100
AcDbPoint
 10
7.249995
 20
3.446973
 30
0.0
  0
POINT
  5
45A
330
216
100
AcDbEntity
  8
Defpoints
 62
     0
440
 16777216
100
AcDbPoint
 10
9.750005
 20
3.44697
 30
0.0
  0
POINT
  5
45B
330
216
100
AcDbEntity
  8
Defpoints
 62
     0
440
 16777216
100
AcDbPoint
 10
9.750003
 20
2.089325
 30
0.0
  0
ENDBLK
  5
218
330
216
100
AcDbEntity
  8
0
100
AcDbBlockEnd
  0
BLOCK
  5
224
330
223
100
AcDbEntity
  8
0
100
AcDbBlockBegin
  2
*D19
 70
     1
 10
0.0
 20
0.0
 30
0.0
  3
*D19
  1

  0
LINE
  5
45C
330
223
100
AcDbEntity
  8
Dimensions
440
 16777216
370
    -2
100
AcDbLine
 10
7.999979
 20
4.247557
 30
0.0
 11
7.999979
 21
6.662717
 31
0.0
  0
LINE
  5
45D
330
223
100
AcDbEntity
  8
Dimensions
440
 16777216
370
    -2
100
AcDbLine
 10
9.00008
 20
4.24719
 30
0.0
 11
9.00008
 21
6.662717
 31
0.0
  0
LINE
  5
45E
330
223
100
AcDbEntity
  8
Dimensions
440
 16777216
370
    -2
100
AcDbLine
 10
8.119979
 20
6.562717
 30
0.0
 11
8.343072
 21
6.562717
 31
0.0
  0
LINE
  5
45F
330
223
100
AcDbEntity
  8
Dimensions
440
 16777216
370
    -2
100
AcDbLine
 10
8.88008
 20
6.562717
 30
0.0
 11
8.656987
 21
6.562717
 31
0.0
  0
SOLID
  5
460
330
223
100
AcDbEntity
  8
Dimensions
440
 16777216
100
AcDbTrace
 10
8.119979
 20
6.582717
 30
0.0
 11
8.119979
 21
6.542717
 31
0.0
 12
7.999979
 22
6.562717
 32
0.0
 13
7.999979
 23
6.562717
 33
0.0
  0
SOLID
  5
461
330
223
100
AcDbEntity
  8
Dimensions
440
 16777216
100
AcDbTrace
 10
8.88008
 20
6.582717
 30
0.0
 11
8.88008
 21
6.542717
 31
0.0
 12
9.00008
 22
6.562717
 32
0.0
 13
9.00008
 23
6.562717
 33
0.0
  0
MTEXT
  5
462
330
223
100
AcDbEntity
  8
Dimensions
440
 16777216
100
AcDbMText
 10
8.50003
 20
6.562717
 30
0.0
 40
0.12
 41
0.0
 46
0.0
 71
     5
 72
     1
  1
\A1;1in
 73
     1
 44
1.0
  0
POINT
  5
463
330
223
100
AcDbEntity
  8
Defpoints
 62
     0
440
 16777216
100
AcDbPoint
 10
7.999979
 20
4.197557
 30
0.0
  0
POINT
  5
464
330
223
100
AcDbEntity
  8
Defpoints
 62
     0
440
 16777216
100
AcDbPoint
 10
9.00008
 20
4.19719
 30
0.0
  0
POINT
  5
465
330
223
100
AcDbEntity
  8
Defpoints
 62
     0
440
 16777216
100
AcDbPoint
 10
9.00008
 20
6.562717
 30
0.0
  0
ENDBLK
  5
225
330
223
100
AcDbEntity
  8
0
100
AcDbBlockEnd
  0
BLOCK
  5
231
330
230
100
AcDbEntity
  8
0
100
AcDbBlockBegin
  2
*D20
 70
     1
 10
0.0
 20
0.0
 30
0.0
  3
*D20
  1

  0
LINE
  5
466
330
230
100
AcDbEntity
  8
Dimensions
440
 16777216
370
    -2
100
AcDbLine
 10
14.5
 20
9.39968
 30
0.0
 11
14.5
 21
9.863059
 31
0.0
  0
LINE
  5
467
330
230
100
AcDbEntity
  8
Dimensions
440
 16777216
370
    -2
100
AcDbLine
 10
2.5
 20
9.39968
 30
0.0
 11
2.5
 21
9.863059
 31
0.0
  0
LINE
  5
468
330
230
100
AcDbEntity
  8
Dimensions
440
 16777216
370
    -2
100
AcDbLine
 10
14.38
 20
9.763059
 30
0.0
 11
8.750191
 21
9.763059
 31
0.0
  0
LINE
  5
469
330
230
100
AcDbEntity
  8
Dimensions
440
 16777216
370
    -2
100
AcDbLine
 10
2.62
 20
9.763059
 30
0.0
 11
8.249809
 21
9.763059
 31
0.0
  0
SOLID
  5
46A
330
230
100
AcDbEntity
  8
Dimensions
440
 16777216
100
AcDbTrace
 10
14.38
 20
9.783059
 30
0.0
 11
14.38
 21
9.743059
 31
0.0
 12
14.5
 22
9.763059
 32
0.0
 13
14.5
 23
9.763059
 33
0.0
  0
SOLID
  5
46B
330
230
100
AcDbEntity
  8
Dimensions
440
 16777216
100
AcDbTrace
 10
2.62
 20
9.783059
 30
0.0
 11
2.62
 21
9.743059
 31
0.0
 12
2.5
 22
9.763059
 32
0.0
 13
2.5
 23
9.763059
 33
0.0
  0
MTEXT
  5
46C
330
230
100
AcDbEntity
  8
Dimensions
440
 16777216
100
AcDbMText
 10
8.5
 20
9.763059
 30
0.0
 40
0.12
 41
0.0
 46
0.0
 71
     5
 72
     1
  1
\A1;120in
 73
     1
 44
1.0
  0
POINT
  5
46D
330
230
100
AcDbEntity
  8
Defpoints
 62
     0
440
 16777216
100
AcDbPoint
 10
14.5
 20
9.34968
 30
0.0
  0
POINT
  5
46E
330
230
100
AcDbEntity
  8
Defpoints
 62
     0
440
 16777216
100
AcDbPoint
 10
2.5
 20
9.34968
 30
0.0
  0
POINT
  5
46F
330
230
100
AcDbEntity
  8
Defpoints
 62
     0
440
 16777216
100
AcDbPoint
 10
2.5
 20
9.763059
 30
0.0
  0
ENDBLK
  5
232
330
230
100
AcDbEntity
  8
0
100
AcDbBlockEnd
  0
BLOCK
  5
23E
330
23D
100
AcDbEntity
  8
0
100
AcDbBlockBegin
  2
*D21
 70
     1
 10
0.0
 20
0.0
 30
0.0
  3
*D21
  1

  0
LINE
  5
470
330
23D
100
AcDbEntity
  8
Dimensions
440
 16777216
370
    -2
100
AcDbLine
 10
2.5
 20
9.200577
 30
0.0
 11
2.5
 21
8.581245
 31
0.0
  0
LINE
  5
471
330
23D
100
AcDbEntity
  8
Dimensions
440
 16777216
370
    -2
100
AcDbLine
 10
3.1
 20
9.249666
 30
0.0
 11
3.1
 21
8.581245
 31
0.0
  0
LINE
  5
472
330
23D
100
AcDbEntity
  8
Dimensions
440
 16777216
370
    -2
100
AcDbLine
 10
2.38
 20
8.681245
 30
0.0
 11
2.26
 21
8.681245
 31
0.0
  0
LINE
  5
473
330
23D
100
AcDbEntity
  8
Dimensions
440
 16777216
370
    -2
100
AcDbLine
 10
3.22
 20
8.681245
 30
0.0
 11
3.34
 21
8.681245
 31
0.0
  0
SOLID
  5
474
330
23D
100
AcDbEntity
  8
Dimensions
440
 16777216
100
AcDbTrace
 10
2.38
 20
8.701245
 30
0.0
 11
2.38
 21
8.661245
 31
0.0
 12
2.5
 22
8.681245
 32
0.0
 13
2.5
 23
8.681245
 33
0.0
  0
SOLID
  5
475
330
23D
100
AcDbEntity
  8
Dimensions
440
 16777216
100
AcDbTrace
 10
3.22
 20
8.701245
 30
0.0
 11
3.22
 21
8.661245
 31
0.0
 12
3.1
 22
8.681245
 32
0.0
 13
3.1
 23
8.681245
 33
0.0
  0
MTEXT
  5
476
330
23D
100
AcDbEntity
  8
Dimensions
440
 16777216
100
AcDbMText
 10
2.822721
 20
8.681245
 30
0.0
 40
0.12
 41
0.0
 46
0.0
 71
     5
 72
     1
  1
\A1;6in
 73
     1
 44
1.0
  0
POINT
  5
477
330
23D
100
AcDbEntity
  8
Defpoints
 62
     0
440
 16777216
100
AcDbPoint
 10
2.5
 20
9.250577
 30
0.0
  0
POINT
  5
478
330
23D
100
AcDbEntity
  8
Defpoints
 62
     0
440
 16777216
100
AcDbPoint
 10
3.1
 20
9.299666
 30
0.0
  0
POINT
  5
479
330
23D
100
AcDbEntity
  8
Defpoints
 62
     0
440
 16777216
100
AcDbPoint
 10
3.1
 20
8.681245
 30
0.0
  0
ENDBLK
  5
23F
330
23D
100
AcDbEntity
  8
0
100
AcDbBlockEnd
  0
BLOCK
  5
24B
330
24A
100
AcDbEntity
  8
0
100
AcDbBlockBegin
  2
*D22
 70
     1
 10
0.0
 20
0.0
 30
0.0
  3
*D22
  1

  0
LINE
  5
47A
330
24A
100
AcDbEntity
  8
Dimensions
440
 16777216
370
    -2
100
AcDbLine
 10
3.1
 20
9.249666
 30
0.0
 11
3.1
 21
8.181432
 31
0.0
  0
LINE
  5
47B
330
24A
100
AcDbEntity
  8
Dimensions
440
 16777216
370
    -2
100
AcDbLine
 10
4.3
 20
9.249666
 30
0.0
 11
4.3
 21
8.181432
 31
0.0
  0
LINE
  5
47C
330
24A
100
AcDbEntity
  8
Dimensions
440
 16777216
370
    -2
100
AcDbLine
 10
3.22
 20
8.281432
 30
0.0
 11
3.496426
 21
8.281432
 31
0.0
  0
LINE
  5
47D
330
24A
100
AcDbEntity
  8
Dimensions
440
 16777216
370
    -2
100
AcDbLine
 10
4.18
 20
8.281432
 30
0.0
 11
3.903574
 21
8.281432
 31
0.0
  0
SOLID
  5
47E
330
24A
100
AcDbEntity
  8
Dimensions
440
 16777216
100
AcDbTrace
 10
3.22
 20
8.301432
 30
0.0
 11
3.22
 21
8.261432
 31
0.0
 12
3.1
 22
8.281432
 32
0.0
 13
3.1
 23
8.281432
 33
0.0
  0
SOLID
  5
47F
330
24A
100
AcDbEntity
  8
Dimensions
440
 16777216
100
AcDbTrace
 10
4.18
 20
8.301432
 30
0.0
 11
4.18
 21
8.261432
 31
0.0
 12
4.3
 22
8.281432
 32
0.0
 13
4.3
 23
8.281432
 33
0.0
  0
MTEXT
  5
480
330
24A
100
AcDbEntity
  8
Dimensions
440
 16777216
100
AcDbMText
 10
3.7
 20
8.281432
 30
0.0
 40
0.12
 41
0.0
 46
0.0
 71
     5
 72
     1
  1
\A1;12in
 73
     1
 44
1.0
  0
POINT
  5
481
330
24A
100
AcDbEntity
  8
Defpoints
 62
     0
440
 16777216
100
AcDbPoint
 10
3.1
 20
9.299666
 30
0.0
  0
POINT
  5
482
330
24A
100
AcDbEntity
  8
Defpoints
 62
     0
440
 16777216
100
AcDbPoint
 10
4.3
 20
9.299666
 30
0.0
  0
POINT
  5
483
330
24A
100
AcDbEntity
  8
Defpoints
 62
     0
440
 16777216
100
AcDbPoint
 10
4.3
 20
8.281432
 30
0.0
  0
ENDBLK
  5
24C
330
24A
100
AcDbEntity
  8
0
100
AcDbBlockEnd
  0
ENDSEC
  0
SECTION
  2
ENTITIES
  0
INSERT
  5
11C
330
70
100
AcDbEntity
  8
Titleblock
100
AcDbBlockReference
 66
     1
  2
Shower
 10
16.38
 20
0.38
 30
0.0
  0
ATTRIB
  5
13C
330
11C
100
AcDbEntity
  8
Titleblock
  6
Continuous
370
    25
100
AcDbText
 10
12.6925
 20
2.6925
 30
0.0
 40
0.12
  1
Railing Products and Mock Ups
100
AcDbAttribute
280
     0
  2
PROJECT
 70
     0
280
     1
1001
FD_ATT_APPNAME
1005
12A
  0
ATTRIB
  5
13D
330
11C
100
AcDbEntity
  8
Titleblock
  6
Continuous
370
    25
100
AcDbText
 10
14.6925
 20
1.0675
 30
0.0
 40
0.12
  1
4/22/2021
100
AcDbAttribute
280
     0
  2
DRAWN_DATE
 70
     0
280
     1
1001
FD_ATT_APPNAME
1005
12C
  0
ATTRIB
  5
13E
330
11C
100
AcDbEntity
  8
Titleblock
  6
Continuous
370
    25
100
AcDbText
 10
12.0675
 20
2.1925
 30
0.0
 40
0.3048
  1
A42-0090AEY10D
100
AcDbAttribute
280
     0
  2
TITLE_1
 70
     0
280
     1
1001
FD_ATT_APPNAME
1005
12D
  0
ATTRIB
  5
13F
330
11C
100
AcDbEntity
  8
Titleblock
  6
Continuous
370
    25
100
AcDbText
 10
14.6925
 20
1.29994
 30
0.0
 40
0.12
  1
1:1
100
AcDbAttribute
280
     0
  2
SCALE
 70
     0
280
     1
1001
FD_ATT_APPNAME
1005
12E
  0
SEQEND
  5
140
330
11C
100
AcDbEntity
  8
Titleblock
  0
INSERT
  5
141
330
70
100
AcDbEntity
  8
Border
100
AcDbBlockReference
  2
ANSI_B_SHEET
 10
0.0
 20
0.0
 30
0.0
  0
DIMENSION
  5
162
330
70
100
AcDbEntity
  8
Dimensions
100
AcDbDimension
280
     0
  2
*D14
 10
10.9955
 20
3.43748
 30
0.0
 11
10.9955
 21
5.499999
 31
0.0
 70
    32
 71
     5
 42
4.125037
 73
     0
 74
     0
 75
     0
  3
Standard
100
AcDbAlignedDimension
 13
9.740618
 23
7.562517
 33
0.0
 14
9.7406
 24
3.43748
 34
0.0
 50
270.0
100
AcDbRotatedDimension
1001
ACAD_DIMASSOC_CALC_DIMLFAC
1040
-1.0
1001
ACAD_DIMASSOC_DIMLFAC
1040
-1.0
1001
ACAD_DIMASSOC_OVERRIDDEN_DIMLFAC
1040
0.0
1001
ACAD_DSTYLE_DIMJAG_POSITION
1070
   387
1070
     0
1070
   389
1010
0.0
1020
0.0
1030
0.0
1001
ACAD
1000
DSTYLE
1002
{
1070
   144
1040
1.0
1070
   176
1070
   256
1070
   177
1070
   256
1002
}
  0
DIMENSION
  5
171
330
70
100
AcDbEntity
  8
Dimensions
100
AcDbDimension
280
     0
  2
*D15
 10
10.194545
 20
3.43748
 30
0.0
 11
10.194545
 21
3.812486
 31
0.0
 70
   160
 71
     5
 42
0.750011
 73
     0
 74
     0
 75
     0
  3
Standard
100
AcDbAlignedDimension
 13
8.991012
 23
4.187492
 33
0.0
 14
9.7406
 24
3.43748
 34
0.0
 50
270.0
100
AcDbRotatedDimension
1001
ACAD_DIMASSOC_CALC_DIMLFAC
1040
-1.0
1001
ACAD_DIMASSOC_DIMLFAC
1040
-1.0
1001
ACAD_DIMASSOC_OVERRIDDEN_DIMLFAC
1040
0.0
1001
ACAD_DSTYLE_DIMJAG_POSITION
1070
   387
1070
     0
1070
   389
1010
0.0
1020
0.0
1030
0.0
1001
ACAD
1000
DSTYLE
1002
{
1070
   144
1040
1.0
1002
}
  0
DIMENSION
  5
17F
330
70
100
AcDbEntity
  8
Dimensions
100
AcDbDimension
280
     0
  2
*D16
 10
8.187621
 20
3.212659
 30
0.0
 11
6.387212
 21
3.212659
 31
0.0
 70
   161
  1
(10) %%C<>
 71
     5
 42
0.625
 73
     0
 74
     0
 75
     0
  3
Standard
100
AcDbAlignedDimension
 13
8.812621
 23
4.187492
 33
0.0
 14
8.187621
 24
4.187492
 34
0.0
1001
ACAD_DIMASSOC_CALC_DIMLFAC
1040
-1.0
1001
ACAD_DIMASSOC_DIMLFAC
1040
-1.0
1001
ACAD_DIMASSOC_OVERRIDDEN_DIMLFAC
1040
0.0
1001
ACAD_DSTYLE_DIMJAG_POSITION
1070
   387
1070
     0
1070
   389
1010
0.0
1020
0.0
1030
0.0
1001
ACAD
1000
DSTYLE
1002
{
1070
   144
1040
1.0
1002
}
  0
DIMENSION
  5
18D
330
70
100
AcDbEntity
  8
Dimensions
100
AcDbDimension
280
     0
  2
*D17
 10
10.367161
 20
4.187492
 30
0.0
 11
10.367161
 21
5.625004
 31
0.0
 70
    32
 71
     5
 42
2.875026
 73
     0
 74
     0
 75
     0
  3
Standard
100
AcDbAlignedDimension
 13
9.115815
 23
7.062517
 33
0.0
 14
8.991012
 24
4.187492
 34
0.0
 50
270.0
100
AcDbRotatedDimension
1001
ACAD_DIMASSOC_CALC_DIMLFAC
1040
-1.0
1001
ACAD_DIMASSOC_DIMLFAC
1040
-1.0
1001
ACAD_DIMASSOC_OVERRIDDEN_DIMLFAC
1040
0.0
1001
ACAD_DSTYLE_DIMJAG_POSITION
1070
   387
1070
     0
1070
   389
1010
0.0
1020
0.0
1030
0.0
1001
ACAD
1000
DSTYLE
1002
{
1070
   144
1040
1.0
1070
   176
1070
   256
1070
   177
1070
   256
1002
}
  0
DIMENSION
  5
19B
330
70
100
AcDbEntity
  8
Dimensions
100
AcDbDimension
280
     0
  2
*D18
 10
9.750003
 20
2.089325
 30
0.0
 11
8.499998
 21
2.089327
 31
0.0
 70
    33
 71
     5
 42
2.500009
 73
     0
 74
     0
 75
     0
  3
Standard
100
AcDbAlignedDimension
 13
7.249995
 23
3.446973
 33
0.0
 14
9.750005
 24
3.44697
 34
0.0
1001
ACAD_DIMASSOC_CALC_DIMLFAC
1040
-1.0
1001
ACAD_DIMASSOC_DIMLFAC
1040
-1.0
1001
ACAD_DIMASSOC_OVERRIDDEN_DIMLFAC
1040
0.0
1001
ACAD_DSTYLE_DIMJAG_POSITION
1070
   387
1070
     0
1070
   389
1010
0.0
1020
0.0
1030
0.0
1001
ACAD
1000
DSTYLE
1002
{
1070
   177
1070
   256
1070
   176
1070
   256
1070
   144
1040
1.0
1002
}
  0
DIMENSION
  5
1A9
330
70
100
AcDbEntity
  8
Dimensions
100
AcDbDimension
280
     0
  2
*D19
 10
9.00008
 20
6.562717
 30
0.0
 11
8.50003
 21
6.562717
 31
0.0
 70
   160
 71
     5
 42
1.000101
 73
     0
 74
     0
 75
     0
  3
Standard
100
AcDbAlignedDimension
 13
7.999979
 23
4.197557
 33
0.0
 14
9.00008
 24
4.19719
 34
0.0
 50
180.0
100
AcDbRotatedDimension
1001
ACAD_DIMASSOC_CALC_DIMLFAC
1040
-1.0
1001
ACAD_DIMASSOC_DIMLFAC
1040
-1.0
1001
ACAD_DIMASSOC_OVERRIDDEN_DIMLFAC
1040
0.0
1001
ACAD_DSTYLE_DIMJAG_POSITION
1070
   387
1070
     0
1070
   389
1010
0.0
1020
0.0
1030
0.0
1001
ACAD
1000
DSTYLE
1002
{
1070
   144
1040
1.0
1002
}
  0
DIMENSION
  5
1B7
330
70
100
AcDbEntity
  8
Dimensions
100
AcDbDimension
280
     0
  2
*D20
 10
2.5
 20
9.763059
 30
0.0
 11
8.5
 21
9.763059
 31
0.0
 70
    33
 71
     5
 42
120.0
 73
     0
 74
     0
 75
     0
  3
Standard
100
AcDbAlignedDimension
 13
14.5
 23
9.34968
 33
0.0
 14
2.5
 24
9.34968
 34
0.0
1001
ACAD_DIMASSOC_CALC_DIMLFAC
1040
-10.0
1001
ACAD_DIMASSOC_DIMLFAC
1040
-10.0
1001
ACAD_DIMASSOC_OVERRIDDEN_DIMLFAC
1040
0.0
1001
ACAD_DSTYLE_DIMJAG_POSITION
1070
   387
1070
     0
1070
   389
1010
0.0
1020
0.0
1030
0.0
1001
ACAD
1000
DSTYLE
1002
{
1070
   144
1040
10.0
1070
   176
1070
   256
1070
   177
1070
   256
1002
}
  0
DIMENSION
  5
1C5
330
70
100
AcDbEntity
  8
Dimensions
100
AcDbDimension
280
     0
  2
*D21
 10
3.1
 20
8.681245
 30
0.0
 11
2.822721
 21
8.681245
 31
0.0
 70
   160
 71
     5
 42
6.0
 73
     0
 74
     0
 75
     0
  3
Standard
100
AcDbAlignedDimension
 13
2.5
 23
9.250577
 33
0.0
 14
3.1
 24
9.299666
 34
0.0
100
AcDbRotatedDimension
1001
ACAD_DIMASSOC_CALC_DIMLFAC
1040
-10.0
1001
ACAD_DIMASSOC_DIMLFAC
1040
-10.0
1001
ACAD_DIMASSOC_OVERRIDDEN_DIMLFAC
1040
0.0
1001
ACAD_DSTYLE_DIMJAG_POSITION
1070
   387
1070
     0
1070
   389
1010
0.0
1020
0.0
1030
0.0
1001
ACAD
1000
DSTYLE
1002
{
1070
   144
1040
10.0
1002
}
  0
DIMENSION
  5
1D3
330
70
100
AcDbEntity
  8
Dimensions
100
AcDbDimension
280
     0
  2
*D22
 10
4.3
 20
8.281432
 30
0.0
 11
3.7
 21
8.281432
 31
0.0
 70
    33
 71
     5
 42
12.0
 73
     0
 74
     0
 75
     0
  3
Standard
100
AcDbAlignedDimension
 13
3.1
 23
9.299666
 33
0.0
 14
4.3
 24
9.299666
 34
0.0
1001
ACAD_DIMASSOC_CALC_DIMLFAC
1040
-10.0
1001
ACAD_DIMASSOC_DIMLFAC
1040
-10.0
1001
ACAD_DIMASSOC_OVERRIDDEN_DIMLFAC
1040
0.0
1001
ACAD_DSTYLE_DIMJAG_POSITION
1070
   387
1070
     0
1070
   389
1010
0.0
1020
0.0
1030
0.0
1001
ACAD
1000
DSTYLE
1002
{
1070
   177
1070
   256
1070
   176
1070
   256
1070
   144
1040
10.0
1002
}
  0
LINE
  5
366
330
70
100
AcDbEntity
  8
Visible
100
AcDbLine
 10
7.999979
 20
4.197557
 30
60.0
 11
7.999979
 21
7.052864
 31
60.0
210
0.0
220
1.0
230
0.0
  0
ARC
  5
367
330
70
100
AcDbEntity
  8
Visible
100
AcDbCircle
 10
7.989984
 20
7.052537
 30
60.0
 40
0.0100007627037231
100
AcDbArc
 50
1.876254
 51
86.364973
  0
LINE
  5
368
330
70
100
AcDbEntity
  8
Visible
100
AcDbLine
 10
7.990618
 20
7.062517
 30
60.0
 11
7.884319
 21
7.062517
 31
60.0
210
0.0
220
1.0
230
0.0
  0
ARC
  5
369
330
70
100
AcDbEntity
  8
Visible
100
AcDbCircle
 10
-7.885059
 20
7.072526
 30
-60.0
 40
0.0100363361689766
210
0.0000000000000001
220
0.0
230
-1.0
100
AcDbArc
 50
274.229308
 51
4.733351
  0
LINE
  5
36A
330
70
100
AcDbEntity
  8
Visible
100
AcDbLine
 10
7.875057
 20
7.073355
 30
60.0
 11
7.937862
 21
7.550706
 31
60.0
210
0.0
220
1.0
230
0.0
  0
ARC
  5
36B
330
70
100
AcDbEntity
  8
Visible
100
AcDbCircle
 10
7.927947
 20
7.552459
 30
60.0
 40
0.010069287644258
100
AcDbArc
 50
349.976125
 51
87.332723
  0
LINE
  5
36C
330
70
100
AcDbEntity
  8
Visible
100
AcDbLine
 10
7.928415
 20
7.562517
 30
60.0
 11
7.260303
 21
7.562517
 31
60.0
210
0.0
220
1.0
230
0.0
  0
ARC
  5
36D
330
70
100
AcDbEntity
  8
Visible
100
AcDbCircle
 10
7.260078
 20
7.552492
 30
60.0
 40
0.0100278337235914
100
AcDbArc
 50
88.714476
 51
176.704304
  0
LINE
  5
36E
330
70
100
AcDbEntity
  8
Visible
100
AcDbLine
 10
7.250067
 20
7.553069
 30
60.0
 11
7.249995
 21
3.446973
 31
60.0
210
0.0
220
1.0
230
0.0
  0
ARC
  5
36F
330
70
100
AcDbEntity
  8
Visible
100
AcDbCircle
 10
7.260059
 20
3.447546
 30
60.0
 40
0.0100804550464502
100
AcDbArc
 50
183.258153
 51
266.907247
  0
LINE
  5
370
330
70
100
AcDbEntity
  8
Visible
100
AcDbLine
 10
7.259516
 20
3.43748
 30
60.0
 11
9.7406
 21
3.43748
 31
60.0
210
0.0
220
1.0
230
0.0
  0
ARC
  5
371
330
70
100
AcDbEntity
  8
Visible
100
AcDbCircle
 10
9.739946
 20
3.447534
 30
60.0
 40
0.010074712645759
100
AcDbArc
 50
273.72597
 51
356.794421
  0
LINE
  5
372
330
70
100
AcDbEntity
  8
Visible
100
AcDbLine
 10
9.750005
 20
3.44697
 30
60.0
 11
9.750005
 21
7.552881
 31
60.0
210
0.0
220
1.0
230
0.0
  0
ARC
  5
373
330
70
100
AcDbEntity
  8
Visible
100
AcDbCircle
 10
9.739963
 20
7.552489
 30
60.0
 40
0.0100494263365676
100
AcDbArc
 50
2.234733
 51
86.26204
  0
LINE
  5
374
330
70
100
AcDbEntity
  8
Visible
100
AcDbLine
 10
9.740618
 20
7.562517
 30
60.0
 11
9.07172
 21
7.562517
 31
60.0
210
0.0
220
1.0
230
0.0
  0
ARC
  5
375
330
70
100
AcDbEntity
  8
Visible
100
AcDbCircle
 10
9.072039
 20
7.552491
 30
60.0
 40
0.0100318291004125
100
AcDbArc
 50
91.818027
 51
185.341446
  0
LINE
  5
376
330
70
100
AcDbEntity
  8
Visible
100
AcDbLine
 10
9.06205
 20
7.551557
 30
60.0
 11
9.12488
 21
7.074103
 31
60.0
210
0.0
220
1.0
230
0.0
  0
ARC
  5
377
330
70
100
AcDbEntity
  8
Visible
100
AcDbCircle
 10
-9.114978
 20
7.072512
 30
-60.0
 40
0.0100294263161799
210
0.0000000000000001
220
0.0
230
-1.0
100
AcDbArc
 50
170.868778
 51
265.21383
  0
LINE
  5
378
330
70
100
AcDbEntity
  8
Visible
100
AcDbLine
 10
9.115815
 20
7.062517
 30
60.0
 11
9.009516
 21
7.062517
 31
60.0
210
0.0
220
1.0
230
0.0
  0
ARC
  5
379
330
70
100
AcDbEntity
  8
Visible
100
AcDbCircle
 10
9.010097
 20
7.052501
 30
60.0
 40
0.010033073784844
100
AcDbArc
 50
93.321434
 51
176.758019
  0
LINE
  5
37A
330
70
100
AcDbEntity
  8
Visible
100
AcDbLine
 10
9.00008
 20
7.053069
 30
60.0
 11
9.00008
 21
4.19719
 31
60.0
210
0.0
220
1.0
230
0.0
  0
ARC
  5
37B
330
70
100
AcDbEntity
  8
Visible
100
AcDbCircle
 10
-8.990023
 20
4.197505
 30
-60.0
 40
0.0100618064724624
210
0.0000000000000001
220
0.0
230
-1.0
100
AcDbArc
 50
181.792746
 51
264.361039
  0
LINE
  5
37C
330
70
100
AcDbEntity
  8
Visible
100
AcDbLine
 10
8.991012
 20
4.187492
 30
60.0
 11
8.00923
 21
4.187492
 31
60.0
210
0.0
220
1.0
230
0.0
  0
ARC
  5
37D
330
70
100
AcDbEntity
  8
Visible
100
AcDbCircle
 10
-8.009994
 20
4.197478
 30
-60.0
 40
0.0100154261349262
210
0.0000000000000001
220
0.0
230
-1.0
100
AcDbArc
 50
274.376617
 51
0.45072
  0
LINE
  5
37E
330
70
100
AcDbEntity
  8
Hidden
100
AcDbLine
 10
8.812621
 20
4.187492
 30
54.0
 11
8.812621
 21
3.43748
 31
54.0
210
0.0
220
1.0
230
0.0
  0
LINE
  5
37F
330
70
100
AcDbEntity
  8
Hidden
100
AcDbLine
 10
8.187621
 20
4.187492
 30
54.0
 11
8.187621
 21
3.43748
 31
54.0
210
0.0
220
1.0
230
0.0
  0
LINE
  5
380
330
70
100
AcDbEntity
  8
Visible
100
AcDbLine
 10
14.5
 20
9.424671
 30
0.205307
 11
14.5
 21
9.424678
 31
-0.205303
  0
ARC
  5
381
330
70
100
AcDbEntity
  8
Visible
100
AcDbCircle
 10
-9.42367
 20
0.205249
 30
-14.5
 40
0.0010027833723591
210
-1.0
220
0.0000000000000002
230
0.0
100
AcDbArc
 50
88.714476
 51
176.704304
  0
LINE
  5
382
330
70
100
AcDbEntity
  8
Visible
100
AcDbLine
 10
14.5
 20
9.356836
 30
0.206252
 11
14.5
 21
9.423648
 31
0.206252
  0
ARC
  5
383
330
70
100
AcDbEntity
  8
Visible
100
AcDbCircle
 10
-9.356883
 20
0.205246
 30
-14.5
 40
0.0010069287644258
210
-1.0
220
0.0000000000000002
230
0.0
100
AcDbArc
 50
0.0
 51
87.332723
  0
LINE
  5
384
330
70
100
AcDbEntity
  8
Visible
100
AcDbLine
 10
14.5
 20
9.350616
 30
0.156252
 11
14.5
 21
9.355876
 31
0.156252
  0
ARC
  5
385
330
70
100
AcDbEntity
  8
Visible
100
AcDbCircle
 10
-9.350679
 20
0.155254
 30
-14.5
 40
0.0010000762703723
210
-1.0
220
0.0000000000000002
230
0.0
100
AcDbArc
 50
1.876254
 51
86.364973
  0
ARC
  5
386
330
70
100
AcDbEntity
  8
Visible
100
AcDbCircle
 10
9.348678
 20
-0.130252
 30
14.5
 40
0.0010015426134926
210
1.0
220
-0.0000000000000002
230
0.0
100
AcDbArc
 50
274.376617
 51
359.54928
  0
ARC
  5
387
330
70
100
AcDbEntity
  8
Hidden
100
AcDbCircle
 10
9.348678
 20
-0.130252
 30
14.5
 40
0.0010015426136005
210
1.0
220
-0.0000000000000002
230
0.0
100
AcDbArc
 50
0.0
 51
0.45072
  0
LINE
  5
388
330
70
100
AcDbEntity
  8
Visible
100
AcDbLine
 10
14.5
 20
9.250577
 30
-0.131251
 11
14.5
 21
9.348755
 31
-0.131251
  0
ARC
  5
389
330
70
100
AcDbEntity
  8
Visible
100
AcDbCircle
 10
9.250676
 20
-0.13025
 30
14.5
 40
0.0010061806472462
210
1.0
220
-0.0000000000000002
230
0.0
100
AcDbArc
 50
181.792746
 51
264.361039
  0
ARC
  5
38A
330
70
100
AcDbEntity
  8
Visible
100
AcDbCircle
 10
-9.248668
 20
0.15525
 30
-14.5
 40
0.0010033073784844
210
-1.0
220
0.0000000000000002
230
0.0
100
AcDbArc
 50
93.321434
 51
176.758019
  0
LINE
  5
38B
330
70
100
AcDbEntity
  8
Visible
100
AcDbLine
 10
14.5
 20
9.243477
 30
0.156252
 11
14.5
 21
9.248726
 31
0.156252
  0
ARC
  5
38C
330
70
100
AcDbEntity
  8
Visible
100
AcDbCircle
 10
-9.242474
 20
0.205249
 30
-14.5
 40
0.0010031829100412
210
-1.0
220
0.0000000000000002
230
0.0
100
AcDbArc
 50
91.818027
 51
180.0
  0
LINE
  5
38D
330
70
100
AcDbEntity
  8
Visible
100
AcDbLine
 10
14.5
 20
9.175616
 30
0.206252
 11
14.5
 21
9.242506
 31
0.206252
  0
ARC
  5
38E
330
70
100
AcDbEntity
  8
Visible
100
AcDbCircle
 10
-9.175682
 20
0.205249
 30
-14.5
 40
0.0010049426336568
210
-1.0
220
0.0000000000000002
230
0.0
100
AcDbArc
 50
2.234733
 51
86.26204
  0
LINE
  5
38F
330
70
100
AcDbEntity
  8
Visible
100
AcDbLine
 10
14.5
 20
9.34968
 30
0.155286
 11
2.5
 21
9.34968
 31
0.155286
  0
LINE
  5
390
330
70
100
AcDbEntity
  8
Visible
100
AcDbLine
 10
14.5
 20
9.350616
 30
0.156252
 11
2.5
 21
9.350616
 31
0.156252
  0
ARC
  5
391
330
70
100
AcDbEntity
  8
Visible
100
AcDbCircle
 10
-9.350679
 20
0.155254
 30
-2.5
 40
0.0010000762703723
210
-1.0
220
0.0000000000000002
230
0.0
100
AcDbArc
 50
1.876254
 51
86.364973
  0
LINE
  5
392
330
70
100
AcDbEntity
  8
Hidden
100
AcDbLine
 10
14.5
 20
9.361246
 30
0.156252
 11
2.5
 21
9.361246
 31
0.156252
  0
LINE
  5
393
330
70
100
AcDbEntity
  8
Visible
100
AcDbLine
 10
2.5
 20
9.350616
 30
0.156252
 11
2.5
 21
9.355876
 31
0.156252
  0
LINE
  5
394
330
70
100
AcDbEntity
  8
Hidden
100
AcDbLine
 10
14.5
 20
9.362172
 30
0.157335
 11
2.5
 21
9.362172
 31
0.157335
  0
LINE
  5
395
330
70
100
AcDbEntity
  8
Hidden
100
AcDbLine
 10
14.5
 20
9.355892
 30
0.205071
 11
2.5
 21
9.355892
 31
0.205071
  0
LINE
  5
396
330
70
100
AcDbEntity
  8
Visible
100
AcDbLine
 10
14.5
 20
9.356836
 30
0.206252
 11
2.5
 21
9.356836
 31
0.206252
  0
ARC
  5
397
330
70
100
AcDbEntity
  8
Visible
100
AcDbCircle
 10
-9.356883
 20
0.205246
 30
-2.5
 40
0.0010069287644258
210
-1.0
220
0.0000000000000002
230
0.0
100
AcDbArc
 50
0.0
 51
87.332723
  0
LINE
  5
398
330
70
100
AcDbEntity
  8
Visible
100
AcDbLine
 10
14.5
 20
9.423648
 30
0.206252
 11
2.5
 21
9.423648
 31
0.206252
  0
LINE
  5
399
330
70
100
AcDbEntity
  8
Visible
100
AcDbLine
 10
2.5
 20
9.356836
 30
0.206252
 11
2.5
 21
9.423648
 31
0.206252
  0
LINE
  5
39A
330
70
100
AcDbEntity
  8
Visible
100
AcDbLine
 10
14.5
 20
9.424671
 30
0.205307
 11
2.5
 21
9.424671
 31
0.205307
  0
ARC
  5
39B
330
70
100
AcDbEntity
  8
Visible
100
AcDbCircle
 10
-9.42367
 20
0.205249
 30
-2.5
 40
0.0010027833723591
210
-1.0
220
0.0000000000000002
230
0.0
100
AcDbArc
 50
88.714476
 51
176.704304
  0
LINE
  5
39C
330
70
100
AcDbEntity
  8
Visible
100
AcDbLine
 10
14.5
 20
9.424678
 30
-0.205303
 11
2.5
 21
9.424678
 31
-0.205303
  0
LINE
  5
39D
330
70
100
AcDbEntity
  8
Visible
100
AcDbLine
 10
2.5
 20
9.424671
 30
0.205307
 11
2.5
 21
9.424678
 31
-0.205303
  0
LINE
  5
39E
330
70
100
AcDbEntity
  8
Hidden
100
AcDbLine
 10
14.5
 20
9.423726
 30
-0.206252
 11
2.5
 21
9.423726
 31
-0.206252
  0
LINE
  5
39F
330
70
100
AcDbEntity
  8
Hidden
100
AcDbLine
 10
14.5
 20
9.175618
 30
-0.206252
 11
2.5
 21
9.175618
 31
-0.206252
  0
CIRCLE
  5
3A0
330
70
100
AcDbEntity
  8
Visible
100
AcDbCircle
 10
-13.9
 20
9.299666
 30
0.131251
 40
0.0312499999999996
210
0.0000000000000002
220
0.0
230
-1.0
  0
CIRCLE
  5
3A1
330
70
100
AcDbEntity
  8
Visible
100
AcDbCircle
 10
-12.7
 20
9.299666
 30
0.131251
 40
0.0312499999999996
210
0.0000000000000002
220
0.0
230
-1.0
  0
CIRCLE
  5
3A2
330
70
100
AcDbEntity
  8
Visible
100
AcDbCircle
 10
-11.5
 20
9.299666
 30
0.131251
 40
0.0312499999999996
210
0.0000000000000002
220
0.0
230
-1.0
  0
CIRCLE
  5
3A3
330
70
100
AcDbEntity
  8
Visible
100
AcDbCircle
 10
-10.3
 20
9.299666
 30
0.131251
 40
0.0312499999999996
210
0.0000000000000002
220
0.0
230
-1.0
  0
CIRCLE
  5
3A4
330
70
100
AcDbEntity
  8
Visible
100
AcDbCircle
 10
-9.1
 20
9.299666
 30
0.131251
 40
0.0312499999999996
210
0.0000000000000002
220
0.0
230
-1.0
  0
CIRCLE
  5
3A5
330
70
100
AcDbEntity
  8
Visible
100
AcDbCircle
 10
-7.9
 20
9.299666
 30
0.131251
 40
0.0312499999999996
210
0.0000000000000002
220
0.0
230
-1.0
  0
CIRCLE
  5
3A6
330
70
100
AcDbEntity
  8
Visible
100
AcDbCircle
 10
-6.7
 20
9.299666
 30
0.131251
 40
0.0312499999999996
210
0.0000000000000002
220
0.0
230
-1.0
  0
CIRCLE
  5
3A7
330
70
100
AcDbEntity
  8
Visible
100
AcDbCircle
 10
-5.5
 20
9.299666
 30
0.131251
 40
0.0312499999999996
210
0.0000000000000002
220
0.0
230
-1.0
  0
CIRCLE
  5
3A8
330
70
100
AcDbEntity
  8
Visible
100
AcDbCircle
 10
-4.3
 20
9.299666
 30
0.131251
 40
0.0312499999999996
210
0.0000000000000002
220
0.0
230
-1.0
  0
CIRCLE
  5
3A9
330
70
100
AcDbEntity
  8
Visible
100
AcDbCircle
 10
-3.1
 20
9.299666
 30
0.131251
 40
0.0312499999999996
210
0.0000000000000002
220
0.0
230
-1.0
  0
ARC
  5
3AA
330
70
100
AcDbEntity
  8
Visible
100
AcDbCircle
 10
-9.175682
 20
0.205249
 30
-2.5
 40
0.0010049426336568
210
-1.0
220
0.0000000000000002
230
0.0
100
AcDbArc
 50
2.234733
 51
86.26204
  0
LINE
  5
3AB
330
70
100
AcDbEntity
  8
Visible
100
AcDbLine
 10
2.5
 20
9.175616
 30
0.206252
 11
2.5
 21
9.242506
 31
0.206252
  0
ARC
  5
3AC
330
70
100
AcDbEntity
  8
Visible
100
AcDbCircle
 10
-9.242474
 20
0.205249
 30
-2.5
 40
0.0010031829100412
210
-1.0
220
0.0000000000000002
230
0.0
100
AcDbArc
 50
91.818027
 51
180.0
  0
LINE
  5
3AD
330
70
100
AcDbEntity
  8
Visible
100
AcDbLine
 10
2.5
 20
9.243477
 30
0.156252
 11
2.5
 21
9.248726
 31
0.156252
  0
ARC
  5
3AE
330
70
100
AcDbEntity
  8
Visible
100
AcDbCircle
 10
-9.248668
 20
0.15525
 30
-2.5
 40
0.0010033073784844
210
-1.0
220
0.0000000000000002
230
0.0
100
AcDbArc
 50
93.321434
 51
176.758019
  0
ARC
  5
3AF
330
70
100
AcDbEntity
  8
Visible
100
AcDbCircle
 10
9.250676
 20
-0.13025
 30
2.5
 40
0.0010061806472462
210
1.0
220
-0.0000000000000002
230
0.0
100
AcDbArc
 50
181.792746
 51
264.361039
  0
LINE
  5
3B0
330
70
100
AcDbEntity
  8
Visible
100
AcDbLine
 10
2.5
 20
9.250577
 30
-0.131251
 11
2.5
 21
9.348755
 31
-0.131251
  0
ARC
  5
3B1
330
70
100
AcDbEntity
  8
Visible
100
AcDbCircle
 10
9.348678
 20
-0.130252
 30
2.5
 40
0.0010015426134926
210
1.0
220
-0.0000000000000002
230
0.0
100
AcDbArc
 50
274.376617
 51
359.54928
  0
ARC
  5
3B2
330
70
100
AcDbEntity
  8
Hidden
100
AcDbCircle
 10
9.348678
 20
-0.130252
 30
2.5
 40
0.0010015426135994
210
1.0
220
-0.0000000000000002
230
0.0
100
AcDbArc
 50
0.0
 51
0.45072
  0
LINE
  5
3B3
330
70
100
AcDbEntity
  8
Visible
100
AcDbLine
 10
14.5
 20
9.348755
 30
-0.131251
 11
2.5
 21
9.348755
 31
-0.131251
  0
LINE
  5
3B4
330
70
100
AcDbEntity
  8
Visible
100
AcDbLine
 10
14.5
 20
9.250577
 30
-0.131251
 11
2.5
 21
9.250577
 31
-0.131251
  0
LINE
  5
3B5
330
70
100
AcDbEntity
  8
Visible
100
AcDbLine
 10
14.5
 20
9.24967
 30
0.155307
 11
2.5
 21
9.24967
 31
0.155307
  0
LINE
  5
3B6
330
70
100
AcDbEntity
  8
Visible
100
AcDbLine
 10
14.5
 20
9.248726
 30
0.156252
 11
2.5
 21
9.248726
 31
0.156252
  0
LINE
  5
3B7
330
70
100
AcDbEntity
  8
Hidden
100
AcDbLine
 10
14.5
 20
9.238096
 30
0.156252
 11
2.5
 21
9.238096
 31
0.156252
  0
LINE
  5
3B8
330
70
100
AcDbEntity
  8
Hidden
100
AcDbLine
 10
14.5
 20
9.23719
 30
0.15741
 11
2.5
 21
9.23719
 31
0.15741
  0
LINE
  5
3B9
330
70
100
AcDbEntity
  8
Hidden
100
AcDbLine
 10
14.5
 20
9.243473
 30
0.205156
 11
2.5
 21
9.243473
 31
0.205156
  0
LINE
  5
3BA
330
70
100
AcDbEntity
  8
Visible
100
AcDbLine
 10
14.5
 20
9.242506
 30
0.206252
 11
2.5
 21
9.242506
 31
0.206252
  0
LINE
  5
3BB
330
70
100
AcDbEntity
  8
Visible
100
AcDbLine
 10
14.5
 20
9.175616
 30
0.206252
 11
2.5
 21
9.175616
 31
0.206252
  0
LINE
  5
3BC
330
70
100
AcDbEntity
  8
Visible
100
AcDbLine
 10
14.5
 20
9.174677
 30
0.205288
 11
2.5
 21
9.174677
 31
0.205288
  0
LINE
  5
3BD
330
70
100
AcDbEntity
  8
Hidden
100
AcDbLine
 10
14.5
 20
9.362176
 30
0.157253
 11
2.5
 21
9.362176
 31
0.157253
  0
LINE
  5
3BE
330
70
100
AcDbEntity
  8
Visible
100
AcDbLine
 10
14.5
 20
9.355876
 30
0.205246
 11
2.5
 21
9.355876
 31
0.205246
  0
LINE
  5
3BF
330
70
100
AcDbEntity
  8
Hidden
100
AcDbLine
 10
14.5
 20
9.237177
 30
0.157251
 11
2.5
 21
9.237177
 31
0.157251
  0
LINE
  5
3C0
330
70
100
AcDbEntity
  8
Visible
100
AcDbLine
 10
14.5
 20
9.243477
 30
0.205249
 11
2.5
 21
9.243477
 31
0.205249
  0
ENDSEC
  0
SECTION
  2
OBJECTS
  0
DICTIONARY
  5
C
330
0
100
AcDbDictionary
281
     1
  3
ACAD_COLOR
350
63
  3
ACAD_DETAILVIEWSTYLE
350
6A
  3
ACAD_GROUP
350
D
  3
ACAD_IMAGE_DICT
350
125
  3
ACAD_IMAGE_VARS
350
127
  3
ACAD_LAYOUT
350
62
  3
ACAD_MATERIAL
350
10
  3
ACAD_MLEADERSTYLE
350
66
  3
ACAD_MLINESTYLE
350
5F
  3
ACAD_PLOTSETTINGS
350
61
  3
ACAD_PLOTSTYLENAME
350
E
  3
ACAD_SCALELIST
350
42
  3
ACAD_SECTIONVIEWSTYLE
350
68
  3
ACAD_TABLESTYLE
350
64
  3
ACAD_VISUALSTYLE
350
29
  3
ACDB_RECOMPOSE_DATA
350
425
  3
AcDbVariableDictionary
350
41C
  0
DICTIONARY
  5
B1
330
70
100
AcDbDictionary
280
     1
281
     1
  3
ACAD_SORTENTS
360
11B
  0
DICTIONARY
  5
11F
330
11E
100
AcDbDictionary
280
     1
281
     1
  3
ACAD_SORTENTS
360
365
  0
IMAGEDEF_REACTOR
  5
126
330
123
100
AcDbRasterImageDefReactor
 90
        2
330
123
  0
DICTIONARY
  5
63
102
{ACAD_REACTORS
330
C
102
}
330
C
100
AcDbDictionary
281
     1
  0
DICTIONARY
  5
6A
102
{ACAD_REACTORS
330
C
102
}
330
C
100
AcDbDictionary
281
     1
  3
Imperial24
350
6B
  0
DICTIONARY
  5
D
102
{ACAD_REACTORS
330
C
102
}
330
C
100
AcDbDictionary
281
     1
  0
DICTIONARY
  5
125
102
{ACAD_REACTORS
330
C
102
}
330
C
100
AcDbDictionary
281
     1
  3
morse_logo-16 (1)_01-2018(B)_1_1
350
124
  0
RASTERVARIABLES
  5
127
102
{ACAD_REACTORS
330
C
102
}
330
C
100
AcDbRasterVariables
 90
        0
 70
     0
 71
     1
 72
     5
  0
DICTIONARY
  5
62
102
{ACAD_REACTORS
330
C
102
}
330
C
100
AcDbDictionary
281
     1
  3
Model
350
73
  3
Sheet1
350
6F
  3
Sheet2
350
77
  0
DICTIONARY
  5
10
102
{ACAD_REACTORS
330
C
102
}
330
C
100
AcDbDictionary
281
     1
  3
ByBlock
350
19
  3
ByLayer
350
11
  3
Global
350
21
  0
DICTIONARY
  5
66
102
{ACAD_REACTORS
330
C
102
}
330
C
100
AcDbDictionary
281
     1
  3
Standard
350
67
  0
DICTIONARY
  5
5F
102
{ACAD_REACTORS
330
C
102
}
330
C
100
AcDbDictionary
281
     1
  3
Standard
350
60
  0
DICTIONARY
  5
61
102
{ACAD_REACTORS
330
C
102
}
330
C
100
AcDbDictionary
281
     1
  0
ACDBDICTIONARYWDFLT
  5
E
102
{ACAD_REACTORS
330
C
102
}
330
C
100
AcDbDictionary
281
     1
  3
Normal
350
F
100
AcDbDictionaryWithDefault
340
F
  0
DICTIONARY
  5
42
102
{ACAD_REACTORS
330
C
102
}
330
C
100
AcDbDictionary
281
     1
  3
*A1
350
A1
  3
*A10
350
AA
  3
*A11
350
AB
  3
*A12
350
AC
  3
*A13
350
AD
  3
*A14
350
AE
  3
*A15
350
AF
  3
*A16
350
B0
  3
*A2
350
A2
  3
*A3
350
A3
  3
*A4
350
A4
  3
*A5
350
A5
  3
*A6
350
A6
  3
*A7
350
A7
  3
*A8
350
A8
  3
*A9
350
A9
  3
A0
350
43
  3
A1
350
44
  3
A2
350
45
  3
A3
350
46
  3
A4
350
47
  3
A5
350
48
  3
A6
350
49
  3
A7
350
4A
  3
A8
350
4B
  3
A9
350
4C
  3
B0
350
4D
  3
B1
350
4E
  3
B2
350
4F
  3
B3
350
50
  3
B4
350
51
  3
B5
350
52
  3
B6
350
53
  0
DICTIONARY
  5
68
102
{ACAD_REACTORS
330
C
102
}
330
C
100
AcDbDictionary
281
     1
  3
Imperial24
350
69
  0
DICTIONARY
  5
64
102
{ACAD_REACTORS
330
C
102
}
330
C
100
AcDbDictionary
281
     1
  3
Standard
350
65
  0
DICTIONARY
  5
29
102
{ACAD_REACTORS
330
C
102
}
330
C
100
AcDbDictionary
281
     1
  3
2dWireframe
350
2F
  3
Basic
350
2E
  3
Brighten
350
35
  3
ColorChange
350
39
  3
Conceptual
350
32
  3
Dim
350
34
  3
EdgeColorOff
350
41
  3
Facepattern
350
38
  3
Flat
350
2A
  3
FlatWithEdges
350
2B
  3
Gouraud
350
2C
  3
GouraudWithEdges
350
2D
  3
Hidden
350
31
  3
JitterOff
350
3F
  3
Linepattern
350
37
  3
OverhangOff
350
40
  3
Realistic
350
33
  3
Shaded
350
3E
  3
Shaded with edges
350
3D
  3
Shades of Gray
350
3A
  3
Sketchy
350
3B
  3
Thicken
350
36
  3
Wireframe
350
30
  3
X-Ray
350
3C
  0
XRECORD
  5
425
102
{ACAD_REACTORS
330
C
102
}
330
C
100
AcDbXrecord
280
     1
 90
        1
330
65
330
12B
330
135
330
136
330
137
330
13A
  0
DICTIONARY
  5
41C
102
{ACAD_REACTORS
330
C
102
}
330
C
100
AcDbDictionary
281
     1
  3
ANNOALLVISIBLE
350
421
  3
CANNOSCALE
350
422
  3
CMLEADERSTYLE
350
41E
  3
CTABLESTYLE
350
41D
  3
CVIEWDETAILSTYLE
350
41F
  3
CVIEWSECTIONSTYLE
350
420
  0
SORTENTSTABLE
  5
11B
102
{ACAD_REACTORS
330
B1
102
}
330
B1
100
AcDbSortentsTable
330
70
  0
SORTENTSTABLE
  5
365
102
{ACAD_REACTORS
330
11F
102
}
330
11F
100
AcDbSortentsTable
330
11E
  0
ACDBDETAILVIEWSTYLE
  5
6B
102
{ACAD_XDICTIONARY
360
428
102
}
102
{ACAD_REACTORS
330
6A
102
}
330
6A
100
AcDbModelDocViewStyle
 70
     0
  3
Imperial24
290
     0
100
AcDbDetailViewStyle
 70
     0
 71
     0
 90
        3
 71
     1
340
55
 62
   256
 40
0.24
340
0
 62
   256
 40
0.24
300

 40
0.36
280
     3
 71
     2
340
5D
 90
       25
 62
   256
 71
     3
340
55
 62
   256
 40
0.24
 90
        1
 40
0.75
 90
        1
300
%<\AcVar ViewType \f "%tc1">% %<\AcVar ViewDetailId>%\PSCALE %<\AcVar ViewScale \f "%sn">%
 71
     4
340
5D
 90
       25
 62
   256
340
5D
 90
       25
 62
   256
280
     0
  0
IMAGEDEF
  5
124
102
{ACAD_REACTORS
330
125
330
126
330
3C1
102
}
330
125
100
AcDbRasterImageDef
 90
        0
  1
morse_logo-16 (1)_01-2018(B)_1_1.jpg
 10
948.0
 20
333.0
 11
0.264583
 21
0.264583
280
     1
281
     5
  0
LAYOUT
  5
73
102
{ACAD_REACTORS
330
62
102
}
330
62
100
AcDbPlotSettings
  1

  2
AutoCAD PDF (High Quality Print).pc3
  4
ANSI_full_bleed_B_(17.00_x_11.00_Inches)
  6

 40
0.0
 41
0.0
 42
0.0
 43
0.0
 44
431.799988
 45
279.399994
 46
0.0
 47
0.0
 48
0.0
 49
0.0
140
0.0
141
0.0
142
1.0
143
2.135646
 70
 11952
 72
     0
 73
     0
 74
     0
  7

 75
     0
147
0.468243
 76
     0
 77
     2
 78
   300
148
144.713688
149
122.636648
100
AcDbLayout
  1
Model
 70
     1
 71
     0
 10
0.0
 20
0.0
 11
12.0
 21
9.0
 12
0.0
 22
0.0
 32
0.0
 14
0.0
 24
0.0
 34
0.0
 15
0.0
 25
0.0
 35
0.0
146
0.0
 13
0.0
 23
0.0
 33
0.0
 16
1.0
 26
0.0
 36
0.0
 17
0.0
 27
1.0
 37
0.0
 76
     0
330
70
1001
ACAD_PSEXT
1000
AutoCAD PDF (High Quality Print).pc3
1000
DWG To PDF
1000
File
1000

1070
     0
  0
LAYOUT
  5
6F
102
{ACAD_REACTORS
330
62
102
}
330
62
100
AcDbPlotSettings
  1

  2
None
  4

  6

 40
0.0
 41
0.0
 42
0.0
 43
0.0
 44
0.0
 45
0.0
 46
0.0
 47
0.0
 48
0.0
 49
0.0
140
0.0
141
0.0
142
1.0
143
1.0
 70
   688
 72
     0
 73
     0
 74
     5
  7

 75
    16
147
1.0
 76
     0
 77
     2
 78
   300
148
0.0
149
0.0
100
AcDbLayout
  1
Sheet1
 70
     1
 71
     1
 10
0.0
 20
0.0
 11
12.0
 21
9.0
 12
0.0
 22
0.0
 32
0.0
 14
0.0
 24
0.0
 34
0.0
 15
0.0
 25
0.0
 35
0.0
146
0.0
 13
0.0
 23
0.0
 33
0.0
 16
1.0
 26
0.0
 36
0.0
 17
0.0
 27
1.0
 37
0.0
 76
     0
330
6C
  0
LAYOUT
  5
77
102
{ACAD_REACTORS
330
62
102
}
330
62
100
AcDbPlotSettings
  1

  2
None
  4

  6

 40
0.0
 41
0.0
 42
0.0
 43
0.0
 44
0.0
 45
0.0
 46
0.0
 47
0.0
 48
0.0
 49
0.0
140
0.0
141
0.0
142
1.0
143
1.0
 70
   688
 72
     0
 73
     0
 74
     5
  7

 75
    16
147
1.0
 76
     0
 77
     2
 78
   300
148
0.0
149
0.0
100
AcDbLayout
  1
Sheet2
 70
     1
 71
     2
 10
0.0
 20
0.0
 11
12.0
 21
9.0
 12
0.0
 22
0.0
 32
0.0
 14
0.0
 24
0.0
 34
0.0
 15
0.0
 25
0.0
 35
0.0
146
0.0
 13
0.0
 23
0.0
 33
0.0
 16
1.0
 26
0.0
 36
0.0
 17
0.0
 27
1.0
 37
0.0
 76
     0
330
74
  0
MATERIAL
  5
19
102
{ACAD_XDICTIONARY
360
1A
102
}
102
{ACAD_REACTORS
330
10
102
}
330
10
100
AcDbMaterial
  1
ByBlock
 72
     0
 43
0.020833
 43
0.0
 43
0.0
 43
0.0
 43
0.0
 43
0.020833
 43
0.0
 43
0.0
 43
0.0
 43
0.0
 43
1.0
 43
0.0
 43
0.0
 43
0.0
 43
0.0
 43
1.0
 77
     0
 47
0.020833
 47
0.0
 47
0.0
 47
0.0
 47
0.0
 47
0.020833
 47
0.0
 47
0.0
 47
0.0
 47
0.0
 47
1.0
 47
0.0
 47
0.0
 47
0.0
 47
0.0
 47
1.0
171
     0
 49
0.020833
 49
0.0
 49
0.0
 49
0.0
 49
0.0
 49
0.020833
 49
0.0
 49
0.0
 49
0.0
 49
0.0
 49
1.0
 49
0.0
 49
0.0
 49
0.0
 49
0.0
 49
1.0
175
     0
142
0.020833
142
0.0
142
0.0
142
0.0
142
0.0
142
0.020833
142
0.0
142
0.0
142
0.0
142
0.0
142
1.0
142
0.0
142
0.0
142
0.0
142
0.0
142
1.0
179
     0
144
0.020833
144
0.0
144
0.0
144
0.0
144
0.0
144
0.020833
144
0.0
144
0.0
144
0.0
144
0.0
144
1.0
144
0.0
144
0.0
144
0.0
144
0.0
144
1.0
147
0.020833
147
0.0
147
0.0
147
0.0
147
0.0
147
0.020833
147
0.0
147
0.0
147
0.0
147
0.0
147
1.0
147
0.0
147
0.0
147
0.0
147
0.0
147
1.0
  0
MATERIAL
  5
11
102
{ACAD_XDICTIONARY
360
12
102
}
102
{ACAD_REACTORS
330
10
102
}
330
10
100
AcDbMaterial
  1
ByLayer
 72
     0
 43
0.020833
 43
0.0
 43
0.0
 43
0.0
 43
0.0
 43
0.020833
 43
0.0
 43
0.0
 43
0.0
 43
0.0
 43
1.0
 43
0.0
 43
0.0
 43
0.0
 43
0.0
 43
1.0
 77
     0
 47
0.020833
 47
0.0
 47
0.0
 47
0.0
 47
0.0
 47
0.020833
 47
0.0
 47
0.0
 47
0.0
 47
0.0
 47
1.0
 47
0.0
 47
0.0
 47
0.0
 47
0.0
 47
1.0
171
     0
 49
0.020833
 49
0.0
 49
0.0
 49
0.0
 49
0.0
 49
0.020833
 49
0.0
 49
0.0
 49
0.0
 49
0.0
 49
1.0
 49
0.0
 49
0.0
 49
0.0
 49
0.0
 49
1.0
175
     0
142
0.020833
142
0.0
142
0.0
142
0.0
142
0.0
142
0.020833
142
0.0
142
0.0
142
0.0
142
0.0
142
1.0
142
0.0
142
0.0
142
0.0
142
0.0
142
1.0
179
     0
144
0.020833
144
0.0
144
0.0
144
0.0
144
0.0
144
0.020833
144
0.0
144
0.0
144
0.0
144
0.0
144
1.0
144
0.0
144
0.0
144
0.0
144
0.0
144
1.0
147
0.020833
147
0.0
147
0.0
147
0.0
147
0.0
147
0.020833
147
0.0
147
0.0
147
0.0
147
0.0
147
1.0
147
0.0
147
0.0
147
0.0
147
0.0
147
1.0
  0
MATERIAL
  5
21
102
{ACAD_XDICTIONARY
360
22
102
}
102
{ACAD_REACTORS
330
10
102
}
330
10
100
AcDbMaterial
  1
Global
 72
     0
 43
0.020833
 43
0.0
 43
0.0
 43
0.0
 43
0.0
 43
0.020833
 43
0.0
 43
0.0
 43
0.0
 43
0.0
 43
1.0
 43
0.0
 43
0.0
 43
0.0
 43
0.0
 43
1.0
 77
     0
 47
0.020833
 47
0.0
 47
0.0
 47
0.0
 47
0.0
 47
0.020833
 47
0.0
 47
0.0
 47
0.0
 47
0.0
 47
1.0
 47
0.0
 47
0.0
 47
0.0
 47
0.0
 47
1.0
171
     0
 49
0.020833
 49
0.0
 49
0.0
 49
0.0
 49
0.0
 49
0.020833
 49
0.0
 49
0.0
 49
0.0
 49
0.0
 49
1.0
 49
0.0
 49
0.0
 49
0.0
 49
0.0
 49
1.0
175
     0
142
0.020833
142
0.0
142
0.0
142
0.0
142
0.0
142
0.020833
142
0.0
142
0.0
142
0.0
142
0.0
142
1.0
142
0.0
142
0.0
142
0.0
142
0.0
142
1.0
179
     0
144
0.020833
144
0.0
144
0.0
144
0.0
144
0.0
144
0.020833
144
0.0
144
0.0
144
0.0
144
0.0
144
1.0
144
0.0
144
0.0
144
0.0
144
0.0
144
1.0
147
0.020833
147
0.0
147
0.0
147
0.0
147
0.0
147
0.020833
147
0.0
147
0.0
147
0.0
147
0.0
147
1.0
147
0.0
147
0.0
147
0.0
147
0.0
147
1.0
  0
MLEADERSTYLE
  5
67
102
{ACAD_REACTORS
330
66
102
}
330
66
100
AcDbMLeaderStyle
179
     2
170
     2
171
     1
172
     0
 90
        2
 40
0.0
 41
0.0
173
     1
 91
-1056964608
340
5B
 92
       -2
290
     1
 42
0.09
291
     1
 43
0.36
  3
Standard
 44
0.18
300

342
55
174
     1
178
     6
175
     1
176
     0
 93
-1056964608
 45
0.18
292
     0
297
     0
 46
0.18
 94
-1056964608
 47
1.0
 49
1.0
140
1.0
293
     1
141
0.0
294
     1
177
     0
142
1.0
295
     0
296
     0
143
0.125
271
     0
272
     9
273
     9
298
     1
  0
MLINESTYLE
  5
60
102
{ACAD_REACTORS
330
5F
102
}
330
5F
100
AcDbMlineStyle
  2
STANDARD
 70
     0
  3

 62
   256
 51
90.0
 52
90.0
 71
     0
  0
ACDBPLACEHOLDER
  5
F
102
{ACAD_REACTORS
330
E
102
}
330
E
  0
SCALE
  5
A1
102
{ACAD_REACTORS
330
42
102
}
330
42
100
AcDbScale
 70
     0
300
1:2
140
1.0
141
2.0
290
     0
  0
SCALE
  5
AA
102
{ACAD_REACTORS
330
42
102
}
330
42
100
AcDbScale
 70
     0
300
1:50
140
1.0
141
50.0
290
     0
  0
SCALE
  5
AB
102
{ACAD_REACTORS
330
42
102
}
330
42
100
AcDbScale
 70
     0
300
1:100
140
1.0
141
100.0
290
     0
  0
SCALE
  5
AC
102
{ACAD_REACTORS
330
42
102
}
330
42
100
AcDbScale
 70
     0
300
2:1
140
2.0
141
1.0
290
     0
  0
SCALE
  5
AD
102
{ACAD_REACTORS
330
42
102
}
330
42
100
AcDbScale
 70
     0
300
4:1
140
4.0
141
1.0
290
     0
  0
SCALE
  5
AE
102
{ACAD_REACTORS
330
42
102
}
330
42
100
AcDbScale
 70
     0
300
8:1
140
8.0
141
1.0
290
     0
  0
SCALE
  5
AF
102
{ACAD_REACTORS
330
42
102
}
330
42
100
AcDbScale
 70
     0
300
10:1
140
10.0
141
1.0
290
     0
  0
SCALE
  5
B0
102
{ACAD_REACTORS
330
42
102
}
330
42
100
AcDbScale
 70
     0
300
100:1
140
100.0
141
1.0
290
     0
  0
SCALE
  5
A2
102
{ACAD_REACTORS
330
42
102
}
330
42
100
AcDbScale
 70
     0
300
1:4
140
1.0
141
4.0
290
     0
  0
SCALE
  5
A3
102
{ACAD_REACTORS
330
42
102
}
330
42
100
AcDbScale
 70
     0
300
1:5
140
1.0
141
5.0
290
     0
  0
SCALE
  5
A4
102
{ACAD_REACTORS
330
42
102
}
330
42
100
AcDbScale
 70
     0
300
1:8
140
1.0
141
8.0
290
     0
  0
SCALE
  5
A5
102
{ACAD_REACTORS
330
42
102
}
330
42
100
AcDbScale
 70
     0
300
1:10
140
1.0
141
10.0
290
     0
  0
SCALE
  5
A6
102
{ACAD_REACTORS
330
42
102
}
330
42
100
AcDbScale
 70
     0
300
1:16
140
1.0
141
16.0
290
     0
  0
SCALE
  5
A7
102
{ACAD_REACTORS
330
42
102
}
330
42
100
AcDbScale
 70
     0
300
1:20
140
1.0
141
20.0
290
     0
  0
SCALE
  5
A8
102
{ACAD_REACTORS
330
42
102
}
330
42
100
AcDbScale
 70
     0
300
1:30
140
1.0
141
30.0
290
     0
  0
SCALE
  5
A9
102
{ACAD_REACTORS
330
42
102
}
330
42
100
AcDbScale
 70
     0
300
1:40
140
1.0
141
40.0
290
     0
  0
SCALE
  5
43
102
{ACAD_REACTORS
330
42
102
}
330
42
100
AcDbScale
 70
     0
300
1:1
140
1.0
141
1.0
290
     1
  0
SCALE
  5
44
102
{ACAD_REACTORS
330
42
102
}
330
42
100
AcDbScale
 70
     0
300
1/128" = 1'-0"
140
0.007813
141
12.0
290
     0
  0
SCALE
  5
45
102
{ACAD_REACTORS
330
42
102
}
330
42
100
AcDbScale
 70
     0
300
1/64" = 1'-0"
140
0.015625
141
12.0
290
     0
  0
SCALE
  5
46
102
{ACAD_REACTORS
330
42
102
}
330
42
100
AcDbScale
 70
     0
300
1/32" = 1'-0"
140
0.03125
141
12.0
290
     0
  0
SCALE
  5
47
102
{ACAD_REACTORS
330
42
102
}
330
42
100
AcDbScale
 70
     0
300
1/16" = 1'-0"
140
0.0625
141
12.0
290
     0
  0
SCALE
  5
48
102
{ACAD_REACTORS
330
42
102
}
330
42
100
AcDbScale
 70
     0
300
3/32" = 1'-0"
140
0.09375
141
12.0
290
     0
  0
SCALE
  5
49
102
{ACAD_REACTORS
330
42
102
}
330
42
100
AcDbScale
 70
     0
300
1/8" = 1'-0"
140
0.125
141
12.0
290
     0
  0
SCALE
  5
4A
102
{ACAD_REACTORS
330
42
102
}
330
42
100
AcDbScale
 70
     0
300
3/16" = 1'-0"
140
0.1875
141
12.0
290
     0
  0
SCALE
  5
4B
102
{ACAD_REACTORS
330
42
102
}
330
42
100
AcDbScale
 70
     0
300
1/4" = 1'-0"
140
0.25
141
12.0
290
     0
  0
SCALE
  5
4C
102
{ACAD_REACTORS
330
42
102
}
330
42
100
AcDbScale
 70
     0
300
3/8" = 1'-0"
140
0.375
141
12.0
290
     0
  0
SCALE
  5
4D
102
{ACAD_REACTORS
330
42
102
}
330
42
100
AcDbScale
 70
     0
300
1/2" = 1'-0"
140
0.5
141
12.0
290
     0
  0
SCALE
  5
4E
102
{ACAD_REACTORS
330
42
102
}
330
42
100
AcDbScale
 70
     0
300
3/4" = 1'-0"
140
0.75
141
12.0
290
     0
  0
SCALE
  5
4F
102
{ACAD_REACTORS
330
42
102
}
330
42
100
AcDbScale
 70
     0
300
1" = 1'-0"
140
1.0
141
12.0
290
     0
  0
SCALE
  5
50
102
{ACAD_REACTORS
330
42
102
}
330
42
100
AcDbScale
 70
     0
300
1-1/2" = 1'-0"
140
1.5
141
12.0
290
     0
  0
SCALE
  5
51
102
{ACAD_REACTORS
330
42
102
}
330
42
100
AcDbScale
 70
     0
300
3" = 1'-0"
140
3.0
141
12.0
290
     0
  0
SCALE
  5
52
102
{ACAD_REACTORS
330
42
102
}
330
42
100
AcDbScale
 70
     0
300
6" = 1'-0"
140
6.0
141
12.0
290
     0
  0
SCALE
  5
53
102
{ACAD_REACTORS
330
42
102
}
330
42
100
AcDbScale
 70
     0
300
1'-0" = 1'-0"
140
12.0
141
12.0
290
     0
  0
ACDBSECTIONVIEWSTYLE
  5
69
102
{ACAD_XDICTIONARY
360
426
102
}
102
{ACAD_REACTORS
330
68
102
}
330
68
100
AcDbModelDocViewStyle
 70
     0
  3
Imperial24
290
     0
100
AcDbSectionViewStyle
 70
     0
 71
     0
 90
       78
 71
     1
340
55
 62
   256
 40
0.24
340
0
340
0
 62
   256
 40
0.24
300
I, O, Q, S, X, Z
 40
0.48
 90
        3
 40
0.18
 90
        1
 71
     2
340
5D
 90
       25
 62
   256
340
5D
 90
       50
 62
   256
 40
0.24
 40
0.0
 40
0.24
 71
     3
340
55
 62
   256
 40
0.24
 90
        1
 40
0.75
 90
        1
300
%<\AcVar ViewType \f "%tc1">% %<\AcVar ViewSectionStartId>%-%<\AcVar ViewSectionEndId>%\PSCALE %<\AcVar ViewScale \f "%sn">%
 71
     4
 62
   256
 62
   257
300
ANSI31
 40
1.0
 90
        0
290
     0
290
     0
 90
        6
 40
0.0
 40
1.570796
 40
0.261799
 40
1.308997
 40
-0.261799
 40
1.832596
  0
TABLESTYLE
  5
65
102
{ACAD_XDICTIONARY
360
423
102
}
102
{ACAD_REACTORS
330
64
102
}
330
64
100
AcDbTableStyle
280
     0
  3
Standard
 70
     0
 71
     0
 40
0.06
 41
0.06
280
     0
281
     0
  7
Standard
140
0.18
170
     2
 62
     0
 63
     7
283
     0
 90
      512
 91
        0
  1

274
    -2
284
     1
 64
     0
275
    -2
285
     1
 65
     0
276
    -2
286
     1
 66
     0
277
    -2
287
     1
 67
     0
278
    -2
288
     1
 68
     0
279
    -2
289
     1
 69
     0
  7
Standard
140
0.25
170
     5
 62
     0
 63
     7
283
     0
 90
      512
 91
        0
  1

274
    -2
284
     1
 64
     0
275
    -2
285
     1
 65
     0
276
    -2
286
     1
 66
     0
277
    -2
287
     1
 67
     0
278
    -2
288
     1
 68
     0
279
    -2
289
     1
 69
     0
  7
Standard
140
0.18
170
     5
 62
     0
 63
     7
283
     0
 90
      512
 91
        0
  1

274
    -2
284
     1
 64
     0
275
    -2
285
     1
 65
     0
276
    -2
286
     1
 66
     0
277
    -2
287
     1
 67
     0
278
    -2
288
     1
 68
     0
279
    -2
289
     1
 69
     0
  0
VISUALSTYLE
  5
2F
102
{ACAD_REACTORS
330
29
102
}
330
29
100
AcDbVisualStyle
  2
2dWireframe
 70
     4
177
     3
291
     0
 70
    58
 90
        0
176
     1
 90
        2
176
     1
 90
        0
176
     1
 90
        0
176
     1
 40
0.6
176
     1
 40
30.0
176
     1
 62
     7
420
 16777215
176
     1
 90
        1
176
     1
 90
        4
176
     1
 62
     7
176
     1
 62
   257
176
     1
 90
        1
176
     1
 90
        1
176
     1
 40
1.0
176
     1
 90
        0
176
     1
 62
   257
176
     1
 40
1.0
176
     1
 90
        1
176
     1
 90
        6
176
     1
 90
        2
176
     1
 62
     7
176
     1
 90
        5
176
     1
 90
        0
176
     1
 90
        0
176
     1
290
     0
176
     1
 90
        1
176
     1
 40
0.0
176
     1
 90
        0
176
     1
290
     1
176
     1
290
     1
176
     1
290
     0
176
     1
290
     0
176
     1
290
     0
176
     1
290
     0
176
     1
290
     0
176
     1
290
     0
176
     1
290
     0
176
     1
 90
       50
176
     1
 40
0.0
176
     1
 40
1.0
176
     1
 90
        0
176
     1
 62
    18
420
        0
176
     1
 90
       50
176
     1
 90
        3
176
     1
 62
     5
420
      255
176
     1
290
     0
176
     1
 90
       50
176
     1
 90
       50
176
     1
 90
       50
176
     1
290
     0
176
     1
 90
       50
176
     1
 62
   256
176
     0
 40
1.0
176
     0
 90
        2
176
     1
  1
strokes_ogs.tif
176
     1
290
     0
176
     1
 40
1.0
176
     1
 40
1.0
176
     1
1001
ACAD
1000
AcDbSavedByObjectVersion
1070
     0
  0
VISUALSTYLE
  5
2E
102
{ACAD_REACTORS
330
29
102
}
330
29
100
AcDbVisualStyle
  2
Basic
 70
     7
177
     3
291
     1
 70
    58
 90
        1
176
     1
 90
        0
176
     1
 90
        1
176
     1
 90
        0
176
     1
 40
0.6
176
     1
 40
30.0
176
     1
 62
     7
420
 16777215
176
     1
 90
        0
176
     1
 90
        4
176
     1
 62
     7
176
     1
 62
   257
176
     1
 90
        1
176
     1
 90
        1
176
     1
 40
1.0
176
     1
 90
        8
176
     1
 62
     7
176
     1
 40
1.0
176
     1
 90
        1
176
     1
 90
        6
176
     1
 90
        2
176
     1
 62
     7
176
     1
 90
        5
176
     1
 90
        0
176
     1
 90
        0
176
     1
290
     0
176
     1
 90
        1
176
     1
 40
0.0
176
     1
 90
        0
176
     1
290
     0
176
     1
290
     1
176
     1
290
     1
176
     1
290
     0
176
     1
290
     0
176
     1
290
     0
176
     1
290
     0
176
     1
290
     0
176
     1
290
     0
176
     1
 90
       50
176
     1
 40
0.0
176
     1
 40
1.0
176
     1
 90
        0
176
     1
 62
    18
420
        0
176
     1
 90
       50
176
     1
 90
        3
176
     1
 62
     5
420
      255
176
     1
290
     0
176
     1
 90
       50
176
     1
 90
       50
176
     1
 90
       50
176
     1
290
     0
176
     1
 90
       50
176
     1
 62
   256
176
     0
 40
1.0
176
     0
 90
        2
176
     1
  1
strokes_ogs.tif
176
     1
290
     0
176
     1
 40
1.0
176
     1
 40
1.0
176
     1
1001
ACAD
1000
AcDbSavedByObjectVersion
1070
     0
  0
VISUALSTYLE
  5
35
102
{ACAD_REACTORS
330
29
102
}
330
29
100
AcDbVisualStyle
  2
Brighten
 70
    12
177
     3
291
     1
 70
    58
 90
        2
176
     1
 90
        2
176
     1
 90
        0
176
     1
 90
        0
176
     1
 40
0.6
176
     1
 40
30.0
176
     1
 62
     7
420
 16777215
176
     1
 90
        1
176
     1
 90
        4
176
     1
 62
     7
176
     1
 62
   257
176
     1
 90
        1
176
     1
 90
        1
176
     1
 40
1.0
176
     1
 90
        8
176
     1
 62
     7
176
     1
 40
1.0
176
     1
 90
        1
176
     1
 90
        6
176
     1
 90
        2
176
     1
 62
     7
176
     1
 90
        5
176
     1
 90
        0
176
     1
 90
        0
176
     1
290
     0
176
     1
 90
        1
176
     1
 40
50.0
176
     1
 90
        0
176
     1
290
     0
176
     1
290
     1
176
     1
290
     1
176
     1
290
     0
176
     1
290
     0
176
     1
290
     0
176
     1
290
     0
176
     1
290
     0
176
     1
290
     0
176
     1
 90
       50
176
     1
 40
0.0
176
     1
 40
1.0
176
     1
 90
        0
176
     1
 62
    18
420
        0
176
     1
 90
       50
176
     1
 90
        3
176
     1
 62
     5
420
      255
176
     1
290
     0
176
     1
 90
       50
176
     1
 90
       50
176
     1
 90
       50
176
     1
290
     0
176
     1
 90
       50
176
     1
 62
   256
176
     0
 40
1.0
176
     0
 90
        2
176
     1
  1
strokes_ogs.tif
176
     1
290
     0
176
     1
 40
1.0
176
     1
 40
1.0
176
     1
1001
ACAD
1000
AcDbSavedByObjectVersion
1070
     0
  0
VISUALSTYLE
  5
39
102
{ACAD_REACTORS
330
29
102
}
330
29
100
AcDbVisualStyle
  2
ColorChange
 70
    16
177
     3
291
     1
 70
    58
 90
        2
176
     1
 90
        2
176
     1
 90
        3
176
     1
 90
        0
176
     1
 40
0.6
176
     1
 40
30.0
176
     1
 62
     8
420
  8421504
176
     1
 90
        1
176
     1
 90
        4
176
     1
 62
     7
176
     1
 62
   257
176
     1
 90
        1
176
     1
 90
        1
176
     1
 40
1.0
176
     1
 90
        8
176
     1
 62
     8
420
  8421504
176
     1
 40
1.0
176
     1
 90
        1
176
     1
 90
        6
176
     1
 90
        2
176
     1
 62
     7
176
     1
 90
        5
176
     1
 90
        0
176
     1
 90
        0
176
     1
290
     0
176
     1
 90
        1
176
     1
 40
0.0
176
     1
 90
        0
176
     1
290
     0
176
     1
290
     1
176
     1
290
     1
176
     1
290
     0
176
     1
290
     0
176
     1
290
     0
176
     1
290
     0
176
     1
290
     0
176
     1
290
     0
176
     1
 90
       50
176
     1
 40
0.0
176
     1
 40
1.0
176
     1
 90
        0
176
     1
 62
    18
420
        0
176
     1
 90
       50
176
     1
 90
        3
176
     1
 62
     5
420
      255
176
     1
290
     0
176
     1
 90
       50
176
     1
 90
       50
176
     1
 90
       50
176
     1
290
     0
176
     1
 90
       50
176
     1
 62
   256
176
     0
 40
1.0
176
     0
 90
        2
176
     1
  1
strokes_ogs.tif
176
     1
290
     0
176
     1
 40
1.0
176
     1
 40
1.0
176
     1
1001
ACAD
1000
AcDbSavedByObjectVersion
1070
     0
  0
VISUALSTYLE
  5
32
102
{ACAD_REACTORS
330
29
102
}
330
29
100
AcDbVisualStyle
  2
Conceptual
 70
     9
177
     3
291
     0
 70
    58
 90
        3
176
     1
 90
        2
176
     1
 90
        0
176
     1
 90
        0
176
     1
 40
0.6
176
     1
 40
30.0
176
     1
 62
     7
420
 16777215
176
     1
 90
        2
176
     1
 90
        2
176
     1
 62
     7
176
     1
 62
   257
176
     1
 90
        1
176
     1
 90
        1
176
     1
 40
179.0
176
     1
 90
        8
176
     1
 62
     7
176
     1
 40
1.0
176
     1
 90
        1
176
     1
 90
        6
176
     1
 90
        2
176
     1
 62
     7
176
     1
 90
        3
176
     1
 90
        0
176
     1
 90
        0
176
     1
290
     0
176
     1
 90
        1
176
     1
 40
0.0
176
     1
 90
        0
176
     1
290
     0
176
     1
290
     1
176
     1
290
     1
176
     1
290
     0
176
     1
290
     0
176
     1
290
     0
176
     1
290
     0
176
     1
290
     0
176
     1
290
     0
176
     1
 90
       50
176
     1
 40
0.0
176
     1
 40
1.0
176
     1
 90
        0
176
     1
 62
    18
420
        0
176
     1
 90
       50
176
     1
 90
        3
176
     1
 62
     5
420
      255
176
     1
290
     0
176
     1
 90
       50
176
     1
 90
       50
176
     1
 90
       50
176
     1
290
     0
176
     1
 90
       50
176
     1
 62
   256
176
     0
 40
1.0
176
     0
 90
        2
176
     1
  1
strokes_ogs.tif
176
     1
290
     0
176
     1
 40
1.0
176
     1
 40
1.0
176
     1
1001
ACAD
1000
AcDbSavedByObjectVersion
1070
     0
  0
VISUALSTYLE
  5
34
102
{ACAD_REACTORS
330
29
102
}
330
29
100
AcDbVisualStyle
  2
Dim
 70
    11
177
     3
291
     1
 70
    58
 90
        2
176
     1
 90
        2
176
     1
 90
        0
176
     1
 90
        0
176
     1
 40
0.6
176
     1
 40
30.0
176
     1
 62
     7
420
 16777215
176
     1
 90
        1
176
     1
 90
        4
176
     1
 62
     7
176
     1
 62
   257
176
     1
 90
        1
176
     1
 90
        1
176
     1
 40
1.0
176
     1
 90
        8
176
     1
 62
     7
176
     1
 40
1.0
176
     1
 90
        1
176
     1
 90
        6
176
     1
 90
        2
176
     1
 62
     7
176
     1
 90
        5
176
     1
 90
        0
176
     1
 90
        0
176
     1
290
     0
176
     1
 90
        1
176
     1
 40
-50.0
176
     1
 90
        0
176
     1
290
     0
176
     1
290
     1
176
     1
290
     1
176
     1
290
     0
176
     1
290
     0
176
     1
290
     0
176
     1
290
     0
176
     1
290
     0
176
     1
290
     0
176
     1
 90
       50
176
     1
 40
0.0
176
     1
 40
1.0
176
     1
 90
        0
176
     1
 62
    18
420
        0
176
     1
 90
       50
176
     1
 90
        3
176
     1
 62
     5
420
      255
176
     1
290
     0
176
     1
 90
       50
176
     1
 90
       50
176
     1
 90
       50
176
     1
290
     0
176
     1
 90
       50
176
     1
 62
   256
176
     0
 40
1.0
176
     0
 90
        2
176
     1
  1
strokes_ogs.tif
176
     1
290
     0
176
     1
 40
1.0
176
     1
 40
1.0
176
     1
1001
ACAD
1000
AcDbSavedByObjectVersion
1070
     0
  0
VISUALSTYLE
  5
41
102
{ACAD_REACTORS
330
29
102
}
330
29
100
AcDbVisualStyle
  2
EdgeColorOff
 70
    22
177
     3
291
     1
 70
    58
 90
        2
176
     0
 90
        2
176
     0
 90
        0
176
     0
 90
        0
176
     0
 40
0.6
176
     0
 40
30.0
176
     0
 62
     7
420
 16777215
176
     0
 90
        1
176
     0
 90
        4
176
     0
 62
     7
176
     0
 62
   257
176
     0
 90
        1
176
     0
 90
        1
176
     0
 40
1.0
176
     0
 90
        8
176
     2
 62
     7
176
     0
 40
1.0
176
     0
 90
        1
176
     0
 90
        6
176
     0
 90
        2
176
     0
 62
     7
176
     0
 90
        5
176
     0
 90
        0
176
     0
 90
        0
176
     0
290
     0
176
     0
 90
        1
176
     0
 40
0.0
176
     0
 90
        0
176
     0
290
     0
176
     0
290
     1
176
     0
290
     1
176
     0
290
     0
176
     0
290
     0
176
     0
290
     0
176
     0
290
     0
176
     0
290
     0
176
     0
290
     0
176
     0
 90
       50
176
     0
 40
0.0
176
     0
 40
1.0
176
     0
 90
        0
176
     0
 62
    18
420
        0
176
     0
 90
       50
176
     0
 90
        3
176
     0
 62
     5
420
      255
176
     0
290
     0
176
     0
 90
       50
176
     0
 90
       50
176
     0
 90
       50
176
     0
290
     0
176
     0
 90
       50
176
     0
 62
   256
176
     0
 40
1.0
176
     0
 90
        2
176
     0
  1
strokes_ogs.tif
176
     0
290
     0
176
     0
 40
1.0
176
     0
 40
1.0
176
     0
1001
ACAD
1000
AcDbSavedByObjectVersion
1070
     0
  0
VISUALSTYLE
  5
38
102
{ACAD_REACTORS
330
29
102
}
330
29
100
AcDbVisualStyle
  2
Facepattern
 70
    15
177
     3
291
     1
 70
    58
 90
        2
176
     1
 90
        2
176
     1
 90
        0
176
     1
 90
        0
176
     1
 40
0.6
176
     1
 40
30.0
176
     1
 62
     7
420
 16777215
176
     1
 90
        1
176
     1
 90
        4
176
     1
 62
     7
176
     1
 62
   257
176
     1
 90
        1
176
     1
 90
        1
176
     1
 40
1.0
176
     1
 90
        8
176
     1
 62
     7
176
     1
 40
1.0
176
     1
 90
        1
176
     1
 90
        6
176
     1
 90
        2
176
     1
 62
     7
176
     1
 90
        5
176
     1
 90
        0
176
     1
 90
        0
176
     1
290
     0
176
     1
 90
        1
176
     1
 40
0.0
176
     1
 90
        0
176
     1
290
     0
176
     1
290
     1
176
     1
290
     1
176
     1
290
     0
176
     1
290
     0
176
     1
290
     0
176
     1
290
     0
176
     1
290
     0
176
     1
290
     0
176
     1
 90
       50
176
     1
 40
0.0
176
     1
 40
1.0
176
     1
 90
        0
176
     1
 62
    18
420
        0
176
     1
 90
       50
176
     1
 90
        3
176
     1
 62
     5
420
      255
176
     1
290
     0
176
     1
 90
       50
176
     1
 90
       50
176
     1
 90
       50
176
     1
290
     0
176
     1
 90
       50
176
     1
 62
   256
176
     0
 40
1.0
176
     0
 90
        2
176
     1
  1
strokes_ogs.tif
176
     1
290
     0
176
     1
 40
1.0
176
     1
 40
1.0
176
     1
1001
ACAD
1000
AcDbSavedByObjectVersion
1070
     0
  0
VISUALSTYLE
  5
2A
102
{ACAD_REACTORS
330
29
102
}
330
29
100
AcDbVisualStyle
  2
Flat
 70
     0
177
     3
291
     1
 70
    58
 90
        2
176
     1
 90
        1
176
     1
 90
        1
176
     1
 90
        2
176
     1
 40
0.6
176
     1
 40
30.0
176
     1
 62
     7
420
 16777215
176
     1
 90
        0
176
     1
 90
        0
176
     1
 62
     7
176
     1
 62
   257
176
     1
 90
        1
176
     1
 90
        1
176
     1
 40
1.0
176
     1
 90
        8
176
     1
 62
     7
176
     1
 40
1.0
176
     1
 90
        1
176
     1
 90
        6
176
     1
 90
        2
176
     1
 62
     7
176
     1
 90
        5
176
     1
 90
        0
176
     1
 90
        0
176
     1
290
     0
176
     1
 90
       13
176
     1
 40
0.0
176
     1
 90
        0
176
     1
290
     0
176
     1
290
     1
176
     1
290
     1
176
     1
290
     0
176
     1
290
     0
176
     1
290
     0
176
     1
290
     0
176
     1
290
     0
176
     1
290
     0
176
     1
 90
       50
176
     1
 40
0.0
176
     1
 40
1.0
176
     1
 90
        0
176
     1
 62
    18
420
        0
176
     1
 90
       50
176
     1
 90
        3
176
     1
 62
     5
420
      255
176
     1
290
     0
176
     1
 90
       50
176
     1
 90
       50
176
     1
 90
       50
176
     1
290
     0
176
     1
 90
       50
176
     1
 62
   256
176
     0
 40
1.0
176
     0
 90
        2
176
     1
  1
strokes_ogs.tif
176
     1
290
     0
176
     1
 40
1.0
176
     1
 40
1.0
176
     1
1001
ACAD
1000
AcDbSavedByObjectVersion
1070
     0
  0
VISUALSTYLE
  5
2B
102
{ACAD_REACTORS
330
29
102
}
330
29
100
AcDbVisualStyle
  2
FlatWithEdges
 70
     1
177
     3
291
     1
 70
    58
 90
        2
176
     1
 90
        1
176
     1
 90
        1
176
     1
 90
        2
176
     1
 40
0.6
176
     1
 40
30.0
176
     1
 62
     7
420
 16777215
176
     1
 90
        1
176
     1
 90
        0
176
     1
 62
     7
176
     1
 62
   257
176
     1
 90
        1
176
     1
 90
        1
176
     1
 40
1.0
176
     1
 90
        0
176
     1
 62
   257
176
     1
 40
1.0
176
     1
 90
        1
176
     1
 90
        6
176
     1
 90
        2
176
     1
 62
     7
176
     1
 90
        5
176
     1
 90
        0
176
     1
 90
        0
176
     1
290
     0
176
     1
 90
       13
176
     1
 40
0.0
176
     1
 90
        0
176
     1
290
     0
176
     1
290
     1
176
     1
290
     1
176
     1
290
     0
176
     1
290
     0
176
     1
290
     0
176
     1
290
     0
176
     1
290
     0
176
     1
290
     0
176
     1
 90
       50
176
     1
 40
0.0
176
     1
 40
1.0
176
     1
 90
        0
176
     1
 62
    18
420
        0
176
     1
 90
       50
176
     1
 90
        3
176
     1
 62
     5
420
      255
176
     1
290
     0
176
     1
 90
       50
176
     1
 90
       50
176
     1
 90
       50
176
     1
290
     0
176
     1
 90
       50
176
     1
 62
   256
176
     0
 40
1.0
176
     0
 90
        2
176
     1
  1
strokes_ogs.tif
176
     1
290
     0
176
     1
 40
1.0
176
     1
 40
1.0
176
     1
1001
ACAD
1000
AcDbSavedByObjectVersion
1070
     0
  0
VISUALSTYLE
  5
2C
102
{ACAD_REACTORS
330
29
102
}
330
29
100
AcDbVisualStyle
  2
Gouraud
 70
     2
177
     3
291
     1
 70
    58
 90
        2
176
     1
 90
        2
176
     1
 90
        1
176
     1
 90
        2
176
     1
 40
0.6
176
     1
 40
30.0
176
     1
 62
     7
420
 16777215
176
     1
 90
        0
176
     1
 90
        0
176
     1
 62
     7
176
     1
 62
   257
176
     1
 90
        1
176
     1
 90
        1
176
     1
 40
1.0
176
     1
 90
        0
176
     1
 62
     7
176
     1
 40
1.0
176
     1
 90
        1
176
     1
 90
        6
176
     1
 90
        2
176
     1
 62
     7
176
     1
 90
        5
176
     1
 90
        0
176
     1
 90
        0
176
     1
290
     0
176
     1
 90
       13
176
     1
 40
0.0
176
     1
 90
        0
176
     1
290
     0
176
     1
290
     1
176
     1
290
     1
176
     1
290
     0
176
     1
290
     0
176
     1
290
     0
176
     1
290
     0
176
     1
290
     0
176
     1
290
     0
176
     1
 90
       50
176
     1
 40
0.0
176
     1
 40
1.0
176
     1
 90
        0
176
     1
 62
    18
420
        0
176
     1
 90
       50
176
     1
 90
        3
176
     1
 62
     5
420
      255
176
     1
290
     0
176
     1
 90
       50
176
     1
 90
       50
176
     1
 90
       50
176
     1
290
     0
176
     1
 90
       50
176
     1
 62
   256
176
     0
 40
1.0
176
     0
 90
        2
176
     1
  1
strokes_ogs.tif
176
     1
290
     0
176
     1
 40
1.0
176
     1
 40
1.0
176
     1
1001
ACAD
1000
AcDbSavedByObjectVersion
1070
     0
  0
VISUALSTYLE
  5
2D
102
{ACAD_REACTORS
330
29
102
}
330
29
100
AcDbVisualStyle
  2
GouraudWithEdges
 70
     3
177
     3
291
     1
 70
    58
 90
        2
176
     1
 90
        2
176
     1
 90
        1
176
     1
 90
        2
176
     1
 40
0.6
176
     1
 40
30.0
176
     1
 62
     7
420
 16777215
176
     1
 90
        1
176
     1
 90
        0
176
     1
 62
     7
176
     1
 62
   257
176
     1
 90
        1
176
     1
 90
        1
176
     1
 40
1.0
176
     1
 90
        0
176
     1
 62
   257
176
     1
 40
1.0
176
     1
 90
        1
176
     1
 90
        6
176
     1
 90
        2
176
     1
 62
     7
176
     1
 90
        5
176
     1
 90
        0
176
     1
 90
        0
176
     1
290
     0
176
     1
 90
       13
176
     1
 40
0.0
176
     1
 90
        0
176
     1
290
     0
176
     1
290
     1
176
     1
290
     1
176
     1
290
     0
176
     1
290
     0
176
     1
290
     0
176
     1
290
     0
176
     1
290
     0
176
     1
290
     0
176
     1
 90
       50
176
     1
 40
0.0
176
     1
 40
1.0
176
     1
 90
        0
176
     1
 62
    18
420
        0
176
     1
 90
       50
176
     1
 90
        3
176
     1
 62
     5
420
      255
176
     1
290
     0
176
     1
 90
       50
176
     1
 90
       50
176
     1
 90
       50
176
     1
290
     0
176
     1
 90
       50
176
     1
 62
   256
176
     0
 40
1.0
176
     0
 90
        2
176
     1
  1
strokes_ogs.tif
176
     1
290
     0
176
     1
 40
1.0
176
     1
 40
1.0
176
     1
1001
ACAD
1000
AcDbSavedByObjectVersion
1070
     0
  0
VISUALSTYLE
  5
31
102
{ACAD_REACTORS
330
29
102
}
330
29
100
AcDbVisualStyle
  2
Hidden
 70
     6
177
     3
291
     0
 70
    58
 90
        1
176
     1
 90
        2
176
     1
 90
        2
176
     1
 90
        0
176
     1
 40
0.6
176
     1
 40
30.0
176
     1
 62
     7
420
 16777215
176
     1
 90
        2
176
     1
 90
        2
176
     1
 62
     7
176
     1
 62
   257
176
     1
 90
        2
176
     1
 90
        1
176
     1
 40
40.0
176
     1
 90
        0
176
     1
 62
   257
176
     1
 40
1.0
176
     1
 90
        1
176
     1
 90
        6
176
     1
 90
        2
176
     1
 62
     7
176
     1
 90
        3
176
     1
 90
        0
176
     1
 90
        0
176
     1
290
     0
176
     1
 90
        1
176
     1
 40
0.0
176
     1
 90
        0
176
     1
290
     0
176
     1
290
     1
176
     1
290
     1
176
     1
290
     0
176
     1
290
     0
176
     1
290
     0
176
     1
290
     0
176
     1
290
     0
176
     1
290
     0
176
     1
 90
       50
176
     1
 40
0.0
176
     1
 40
1.0
176
     1
 90
        0
176
     1
 62
    18
420
        0
176
     1
 90
       50
176
     1
 90
        3
176
     1
 62
     5
420
      255
176
     1
290
     0
176
     1
 90
       50
176
     1
 90
       50
176
     1
 90
       50
176
     1
290
     0
176
     1
 90
       50
176
     1
 62
   256
176
     0
 40
1.0
176
     0
 90
        2
176
     1
  1
strokes_ogs.tif
176
     1
290
     0
176
     1
 40
1.0
176
     1
 40
1.0
176
     1
1001
ACAD
1000
AcDbSavedByObjectVersion
1070
     0
  0
VISUALSTYLE
  5
3F
102
{ACAD_REACTORS
330
29
102
}
330
29
100
AcDbVisualStyle
  2
JitterOff
 70
    20
177
     3
291
     1
 70
    58
 90
        2
176
     0
 90
        2
176
     0
 90
        0
176
     0
 90
        0
176
     0
 40
0.6
176
     0
 40
30.0
176
     0
 62
     7
420
 16777215
176
     0
 90
        1
176
     0
 90
        4
176
     0
 62
     7
176
     0
 62
   257
176
     0
 90
        1
176
     0
 90
        1
176
     0
 40
1.0
176
     0
 90
       10
176
     2
 62
     7
176
     0
 40
1.0
176
     0
 90
        1
176
     0
 90
        6
176
     0
 90
        2
176
     0
 62
     7
176
     0
 90
        5
176
     0
 90
        0
176
     0
 90
        0
176
     0
290
     0
176
     0
 90
        1
176
     0
 40
0.0
176
     0
 90
        0
176
     0
290
     0
176
     0
290
     1
176
     0
290
     1
176
     0
290
     0
176
     0
290
     0
176
     0
290
     0
176
     0
290
     0
176
     0
290
     0
176
     0
290
     0
176
     0
 90
       50
176
     0
 40
0.0
176
     0
 40
1.0
176
     0
 90
        0
176
     0
 62
    18
420
        0
176
     0
 90
       50
176
     0
 90
        3
176
     0
 62
     5
420
      255
176
     0
290
     0
176
     0
 90
       50
176
     0
 90
       50
176
     0
 90
       50
176
     0
290
     0
176
     0
 90
       50
176
     0
 62
   256
176
     0
 40
1.0
176
     0
 90
        2
176
     0
  1
strokes_ogs.tif
176
     0
290
     0
176
     0
 40
1.0
176
     0
 40
1.0
176
     0
1001
ACAD
1000
AcDbSavedByObjectVersion
1070
     0
  0
VISUALSTYLE
  5
37
102
{ACAD_REACTORS
330
29
102
}
330
29
100
AcDbVisualStyle
  2
Linepattern
 70
    14
177
     3
291
     1
 70
    58
 90
        2
176
     1
 90
        2
176
     1
 90
        0
176
     1
 90
        0
176
     1
 40
0.6
176
     1
 40
30.0
176
     1
 62
     7
420
 16777215
176
     1
 90
        1
176
     1
 90
        4
176
     1
 62
     7
176
     1
 62
   257
176
     1
 90
        7
176
     1
 90
        7
176
     1
 40
1.0
176
     1
 90
        8
176
     1
 62
     7
176
     1
 40
1.0
176
     1
 90
        1
176
     1
 90
        6
176
     1
 90
        2
176
     1
 62
     7
176
     1
 90
        5
176
     1
 90
        0
176
     1
 90
        0
176
     1
290
     0
176
     1
 90
        1
176
     1
 40
0.0
176
     1
 90
        0
176
     1
290
     0
176
     1
290
     1
176
     1
290
     1
176
     1
290
     0
176
     1
290
     0
176
     1
290
     0
176
     1
290
     0
176
     1
290
     0
176
     1
290
     0
176
     1
 90
       50
176
     1
 40
0.0
176
     1
 40
1.0
176
     1
 90
        0
176
     1
 62
    18
420
        0
176
     1
 90
       50
176
     1
 90
        3
176
     1
 62
     5
420
      255
176
     1
290
     0
176
     1
 90
       50
176
     1
 90
       50
176
     1
 90
       50
176
     1
290
     0
176
     1
 90
       50
176
     1
 62
   256
176
     0
 40
1.0
176
     0
 90
        2
176
     1
  1
strokes_ogs.tif
176
     1
290
     0
176
     1
 40
1.0
176
     1
 40
1.0
176
     1
1001
ACAD
1000
AcDbSavedByObjectVersion
1070
     0
  0
VISUALSTYLE
  5
40
102
{ACAD_REACTORS
330
29
102
}
330
29
100
AcDbVisualStyle
  2
OverhangOff
 70
    21
177
     3
291
     1
 70
    58
 90
        2
176
     0
 90
        2
176
     0
 90
        0
176
     0
 90
        0
176
     0
 40
0.6
176
     0
 40
30.0
176
     0
 62
     7
420
 16777215
176
     0
 90
        1
176
     0
 90
        4
176
     0
 62
     7
176
     0
 62
   257
176
     0
 90
        1
176
     0
 90
        1
176
     0
 40
1.0
176
     0
 90
        9
176
     2
 62
     7
176
     0
 40
1.0
176
     0
 90
        1
176
     0
 90
        6
176
     0
 90
        2
176
     0
 62
     7
176
     0
 90
        5
176
     0
 90
        0
176
     0
 90
        0
176
     0
290
     0
176
     0
 90
        1
176
     0
 40
0.0
176
     0
 90
        0
176
     0
290
     0
176
     0
290
     1
176
     0
290
     1
176
     0
290
     0
176
     0
290
     0
176
     0
290
     0
176
     0
290
     0
176
     0
290
     0
176
     0
290
     0
176
     0
 90
       50
176
     0
 40
0.0
176
     0
 40
1.0
176
     0
 90
        0
176
     0
 62
    18
420
        0
176
     0
 90
       50
176
     0
 90
        3
176
     0
 62
     5
420
      255
176
     0
290
     0
176
     0
 90
       50
176
     0
 90
       50
176
     0
 90
       50
176
     0
290
     0
176
     0
 90
       50
176
     0
 62
   256
176
     0
 40
1.0
176
     0
 90
        2
176
     0
  1
strokes_ogs.tif
176
     0
290
     0
176
     0
 40
1.0
176
     0
 40
1.0
176
     0
1001
ACAD
1000
AcDbSavedByObjectVersion
1070
     0
  0
VISUALSTYLE
  5
33
102
{ACAD_REACTORS
330
29
102
}
330
29
100
AcDbVisualStyle
  2
Realistic
 70
     8
177
     3
291
     0
 70
    58
 90
        2
176
     1
 90
        3
176
     1
 90
        0
176
     1
 90
        2
176
     1
 40
0.6
176
     1
 40
30.0
176
     1
 62
     7
420
 16777215
176
     1
 90
        0
176
     1
 90
        0
176
     1
 62
     7
176
     1
 62
   257
176
     1
 90
        1
176
     1
 90
        1
176
     1
 40
1.0
176
     1
 90
        8
176
     1
 62
   257
176
     1
 40
1.0
176
     1
 90
        1
176
     1
 90
        6
176
     1
 90
        2
176
     1
 62
     7
176
     1
 90
        3
176
     1
 90
        0
176
     1
 90
        0
176
     1
290
     0
176
     1
 90
       13
176
     1
 40
0.0
176
     1
 90
        0
176
     1
290
     0
176
     1
290
     1
176
     1
290
     1
176
     1
290
     0
176
     1
290
     0
176
     1
290
     0
176
     1
290
     0
176
     1
290
     0
176
     1
290
     0
176
     1
 90
       50
176
     1
 40
0.0
176
     1
 40
1.0
176
     1
 90
        0
176
     1
 62
    18
420
        0
176
     1
 90
       50
176
     1
 90
        3
176
     1
 62
     5
420
      255
176
     1
290
     0
176
     1
 90
       50
176
     1
 90
       50
176
     1
 90
       50
176
     1
290
     0
176
     1
 90
       50
176
     1
 62
   256
176
     0
 40
1.0
176
     0
 90
        2
176
     1
  1
strokes_ogs.tif
176
     1
290
     0
176
     1
 40
1.0
176
     1
 40
1.0
176
     1
1001
ACAD
1000
AcDbSavedByObjectVersion
1070
     0
  0
VISUALSTYLE
  5
3E
102
{ACAD_REACTORS
330
29
102
}
330
29
100
AcDbVisualStyle
  2
Shaded
 70
    27
177
     3
291
     0
 70
    58
 90
        2
176
     1
 90
        2
176
     1
 90
        1
176
     1
 90
        2
176
     1
 40
0.6
176
     1
 40
30.0
176
     1
 62
     7
420
 16777215
176
     1
 90
        0
176
     1
 90
        4
176
     1
 62
     7
176
     1
 62
   257
176
     1
 90
        1
176
     1
 90
        1
176
     1
 40
1.0
176
     1
 90
        8
176
     1
 62
   257
176
     1
 40
1.0
176
     1
 90
        1
176
     1
 90
        6
176
     1
 90
        2
176
     1
 62
     8
420
  7895160
176
     1
 90
        3
176
     1
 90
        0
176
     1
 90
        0
176
     1
290
     0
176
     1
 90
        5
176
     1
 40
0.0
176
     1
 90
        0
176
     1
290
     0
176
     1
290
     1
176
     1
290
     1
176
     1
290
     0
176
     1
290
     0
176
     1
290
     0
176
     1
290
     0
176
     1
290
     0
176
     1
290
     0
176
     1
 90
       50
176
     1
 40
0.0
176
     1
 40
1.0
176
     1
 90
        0
176
     1
 62
    18
420
        0
176
     1
 90
       50
176
     1
 90
        3
176
     1
 62
     5
420
      255
176
     1
290
     0
176
     1
 90
       50
176
     1
 90
       50
176
     1
 90
       50
176
     1
290
     0
176
     1
 90
       50
176
     1
 62
   256
176
     0
 40
1.0
176
     0
 90
        2
176
     1
  1
strokes_ogs.tif
176
     1
290
     0
176
     1
 40
1.0
176
     1
 40
1.0
176
     1
1001
ACAD
1000
AcDbSavedByObjectVersion
1070
     0
  0
VISUALSTYLE
  5
3D
102
{ACAD_REACTORS
330
29
102
}
330
29
100
AcDbVisualStyle
  2
Shaded with edges
 70
    26
177
     3
291
     0
 70
    58
 90
        2
176
     1
 90
        2
176
     1
 90
        1
176
     1
 90
        2
176
     1
 40
0.6
176
     1
 40
30.0
176
     1
 62
     7
420
 16777215
176
     1
 90
        1
176
     1
 90
        2
176
     1
 62
     7
176
     1
 62
   257
176
     1
 90
        2
176
     1
 90
        1
176
     1
 40
1.0
176
     1
 90
        8
176
     1
 62
   257
176
     1
 40
1.0
176
     1
 90
        1
176
     1
 90
        6
176
     1
 90
        2
176
     1
 62
     7
176
     1
 90
        3
176
     1
 90
        0
176
     1
 90
        0
176
     1
290
     0
176
     1
 90
        5
176
     1
 40
0.0
176
     1
 90
        0
176
     1
290
     0
176
     1
290
     1
176
     1
290
     1
176
     1
290
     0
176
     1
290
     0
176
     1
290
     0
176
     1
290
     0
176
     1
290
     0
176
     1
290
     0
176
     1
 90
       50
176
     1
 40
0.0
176
     1
 40
1.0
176
     1
 90
        0
176
     1
 62
    18
420
        0
176
     1
 90
       50
176
     1
 90
        3
176
     1
 62
     5
420
      255
176
     1
290
     0
176
     1
 90
       50
176
     1
 90
       50
176
     1
 90
       50
176
     1
290
     0
176
     1
 90
       50
176
     1
 62
   256
176
     0
 40
1.0
176
     0
 90
        2
176
     1
  1
strokes_ogs.tif
176
     1
290
     0
176
     1
 40
1.0
176
     1
 40
1.0
176
     1
1001
ACAD
1000
AcDbSavedByObjectVersion
1070
     0
  0
VISUALSTYLE
  5
3A
102
{ACAD_REACTORS
330
29
102
}
330
29
100
AcDbVisualStyle
  2
Shades of Gray
 70
    23
177
     3
291
     0
 70
    58
 90
        2
176
     1
 90
        2
176
     1
 90
        3
176
     1
 90
        0
176
     1
 40
0.6
176
     1
 40
30.0
176
     1
 62
     7
420
 16777215
176
     1
 90
        2
176
     1
 90
        2
176
     1
 62
     7
176
     1
 62
     7
176
     1
 90
        1
176
     1
 90
        1
176
     1
 40
40.0
176
     1
 90
        8
176
     1
 62
     7
176
     1
 40
1.0
176
     1
 90
        1
176
     1
 90
        6
176
     1
 90
        2
176
     1
 62
     7
176
     1
 90
        3
176
     1
 90
        0
176
     1
 90
        0
176
     1
290
     0
176
     1
 90
        1
176
     1
 40
0.0
176
     1
 90
        0
176
     1
290
     0
176
     1
290
     1
176
     1
290
     1
176
     1
290
     0
176
     1
290
     0
176
     1
290
     0
176
     1
290
     0
176
     1
290
     0
176
     1
290
     0
176
     1
 90
       50
176
     1
 40
0.0
176
     1
 40
1.0
176
     1
 90
        0
176
     1
 62
    18
420
        0
176
     1
 90
       50
176
     1
 90
        3
176
     1
 62
     5
420
      255
176
     1
290
     0
176
     1
 90
       50
176
     1
 90
       50
176
     1
 90
       50
176
     1
290
     0
176
     1
 90
       50
176
     1
 62
   256
176
     0
 40
1.0
176
     0
 90
        2
176
     1
  1
strokes_ogs.tif
176
     1
290
     0
176
     1
 40
1.0
176
     1
 40
1.0
176
     1
1001
ACAD
1000
AcDbSavedByObjectVersion
1070
     0
  0
VISUALSTYLE
  5
3B
102
{ACAD_REACTORS
330
29
102
}
330
29
100
AcDbVisualStyle
  2
Sketchy
 70
    24
177
     3
291
     0
 70
    58
 90
        1
176
     1
 90
        2
176
     1
 90
        2
176
     1
 90
        0
176
     1
 40
0.6
176
     1
 40
30.0
176
     1
 62
     7
420
 16777215
176
     1
 90
        2
176
     1
 90
        2
176
     1
 62
     7
176
     1
 62
     7
176
     1
 90
        1
176
     1
 90
        1
176
     1
 40
40.0
176
     1
 90
       11
176
     1
 62
     7
176
     1
 40
1.0
176
     1
 90
        1
176
     1
 90
        6
176
     1
 90
        2
176
     1
 62
     7
176
     1
 90
        6
176
     1
 90
        0
176
     1
 90
        0
176
     1
290
     0
176
     1
 90
        1
176
     1
 40
0.0
176
     1
 90
        0
176
     1
290
     0
176
     1
290
     1
176
     1
290
     1
176
     1
290
     0
176
     1
290
     0
176
     1
290
     0
176
     1
290
     0
176
     1
290
     0
176
     1
290
     0
176
     1
 90
       50
176
     1
 40
0.0
176
     1
 40
1.0
176
     1
 90
        0
176
     1
 62
    18
420
        0
176
     1
 90
       50
176
     1
 90
        3
176
     1
 62
     5
420
      255
176
     1
290
     0
176
     1
 90
       50
176
     1
 90
       50
176
     1
 90
       50
176
     1
290
     0
176
     1
 90
       50
176
     1
 62
   256
176
     0
 40
1.0
176
     0
 90
        2
176
     1
  1
strokes_ogs.tif
176
     1
290
     0
176
     1
 40
1.0
176
     1
 40
1.0
176
     1
1001
ACAD
1000
AcDbSavedByObjectVersion
1070
     0
  0
VISUALSTYLE
  5
36
102
{ACAD_REACTORS
330
29
102
}
330
29
100
AcDbVisualStyle
  2
Thicken
 70
    13
177
     3
291
     1
 70
    58
 90
        2
176
     1
 90
        2
176
     1
 90
        0
176
     1
 90
        0
176
     1
 40
0.6
176
     1
 40
30.0
176
     1
 62
     7
420
 16777215
176
     1
 90
        1
176
     1
 90
        4
176
     1
 62
     7
176
     1
 62
   257
176
     1
 90
        1
176
     1
 90
        1
176
     1
 40
1.0
176
     1
 90
       12
176
     1
 62
     7
176
     1
 40
1.0
176
     1
 90
        1
176
     1
 90
        6
176
     1
 90
        2
176
     1
 62
     7
176
     1
 90
        5
176
     1
 90
        0
176
     1
 90
        0
176
     1
290
     0
176
     1
 90
        1
176
     1
 40
0.0
176
     1
 90
        0
176
     1
290
     0
176
     1
290
     1
176
     1
290
     1
176
     1
290
     0
176
     1
290
     0
176
     1
290
     0
176
     1
290
     0
176
     1
290
     0
176
     1
290
     0
176
     1
 90
       50
176
     1
 40
0.0
176
     1
 40
1.0
176
     1
 90
        0
176
     1
 62
    18
420
        0
176
     1
 90
       50
176
     1
 90
        3
176
     1
 62
     5
420
      255
176
     1
290
     0
176
     1
 90
       50
176
     1
 90
       50
176
     1
 90
       50
176
     1
290
     0
176
     1
 90
       50
176
     1
 62
   256
176
     0
 40
1.0
176
     0
 90
        2
176
     1
  1
strokes_ogs.tif
176
     1
290
     0
176
     1
 40
1.0
176
     1
 40
1.0
176
     1
1001
ACAD
1000
AcDbSavedByObjectVersion
1070
     0
  0
VISUALSTYLE
  5
30
102
{ACAD_REACTORS
330
29
102
}
330
29
100
AcDbVisualStyle
  2
Wireframe
 70
     5
177
     3
291
     0
 70
    58
 90
        0
176
     1
 90
        2
176
     1
 90
        0
176
     1
 90
        0
176
     1
 40
0.6
176
     1
 40
30.0
176
     1
 62
     7
420
 16777215
176
     1
 90
        1
176
     1
 90
        4
176
     1
 62
     7
176
     1
 62
   257
176
     1
 90
        1
176
     1
 90
        1
176
     1
 40
1.0
176
     1
 90
        0
176
     1
 62
   257
176
     1
 40
1.0
176
     1
 90
        1
176
     1
 90
        6
176
     1
 90
        2
176
     1
 62
     7
176
     1
 90
        3
176
     1
 90
        0
176
     1
 90
        0
176
     1
290
     0
176
     1
 90
        1
176
     1
 40
0.0
176
     1
 90
        0
176
     1
290
     0
176
     1
290
     1
176
     1
290
     1
176
     1
290
     0
176
     1
290
     0
176
     1
290
     0
176
     1
290
     0
176
     1
290
     0
176
     1
290
     0
176
     1
 90
       50
176
     1
 40
0.0
176
     1
 40
1.0
176
     1
 90
        0
176
     1
 62
    18
420
        0
176
     1
 90
       50
176
     1
 90
        3
176
     1
 62
     5
420
      255
176
     1
290
     0
176
     1
 90
       50
176
     1
 90
       50
176
     1
 90
       50
176
     1
290
     0
176
     1
 90
       50
176
     1
 62
   256
176
     0
 40
1.0
176
     0
 90
        2
176
     1
  1
strokes_ogs.tif
176
     1
290
     0
176
     1
 40
1.0
176
     1
 40
1.0
176
     1
1001
ACAD
1000
AcDbSavedByObjectVersion
1070
     0
  0
VISUALSTYLE
  5
3C
102
{ACAD_REACTORS
330
29
102
}
330
29
100
AcDbVisualStyle
  2
X-Ray
 70
    25
177
     3
291
     0
 70
    58
 90
        2
176
     1
 90
        2
176
     1
 90
        1
176
     1
 90
        1
176
     1
 40
0.5
176
     1
 40
30.0
176
     1
 62
     7
420
 16777215
176
     1
 90
        1
176
     1
 90
        0
176
     1
 62
     7
176
     1
 62
   257
176
     1
 90
        1
176
     1
 90
        1
176
     1
 40
1.0
176
     1
 90
        8
176
     1
 62
     7
176
     1
 40
1.0
176
     1
 90
        1
176
     1
 90
        6
176
     1
 90
        2
176
     1
 62
     7
176
     1
 90
        3
176
     1
 90
        0
176
     1
 90
        0
176
     1
290
     0
176
     1
 90
       13
176
     1
 40
0.0
176
     1
 90
        0
176
     1
290
     0
176
     1
290
     1
176
     1
290
     1
176
     1
290
     0
176
     1
290
     0
176
     1
290
     0
176
     1
290
     0
176
     1
290
     0
176
     1
290
     0
176
     1
 90
       50
176
     1
 40
0.0
176
     1
 40
1.0
176
     1
 90
        0
176
     1
 62
    18
420
        0
176
     1
 90
       50
176
     1
 90
        3
176
     1
 62
     5
420
      255
176
     1
290
     0
176
     1
 90
       50
176
     1
 90
       50
176
     1
 90
       50
176
     1
290
     0
176
     1
 90
       50
176
     1
 62
   256
176
     0
 40
1.0
176
     0
 90
        2
176
     1
  1
strokes_ogs.tif
176
     1
290
     0
176
     1
 40
1.0
176
     1
 40
1.0
176
     1
1001
ACAD
1000
AcDbSavedByObjectVersion
1070
     0
  0
DICTIONARYVAR
  5
421
102
{ACAD_REACTORS
330
41C
102
}
330
41C
100
DictionaryVariables
280
     0
  1
0
  0
DICTIONARYVAR
  5
422
102
{ACAD_REACTORS
330
41C
102
}
330
41C
100
DictionaryVariables
280
     0
  1
1:1
  0
DICTIONARYVAR
  5
41E
102
{ACAD_REACTORS
330
41C
102
}
330
41C
100
DictionaryVariables
280
     0
  1
STANDARD
  0
DICTIONARYVAR
  5
41D
102
{ACAD_REACTORS
330
41C
102
}
330
41C
100
DictionaryVariables
280
     0
  1
STANDARD
  0
DICTIONARYVAR
  5
41F
102
{ACAD_REACTORS
330
41C
102
}
330
41C
100
DictionaryVariables
280
     0
  1
Imperial24
  0
DICTIONARYVAR
  5
420
102
{ACAD_REACTORS
330
41C
102
}
330
41C
100
DictionaryVariables
280
     0
  1
Imperial24
  0
DICTIONARY
  5
428
330
6B
100
AcDbDictionary
280
     1
281
     1
  3
ACAD_XREC_ROUNDTRIP
360
429
  0
DICTIONARY
  5
1A
330
19
100
AcDbDictionary
280
     1
281
     1
  3
BUMPTILE
360
1C
  3
DIFFUSETILE
360
1B
  3
OPACITYTILE
360
1F
  3
REFLECTIONTILE
360
1E
  3
REFRACTIONTILE
360
20
  3
SPECULARTILE
360
1D
  0
DICTIONARY
  5
12
330
11
100
AcDbDictionary
280
     1
281
     1
  3
BUMPTILE
360
14
  3
DIFFUSETILE
360
13
  3
OPACITYTILE
360
17
  3
REFLECTIONTILE
360
16
  3
REFRACTIONTILE
360
18
  3
SPECULARTILE
360
15
  0
DICTIONARY
  5
22
330
21
100
AcDbDictionary
280
     1
281
     1
  3
BUMPTILE
360
24
  3
DIFFUSETILE
360
23
  3
OPACITYTILE
360
27
  3
REFLECTIONTILE
360
26
  3
REFRACTIONTILE
360
28
  3
SPECULARTILE
360
25
  0
DICTIONARY
  5
426
330
69
100
AcDbDictionary
280
     1
281
     1
  3
ACAD_XREC_ROUNDTRIP
360
427
  0
DICTIONARY
  5
423
330
65
100
AcDbDictionary
280
     1
281
     1
  3
ACAD_ROUNDTRIP_2008_TABLESTYLE_CELLSTYLEMAP
360
424
  0
XRECORD
  5
429
102
{ACAD_REACTORS
330
428
102
}
330
428
100
AcDbXrecord
280
     1
102
DISPLAYNAME
  1
Imperial24
102
FLAGS
 90
        0
  0
XRECORD
  5
1C
102
{ACAD_REACTORS
330
1A
102
}
330
1A
100
AcDbXrecord
280
     1
270
     1
271
     1
  0
XRECORD
  5
1B
102
{ACAD_REACTORS
330
1A
102
}
330
1A
100
AcDbXrecord
280
     1
270
     1
271
     1
  0
XRECORD
  5
1F
102
{ACAD_REACTORS
330
1A
102
}
330
1A
100
AcDbXrecord
280
     1
270
     1
271
     1
  0
XRECORD
  5
1E
102
{ACAD_REACTORS
330
1A
102
}
330
1A
100
AcDbXrecord
280
     1
270
     1
271
     1
  0
XRECORD
  5
20
102
{ACAD_REACTORS
330
1A
102
}
330
1A
100
AcDbXrecord
280
     1
270
     1
271
     1
  0
XRECORD
  5
1D
102
{ACAD_REACTORS
330
1A
102
}
330
1A
100
AcDbXrecord
280
     1
270
     1
271
     1
  0
XRECORD
  5
14
102
{ACAD_REACTORS
330
12
102
}
330
12
100
AcDbXrecord
280
     1
270
     1
271
     1
  0
XRECORD
  5
13
102
{ACAD_REACTORS
330
12
102
}
330
12
100
AcDbXrecord
280
     1
270
     1
271
     1
  0
XRECORD
  5
17
102
{ACAD_REACTORS
330
12
102
}
330
12
100
AcDbXrecord
280
     1
270
     1
271
     1
  0
XRECORD
  5
16
102
{ACAD_REACTORS
330
12
102
}
330
12
100
AcDbXrecord
280
     1
270
     1
271
     1
  0
XRECORD
  5
18
102
{ACAD_REACTORS
330
12
102
}
330
12
100
AcDbXrecord
280
     1
270
     1
271
     1
  0
XRECORD
  5
15
102
{ACAD_REACTORS
330
12
102
}
330
12
100
AcDbXrecord
280
     1
270
     1
271
     1
  0
XRECORD
  5
24
102
{ACAD_REACTORS
330
22
102
}
330
22
100
AcDbXrecord
280
     1
270
     1
271
     1
  0
XRECORD
  5
23
102
{ACAD_REACTORS
330
22
102
}
330
22
100
AcDbXrecord
280
     1
270
     1
271
     1
  0
XRECORD
  5
27
102
{ACAD_REACTORS
330
22
102
}
330
22
100
AcDbXrecord
280
     1
270
     1
271
     1
  0
XRECORD
  5
26
102
{ACAD_REACTORS
330
22
102
}
330
22
100
AcDbXrecord
280
     1
270
     1
271
     1
  0
XRECORD
  5
28
102
{ACAD_REACTORS
330
22
102
}
330
22
100
AcDbXrecord
280
     1
270
     1
271
     1
  0
XRECORD
  5
25
102
{ACAD_REACTORS
330
22
102
}
330
22
100
AcDbXrecord
280
     1
270
     1
271
     1
  0
XRECORD
  5
427
102
{ACAD_REACTORS
330
426
102
}
330
426
100
AcDbXrecord
280
     1
102
DISPLAYNAME
  1
Imperial24
102
FLAGS
 90
        0
  0
CELLSTYLEMAP
  5
424
102
{ACAD_REACTORS
330
423
102
}
330
423
100
AcDbCellStyleMap
 90
        3
300
CELLSTYLE
  1
TABLEFORMAT_BEGIN
 90
        5
170
     1
 91
        0
 92
    32768
 62
   257
 93
        1
300
CONTENTFORMAT
  1
CONTENTFORMAT_BEGIN
 90
        0
 91
        0
 92
      512
 93
        0
300

 40
0.0
140
1.0
 94
        5
 62
     0
340
55
144
0.25
309
CONTENTFORMAT_END
171
     0
 94
        0
309
TABLEFORMAT_END
  1
CELLSTYLE_BEGIN
 90
        1
 91
        1
300
_TITLE
309
CELLSTYLE_END
300
CELLSTYLE
  1
TABLEFORMAT_BEGIN
 90
        5
170
     1
 91
        0
 92
        0
 62
   257
 93
        1
300
CONTENTFORMAT
  1
CONTENTFORMAT_BEGIN
 90
        0
 91
        0
 92
      512
 93
        0
300

 40
0.0
140
1.0
 94
        5
 62
     0
340
55
144
0.18
309
CONTENTFORMAT_END
171
     0
 94
        0
309
TABLEFORMAT_END
  1
CELLSTYLE_BEGIN
 90
        2
 91
        1
300
_HEADER
309
CELLSTYLE_END
300
CELLSTYLE
  1
TABLEFORMAT_BEGIN
 90
        5
170
     1
 91
        0
 92
        0
 62
   257
 93
        1
300
CONTENTFORMAT
  1
CONTENTFORMAT_BEGIN
 90
        0
 91
        0
 92
      512
 93
        0
300

 40
0.0
140
1.0
 94
        2
 62
     0
340
55
144
0.18
309
CONTENTFORMAT_END
171
     0
 94
        0
309
TABLEFORMAT_END
  1
CELLSTYLE_BEGIN
 90
        3
 91
        2
300
_DATA
309
CELLSTYLE_END
  0
ENDSEC
  0
EOF
