  0
SECTION
  2
HEADER
  9
$ACADVER
  1
AC1027
  9
$ACADMAINTVER
 70
   125
  9
$DWGCODEPAGE
  3
ANSI_1252
  9
$LASTSAVEDBY
  1
Administrator
  9
$REQUIREDVERSIONS
160
                 0
  9
$INSBASE
 10
0.0
 20
0.0
 30
0.0
  9
$EXTMIN
 10
0.0
 20
0.0
 30
-0.238751
  9
$EXTMAX
 10
17.0
 20
11.0
 30
120.0
  9
$LIMMIN
 10
0.0
 20
0.0
  9
$LIMMAX
 10
17.0
 20
11.0
  9
$ORTHOMODE
 70
     0
  9
$REGENMODE
 70
     1
  9
$FILLMODE
 70
     1
  9
$QTEXTMODE
 70
     0
  9
$MIRRTEXT
 70
     0
  9
$LTSCALE
 40
0.75
  9
$ATTMODE
 70
     1
  9
$TEXTSIZE
 40
0.12
  9
$TRACEWID
 40
0.05
  9
$TEXTSTYLE
  7
Standard
  9
$CLAYER
  8
Titleblock
  9
$CELTYPE
  6
ByLayer
  9
$CECOLOR
 62
   256
  9
$CELTSCALE
 40
1.0
  9
$DISPSILH
 70
     0
  9
$DIMSCALE
 40
1.0
  9
$DIMASZ
 40
0.12
  9
$DIMEXO
 40
0.05
  9
$DIMDLI
 40
0.339411
  9
$DIMRND
 40
0.0
  9
$DIMDLE
 40
0.0
  9
$DIMEXE
 40
0.1
  9
$DIMTP
 40
0.01
  9
$DIMTM
 40
0.01
  9
$DIMTXT
 40
0.12
  9
$DIMCEN
 40
0.0
  9
$DIMTSZ
 40
0.0
  9
$DIMTOL
 70
     0
  9
$DIMLIM
 70
     0
  9
$DIMTIH
 70
     1
  9
$DIMTOH
 70
     1
  9
$DIMSE1
 70
     0
  9
$DIMSE2
 70
     0
  9
$DIMTAD
 70
     0
  9
$DIMZIN
 70
    12
  9
$DIMBLK
  1

  9
$DIMASO
 70
     1
  9
$DIMSHO
 70
     1
  9
$DIMPOST
  1
in
  9
$DIMAPOST
  1
mm
  9
$DIMALT
 70
     0
  9
$DIMALTD
 70
     2
  9
$DIMALTF
 40
25.4
  9
$DIMLFAC
 40
1.0
  9
$DIMTOFL
 70
     0
  9
$DIMTVP
 40
0.0
  9
$DIMTIX
 70
     0
  9
$DIMSOXD
 70
     0
  9
$DIMSAH
 70
     0
  9
$DIMBLK1
  1

  9
$DIMBLK2
  1

  9
$DIMSTYLE
  2
Standard
  9
$DIMCLRD
 70
   256
  9
$DIMCLRE
 70
   256
  9
$DIMCLRT
 70
   256
  9
$DIMTFAC
 40
1.0
  9
$DIMGAP
 40
0.06
  9
$DIMJUST
 70
     0
  9
$DIMSD1
 70
     0
  9
$DIMSD2
 70
     0
  9
$DIMTOLJ
 70
     1
  9
$DIMTZIN
 70
    12
  9
$DIMALTZ
 70
    12
  9
$DIMALTTZ
 70
    12
  9
$DIMUPT
 70
     0
  9
$DIMDEC
 70
     3
  9
$DIMTDEC
 70
     3
  9
$DIMALTU
 70
     2
  9
$DIMALTTD
 70
     2
  9
$DIMTXSTY
  7
Standard
  9
$DIMAUNIT
 70
     0
  9
$DIMADEC
 70
     3
  9
$DIMALTRND
 40
0.0
  9
$DIMAZIN
 70
     3
  9
$DIMDSEP
 70
    46
  9
$DIMATFIT
 70
     3
  9
$DIMFRAC
 70
     0
  9
$DIMLDRBLK
  1

  9
$DIMLUNIT
 70
     2
  9
$DIMLWD
 70
    -2
  9
$DIMLWE
 70
    -2
  9
$DIMTMOVE
 70
     0
  9
$DIMFXL
 40
1.0
  9
$DIMFXLON
 70
     0
  9
$DIMJOGANG
 40
0.785398
  9
$DIMTFILL
 70
     0
  9
$DIMTFILLCLR
 70
     0
  9
$DIMARCSYM
 70
     1
  9
$DIMLTYPE
  6

  9
$DIMLTEX1
  6

  9
$DIMLTEX2
  6

  9
$DIMTXTDIRECTION
 70
     0
  9
$LUNITS
 70
     2
  9
$LUPREC
 70
     4
  9
$SKETCHINC
 40
0.1
  9
$FILLETRAD
 40
0.0
  9
$AUNITS
 70
     0
  9
$AUPREC
 70
     0
  9
$MENU
  1
.
  9
$ELEVATION
 40
0.0
  9
$PELEVATION
 40
0.0
  9
$THICKNESS
 40
0.0
  9
$LIMCHECK
 70
     0
  9
$CHAMFERA
 40
0.0
  9
$CHAMFERB
 40
0.0
  9
$CHAMFERC
 40
0.0
  9
$CHAMFERD
 40
0.0
  9
$SKPOLY
 70
     0
  9
$TDCREATE
 40
2459327.669375000
  9
$TDUCREATE
 40
2459327.961041667
  9
$TDUPDATE
 40
2459327.669375000
  9
$TDUUPDATE
 40
2459327.961041667
  9
$TDINDWG
 40
0.0000115741
  9
$TDUSRTIMER
 40
0.0000115741
  9
$USRTIMER
 70
     1
  9
$ANGBASE
 50
0.0
  9
$ANGDIR
 70
     0
  9
$PDMODE
 70
     0
  9
$PDSIZE
 40
0.0
  9
$PLINEWID
 40
0.0
  9
$SPLFRAME
 70
     0
  9
$SPLINETYPE
 70
     6
  9
$SPLINESEGS
 70
     8
  9
$HANDSEED
  5
87D
  9
$SURFTAB1
 70
     6
  9
$SURFTAB2
 70
     6
  9
$SURFTYPE
 70
     6
  9
$SURFU
 70
     6
  9
$SURFV
 70
     6
  9
$UCSBASE
  2

  9
$UCSNAME
  2

  9
$UCSORG
 10
0.0
 20
0.0
 30
0.0
  9
$UCSXDIR
 10
1.0
 20
0.0
 30
0.0
  9
$UCSYDIR
 10
0.0
 20
1.0
 30
0.0
  9
$UCSORTHOREF
  2

  9
$UCSORTHOVIEW
 70
     0
  9
$UCSORGTOP
 10
0.0
 20
0.0
 30
0.0
  9
$UCSORGBOTTOM
 10
0.0
 20
0.0
 30
0.0
  9
$UCSORGLEFT
 10
0.0
 20
0.0
 30
0.0
  9
$UCSORGRIGHT
 10
0.0
 20
0.0
 30
0.0
  9
$UCSORGFRONT
 10
0.0
 20
0.0
 30
0.0
  9
$UCSORGBACK
 10
0.0
 20
0.0
 30
0.0
  9
$PUCSBASE
  2

  9
$PUCSNAME
  2

  9
$PUCSORG
 10
0.0
 20
0.0
 30
0.0
  9
$PUCSXDIR
 10
1.0
 20
0.0
 30
0.0
  9
$PUCSYDIR
 10
0.0
 20
1.0
 30
0.0
  9
$PUCSORTHOREF
  2

  9
$PUCSORTHOVIEW
 70
     0
  9
$PUCSORGTOP
 10
0.0
 20
0.0
 30
0.0
  9
$PUCSORGBOTTOM
 10
0.0
 20
0.0
 30
0.0
  9
$PUCSORGLEFT
 10
0.0
 20
0.0
 30
0.0
  9
$PUCSORGRIGHT
 10
0.0
 20
0.0
 30
0.0
  9
$PUCSORGFRONT
 10
0.0
 20
0.0
 30
0.0
  9
$PUCSORGBACK
 10
0.0
 20
0.0
 30
0.0
  9
$USERI1
 70
     0
  9
$USERI2
 70
     0
  9
$USERI3
 70
     0
  9
$USERI4
 70
     0
  9
$USERI5
 70
     0
  9
$USERR1
 40
0.0
  9
$USERR2
 40
0.0
  9
$USERR3
 40
0.0
  9
$USERR4
 40
0.0
  9
$USERR5
 40
0.0
  9
$WORLDVIEW
 70
     1
  9
$SHADEDGE
 70
     3
  9
$SHADEDIF
 70
    70
  9
$TILEMODE
 70
     1
  9
$MAXACTVP
 70
    64
  9
$PINSBASE
 10
0.0
 20
0.0
 30
0.0
  9
$PLIMCHECK
 70
     0
  9
$PEXTMIN
 10
1.000000E+20
 20
1.000000E+20
 30
1.000000E+20
  9
$PEXTMAX
 10
-1.000000E+20
 20
-1.000000E+20
 30
-1.000000E+20
  9
$PLIMMIN
 10
0.0
 20
0.0
  9
$PLIMMAX
 10
12.0
 20
9.0
  9
$UNITMODE
 70
     0
  9
$VISRETAIN
 70
     1
  9
$PLINEGEN
 70
     0
  9
$PSLTSCALE
 70
     1
  9
$TREEDEPTH
 70
  3020
  9
$CMLSTYLE
  2
Standard
  9
$CMLJUST
 70
     0
  9
$CMLSCALE
 40
1.0
  9
$PROXYGRAPHICS
 70
     1
  9
$MEASUREMENT
 70
     0
  9
$CELWEIGHT
370
    -1
  9
$ENDCAPS
280
     0
  9
$JOINSTYLE
280
     0
  9
$LWDISPLAY
290
     0
  9
$INSUNITS
 70
     1
  9
$HYPERLINKBASE
  1

  9
$STYLESHEET
  1

  9
$XEDIT
290
     1
  9
$CEPSNTYPE
380
     0
  9
$PSTYLEMODE
290
     1
  9
$FINGERPRINTGUID
  2
{FE28680A-6192-FC4D-8D7D-470C7EB0E58D}
  9
$VERSIONGUID
  2
{D6B5ADB7-5268-6C4A-B86E-EEDF8BB4F548}
  9
$EXTNAMES
290
     1
  9
$PSVPSCALE
 40
0.0
  9
$OLESTARTUP
290
     0
  9
$SORTENTS
280
   127
  9
$INDEXCTL
280
     0
  9
$HIDETEXT
280
     1
  9
$XCLIPFRAME
280
     0
  9
$HALOGAP
280
     0
  9
$OBSCOLOR
 70
   257
  9
$OBSLTYPE
280
     0
  9
$INTERSECTIONDISPLAY
280
     0
  9
$INTERSECTIONCOLOR
 70
   257
  9
$DIMASSOC
280
     2
  9
$PROJECTNAME
  1

  9
$CAMERADISPLAY
290
     0
  9
$LENSLENGTH
 40
50.0
  9
$CAMERAHEIGHT
 40
0.0
  9
$STEPSPERSEC
 40
2.0
  9
$STEPSIZE
 40
6.0
  9
$3DDWFPREC
 40
2.0
  9
$PSOLWIDTH
 40
0.25
  9
$PSOLHEIGHT
 40
4.0
  9
$LOFTANG1
 40
1.570796
  9
$LOFTANG2
 40
1.570796
  9
$LOFTMAG1
 40
0.0
  9
$LOFTMAG2
 40
0.0
  9
$LOFTPARAM
 70
     7
  9
$LOFTNORMALS
280
     1
  9
$LATITUDE
 40
37.795
  9
$LONGITUDE
 40
-122.394
  9
$NORTHDIRECTION
 40
0.0
  9
$TIMEZONE
 70
 -8000
  9
$LIGHTGLYPHDISPLAY
280
     1
  9
$TILEMODELIGHTSYNCH
280
     1
  9
$CMATERIAL
347
11
  9
$SOLIDHIST
280
     0
  9
$SHOWHIST
280
     1
  9
$DWFFRAME
280
     2
  9
$DGNFRAME
280
     0
  9
$REALWORLDSCALE
290
     1
  9
$INTERFERECOLOR
 62
     1
  9
$INTERFEREOBJVS
345
33
  9
$INTERFEREVPVS
346
30
  9
$CSHADOW
280
     0
  9
$SHADOWPLANELOCATION
 40
0.0
  0
ENDSEC
  0
SECTION
  2
CLASSES
  0
CLASS
  1
ACDBDICTIONARYWDFLT
  2
AcDbDictionaryWithDefault
  3
ObjectDBX Classes
 90
        0
 91
        1
280
     0
281
     0
  0
CLASS
  1
MATERIAL
  2
AcDbMaterial
  3
ObjectDBX Classes
 90
     1153
 91
        3
280
     0
281
     0
  0
CLASS
  1
VISUALSTYLE
  2
AcDbVisualStyle
  3
ObjectDBX Classes
 90
     4095
 91
       24
280
     0
281
     0
  0
CLASS
  1
SCALE
  2
AcDbScale
  3
ObjectDBX Classes
 90
     1153
 91
       33
280
     0
281
     0
  0
CLASS
  1
TABLESTYLE
  2
AcDbTableStyle
  3
ObjectDBX Classes
 90
     4095
 91
        1
280
     0
281
     0
  0
CLASS
  1
MLEADERSTYLE
  2
AcDbMLeaderStyle
  3
ACDB_MLEADERSTYLE_CLASS
 90
     4095
 91
        1
280
     0
281
     0
  0
CLASS
  1
ACDBSECTIONVIEWSTYLE
  2
AcDbSectionViewStyle
  3
ObjectDBX Classes
 90
     1025
 91
        1
280
     0
281
     0
  0
CLASS
  1
ACDBDETAILVIEWSTYLE
  2
AcDbDetailViewStyle
  3
ObjectDBX Classes
 90
     1025
 91
        1
280
     0
281
     0
  0
CLASS
  1
ACMESCOPE
  2
AcMeScope
  3
AcMeServices
 90
     1024
 91
        1
280
     0
281
     0
  0
CLASS
  1
ACMECOMMANDHISTORY
  2
AcMeCommandHistory
  3
AcMeServices
 90
     1024
 91
        1
280
     0
281
     0
  0
CLASS
  1
ACIMSYSVARMAN
  2
AcImSysVarManager
  3
AcMeServices
 90
     1024
 91
        1
280
     0
281
     0
  0
CLASS
  1
ACIMINTSYSVAR
  2
AcImIntSysVar
  3
AcMeServices
 90
     1024
 91
        1
280
     0
281
     0
  0
CLASS
  1
ACMESTATEMGR
  2
AcMeStateMgr
  3
AcMeServices
 90
     1024
 91
        1
280
     0
281
     0
  0
CLASS
  1
ACGREFMASTER
  2
AcGrefMaster
  3
AcAttribServices
 90
     1024
 91
        1
280
     0
281
     0
  0
CLASS
  1
SORTENTSTABLE
  2
AcDbSortentsTable
  3
ObjectDBX Classes
 90
        0
 91
        6
280
     0
281
     0
  0
CLASS
  1
IMAGE
  2
AcDbRasterImage
  3
ISM
 90
     2175
 91
        1
280
     0
281
     1
  0
CLASS
  1
IMAGEDEF
  2
AcDbRasterImageDef
  3
ISM
 90
        0
 91
        1
280
     0
281
     0
  0
CLASS
  1
IMAGEDEF_REACTOR
  2
AcDbRasterImageDefReactor
  3
ISM
 90
        1
 91
        2
280
     0
281
     0
  0
CLASS
  1
RASTERVARIABLES
  2
AcDbRasterVariables
  3
ISM
 90
        0
 91
        1
280
     0
281
     0
  0
CLASS
  1
FIELD
  2
AcDbField
  3
ObjectDBX Classes
 90
     1152
 91
        4
280
     0
281
     0
  0
CLASS
  1
FIELDLIST
  2
AcDbFieldList
  3
ObjectDBX Classes
 90
     1152
 91
        1
280
     0
281
     0
  0
CLASS
  1
DICTIONARYVAR
  2
AcDbDictionaryVar
  3
ObjectDBX Classes
 90
        0
 91
        6
280
     0
281
     0
  0
CLASS
  1
CELLSTYLEMAP
  2
AcDbCellStyleMap
  3
ObjectDBX Classes
 90
     1152
 91
        1
280
     0
281
     0
  0
ENDSEC
  0
SECTION
  2
TABLES
  0
TABLE
  2
VPORT
  5
8
330
0
100
AcDbSymbolTable
 70
     1
1001
ACAD
1000
DbSaveVer
1071
      223
  0
VPORT
  5
57
330
8
100
AcDbSymbolTableRecord
100
AcDbViewportTableRecord
  2
*Active
 70
     0
 10
0.0
 20
0.0
 11
1.0
 21
1.0
 12
8.5
 22
5.5
 13
0.0
 23
0.0
 14
0.5
 24
0.5
 15
0.0
 25
0.0
 16
0.0
 26
0.0
 36
1.0
 17
0.0
 27
0.0
 37
0.0
 40
11.0
 41
1.77906
 42
50.0
 43
0.0
 44
0.0
 50
0.0
 51
0.0
 71
     0
 72
 20000
 73
     1
 74
     0
 75
     0
 76
     0
 77
     0
 78
     0
281
     0
 65
     1
110
0.0
120
0.0
130
0.0
111
1.0
121
0.0
131
0.0
112
0.0
122
1.0
132
0.0
 79
     0
146
0.0
348
2F
 60
     3
 61
     5
292
     1
282
     1
141
0.0
142
0.0
 63
   250
421
  3355443
  0
ENDTAB
  0
TABLE
  2
LTYPE
  5
5
330
0
100
AcDbSymbolTable
 70
    10
  0
LTYPE
  5
5B
330
5
100
AcDbSymbolTableRecord
100
AcDbLinetypeTableRecord
  2
ByBlock
 70
     0
  3

 72
    65
 73
     0
 40
0.0
  0
LTYPE
  5
5C
330
5
100
AcDbSymbolTableRecord
100
AcDbLinetypeTableRecord
  2
ByLayer
 70
     0
  3

 72
    65
 73
     0
 40
0.0
  0
LTYPE
  5
5D
330
5
100
AcDbSymbolTableRecord
100
AcDbLinetypeTableRecord
  2
Continuous
 70
     0
  3
Solid line
 72
    65
 73
     0
 40
0.0
  0
LTYPE
  5
81
330
5
100
AcDbSymbolTableRecord
100
AcDbLinetypeTableRecord
  2
HIDDEN
 70
     0
  3
Hidden __ __ __ __ __ __ __ __ __ __ __ __ __ _
 72
    65
 73
     2
 40
0.375
 49
0.25
 74
     0
 49
-0.125
 74
     0
  0
LTYPE
  5
82
330
5
100
AcDbSymbolTableRecord
100
AcDbLinetypeTableRecord
  2
PHANTOM2
 70
     0
  3
Phantom (.5x) ___ _ _ ___ _ _ ___ _ _ ___ _ _
 72
    65
 73
     6
 40
1.25
 49
0.625
 74
     0
 49
-0.125
 74
     0
 49
0.125
 74
     0
 49
-0.125
 74
     0
 49
0.125
 74
     0
 49
-0.125
 74
     0
  0
LTYPE
  5
83
330
5
100
AcDbSymbolTableRecord
100
AcDbLinetypeTableRecord
  2
CENTER
 70
     0
  3
Center ____ _ ____ _ ____ _ ____ _ ____ _ ____
 72
    65
 73
     4
 40
2.0
 49
1.25
 74
     0
 49
-0.25
 74
     0
 49
0.25
 74
     0
 49
-0.25
 74
     0
  0
LTYPE
  5
9E
330
5
100
AcDbSymbolTableRecord
100
AcDbLinetypeTableRecord
  2
CENTER2
 70
     0
  3
Center (.5x) ___ _ ___ _ ___ _ ___ _ ___ _ ___
 72
    65
 73
     4
 40
1.125
 49
0.75
 74
     0
 49
-0.125
 74
     0
 49
0.125
 74
     0
 49
-0.125
 74
     0
  0
LTYPE
  5
9F
330
5
100
AcDbSymbolTableRecord
100
AcDbLinetypeTableRecord
  2
HIDDEN2
 70
     0
  3
Hidden (.5x) _ _ _ _ _ _ _ _ _ _ _ _ _ _ _ _ _
 72
    65
 73
     2
 40
0.1875
 49
0.125
 74
     0
 49
-0.0625
 74
     0
  0
LTYPE
  5
A0
330
5
100
AcDbSymbolTableRecord
100
AcDbLinetypeTableRecord
  2
Amconstr
 70
     0
  3
_______________________
 72
    65
 73
     2
 40
9999.0
 49
9999.0
 74
     0
 49
0.0
 74
     0
  0
LTYPE
  5
A1
330
5
100
AcDbSymbolTableRecord
100
AcDbLinetypeTableRecord
  2
Amzigzag2
 70
     0
  3
/\/-/\/-/\/-/\/-/\/-/\/
 72
    65
 73
     2
 40
0.4401
 49
0.0001
 74
     4
 75
   136
340
9B
 46
0.0016
 50
0.0
 44
0.0
 45
0.0
 49
-0.44
 74
     0
  0
LTYPE
  5
A2
330
5
100
AcDbSymbolTableRecord
100
AcDbLinetypeTableRecord
  2
ACANSTGB
 70
     0
  3
__ . . __ . .
 72
    65
 73
     6
 40
0.354331
 49
0.15748
 74
     0
 49
-0.03937
 74
     0
 49
0.03937
 74
     0
 49
-0.03937
 74
     0
 49
0.03937
 74
     0
 49
-0.03937
 74
     0
  0
LTYPE
  5
A3
330
5
100
AcDbSymbolTableRecord
100
AcDbLinetypeTableRecord
  2
ACANSTGL
 70
     0
  3
_ _ _ _ _
 72
    65
 73
     2
 40
0.11811
 49
0.07874
 74
     0
 49
-0.03937
 74
     0
  0
ENDTAB
  0
TABLE
  2
LAYER
  5
2
330
0
100
AcDbSymbolTable
 70
    12
  0
LAYER
  5
54
330
2
100
AcDbSymbolTableRecord
100
AcDbLayerTableRecord
  2
0
 70
     0
 62
     7
  6
Continuous
370
    -3
390
F
347
21
348
0
1001
AcAecLayerStandard
1000

1000

  0
LAYER
  5
79
330
2
100
AcDbSymbolTableRecord
100
AcDbLayerTableRecord
  2
Defpoints
 70
     0
 62
     7
  6
Continuous
290
     0
370
    -3
390
F
347
21
348
0
1001
AcAecLayerStandard
1000

1000

  0
LAYER
  5
BD
330
2
100
AcDbSymbolTableRecord
100
AcDbLayerTableRecord
  2
Visible
 70
     0
 62
     7
  6
Continuous
370
    25
390
F
347
21
348
0
  0
LAYER
  5
142
330
2
100
AcDbSymbolTableRecord
100
AcDbLayerTableRecord
  2
Hidden
 70
     0
 62
     7
  6
HIDDEN2
370
    13
390
F
347
21
348
0
  0
LAYER
  5
211
330
2
100
AcDbSymbolTableRecord
100
AcDbLayerTableRecord
  2
Titleblock
 70
     0
 62
     7
  6
Continuous
370
    -3
390
F
347
21
348
0
1001
AcAecLayerStandard
1000

1000

1001
AcCmTransparency
1071
        0
  0
LAYER
  5
236
330
2
100
AcDbSymbolTableRecord
100
AcDbLayerTableRecord
  2
Border
 70
     0
 62
     7
  6
Continuous
370
    -3
390
F
347
21
348
0
1001
AcAecLayerStandard
1000

1000

1001
AcCmTransparency
1071
        0
  0
LAYER
  5
257
330
2
100
AcDbSymbolTableRecord
100
AcDbLayerTableRecord
  2
Dimensions
 70
     0
 62
     7
  6
Continuous
370
    13
390
F
347
21
348
0
  0
LAYER
  5
26C
330
2
100
AcDbSymbolTableRecord
100
AcDbLayerTableRecord
  2
Annotations
 70
     0
 62
     7
  6
Continuous
370
    13
390
F
347
21
348
0
  0
ENDTAB
  0
TABLE
  2
STYLE
  5
3
330
0
100
AcDbSymbolTable
 70
     4
  0
STYLE
  5
55
330
3
100
AcDbSymbolTableRecord
100
AcDbTextStyleTableRecord
  2
Standard
 70
     0
 40
0.0
 41
1.0
 50
0.0
 71
     0
 42
0.12
  3
arial.ttf
  4

1001
ACAD
1000
Arial
1071
       34
  0
STYLE
  5
5A
330
3
100
AcDbSymbolTableRecord
100
AcDbTextStyleTableRecord
  2
Annotative
 70
     0
 40
0.0
 41
1.0
 50
0.0
 71
     0
 42
0.2
  3
txt
  4

1001
AcadAnnotative
1000
AnnotativeData
1002
{
1070
     1
1070
     1
1002
}
  0
STYLE
  5
9B
330
3
100
AcDbSymbolTableRecord
100
AcDbTextStyleTableRecord
  2

 70
     1
 40
0.0
 41
1.0
 50
0.0
 71
     0
 42
0.12
  3
genltshp.shx
  4

  0
STYLE
  5
9C
330
3
100
AcDbSymbolTableRecord
100
AcDbTextStyleTableRecord
  2
ACANSGDT
 70
     0
 40
0.0
 41
1.0
 50
0.0
 71
     0
 42
0.12
  3
amgdt.shx
  4

  0
ENDTAB
  0
TABLE
  2
VIEW
  5
6
330
0
100
AcDbSymbolTable
 70
     0
  0
ENDTAB
  0
TABLE
  2
UCS
  5
7
330
0
100
AcDbSymbolTable
 70
     0
  0
ENDTAB
  0
TABLE
  2
APPID
  5
9
330
0
100
AcDbSymbolTable
 70
    28
  0
APPID
  5
56
330
9
100
AcDbSymbolTableRecord
100
AcDbRegAppTableRecord
  2
ACAD
 70
     0
  0
APPID
  5
5E
330
9
100
AcDbSymbolTableRecord
100
AcDbRegAppTableRecord
  2
AcadAnnotative
 70
     0
  0
APPID
  5
78
330
9
100
AcDbSymbolTableRecord
100
AcDbRegAppTableRecord
  2
ACAD_PSEXT
 70
     0
  0
APPID
  5
7A
330
9
100
AcDbSymbolTableRecord
100
AcDbRegAppTableRecord
  2
MCAD_NO_VIS
 70
     0
  0
APPID
  5
7B
330
9
100
AcDbSymbolTableRecord
100
AcDbRegAppTableRecord
  2
ACAD_TEMP_GRAPHIC
 70
     0
  0
APPID
  5
84
330
9
100
AcDbSymbolTableRecord
100
AcDbRegAppTableRecord
  2
ACAD_DSTYLE_DIMJAG
 70
     0
  0
APPID
  5
85
330
9
100
AcDbSymbolTableRecord
100
AcDbRegAppTableRecord
  2
ACAD_DSTYLE_DIMTALN
 70
     0
  0
APPID
  5
86
330
9
100
AcDbSymbolTableRecord
100
AcDbRegAppTableRecord
  2
ACAD_NAV_VCDISPLAY
 70
     0
  0
APPID
  5
87
330
9
100
AcDbSymbolTableRecord
100
AcDbRegAppTableRecord
  2
AcAecLayerStandard
 70
     0
  0
APPID
  5
88
330
9
100
AcDbSymbolTableRecord
100
AcDbRegAppTableRecord
  2
AcCmTransparency
 70
     0
  0
APPID
  5
89
330
9
100
AcDbSymbolTableRecord
100
AcDbRegAppTableRecord
  2
ACAD_DSTYLE_DIMBREAK
 70
     0
  0
APPID
  5
8A
330
9
100
AcDbSymbolTableRecord
100
AcDbRegAppTableRecord
  2
ACAD_DSTYLE_DIMRADIAL_EXTENSION
 70
     0
  0
APPID
  5
8B
330
9
100
AcDbSymbolTableRecord
100
AcDbRegAppTableRecord
  2
FUSIONTITLEBLOCK
 70
     0
  0
APPID
  5
8C
330
9
100
AcDbSymbolTableRecord
100
AcDbRegAppTableRecord
  2
FUSIONCURRENTTITLEBLOCK
 70
     0
  0
APPID
  5
8D
330
9
100
AcDbSymbolTableRecord
100
AcDbRegAppTableRecord
  2
AcSynergy
 70
     0
  0
APPID
  5
8E
330
9
100
AcDbSymbolTableRecord
100
AcDbRegAppTableRecord
  2
ACAD_VIEW_EDGE_ID
 70
     0
  0
APPID
  5
8F
330
9
100
AcDbSymbolTableRecord
100
AcDbRegAppTableRecord
  2
GENIUS_GENSCREG_15
 70
     0
  0
APPID
  5
90
330
9
100
AcDbSymbolTableRecord
100
AcDbRegAppTableRecord
  2
GENIUS_GENOBJ-N-SDF_13
 70
     0
  0
APPID
  5
91
330
9
100
AcDbSymbolTableRecord
100
AcDbRegAppTableRecord
  2
GENIUS_GENODEF_13
 70
     0
  0
APPID
  5
92
330
9
100
AcDbSymbolTableRecord
100
AcDbRegAppTableRecord
  2
ACAD_DIMASSOC_CALC_DIMLFAC
 70
     0
  0
APPID
  5
93
330
9
100
AcDbSymbolTableRecord
100
AcDbRegAppTableRecord
  2
ACAD_DIMASSOC_DIMLFAC
 70
     0
  0
APPID
  5
94
330
9
100
AcDbSymbolTableRecord
100
AcDbRegAppTableRecord
  2
ACAD_DIMASSOC_OVERRIDDEN_DIMLFAC
 70
     0
  0
APPID
  5
95
330
9
100
AcDbSymbolTableRecord
100
AcDbRegAppTableRecord
  2
FD_ATT_APPNAME
 70
     0
  0
APPID
  5
96
330
9
100
AcDbSymbolTableRecord
100
AcDbRegAppTableRecord
  2
SYNERGY_BODY_TBR_ID
 70
     0
  0
APPID
  5
97
330
9
100
AcDbSymbolTableRecord
100
AcDbRegAppTableRecord
  2
FusionCutBodyId
 70
     0
  0
APPID
  5
98
330
9
100
AcDbSymbolTableRecord
100
AcDbRegAppTableRecord
  2
FUSIONTITLEBLOCKATTRIBUTEOVERRIDE
 70
     0
  0
APPID
  5
99
330
9
100
AcDbSymbolTableRecord
100
AcDbRegAppTableRecord
  2
ACAD_DSTYLE_DIMJAG_POSITION
 70
     0
  0
APPID
  5
9A
330
9
100
AcDbSymbolTableRecord
100
AcDbRegAppTableRecord
  2
ACATTRIBSERVICES
 70
     0
  0
ENDTAB
  0
TABLE
  2
DIMSTYLE
  5
A
330
0
100
AcDbSymbolTable
 70
     2
100
AcDbDimStyleTable
 71
     1
340
58
  0
DIMSTYLE
105
58
102
{ACAD_REACTORS
330
256
330
26D
330
27B
330
284
330
292
330
2A0
330
2AE
330
2BD
330
2CF
330
2DD
330
2EC
330
2FA
330
308
330
312
330
31C
330
326
330
334
102
}
330
A
100
AcDbSymbolTableRecord
100
AcDbDimStyleTableRecord
  2
Standard
 70
     0
  3
in
  4
mm
 41
0.12
 42
0.05
 43
0.339411
 44
0.1
 47
0.01
 48
0.01
 78
    12
 79
     3
 90
        1
140
0.12
141
0.0
147
0.06
176
   256
177
   256
178
   256
179
     3
271
     3
272
     3
284
    12
285
    12
286
    12
340
55
  0
DIMSTYLE
105
59
330
A
100
AcDbSymbolTableRecord
100
AcDbDimStyleTableRecord
  2
Annotative
 70
     0
  3
in
  4
mm
 40
0.0
 43
0.339411
 78
    12
 79
     3
140
0.12
179
     3
271
     3
272
     3
284
    12
285
    12
286
    12
340
55
1001
AcadAnnotative
1000
AnnotativeData
1002
{
1070
     1
1070
     1
1002
}
  0
ENDTAB
  0
TABLE
  2
BLOCK_RECORD
  5
1
330
0
100
AcDbSymbolTable
 70
    41
  0
BLOCK_RECORD
  5
70
102
{ACAD_XDICTIONARY
360
B6
102
}
330
1
100
AcDbSymbolTableRecord
100
AcDbBlockTableRecord
  2
*Model_Space
340
73
 70
     0
280
     1
281
     0
  0
BLOCK_RECORD
  5
6C
330
1
100
AcDbSymbolTableRecord
100
AcDbBlockTableRecord
  2
*Paper_Space
340
6F
 70
     0
280
     1
281
     0
  0
BLOCK_RECORD
  5
74
330
1
100
AcDbSymbolTableRecord
100
AcDbBlockTableRecord
  2
*Paper_Space0
340
77
 70
     0
280
     1
281
     0
  0
BLOCK_RECORD
  5
212
102
{ACAD_XDICTIONARY
360
213
102
}
330
1
100
AcDbSymbolTableRecord
100
AcDbBlockTableRecord
  2
Shower
340
0
102
{BLKREFS
331
210
102
}
 70
     1
280
     1
281
     0
1001
FUSIONTITLEBLOCK
1000
TitleBlock
  0
BLOCK_RECORD
  5
237
330
1
100
AcDbSymbolTableRecord
100
AcDbBlockTableRecord
  2
ANSI_B_SHEET
340
0
310
2800000020000000200000000100080000000000000400000000000000000000000000000000000000000000000080000080000000808000800000008000800080800000C0C0C000C0DCC000F0CAA6000020400000206000002080000020A0000020C0000020E00000400000004020000040400000406000004080000040A0
310
000040C0000040E00000600000006020000060400000606000006080000060A0000060C0000060E00000800000008020000080400000806000008080000080A0000080C0000080E00000A0000000A0200000A0400000A0600000A0800000A0A00000A0C00000A0E00000C0000000C0200000C0400000C0600000C0800000C0
310
A00000C0C00000C0E00000E0000000E0200000E0400000E0600000E0800000E0A00000E0C00000E0E00040000000400020004000400040006000400080004000A0004000C0004000E00040200000402020004020400040206000402080004020A0004020C0004020E000404000004040200040404000404060004040800040
310
40A0004040C0004040E00040600000406020004060400040606000406080004060A0004060C0004060E00040800000408020004080400040806000408080004080A0004080C0004080E00040A0000040A0200040A0400040A0600040A0800040A0A00040A0C00040A0E00040C0000040C0200040C0400040C0600040C08000
310
40C0A00040C0C00040C0E00040E0000040E0200040E0400040E0600040E0800040E0A00040E0C00040E0E00080000000800020008000400080006000800080008000A0008000C0008000E00080200000802020008020400080206000802080008020A0008020C0008020E00080400000804020008040400080406000804080
310
008040A0008040C0008040E00080600000806020008060400080606000806080008060A0008060C0008060E00080800000808020008080400080806000808080008080A0008080C0008080E00080A0000080A0200080A0400080A0600080A0800080A0A00080A0C00080A0E00080C0000080C0200080C0400080C0600080C0
310
800080C0A00080C0C00080C0E00080E0000080E0200080E0400080E0600080E0800080E0A00080E0C00080E0E000C0000000C0002000C0004000C0006000C0008000C000A000C000C000C000E000C0200000C0202000C0204000C0206000C0208000C020A000C020C000C020E000C0400000C0402000C0404000C0406000C0
310
408000C040A000C040C000C040E000C0600000C0602000C0604000C0606000C0608000C060A000C060C000C060E000C0800000C0802000C0804000C0806000C0808000C080A000C080C000C080E000C0A00000C0A02000C0A04000C0A06000C0A08000C0A0A000C0A0C000C0A0E000C0C00000C0C02000C0C04000C0C06000
310
C0C08000C0C0A000F0FBFF00A4A0A000808080000000FF0000FF000000FFFF00FF000000FF00FF00FFFF0000FFFFFF0049494949494949494949494949494949494949494949494949494949494949494949494949494949494949494949494949494949494949494949494949494949494949494949494949494949494949
310
494949494949494949494949494949494949494949494949494949494949494949494949494949494949494949494949494949494949494949494949494949494949494949494949494949494949494949494949494949494949494949494949494949494949494949494949494949494949FFFF4949494949494949494949
310
494949494949494949494949494949FFFF4949FFFFFFFFFFFFFFFFFFFFFFFFFFFFFFFFFFFFFFFFFFFFFFFFFFFFFFFFFFFF494949FF4949494949494949494949494949494949494949494949494949FF49494949FF4949494949494949494949494949494949494949494949494949FF49494949FF49494949494949494949
310
49494949494949494949494949494949FF49494949FF4949494949494949494949494949494949494949494949494949FF49494949FF4949494949494949494949494949494949494949494949494949FF49494949FF4949494949494949494949494949494949494949494949494949FF49494949FF494949494949494949
310
4949494949494949494949494949494949FF49494949FF4949494949494949494949494949494949494949494949494949FF49494949FF4949494949494949494949494949494949494949494949494949FF49494949FF4949494949494949494949494949494949494949494949494949FF49494949FF4949494949494949
310
494949494949494949494949494949494949FF49494949FF4949494949494949494949494949494949494949494949494949FF49494949FF4949494949494949494949494949494949494949494949494949FF49494949FF4949494949494949494949494949494949494949494949494949FF49494949FF49494949494949
310
49494949494949494949494949494949494949FF49494949FF4949494949494949494949494949494949494949494949494949FF494949FFFFFFFFFFFFFFFFFFFFFFFFFFFFFFFFFFFFFFFFFFFFFFFFFFFFFFFFFFFF4949FFFF4949494949494949494949494949494949494949494949494949FFFF49494949494949494949
310
49494949494949494949494949494949494949494949494949494949494949494949494949494949494949494949494949494949494949494949494949494949494949494949494949494949494949494949494949494949494949494949494949494949494949494949494949494949494949494949494949494949494949
310
4949494949494949494949494949494949494949494949494949494949494949494949494949494949494949494949494949494949494949
102
{BLKREFS
331
235
102
}
 70
     1
280
     1
281
     0
  0
BLOCK_RECORD
  5
258
330
1
100
AcDbSymbolTableRecord
100
AcDbBlockTableRecord
  2
*D6
340
0
 70
     0
280
     1
281
     0
  0
BLOCK_RECORD
  5
26E
330
1
100
AcDbSymbolTableRecord
100
AcDbBlockTableRecord
  2
*D7
340
0
 70
     0
280
     1
281
     0
  0
BLOCK_RECORD
  5
27C
330
1
100
AcDbSymbolTableRecord
100
AcDbBlockTableRecord
  2
*D8
340
0
 70
     0
280
     1
281
     0
  0
BLOCK_RECORD
  5
285
330
1
100
AcDbSymbolTableRecord
100
AcDbBlockTableRecord
  2
*D9
340
0
 70
     0
280
     1
281
     0
  0
BLOCK_RECORD
  5
293
330
1
100
AcDbSymbolTableRecord
100
AcDbBlockTableRecord
  2
*D10
340
0
 70
     0
280
     1
281
     0
  0
BLOCK_RECORD
  5
2A1
330
1
100
AcDbSymbolTableRecord
100
AcDbBlockTableRecord
  2
*D11
340
0
 70
     0
280
     1
281
     0
  0
BLOCK_RECORD
  5
2AF
330
1
100
AcDbSymbolTableRecord
100
AcDbBlockTableRecord
  2
*D12
340
0
 70
     0
280
     1
281
     0
  0
BLOCK_RECORD
  5
2BE
330
1
100
AcDbSymbolTableRecord
100
AcDbBlockTableRecord
  2
*D13
340
0
 70
     0
280
     1
281
     0
  0
BLOCK_RECORD
  5
2D0
330
1
100
AcDbSymbolTableRecord
100
AcDbBlockTableRecord
  2
*D14
340
0
 70
     0
280
     1
281
     0
  0
BLOCK_RECORD
  5
2DE
330
1
100
AcDbSymbolTableRecord
100
AcDbBlockTableRecord
  2
*D15
340
0
 70
     0
280
     1
281
     0
  0
BLOCK_RECORD
  5
2ED
330
1
100
AcDbSymbolTableRecord
100
AcDbBlockTableRecord
  2
*D16
340
0
 70
     0
280
     1
281
     0
  0
BLOCK_RECORD
  5
2FB
330
1
100
AcDbSymbolTableRecord
100
AcDbBlockTableRecord
  2
*D17
340
0
 70
     0
280
     1
281
     0
  0
BLOCK_RECORD
  5
309
330
1
100
AcDbSymbolTableRecord
100
AcDbBlockTableRecord
  2
*D18
340
0
 70
     0
280
     1
281
     0
  0
BLOCK_RECORD
  5
313
330
1
100
AcDbSymbolTableRecord
100
AcDbBlockTableRecord
  2
*D19
340
0
 70
     0
280
     1
281
     0
  0
BLOCK_RECORD
  5
31D
330
1
100
AcDbSymbolTableRecord
100
AcDbBlockTableRecord
  2
*D20
340
0
 70
     0
280
     1
281
     0
  0
BLOCK_RECORD
  5
327
330
1
100
AcDbSymbolTableRecord
100
AcDbBlockTableRecord
  2
*D21
340
0
 70
     0
280
     1
281
     0
  0
BLOCK_RECORD
  5
335
330
1
100
AcDbSymbolTableRecord
100
AcDbBlockTableRecord
  2
*D22
340
0
 70
     0
280
     1
281
     0
  0
BLOCK_RECORD
  5
34E
330
1
100
AcDbSymbolTableRecord
100
AcDbBlockTableRecord
  2
*D24
340
0
 70
     0
280
     1
281
     0
  0
BLOCK_RECORD
  5
35B
330
1
100
AcDbSymbolTableRecord
100
AcDbBlockTableRecord
  2
*D25
340
0
 70
     0
280
     1
281
     0
  0
BLOCK_RECORD
  5
368
330
1
100
AcDbSymbolTableRecord
100
AcDbBlockTableRecord
  2
*D26
340
0
 70
     0
280
     1
281
     0
  0
BLOCK_RECORD
  5
370
330
1
100
AcDbSymbolTableRecord
100
AcDbBlockTableRecord
  2
*D27
340
0
 70
     0
280
     1
281
     0
  0
BLOCK_RECORD
  5
37D
330
1
100
AcDbSymbolTableRecord
100
AcDbBlockTableRecord
  2
*D28
340
0
 70
     0
280
     1
281
     0
  0
BLOCK_RECORD
  5
38A
330
1
100
AcDbSymbolTableRecord
100
AcDbBlockTableRecord
  2
*D29
340
0
 70
     0
280
     1
281
     0
  0
BLOCK_RECORD
  5
397
330
1
100
AcDbSymbolTableRecord
100
AcDbBlockTableRecord
  2
*D30
340
0
 70
     0
280
     1
281
     0
  0
BLOCK_RECORD
  5
3A5
330
1
100
AcDbSymbolTableRecord
100
AcDbBlockTableRecord
  2
*D31
340
0
 70
     0
280
     1
281
     0
  0
BLOCK_RECORD
  5
3B2
330
1
100
AcDbSymbolTableRecord
100
AcDbBlockTableRecord
  2
*D32
340
0
 70
     0
280
     1
281
     0
  0
BLOCK_RECORD
  5
3BF
330
1
100
AcDbSymbolTableRecord
100
AcDbBlockTableRecord
  2
*D33
340
0
 70
     0
280
     1
281
     0
  0
BLOCK_RECORD
  5
3CD
330
1
100
AcDbSymbolTableRecord
100
AcDbBlockTableRecord
  2
*D34
340
0
 70
     0
280
     1
281
     0
  0
BLOCK_RECORD
  5
3DA
330
1
100
AcDbSymbolTableRecord
100
AcDbBlockTableRecord
  2
*D35
340
0
 70
     0
280
     1
281
     0
  0
BLOCK_RECORD
  5
3E7
330
1
100
AcDbSymbolTableRecord
100
AcDbBlockTableRecord
  2
*D36
340
0
 70
     0
280
     1
281
     0
  0
BLOCK_RECORD
  5
3F0
330
1
100
AcDbSymbolTableRecord
100
AcDbBlockTableRecord
  2
*D37
340
0
 70
     0
280
     1
281
     0
  0
BLOCK_RECORD
  5
3F9
330
1
100
AcDbSymbolTableRecord
100
AcDbBlockTableRecord
  2
*D38
340
0
 70
     0
280
     1
281
     0
  0
BLOCK_RECORD
  5
402
330
1
100
AcDbSymbolTableRecord
100
AcDbBlockTableRecord
  2
*D39
340
0
 70
     0
280
     1
281
     0
  0
BLOCK_RECORD
  5
40F
330
1
100
AcDbSymbolTableRecord
100
AcDbBlockTableRecord
  2
*D40
340
0
 70
     0
280
     1
281
     0
  0
ENDTAB
  0
ENDSEC
  0
SECTION
  2
BLOCKS
  0
BLOCK
  5
71
330
70
100
AcDbEntity
  8
0
100
AcDbBlockBegin
  2
*Model_Space
 70
     0
 10
0.0
 20
0.0
 30
0.0
  3
*Model_Space
  1

  0
ENDBLK
  5
72
330
70
100
AcDbEntity
  8
0
100
AcDbBlockEnd
  0
BLOCK
  5
6D
330
6C
100
AcDbEntity
 67
     1
  8
0
100
AcDbBlockBegin
  2
*Paper_Space
 70
     0
 10
0.0
 20
0.0
 30
0.0
  3
*Paper_Space
  1

  0
ENDBLK
  5
6E
330
6C
100
AcDbEntity
 67
     1
  8
0
100
AcDbBlockEnd
  0
BLOCK
  5
75
330
74
100
AcDbEntity
 67
     1
  8
0
100
AcDbBlockBegin
  2
*Paper_Space0
 70
     0
 10
0.0
 20
0.0
 30
0.0
  3
*Paper_Space0
  1

  0
ENDBLK
  5
76
330
74
100
AcDbEntity
 67
     1
  8
0
100
AcDbBlockEnd
  0
BLOCK
  5
215
330
212
100
AcDbEntity
  8
0
100
AcDbBlockBegin
  2
Shower
 70
     2
 10
0.0
 20
0.0
 30
0.0
  3
Shower
  1

  0
LWPOLYLINE
  5
216
330
212
100
AcDbEntity
  8
Titleblock
100
AcDbPolyline
 90
        4
 70
     1
 43
0.0
 10
0.0
 20
0.0
 10
-4.9375
 20
0.0
 10
-4.9375
 20
2.5
 10
0.0
 20
2.5
  0
IMAGE
  5
217
330
212
100
AcDbEntity
  8
Titleblock
  6
Continuous
160
               140
310
8C0000000100000084000000060000000500000000000000008013C000B87FA8928AB03F000000000000000000000000008013C035B4911D6523F03F000000000000000001000000008001C035B4911D6523F03F000000000000000001000000008001C000B87FA8928AB03F000000000000000000000000008013C000B87F
310
A8928AB03F0000000000000000
370
     0
100
AcDbRasterImage
 90
        0
 10
-4.875
 20
0.064614
 30
0.0
 11
0.0028349156118143
 21
0.0
 31
0.0
 12
0.0
 22
0.0028349156118143
 32
0.0
 13
948.0
 23
333.0
340
218
 70
    15
280
     0
281
    50
282
    50
283
     0
290
     0
360
21A
 71
     1
 91
        2
 14
-0.5
 24
-0.5
 14
947.5
 24
332.5
  0
LWPOLYLINE
  5
21C
330
212
100
AcDbEntity
  8
Titleblock
  6
Continuous
370
    25
100
AcDbPolyline
 90
        4
 70
     1
 43
0.0
 10
0.0
 20
1.0625
 10
-4.9375
 20
1.061638
 10
-4.9375
 20
0.0
 10
0.0
 20
0.0
  0
LWPOLYLINE
  5
21D
330
212
100
AcDbEntity
  8
Titleblock
  6
Continuous
370
    25
100
AcDbPolyline
 90
        4
 70
     1
 43
0.0
 10
-1.75
 20
2.5
 10
0.0
 20
2.5
 10
0.0
 20
2.5
 10
-1.75
 20
2.5
  0
ATTDEF
  5
21E
330
212
100
AcDbEntity
  8
Titleblock
  6
Continuous
370
    25
100
AcDbText
 10
-3.6875
 20
2.3125
 30
0.0
 40
0.12
  1

100
AcDbAttributeDefinition
280
     0
  3

  2
PROJECT
 70
     0
280
     1
  0
MTEXT
  5
21F
330
212
100
AcDbEntity
  8
Titleblock
  6
Continuous
370
    25
100
AcDbMText
 10
-4.875
 20
1.653875
 30
0.0
 40
0.12
 41
0.6875
 46
0.0
 71
     1
 72
     5
  1
Description:
 73
     1
 44
1.0
1001
ACAD
1000
ACAD_MTEXT_COLUMN_INFO_BEGIN
1070
    75
1070
     2
1070
    79
1070
     0
1070
    76
1070
     1
1070
    78
1070
     0
1070
    48
1040
0.6875
1070
    49
1040
0.6
1070
    50
1070
     1
1040
0.0
1000
ACAD_MTEXT_COLUMN_INFO_END
  0
ATTDEF
  5
220
330
212
100
AcDbEntity
  8
Titleblock
  6
Continuous
370
    25
100
AcDbText
 10
-1.6875
 20
0.6875
 30
0.0
 40
0.12
  1

100
AcDbAttributeDefinition
280
     0
  3

  2
DRAWN_DATE
 70
     0
280
     1
  0
ATTDEF
  5
221
330
212
100
AcDbEntity
  8
Titleblock
  6
Continuous
370
    25
100
AcDbText
 10
-4.3125
 20
1.8125
 30
0.0
 40
0.3048
  1

100
AcDbAttributeDefinition
280
     0
  3

  2
TITLE_1
 70
     0
280
     1
  0
ATTDEF
  5
222
330
212
100
AcDbEntity
  8
Titleblock
  6
Continuous
370
    25
100
AcDbText
 10
-1.6875
 20
0.91994
 30
0.0
 40
0.12
  1

100
AcDbAttributeDefinition
280
     0
  3

  2
SCALE
 70
     0
280
     1
  0
LWPOLYLINE
  5
223
330
212
100
AcDbEntity
  8
Titleblock
  6
Continuous
370
    25
100
AcDbPolyline
 90
        4
 70
     1
 43
0.0
 10
0.0
 20
1.0625
 10
0.0
 20
1.0625
 10
0.0
 20
0.0
 10
0.0
 20
0.0
  0
LWPOLYLINE
  5
224
330
212
100
AcDbEntity
  8
Titleblock
  6
Continuous
370
    25
100
AcDbPolyline
 90
        4
 70
     1
 43
0.0
 10
0.0
 20
1.0625
 10
0.0
 20
1.0625
 10
0.0
 20
0.0
 10
0.0
 20
0.0
  0
LINE
  5
225
330
212
100
AcDbEntity
  8
Titleblock
  6
Continuous
370
    25
100
AcDbLine
 10
-2.125
 20
1.062165
 30
0.0
 11
-2.125
 21
0.0
 31
0.0
  0
LWPOLYLINE
  5
226
330
212
100
AcDbEntity
  8
Titleblock
  6
Continuous
370
    25
100
AcDbPolyline
 90
        4
 70
     1
 43
0.0
 10
-4.9375
 20
2.5
 10
0.0
 20
2.5
 10
0.0
 20
2.5
 10
-4.9375
 20
2.5
  0
LINE
  5
227
330
212
100
AcDbEntity
  8
Titleblock
  6
Continuous
370
    25
100
AcDbLine
 10
-4.9375
 20
2.25
 30
0.0
 11
0.0
 21
2.25
 31
0.0
  0
LINE
  5
228
330
212
100
AcDbEntity
  8
Titleblock
  6
Continuous
370
    25
100
AcDbLine
 10
-4.9375
 20
1.6875
 30
0.0
 11
0.0
 21
1.6875
 31
0.0
  0
MTEXT
  5
229
330
212
100
AcDbEntity
  8
Titleblock
100
AcDbMText
 10
-4.875
 20
2.467284
 30
0.0
 40
0.12
 41
0.375
 46
0.0
 71
     1
 72
     5
  1
Project:
 73
     1
 44
1.0
1001
ACAD
1000
ACAD_MTEXT_COLUMN_INFO_BEGIN
1070
    75
1070
     2
1070
    79
1070
     0
1070
    76
1070
     1
1070
    78
1070
     0
1070
    48
1040
0.375
1070
    49
1040
0.6
1070
    50
1070
     1
1040
0.0
1000
ACAD_MTEXT_COLUMN_INFO_END
  0
MTEXT
  5
22A
330
212
100
AcDbEntity
  8
Titleblock
100
AcDbMText
 10
-2.0625
 20
1.045477
 30
0.0
 40
0.075
 41
0.375
 46
0.0
 71
     1
 72
     5
  1
Scale:
 73
     1
 44
1.0
1001
ACAD
1000
ACAD_MTEXT_COLUMN_INFO_BEGIN
1070
    75
1070
     2
1070
    79
1070
     0
1070
    76
1070
     1
1070
    78
1070
     0
1070
    48
1040
0.375
1070
    49
1040
0.6
1070
    50
1070
     1
1040
0.0
1000
ACAD_MTEXT_COLUMN_INFO_END
  0
MTEXT
  5
22B
330
212
100
AcDbEntity
  8
Titleblock
100
AcDbMText
 10
-2.0625
 20
0.857735
 30
0.0
 40
0.075
 41
0.375
 46
0.0
 71
     1
 72
     5
  1
Date Drawn:
 73
     1
 44
1.0
1001
ACAD
1000
ACAD_MTEXT_COLUMN_INFO_BEGIN
1070
    75
1070
     2
1070
    79
1070
     0
1070
    76
1070
     1
1070
    78
1070
     0
1070
    48
1040
0.375
1070
    49
1040
0.6
1070
    50
1070
     1
1040
0.0
1000
ACAD_MTEXT_COLUMN_INFO_END
  0
LINE
  5
22C
330
212
100
AcDbEntity
  8
Titleblock
100
AcDbLine
 10
-2.125
 20
0.875
 30
0.0
 11
0.0
 21
0.875
 31
0.0
  0
LINE
  5
22D
330
212
100
AcDbEntity
  8
Titleblock
100
AcDbLine
 10
-2.125
 20
0.625
 30
0.0
 11
0.0
 21
0.625
 31
0.0
  0
MTEXT
  5
22E
330
212
100
AcDbEntity
  8
Titleblock
100
AcDbMText
 10
-4.875
 20
2.220603
 30
0.0
 40
0.12
 41
0.625
 46
0.0
 71
     1
 72
     5
  1
Title:
 73
     1
 44
1.0
1001
ACAD
1000
ACAD_MTEXT_COLUMN_INFO_BEGIN
1070
    75
1070
     2
1070
    79
1070
     0
1070
    76
1070
     1
1070
    78
1070
     0
1070
    48
1040
0.625
1070
    49
1040
0.6
1070
    50
1070
     1
1040
0.0
1000
ACAD_MTEXT_COLUMN_INFO_END
  0
ENDBLK
  5
22F
330
212
100
AcDbEntity
  8
0
100
AcDbBlockEnd
  0
BLOCK
  5
238
330
237
100
AcDbEntity
  8
0
100
AcDbBlockBegin
  2
ANSI_B_SHEET
 70
     0
 10
0.0
 20
0.0
 30
0.0
  3
ANSI_B_SHEET
  1

  0
LINE
  5
239
330
237
100
AcDbEntity
  8
Border
100
AcDbLine
 10
0.0
 20
0.0
 30
0.0
 11
0.5
 21
0.0
 31
0.0
  0
LINE
  5
23A
330
237
100
AcDbEntity
  8
Border
100
AcDbLine
 10
16.5
 20
0.0
 30
0.0
 11
17.0
 21
0.0
 31
0.0
  0
LINE
  5
23B
330
237
100
AcDbEntity
  8
Border
100
AcDbLine
 10
0.62
 20
0.38
 30
0.0
 11
16.38
 21
0.38
 31
0.0
  0
LINE
  5
23C
330
237
100
AcDbEntity
  8
Border
100
AcDbLine
 10
17.0
 20
0.0
 30
0.0
 11
17.0
 21
0.5
 31
0.0
  0
LINE
  5
23D
330
237
100
AcDbEntity
  8
Border
100
AcDbLine
 10
17.0
 20
10.5
 30
0.0
 11
17.0
 21
11.0
 31
0.0
  0
LINE
  5
23E
330
237
100
AcDbEntity
  8
Border
100
AcDbLine
 10
16.38
 20
0.38
 30
0.0
 11
16.38
 21
10.62
 31
0.0
  0
LINE
  5
23F
330
237
100
AcDbEntity
  8
Border
100
AcDbLine
 10
17.0
 20
11.0
 30
0.0
 11
16.5
 21
11.0
 31
0.0
  0
LINE
  5
240
330
237
100
AcDbEntity
  8
Border
100
AcDbLine
 10
0.5
 20
11.0
 30
0.0
 11
0.0
 21
11.0
 31
0.0
  0
LINE
  5
241
330
237
100
AcDbEntity
  8
Border
100
AcDbLine
 10
16.38
 20
10.62
 30
0.0
 11
0.62
 21
10.62
 31
0.0
  0
LINE
  5
242
330
237
100
AcDbEntity
  8
Border
100
AcDbLine
 10
0.0
 20
11.0
 30
0.0
 11
0.0
 21
10.5
 31
0.0
  0
LINE
  5
243
330
237
100
AcDbEntity
  8
Border
100
AcDbLine
 10
0.0
 20
0.5
 30
0.0
 11
0.0
 21
0.0
 31
0.0
  0
LINE
  5
244
330
237
100
AcDbEntity
  8
Border
100
AcDbLine
 10
0.62
 20
10.62
 30
0.0
 11
0.62
 21
0.38
 31
0.0
  0
LINE
  5
245
330
237
100
AcDbEntity
  8
Border
100
AcDbLine
 10
8.413397
 20
0.23
 30
0.0
 11
8.586603
 21
0.23
 31
0.0
  0
LINE
  5
246
330
237
100
AcDbEntity
  8
Border
100
AcDbLine
 10
8.5
 20
0.38
 30
0.0
 11
8.5
 21
0.13
 31
0.0
  0
LINE
  5
247
330
237
100
AcDbEntity
  8
Border
100
AcDbLine
 10
8.5
 20
0.38
 30
0.0
 11
8.413397
 21
0.23
 31
0.0
  0
LINE
  5
248
330
237
100
AcDbEntity
  8
Border
100
AcDbLine
 10
8.5
 20
0.38
 30
0.0
 11
8.586603
 21
0.23
 31
0.0
  0
LINE
  5
249
330
237
100
AcDbEntity
  8
Border
100
AcDbLine
 10
0.47
 20
5.586603
 30
0.0
 11
0.47
 21
5.413397
 31
0.0
  0
LINE
  5
24A
330
237
100
AcDbEntity
  8
Border
100
AcDbLine
 10
0.62
 20
5.5
 30
0.0
 11
0.37
 21
5.5
 31
0.0
  0
LINE
  5
24B
330
237
100
AcDbEntity
  8
Border
100
AcDbLine
 10
0.62
 20
5.5
 30
0.0
 11
0.47
 21
5.586603
 31
0.0
  0
LINE
  5
24C
330
237
100
AcDbEntity
  8
Border
100
AcDbLine
 10
0.62
 20
5.5
 30
0.0
 11
0.47
 21
5.413397
 31
0.0
  0
LINE
  5
24D
330
237
100
AcDbEntity
  8
Border
100
AcDbLine
 10
16.53
 20
5.586603
 30
0.0
 11
16.53
 21
5.413397
 31
0.0
  0
LINE
  5
24E
330
237
100
AcDbEntity
  8
Border
100
AcDbLine
 10
16.38
 20
5.5
 30
0.0
 11
16.63
 21
5.5
 31
0.0
  0
LINE
  5
24F
330
237
100
AcDbEntity
  8
Border
100
AcDbLine
 10
16.38
 20
5.5
 30
0.0
 11
16.53
 21
5.586603
 31
0.0
  0
LINE
  5
250
330
237
100
AcDbEntity
  8
Border
100
AcDbLine
 10
16.38
 20
5.5
 30
0.0
 11
16.53
 21
5.413397
 31
0.0
  0
LINE
  5
251
330
237
100
AcDbEntity
  8
Border
100
AcDbLine
 10
8.413397
 20
10.77
 30
0.0
 11
8.586603
 21
10.77
 31
0.0
  0
LINE
  5
252
330
237
100
AcDbEntity
  8
Border
100
AcDbLine
 10
8.5
 20
10.62
 30
0.0
 11
8.5
 21
10.87
 31
0.0
  0
LINE
  5
253
330
237
100
AcDbEntity
  8
Border
100
AcDbLine
 10
8.5
 20
10.62
 30
0.0
 11
8.413397
 21
10.77
 31
0.0
  0
LINE
  5
254
330
237
100
AcDbEntity
  8
Border
100
AcDbLine
 10
8.5
 20
10.62
 30
0.0
 11
8.586603
 21
10.77
 31
0.0
  0
ENDBLK
  5
255
330
237
100
AcDbEntity
  8
0
100
AcDbBlockEnd
  0
BLOCK
  5
259
330
258
100
AcDbEntity
  8
0
100
AcDbBlockBegin
  2
*D6
 70
     1
 10
0.0
 20
0.0
 30
0.0
  3
*D6
  1

  0
LINE
  5
25A
330
258
100
AcDbEntity
  8
Dimensions
440
 16777216
370
    -2
100
AcDbLine
 10
2.5
 20
9.697848
 30
0.0
 11
2.5
 21
10.150769
 31
0.0
  0
LINE
  5
25B
330
258
100
AcDbEntity
  8
Dimensions
440
 16777216
370
    -2
100
AcDbLine
 10
14.5
 20
9.697848
 30
0.0
 11
14.5
 21
10.150769
 31
0.0
  0
LINE
  5
25C
330
258
100
AcDbEntity
  8
Dimensions
440
 16777216
370
    -2
100
AcDbLine
 10
2.62
 20
10.050769
 30
0.0
 11
8.243138
 21
10.050769
 31
0.0
  0
LINE
  5
25D
330
258
100
AcDbEntity
  8
Dimensions
440
 16777216
370
    -2
100
AcDbLine
 10
14.38
 20
10.050769
 30
0.0
 11
8.756862
 21
10.050769
 31
0.0
  0
SOLID
  5
25E
330
258
100
AcDbEntity
  8
Dimensions
440
 16777216
100
AcDbTrace
 10
2.62
 20
10.070769
 30
0.0
 11
2.62
 21
10.030769
 31
0.0
 12
2.5
 22
10.050769
 32
0.0
 13
2.5
 23
10.050769
 33
0.0
  0
SOLID
  5
25F
330
258
100
AcDbEntity
  8
Dimensions
440
 16777216
100
AcDbTrace
 10
14.38
 20
10.070769
 30
0.0
 11
14.38
 21
10.030769
 31
0.0
 12
14.5
 22
10.050769
 32
0.0
 13
14.5
 23
10.050769
 33
0.0
  0
MTEXT
  5
260
330
258
100
AcDbEntity
  8
Dimensions
440
 16777216
100
AcDbMText
 10
8.5
 20
10.050769
 30
0.0
 40
0.12
 41
0.0
 46
0.0
 71
     5
 72
     1
  1
\A1;240in
 73
     1
 44
1.0
  0
POINT
  5
261
330
258
100
AcDbEntity
  8
Defpoints
 62
     0
440
 16777216
100
AcDbPoint
 10
2.5
 20
9.647848
 30
0.0
  0
POINT
  5
262
330
258
100
AcDbEntity
  8
Defpoints
 62
     0
440
 16777216
100
AcDbPoint
 10
14.5
 20
9.647848
 30
0.0
  0
POINT
  5
263
330
258
100
AcDbEntity
  8
Defpoints
 62
     0
440
 16777216
100
AcDbPoint
 10
14.5
 20
10.050769
 30
0.0
  0
ENDBLK
  5
264
330
258
100
AcDbEntity
  8
0
100
AcDbBlockEnd
  0
BLOCK
  5
26F
330
26E
100
AcDbEntity
  8
0
100
AcDbBlockBegin
  2
*D7
 70
     1
 10
0.0
 20
0.0
 30
0.0
  3
*D7
  1

  0
LINE
  5
270
330
26E
100
AcDbEntity
  8
Dimensions
440
 16777216
370
    -2
100
AcDbLine
 10
10.969647
 20
8.231945
 30
0.0
 11
10.969647
 21
6.825299
 31
0.0
  0
LINE
  5
271
330
26E
100
AcDbEntity
  8
Dimensions
440
 16777216
370
    -2
100
AcDbLine
 10
5.969647
 20
8.229485
 30
0.0
 11
5.969647
 21
6.825299
 31
0.0
  0
LINE
  5
272
330
26E
100
AcDbEntity
  8
Dimensions
440
 16777216
370
    -2
100
AcDbLine
 10
10.849647
 20
6.925299
 30
0.0
 11
8.681284
 21
6.925299
 31
0.0
  0
LINE
  5
273
330
26E
100
AcDbEntity
  8
Dimensions
440
 16777216
370
    -2
100
AcDbLine
 10
6.089647
 20
6.925299
 30
0.0
 11
8.25801
 21
6.925299
 31
0.0
  0
SOLID
  5
274
330
26E
100
AcDbEntity
  8
Dimensions
440
 16777216
100
AcDbTrace
 10
10.849647
 20
6.945299
 30
0.0
 11
10.849647
 21
6.905299
 31
0.0
 12
10.969647
 22
6.925299
 32
0.0
 13
10.969647
 23
6.925299
 33
0.0
  0
SOLID
  5
275
330
26E
100
AcDbEntity
  8
Dimensions
440
 16777216
100
AcDbTrace
 10
6.089647
 20
6.945299
 30
0.0
 11
6.089647
 21
6.905299
 31
0.0
 12
5.969647
 22
6.925299
 32
0.0
 13
5.969647
 23
6.925299
 33
0.0
  0
MTEXT
  5
276
330
26E
100
AcDbEntity
  8
Dimensions
440
 16777216
100
AcDbMText
 10
8.469647
 20
6.925299
 30
0.0
 40
0.12
 41
0.0
 46
0.0
 71
     5
 72
     1
  1
\A1;40in
 73
     1
 44
1.0
  0
POINT
  5
277
330
26E
100
AcDbEntity
  8
Defpoints
 62
     0
440
 16777216
100
AcDbPoint
 10
10.969647
 20
8.281945
 30
0.0
  0
POINT
  5
278
330
26E
100
AcDbEntity
  8
Defpoints
 62
     0
440
 16777216
100
AcDbPoint
 10
5.969647
 20
8.279485
 30
0.0
  0
POINT
  5
279
330
26E
100
AcDbEntity
  8
Defpoints
 62
     0
440
 16777216
100
AcDbPoint
 10
5.969647
 20
6.925299
 30
0.0
  0
ENDBLK
  5
27A
330
26E
100
AcDbEntity
  8
0
100
AcDbBlockEnd
  0
BLOCK
  5
27D
330
27C
100
AcDbEntity
  8
0
100
AcDbBlockBegin
  2
*D8
 70
     1
 10
0.0
 20
0.0
 30
0.0
  3
*D8
  1

  0
LINE
  5
27E
330
27C
100
AcDbEntity
  8
Dimensions
440
 16777216
370
    -2
100
AcDbLine
 10
8.195151
 20
3.958701
 30
0.0
 11
7.674415
 21
4.026446
 31
0.0
  0
MTEXT
  5
27F
330
27C
100
AcDbEntity
  8
Dimensions
440
 16777216
100
AcDbMText
 10
8.578317
 20
3.958701
 30
0.0
 40
0.12
 41
0.0
 46
0.0
 71
     5
 72
     1
  1
\A1;R2.393in
 73
     1
 44
1.0
  0
SOLID
  5
280
330
27C
100
AcDbEntity
  8
Dimensions
440
 16777216
100
AcDbTrace
 10
7.676995
 20
4.046279
 30
0.0
 11
7.671834
 21
4.006613
 31
0.0
 12
7.555417
 22
4.041927
 32
0.0
 13
7.555417
 23
4.041927
 33
0.0
  0
POINT
  5
281
330
27C
100
AcDbEntity
  8
Defpoints
 62
     0
440
 16777216
100
AcDbPoint
 10
7.555417
 20
4.041927
 30
0.0
  0
POINT
  5
282
330
27C
100
AcDbEntity
  8
Defpoints
 62
     0
440
 16777216
100
AcDbPoint
 10
9.928335
 20
3.733223
 30
0.0
  0
ENDBLK
  5
283
330
27C
100
AcDbEntity
  8
0
100
AcDbBlockEnd
  0
BLOCK
  5
286
330
285
100
AcDbEntity
  8
0
100
AcDbBlockBegin
  2
*D9
 70
     1
 10
0.0
 20
0.0
 30
0.0
  3
*D9
  1

  0
LINE
  5
287
330
285
100
AcDbEntity
  8
Dimensions
440
 16777216
370
    -2
100
AcDbLine
 10
7.278987
 20
5.21018
 30
0.0
 11
5.152796
 21
5.21018
 31
0.0
  0
LINE
  5
288
330
285
100
AcDbEntity
  8
Dimensions
440
 16777216
370
    -2
100
AcDbLine
 10
7.138965
 20
1.331648
 30
0.0
 11
5.152796
 21
1.331648
 31
0.0
  0
LINE
  5
289
330
285
100
AcDbEntity
  8
Dimensions
440
 16777216
370
    -2
100
AcDbLine
 10
5.252796
 20
5.09018
 30
0.0
 11
5.252796
 21
3.392224
 31
0.0
  0
LINE
  5
28A
330
285
100
AcDbEntity
  8
Dimensions
440
 16777216
370
    -2
100
AcDbLine
 10
5.252796
 20
1.451648
 30
0.0
 11
5.252796
 21
3.149604
 31
0.0
  0
SOLID
  5
28B
330
285
100
AcDbEntity
  8
Dimensions
440
 16777216
100
AcDbTrace
 10
5.232796
 20
5.09018
 30
0.0
 11
5.272796
 21
5.09018
 31
0.0
 12
5.252796
 22
5.21018
 32
0.0
 13
5.252796
 23
5.21018
 33
0.0
  0
SOLID
  5
28C
330
285
100
AcDbEntity
  8
Dimensions
440
 16777216
100
AcDbTrace
 10
5.232796
 20
1.451648
 30
0.0
 11
5.272796
 21
1.451648
 31
0.0
 12
5.252796
 22
1.331648
 32
0.0
 13
5.252796
 23
1.331648
 33
0.0
  0
MTEXT
  5
28D
330
285
100
AcDbEntity
  8
Dimensions
440
 16777216
100
AcDbMText
 10
5.252796
 20
3.270914
 30
0.0
 40
0.12
 41
0.0
 46
0.0
 71
     5
 72
     1
  1
\A1;3.879in
 73
     1
 44
1.0
  0
POINT
  5
28E
330
285
100
AcDbEntity
  8
Defpoints
 62
     0
440
 16777216
100
AcDbPoint
 10
7.328987
 20
5.21018
 30
0.0
  0
POINT
  5
28F
330
285
100
AcDbEntity
  8
Defpoints
 62
     0
440
 16777216
100
AcDbPoint
 10
7.188965
 20
1.331648
 30
0.0
  0
POINT
  5
290
330
285
100
AcDbEntity
  8
Defpoints
 62
     0
440
 16777216
100
AcDbPoint
 10
5.252796
 20
1.331648
 30
0.0
  0
ENDBLK
  5
291
330
285
100
AcDbEntity
  8
0
100
AcDbBlockEnd
  0
BLOCK
  5
294
330
293
100
AcDbEntity
  8
0
100
AcDbBlockBegin
  2
*D10
 70
     1
 10
0.0
 20
0.0
 30
0.0
  3
*D10
  1

  0
LINE
  5
295
330
293
100
AcDbEntity
  8
Dimensions
440
 16777216
370
    -2
100
AcDbLine
 10
7.16928
 20
1.301333
 30
0.0
 11
7.16928
 21
0.733108
 31
0.0
  0
LINE
  5
296
330
293
100
AcDbEntity
  8
Dimensions
440
 16777216
370
    -2
100
AcDbLine
 10
10.003925
 20
1.301333
 30
0.0
 11
10.003925
 21
0.733108
 31
0.0
  0
LINE
  5
297
330
293
100
AcDbEntity
  8
Dimensions
440
 16777216
370
    -2
100
AcDbLine
 10
7.28928
 20
0.833108
 30
0.0
 11
8.259836
 21
0.833108
 31
0.0
  0
LINE
  5
298
330
293
100
AcDbEntity
  8
Dimensions
440
 16777216
370
    -2
100
AcDbLine
 10
9.883925
 20
0.833108
 30
0.0
 11
8.913369
 21
0.833108
 31
0.0
  0
SOLID
  5
299
330
293
100
AcDbEntity
  8
Dimensions
440
 16777216
100
AcDbTrace
 10
7.28928
 20
0.853108
 30
0.0
 11
7.28928
 21
0.813108
 31
0.0
 12
7.16928
 22
0.833108
 32
0.0
 13
7.16928
 23
0.833108
 33
0.0
  0
SOLID
  5
29A
330
293
100
AcDbEntity
  8
Dimensions
440
 16777216
100
AcDbTrace
 10
9.883925
 20
0.853108
 30
0.0
 11
9.883925
 21
0.813108
 31
0.0
 12
10.003925
 22
0.833108
 32
0.0
 13
10.003925
 23
0.833108
 33
0.0
  0
MTEXT
  5
29B
330
293
100
AcDbEntity
  8
Dimensions
440
 16777216
100
AcDbMText
 10
8.586603
 20
0.833108
 30
0.0
 40
0.12
 41
0.0
 46
0.0
 71
     5
 72
     1
  1
\A1;2.835in
 73
     1
 44
1.0
  0
POINT
  5
29C
330
293
100
AcDbEntity
  8
Defpoints
 62
     0
440
 16777216
100
AcDbPoint
 10
7.16928
 20
1.351333
 30
0.0
  0
POINT
  5
29D
330
293
100
AcDbEntity
  8
Defpoints
 62
     0
440
 16777216
100
AcDbPoint
 10
10.003925
 20
1.351333
 30
0.0
  0
POINT
  5
29E
330
293
100
AcDbEntity
  8
Defpoints
 62
     0
440
 16777216
100
AcDbPoint
 10
10.003925
 20
0.833108
 30
0.0
  0
ENDBLK
  5
29F
330
293
100
AcDbEntity
  8
0
100
AcDbBlockEnd
  0
BLOCK
  5
2A2
330
2A1
100
AcDbEntity
  8
0
100
AcDbBlockBegin
  2
*D11
 70
     1
 10
0.0
 20
0.0
 30
0.0
  3
*D11
  1

  0
LINE
  5
2A3
330
2A1
100
AcDbEntity
  8
Dimensions
440
 16777216
370
    -2
100
AcDbLine
 10
9.177103
 20
1.814569
 30
0.0
 11
9.177103
 21
3.139269
 31
0.0
  0
LINE
  5
2A4
330
2A1
100
AcDbEntity
  8
Dimensions
440
 16777216
370
    -2
100
AcDbLine
 10
7.996103
 20
1.814569
 30
0.0
 11
7.996103
 21
3.139269
 31
0.0
  0
LINE
  5
2A5
330
2A1
100
AcDbEntity
  8
Dimensions
440
 16777216
370
    -2
100
AcDbLine
 10
9.057103
 20
3.039269
 30
0.0
 11
8.977626
 21
3.039269
 31
0.0
  0
LINE
  5
2A6
330
2A1
100
AcDbEntity
  8
Dimensions
440
 16777216
370
    -2
100
AcDbLine
 10
8.116103
 20
3.039269
 30
0.0
 11
8.195579
 21
3.039269
 31
0.0
  0
SOLID
  5
2A7
330
2A1
100
AcDbEntity
  8
Dimensions
440
 16777216
100
AcDbTrace
 10
9.057103
 20
3.059269
 30
0.0
 11
9.057103
 21
3.019269
 31
0.0
 12
9.177103
 22
3.039269
 32
0.0
 13
9.177103
 23
3.039269
 33
0.0
  0
SOLID
  5
2A8
330
2A1
100
AcDbEntity
  8
Dimensions
440
 16777216
100
AcDbTrace
 10
8.116103
 20
3.059269
 30
0.0
 11
8.116103
 21
3.019269
 31
0.0
 12
7.996103
 22
3.039269
 32
0.0
 13
7.996103
 23
3.039269
 33
0.0
  0
MTEXT
  5
2A9
330
2A1
100
AcDbEntity
  8
Dimensions
440
 16777216
100
AcDbMText
 10
8.586603
 20
3.039269
 30
0.0
 40
0.12
 41
0.0
 46
0.0
 71
     5
 72
     1
  1
\A1;%%C1.181in
 73
     1
 44
1.0
  0
POINT
  5
2AA
330
2A1
100
AcDbEntity
  8
Defpoints
 62
     0
440
 16777216
100
AcDbPoint
 10
9.177103
 20
1.764569
 30
0.0
  0
POINT
  5
2AB
330
2A1
100
AcDbEntity
  8
Defpoints
 62
     0
440
 16777216
100
AcDbPoint
 10
7.996103
 20
1.764569
 30
0.0
  0
POINT
  5
2AC
330
2A1
100
AcDbEntity
  8
Defpoints
 62
     0
440
 16777216
100
AcDbPoint
 10
7.996103
 20
3.039269
 30
0.0
  0
ENDBLK
  5
2AD
330
2A1
100
AcDbEntity
  8
0
100
AcDbBlockEnd
  0
BLOCK
  5
2B0
330
2AF
100
AcDbEntity
  8
0
100
AcDbBlockBegin
  2
*D12
 70
     1
 10
0.0
 20
0.0
 30
0.0
  3
*D12
  1

  0
LINE
  5
2B1
330
2AF
100
AcDbEntity
  8
Dimensions
440
 16777216
370
    -2
100
AcDbLine
 10
8.202103
 20
1.764569
 30
0.0
 11
6.782275
 21
1.764569
 31
0.0
  0
LINE
  5
2B2
330
2AF
100
AcDbEntity
  8
Dimensions
440
 16777216
370
    -2
100
AcDbLine
 10
8.202103
 20
1.567869
 30
0.0
 11
6.782275
 21
1.567869
 31
0.0
  0
LINE
  5
2B3
330
2AF
100
AcDbEntity
  8
Dimensions
440
 16777216
370
    -2
100
AcDbLine
 10
6.882275
 20
1.884569
 30
0.0
 11
6.882275
 21
2.004569
 31
0.0
  0
LINE
  5
2B4
330
2AF
100
AcDbEntity
  8
Dimensions
440
 16777216
370
    -2
100
AcDbLine
 10
6.882275
 20
1.447869
 30
0.0
 11
6.882275
 21
1.197073
 31
0.0
  0
LINE
  5
2B5
330
2AF
100
AcDbEntity
  8
Dimensions
440
 16777216
370
    -2
100
AcDbLine
 10
6.882275
 20
1.197073
 30
0.0
 11
6.762275
 21
1.197073
 31
0.0
  0
SOLID
  5
2B6
330
2AF
100
AcDbEntity
  8
Dimensions
440
 16777216
100
AcDbTrace
 10
6.862275
 20
1.884569
 30
0.0
 11
6.902275
 21
1.884569
 31
0.0
 12
6.882275
 22
1.764569
 32
0.0
 13
6.882275
 23
1.764569
 33
0.0
  0
SOLID
  5
2B7
330
2AF
100
AcDbEntity
  8
Dimensions
440
 16777216
100
AcDbTrace
 10
6.862275
 20
1.447869
 30
0.0
 11
6.902275
 21
1.447869
 31
0.0
 12
6.882275
 22
1.567869
 32
0.0
 13
6.882275
 23
1.567869
 33
0.0
  0
MTEXT
  5
2B8
330
2AF
100
AcDbEntity
  8
Dimensions
440
 16777216
100
AcDbMText
 10
6.487282
 20
1.197073
 30
0.0
 40
0.12
 41
0.0
 46
0.0
 71
     5
 72
     1
  1
\A1;.197in
 73
     1
 44
1.0
  0
POINT
  5
2B9
330
2AF
100
AcDbEntity
  8
Defpoints
 62
     0
440
 16777216
100
AcDbPoint
 10
8.252103
 20
1.764569
 30
0.0
  0
POINT
  5
2BA
330
2AF
100
AcDbEntity
  8
Defpoints
 62
     0
440
 16777216
100
AcDbPoint
 10
8.252103
 20
1.567869
 30
0.0
  0
POINT
  5
2BB
330
2AF
100
AcDbEntity
  8
Defpoints
 62
     0
440
 16777216
100
AcDbPoint
 10
6.882275
 20
1.567869
 30
0.0
  0
ENDBLK
  5
2BC
330
2AF
100
AcDbEntity
  8
0
100
AcDbBlockEnd
  0
BLOCK
  5
2BF
330
2BE
100
AcDbEntity
  8
0
100
AcDbBlockBegin
  2
*D13
 70
     1
 10
0.0
 20
0.0
 30
0.0
  3
*D13
  1

  0
LINE
  5
2C0
330
2BE
100
AcDbEntity
  8
Dimensions
440
 16777216
370
    -2
100
AcDbLine
 10
8.005106
 20
1.961569
 30
0.0
 11
5.598781
 21
1.961569
 31
0.0
  0
LINE
  5
2C1
330
2BE
100
AcDbEntity
  8
Dimensions
440
 16777216
370
    -2
100
AcDbLine
 10
7.600259
 20
1.331648
 30
0.0
 11
5.598781
 21
1.331648
 31
0.0
  0
LINE
  5
2C2
330
2BE
100
AcDbEntity
  8
Dimensions
440
 16777216
370
    -2
100
AcDbLine
 10
5.698781
 20
1.841569
 30
0.0
 11
5.698781
 21
1.767918
 31
0.0
  0
LINE
  5
2C3
330
2BE
100
AcDbEntity
  8
Dimensions
440
 16777216
370
    -2
100
AcDbLine
 10
5.698781
 20
1.451648
 30
0.0
 11
5.698781
 21
1.525299
 31
0.0
  0
SOLID
  5
2C4
330
2BE
100
AcDbEntity
  8
Dimensions
440
 16777216
100
AcDbTrace
 10
5.678781
 20
1.841569
 30
0.0
 11
5.718781
 21
1.841569
 31
0.0
 12
5.698781
 22
1.961569
 32
0.0
 13
5.698781
 23
1.961569
 33
0.0
  0
SOLID
  5
2C5
330
2BE
100
AcDbEntity
  8
Dimensions
440
 16777216
100
AcDbTrace
 10
5.678781
 20
1.451648
 30
0.0
 11
5.718781
 21
1.451648
 31
0.0
 12
5.698781
 22
1.331648
 32
0.0
 13
5.698781
 23
1.331648
 33
0.0
  0
MTEXT
  5
2C6
330
2BE
100
AcDbEntity
  8
Dimensions
440
 16777216
100
AcDbMText
 10
5.698781
 20
1.646609
 30
0.0
 40
0.12
 41
0.0
 46
0.0
 71
     5
 72
     1
  1
\A1;.63in
 73
     1
 44
1.0
  0
POINT
  5
2C7
330
2BE
100
AcDbEntity
  8
Defpoints
 62
     0
440
 16777216
100
AcDbPoint
 10
8.055106
 20
1.961569
 30
0.0
  0
POINT
  5
2C8
330
2BE
100
AcDbEntity
  8
Defpoints
 62
     0
440
 16777216
100
AcDbPoint
 10
7.650259
 20
1.331648
 30
0.0
  0
POINT
  5
2C9
330
2BE
100
AcDbEntity
  8
Defpoints
 62
     0
440
 16777216
100
AcDbPoint
 10
5.698781
 20
1.331648
 30
0.0
  0
ENDBLK
  5
2CA
330
2BE
100
AcDbEntity
  8
0
100
AcDbBlockEnd
  0
BLOCK
  5
2D1
330
2D0
100
AcDbEntity
  8
0
100
AcDbBlockBegin
  2
*D14
 70
     1
 10
0.0
 20
0.0
 30
0.0
  3
*D14
  1

  0
LINE
  5
2D2
330
2D0
100
AcDbEntity
  8
Dimensions
440
 16777216
370
    -2
100
AcDbLine
 10
8.252103
 20
1.814569
 30
0.0
 11
8.252103
 21
2.733818
 31
0.0
  0
LINE
  5
2D3
330
2D0
100
AcDbEntity
  8
Dimensions
440
 16777216
370
    -2
100
AcDbLine
 10
8.921103
 20
1.814569
 30
0.0
 11
8.921103
 21
2.733818
 31
0.0
  0
LINE
  5
2D4
330
2D0
100
AcDbEntity
  8
Dimensions
440
 16777216
370
    -2
100
AcDbLine
 10
8.372103
 20
2.633818
 30
0.0
 11
8.801103
 21
2.633818
 31
0.0
  0
LINE
  5
2D5
330
2D0
100
AcDbEntity
  8
Dimensions
440
 16777216
370
    -2
100
AcDbLine
 10
8.921103
 20
2.633818
 30
0.0
 11
10.132909
 21
2.633818
 31
0.0
  0
SOLID
  5
2D6
330
2D0
100
AcDbEntity
  8
Dimensions
440
 16777216
100
AcDbTrace
 10
8.372103
 20
2.653818
 30
0.0
 11
8.372103
 21
2.613818
 31
0.0
 12
8.252103
 22
2.633818
 32
0.0
 13
8.252103
 23
2.633818
 33
0.0
  0
SOLID
  5
2D7
330
2D0
100
AcDbEntity
  8
Dimensions
440
 16777216
100
AcDbTrace
 10
8.801103
 20
2.653818
 30
0.0
 11
8.801103
 21
2.613818
 31
0.0
 12
8.921103
 22
2.633818
 32
0.0
 13
8.921103
 23
2.633818
 33
0.0
  0
MTEXT
  5
2D8
330
2D0
100
AcDbEntity
  8
Dimensions
440
 16777216
100
AcDbMText
 10
10.477315
 20
2.633818
 30
0.0
 40
0.12
 41
0.0
 46
0.0
 71
     5
 72
     1
  1
\A1;%%C.669in
 73
     1
 44
1.0
  0
POINT
  5
2D9
330
2D0
100
AcDbEntity
  8
Defpoints
 62
     0
440
 16777216
100
AcDbPoint
 10
8.252103
 20
1.764569
 30
0.0
  0
POINT
  5
2DA
330
2D0
100
AcDbEntity
  8
Defpoints
 62
     0
440
 16777216
100
AcDbPoint
 10
8.921103
 20
1.764569
 30
0.0
  0
POINT
  5
2DB
330
2D0
100
AcDbEntity
  8
Defpoints
 62
     0
440
 16777216
100
AcDbPoint
 10
8.921103
 20
2.633818
 30
0.0
  0
ENDBLK
  5
2DC
330
2D0
100
AcDbEntity
  8
0
100
AcDbBlockEnd
  0
BLOCK
  5
2DF
330
2DE
100
AcDbEntity
  8
0
100
AcDbBlockBegin
  2
*D15
 70
     1
 10
0.0
 20
0.0
 30
0.0
  3
*D15
  1

  0
LINE
  5
2E0
330
2DE
100
AcDbEntity
  8
Dimensions
440
 16777216
370
    -2
100
AcDbLine
 10
8.280603
 20
1.961569
 30
0.0
 11
5.999096
 21
1.961569
 31
0.0
  0
LINE
  5
2E1
330
2DE
100
AcDbEntity
  8
Dimensions
440
 16777216
370
    -2
100
AcDbLine
 10
8.202103
 20
1.764569
 30
0.0
 11
5.999096
 21
1.764569
 31
0.0
  0
LINE
  5
2E2
330
2DE
100
AcDbEntity
  8
Dimensions
440
 16777216
370
    -2
100
AcDbLine
 10
6.099096
 20
1.644569
 30
0.0
 11
6.099096
 21
1.524569
 31
0.0
  0
LINE
  5
2E3
330
2DE
100
AcDbEntity
  8
Dimensions
440
 16777216
370
    -2
100
AcDbLine
 10
6.099096
 20
2.081569
 30
0.0
 11
6.099096
 21
2.409951
 31
0.0
  0
LINE
  5
2E4
330
2DE
100
AcDbEntity
  8
Dimensions
440
 16777216
370
    -2
100
AcDbLine
 10
6.099096
 20
2.409951
 30
0.0
 11
6.219096
 21
2.409951
 31
0.0
  0
SOLID
  5
2E5
330
2DE
100
AcDbEntity
  8
Dimensions
440
 16777216
100
AcDbTrace
 10
6.079096
 20
1.644569
 30
0.0
 11
6.119096
 21
1.644569
 31
0.0
 12
6.099096
 22
1.764569
 32
0.0
 13
6.099096
 23
1.764569
 33
0.0
  0
SOLID
  5
2E6
330
2DE
100
AcDbEntity
  8
Dimensions
440
 16777216
100
AcDbTrace
 10
6.079096
 20
2.081569
 30
0.0
 11
6.119096
 21
2.081569
 31
0.0
 12
6.099096
 22
1.961569
 32
0.0
 13
6.099096
 23
1.961569
 33
0.0
  0
MTEXT
  5
2E7
330
2DE
100
AcDbEntity
  8
Dimensions
440
 16777216
100
AcDbMText
 10
6.494089
 20
2.409951
 30
0.0
 40
0.12
 41
0.0
 46
0.0
 71
     5
 72
     1
  1
\A1;.197in
 73
     1
 44
1.0
  0
POINT
  5
2E8
330
2DE
100
AcDbEntity
  8
Defpoints
 62
     0
440
 16777216
100
AcDbPoint
 10
8.330603
 20
1.961569
 30
0.0
  0
POINT
  5
2E9
330
2DE
100
AcDbEntity
  8
Defpoints
 62
     0
440
 16777216
100
AcDbPoint
 10
8.252103
 20
1.764569
 30
0.0
  0
POINT
  5
2EA
330
2DE
100
AcDbEntity
  8
Defpoints
 62
     0
440
 16777216
100
AcDbPoint
 10
6.099096
 20
1.764569
 30
0.0
  0
ENDBLK
  5
2EB
330
2DE
100
AcDbEntity
  8
0
100
AcDbBlockEnd
  0
BLOCK
  5
2EE
330
2ED
100
AcDbEntity
  8
0
100
AcDbBlockBegin
  2
*D16
 70
     1
 10
0.0
 20
0.0
 30
0.0
  3
*D16
  1

  0
LINE
  5
2EF
330
2ED
100
AcDbEntity
  8
Dimensions
440
 16777216
370
    -2
100
AcDbLine
 10
5.969811
 20
8.229485
 30
0.0
 11
5.972241
 21
7.488914
 31
0.0
  0
LINE
  5
2F0
330
2ED
100
AcDbEntity
  8
Dimensions
440
 16777216
370
    -2
100
AcDbLine
 10
6.719811
 20
8.231946
 30
0.0
 11
6.722241
 21
7.491375
 31
0.0
  0
LINE
  5
2F1
330
2ED
100
AcDbEntity
  8
Dimensions
440
 16777216
370
    -2
100
AcDbLine
 10
6.091912
 20
7.589307
 30
0.0
 11
6.184496
 21
7.589611
 31
0.0
  0
LINE
  5
2F2
330
2ED
100
AcDbEntity
  8
Dimensions
440
 16777216
370
    -2
100
AcDbLine
 10
6.601913
 20
7.59098
 30
0.0
 11
6.510363
 21
7.59068
 31
0.0
  0
SOLID
  5
2F3
330
2ED
100
AcDbEntity
  8
Dimensions
440
 16777216
100
AcDbTrace
 10
6.091846
 20
7.609307
 30
0.0
 11
6.091978
 21
7.569307
 31
0.0
 12
5.971913
 22
7.588913
 32
0.0
 13
5.971913
 23
7.588913
 33
0.0
  0
SOLID
  5
2F4
330
2ED
100
AcDbEntity
  8
Dimensions
440
 16777216
100
AcDbTrace
 10
6.601848
 20
7.61098
 30
0.0
 11
6.601979
 21
7.570981
 31
0.0
 12
6.721913
 22
7.591374
 32
0.0
 13
6.721913
 23
7.591374
 33
0.0
  0
MTEXT
  5
2F5
330
2ED
100
AcDbEntity
  8
Dimensions
440
 16777216
100
AcDbMText
 10
6.34743
 20
7.590146
 30
0.0
 40
0.12
 41
0.0
 46
0.0
 71
     5
 72
     1
  1
\A1;6in
 73
     1
 44
1.0
  0
POINT
  5
2F6
330
2ED
100
AcDbEntity
  8
Defpoints
 62
     0
440
 16777216
100
AcDbPoint
 10
5.969647
 20
8.279485
 30
0.0
  0
POINT
  5
2F7
330
2ED
100
AcDbEntity
  8
Defpoints
 62
     0
440
 16777216
100
AcDbPoint
 10
6.719647
 20
8.281945
 30
0.0
  0
POINT
  5
2F8
330
2ED
100
AcDbEntity
  8
Defpoints
 62
     0
440
 16777216
100
AcDbPoint
 10
6.721913
 20
7.591374
 30
0.0
  0
ENDBLK
  5
2F9
330
2ED
100
AcDbEntity
  8
0
100
AcDbBlockEnd
  0
BLOCK
  5
2FC
330
2FB
100
AcDbEntity
  8
0
100
AcDbBlockBegin
  2
*D17
 70
     1
 10
0.0
 20
0.0
 30
0.0
  3
*D17
  1

  0
LINE
  5
2FD
330
2FB
100
AcDbEntity
  8
Dimensions
440
 16777216
370
    -2
100
AcDbLine
 10
6.719647
 20
8.231945
 30
0.0
 11
6.719647
 21
7.163712
 31
0.0
  0
LINE
  5
2FE
330
2FB
100
AcDbEntity
  8
Dimensions
440
 16777216
370
    -2
100
AcDbLine
 10
8.219647
 20
8.231945
 30
0.0
 11
8.219647
 21
7.163712
 31
0.0
  0
LINE
  5
2FF
330
2FB
100
AcDbEntity
  8
Dimensions
440
 16777216
370
    -2
100
AcDbLine
 10
6.839647
 20
7.263712
 30
0.0
 11
7.266073
 21
7.263712
 31
0.0
  0
LINE
  5
300
330
2FB
100
AcDbEntity
  8
Dimensions
440
 16777216
370
    -2
100
AcDbLine
 10
8.099647
 20
7.263712
 30
0.0
 11
7.673221
 21
7.263712
 31
0.0
  0
SOLID
  5
301
330
2FB
100
AcDbEntity
  8
Dimensions
440
 16777216
100
AcDbTrace
 10
6.839647
 20
7.283712
 30
0.0
 11
6.839647
 21
7.243712
 31
0.0
 12
6.719647
 22
7.263712
 32
0.0
 13
6.719647
 23
7.263712
 33
0.0
  0
SOLID
  5
302
330
2FB
100
AcDbEntity
  8
Dimensions
440
 16777216
100
AcDbTrace
 10
8.099647
 20
7.283712
 30
0.0
 11
8.099647
 21
7.243712
 31
0.0
 12
8.219647
 22
7.263712
 32
0.0
 13
8.219647
 23
7.263712
 33
0.0
  0
MTEXT
  5
303
330
2FB
100
AcDbEntity
  8
Dimensions
440
 16777216
100
AcDbMText
 10
7.469647
 20
7.263712
 30
0.0
 40
0.12
 41
0.0
 46
0.0
 71
     5
 72
     1
  1
\A1;12in
 73
     1
 44
1.0
  0
POINT
  5
304
330
2FB
100
AcDbEntity
  8
Defpoints
 62
     0
440
 16777216
100
AcDbPoint
 10
6.719647
 20
8.281945
 30
0.0
  0
POINT
  5
305
330
2FB
100
AcDbEntity
  8
Defpoints
 62
     0
440
 16777216
100
AcDbPoint
 10
8.219647
 20
8.281945
 30
0.0
  0
POINT
  5
306
330
2FB
100
AcDbEntity
  8
Defpoints
 62
     0
440
 16777216
100
AcDbPoint
 10
8.219647
 20
7.263712
 30
0.0
  0
ENDBLK
  5
307
330
2FB
100
AcDbEntity
  8
0
100
AcDbBlockEnd
  0
BLOCK
  5
30A
330
309
100
AcDbEntity
  8
0
100
AcDbBlockBegin
  2
*D18
 70
     1
 10
0.0
 20
0.0
 30
0.0
  3
*D18
  1

  0
LINE
  5
30B
330
309
100
AcDbEntity
  8
Dimensions
440
 16777216
370
    -2
100
AcDbLine
 10
7.423138
 20
9.054
 30
0.0
 11
7.303138
 21
9.054
 31
0.0
  0
LINE
  5
30C
330
309
100
AcDbEntity
  8
Dimensions
440
 16777216
370
    -2
100
AcDbLine
 10
7.303138
 20
9.054
 30
0.0
 11
6.836504
 21
8.436567
 31
0.0
  0
MTEXT
  5
30D
330
309
100
AcDbEntity
  8
Dimensions
440
 16777216
100
AcDbMText
 10
7.814161
 20
9.054
 30
0.0
 40
0.12
 41
0.0
 46
0.0
 71
     5
 72
     1
  1
\A1;∅1.181in
 73
     1
 44
1.0
  0
SOLID
  5
30E
330
309
100
AcDbEntity
  8
Dimensions
440
 16777216
100
AcDbTrace
 10
6.820548
 20
8.448625
 30
0.0
 11
6.85246
 21
8.424508
 31
0.0
 12
6.764151
 22
8.340832
 32
0.0
 13
6.764151
 23
8.340832
 33
0.0
  0
POINT
  5
30F
330
309
100
AcDbEntity
  8
Defpoints
 62
     0
440
 16777216
100
AcDbPoint
 10
6.764151
 20
8.340832
 30
0.0
  0
POINT
  5
310
330
309
100
AcDbEntity
  8
Defpoints
 62
     0
440
 16777216
100
AcDbPoint
 10
6.675143
 20
8.223059
 30
0.0
  0
ENDBLK
  5
311
330
309
100
AcDbEntity
  8
0
100
AcDbBlockEnd
  0
BLOCK
  5
314
330
313
100
AcDbEntity
  8
0
100
AcDbBlockBegin
  2
*D19
 70
     1
 10
0.0
 20
0.0
 30
0.0
  3
*D19
  1

  0
LINE
  5
315
330
313
100
AcDbEntity
  8
Dimensions
440
 16777216
370
    -2
100
AcDbLine
 10
7.595935
 20
8.809096
 30
0.0
 11
7.475935
 21
8.809096
 31
0.0
  0
LINE
  5
316
330
313
100
AcDbEntity
  8
Dimensions
440
 16777216
370
    -2
100
AcDbLine
 10
7.475935
 20
8.809096
 30
0.0
 11
6.852394
 21
8.374473
 31
0.0
  0
MTEXT
  5
317
330
313
100
AcDbEntity
  8
Dimensions
440
 16777216
100
AcDbMText
 10
7.940341
 20
8.809096
 30
0.0
 40
0.12
 41
0.0
 46
0.0
 71
     5
 72
     1
  1
\A1;∅.669in
 73
     1
 44
1.0
  0
SOLID
  5
318
330
313
100
AcDbEntity
  8
Dimensions
440
 16777216
100
AcDbTrace
 10
6.840958
 20
8.390881
 30
0.0
 11
6.863831
 21
8.358066
 31
0.0
 12
6.753949
 22
8.305855
 32
0.0
 13
6.753949
 23
8.305855
 33
0.0
  0
POINT
  5
319
330
313
100
AcDbEntity
  8
Defpoints
 62
     0
440
 16777216
100
AcDbPoint
 10
6.753949
 20
8.305855
 30
0.0
  0
POINT
  5
31A
330
313
100
AcDbEntity
  8
Defpoints
 62
     0
440
 16777216
100
AcDbPoint
 10
6.685345
 20
8.258036
 30
0.0
  0
ENDBLK
  5
31B
330
313
100
AcDbEntity
  8
0
100
AcDbBlockEnd
  0
BLOCK
  5
31E
330
31D
100
AcDbEntity
  8
0
100
AcDbBlockBegin
  2
*D20
 70
     1
 10
0.0
 20
0.0
 30
0.0
  3
*D20
  1

  0
LINE
  5
31F
330
31D
100
AcDbEntity
  8
Dimensions
440
 16777216
370
    -2
100
AcDbLine
 10
10.576162
 20
9.146159
 30
0.0
 11
10.696162
 21
9.146159
 31
0.0
  0
LINE
  5
320
330
31D
100
AcDbEntity
  8
Dimensions
440
 16777216
370
    -2
100
AcDbLine
 10
10.696162
 20
9.146159
 30
0.0
 11
10.923787
 21
8.426862
 31
0.0
  0
MTEXT
  5
321
330
31D
100
AcDbEntity
  8
Dimensions
440
 16777216
100
AcDbMText
 10
10.231755
 20
9.146159
 30
0.0
 40
0.12
 41
0.0
 46
0.0
 71
     5
 72
     1
  1
\A1;∅.512in
 73
     1
 44
1.0
  0
SOLID
  5
322
330
31D
100
AcDbEntity
  8
Dimensions
440
 16777216
100
AcDbTrace
 10
10.942855
 20
8.432896
 30
0.0
 11
10.904719
 21
8.420828
 31
0.0
 12
10.959992
 22
8.312454
 32
0.0
 13
10.959992
 23
8.312454
 33
0.0
  0
POINT
  5
323
330
31D
100
AcDbEntity
  8
Defpoints
 62
     0
440
 16777216
100
AcDbPoint
 10
10.959992
 20
8.312454
 30
0.0
  0
POINT
  5
324
330
31D
100
AcDbEntity
  8
Defpoints
 62
     0
440
 16777216
100
AcDbPoint
 10
10.979302
 20
8.251437
 30
0.0
  0
ENDBLK
  5
325
330
31D
100
AcDbEntity
  8
0
100
AcDbBlockEnd
  0
BLOCK
  5
328
330
327
100
AcDbEntity
  8
0
100
AcDbBlockBegin
  2
*D21
 70
     1
 10
0.0
 20
0.0
 30
0.0
  3
*D21
  1

  0
LINE
  5
329
330
327
100
AcDbEntity
  8
Dimensions
440
 16777216
370
    -2
100
AcDbLine
 10
8.330603
 20
2.011569
 30
0.0
 11
8.330603
 21
2.486285
 31
0.0
  0
LINE
  5
32A
330
327
100
AcDbEntity
  8
Dimensions
440
 16777216
370
    -2
100
AcDbLine
 10
8.842603
 20
2.011569
 30
0.0
 11
8.842603
 21
2.486285
 31
0.0
  0
LINE
  5
32B
330
327
100
AcDbEntity
  8
Dimensions
440
 16777216
370
    -2
100
AcDbLine
 10
8.450603
 20
2.386285
 30
0.0
 11
8.722603
 21
2.386285
 31
0.0
  0
LINE
  5
32C
330
327
100
AcDbEntity
  8
Dimensions
440
 16777216
370
    -2
100
AcDbLine
 10
8.842603
 20
2.386285
 30
0.0
 11
10.132909
 21
2.386285
 31
0.0
  0
SOLID
  5
32D
330
327
100
AcDbEntity
  8
Dimensions
440
 16777216
100
AcDbTrace
 10
8.450603
 20
2.406285
 30
0.0
 11
8.450603
 21
2.366285
 31
0.0
 12
8.330603
 22
2.386285
 32
0.0
 13
8.330603
 23
2.386285
 33
0.0
  0
SOLID
  5
32E
330
327
100
AcDbEntity
  8
Dimensions
440
 16777216
100
AcDbTrace
 10
8.722603
 20
2.406285
 30
0.0
 11
8.722603
 21
2.366285
 31
0.0
 12
8.842603
 22
2.386285
 32
0.0
 13
8.842603
 23
2.386285
 33
0.0
  0
MTEXT
  5
32F
330
327
100
AcDbEntity
  8
Dimensions
440
 16777216
100
AcDbMText
 10
10.477315
 20
2.386285
 30
0.0
 40
0.12
 41
0.0
 46
0.0
 71
     5
 72
     1
  1
\A1;%%C.512in
 73
     1
 44
1.0
  0
POINT
  5
330
330
327
100
AcDbEntity
  8
Defpoints
 62
     0
440
 16777216
100
AcDbPoint
 10
8.330603
 20
1.961569
 30
0.0
  0
POINT
  5
331
330
327
100
AcDbEntity
  8
Defpoints
 62
     0
440
 16777216
100
AcDbPoint
 10
8.842603
 20
1.961569
 30
0.0
  0
POINT
  5
332
330
327
100
AcDbEntity
  8
Defpoints
 62
     0
440
 16777216
100
AcDbPoint
 10
8.842603
 20
2.386285
 30
0.0
  0
ENDBLK
  5
333
330
327
100
AcDbEntity
  8
0
100
AcDbBlockEnd
  0
BLOCK
  5
336
330
335
100
AcDbEntity
  8
0
100
AcDbBlockBegin
  2
*D22
 70
     1
 10
0.0
 20
0.0
 30
0.0
  3
*D22
  1

  0
LINE
  5
337
330
335
100
AcDbEntity
  8
Dimensions
440
 16777216
370
    -2
100
AcDbLine
 10
7.661406
 20
4.581137
 30
0.0
 11
7.661406
 21
5.688136
 31
0.0
  0
LINE
  5
338
330
335
100
AcDbEntity
  8
Dimensions
440
 16777216
370
    -2
100
AcDbLine
 10
9.55117
 20
4.755294
 30
0.0
 11
9.55117
 21
5.688136
 31
0.0
  0
LINE
  5
339
330
335
100
AcDbEntity
  8
Dimensions
440
 16777216
370
    -2
100
AcDbLine
 10
7.781406
 20
5.588136
 30
0.0
 11
8.332809
 21
5.588136
 31
0.0
  0
LINE
  5
33A
330
335
100
AcDbEntity
  8
Dimensions
440
 16777216
370
    -2
100
AcDbLine
 10
9.43117
 20
5.588136
 30
0.0
 11
8.879766
 21
5.588136
 31
0.0
  0
SOLID
  5
33B
330
335
100
AcDbEntity
  8
Dimensions
440
 16777216
100
AcDbTrace
 10
7.781406
 20
5.608136
 30
0.0
 11
7.781406
 21
5.568136
 31
0.0
 12
7.661406
 22
5.588136
 32
0.0
 13
7.661406
 23
5.588136
 33
0.0
  0
SOLID
  5
33C
330
335
100
AcDbEntity
  8
Dimensions
440
 16777216
100
AcDbTrace
 10
9.43117
 20
5.608136
 30
0.0
 11
9.43117
 21
5.568136
 31
0.0
 12
9.55117
 22
5.588136
 32
0.0
 13
9.55117
 23
5.588136
 33
0.0
  0
MTEXT
  5
33D
330
335
100
AcDbEntity
  8
Dimensions
440
 16777216
100
AcDbMText
 10
8.606288
 20
5.588136
 30
0.0
 40
0.12
 41
0.0
 46
0.0
 71
     5
 72
     1
  1
\A1;1.89in
 73
     1
 44
1.0
  0
POINT
  5
33E
330
335
100
AcDbEntity
  8
Defpoints
 62
     0
440
 16777216
100
AcDbPoint
 10
7.661406
 20
4.531137
 30
0.0
  0
POINT
  5
33F
330
335
100
AcDbEntity
  8
Defpoints
 62
     0
440
 16777216
100
AcDbPoint
 10
9.55117
 20
4.705294
 30
0.0
  0
POINT
  5
340
330
335
100
AcDbEntity
  8
Defpoints
 62
     0
440
 16777216
100
AcDbPoint
 10
9.55117
 20
5.588136
 30
0.0
  0
ENDBLK
  5
341
330
335
100
AcDbEntity
  8
0
100
AcDbBlockEnd
  0
BLOCK
  5
34F
330
34E
100
AcDbEntity
  8
0
100
AcDbBlockBegin
  2
*D24
 70
     1
 10
0.0
 20
0.0
 30
0.0
  3
*D24
  1

  0
LINE
  5
7E2
330
34E
100
AcDbEntity
  8
Dimensions
440
 16777216
370
    -2
100
AcDbLine
 10
2.5
 20
9.697848
 30
0.0
 11
2.5
 21
10.150769
 31
0.0
  0
LINE
  5
7E3
330
34E
100
AcDbEntity
  8
Dimensions
440
 16777216
370
    -2
100
AcDbLine
 10
14.5
 20
9.697848
 30
0.0
 11
14.5
 21
10.150769
 31
0.0
  0
LINE
  5
7E4
330
34E
100
AcDbEntity
  8
Dimensions
440
 16777216
370
    -2
100
AcDbLine
 10
2.62
 20
10.050769
 30
0.0
 11
8.243138
 21
10.050769
 31
0.0
  0
LINE
  5
7E5
330
34E
100
AcDbEntity
  8
Dimensions
440
 16777216
370
    -2
100
AcDbLine
 10
14.38
 20
10.050769
 30
0.0
 11
8.756862
 21
10.050769
 31
0.0
  0
SOLID
  5
7E6
330
34E
100
AcDbEntity
  8
Dimensions
440
 16777216
100
AcDbTrace
 10
2.62
 20
10.070769
 30
0.0
 11
2.62
 21
10.030769
 31
0.0
 12
2.5
 22
10.050769
 32
0.0
 13
2.5
 23
10.050769
 33
0.0
  0
SOLID
  5
7E7
330
34E
100
AcDbEntity
  8
Dimensions
440
 16777216
100
AcDbTrace
 10
14.38
 20
10.070769
 30
0.0
 11
14.38
 21
10.030769
 31
0.0
 12
14.5
 22
10.050769
 32
0.0
 13
14.5
 23
10.050769
 33
0.0
  0
MTEXT
  5
7E8
330
34E
100
AcDbEntity
  8
Dimensions
440
 16777216
100
AcDbMText
 10
8.5
 20
10.050769
 30
0.0
 40
0.12
 41
0.0
 46
0.0
 71
     5
 72
     1
  1
\A1;240in
 73
     1
 44
1.0
  0
POINT
  5
7E9
330
34E
100
AcDbEntity
  8
Defpoints
 62
     0
440
 16777216
100
AcDbPoint
 10
2.5
 20
9.647848
 30
0.0
  0
POINT
  5
7EA
330
34E
100
AcDbEntity
  8
Defpoints
 62
     0
440
 16777216
100
AcDbPoint
 10
14.5
 20
9.647848
 30
0.0
  0
POINT
  5
7EB
330
34E
100
AcDbEntity
  8
Defpoints
 62
     0
440
 16777216
100
AcDbPoint
 10
14.5
 20
10.050769
 30
0.0
  0
ENDBLK
  5
350
330
34E
100
AcDbEntity
  8
0
100
AcDbBlockEnd
  0
BLOCK
  5
35C
330
35B
100
AcDbEntity
  8
0
100
AcDbBlockBegin
  2
*D25
 70
     1
 10
0.0
 20
0.0
 30
0.0
  3
*D25
  1

  0
LINE
  5
7EC
330
35B
100
AcDbEntity
  8
Dimensions
440
 16777216
370
    -2
100
AcDbLine
 10
10.969647
 20
8.231945
 30
0.0
 11
10.969647
 21
6.825299
 31
0.0
  0
LINE
  5
7ED
330
35B
100
AcDbEntity
  8
Dimensions
440
 16777216
370
    -2
100
AcDbLine
 10
5.969647
 20
8.229485
 30
0.0
 11
5.969647
 21
6.825299
 31
0.0
  0
LINE
  5
7EE
330
35B
100
AcDbEntity
  8
Dimensions
440
 16777216
370
    -2
100
AcDbLine
 10
10.849647
 20
6.925299
 30
0.0
 11
8.681284
 21
6.925299
 31
0.0
  0
LINE
  5
7EF
330
35B
100
AcDbEntity
  8
Dimensions
440
 16777216
370
    -2
100
AcDbLine
 10
6.089647
 20
6.925299
 30
0.0
 11
8.25801
 21
6.925299
 31
0.0
  0
SOLID
  5
7F0
330
35B
100
AcDbEntity
  8
Dimensions
440
 16777216
100
AcDbTrace
 10
10.849647
 20
6.945299
 30
0.0
 11
10.849647
 21
6.905299
 31
0.0
 12
10.969647
 22
6.925299
 32
0.0
 13
10.969647
 23
6.925299
 33
0.0
  0
SOLID
  5
7F1
330
35B
100
AcDbEntity
  8
Dimensions
440
 16777216
100
AcDbTrace
 10
6.089647
 20
6.945299
 30
0.0
 11
6.089647
 21
6.905299
 31
0.0
 12
5.969647
 22
6.925299
 32
0.0
 13
5.969647
 23
6.925299
 33
0.0
  0
MTEXT
  5
7F2
330
35B
100
AcDbEntity
  8
Dimensions
440
 16777216
100
AcDbMText
 10
8.469647
 20
6.925299
 30
0.0
 40
0.12
 41
0.0
 46
0.0
 71
     5
 72
     1
  1
\A1;40in
 73
     1
 44
1.0
  0
POINT
  5
7F3
330
35B
100
AcDbEntity
  8
Defpoints
 62
     0
440
 16777216
100
AcDbPoint
 10
10.969647
 20
8.281945
 30
0.0
  0
POINT
  5
7F4
330
35B
100
AcDbEntity
  8
Defpoints
 62
     0
440
 16777216
100
AcDbPoint
 10
5.969647
 20
8.279485
 30
0.0
  0
POINT
  5
7F5
330
35B
100
AcDbEntity
  8
Defpoints
 62
     0
440
 16777216
100
AcDbPoint
 10
5.969647
 20
6.925299
 30
0.0
  0
ENDBLK
  5
35D
330
35B
100
AcDbEntity
  8
0
100
AcDbBlockEnd
  0
BLOCK
  5
369
330
368
100
AcDbEntity
  8
0
100
AcDbBlockBegin
  2
*D26
 70
     1
 10
0.0
 20
0.0
 30
0.0
  3
*D26
  1

  0
LINE
  5
7F6
330
368
100
AcDbEntity
  8
Dimensions
440
 16777216
370
    -2
100
AcDbLine
 10
8.195151
 20
3.958701
 30
0.0
 11
7.674415
 21
4.026446
 31
0.0
  0
MTEXT
  5
7F7
330
368
100
AcDbEntity
  8
Dimensions
440
 16777216
100
AcDbMText
 10
8.578317
 20
3.958701
 30
0.0
 40
0.12
 41
0.0
 46
0.0
 71
     5
 72
     1
  1
\A1;R2.393in
 73
     1
 44
1.0
  0
SOLID
  5
7F8
330
368
100
AcDbEntity
  8
Dimensions
440
 16777216
100
AcDbTrace
 10
7.676995
 20
4.046279
 30
0.0
 11
7.671834
 21
4.006613
 31
0.0
 12
7.555417
 22
4.041927
 32
0.0
 13
7.555417
 23
4.041927
 33
0.0
  0
POINT
  5
7F9
330
368
100
AcDbEntity
  8
Defpoints
 62
     0
440
 16777216
100
AcDbPoint
 10
7.555417
 20
4.041927
 30
0.0
  0
POINT
  5
7FA
330
368
100
AcDbEntity
  8
Defpoints
 62
     0
440
 16777216
100
AcDbPoint
 10
9.928335
 20
3.733223
 30
0.0
  0
ENDBLK
  5
36A
330
368
100
AcDbEntity
  8
0
100
AcDbBlockEnd
  0
BLOCK
  5
371
330
370
100
AcDbEntity
  8
0
100
AcDbBlockBegin
  2
*D27
 70
     1
 10
0.0
 20
0.0
 30
0.0
  3
*D27
  1

  0
LINE
  5
7FB
330
370
100
AcDbEntity
  8
Dimensions
440
 16777216
370
    -2
100
AcDbLine
 10
7.278987
 20
5.21018
 30
0.0
 11
5.152796
 21
5.21018
 31
0.0
  0
LINE
  5
7FC
330
370
100
AcDbEntity
  8
Dimensions
440
 16777216
370
    -2
100
AcDbLine
 10
7.138965
 20
1.331648
 30
0.0
 11
5.152796
 21
1.331648
 31
0.0
  0
LINE
  5
7FD
330
370
100
AcDbEntity
  8
Dimensions
440
 16777216
370
    -2
100
AcDbLine
 10
5.252796
 20
5.09018
 30
0.0
 11
5.252796
 21
3.392224
 31
0.0
  0
LINE
  5
7FE
330
370
100
AcDbEntity
  8
Dimensions
440
 16777216
370
    -2
100
AcDbLine
 10
5.252796
 20
1.451648
 30
0.0
 11
5.252796
 21
3.149604
 31
0.0
  0
SOLID
  5
7FF
330
370
100
AcDbEntity
  8
Dimensions
440
 16777216
100
AcDbTrace
 10
5.232796
 20
5.09018
 30
0.0
 11
5.272796
 21
5.09018
 31
0.0
 12
5.252796
 22
5.21018
 32
0.0
 13
5.252796
 23
5.21018
 33
0.0
  0
SOLID
  5
800
330
370
100
AcDbEntity
  8
Dimensions
440
 16777216
100
AcDbTrace
 10
5.232796
 20
1.451648
 30
0.0
 11
5.272796
 21
1.451648
 31
0.0
 12
5.252796
 22
1.331648
 32
0.0
 13
5.252796
 23
1.331648
 33
0.0
  0
MTEXT
  5
801
330
370
100
AcDbEntity
  8
Dimensions
440
 16777216
100
AcDbMText
 10
5.252796
 20
3.270914
 30
0.0
 40
0.12
 41
0.0
 46
0.0
 71
     5
 72
     1
  1
\A1;3.879in
 73
     1
 44
1.0
  0
POINT
  5
802
330
370
100
AcDbEntity
  8
Defpoints
 62
     0
440
 16777216
100
AcDbPoint
 10
7.328987
 20
5.21018
 30
0.0
  0
POINT
  5
803
330
370
100
AcDbEntity
  8
Defpoints
 62
     0
440
 16777216
100
AcDbPoint
 10
7.188965
 20
1.331648
 30
0.0
  0
POINT
  5
804
330
370
100
AcDbEntity
  8
Defpoints
 62
     0
440
 16777216
100
AcDbPoint
 10
5.252796
 20
1.331648
 30
0.0
  0
ENDBLK
  5
372
330
370
100
AcDbEntity
  8
0
100
AcDbBlockEnd
  0
BLOCK
  5
37E
330
37D
100
AcDbEntity
  8
0
100
AcDbBlockBegin
  2
*D28
 70
     1
 10
0.0
 20
0.0
 30
0.0
  3
*D28
  1

  0
LINE
  5
805
330
37D
100
AcDbEntity
  8
Dimensions
440
 16777216
370
    -2
100
AcDbLine
 10
7.16928
 20
1.301333
 30
0.0
 11
7.16928
 21
0.733108
 31
0.0
  0
LINE
  5
806
330
37D
100
AcDbEntity
  8
Dimensions
440
 16777216
370
    -2
100
AcDbLine
 10
10.003925
 20
1.301333
 30
0.0
 11
10.003925
 21
0.733108
 31
0.0
  0
LINE
  5
807
330
37D
100
AcDbEntity
  8
Dimensions
440
 16777216
370
    -2
100
AcDbLine
 10
7.28928
 20
0.833108
 30
0.0
 11
8.259836
 21
0.833108
 31
0.0
  0
LINE
  5
808
330
37D
100
AcDbEntity
  8
Dimensions
440
 16777216
370
    -2
100
AcDbLine
 10
9.883925
 20
0.833108
 30
0.0
 11
8.913369
 21
0.833108
 31
0.0
  0
SOLID
  5
809
330
37D
100
AcDbEntity
  8
Dimensions
440
 16777216
100
AcDbTrace
 10
7.28928
 20
0.853108
 30
0.0
 11
7.28928
 21
0.813108
 31
0.0
 12
7.16928
 22
0.833108
 32
0.0
 13
7.16928
 23
0.833108
 33
0.0
  0
SOLID
  5
80A
330
37D
100
AcDbEntity
  8
Dimensions
440
 16777216
100
AcDbTrace
 10
9.883925
 20
0.853108
 30
0.0
 11
9.883925
 21
0.813108
 31
0.0
 12
10.003925
 22
0.833108
 32
0.0
 13
10.003925
 23
0.833108
 33
0.0
  0
MTEXT
  5
80B
330
37D
100
AcDbEntity
  8
Dimensions
440
 16777216
100
AcDbMText
 10
8.586603
 20
0.833108
 30
0.0
 40
0.12
 41
0.0
 46
0.0
 71
     5
 72
     1
  1
\A1;2.835in
 73
     1
 44
1.0
  0
POINT
  5
80C
330
37D
100
AcDbEntity
  8
Defpoints
 62
     0
440
 16777216
100
AcDbPoint
 10
7.16928
 20
1.351333
 30
0.0
  0
POINT
  5
80D
330
37D
100
AcDbEntity
  8
Defpoints
 62
     0
440
 16777216
100
AcDbPoint
 10
10.003925
 20
1.351333
 30
0.0
  0
POINT
  5
80E
330
37D
100
AcDbEntity
  8
Defpoints
 62
     0
440
 16777216
100
AcDbPoint
 10
10.003925
 20
0.833108
 30
0.0
  0
ENDBLK
  5
37F
330
37D
100
AcDbEntity
  8
0
100
AcDbBlockEnd
  0
BLOCK
  5
38B
330
38A
100
AcDbEntity
  8
0
100
AcDbBlockBegin
  2
*D29
 70
     1
 10
0.0
 20
0.0
 30
0.0
  3
*D29
  1

  0
LINE
  5
80F
330
38A
100
AcDbEntity
  8
Dimensions
440
 16777216
370
    -2
100
AcDbLine
 10
9.177103
 20
1.814569
 30
0.0
 11
9.177103
 21
3.139269
 31
0.0
  0
LINE
  5
810
330
38A
100
AcDbEntity
  8
Dimensions
440
 16777216
370
    -2
100
AcDbLine
 10
7.996103
 20
1.814569
 30
0.0
 11
7.996103
 21
3.139269
 31
0.0
  0
LINE
  5
811
330
38A
100
AcDbEntity
  8
Dimensions
440
 16777216
370
    -2
100
AcDbLine
 10
9.057103
 20
3.039269
 30
0.0
 11
8.977626
 21
3.039269
 31
0.0
  0
LINE
  5
812
330
38A
100
AcDbEntity
  8
Dimensions
440
 16777216
370
    -2
100
AcDbLine
 10
8.116103
 20
3.039269
 30
0.0
 11
8.195579
 21
3.039269
 31
0.0
  0
SOLID
  5
813
330
38A
100
AcDbEntity
  8
Dimensions
440
 16777216
100
AcDbTrace
 10
9.057103
 20
3.059269
 30
0.0
 11
9.057103
 21
3.019269
 31
0.0
 12
9.177103
 22
3.039269
 32
0.0
 13
9.177103
 23
3.039269
 33
0.0
  0
SOLID
  5
814
330
38A
100
AcDbEntity
  8
Dimensions
440
 16777216
100
AcDbTrace
 10
8.116103
 20
3.059269
 30
0.0
 11
8.116103
 21
3.019269
 31
0.0
 12
7.996103
 22
3.039269
 32
0.0
 13
7.996103
 23
3.039269
 33
0.0
  0
MTEXT
  5
815
330
38A
100
AcDbEntity
  8
Dimensions
440
 16777216
100
AcDbMText
 10
8.586603
 20
3.039269
 30
0.0
 40
0.12
 41
0.0
 46
0.0
 71
     5
 72
     1
  1
\A1;%%C1.181in
 73
     1
 44
1.0
  0
POINT
  5
816
330
38A
100
AcDbEntity
  8
Defpoints
 62
     0
440
 16777216
100
AcDbPoint
 10
9.177103
 20
1.764569
 30
0.0
  0
POINT
  5
817
330
38A
100
AcDbEntity
  8
Defpoints
 62
     0
440
 16777216
100
AcDbPoint
 10
7.996103
 20
1.764569
 30
0.0
  0
POINT
  5
818
330
38A
100
AcDbEntity
  8
Defpoints
 62
     0
440
 16777216
100
AcDbPoint
 10
7.996103
 20
3.039269
 30
0.0
  0
ENDBLK
  5
38C
330
38A
100
AcDbEntity
  8
0
100
AcDbBlockEnd
  0
BLOCK
  5
398
330
397
100
AcDbEntity
  8
0
100
AcDbBlockBegin
  2
*D30
 70
     1
 10
0.0
 20
0.0
 30
0.0
  3
*D30
  1

  0
LINE
  5
819
330
397
100
AcDbEntity
  8
Dimensions
440
 16777216
370
    -2
100
AcDbLine
 10
8.202103
 20
1.764569
 30
0.0
 11
6.782275
 21
1.764569
 31
0.0
  0
LINE
  5
81A
330
397
100
AcDbEntity
  8
Dimensions
440
 16777216
370
    -2
100
AcDbLine
 10
8.202103
 20
1.567869
 30
0.0
 11
6.782275
 21
1.567869
 31
0.0
  0
LINE
  5
81B
330
397
100
AcDbEntity
  8
Dimensions
440
 16777216
370
    -2
100
AcDbLine
 10
6.882275
 20
1.884569
 30
0.0
 11
6.882275
 21
2.004569
 31
0.0
  0
LINE
  5
81C
330
397
100
AcDbEntity
  8
Dimensions
440
 16777216
370
    -2
100
AcDbLine
 10
6.882275
 20
1.447869
 30
0.0
 11
6.882275
 21
1.197073
 31
0.0
  0
LINE
  5
81D
330
397
100
AcDbEntity
  8
Dimensions
440
 16777216
370
    -2
100
AcDbLine
 10
6.882275
 20
1.197073
 30
0.0
 11
6.762275
 21
1.197073
 31
0.0
  0
SOLID
  5
81E
330
397
100
AcDbEntity
  8
Dimensions
440
 16777216
100
AcDbTrace
 10
6.862275
 20
1.884569
 30
0.0
 11
6.902275
 21
1.884569
 31
0.0
 12
6.882275
 22
1.764569
 32
0.0
 13
6.882275
 23
1.764569
 33
0.0
  0
SOLID
  5
81F
330
397
100
AcDbEntity
  8
Dimensions
440
 16777216
100
AcDbTrace
 10
6.862275
 20
1.447869
 30
0.0
 11
6.902275
 21
1.447869
 31
0.0
 12
6.882275
 22
1.567869
 32
0.0
 13
6.882275
 23
1.567869
 33
0.0
  0
MTEXT
  5
820
330
397
100
AcDbEntity
  8
Dimensions
440
 16777216
100
AcDbMText
 10
6.487282
 20
1.197073
 30
0.0
 40
0.12
 41
0.0
 46
0.0
 71
     5
 72
     1
  1
\A1;.197in
 73
     1
 44
1.0
  0
POINT
  5
821
330
397
100
AcDbEntity
  8
Defpoints
 62
     0
440
 16777216
100
AcDbPoint
 10
8.252103
 20
1.764569
 30
0.0
  0
POINT
  5
822
330
397
100
AcDbEntity
  8
Defpoints
 62
     0
440
 16777216
100
AcDbPoint
 10
8.252103
 20
1.567869
 30
0.0
  0
POINT
  5
823
330
397
100
AcDbEntity
  8
Defpoints
 62
     0
440
 16777216
100
AcDbPoint
 10
6.882275
 20
1.567869
 30
0.0
  0
ENDBLK
  5
399
330
397
100
AcDbEntity
  8
0
100
AcDbBlockEnd
  0
BLOCK
  5
3A6
330
3A5
100
AcDbEntity
  8
0
100
AcDbBlockBegin
  2
*D31
 70
     1
 10
0.0
 20
0.0
 30
0.0
  3
*D31
  1

  0
LINE
  5
824
330
3A5
100
AcDbEntity
  8
Dimensions
440
 16777216
370
    -2
100
AcDbLine
 10
8.005106
 20
1.961569
 30
0.0
 11
5.598781
 21
1.961569
 31
0.0
  0
LINE
  5
825
330
3A5
100
AcDbEntity
  8
Dimensions
440
 16777216
370
    -2
100
AcDbLine
 10
7.600259
 20
1.331648
 30
0.0
 11
5.598781
 21
1.331648
 31
0.0
  0
LINE
  5
826
330
3A5
100
AcDbEntity
  8
Dimensions
440
 16777216
370
    -2
100
AcDbLine
 10
5.698781
 20
1.841569
 30
0.0
 11
5.698781
 21
1.767918
 31
0.0
  0
LINE
  5
827
330
3A5
100
AcDbEntity
  8
Dimensions
440
 16777216
370
    -2
100
AcDbLine
 10
5.698781
 20
1.451648
 30
0.0
 11
5.698781
 21
1.525299
 31
0.0
  0
SOLID
  5
828
330
3A5
100
AcDbEntity
  8
Dimensions
440
 16777216
100
AcDbTrace
 10
5.678781
 20
1.841569
 30
0.0
 11
5.718781
 21
1.841569
 31
0.0
 12
5.698781
 22
1.961569
 32
0.0
 13
5.698781
 23
1.961569
 33
0.0
  0
SOLID
  5
829
330
3A5
100
AcDbEntity
  8
Dimensions
440
 16777216
100
AcDbTrace
 10
5.678781
 20
1.451648
 30
0.0
 11
5.718781
 21
1.451648
 31
0.0
 12
5.698781
 22
1.331648
 32
0.0
 13
5.698781
 23
1.331648
 33
0.0
  0
MTEXT
  5
82A
330
3A5
100
AcDbEntity
  8
Dimensions
440
 16777216
100
AcDbMText
 10
5.698781
 20
1.646609
 30
0.0
 40
0.12
 41
0.0
 46
0.0
 71
     5
 72
     1
  1
\A1;.63in
 73
     1
 44
1.0
  0
POINT
  5
82B
330
3A5
100
AcDbEntity
  8
Defpoints
 62
     0
440
 16777216
100
AcDbPoint
 10
8.055106
 20
1.961569
 30
0.0
  0
POINT
  5
82C
330
3A5
100
AcDbEntity
  8
Defpoints
 62
     0
440
 16777216
100
AcDbPoint
 10
7.650259
 20
1.331648
 30
0.0
  0
POINT
  5
82D
330
3A5
100
AcDbEntity
  8
Defpoints
 62
     0
440
 16777216
100
AcDbPoint
 10
5.698781
 20
1.331648
 30
0.0
  0
ENDBLK
  5
3A7
330
3A5
100
AcDbEntity
  8
0
100
AcDbBlockEnd
  0
BLOCK
  5
3B3
330
3B2
100
AcDbEntity
  8
0
100
AcDbBlockBegin
  2
*D32
 70
     1
 10
0.0
 20
0.0
 30
0.0
  3
*D32
  1

  0
LINE
  5
82E
330
3B2
100
AcDbEntity
  8
Dimensions
440
 16777216
370
    -2
100
AcDbLine
 10
8.252103
 20
1.814569
 30
0.0
 11
8.252103
 21
2.733818
 31
0.0
  0
LINE
  5
82F
330
3B2
100
AcDbEntity
  8
Dimensions
440
 16777216
370
    -2
100
AcDbLine
 10
8.921103
 20
1.814569
 30
0.0
 11
8.921103
 21
2.733818
 31
0.0
  0
LINE
  5
830
330
3B2
100
AcDbEntity
  8
Dimensions
440
 16777216
370
    -2
100
AcDbLine
 10
8.372103
 20
2.633818
 30
0.0
 11
8.801103
 21
2.633818
 31
0.0
  0
LINE
  5
831
330
3B2
100
AcDbEntity
  8
Dimensions
440
 16777216
370
    -2
100
AcDbLine
 10
8.921103
 20
2.633818
 30
0.0
 11
10.132909
 21
2.633818
 31
0.0
  0
SOLID
  5
832
330
3B2
100
AcDbEntity
  8
Dimensions
440
 16777216
100
AcDbTrace
 10
8.372103
 20
2.653818
 30
0.0
 11
8.372103
 21
2.613818
 31
0.0
 12
8.252103
 22
2.633818
 32
0.0
 13
8.252103
 23
2.633818
 33
0.0
  0
SOLID
  5
833
330
3B2
100
AcDbEntity
  8
Dimensions
440
 16777216
100
AcDbTrace
 10
8.801103
 20
2.653818
 30
0.0
 11
8.801103
 21
2.613818
 31
0.0
 12
8.921103
 22
2.633818
 32
0.0
 13
8.921103
 23
2.633818
 33
0.0
  0
MTEXT
  5
834
330
3B2
100
AcDbEntity
  8
Dimensions
440
 16777216
100
AcDbMText
 10
10.477315
 20
2.633818
 30
0.0
 40
0.12
 41
0.0
 46
0.0
 71
     5
 72
     1
  1
\A1;%%C.669in
 73
     1
 44
1.0
  0
POINT
  5
835
330
3B2
100
AcDbEntity
  8
Defpoints
 62
     0
440
 16777216
100
AcDbPoint
 10
8.252103
 20
1.764569
 30
0.0
  0
POINT
  5
836
330
3B2
100
AcDbEntity
  8
Defpoints
 62
     0
440
 16777216
100
AcDbPoint
 10
8.921103
 20
1.764569
 30
0.0
  0
POINT
  5
837
330
3B2
100
AcDbEntity
  8
Defpoints
 62
     0
440
 16777216
100
AcDbPoint
 10
8.921103
 20
2.633818
 30
0.0
  0
ENDBLK
  5
3B4
330
3B2
100
AcDbEntity
  8
0
100
AcDbBlockEnd
  0
BLOCK
  5
3C0
330
3BF
100
AcDbEntity
  8
0
100
AcDbBlockBegin
  2
*D33
 70
     1
 10
0.0
 20
0.0
 30
0.0
  3
*D33
  1

  0
LINE
  5
838
330
3BF
100
AcDbEntity
  8
Dimensions
440
 16777216
370
    -2
100
AcDbLine
 10
8.280603
 20
1.961569
 30
0.0
 11
5.999096
 21
1.961569
 31
0.0
  0
LINE
  5
839
330
3BF
100
AcDbEntity
  8
Dimensions
440
 16777216
370
    -2
100
AcDbLine
 10
8.202103
 20
1.764569
 30
0.0
 11
5.999096
 21
1.764569
 31
0.0
  0
LINE
  5
83A
330
3BF
100
AcDbEntity
  8
Dimensions
440
 16777216
370
    -2
100
AcDbLine
 10
6.099096
 20
1.644569
 30
0.0
 11
6.099096
 21
1.524569
 31
0.0
  0
LINE
  5
83B
330
3BF
100
AcDbEntity
  8
Dimensions
440
 16777216
370
    -2
100
AcDbLine
 10
6.099096
 20
2.081569
 30
0.0
 11
6.099096
 21
2.409951
 31
0.0
  0
LINE
  5
83C
330
3BF
100
AcDbEntity
  8
Dimensions
440
 16777216
370
    -2
100
AcDbLine
 10
6.099096
 20
2.409951
 30
0.0
 11
6.219096
 21
2.409951
 31
0.0
  0
SOLID
  5
83D
330
3BF
100
AcDbEntity
  8
Dimensions
440
 16777216
100
AcDbTrace
 10
6.079096
 20
1.644569
 30
0.0
 11
6.119096
 21
1.644569
 31
0.0
 12
6.099096
 22
1.764569
 32
0.0
 13
6.099096
 23
1.764569
 33
0.0
  0
SOLID
  5
83E
330
3BF
100
AcDbEntity
  8
Dimensions
440
 16777216
100
AcDbTrace
 10
6.079096
 20
2.081569
 30
0.0
 11
6.119096
 21
2.081569
 31
0.0
 12
6.099096
 22
1.961569
 32
0.0
 13
6.099096
 23
1.961569
 33
0.0
  0
MTEXT
  5
83F
330
3BF
100
AcDbEntity
  8
Dimensions
440
 16777216
100
AcDbMText
 10
6.494089
 20
2.409951
 30
0.0
 40
0.12
 41
0.0
 46
0.0
 71
     5
 72
     1
  1
\A1;.197in
 73
     1
 44
1.0
  0
POINT
  5
840
330
3BF
100
AcDbEntity
  8
Defpoints
 62
     0
440
 16777216
100
AcDbPoint
 10
8.330603
 20
1.961569
 30
0.0
  0
POINT
  5
841
330
3BF
100
AcDbEntity
  8
Defpoints
 62
     0
440
 16777216
100
AcDbPoint
 10
8.252103
 20
1.764569
 30
0.0
  0
POINT
  5
842
330
3BF
100
AcDbEntity
  8
Defpoints
 62
     0
440
 16777216
100
AcDbPoint
 10
6.099096
 20
1.764569
 30
0.0
  0
ENDBLK
  5
3C1
330
3BF
100
AcDbEntity
  8
0
100
AcDbBlockEnd
  0
BLOCK
  5
3CE
330
3CD
100
AcDbEntity
  8
0
100
AcDbBlockBegin
  2
*D34
 70
     1
 10
0.0
 20
0.0
 30
0.0
  3
*D34
  1

  0
LINE
  5
843
330
3CD
100
AcDbEntity
  8
Dimensions
440
 16777216
370
    -2
100
AcDbLine
 10
5.969811
 20
8.229485
 30
0.0
 11
5.972241
 21
7.488914
 31
0.0
  0
LINE
  5
844
330
3CD
100
AcDbEntity
  8
Dimensions
440
 16777216
370
    -2
100
AcDbLine
 10
6.719811
 20
8.231946
 30
0.0
 11
6.722241
 21
7.491375
 31
0.0
  0
LINE
  5
845
330
3CD
100
AcDbEntity
  8
Dimensions
440
 16777216
370
    -2
100
AcDbLine
 10
6.091912
 20
7.589307
 30
0.0
 11
6.184496
 21
7.589611
 31
0.0
  0
LINE
  5
846
330
3CD
100
AcDbEntity
  8
Dimensions
440
 16777216
370
    -2
100
AcDbLine
 10
6.601913
 20
7.59098
 30
0.0
 11
6.510363
 21
7.59068
 31
0.0
  0
SOLID
  5
847
330
3CD
100
AcDbEntity
  8
Dimensions
440
 16777216
100
AcDbTrace
 10
6.091846
 20
7.609307
 30
0.0
 11
6.091978
 21
7.569307
 31
0.0
 12
5.971913
 22
7.588913
 32
0.0
 13
5.971913
 23
7.588913
 33
0.0
  0
SOLID
  5
848
330
3CD
100
AcDbEntity
  8
Dimensions
440
 16777216
100
AcDbTrace
 10
6.601848
 20
7.61098
 30
0.0
 11
6.601979
 21
7.570981
 31
0.0
 12
6.721913
 22
7.591374
 32
0.0
 13
6.721913
 23
7.591374
 33
0.0
  0
MTEXT
  5
849
330
3CD
100
AcDbEntity
  8
Dimensions
440
 16777216
100
AcDbMText
 10
6.34743
 20
7.590146
 30
0.0
 40
0.12
 41
0.0
 46
0.0
 71
     5
 72
     1
  1
\A1;6in
 73
     1
 44
1.0
  0
POINT
  5
84A
330
3CD
100
AcDbEntity
  8
Defpoints
 62
     0
440
 16777216
100
AcDbPoint
 10
5.969647
 20
8.279485
 30
0.0
  0
POINT
  5
84B
330
3CD
100
AcDbEntity
  8
Defpoints
 62
     0
440
 16777216
100
AcDbPoint
 10
6.719647
 20
8.281945
 30
0.0
  0
POINT
  5
84C
330
3CD
100
AcDbEntity
  8
Defpoints
 62
     0
440
 16777216
100
AcDbPoint
 10
6.721913
 20
7.591374
 30
0.0
  0
ENDBLK
  5
3CF
330
3CD
100
AcDbEntity
  8
0
100
AcDbBlockEnd
  0
BLOCK
  5
3DB
330
3DA
100
AcDbEntity
  8
0
100
AcDbBlockBegin
  2
*D35
 70
     1
 10
0.0
 20
0.0
 30
0.0
  3
*D35
  1

  0
LINE
  5
84D
330
3DA
100
AcDbEntity
  8
Dimensions
440
 16777216
370
    -2
100
AcDbLine
 10
6.719647
 20
8.231945
 30
0.0
 11
6.719647
 21
7.163712
 31
0.0
  0
LINE
  5
84E
330
3DA
100
AcDbEntity
  8
Dimensions
440
 16777216
370
    -2
100
AcDbLine
 10
8.219647
 20
8.231945
 30
0.0
 11
8.219647
 21
7.163712
 31
0.0
  0
LINE
  5
84F
330
3DA
100
AcDbEntity
  8
Dimensions
440
 16777216
370
    -2
100
AcDbLine
 10
6.839647
 20
7.263712
 30
0.0
 11
7.266073
 21
7.263712
 31
0.0
  0
LINE
  5
850
330
3DA
100
AcDbEntity
  8
Dimensions
440
 16777216
370
    -2
100
AcDbLine
 10
8.099647
 20
7.263712
 30
0.0
 11
7.673221
 21
7.263712
 31
0.0
  0
SOLID
  5
851
330
3DA
100
AcDbEntity
  8
Dimensions
440
 16777216
100
AcDbTrace
 10
6.839647
 20
7.283712
 30
0.0
 11
6.839647
 21
7.243712
 31
0.0
 12
6.719647
 22
7.263712
 32
0.0
 13
6.719647
 23
7.263712
 33
0.0
  0
SOLID
  5
852
330
3DA
100
AcDbEntity
  8
Dimensions
440
 16777216
100
AcDbTrace
 10
8.099647
 20
7.283712
 30
0.0
 11
8.099647
 21
7.243712
 31
0.0
 12
8.219647
 22
7.263712
 32
0.0
 13
8.219647
 23
7.263712
 33
0.0
  0
MTEXT
  5
853
330
3DA
100
AcDbEntity
  8
Dimensions
440
 16777216
100
AcDbMText
 10
7.469647
 20
7.263712
 30
0.0
 40
0.12
 41
0.0
 46
0.0
 71
     5
 72
     1
  1
\A1;12in
 73
     1
 44
1.0
  0
POINT
  5
854
330
3DA
100
AcDbEntity
  8
Defpoints
 62
     0
440
 16777216
100
AcDbPoint
 10
6.719647
 20
8.281945
 30
0.0
  0
POINT
  5
855
330
3DA
100
AcDbEntity
  8
Defpoints
 62
     0
440
 16777216
100
AcDbPoint
 10
8.219647
 20
8.281945
 30
0.0
  0
POINT
  5
856
330
3DA
100
AcDbEntity
  8
Defpoints
 62
     0
440
 16777216
100
AcDbPoint
 10
8.219647
 20
7.263712
 30
0.0
  0
ENDBLK
  5
3DC
330
3DA
100
AcDbEntity
  8
0
100
AcDbBlockEnd
  0
BLOCK
  5
3E8
330
3E7
100
AcDbEntity
  8
0
100
AcDbBlockBegin
  2
*D36
 70
     1
 10
0.0
 20
0.0
 30
0.0
  3
*D36
  1

  0
LINE
  5
857
330
3E7
100
AcDbEntity
  8
Dimensions
440
 16777216
370
    -2
100
AcDbLine
 10
7.423138
 20
9.054
 30
0.0
 11
7.303138
 21
9.054
 31
0.0
  0
LINE
  5
858
330
3E7
100
AcDbEntity
  8
Dimensions
440
 16777216
370
    -2
100
AcDbLine
 10
7.303138
 20
9.054
 30
0.0
 11
6.836504
 21
8.436567
 31
0.0
  0
MTEXT
  5
859
330
3E7
100
AcDbEntity
  8
Dimensions
440
 16777216
100
AcDbMText
 10
7.814161
 20
9.054
 30
0.0
 40
0.12
 41
0.0
 46
0.0
 71
     5
 72
     1
  1
\A1;∅1.181in
 73
     1
 44
1.0
  0
SOLID
  5
85A
330
3E7
100
AcDbEntity
  8
Dimensions
440
 16777216
100
AcDbTrace
 10
6.820548
 20
8.448625
 30
0.0
 11
6.85246
 21
8.424508
 31
0.0
 12
6.764151
 22
8.340832
 32
0.0
 13
6.764151
 23
8.340832
 33
0.0
  0
POINT
  5
85B
330
3E7
100
AcDbEntity
  8
Defpoints
 62
     0
440
 16777216
100
AcDbPoint
 10
6.764151
 20
8.340832
 30
0.0
  0
POINT
  5
85C
330
3E7
100
AcDbEntity
  8
Defpoints
 62
     0
440
 16777216
100
AcDbPoint
 10
6.675143
 20
8.223059
 30
0.0
  0
ENDBLK
  5
3E9
330
3E7
100
AcDbEntity
  8
0
100
AcDbBlockEnd
  0
BLOCK
  5
3F1
330
3F0
100
AcDbEntity
  8
0
100
AcDbBlockBegin
  2
*D37
 70
     1
 10
0.0
 20
0.0
 30
0.0
  3
*D37
  1

  0
LINE
  5
85D
330
3F0
100
AcDbEntity
  8
Dimensions
440
 16777216
370
    -2
100
AcDbLine
 10
7.595935
 20
8.809096
 30
0.0
 11
7.475935
 21
8.809096
 31
0.0
  0
LINE
  5
85E
330
3F0
100
AcDbEntity
  8
Dimensions
440
 16777216
370
    -2
100
AcDbLine
 10
7.475935
 20
8.809096
 30
0.0
 11
6.852394
 21
8.374473
 31
0.0
  0
MTEXT
  5
85F
330
3F0
100
AcDbEntity
  8
Dimensions
440
 16777216
100
AcDbMText
 10
7.940341
 20
8.809096
 30
0.0
 40
0.12
 41
0.0
 46
0.0
 71
     5
 72
     1
  1
\A1;∅.669in
 73
     1
 44
1.0
  0
SOLID
  5
860
330
3F0
100
AcDbEntity
  8
Dimensions
440
 16777216
100
AcDbTrace
 10
6.840958
 20
8.390881
 30
0.0
 11
6.863831
 21
8.358066
 31
0.0
 12
6.753949
 22
8.305855
 32
0.0
 13
6.753949
 23
8.305855
 33
0.0
  0
POINT
  5
861
330
3F0
100
AcDbEntity
  8
Defpoints
 62
     0
440
 16777216
100
AcDbPoint
 10
6.753949
 20
8.305855
 30
0.0
  0
POINT
  5
862
330
3F0
100
AcDbEntity
  8
Defpoints
 62
     0
440
 16777216
100
AcDbPoint
 10
6.685345
 20
8.258036
 30
0.0
  0
ENDBLK
  5
3F2
330
3F0
100
AcDbEntity
  8
0
100
AcDbBlockEnd
  0
BLOCK
  5
3FA
330
3F9
100
AcDbEntity
  8
0
100
AcDbBlockBegin
  2
*D38
 70
     1
 10
0.0
 20
0.0
 30
0.0
  3
*D38
  1

  0
LINE
  5
863
330
3F9
100
AcDbEntity
  8
Dimensions
440
 16777216
370
    -2
100
AcDbLine
 10
10.576162
 20
9.146159
 30
0.0
 11
10.696162
 21
9.146159
 31
0.0
  0
LINE
  5
864
330
3F9
100
AcDbEntity
  8
Dimensions
440
 16777216
370
    -2
100
AcDbLine
 10
10.696162
 20
9.146159
 30
0.0
 11
10.923787
 21
8.426862
 31
0.0
  0
MTEXT
  5
865
330
3F9
100
AcDbEntity
  8
Dimensions
440
 16777216
100
AcDbMText
 10
10.231755
 20
9.146159
 30
0.0
 40
0.12
 41
0.0
 46
0.0
 71
     5
 72
     1
  1
\A1;∅.512in
 73
     1
 44
1.0
  0
SOLID
  5
866
330
3F9
100
AcDbEntity
  8
Dimensions
440
 16777216
100
AcDbTrace
 10
10.942855
 20
8.432896
 30
0.0
 11
10.904719
 21
8.420828
 31
0.0
 12
10.959992
 22
8.312454
 32
0.0
 13
10.959992
 23
8.312454
 33
0.0
  0
POINT
  5
867
330
3F9
100
AcDbEntity
  8
Defpoints
 62
     0
440
 16777216
100
AcDbPoint
 10
10.959992
 20
8.312454
 30
0.0
  0
POINT
  5
868
330
3F9
100
AcDbEntity
  8
Defpoints
 62
     0
440
 16777216
100
AcDbPoint
 10
10.979302
 20
8.251437
 30
0.0
  0
ENDBLK
  5
3FB
330
3F9
100
AcDbEntity
  8
0
100
AcDbBlockEnd
  0
BLOCK
  5
403
330
402
100
AcDbEntity
  8
0
100
AcDbBlockBegin
  2
*D39
 70
     1
 10
0.0
 20
0.0
 30
0.0
  3
*D39
  1

  0
LINE
  5
869
330
402
100
AcDbEntity
  8
Dimensions
440
 16777216
370
    -2
100
AcDbLine
 10
8.330603
 20
2.011569
 30
0.0
 11
8.330603
 21
2.486285
 31
0.0
  0
LINE
  5
86A
330
402
100
AcDbEntity
  8
Dimensions
440
 16777216
370
    -2
100
AcDbLine
 10
8.842603
 20
2.011569
 30
0.0
 11
8.842603
 21
2.486285
 31
0.0
  0
LINE
  5
86B
330
402
100
AcDbEntity
  8
Dimensions
440
 16777216
370
    -2
100
AcDbLine
 10
8.450603
 20
2.386285
 30
0.0
 11
8.722603
 21
2.386285
 31
0.0
  0
LINE
  5
86C
330
402
100
AcDbEntity
  8
Dimensions
440
 16777216
370
    -2
100
AcDbLine
 10
8.842603
 20
2.386285
 30
0.0
 11
10.132909
 21
2.386285
 31
0.0
  0
SOLID
  5
86D
330
402
100
AcDbEntity
  8
Dimensions
440
 16777216
100
AcDbTrace
 10
8.450603
 20
2.406285
 30
0.0
 11
8.450603
 21
2.366285
 31
0.0
 12
8.330603
 22
2.386285
 32
0.0
 13
8.330603
 23
2.386285
 33
0.0
  0
SOLID
  5
86E
330
402
100
AcDbEntity
  8
Dimensions
440
 16777216
100
AcDbTrace
 10
8.722603
 20
2.406285
 30
0.0
 11
8.722603
 21
2.366285
 31
0.0
 12
8.842603
 22
2.386285
 32
0.0
 13
8.842603
 23
2.386285
 33
0.0
  0
MTEXT
  5
86F
330
402
100
AcDbEntity
  8
Dimensions
440
 16777216
100
AcDbMText
 10
10.477315
 20
2.386285
 30
0.0
 40
0.12
 41
0.0
 46
0.0
 71
     5
 72
     1
  1
\A1;%%C.512in
 73
     1
 44
1.0
  0
POINT
  5
870
330
402
100
AcDbEntity
  8
Defpoints
 62
     0
440
 16777216
100
AcDbPoint
 10
8.330603
 20
1.961569
 30
0.0
  0
POINT
  5
871
330
402
100
AcDbEntity
  8
Defpoints
 62
     0
440
 16777216
100
AcDbPoint
 10
8.842603
 20
1.961569
 30
0.0
  0
POINT
  5
872
330
402
100
AcDbEntity
  8
Defpoints
 62
     0
440
 16777216
100
AcDbPoint
 10
8.842603
 20
2.386285
 30
0.0
  0
ENDBLK
  5
404
330
402
100
AcDbEntity
  8
0
100
AcDbBlockEnd
  0
BLOCK
  5
410
330
40F
100
AcDbEntity
  8
0
100
AcDbBlockBegin
  2
*D40
 70
     1
 10
0.0
 20
0.0
 30
0.0
  3
*D40
  1

  0
LINE
  5
873
330
40F
100
AcDbEntity
  8
Dimensions
440
 16777216
370
    -2
100
AcDbLine
 10
7.661406
 20
4.581137
 30
0.0
 11
7.661406
 21
5.688136
 31
0.0
  0
LINE
  5
874
330
40F
100
AcDbEntity
  8
Dimensions
440
 16777216
370
    -2
100
AcDbLine
 10
9.55117
 20
4.755294
 30
0.0
 11
9.55117
 21
5.688136
 31
0.0
  0
LINE
  5
875
330
40F
100
AcDbEntity
  8
Dimensions
440
 16777216
370
    -2
100
AcDbLine
 10
7.781406
 20
5.588136
 30
0.0
 11
8.332809
 21
5.588136
 31
0.0
  0
LINE
  5
876
330
40F
100
AcDbEntity
  8
Dimensions
440
 16777216
370
    -2
100
AcDbLine
 10
9.43117
 20
5.588136
 30
0.0
 11
8.879766
 21
5.588136
 31
0.0
  0
SOLID
  5
877
330
40F
100
AcDbEntity
  8
Dimensions
440
 16777216
100
AcDbTrace
 10
7.781406
 20
5.608136
 30
0.0
 11
7.781406
 21
5.568136
 31
0.0
 12
7.661406
 22
5.588136
 32
0.0
 13
7.661406
 23
5.588136
 33
0.0
  0
SOLID
  5
878
330
40F
100
AcDbEntity
  8
Dimensions
440
 16777216
100
AcDbTrace
 10
9.43117
 20
5.608136
 30
0.0
 11
9.43117
 21
5.568136
 31
0.0
 12
9.55117
 22
5.588136
 32
0.0
 13
9.55117
 23
5.588136
 33
0.0
  0
MTEXT
  5
879
330
40F
100
AcDbEntity
  8
Dimensions
440
 16777216
100
AcDbMText
 10
8.606288
 20
5.588136
 30
0.0
 40
0.12
 41
0.0
 46
0.0
 71
     5
 72
     1
  1
\A1;1.89in
 73
     1
 44
1.0
  0
POINT
  5
87A
330
40F
100
AcDbEntity
  8
Defpoints
 62
     0
440
 16777216
100
AcDbPoint
 10
7.661406
 20
4.531137
 30
0.0
  0
POINT
  5
87B
330
40F
100
AcDbEntity
  8
Defpoints
 62
     0
440
 16777216
100
AcDbPoint
 10
9.55117
 20
4.705294
 30
0.0
  0
POINT
  5
87C
330
40F
100
AcDbEntity
  8
Defpoints
 62
     0
440
 16777216
100
AcDbPoint
 10
9.55117
 20
5.588136
 30
0.0
  0
ENDBLK
  5
411
330
40F
100
AcDbEntity
  8
0
100
AcDbBlockEnd
  0
ENDSEC
  0
SECTION
  2
ENTITIES
  0
INSERT
  5
210
330
70
100
AcDbEntity
  8
Titleblock
100
AcDbBlockReference
 66
     1
  2
Shower
 10
16.38
 20
0.38
 30
0.0
  0
ATTRIB
  5
230
330
210
100
AcDbEntity
  8
Titleblock
  6
Continuous
370
    25
100
AcDbText
 10
12.6925
 20
2.6925
 30
0.0
 40
0.12
  1
Railing Products and Mock Ups
100
AcDbAttribute
280
     0
  2
PROJECT
 70
     0
280
     1
1001
FD_ATT_APPNAME
1005
21E
  0
ATTRIB
  5
231
330
210
100
AcDbEntity
  8
Titleblock
  6
Continuous
370
    25
100
AcDbText
 10
14.6925
 20
1.0675
 30
0.0
 40
0.12
  1
8/14/2019
100
AcDbAttribute
280
     0
  2
DRAWN_DATE
 70
     0
280
     1
1001
FD_ATT_APPNAME
1005
220
  0
ATTRIB
  5
232
330
210
100
AcDbEntity
  8
Titleblock
  6
Continuous
370
    25
100
AcDbText
 10
12.0675
 20
2.1925
 30
0.0
 40
0.3048
  1
A42-PL68MF20CB 240in
 41
0.897224
100
AcDbAttribute
280
     0
  2
TITLE_1
 70
     0
280
     1
1001
FD_ATT_APPNAME
1005
221
1001
FUSIONTITLEBLOCKATTRIBUTEOVERRIDE
1070
     1
  0
ATTRIB
  5
233
330
210
100
AcDbEntity
  8
Titleblock
  6
Continuous
370
    25
100
AcDbText
 10
14.6925
 20
1.29994
 30
0.0
 40
0.12
  1
1:8
100
AcDbAttribute
280
     0
  2
SCALE
 70
     0
280
     1
1001
FD_ATT_APPNAME
1005
222
  0
SEQEND
  5
234
330
210
100
AcDbEntity
  8
Titleblock
  0
INSERT
  5
235
330
70
100
AcDbEntity
  8
Border
100
AcDbBlockReference
  2
ANSI_B_SHEET
 10
0.0
 20
0.0
 30
0.0
  0
DIMENSION
  5
256
330
70
100
AcDbEntity
  8
Dimensions
100
AcDbDimension
280
     0
  2
*D24
 10
14.5
 20
10.050769
 30
0.0
 11
8.5
 21
10.050769
 31
0.0
 70
   161
 71
     5
 42
240.0
 73
     0
 74
     0
 75
     0
  3
Standard
100
AcDbAlignedDimension
 13
2.5
 23
9.647848
 33
0.0
 14
14.5
 24
9.647848
 34
0.0
1001
ACAD_DIMASSOC_CALC_DIMLFAC
1040
-20.0
1001
ACAD_DIMASSOC_DIMLFAC
1040
-20.0
1001
ACAD_DIMASSOC_OVERRIDDEN_DIMLFAC
1040
0.0
1001
ACAD_DSTYLE_DIMJAG_POSITION
1070
   387
1070
     0
1070
   389
1010
0.0
1020
0.0
1030
0.0
1001
ACAD
1000
DSTYLE
1002
{
1070
   144
1040
20.0
1002
}
  0
MTEXT
  5
265
102
{ACAD_XDICTIONARY
360
266
102
}
330
70
100
AcDbEntity
  8
Annotations
100
AcDbMText
 10
8.521416
 20
6.521
 30
0.0
 40
0.12
 41
0.874461
 46
0.384093
 71
     2
 72
     5
  1
DETAIL A\PSCALE 1:8
 73
     1
 44
1.0
  0
DIMENSION
  5
26D
330
70
100
AcDbEntity
  8
Dimensions
100
AcDbDimension
280
     0
  2
*D25
 10
5.969647
 20
6.925299
 30
0.0
 11
8.469647
 21
6.925299
 31
0.0
 70
   160
 71
     5
 42
40.0
 73
     0
 74
     0
 75
     0
  3
Standard
100
AcDbAlignedDimension
 13
10.969647
 23
8.281945
 33
0.0
 14
5.969647
 24
8.279485
 34
0.0
100
AcDbRotatedDimension
1001
ACAD_DIMASSOC_OVERRIDDEN_DIMLFAC
1040
0.0
1001
ACAD_DIMASSOC_CALC_DIMLFAC
1040
-8.0
1001
ACAD_DIMASSOC_DIMLFAC
1040
-8.0
1001
ACAD_DSTYLE_DIMJAG_POSITION
1070
   387
1070
     0
1070
   389
1010
0.0
1020
0.0
1030
0.0
1001
ACAD
1000
DSTYLE
1002
{
1070
   144
1040
8.0
1002
}
  0
DIMENSION
  5
27B
330
70
100
AcDbEntity
  8
Dimensions
100
AcDbDimension
280
     0
  2
*D26
 10
9.928335
 20
3.733223
 30
0.0
 11
8.195151
 21
3.958701
 31
0.0
 70
   164
 71
     5
 42
2.392913
 73
     0
 74
     0
 75
     0
  3
Standard
100
AcDbRadialDimension
 15
7.555417
 25
4.041927
 35
0.0
 40
0.0
1001
ACAD_DIMASSOC_CALC_DIMLFAC
1040
-1.0
1001
ACAD_DIMASSOC_DIMLFAC
1040
-1.0
1001
ACAD_DIMASSOC_OVERRIDDEN_DIMLFAC
1040
0.0
1001
ACAD_DSTYLE_DIMJAG_POSITION
1070
   387
1070
     0
1070
   389
1010
0.0
1020
0.0
1030
0.0
1001
ACAD_DSTYLE_DIMRADIAL_EXTENSION
1070
   387
1070
     1
1070
   388
1040
2.828394
1070
   390
1040
3.454791
1001
ACAD
1000
DSTYLE
1002
{
1070
    75
1070
     1
1070
   144
1040
1.0
1070
   288
1070
     1
1002
}
  0
DIMENSION
  5
284
330
70
100
AcDbEntity
  8
Dimensions
100
AcDbDimension
280
     0
  2
*D27
 10
5.252796
 20
1.331648
 30
0.0
 11
5.252796
 21
3.270914
 31
0.0
 70
   160
 71
     5
 42
3.878532
 73
     0
 74
     0
 75
     0
  3
Standard
100
AcDbAlignedDimension
 13
7.328987
 23
5.21018
 33
0.0
 14
7.188965
 24
1.331648
 34
0.0
 50
90.0
100
AcDbRotatedDimension
1001
ACAD_DIMASSOC_CALC_DIMLFAC
1040
-1.0
1001
ACAD_DIMASSOC_DIMLFAC
1040
-1.0
1001
ACAD_DIMASSOC_OVERRIDDEN_DIMLFAC
1040
0.0
1001
ACAD_DSTYLE_DIMJAG_POSITION
1070
   387
1070
     0
1070
   389
1010
0.0
1020
0.0
1030
0.0
1001
ACAD
1000
DSTYLE
1002
{
1070
   144
1040
1.0
1002
}
  0
DIMENSION
  5
292
330
70
100
AcDbEntity
  8
Dimensions
100
AcDbDimension
280
     0
  2
*D28
 10
10.003925
 20
0.833108
 30
0.0
 11
8.586603
 21
0.833108
 31
0.0
 70
    32
 71
     5
 42
2.834646
 73
     0
 74
     0
 75
     0
  3
Standard
100
AcDbAlignedDimension
 13
7.16928
 23
1.351333
 33
0.0
 14
10.003925
 24
1.351333
 34
0.0
100
AcDbRotatedDimension
1001
ACAD_DIMASSOC_CALC_DIMLFAC
1040
-1.0
1001
ACAD_DIMASSOC_DIMLFAC
1040
-1.0
1001
ACAD_DIMASSOC_OVERRIDDEN_DIMLFAC
1040
0.0
1001
ACAD_DSTYLE_DIMJAG_POSITION
1070
   387
1070
     0
1070
   389
1010
0.0
1020
0.0
1030
0.0
1001
ACAD
1000
DSTYLE
1002
{
1070
   177
1070
   256
1070
   176
1070
   256
1070
   144
1040
1.0
1002
}
  0
DIMENSION
  5
2A0
330
70
100
AcDbEntity
  8
Dimensions
100
AcDbDimension
280
     0
  2
*D29
 10
7.996103
 20
3.039269
 30
0.0
 11
8.586603
 21
3.039269
 31
0.0
 70
   160
  1
%%C<>
 71
     5
 42
1.181
 73
     0
 74
     0
 75
     0
  3
Standard
100
AcDbAlignedDimension
 13
9.177103
 23
1.764569
 33
0.0
 14
7.996103
 24
1.764569
 34
0.0
100
AcDbRotatedDimension
1001
ACAD_DIMASSOC_CALC_DIMLFAC
1040
-1.0
1001
ACAD_DIMASSOC_DIMLFAC
1040
-1.0
1001
ACAD_DIMASSOC_OVERRIDDEN_DIMLFAC
1040
0.0
1001
ACAD_DSTYLE_DIMJAG_POSITION
1070
   387
1070
     0
1070
   389
1010
0.0
1020
0.0
1030
0.0
1001
ACAD
1000
DSTYLE
1002
{
1070
   144
1040
1.0
1002
}
  0
DIMENSION
  5
2AE
330
70
100
AcDbEntity
  8
Dimensions
100
AcDbDimension
280
     0
  2
*D30
 10
6.882275
 20
1.567869
 30
0.0
 11
6.487282
 21
1.197073
 31
0.0
 70
   161
 71
     5
 42
0.196701
 73
     0
 74
     0
 75
     0
  3
Standard
100
AcDbAlignedDimension
 13
8.252103
 23
1.764569
 33
0.0
 14
8.252103
 24
1.567869
 34
0.0
1001
ACAD_DIMASSOC_CALC_DIMLFAC
1040
-1.0
1001
ACAD_DIMASSOC_DIMLFAC
1040
-1.0
1001
ACAD_DIMASSOC_OVERRIDDEN_DIMLFAC
1040
0.0
1001
ACAD_DSTYLE_DIMJAG_POSITION
1070
   387
1070
     0
1070
   389
1010
0.0
1020
0.0
1030
0.0
1001
ACAD
1000
DSTYLE
1002
{
1070
   144
1040
1.0
1002
}
  0
DIMENSION
  5
2BD
330
70
100
AcDbEntity
  8
Dimensions
100
AcDbDimension
280
     0
  2
*D31
 10
5.698781
 20
1.331648
 30
0.0
 11
5.698781
 21
1.646609
 31
0.0
 70
   160
 71
     5
 42
0.629921
 73
     0
 74
     0
 75
     0
  3
Standard
100
AcDbAlignedDimension
 13
8.055106
 23
1.961569
 33
0.0
 14
7.650259
 24
1.331648
 34
0.0
 50
90.0
100
AcDbRotatedDimension
1001
ACAD_DIMASSOC_CALC_DIMLFAC
1040
-1.0
1001
ACAD_DIMASSOC_DIMLFAC
1040
-1.0
1001
ACAD_DIMASSOC_OVERRIDDEN_DIMLFAC
1040
0.0
1001
ACAD_DSTYLE_DIMJAG_POSITION
1070
   387
1070
     0
1070
   389
1010
0.0
1020
0.0
1030
0.0
1001
ACAD
1000
DSTYLE
1002
{
1070
   144
1040
1.0
1002
}
  0
MTEXT
  5
2CB
330
70
100
AcDbEntity
  8
Annotations
100
AcDbMText
 10
6.221833
 20
2.273872
 30
0.0
 40
0.12
 41
0.632711
 46
0.0
 71
     1
 72
     5
  1
(%%P0.0157)
 73
     1
 44
1.0
1001
ACAD
1000
ACAD_MTEXT_COLUMN_INFO_BEGIN
1070
    75
1070
     2
1070
    79
1070
     0
1070
    76
1070
     1
1070
    78
1070
     0
1070
    48
1040
0.632711
1070
    49
1040
0.6
1070
    50
1070
     1
1040
0.0
1000
ACAD_MTEXT_COLUMN_INFO_END
  0
MTEXT
  5
2CC
330
70
100
AcDbEntity
  8
Annotations
100
AcDbMText
 10
6.133054
 20
1.060994
 30
0.0
 40
0.12
 41
0.682926
 46
0.0
 71
     1
 72
     5
  1
(%%P0.0157)
 73
     1
 44
1.0
1001
ACAD
1000
ACAD_MTEXT_COLUMN_INFO_BEGIN
1070
    75
1070
     2
1070
    79
1070
     0
1070
    76
1070
     1
1070
    78
1070
     0
1070
    48
1040
0.682926
1070
    49
1040
0.6
1070
    50
1070
     1
1040
0.0
1000
ACAD_MTEXT_COLUMN_INFO_END
  0
MTEXT
  5
2CD
102
{ACAD_XDICTIONARY
360
2CE
102
}
330
70
100
AcDbEntity
  8
Annotations
100
AcDbMText
 10
0.968545
 20
1.921201
 30
0.0
 40
0.2
 41
4.22976
 46
0.0
 71
     1
 72
     5
  1
\pi-0.6,l0.6,t0.6;{\fSymbol|b0|i0|c2|p18;·^I}(20) Ø1.181" straight holes\P{\fSymbol|b0|i0|c2|p18;·^I}(20) Ø.669" straight holes\P{\fSymbol|b0|i0|c2|p18;·^I}(5) Ø.512" straight holes
 73
     1
 44
1.0
1001
ACAD
1000
ACAD_MTEXT_COLUMN_INFO_BEGIN
1070
    75
1070
     2
1070
    79
1070
     0
1070
    76
1070
     1
1070
    78
1070
     0
1070
    48
1040
4.22976
1070
    49
1040
0.6
1070
    50
1070
     1
1040
0.0
1000
ACAD_MTEXT_COLUMN_INFO_END
  0
DIMENSION
  5
2CF
330
70
100
AcDbEntity
  8
Dimensions
100
AcDbDimension
280
     0
  2
*D32
 10
8.921103
 20
2.633818
 30
0.0
 11
10.477315
 21
2.633818
 31
0.0
 70
   161
  1
%%C<>
 71
     5
 42
0.669
 73
     0
 74
     0
 75
     0
  3
Standard
100
AcDbAlignedDimension
 13
8.252103
 23
1.764569
 33
0.0
 14
8.921103
 24
1.764569
 34
0.0
1001
ACAD_DIMASSOC_CALC_DIMLFAC
1040
-1.0
1001
ACAD_DIMASSOC_DIMLFAC
1040
-1.0
1001
ACAD_DIMASSOC_OVERRIDDEN_DIMLFAC
1040
0.0
1001
ACAD
1000
DSTYLE
1002
{
1070
   144
1040
1.0
1002
}
  0
DIMENSION
  5
2DD
330
70
100
AcDbEntity
  8
Dimensions
100
AcDbDimension
280
     0
  2
*D33
 10
6.099096
 20
1.764569
 30
0.0
 11
6.494089
 21
2.409951
 31
0.0
 70
   160
 71
     5
 42
0.197
 73
     0
 74
     0
 75
     0
  3
Standard
100
AcDbAlignedDimension
 13
8.330603
 23
1.961569
 33
0.0
 14
8.252103
 24
1.764569
 34
0.0
 50
90.0
100
AcDbRotatedDimension
1001
ACAD_DIMASSOC_CALC_DIMLFAC
1040
-1.0
1001
ACAD_DIMASSOC_DIMLFAC
1040
-1.0
1001
ACAD_DIMASSOC_OVERRIDDEN_DIMLFAC
1040
0.0
1001
ACAD_DSTYLE_DIMJAG_POSITION
1070
   387
1070
     0
1070
   389
1010
0.0
1020
0.0
1030
0.0
1001
ACAD
1000
DSTYLE
1002
{
1070
   144
1040
1.0
1002
}
  0
DIMENSION
  5
2EC
330
70
100
AcDbEntity
  8
Dimensions
100
AcDbDimension
280
     0
  2
*D34
 10
6.721913
 20
7.591374
 30
0.0
 11
6.34743
 21
7.590146
 31
0.0
 70
   161
 71
     5
 42
6.000032
 73
     0
 74
     0
 75
     0
  3
Standard
100
AcDbAlignedDimension
 13
5.969647
 23
8.279485
 33
0.0
 14
6.719647
 24
8.281945
 34
0.0
1001
ACAD_DIMASSOC_OVERRIDDEN_DIMLFAC
1040
0.0
1001
ACAD_DIMASSOC_CALC_DIMLFAC
1040
-8.0
1001
ACAD_DIMASSOC_DIMLFAC
1040
-8.0
1001
ACAD_DSTYLE_DIMJAG_POSITION
1070
   387
1070
     0
1070
   389
1010
0.0
1020
0.0
1030
0.0
1001
ACAD
1000
DSTYLE
1002
{
1070
   144
1040
8.0
1002
}
  0
DIMENSION
  5
2FA
330
70
100
AcDbEntity
  8
Dimensions
100
AcDbDimension
280
     0
  2
*D35
 10
8.219647
 20
7.263712
 30
0.0
 11
7.469647
 21
7.263712
 31
0.0
 70
    33
 71
     5
 42
12.0
 73
     0
 74
     0
 75
     0
  3
Standard
100
AcDbAlignedDimension
 13
6.719647
 23
8.281945
 33
0.0
 14
8.219647
 24
8.281945
 34
0.0
1001
ACAD_DIMASSOC_OVERRIDDEN_DIMLFAC
1040
0.0
1001
ACAD_DIMASSOC_CALC_DIMLFAC
1040
-8.0
1001
ACAD_DIMASSOC_DIMLFAC
1040
-8.0
1001
ACAD_DSTYLE_DIMJAG_POSITION
1070
   387
1070
     0
1070
   389
1010
0.0
1020
0.0
1030
0.0
1001
ACAD
1000
DSTYLE
1002
{
1070
   177
1070
   256
1070
   176
1070
   256
1070
   144
1040
8.0
1002
}
  0
DIMENSION
  5
308
330
70
100
AcDbEntity
  8
Dimensions
100
AcDbDimension
280
     0
  2
*D36
 10
6.675143
 20
8.223059
 30
0.0
 11
7.814161
 21
9.054
 31
0.0
 70
   163
 71
     5
 42
1.181
 73
     0
 74
     0
 75
     0
  3
Standard
100
AcDbDiametricDimension
 15
6.764151
 25
8.340832
 35
0.0
 40
0.0
1001
ACAD_DIMASSOC_OVERRIDDEN_DIMLFAC
1040
0.0
1001
ACAD_DIMASSOC_CALC_DIMLFAC
1040
-8.0
1001
ACAD_DIMASSOC_DIMLFAC
1040
-8.0
1001
ACAD_DSTYLE_DIMJAG_POSITION
1070
   387
1070
     0
1070
   389
1010
0.0
1020
0.0
1030
0.0
1001
ACAD_DSTYLE_DIMRADIAL_EXTENSION
1070
   387
1070
     1
1070
   388
1040
0.0
1070
   390
1040
0.0
1001
ACAD
1000
DSTYLE
1002
{
1070
   144
1040
8.0
1070
   288
1070
     1
1002
}
  0
DIMENSION
  5
312
330
70
100
AcDbEntity
  8
Dimensions
100
AcDbDimension
280
     0
  2
*D37
 10
6.685345
 20
8.258036
 30
0.0
 11
7.940341
 21
8.809096
 31
0.0
 70
   163
 71
     5
 42
0.669
 73
     0
 74
     0
 75
     0
  3
Standard
100
AcDbDiametricDimension
 15
6.753949
 25
8.305855
 35
0.0
 40
0.0
1001
ACAD_DIMASSOC_OVERRIDDEN_DIMLFAC
1040
0.0
1001
ACAD_DIMASSOC_CALC_DIMLFAC
1040
-8.0
1001
ACAD_DIMASSOC_DIMLFAC
1040
-8.0
1001
ACAD_DSTYLE_DIMJAG_POSITION
1070
   387
1070
     0
1070
   389
1010
0.0
1020
0.0
1030
0.0
1001
ACAD_DSTYLE_DIMRADIAL_EXTENSION
1070
   387
1070
     1
1070
   388
1040
0.0
1070
   390
1040
0.0
1001
ACAD
1000
DSTYLE
1002
{
1070
   144
1040
8.0
1070
   288
1070
     1
1002
}
  0
DIMENSION
  5
31C
330
70
100
AcDbEntity
  8
Dimensions
100
AcDbDimension
280
     0
  2
*D38
 10
10.979302
 20
8.251437
 30
0.0
 11
10.231755
 21
9.146159
 31
0.0
 70
   163
 71
     5
 42
0.512
 73
     0
 74
     0
 75
     0
  3
Standard
100
AcDbDiametricDimension
 15
10.959992
 25
8.312454
 35
0.0
 40
0.0
1001
ACAD_DIMASSOC_OVERRIDDEN_DIMLFAC
1040
0.0
1001
ACAD_DIMASSOC_CALC_DIMLFAC
1040
-8.0
1001
ACAD_DIMASSOC_DIMLFAC
1040
-8.0
1001
ACAD_DSTYLE_DIMJAG_POSITION
1070
   387
1070
     0
1070
   389
1010
0.0
1020
0.0
1030
0.0
1001
ACAD_DSTYLE_DIMRADIAL_EXTENSION
1070
   387
1070
     1
1070
   388
1040
0.0
1070
   390
1040
0.0
1001
ACAD
1000
DSTYLE
1002
{
1070
   144
1040
8.0
1070
   288
1070
     1
1002
}
  0
DIMENSION
  5
326
330
70
100
AcDbEntity
  8
Dimensions
100
AcDbDimension
280
     0
  2
*D39
 10
8.842603
 20
2.386285
 30
0.0
 11
10.477315
 21
2.386285
 31
0.0
 70
   161
  1
%%C<>
 71
     5
 42
0.512
 73
     0
 74
     0
 75
     0
  3
Standard
100
AcDbAlignedDimension
 13
8.330603
 23
1.961569
 33
0.0
 14
8.842603
 24
1.961569
 34
0.0
1001
ACAD_DIMASSOC_CALC_DIMLFAC
1040
-1.0
1001
ACAD_DIMASSOC_DIMLFAC
1040
-1.0
1001
ACAD_DIMASSOC_OVERRIDDEN_DIMLFAC
1040
0.0
1001
ACAD_DSTYLE_DIMJAG_POSITION
1070
   387
1070
     0
1070
   389
1010
0.0
1020
0.0
1030
0.0
1001
ACAD
1000
DSTYLE
1002
{
1070
   144
1040
1.0
1002
}
  0
DIMENSION
  5
334
330
70
100
AcDbEntity
  8
Dimensions
100
AcDbDimension
280
     0
  2
*D40
 10
9.55117
 20
5.588136
 30
0.0
 11
8.606288
 21
5.588136
 31
0.0
 70
    32
 71
     5
 42
1.889764
 73
     0
 74
     0
 75
     0
  3
Standard
100
AcDbAlignedDimension
 13
7.661406
 23
4.531137
 33
0.0
 14
9.55117
 24
4.705294
 34
0.0
100
AcDbRotatedDimension
1001
ACAD_DIMASSOC_CALC_DIMLFAC
1040
-1.0
1001
ACAD_DIMASSOC_DIMLFAC
1040
-1.0
1001
ACAD_DIMASSOC_OVERRIDDEN_DIMLFAC
1040
0.0
1001
ACAD_DSTYLE_DIMJAG_POSITION
1070
   387
1070
     0
1070
   389
1010
0.0
1020
0.0
1030
0.0
1001
ACAD
1000
DSTYLE
1002
{
1070
   144
1040
1.0
1070
   176
1070
   256
1070
   177
1070
   256
1002
}
  0
MTEXT
  5
342
330
70
100
AcDbEntity
  8
Annotations
100
AcDbMText
 10
2.253729
 20
3.529567
 30
0.0
 40
0.12
 41
2.778964
 46
0.0
 71
     1
 72
     5
  1
With Snap On Gasket Extrusions In Place, Shoe Height will be 4-1/8"
 73
     1
 44
1.0
1001
ACAD
1000
ACAD_MTEXT_COLUMN_INFO_BEGIN
1070
    75
1070
     2
1070
    79
1070
     0
1070
    76
1070
     1
1070
    78
1070
     0
1070
    48
1040
2.778964
1070
    49
1040
0.6
1070
    50
1070
     1
1040
0.0
1000
ACAD_MTEXT_COLUMN_INFO_END
  0
ARC
  5
5EE
330
70
100
AcDbEntity
  8
Visible
100
AcDbCircle
 10
9.629482
 20
0.090074
 30
2.5
 40
0.0009842519685039
210
1.0
220
0.0000000000000002
230
0.0
100
AcDbArc
 50
210.0
 51
270.0
  0
ARC
  5
5EF
330
70
100
AcDbEntity
  8
Visible
100
AcDbCircle
 10
-9.623799
 20
0.095979
 30
-2.5
 40
0.0009842519685039
210
-1.0
220
-0.0000000000000002
230
0.0
100
AcDbArc
 50
90.0
 51
150.0
  0
ARC
  5
5F0
330
70
100
AcDbEntity
  8
Visible
100
AcDbCircle
 10
-9.609682
 20
0.087625
 30
-2.5
 40
0.0009842519685039
210
-1.0
220
-0.0000000000000002
230
0.0
100
AcDbArc
 50
105.0
 51
180.0
  0
ARC
  5
5F1
330
70
100
AcDbEntity
  8
Visible
100
AcDbCircle
 10
-9.608191
 20
0.087006
 30
-2.5
 40
0.0019685039370079
210
-1.0
220
-0.0000000000000002
230
0.0
100
AcDbArc
 50
45.0
 51
105.0
  0
ARC
  5
5F2
330
70
100
AcDbEntity
  8
Visible
100
AcDbCircle
 10
9.602738
 20
0.087121
 30
2.5
 40
0.0019685039370079
210
1.0
220
0.0000000000000002
230
0.0
100
AcDbArc
 50
270.0
 51
315.0
  0
ARC
  5
5F3
330
70
100
AcDbEntity
  8
Visible
100
AcDbCircle
 10
9.551226
 20
0.087121
 30
2.5
 40
0.0019685039370079
210
1.0
220
0.0000000000000002
230
0.0
100
AcDbArc
 50
225.0
 51
270.0
  0
ARC
  5
5F4
330
70
100
AcDbEntity
  8
Visible
100
AcDbCircle
 10
-9.545773
 20
0.087006
 30
-2.5
 40
0.0019685039370079
210
-1.0
220
-0.0000000000000002
230
0.0
100
AcDbArc
 50
75.0
 51
135.0
  0
ARC
  5
5F5
330
70
100
AcDbEntity
  8
Visible
100
AcDbCircle
 10
-9.539951
 20
0.095979
 30
-2.5
 40
0.0009842519685039
210
-1.0
220
-0.0000000000000002
230
0.0
100
AcDbArc
 50
90.0
 51
180.0
  0
ARC
  5
5F6
330
70
100
AcDbEntity
  8
Visible
100
AcDbCircle
 10
-9.530165
 20
0.095979
 30
-2.5
 40
0.0009842519685039
210
-1.0
220
-0.0000000000000002
230
0.0
100
AcDbArc
 50
30.0
 51
90.0
  0
ARC
  5
5F7
330
70
100
AcDbEntity
  8
Visible
100
AcDbCircle
 10
9.524482
 20
0.090074
 30
2.5
 40
0.0009842519685039
210
1.0
220
0.0000000000000002
230
0.0
100
AcDbArc
 50
270.0
 51
330.0
  0
ARC
  5
5F8
330
70
100
AcDbEntity
  8
Visible
100
AcDbCircle
 10
-9.5188
 20
0.095979
 30
-2.5
 40
0.0009842519685039
210
-1.0
220
-0.0000000000000002
230
0.0
100
AcDbArc
 50
90.0
 51
180.0
  0
ARC
  5
5F9
330
70
100
AcDbEntity
  8
Visible
100
AcDbCircle
 10
-9.5071
 20
0.095979
 30
-2.5
 40
0.0009842519685039
210
-1.0
220
-0.0000000000000002
230
0.0
100
AcDbArc
 50
0.0
 51
90.0
  0
ARC
  5
5FA
330
70
100
AcDbEntity
  8
Visible
100
AcDbCircle
 10
-9.646864
 20
0.095979
 30
-2.5
 40
0.0009842519685039
210
-1.0
220
-0.0000000000000002
230
0.0
100
AcDbArc
 50
90.0
 51
180.0
  0
ARC
  5
5FB
330
70
100
AcDbEntity
  8
Visible
100
AcDbCircle
 10
9.538596
 20
0.087121
 30
2.5
 40
0.0047244094488189
210
1.0
220
0.0000000000000002
230
0.0
100
AcDbArc
 50
299.673412
 51
354.424475
  0
ARC
  5
5FC
330
70
100
AcDbEntity
  8
Visible
100
AcDbCircle
 10
-9.544283
 20
0.087625
 30
-2.5
 40
0.0009842519685039
210
-1.0
220
-0.0000000000000002
230
0.0
100
AcDbArc
 50
0.0
 51
75.0
  0
ARC
  5
5FD
330
70
100
AcDbEntity
  8
Visible
100
AcDbCircle
 10
9.615368
 20
0.087121
 30
2.5
 40
0.0047244094488189
210
1.0
220
0.0000000000000002
230
0.0
100
AcDbArc
 50
185.575525
 51
240.326588
  0
ARC
  5
5FE
330
70
100
AcDbEntity
  8
Visible
100
AcDbCircle
 10
-9.614013
 20
0.095979
 30
-2.5
 40
0.0009842519685039
210
-1.0
220
-0.0000000000000002
230
0.0
100
AcDbArc
 50
0.0
 51
90.0
  0
ARC
  5
5FF
330
70
100
AcDbEntity
  8
Visible
100
AcDbCircle
 10
-9.635165
 20
0.095979
 30
-2.5
 40
0.000984251968504
210
-1.0
220
-0.0000000000000002
230
0.0
100
AcDbArc
 50
0.0
 51
90.0
  0
ARC
  5
600
330
70
100
AcDbEntity
  8
Visible
100
AcDbCircle
 10
9.5071
 20
0.095979
 30
14.5
 40
0.0009842519685039
210
1.0
220
0.0000000000000002
230
0.0
100
AcDbArc
 50
90.0
 51
180.0
  0
ARC
  5
601
330
70
100
AcDbEntity
  8
Visible
100
AcDbCircle
 10
9.5188
 20
0.095979
 30
14.5
 40
0.000984251968504
210
1.0
220
0.0000000000000002
230
0.0
100
AcDbArc
 50
0.0
 51
90.0
  0
ARC
  5
602
330
70
100
AcDbEntity
  8
Visible
100
AcDbCircle
 10
-9.524482
 20
0.090074
 30
-14.5
 40
0.0009842519685039
210
-1.0
220
-0.0000000000000002
230
0.0
100
AcDbArc
 50
210.0
 51
270.0
  0
ARC
  5
603
330
70
100
AcDbEntity
  8
Visible
100
AcDbCircle
 10
9.530165
 20
0.095979
 30
14.5
 40
0.0009842519685039
210
1.0
220
0.0000000000000002
230
0.0
100
AcDbArc
 50
90.0
 51
150.0
  0
ARC
  5
604
330
70
100
AcDbEntity
  8
Visible
100
AcDbCircle
 10
9.539951
 20
0.095979
 30
14.5
 40
0.0009842519685039
210
1.0
220
0.0000000000000002
230
0.0
100
AcDbArc
 50
0.0
 51
90.0
  0
ARC
  5
605
330
70
100
AcDbEntity
  8
Visible
100
AcDbCircle
 10
-9.538596
 20
0.087121
 30
-14.5
 40
0.0047244094488189
210
-1.0
220
-0.0000000000000002
230
0.0
100
AcDbArc
 50
185.575525
 51
240.326588
  0
ARC
  5
606
330
70
100
AcDbEntity
  8
Visible
100
AcDbCircle
 10
9.544283
 20
0.087625
 30
14.5
 40
0.0009842519685039
210
1.0
220
0.0000000000000002
230
0.0
100
AcDbArc
 50
105.0
 51
180.0
  0
ARC
  5
607
330
70
100
AcDbEntity
  8
Visible
100
AcDbCircle
 10
9.545773
 20
0.087006
 30
14.5
 40
0.0019685039370079
210
1.0
220
0.0000000000000002
230
0.0
100
AcDbArc
 50
45.0
 51
105.0
  0
ARC
  5
608
330
70
100
AcDbEntity
  8
Visible
100
AcDbCircle
 10
-9.551226
 20
0.087121
 30
-14.5
 40
0.0019685039370079
210
-1.0
220
-0.0000000000000002
230
0.0
100
AcDbArc
 50
270.0
 51
315.0
  0
ARC
  5
609
330
70
100
AcDbEntity
  8
Visible
100
AcDbCircle
 10
-9.602738
 20
0.087121
 30
-14.5
 40
0.0019685039370079
210
-1.0
220
-0.0000000000000002
230
0.0
100
AcDbArc
 50
225.0
 51
270.0
  0
ARC
  5
60A
330
70
100
AcDbEntity
  8
Visible
100
AcDbCircle
 10
9.608191
 20
0.087006
 30
14.5
 40
0.0019685039370079
210
1.0
220
0.0000000000000002
230
0.0
100
AcDbArc
 50
75.0
 51
135.0
  0
ARC
  5
60B
330
70
100
AcDbEntity
  8
Visible
100
AcDbCircle
 10
9.609682
 20
0.087625
 30
14.5
 40
0.0009842519685039
210
1.0
220
0.0000000000000002
230
0.0
100
AcDbArc
 50
0.0
 51
75.0
  0
ARC
  5
60C
330
70
100
AcDbEntity
  8
Visible
100
AcDbCircle
 10
-9.615368
 20
0.087121
 30
-14.5
 40
0.0047244094488189
210
-1.0
220
-0.0000000000000002
230
0.0
100
AcDbArc
 50
299.673412
 51
354.424475
  0
ARC
  5
60D
330
70
100
AcDbEntity
  8
Visible
100
AcDbCircle
 10
9.614013
 20
0.095979
 30
14.5
 40
0.0009842519685039
210
1.0
220
0.0000000000000002
230
0.0
100
AcDbArc
 50
90.0
 51
180.0
  0
ARC
  5
60E
330
70
100
AcDbEntity
  8
Visible
100
AcDbCircle
 10
9.623799
 20
0.095979
 30
14.5
 40
0.0009842519685039
210
1.0
220
0.0000000000000002
230
0.0
100
AcDbArc
 50
30.0
 51
90.0
  0
ARC
  5
60F
330
70
100
AcDbEntity
  8
Visible
100
AcDbCircle
 10
-9.629482
 20
0.090074
 30
-14.5
 40
0.0009842519685039
210
-1.0
220
-0.0000000000000002
230
0.0
100
AcDbArc
 50
270.0
 51
330.0
  0
ARC
  5
610
330
70
100
AcDbEntity
  8
Visible
100
AcDbCircle
 10
9.635165
 20
0.095979
 30
14.5
 40
0.0009842519685039
210
1.0
220
0.0000000000000002
230
0.0
100
AcDbArc
 50
90.0
 51
180.0
  0
ARC
  5
611
330
70
100
AcDbEntity
  8
Visible
100
AcDbCircle
 10
9.646864
 20
0.095979
 30
14.5
 40
0.000984251968504
210
1.0
220
0.0000000000000002
230
0.0
100
AcDbArc
 50
0.0
 51
90.0
  0
LINE
  5
612
330
70
100
AcDbEntity
  8
Visible
100
AcDbLine
 10
14.5
 20
9.602738
 30
0.085152
 11
14.5
 21
9.551226
 31
0.085152
210
-1.0
220
-0.0000000000000002
230
0.0
  0
LINE
  5
613
330
70
100
AcDbEntity
  8
Visible
100
AcDbLine
 10
2.5
 20
9.551226
 30
0.085152
 11
2.5
 21
9.602738
 31
0.085152
210
-1.0
220
-0.0000000000000002
230
0.0
  0
CIRCLE
  5
614
330
70
100
AcDbEntity
  8
Visible
100
AcDbCircle
 10
12.5
 20
9.576982
 30
0.085152
 40
0.0128
  0
CIRCLE
  5
615
330
70
100
AcDbEntity
  8
Visible
100
AcDbCircle
 10
10.5
 20
9.576982
 30
0.085152
 40
0.0128
  0
CIRCLE
  5
616
330
70
100
AcDbEntity
  8
Visible
100
AcDbCircle
 10
6.5
 20
9.576982
 30
0.085152
 40
0.0128
  0
CIRCLE
  5
617
330
70
100
AcDbEntity
  8
Visible
100
AcDbCircle
 10
-4.5
 20
9.576982
 30
-0.085152
 40
0.0128
210
0.0
220
0.0000000000000001
230
-1.0
  0
CIRCLE
  5
618
330
70
100
AcDbEntity
  8
Visible
100
AcDbCircle
 10
13.6
 20
9.576982
 30
0.085152
 40
0.016725
  0
CIRCLE
  5
619
330
70
100
AcDbEntity
  8
Visible
100
AcDbCircle
 10
12.4
 20
9.576982
 30
0.085152
 40
0.016725
  0
CIRCLE
  5
61A
330
70
100
AcDbEntity
  8
Visible
100
AcDbCircle
 10
11.2
 20
9.576982
 30
0.085152
 40
0.016725
  0
CIRCLE
  5
61B
330
70
100
AcDbEntity
  8
Visible
100
AcDbCircle
 10
10.0
 20
9.576982
 30
0.085152
 40
0.016725
  0
CIRCLE
  5
61C
330
70
100
AcDbEntity
  8
Visible
100
AcDbCircle
 10
8.8
 20
9.576982
 30
0.085152
 40
0.016725
  0
CIRCLE
  5
61D
330
70
100
AcDbEntity
  8
Visible
100
AcDbCircle
 10
7.6
 20
9.576982
 30
0.085152
 40
0.016725
  0
CIRCLE
  5
61E
330
70
100
AcDbEntity
  8
Visible
100
AcDbCircle
 10
6.4
 20
9.576982
 30
0.085152
 40
0.016725
  0
CIRCLE
  5
61F
330
70
100
AcDbEntity
  8
Visible
100
AcDbCircle
 10
5.2
 20
9.576982
 30
0.085152
 40
0.016725
  0
CIRCLE
  5
620
330
70
100
AcDbEntity
  8
Visible
100
AcDbCircle
 10
4.0
 20
9.576982
 30
0.085152
 40
0.016725
  0
CIRCLE
  5
621
330
70
100
AcDbEntity
  8
Visible
100
AcDbCircle
 10
-2.8
 20
9.576982
 30
-0.085152
 40
0.016725
210
0.0
220
0.0000000000000001
230
-1.0
  0
CIRCLE
  5
622
330
70
100
AcDbEntity
  8
Visible
100
AcDbCircle
 10
3.4
 20
9.576982
 30
0.085152
 40
0.016725
  0
CIRCLE
  5
623
330
70
100
AcDbEntity
  8
Visible
100
AcDbCircle
 10
4.6
 20
9.576982
 30
0.085152
 40
0.016725
  0
CIRCLE
  5
624
330
70
100
AcDbEntity
  8
Visible
100
AcDbCircle
 10
5.8
 20
9.576982
 30
0.085152
 40
0.016725
  0
CIRCLE
  5
625
330
70
100
AcDbEntity
  8
Visible
100
AcDbCircle
 10
7.0
 20
9.576982
 30
0.085152
 40
0.016725
  0
CIRCLE
  5
626
330
70
100
AcDbEntity
  8
Visible
100
AcDbCircle
 10
8.2
 20
9.576982
 30
0.085152
 40
0.016725
  0
CIRCLE
  5
627
330
70
100
AcDbEntity
  8
Visible
100
AcDbCircle
 10
9.4
 20
9.576982
 30
0.085152
 40
0.016725
  0
CIRCLE
  5
628
330
70
100
AcDbEntity
  8
Visible
100
AcDbCircle
 10
10.6
 20
9.576982
 30
0.085152
 40
0.016725
  0
CIRCLE
  5
629
330
70
100
AcDbEntity
  8
Visible
100
AcDbCircle
 10
11.8
 20
9.576982
 30
0.085152
 40
0.016725
  0
CIRCLE
  5
62A
330
70
100
AcDbEntity
  8
Visible
100
AcDbCircle
 10
13.0
 20
9.576982
 30
0.085152
 40
0.016725
  0
CIRCLE
  5
62B
330
70
100
AcDbEntity
  8
Visible
100
AcDbCircle
 10
14.2
 20
9.576982
 30
0.085152
 40
0.016725
  0
CIRCLE
  5
62C
330
70
100
AcDbEntity
  8
Visible
100
AcDbCircle
 10
8.5
 20
9.576982
 30
0.085152
 40
0.0128
  0
LINE
  5
62D
330
70
100
AcDbEntity
  8
Visible
100
AcDbLine
 10
14.5
 20
9.646864
 30
0.096963
 11
14.5
 21
9.635165
 31
0.096963
210
-1.0
220
-0.0000000000000002
230
0.0
  0
LINE
  5
62E
330
70
100
AcDbEntity
  8
Visible
100
AcDbLine
 10
14.5
 20
9.63418
 30
0.089089
 11
14.5
 21
9.629482
 31
0.089089
210
-1.0
220
-0.0000000000000002
230
0.0
  0
LINE
  5
62F
330
70
100
AcDbEntity
  8
Visible
100
AcDbLine
 10
14.5
 20
9.62863
 30
0.089581
 11
14.5
 21
9.624652
 31
0.096471
210
-1.0
220
-0.0000000000000002
230
0.0
  0
LINE
  5
630
330
70
100
AcDbEntity
  8
Visible
100
AcDbLine
 10
14.5
 20
9.623799
 30
0.096963
 11
14.5
 21
9.614013
 31
0.096963
210
-1.0
220
-0.0000000000000002
230
0.0
  0
LINE
  5
631
330
70
100
AcDbEntity
  8
Visible
100
AcDbLine
 10
14.5
 20
9.609936
 30
0.088576
 11
14.5
 21
9.608701
 31
0.088907
210
-1.0
220
-0.0000000000000002
230
0.0
  0
LINE
  5
632
330
70
100
AcDbEntity
  8
Visible
100
AcDbLine
 10
14.5
 20
9.606799
 30
0.088398
 11
14.5
 21
9.60413
 31
0.085729
210
-1.0
220
-0.0000000000000002
230
0.0
  0
LINE
  5
633
330
70
100
AcDbEntity
  8
Visible
100
AcDbLine
 10
14.5
 20
9.549834
 30
0.085729
 11
14.5
 21
9.547165
 31
0.088398
210
-1.0
220
-0.0000000000000002
230
0.0
  0
LINE
  5
634
330
70
100
AcDbEntity
  8
Visible
100
AcDbLine
 10
14.5
 20
9.545264
 30
0.088907
 11
14.5
 21
9.544028
 31
0.088576
210
-1.0
220
-0.0000000000000002
230
0.0
  0
LINE
  5
635
330
70
100
AcDbEntity
  8
Visible
100
AcDbLine
 10
14.5
 20
9.539951
 30
0.096963
 11
14.5
 21
9.530165
 31
0.096963
210
-1.0
220
-0.0000000000000002
230
0.0
  0
LINE
  5
636
330
70
100
AcDbEntity
  8
Visible
100
AcDbLine
 10
14.5
 20
9.529313
 30
0.096471
 11
14.5
 21
9.525335
 31
0.089581
210
-1.0
220
-0.0000000000000002
230
0.0
  0
LINE
  5
637
330
70
100
AcDbEntity
  8
Visible
100
AcDbLine
 10
14.5
 20
9.524482
 30
0.089089
 11
14.5
 21
9.519784
 31
0.089089
210
-1.0
220
-0.0000000000000002
230
0.0
  0
LINE
  5
638
330
70
100
AcDbEntity
  8
Visible
100
AcDbLine
 10
14.5
 20
9.5188
 30
0.096963
 11
14.5
 21
9.5071
 31
0.096963
210
-1.0
220
-0.0000000000000002
230
0.0
  0
LINE
  5
639
330
70
100
AcDbEntity
  8
Visible
100
AcDbLine
 10
2.5
 20
9.647848
 30
0.095979
 11
14.5
 21
9.647848
 31
0.095979
210
-1.0
220
-0.0000000000000002
230
0.0
  0
LINE
  5
63A
330
70
100
AcDbEntity
  8
Visible
100
AcDbLine
 10
2.5
 20
9.506116
 30
0.095979
 11
14.5
 21
9.506116
 31
0.095979
210
-1.0
220
-0.0000000000000002
230
0.0
  0
LINE
  5
63B
330
70
100
AcDbEntity
  8
Visible
100
AcDbLine
 10
2.5
 20
9.5071
 30
0.096963
 11
2.5
 21
9.5188
 31
0.096963
210
-1.0
220
-0.0000000000000002
230
0.0
  0
LINE
  5
63C
330
70
100
AcDbEntity
  8
Visible
100
AcDbLine
 10
2.5
 20
9.519784
 30
0.089089
 11
2.5
 21
9.524482
 31
0.089089
210
-1.0
220
-0.0000000000000002
230
0.0
  0
LINE
  5
63D
330
70
100
AcDbEntity
  8
Visible
100
AcDbLine
 10
2.5
 20
9.525335
 30
0.089581
 11
2.5
 21
9.529313
 31
0.096471
210
-1.0
220
-0.0000000000000002
230
0.0
  0
LINE
  5
63E
330
70
100
AcDbEntity
  8
Visible
100
AcDbLine
 10
2.5
 20
9.530165
 30
0.096963
 11
2.5
 21
9.539951
 31
0.096963
210
-1.0
220
-0.0000000000000002
230
0.0
  0
LINE
  5
63F
330
70
100
AcDbEntity
  8
Visible
100
AcDbLine
 10
2.5
 20
9.544028
 30
0.088576
 11
2.5
 21
9.545264
 31
0.088907
210
-1.0
220
-0.0000000000000002
230
0.0
  0
LINE
  5
640
330
70
100
AcDbEntity
  8
Visible
100
AcDbLine
 10
2.5
 20
9.547165
 30
0.088398
 11
2.5
 21
9.549834
 31
0.085729
210
-1.0
220
-0.0000000000000002
230
0.0
  0
LINE
  5
641
330
70
100
AcDbEntity
  8
Visible
100
AcDbLine
 10
2.5
 20
9.60413
 30
0.085729
 11
2.5
 21
9.606799
 31
0.088398
210
-1.0
220
-0.0000000000000002
230
0.0
  0
LINE
  5
642
330
70
100
AcDbEntity
  8
Visible
100
AcDbLine
 10
2.5
 20
9.608701
 30
0.088907
 11
2.5
 21
9.609936
 31
0.088576
210
-1.0
220
-0.0000000000000002
230
0.0
  0
LINE
  5
643
330
70
100
AcDbEntity
  8
Visible
100
AcDbLine
 10
2.5
 20
9.614013
 30
0.096963
 11
2.5
 21
9.623799
 31
0.096963
210
-1.0
220
-0.0000000000000002
230
0.0
  0
LINE
  5
644
330
70
100
AcDbEntity
  8
Visible
100
AcDbLine
 10
2.5
 20
9.624652
 30
0.096471
 11
2.5
 21
9.62863
 31
0.089581
210
-1.0
220
-0.0000000000000002
230
0.0
  0
LINE
  5
645
330
70
100
AcDbEntity
  8
Visible
100
AcDbLine
 10
2.5
 20
9.629482
 30
0.089089
 11
2.5
 21
9.63418
 31
0.089089
210
-1.0
220
-0.0000000000000002
230
0.0
  0
LINE
  5
646
330
70
100
AcDbEntity
  8
Visible
100
AcDbLine
 10
2.5
 20
9.635165
 30
0.096963
 11
2.5
 21
9.646864
 31
0.096963
210
-1.0
220
-0.0000000000000002
230
0.0
  0
LINE
  5
647
330
70
100
AcDbEntity
  8
Visible
100
AcDbLine
 10
2.5
 20
9.63418
 30
0.095979
 11
14.5
 21
9.63418
 31
0.095979
210
-1.0
220
-0.0000000000000002
230
0.0
  0
LINE
  5
648
330
70
100
AcDbEntity
  8
Visible
100
AcDbLine
 10
2.5
 20
9.613029
 30
0.095979
 11
14.5
 21
9.613029
 31
0.095979
210
-1.0
220
-0.0000000000000002
230
0.0
  0
LINE
  5
649
330
70
100
AcDbEntity
  8
Visible
100
AcDbLine
 10
2.5
 20
9.543298
 30
0.087625
 11
14.5
 21
9.543298
 31
0.087625
210
-1.0
220
-0.0000000000000002
230
0.0
  0
LINE
  5
64A
330
70
100
AcDbEntity
  8
Visible
100
AcDbLine
 10
2.5
 20
9.519784
 30
0.095979
 11
14.5
 21
9.519784
 31
0.095979
210
-1.0
220
-0.0000000000000002
230
0.0
  0
LINE
  5
64B
330
70
100
AcDbEntity
  8
Visible
100
AcDbLine
 10
2.5
 20
9.540935
 30
0.095979
 11
14.5
 21
9.540935
 31
0.095979
210
-1.0
220
-0.0000000000000002
230
0.0
  0
LINE
  5
64C
330
70
100
AcDbEntity
  8
Visible
100
AcDbLine
 10
2.5
 20
9.610666
 30
0.087625
 11
14.5
 21
9.610666
 31
0.087625
210
-1.0
220
-0.0000000000000002
230
0.0
  0
SPLINE
  5
64D
330
70
100
AcDbEntity
  8
Visible
100
AcDbSpline
 70
     0
 71
     3
 72
    14
 73
    10
 74
     0
 42
0.000000001
 43
0.0000000001
 40
0.1508356126798561
 40
0.1508356126798561
 40
0.1508356126798561
 40
0.1508356126798561
 40
0.1696785627811113
 40
0.1696785627811113
 40
0.1885215128823664
 40
0.1885215128823664
 40
0.2073879523602841
 40
0.2073879523602841
 40
0.2262543918382017
 40
0.2262543918382017
 40
0.2262543918382017
 40
0.2262543918382017
 10
11.06731723830067
 20
8.459110661163094
 30
0.2399486450362929
 10
11.06731723830067
 20
8.459110661163094
 30
0.2402577485484016
 10
11.06732133903552
 20
8.459048854966113
 30
0.2405873950663135
 10
11.06733797805174
 20
8.458797667680983
 30
0.2411936408539077
 10
11.06735051298087
 20
8.45860829060598
 30
0.24147024187846
 10
11.06737936858136
 20
8.458171355915055
 30
0.2419071765693843
 10
11.06739761847589
 20
8.457894577058141
 30
0.2420965383694238
 10
11.06743747374199
 20
8.457288328732602
 30
0.2423475857133326
 10
11.06745907596385
 20
8.456958860589566
 30
0.2424092749574811
 10
11.06747926937635
 20
8.456650031241679
 30
0.2424092749574811
1001
ACAD_VIEW_EDGE_ID
1071
        0
1071
       -1
1071
        2
1071
        0
  0
ARC
  5
64E
330
70
100
AcDbEntity
  8
Visible
100
AcDbCircle
 10
-8.395621
 20
8.281945
 30
-0.242409
 40
2.677564374506029
210
0.0
220
0.0000000000000001
230
-1.0
100
AcDbArc
 50
176.258929
 51
176.885935
  0
SPLINE
  5
64F
330
70
100
AcDbEntity
  8
Visible
100
AcDbSpline
 70
     0
 71
     3
 72
    14
 73
    10
 74
     0
 42
0.000000001
 43
0.0000000001
 40
-0.0753922543750418
 40
-0.0753922543750418
 40
-0.0753922543750418
 40
-0.0753922543750418
 40
-0.0565361335308448
 40
-0.0565361335308448
 40
-0.0376800126866477
 40
-0.0376800126866477
 40
-0.0188400063433238
 40
-0.0188400063433238
 40
-0.0000000000000162
 40
0.0
 40
0.0
 40
0.0
 10
11.06923109734652
 20
8.427401135213358
 30
0.2424092749574811
 10
11.06924790080207
 20
8.427092272397885
 30
0.2424092749574811
 10
11.06926576746884
 20
8.426762778669171
 30
0.2423475707091711
 10
11.06929853601291
 20
8.426156527444618
 30
0.2420965032633831
 10
11.06931344088031
 20
8.425879771260042
 30
0.2419071372896724
 10
11.06933692718513
 20
8.425442829745634
 30
0.2414701957750367
 10
11.0693470781796
 20
8.425253454568519
 30
0.2411935635755071
 10
11.06936052837561
 20
8.425002291051214
 30
0.240587316319079
 10
11.06936383051497
 20
8.42494050529217
 30
0.2402577002583257
 10
11.06936383051497
 20
8.42494050529217
 30
0.2399486450362929
1001
ACAD_VIEW_EDGE_ID
1071
        2
1071
       -1
1071
        2
1071
        0
  0
ARC
  5
650
330
70
100
AcDbEntity
  8
Visible
100
AcDbCircle
 10
-8.395621
 20
8.281945
 30
-0.222724
 40
2.677564374411718
210
0.0
220
0.0000000000000001
230
-1.0
100
AcDbArc
 50
176.938665
 51
177.190338
  0
SPLINE
  5
651
330
70
100
AcDbEntity
  8
Visible
100
AcDbSpline
 70
     0
 71
     3
 72
    12
 73
     8
 74
     0
 42
0.000000001
 43
0.0000000001
 40
0.2261487919161817
 40
0.2261487919161817
 40
0.2261487919161817
 40
0.2261487919161817
 40
0.2450066561391542
 40
0.2450066561391542
 40
0.2638645203621267
 40
0.2638645203621267
 40
0.276520094180614
 40
0.276520094180614
 40
0.276520094180614
 40
0.276520094180614
 10
11.06996614442454
 20
8.413194681739241
 30
0.2227242355872931
 10
11.06998130811354
 20
8.41288570544475
 30
0.2227242355872931
 10
11.06999742478458
 20
8.412556104983195
 30
0.2227859853105656
 10
11.07002697096049
 20
8.411949708676729
 30
0.2230372043268289
 10
11.07004040347602
 20
8.411672913919346
 30
0.2232266758906007
 10
11.07005809029007
 20
8.411307671822896
 30
0.2235920873110899
 10
11.07006458302946
 20
8.411173334213799
 30
0.2237646822795796
 10
11.0700698753427
 20
8.411063713718021
 30
0.2239545505481146
1001
ACAD_VIEW_EDGE_ID
1071
        6
1071
       -1
1071
        2
1071
        0
  0
ELLIPSE
  5
652
330
70
100
AcDbEntity
  8
Visible
100
AcDbEllipse
 10
8.395621
 20
8.281945
 30
0.447594
 11
0.000000000073937
 21
-2.677564375080272
 31
4.637677538175503
210
0.0000000000000002
220
-0.8660254037844415
230
-0.4999999999999951
 40
0.4999999998892413
 41
4.664147936262441
 42
4.667865953144439
1001
ACAD_VIEW_EDGE_ID
1071
        7
1071
       -1
1071
        2
1071
        0
  0
SPLINE
  5
653
330
70
100
AcDbEntity
  8
Visible
100
AcDbSpline
 70
     0
 71
     3
 72
    12
 73
     8
 74
     0
 42
0.000000001
 43
0.0000000001
 40
0.1757573444779396
 40
0.1757573444779396
 40
0.1757573444779396
 40
0.1757573444779396
 40
0.1884232494529011
 40
0.1884232494529011
 40
0.2072720317212243
 40
0.2072720317212243
 40
0.2261208139895475
 40
0.2261208139895475
 40
0.2261208139895475
 40
0.2261208139895475
 10
11.07053145334926
 20
8.401119196286117
 30
0.241178959996887
 10
11.0705363414061
 20
8.401009481676737
 30
0.2413689912748396
 10
11.07054232565937
 20
8.400875002421798
 30
0.2415417270860871
 10
11.0705585505076
 20
8.400509627230803
 30
0.2419071022770822
 10
11.07057081027546
 20
8.40023289661326
 30
0.2420964684547471
 10
11.07059755001757
 20
8.399626648678349
 30
0.2423475539778792
 10
11.07061202690875
 20
8.399297131902358
 30
0.2424092749574811
 10
11.07062554276524
 20
8.398988228265125
 30
0.2424092749574811
1001
ACAD_VIEW_EDGE_ID
1071
        8
1071
       -1
1071
        2
1071
        0
  0
ARC
  5
654
330
70
100
AcDbEntity
  8
Visible
100
AcDbCircle
 10
-8.395621
 20
8.281945
 30
-0.242409
 40
2.677564374477418
210
0.0
220
0.0000000000000001
230
-1.0
100
AcDbArc
 50
177.494662
 51
178.018576
  0
SPLINE
  5
655
330
70
100
AcDbEntity
  8
Visible
100
AcDbSpline
 70
     0
 71
     3
 72
    14
 73
    10
 74
     0
 42
0.000000001
 43
0.0000000001
 40
-0.0753593701248919
 40
-0.0753593701248919
 40
-0.0753593701248919
 40
-0.0753593701248919
 40
-0.056516277539634
 40
-0.056516277539634
 40
-0.0376731849543761
 40
-0.0376731849543761
 40
-0.018836592477188
 40
-0.018836592477188
 40
-0.0000000000000159
 40
0.0
 40
0.0
 40
0.0
 10
11.07158393858982
 20
8.374523379957508
 30
0.2424092749574811
 10
11.07159462607289
 20
8.374214458925735
 30
0.2424092749574811
 10
11.07160596750248
 20
8.373884928331335
 30
0.2423475460775535
 10
11.07162672785405
 20
8.373278678458063
 30
0.2420964496973283
 10
11.07163614981451
 20
8.373001959760131
 30
0.2419070810453832
 10
11.07165098184614
 20
8.372565019324838
 30
0.2414701406100903
 10
11.07165738196452
 20
8.37237564712268
 30
0.2411934721933449
 10
11.07166585668595
 20
8.372124511969332
 30
0.2405872242063651
 10
11.07166793431891
 20
8.37206275003632
 30
0.2402576442566442
 10
11.07166793431891
 20
8.37206275003632
 30
0.2399486450362929
1001
ACAD_VIEW_EDGE_ID
1071
       10
1071
       -1
1071
        2
1071
        0
  0
SPLINE
  5
656
330
70
100
AcDbEntity
  8
Visible
100
AcDbSpline
 70
     0
 71
     3
 72
    12
 73
     8
 74
     0
 42
0.000000001
 43
0.0000000001
 40
1.204024451146126
 40
1.204024451146126
 40
1.204024451146126
 40
1.204024451146126
 40
1.266114600091681
 40
1.266114600091681
 40
1.356529270025093
 40
1.356529270025093
 40
1.423944003510535
 40
1.423944003510535
 40
1.423944003510535
 40
1.423944003510535
 10
11.07166788795446
 20
8.372063912578823
 30
0.2075428687892327
 10
11.07169933534225
 20
8.371129931522546
 30
0.2080771957062097
 10
11.07172753033934
 20
8.37027823077733
 30
0.2087312977894271
 10
11.07178542893469
 20
8.368509721792634
 30
0.2104998067743509
 10
11.07181453927358
 20
8.367600733361086
 30
0.2118278253092285
 10
11.07184797673376
 20
8.36654861194961
 30
0.2143676930711535
 10
11.07185676369801
 20
8.366269481988865
 30
0.2155231573140099
 10
11.07186030998243
 20
8.366156551195899
 30
0.2166556262225185
1001
ACAD_VIEW_EDGE_ID
1071
       13
1071
       -1
1071
        2
1071
        0
  0
SPLINE
  5
657
330
70
100
AcDbEntity
  8
Visible
100
AcDbSpline
 70
     0
 71
     3
 72
    14
 73
    10
 74
     0
 42
0.000000001
 43
0.0000000001
 40
0.1507098276595472
 40
0.1507098276595472
 40
0.150709827659569
 40
0.150709827659569
 40
0.1695437237178161
 40
0.1695437237178161
 40
0.1883776197760631
 40
0.1883776197760631
 40
0.2072214064747406
 40
0.2072214064747406
 40
0.2133982774189645
 40
0.2133982774189645
 40
0.2133982774189645
 40
0.2133982774189645
 10
11.07186036210759
 20
8.366154717019071
 30
0.2190646497679154
 10
11.07186036210759
 20
8.366154717019071
 30
0.219373604755674
 10
11.07186230715799
 20
8.366092972828027
 30
0.2197031421562769
 10
11.07187018975996
 20
8.365841898733378
 30
0.2203093306325172
 10
11.07187612422128
 20
8.365652569735175
 30
0.2205859821235663
 10
11.07188975364667
 20
8.365215674158434
 30
0.2210229601178071
 10
11.07189835789067
 20
8.364938943047491
 30
0.2212123707931823
 10
11.07191079490089
 20
8.364536417746194
 30
0.2213791147012216
 10
11.0719139447072
 20
8.364434292804617
 30
0.2214137437927093
 10
11.07191712610946
 20
8.36433094498443
 30
0.221441435757697
1001
ACAD_VIEW_EDGE_ID
1071
       14
1071
       -1
1071
        2
1071
        0
  0
ELLIPSE
  5
658
330
70
100
AcDbEntity
  8
Visible
100
AcDbEllipse
 10
8.395621
 20
8.281945
 30
0.243517
 11
-0.0000000011802998
 21
-2.677564373216607
 31
0.717451211485765
210
0.0000000000000001
220
-0.2588190451025308
230
-0.9659258262890658
 40
0.9659258267465093
 41
4.681615249966521
 42
4.682769689003277
1001
ACAD_VIEW_EDGE_ID
1071
       15
1071
       -1
1071
        2
1071
        0
  0
SPLINE
  5
659
330
70
100
AcDbEntity
  8
Visible
100
AcDbSpline
 70
     0
 71
     3
 72
    12
 73
     8
 74
     0
 42
0.000000001
 43
0.0000000001
 40
0.4267891403081239
 40
0.4267891403081239
 40
0.4267891403081239
 40
0.4267891403081239
 40
0.4521218908129671
 40
0.4521218908129671
 40
0.4898027044402672
 40
0.4898027044402672
 40
0.5274835180675673
 40
0.5274835180675673
 40
0.5274835180675673
 40
0.5274835180675673
 10
11.07201045189553
 20
8.361241269483798
 30
0.2222693118130792
 10
11.07202301030064
 20
8.360817399364577
 30
0.2223828874691662
 10
11.07203577692933
 20
8.3603829407391
 30
0.222436999675665
 10
11.07206589780672
 20
8.359349692606656
 30
0.222436999675665
 10
11.07208487477019
 20
8.358690617596948
 30
0.2223135335182178
 10
11.0721193673177
 20
8.35747811682927
 30
0.2218113299086326
 10
11.07213489510268
 20
8.356924692151324
 30
0.2214325906870727
 10
11.07214706558746
 20
8.356487697504007
 30
0.2209955960397565
1001
ACAD_VIEW_EDGE_ID
1071
       16
1071
       -1
1071
        2
1071
        0
  0
ELLIPSE
  5
65A
330
70
100
AcDbEntity
  8
Visible
100
AcDbEllipse
 10
8.395621
 20
8.281945
 30
0.146453
 11
-0.0000000001297005
 21
2.677564375691025
 31
2.677564375691026
210
-0.0000000000000002
220
0.7071067811865475
230
-0.7071067811865472
 40
0.7071067808685152
 41
1.542953103456504
 42
1.545445980566911
1001
ACAD_VIEW_EDGE_ID
1071
       17
1071
       -1
1071
        2
1071
        0
  0
SPLINE
  5
65B
330
70
100
AcDbEntity
  8
Visible
100
AcDbSpline
 70
     0
 71
     3
 72
    10
 73
     6
 74
     0
 42
0.000000001
 43
0.0000000001
 40
0.37673550227854
 40
0.37673550227854
 40
0.37673550227854
 40
0.37673550227854
 40
0.4144132271361743
 40
0.4144132271361743
 40
0.4520909519938086
 40
0.4520909519938086
 40
0.4520909519938086
 40
0.4520909519938086
 10
11.07232457386696
 20
8.349815221002472
 30
0.2143231195382214
 10
11.07233565366548
 20
8.349378247681897
 30
0.2138861462178738
 10
11.07234957104291
 20
8.348824842570593
 30
0.2135074094942411
 10
11.07237959109254
 20
8.347612348190295
 30
0.2130051947563061
 10
11.07239568153469
 20
8.34695325896655
 30
0.2128817159023129
 10
11.0724105449498
 20
8.346335364795777
 30
0.2128817159023129
1001
ACAD_VIEW_EDGE_ID
1071
       18
1071
       -1
1071
        2
1071
        0
  0
ARC
  5
65C
330
70
100
AcDbEntity
  8
Visible
100
AcDbCircle
 10
-8.395621
 20
8.281945
 30
-0.212882
 40
2.677564374486451
210
0.0
220
0.0000000000000001
230
-1.0
100
AcDbArc
 50
178.622018
 51
181.377982
  0
SPLINE
  5
65D
330
70
100
AcDbEntity
  8
Visible
100
AcDbSpline
 70
     0
 71
     3
 72
    10
 73
     6
 74
     0
 42
0.000000001
 43
0.0000000001
 40
0.452088106951896
 40
0.452088106951896
 40
0.452088106951896
 40
0.452088106951896
 40
0.4897658318095301
 40
0.4897658318095301
 40
0.5274435566671644
 40
0.5274435566671644
 40
0.5274435566671644
 40
0.5274435566671644
 10
11.07241054494981
 20
8.217555248868848
 30
0.2128817159023129
 10
11.0723956815347
 20
8.216937354698075
 30
0.2128817159023129
 10
11.07237959109256
 20
8.216278265474329
 30
0.2130051947563061
 10
11.07234957104292
 20
8.215065771094032
 30
0.2135074094942411
 10
11.07233565366549
 20
8.214512365982727
 30
0.2138861462178738
 10
11.07232457386697
 20
8.214075392662152
 30
0.2143231195382214
1001
ACAD_VIEW_EDGE_ID
1071
       20
1071
       -1
1071
        2
1071
        0
  0
ELLIPSE
  5
65E
330
70
100
AcDbEntity
  8
Visible
100
AcDbEllipse
 10
8.395621
 20
8.281945
 30
0.146453
 11
-0.0000000001378683
 21
-2.677564375753777
 31
2.677564375753777
210
0.0000000000000002
220
-0.7071067811865475
230
-0.7071067811865476
 40
0.7071067808519606
 41
-1.5454459805692
 42
-1.542953103458852
1001
ACAD_VIEW_EDGE_ID
1071
       21
1071
       -1
1071
        2
1071
        0
  0
SPLINE
  5
65F
330
70
100
AcDbEntity
  8
Visible
100
AcDbSpline
 70
     0
 71
     3
 72
    12
 73
     8
 74
     0
 42
0.000000001
 43
0.0000000001
 40
0.3767568145812141
 40
0.3767568145812141
 40
0.3767568145812141
 40
0.3767568145812141
 40
0.4144376282085141
 40
0.4144376282085141
 40
0.452118441835814
 40
0.452118441835814
 40
0.4774511923406574
 40
0.4774511923406574
 40
0.4774511923406574
 40
0.4774511923406574
 10
11.07214706558747
 20
8.207402916160617
 30
0.2209955960397565
 10
11.0721348951027
 20
8.206965921513301
 30
0.2214325906870727
 10
11.07211936731771
 20
8.206412496835355
 30
0.2218113299086326
 10
11.07208487477021
 20
8.205199996067676
 30
0.2223135335182178
 10
11.07206589780673
 20
8.204540921057969
 30
0.222436999675665
 10
11.07203577692935
 20
8.203507672925525
 30
0.222436999675665
 10
11.07202301030065
 20
8.203073214300047
 30
0.2223828874691662
 10
11.07201045189554
 20
8.202649344180827
 30
0.2222693118130792
1001
ACAD_VIEW_EDGE_ID
1071
       22
1071
       -1
1071
        2
1071
        0
  0
ELLIPSE
  5
660
330
70
100
AcDbEntity
  8
Visible
100
AcDbEllipse
 10
8.395621
 20
8.281945
 30
0.243517
 11
-0.0000000000563431
 21
2.677564374369074
 31
0.7174512117945645
210
-0.0000000000000001
220
0.2588190451025297
230
-0.9659258262890659
 40
0.9659258263311997
 41
1.600415617771747
 42
1.601570056807928
1001
ACAD_VIEW_EDGE_ID
1071
       23
1071
       -1
1071
        2
1071
        0
  0
SPLINE
  5
661
330
70
100
AcDbEntity
  8
Visible
100
AcDbSpline
 70
     0
 71
     3
 72
    14
 73
    10
 74
     0
 42
0.000000001
 43
0.0000000001
 40
-0.0626884497593943
 40
-0.0626884497593943
 40
-0.0626884497593943
 40
-0.0626884497593943
 40
-0.0565115788151715
 40
-0.0565115788151715
 40
-0.0376677921164941
 40
-0.0376677921164941
 40
-0.0188338960582471
 40
-0.0188338960582471
 40
0.0
 40
0.0
 40
0.0
 40
0.0000000000000219
 10
11.07191712610948
 20
8.199559668680194
 30
0.221441435757697
 10
11.07191394470721
 20
8.199456320860008
 30
0.2214137437927093
 10
11.0719107949009
 20
8.199354195918431
 30
0.2213791147012216
 10
11.07189835789069
 20
8.198951670617134
 30
0.2212123707931823
 10
11.07188975364668
 20
8.19867493950619
 30
0.2210229601178071
 10
11.07187612422129
 20
8.19823804392945
 30
0.2205859821235663
 10
11.07187018975998
 20
8.198048714931246
 30
0.2203093306325172
 10
11.071862307158
 20
8.197797640836597
 30
0.2197031421562769
 10
11.07186036210761
 20
8.197735896645554
 30
0.219373604755674
 10
11.07186036210761
 20
8.197735896645554
 30
0.2190646497679154
1001
ACAD_VIEW_EDGE_ID
1071
       24
1071
       -1
1071
        2
1071
        0
  0
SPLINE
  5
662
330
70
100
AcDbEntity
  8
Visible
100
AcDbSpline
 70
     0
 71
     3
 72
    12
 73
     8
 74
     0
 42
0.000000001
 43
0.0000000001
 40
0.7464719056260878
 40
0.7464719056260878
 40
0.7464719056260878
 40
0.7464719056260878
 40
0.8138866391115479
 40
0.8138866391115479
 40
0.9043013090449603
 40
0.9043013090449603
 40
0.9663914579905217
 40
0.9663914579905217
 40
0.9663914579905217
 40
0.9663914579905217
 10
11.07186030998245
 20
8.197734062468725
 30
0.2166556262225185
 10
11.07185676369803
 20
8.197621131675759
 30
0.2155231573140099
 10
11.07184797673377
 20
8.197342001715014
 30
0.2143676930711535
 10
11.0718145392736
 20
8.196289880303538
 30
0.2118278253092285
 10
11.0717854289347
 20
8.195380891871991
 30
0.2104998067743509
 10
11.07172753033935
 20
8.193612382887295
 30
0.2087312977894271
 10
11.07169933534226
 20
8.192760682142079
 30
0.2080771957062097
 10
11.07166788795448
 20
8.191826701085801
 30
0.2075428687892327
1001
ACAD_VIEW_EDGE_ID
1071
       25
1071
       -1
1071
        2
1071
        0
  0
SPLINE
  5
663
330
70
100
AcDbEntity
  8
Visible
100
AcDbSpline
 70
     0
 71
     3
 72
    14
 73
    10
 74
     0
 42
0.000000001
 43
0.0000000001
 40
0.1507197636800706
 40
0.1507197636800706
 40
0.1507197636800868
 40
0.1507197636800868
 40
0.1695563561572586
 40
0.1695563561572586
 40
0.1883929486344466
 40
0.1883929486344466
 40
0.2072360412197044
 40
0.2072360412197044
 40
0.2260791338049622
 40
0.2260791338049622
 40
0.2260791338049622
 40
0.2260791338049622
 10
11.07166793431892
 20
8.191827863628304
 30
0.2399486450362929
 10
11.07166793431892
 20
8.191827863628304
 30
0.2402576442566442
 10
11.07166585668596
 20
8.191766101695293
 30
0.2405872242063651
 10
11.07165738196453
 20
8.191514966541944
 30
0.2411934721933449
 10
11.07165098184616
 20
8.191325594339787
 30
0.2414701406100903
 10
11.07163614981453
 20
8.190888653904494
 30
0.2419070810453832
 10
11.07162672785407
 20
8.190611935206561
 30
0.2420964496973283
 10
11.0716059675025
 20
8.190005685333289
 30
0.2423475460775535
 10
11.07159462607291
 20
8.18967615473889
 30
0.2424092749574811
 10
11.07158393858983
 20
8.189367233707116
 30
0.2424092749574811
1001
ACAD_VIEW_EDGE_ID
1071
       28
1071
       -1
1071
        2
1071
        0
  0
ARC
  5
664
330
70
100
AcDbEntity
  8
Visible
100
AcDbCircle
 10
-8.395621
 20
8.281945
 30
-0.242409
 40
2.677564374497245
210
0.0
220
0.0000000000000001
230
-1.0
100
AcDbArc
 50
181.981424
 51
182.505338
  0
SPLINE
  5
665
330
70
100
AcDbEntity
  8
Visible
100
AcDbSpline
 70
     0
 71
     3
 72
    12
 73
     8
 74
     0
 42
0.000000001
 43
0.0000000001
 40
0.2261195181576085
 40
0.2261195181576085
 40
0.2261195181576085
 40
0.2261195181576085
 40
0.2449683004259315
 40
0.2449683004259315
 40
0.2638170826942545
 40
0.2638170826942545
 40
0.276482987669217
 40
0.276482987669217
 40
0.276482987669217
 40
0.276482987669217
 10
11.07062554276526
 20
8.1649023853995
 30
0.2424092749574811
 10
11.07061202690877
 20
8.164593481762267
 30
0.2424092749574811
 10
11.07059755001759
 20
8.164263964986275
 30
0.2423475539778792
 10
11.07057081027548
 20
8.163657717051364
 30
0.2420964684547471
 10
11.07055855050762
 20
8.163380986433821
 30
0.2419071022770822
 10
11.07054232565939
 20
8.163015611242826
 30
0.2415417270860871
 10
11.07053634140612
 20
8.162881131987887
 30
0.2413689912748396
 10
11.07053145334928
 20
8.162771417378507
 30
0.241178959996887
1001
ACAD_VIEW_EDGE_ID
1071
       30
1071
       -1
1071
        2
1071
        0
  0
ELLIPSE
  5
666
330
70
100
AcDbEntity
  8
Visible
100
AcDbEllipse
 10
8.395621
 20
8.281945
 30
0.447594
 11
-0.0000000001254385
 21
2.677564373468358
 31
4.637677535383591
210
-0.0000000000000002
220
0.8660254037844417
230
-0.4999999999999948
 40
0.5000000001895977
 41
1.615319354080392
 42
1.619037370964634
1001
ACAD_VIEW_EDGE_ID
1071
       31
1071
       -1
1071
        2
1071
        0
  0
SPLINE
  5
667
330
70
100
AcDbEntity
  8
Visible
100
AcDbSpline
 70
     0
 71
     3
 72
    12
 73
     8
 74
     0
 42
0.000000001
 43
0.0000000001
 40
0.1757760353664251
 40
0.1757760353664251
 40
0.1757760353664251
 40
0.1757760353664251
 40
0.1884316091849125
 40
0.1884316091849125
 40
0.2072894734078849
 40
0.2072894734078849
 40
0.2261473376308573
 40
0.2261473376308573
 40
0.2261473376308573
 40
0.2261473376308573
 10
11.07006987534272
 20
8.152826899946603
 30
0.2239545505481146
 10
11.07006458302949
 20
8.152717279450826
 30
0.2237646822795796
 10
11.0700580902901
 20
8.152582941841728
 30
0.2235920873110899
 10
11.07004040347604
 20
8.152217699745278
 30
0.2232266758906007
 10
11.07002697096052
 20
8.151940904987895
 30
0.2230372043268289
 10
11.0699974247846
 20
8.151334508681429
 30
0.2227859853105656
 10
11.06998130811357
 20
8.151004908219874
 30
0.2227242355872931
 10
11.06996614442456
 20
8.150695931925383
 30
0.2227242355872931
1001
ACAD_VIEW_EDGE_ID
1071
       32
1071
       -1
1071
        2
1071
        0
  0
ARC
  5
668
330
70
100
AcDbEntity
  8
Visible
100
AcDbCircle
 10
-8.395621
 20
8.281945
 30
-0.222724
 40
2.67756437451916
210
0.0
220
0.0000000000000001
230
-1.0
100
AcDbArc
 50
182.809662
 51
183.061335
  0
SPLINE
  5
669
330
70
100
AcDbEntity
  8
Visible
100
AcDbSpline
 70
     0
 71
     3
 72
    14
 73
    10
 74
     0
 42
0.000000001
 43
0.0000000001
 40
0.1507861203227819
 40
0.1507861203227819
 40
0.1507861203227976
 40
0.1507861203227976
 40
0.1696261266661058
 40
0.1696261266661058
 40
0.1884661330094297
 40
0.1884661330094297
 40
0.2073222538536263
 40
0.2073222538536263
 40
0.226178374697823
 40
0.226178374697823
 40
0.226178374697823
 40
0.226178374697823
 10
11.069363830515
 20
8.138950108372455
 30
0.2399486450362929
 10
11.069363830515
 20
8.138950108372455
 30
0.2402577002583257
 10
11.06936052837563
 20
8.138888322613411
 30
0.240587316319079
 10
11.06934707817962
 20
8.138637159096106
 30
0.2411935635755071
 10
11.06933692718515
 20
8.138447783918991
 30
0.2414701957750367
 10
11.06931344088033
 20
8.138010842404582
 30
0.2419071372896724
 10
11.06929853601293
 20
8.137734086220007
 30
0.2420965032633831
 10
11.06926576746887
 20
8.137127834995453
 30
0.2423475707091711
 10
11.06924790080209
 20
8.136798341266739
 30
0.2424092749574811
 10
11.06923109734655
 20
8.136489478451267
 30
0.2424092749574811
1001
ACAD_VIEW_EDGE_ID
1071
       36
1071
       -1
1071
        2
1071
        0
  0
ARC
  5
66A
330
70
100
AcDbEntity
  8
Visible
100
AcDbCircle
 10
-8.395621
 20
8.281945
 30
-0.242409
 40
2.677564374487305
210
0.0
220
0.0000000000000001
230
-1.0
100
AcDbArc
 50
183.114065
 51
183.741071
  0
SPLINE
  5
66B
330
70
100
AcDbEntity
  8
Visible
100
AcDbSpline
 70
     0
 71
     3
 72
    14
 73
    10
 74
     0
 42
0.000000001
 43
0.0000000001
 40
-0.0754187791583448
 40
-0.0754187791583448
 40
-0.0754187791583448
 40
-0.0754187791583448
 40
-0.0565523396804274
 40
-0.0565523396804274
 40
-0.0376859002025099
 40
-0.0376859002025099
 40
-0.0188429501012549
 40
-0.0188429501012549
 40
0.0
 40
0.0
 40
0.0
 40
0.0
 10
11.06747926937638
 20
8.107240582422946
 30
0.2424092749574811
 10
11.06745907596389
 20
8.106931753075059
 30
0.2424092749574811
 10
11.06743747374202
 20
8.106602284932023
 30
0.2423475857133326
 10
11.06739761847592
 20
8.105996036606484
 30
0.2420965383694238
 10
11.06737936858139
 20
8.105719257749569
 30
0.2419071765693843
 10
11.0673505129809
 20
8.105282323058645
 30
0.24147024187846
 10
11.06733797805177
 20
8.105092945983642
 30
0.2411936408539077
 10
11.06732133903555
 20
8.104841758698512
 30
0.2405873950663135
 10
11.0673172383007
 20
8.10477995250153
 30
0.2402577485484016
 10
11.0673172383007
 20
8.10477995250153
 30
0.2399486450362929
1001
ACAD_VIEW_EDGE_ID
1071
       38
1071
       -1
1071
        2
1071
        0
  0
LINE
  5
66C
330
70
100
AcDbEntity
  8
Hidden
100
AcDbLine
 10
5.969647
 20
8.156538
 30
-0.215268
 11
11.070246
 21
8.156538
 31
-0.215268
210
-1.0
220
-0.0000000000000002
230
0.0
  0
LINE
  5
66D
330
70
100
AcDbEntity
  8
Hidden
100
AcDbLine
 10
5.969647
 20
8.15793
 30
-0.226502
 11
11.070311
 21
8.15793
 31
-0.226502
210
-1.0
220
-0.0000000000000002
230
0.0
  0
LINE
  5
66E
330
70
100
AcDbEntity
  8
Visible
100
AcDbLine
 10
5.969647
 20
8.10478
 30
0.239949
 11
11.067317
 21
8.10478
 31
0.239949
210
-1.0
220
-0.0000000000000002
230
0.0
  0
ARC
  5
66F
330
70
100
AcDbEntity
  8
Visible
100
AcDbCircle
 10
-8.107241
 20
0.239949
 30
-5.969647
 40
0.0024606299212598
210
-1.0
220
-0.0000000000000002
230
0.0
100
AcDbArc
 50
0.0
 51
90.0
  0
LINE
  5
670
330
70
100
AcDbEntity
  8
Visible
100
AcDbLine
 10
5.969647
 20
8.107241
 30
0.242409
 11
5.969647
 21
8.136489
 31
0.242409
210
-1.0
220
-0.0000000000000002
230
0.0
  0
ARC
  5
671
330
70
100
AcDbEntity
  8
Visible
100
AcDbCircle
 10
-8.136489
 20
0.239949
 30
-5.969647
 40
0.0024606299212599
210
-1.0
220
-0.0000000000000002
230
0.0
100
AcDbArc
 50
90.0
 51
180.0
  0
LINE
  5
672
330
70
100
AcDbEntity
  8
Visible
100
AcDbLine
 10
5.969647
 20
8.13895
 30
0.222724
 11
5.969647
 21
8.150696
 31
0.222724
210
-1.0
220
-0.0000000000000002
230
0.0
  0
ARC
  5
673
330
70
100
AcDbEntity
  8
Visible
100
AcDbCircle
 10
8.150696
 20
0.225185
 30
5.969647
 40
0.0024606299212599
210
1.0
220
0.0000000000000002
230
0.0
100
AcDbArc
 50
270.0
 51
330.0
  0
LINE
  5
674
330
70
100
AcDbEntity
  8
Visible
100
AcDbLine
 10
5.969647
 20
8.152827
 30
0.223955
 11
5.969647
 21
8.162771
 31
0.241179
210
-1.0
220
-0.0000000000000002
230
0.0
  0
ARC
  5
675
330
70
100
AcDbEntity
  8
Visible
100
AcDbCircle
 10
-8.164902
 20
0.239949
 30
-5.969647
 40
0.0024606299212598
210
-1.0
220
-0.0000000000000002
230
0.0
100
AcDbArc
 50
30.0
 51
90.0
  0
LINE
  5
676
330
70
100
AcDbEntity
  8
Visible
100
AcDbLine
 10
5.969647
 20
8.164902
 30
0.242409
 11
5.969647
 21
8.189367
 31
0.242409
210
-1.0
220
-0.0000000000000002
230
0.0
  0
ARC
  5
677
330
70
100
AcDbEntity
  8
Visible
100
AcDbCircle
 10
-8.189367
 20
0.239949
 30
-5.969647
 40
0.0024606299212598
210
-1.0
220
-0.0000000000000002
230
0.0
100
AcDbArc
 50
90.0
 51
180.0
  0
ARC
  5
678
330
70
100
AcDbEntity
  8
Visible
100
AcDbCircle
 10
8.185981
 20
0.217803
 30
5.969647
 40
0.0118110236220473
210
1.0
220
0.0000000000000002
230
0.0
100
AcDbArc
 50
299.673412
 51
354.424475
  0
ARC
  5
679
330
70
100
AcDbEntity
  8
Visible
100
AcDbCircle
 10
-8.200197
 20
0.219065
 30
-5.969647
 40
0.0024606299212599
210
-1.0
220
-0.0000000000000002
230
0.0
100
AcDbArc
 50
0.0
 51
75.0
  0
LINE
  5
67A
330
70
100
AcDbEntity
  8
Visible
100
AcDbLine
 10
5.969647
 20
8.19956
 30
0.221441
 11
5.969647
 21
8.202649
 31
0.222269
210
-1.0
220
-0.0000000000000002
230
0.0
  0
ARC
  5
67B
330
70
100
AcDbEntity
  8
Visible
100
AcDbCircle
 10
-8.203923
 20
0.217516
 30
-5.969647
 40
0.0049212598425197
210
-1.0
220
-0.0000000000000002
230
0.0
100
AcDbArc
 50
75.0
 51
135.0
  0
LINE
  5
67C
330
70
100
AcDbEntity
  8
Visible
100
AcDbLine
 10
5.969647
 20
8.207403
 30
0.220996
 11
5.969647
 21
8.214075
 31
0.214323
210
-1.0
220
-0.0000000000000002
230
0.0
  0
ARC
  5
67D
330
70
100
AcDbEntity
  8
Visible
100
AcDbCircle
 10
8.217555
 20
0.217803
 30
5.969647
 40
0.0049212598425197
210
1.0
220
0.0000000000000002
230
0.0
100
AcDbArc
 50
225.0
 51
270.0
  0
CIRCLE
  5
67E
330
70
100
AcDbEntity
  8
Visible
100
AcDbCircle
 10
8.219647
 20
8.281945
 30
0.212882
 40
0.0418124999999999
  0
CIRCLE
  5
67F
330
70
100
AcDbEntity
  8
Visible
100
AcDbCircle
 10
-6.719647
 20
8.281945
 30
-0.212882
 40
0.0418124999999999
210
0.0
220
0.0000000000000001
230
-1.0
  0
LINE
  5
680
330
70
100
AcDbEntity
  8
Visible
100
AcDbLine
 10
5.969647
 20
8.217555
 30
0.212882
 11
5.969647
 21
8.346335
 31
0.212882
210
-1.0
220
-0.0000000000000002
230
0.0
  0
CIRCLE
  5
681
330
70
100
AcDbEntity
  8
Visible
100
AcDbCircle
 10
9.719647
 20
8.281945
 30
0.212882
 40
0.0418124999999999
  0
CIRCLE
  5
682
330
70
100
AcDbEntity
  8
Visible
100
AcDbCircle
 10
-10.969647
 20
8.281945
 30
-0.212882
 40
0.032
210
0.0
220
0.0000000000000001
230
-1.0
  0
ARC
  5
683
330
70
100
AcDbEntity
  8
Visible
100
AcDbCircle
 10
8.346335
 20
0.217803
 30
5.969647
 40
0.0049212598425197
210
1.0
220
0.0000000000000002
230
0.0
100
AcDbArc
 50
270.0
 51
315.0
  0
LINE
  5
684
330
70
100
AcDbEntity
  8
Visible
100
AcDbLine
 10
5.969647
 20
8.349815
 30
0.214323
 11
5.969647
 21
8.356488
 31
0.220996
210
-1.0
220
-0.0000000000000002
230
0.0
  0
ARC
  5
685
330
70
100
AcDbEntity
  8
Visible
100
AcDbCircle
 10
-8.359968
 20
0.217516
 30
-5.969647
 40
0.0049212598425197
210
-1.0
220
-0.0000000000000002
230
0.0
100
AcDbArc
 50
45.0
 51
105.0
  0
LINE
  5
686
330
70
100
AcDbEntity
  8
Visible
100
AcDbLine
 10
5.969647
 20
8.361241
 30
0.222269
 11
5.969647
 21
8.364331
 31
0.221441
210
-1.0
220
-0.0000000000000002
230
0.0
  0
ARC
  5
687
330
70
100
AcDbEntity
  8
Visible
100
AcDbCircle
 10
-8.363694
 20
0.219065
 30
-5.969647
 40
0.0024606299212599
210
-1.0
220
-0.0000000000000002
230
0.0
100
AcDbArc
 50
105.0
 51
180.0
  0
ARC
  5
688
330
70
100
AcDbEntity
  8
Visible
100
AcDbCircle
 10
8.37791
 20
0.217803
 30
5.969647
 40
0.0118110236220472
210
1.0
220
0.0000000000000002
230
0.0
100
AcDbArc
 50
185.575525
 51
240.326588
  0
ARC
  5
689
330
70
100
AcDbEntity
  8
Visible
100
AcDbCircle
 10
-8.374523
 20
0.239949
 30
-5.969647
 40
0.0024606299212598
210
-1.0
220
-0.0000000000000002
230
0.0
100
AcDbArc
 50
0.0
 51
90.0
  0
LINE
  5
68A
330
70
100
AcDbEntity
  8
Visible
100
AcDbLine
 10
5.969647
 20
8.374523
 30
0.242409
 11
5.969647
 21
8.398988
 31
0.242409
210
-1.0
220
-0.0000000000000002
230
0.0
  0
ARC
  5
68B
330
70
100
AcDbEntity
  8
Visible
100
AcDbCircle
 10
-8.398988
 20
0.239949
 30
-5.969647
 40
0.0024606299212599
210
-1.0
220
-0.0000000000000002
230
0.0
100
AcDbArc
 50
90.0
 51
150.0
  0
LINE
  5
68C
330
70
100
AcDbEntity
  8
Visible
100
AcDbLine
 10
5.969647
 20
8.401119
 30
0.241179
 11
5.969647
 21
8.411064
 31
0.223955
210
-1.0
220
-0.0000000000000002
230
0.0
  0
ARC
  5
68D
330
70
100
AcDbEntity
  8
Visible
100
AcDbCircle
 10
8.413195
 20
0.225185
 30
5.969647
 40
0.0024606299212598
210
1.0
220
0.0000000000000002
230
0.0
100
AcDbArc
 50
210.0
 51
270.0
  0
LINE
  5
68E
330
70
100
AcDbEntity
  8
Visible
100
AcDbLine
 10
5.969647
 20
8.413195
 30
0.222724
 11
5.969647
 21
8.424941
 31
0.222724
210
-1.0
220
-0.0000000000000002
230
0.0
  0
ARC
  5
68F
330
70
100
AcDbEntity
  8
Visible
100
AcDbCircle
 10
-8.427401
 20
0.239949
 30
-5.969647
 40
0.0024606299212599
210
-1.0
220
-0.0000000000000002
230
0.0
100
AcDbArc
 50
0.0
 51
90.0
  0
LINE
  5
690
330
70
100
AcDbEntity
  8
Visible
100
AcDbLine
 10
5.969647
 20
8.427401
 30
0.242409
 11
5.969647
 21
8.45665
 31
0.242409
210
-1.0
220
-0.0000000000000002
230
0.0
  0
LINE
  5
691
330
70
100
AcDbEntity
  8
Visible
100
AcDbLine
 10
5.969647
 20
8.459111
 30
0.239949
 11
11.067317
 21
8.459111
 31
0.239949
210
-1.0
220
-0.0000000000000002
230
0.0
  0
ARC
  5
692
330
70
100
AcDbEntity
  8
Visible
100
AcDbCircle
 10
-8.45665
 20
0.239949
 30
-5.969647
 40
0.0024606299212599
210
-1.0
220
-0.0000000000000002
230
0.0
100
AcDbArc
 50
90.0
 51
180.0
  0
LINE
  5
693
330
70
100
AcDbEntity
  8
Hidden
100
AcDbLine
 10
9.793418
 20
8.279485
 30
0.163669
 11
10.937742
 21
8.279485
 31
0.163669
210
-1.0
220
-0.0000000000000002
230
0.0
  0
LINE
  5
694
330
70
100
AcDbEntity
  8
Hidden
100
AcDbLine
 10
11.001552
 20
8.279485
 30
0.163669
 11
11.073184
 21
8.279485
 31
0.163669
210
-1.0
220
-0.0000000000000002
230
0.0
  0
LINE
  5
695
330
70
100
AcDbEntity
  8
Hidden
100
AcDbLine
 10
11.001647
 20
8.281945
 30
0.16613
 11
11.073185
 21
8.281945
 31
0.16613
210
-1.0
220
-0.0000000000000002
230
0.0
  0
LINE
  5
696
330
70
100
AcDbEntity
  8
Hidden
100
AcDbLine
 10
11.001552
 20
8.284406
 30
0.163669
 11
11.073184
 21
8.284406
 31
0.163669
210
-1.0
220
-0.0000000000000002
230
0.0
  0
LINE
  5
697
330
70
100
AcDbEntity
  8
Hidden
100
AcDbLine
 10
5.969647
 20
8.397595
 30
0.114457
 11
11.070686
 21
8.397595
 31
0.114457
210
-1.0
220
-0.0000000000000002
230
0.0
  0
LINE
  5
698
330
70
100
AcDbEntity
  8
Hidden
100
AcDbLine
 10
9.793418
 20
8.284406
 30
0.163669
 11
10.937742
 21
8.284406
 31
0.163669
210
-1.0
220
-0.0000000000000002
230
0.0
  0
LINE
  5
699
330
70
100
AcDbEntity
  8
Hidden
100
AcDbLine
 10
9.79346
 20
8.281945
 30
0.16613
 11
10.937647
 21
8.281945
 31
0.16613
210
-1.0
220
-0.0000000000000002
230
0.0
  0
CIRCLE
  5
69A
330
70
100
AcDbEntity
  8
Hidden
100
AcDbCircle
 10
9.719647
 20
8.281945
 30
0.188294
 40
0.0738125
  0
LINE
  5
69B
330
70
100
AcDbEntity
  8
Hidden
100
AcDbLine
 10
8.293418
 20
8.284406
 30
0.163669
 11
9.645876
 21
8.284406
 31
0.163669
210
-1.0
220
-0.0000000000000002
230
0.0
  0
LINE
  5
69C
330
70
100
AcDbEntity
  8
Hidden
100
AcDbLine
 10
8.29346
 20
8.281945
 30
0.16613
 11
9.645835
 21
8.281945
 31
0.16613
210
-1.0
220
-0.0000000000000002
230
0.0
  0
LINE
  5
69D
330
70
100
AcDbEntity
  8
Hidden
100
AcDbLine
 10
8.293418
 20
8.279485
 30
0.163669
 11
9.645876
 21
8.279485
 31
0.163669
210
-1.0
220
-0.0000000000000002
230
0.0
  0
CIRCLE
  5
69E
330
70
100
AcDbEntity
  8
Hidden
100
AcDbCircle
 10
8.219647
 20
8.281945
 30
0.188294
 40
0.0738125
  0
LINE
  5
69F
330
70
100
AcDbEntity
  8
Hidden
100
AcDbLine
 10
6.793418
 20
8.279485
 30
0.163669
 11
8.145876
 21
8.279485
 31
0.163669
210
-1.0
220
-0.0000000000000002
230
0.0
  0
LINE
  5
6A0
330
70
100
AcDbEntity
  8
Hidden
100
AcDbLine
 10
6.79346
 20
8.281945
 30
0.16613
 11
8.145835
 21
8.281945
 31
0.16613
210
-1.0
220
-0.0000000000000002
230
0.0
  0
LINE
  5
6A1
330
70
100
AcDbEntity
  8
Hidden
100
AcDbLine
 10
6.793418
 20
8.284406
 30
0.163669
 11
8.145876
 21
8.284406
 31
0.163669
210
-1.0
220
-0.0000000000000002
230
0.0
  0
LINE
  5
6A2
330
70
100
AcDbEntity
  8
Hidden
100
AcDbLine
 10
5.969647
 20
8.166296
 30
0.114457
 11
11.070686
 21
8.166296
 31
0.114457
210
-1.0
220
-0.0000000000000002
230
0.0
  0
CIRCLE
  5
6A3
330
70
100
AcDbEntity
  8
Hidden
100
AcDbCircle
 10
6.719647
 20
8.281945
 30
0.188294
 40
0.0738125
  0
LINE
  5
6A4
330
70
100
AcDbEntity
  8
Hidden
100
AcDbLine
 10
5.969647
 20
8.284406
 30
0.163669
 11
6.645876
 21
8.284406
 31
0.163669
210
-1.0
220
-0.0000000000000002
230
0.0
  0
LINE
  5
6A5
330
70
100
AcDbEntity
  8
Hidden
100
AcDbLine
 10
5.969647
 20
8.281945
 30
0.16613
 11
6.645835
 21
8.281945
 31
0.16613
210
-1.0
220
-0.0000000000000002
230
0.0
  0
LINE
  5
6A6
330
70
100
AcDbEntity
  8
Hidden
100
AcDbLine
 10
5.969647
 20
8.279485
 30
0.163669
 11
6.645876
 21
8.279485
 31
0.163669
210
-1.0
220
-0.0000000000000002
230
0.0
  0
LINE
  5
6A7
330
70
100
AcDbEntity
  8
Hidden
100
AcDbLine
 10
5.969647
 20
8.405961
 30
-0.226502
 11
11.070311
 21
8.405961
 31
-0.226502
210
-1.0
220
-0.0000000000000002
230
0.0
  0
LINE
  5
6A8
330
70
100
AcDbEntity
  8
Hidden
100
AcDbLine
 10
5.969647
 20
8.407353
 30
-0.215268
 11
11.070246
 21
8.407353
 31
-0.215268
210
-1.0
220
-0.0000000000000002
230
0.0
  0
LINE
  5
6A9
330
70
100
AcDbEntity
  8
Hidden
100
AcDbLine
 10
5.969647
 20
8.402516
 30
0.082891
 11
11.070469
 21
8.402516
 31
0.082891
210
-1.0
220
-0.0000000000000002
230
0.0
  0
LINE
  5
6AA
330
70
100
AcDbEntity
  8
Hidden
100
AcDbLine
 10
5.969647
 20
8.152024
 30
-0.220189
 11
11.070031
 21
8.152024
 31
-0.220189
210
-1.0
220
-0.0000000000000002
230
0.0
  0
LINE
  5
6AB
330
70
100
AcDbEntity
  8
Hidden
100
AcDbLine
 10
5.969647
 20
8.116099
 30
-0.238751
 11
11.068044
 21
8.116099
 31
-0.238751
210
-1.0
220
-0.0000000000000002
230
0.0
  0
LINE
  5
6AC
330
70
100
AcDbEntity
  8
Hidden
100
AcDbLine
 10
5.969647
 20
8.1194
 30
-0.234461
 11
11.068247
 21
8.1194
 31
-0.234461
210
-1.0
220
-0.0000000000000002
230
0.0
  0
LINE
  5
6AD
330
70
100
AcDbEntity
  8
Visible
100
AcDbLine
 10
5.969647
 20
8.13895
 30
0.239949
 11
11.069364
 21
8.13895
 31
0.239949
210
-1.0
220
-0.0000000000000002
230
0.0
  0
LINE
  5
6AE
330
70
100
AcDbEntity
  8
Hidden
100
AcDbLine
 10
5.969647
 20
8.131188
 30
0.225185
 11
11.068937
 21
8.131188
 31
0.225185
210
-1.0
220
-0.0000000000000002
230
0.0
  0
LINE
  5
6AF
330
70
100
AcDbEntity
  8
Visible
100
AcDbLine
 10
5.969647
 20
8.191828
 30
0.239949
 11
11.071668
 21
8.191828
 31
0.239949
210
-1.0
220
-0.0000000000000002
230
0.0
  0
LINE
  5
6B0
330
70
100
AcDbEntity
  8
Hidden
100
AcDbLine
 10
5.969647
 20
8.197792
 30
0.217803
 11
11.071862
 21
8.197792
 31
0.217803
210
-1.0
220
-0.0000000000000002
230
0.0
  0
LINE
  5
6B1
330
70
100
AcDbEntity
  8
Hidden
100
AcDbLine
 10
5.969647
 20
8.17417
 30
0.217803
 11
11.071015
 21
8.17417
 31
0.217803
210
-1.0
220
-0.0000000000000002
230
0.0
  0
LINE
  5
6B2
330
70
100
AcDbEntity
  8
Visible
100
AcDbLine
 10
5.969647
 20
8.197736
 30
0.219065
 11
11.07186
 21
8.197736
 31
0.219065
210
-1.0
220
-0.0000000000000002
230
0.0
  0
LINE
  5
6B3
330
70
100
AcDbEntity
  8
Visible
100
AcDbLine
 10
5.969647
 20
8.366155
 30
0.219065
 11
11.07186
 21
8.366155
 31
0.219065
210
-1.0
220
-0.0000000000000002
230
0.0
  0
LINE
  5
6B4
330
70
100
AcDbEntity
  8
Hidden
100
AcDbLine
 10
5.969647
 20
8.389721
 30
0.217803
 11
11.071015
 21
8.389721
 31
0.217803
210
-1.0
220
-0.0000000000000002
230
0.0
  0
LINE
  5
6B5
330
70
100
AcDbEntity
  8
Hidden
100
AcDbLine
 10
5.969647
 20
8.366099
 30
0.217803
 11
11.071862
 21
8.366099
 31
0.217803
210
-1.0
220
-0.0000000000000002
230
0.0
  0
LINE
  5
6B6
330
70
100
AcDbEntity
  8
Visible
100
AcDbLine
 10
5.969647
 20
8.372063
 30
0.239949
 11
11.071668
 21
8.372063
 31
0.239949
210
-1.0
220
-0.0000000000000002
230
0.0
  0
LINE
  5
6B7
330
70
100
AcDbEntity
  8
Hidden
100
AcDbLine
 10
5.969647
 20
8.432703
 30
0.225185
 11
11.068937
 21
8.432703
 31
0.225185
210
-1.0
220
-0.0000000000000002
230
0.0
  0
LINE
  5
6B8
330
70
100
AcDbEntity
  8
Visible
100
AcDbLine
 10
5.969647
 20
8.424941
 30
0.239949
 11
11.069364
 21
8.424941
 31
0.239949
210
-1.0
220
-0.0000000000000002
230
0.0
  0
LINE
  5
6B9
330
70
100
AcDbEntity
  8
Hidden
100
AcDbLine
 10
5.969647
 20
8.132339
 30
-0.190662
 11
11.069002
 21
8.132339
 31
-0.190662
210
-1.0
220
-0.0000000000000002
230
0.0
  0
LINE
  5
6BA
330
70
100
AcDbEntity
  8
Hidden
100
AcDbLine
 10
5.969647
 20
8.150548
 30
-0.057788
 11
11.069959
 21
8.150548
 31
-0.057788
210
-1.0
220
-0.0000000000000002
230
0.0
  0
LINE
  5
6BB
330
70
100
AcDbEntity
  8
Hidden
100
AcDbLine
 10
5.969647
 20
8.44449
 30
-0.234461
 11
11.068247
 21
8.44449
 31
-0.234461
210
-1.0
220
-0.0000000000000002
230
0.0
  0
LINE
  5
6BC
330
70
100
AcDbEntity
  8
Hidden
100
AcDbLine
 10
5.969647
 20
8.447792
 30
-0.238751
 11
11.068044
 21
8.447792
 31
-0.238751
210
-1.0
220
-0.0000000000000002
230
0.0
  0
LINE
  5
6BD
330
70
100
AcDbEntity
  8
Hidden
100
AcDbLine
 10
5.969647
 20
8.411867
 30
-0.220189
 11
11.070031
 21
8.411867
 31
-0.220189
210
-1.0
220
-0.0000000000000002
230
0.0
  0
LINE
  5
6BE
330
70
100
AcDbEntity
  8
Hidden
100
AcDbLine
 10
5.969647
 20
8.431552
 30
-0.190662
 11
11.069002
 21
8.431552
 31
-0.190662
210
-1.0
220
-0.0000000000000002
230
0.0
  0
LINE
  5
6BF
330
70
100
AcDbEntity
  8
Hidden
100
AcDbLine
 10
5.969647
 20
8.409898
 30
-0.057788
 11
11.070126
 21
8.409898
 31
-0.057788
210
-1.0
220
-0.0000000000000002
230
0.0
  0
ARC
  5
6C0
330
70
100
AcDbEntity
  8
Visible
100
AcDbCircle
 10
-9.636598
 20
1.469443
 30
-120.0
 40
0.0196850393700788
210
0.0
220
0.0
230
-1.0
100
AcDbArc
 50
30.0
 51
90.0
  0
ARC
  5
6C1
330
70
100
AcDbEntity
  8
Visible
100
AcDbCircle
 10
9.522946
 20
1.351333
 30
120.0
 40
0.0196850393700788
100
AcDbArc
 50
270.0
 51
330.0
  0
ARC
  5
6C2
330
70
100
AcDbEntity
  8
Visible
100
AcDbCircle
 10
9.344226
 20
1.414772
 30
120.0
 40
0.0196850393700787
100
AcDbArc
 50
84.928192
 51
165.0
  0
ARC
  5
6C3
330
70
100
AcDbEntity
  8
Visible
100
AcDbCircle
 10
9.240593
 20
1.518405
 30
120.0
 40
0.0196850393700786
100
AcDbArc
 50
285.0
 51
5.071808
  0
ARC
  5
6C4
330
70
100
AcDbEntity
  8
Visible
100
AcDbCircle
 10
9.210781
 20
1.530796
 30
120.0
 40
0.0393700787401575
100
AcDbArc
 50
225.0
 51
285.0
  0
ARC
  5
6C5
330
70
100
AcDbEntity
  8
Visible
100
AcDbCircle
 10
-9.101723
 20
1.528498
 30
-120.0
 40
0.0393700787401575
210
0.0
220
0.0
230
-1.0
100
AcDbArc
 50
90.0
 51
135.0
  0
ARC
  5
6C6
330
70
100
AcDbEntity
  8
Visible
100
AcDbCircle
 10
-8.071482
 20
1.528498
 30
-120.0
 40
0.0393700787401573
210
0.0
220
0.0
230
-1.0
100
AcDbArc
 50
45.0
 51
90.0
  0
ARC
  5
6C7
330
70
100
AcDbEntity
  8
Visible
100
AcDbCircle
 10
7.962425
 20
1.530796
 30
120.0
 40
0.0393700787401576
100
AcDbArc
 50
255.0
 51
315.0
  0
ARC
  5
6C8
330
70
100
AcDbEntity
  8
Visible
100
AcDbCircle
 10
7.828979
 20
1.414772
 30
120.0
 40
0.0196850393700787
100
AcDbArc
 50
15.0
 51
95.071808
  0
ARC
  5
6C9
330
70
100
AcDbEntity
  8
Visible
100
AcDbCircle
 10
7.845978
 20
1.351333
 30
120.0
 40
0.0196850393700788
100
AcDbArc
 50
270.0
 51
15.0
  0
ARC
  5
6CA
330
70
100
AcDbEntity
  8
Visible
100
AcDbCircle
 10
7.650259
 20
1.351333
 30
120.0
 40
0.0196850393700788
100
AcDbArc
 50
210.0
 51
270.0
  0
ARC
  5
6CB
330
70
100
AcDbEntity
  8
Visible
100
AcDbCircle
 10
-7.536608
 20
1.469443
 30
-120.0
 40
0.0196850393700788
210
0.0
220
0.0
230
-1.0
100
AcDbArc
 50
90.0
 51
150.0
  0
ARC
  5
6CC
330
70
100
AcDbEntity
  8
Visible
100
AcDbCircle
 10
7.422956
 20
1.351333
 30
120.0
 40
0.0196850393700787
100
AcDbArc
 50
270.0
 51
30.0
  0
ARC
  5
6CD
330
70
100
AcDbEntity
  8
Visible
100
AcDbCircle
 10
7.188965
 20
1.351333
 30
120.0
 40
0.0196850393700787
100
AcDbArc
 50
180.0
 51
270.0
  0
ARC
  5
6CE
330
70
100
AcDbEntity
  8
Visible
100
AcDbCircle
 10
7.188965
 20
5.107239
 30
120.0
 40
0.0196850393700797
100
AcDbArc
 50
90.0
 51
180.0
  0
LINE
  5
6CF
330
70
100
AcDbEntity
  8
Visible
100
AcDbLine
 10
9.750249
 20
1.331648
 30
120.0
 11
9.98424
 21
1.331648
 31
120.0
  0
LINE
  5
6D0
330
70
100
AcDbEntity
  8
Visible
100
AcDbLine
 10
9.790027
 20
1.459601
 30
120.0
 11
9.733201
 21
1.361176
 31
120.0
  0
ARC
  5
6D1
330
70
100
AcDbEntity
  8
Visible
100
AcDbCircle
 10
-7.266558
 20
5.146609
 30
-120.0
 40
0.0196850393700787
210
0.0
220
0.0
230
-1.0
100
AcDbArc
 50
115.0
 51
270.0
  0
LINE
  5
6D2
330
70
100
AcDbEntity
  8
Visible
100
AcDbLine
 10
9.636598
 20
1.489128
 30
120.0
 11
9.772979
 21
1.489128
 31
120.0
  0
ARC
  5
6D3
330
70
100
AcDbEntity
  8
Visible
100
AcDbCircle
 10
7.328987
 20
5.13144
 30
120.0
 40
0.078740157480317
100
AcDbArc
 50
75.038504
 51
108.068817
  0
LINE
  5
6D4
330
70
100
AcDbEntity
  8
Visible
100
AcDbLine
 10
9.539994
 20
1.341491
 30
120.0
 11
9.61955
 21
1.479286
 31
120.0
  0
ARC
  5
6D5
330
70
100
AcDbEntity
  8
Visible
100
AcDbCircle
 10
7.555106
 20
5.111765
 30
120.0
 40
0.0393700787401575
100
AcDbArc
 50
0.0
 51
75.038504
  0
LINE
  5
6D6
330
70
100
AcDbEntity
  8
Visible
100
AcDbLine
 10
9.327227
 20
1.331648
 30
120.0
 11
9.522946
 21
1.331648
 31
120.0
  0
LINE
  5
6D7
330
70
100
AcDbEntity
  8
Visible
100
AcDbLine
 10
9.325211
 20
1.419867
 30
120.0
 11
9.308213
 21
1.356428
 31
120.0
  0
ARC
  5
6D8
330
70
100
AcDbEntity
  8
Visible
100
AcDbCircle
 10
7.649595
 20
4.981254
 30
120.0
 40
0.0118110236220468
100
AcDbArc
 50
0.0
 51
90.0
  0
LINE
  5
6D9
330
70
100
AcDbEntity
  8
Visible
100
AcDbLine
 10
9.22097
 20
1.492768
 30
120.0
 11
9.245688
 21
1.499391
 31
120.0
  0
LINE
  5
6DA
330
70
100
AcDbEntity
  8
Visible
100
AcDbLine
 10
9.129562
 20
1.556337
 30
120.0
 11
9.182942
 21
1.502958
 31
120.0
  0
ARC
  5
6DB
330
70
100
AcDbEntity
  8
Visible
100
AcDbCircle
 10
7.641721
 20
4.909867
 30
120.0
 40
0.0196850393700788
100
AcDbArc
 50
300.0
 51
0.0
  0
LINE
  5
6DC
330
70
100
AcDbEntity
  8
Visible
100
AcDbLine
 10
7.990263
 20
1.502958
 30
120.0
 11
8.043643
 21
1.556337
 31
120.0
  0
ARC
  5
6DD
330
70
100
AcDbEntity
  8
Visible
100
AcDbCircle
 10
7.571794
 20
4.869494
 30
120.0
 40
0.0196850393700796
100
AcDbArc
 50
219.928192
 51
300.0
  0
LINE
  5
6DE
330
70
100
AcDbEntity
  8
Visible
100
AcDbLine
 10
7.927517
 20
1.499391
 30
120.0
 11
7.952235
 21
1.492768
 31
120.0
  0
ARC
  5
6DF
330
70
100
AcDbEntity
  8
Visible
100
AcDbCircle
 10
7.571794
 20
4.722936
 30
120.0
 40
0.0196850393700782
100
AcDbArc
 50
60.0
 51
140.071808
  0
ARC
  5
6E0
330
70
100
AcDbEntity
  8
Visible
100
AcDbCircle
 10
7.641721
 20
4.682563
 30
120.0
 40
0.019685039370079
100
AcDbArc
 50
0.0
 51
60.0
  0
ARC
  5
6E1
330
70
100
AcDbEntity
  8
Visible
100
AcDbCircle
 10
7.464555
 20
4.531137
 30
120.0
 40
0.1968503937007857
100
AcDbArc
 50
342.055049
 51
0.0
  0
LINE
  5
6E2
330
70
100
AcDbEntity
  8
Visible
100
AcDbLine
 10
7.864992
 20
1.356428
 30
120.0
 11
7.847994
 21
1.419867
 31
120.0
  0
ARC
  5
6E3
330
70
100
AcDbEntity
  8
Visible
100
AcDbCircle
 10
7.464555
 20
2.935309
 30
120.0
 40
0.196850393700787
100
AcDbArc
 50
0.0
 51
17.944951
  0
LINE
  5
6E4
330
70
100
AcDbEntity
  8
Visible
100
AcDbLine
 10
7.650259
 20
1.331648
 30
120.0
 11
7.845978
 21
1.331648
 31
120.0
  0
ARC
  5
6E5
330
70
100
AcDbEntity
  8
Visible
100
AcDbCircle
 10
9.55117
 20
2.535813
 30
120.0
 40
0.0393700787401575
100
AcDbArc
 50
135.0
 51
180.0
  0
ARC
  5
6E6
330
70
100
AcDbEntity
  8
Visible
100
AcDbCircle
 10
-9.511799
 20
2.607798
 30
-120.0
 40
0.0393700787401565
210
0.0
220
0.0
230
-1.0
100
AcDbArc
 50
180.0
 51
225.0
  0
ARC
  5
6E7
330
70
100
AcDbEntity
  8
Visible
100
AcDbCircle
 10
9.74802
 20
3.452064
 30
120.0
 40
0.1968503937007849
100
AcDbArc
 50
156.275861
 51
180.0
  0
LINE
  5
6E8
330
70
100
AcDbEntity
  8
Visible
100
AcDbLine
 10
7.553655
 20
1.479286
 30
120.0
 11
7.633211
 21
1.341491
 31
120.0
  0
ARC
  5
6E9
330
70
100
AcDbEntity
  8
Visible
100
AcDbCircle
 10
-9.108255
 20
3.733223
 30
-120.0
 40
0.5019691728049369
210
0.0
220
0.0
230
-1.0
100
AcDbArc
 50
156.275861
 51
203.724139
  0
LINE
  5
6EA
330
70
100
AcDbEntity
  8
Visible
100
AcDbLine
 10
7.400226
 20
1.489128
 30
120.0
 11
7.536608
 21
1.489128
 31
120.0
  0
ARC
  5
6EB
330
70
100
AcDbEntity
  8
Visible
100
AcDbCircle
 10
9.74802
 20
4.014381
 30
120.0
 40
0.1968503937007868
100
AcDbArc
 50
180.0
 51
203.724139
  0
LINE
  5
6EC
330
70
100
AcDbEntity
  8
Visible
100
AcDbLine
 10
7.440004
 20
1.361176
 30
120.0
 11
7.383178
 21
1.459601
 31
120.0
  0
LINE
  5
6ED
330
70
100
AcDbEntity
  8
Visible
100
AcDbLine
 10
7.188965
 20
1.331648
 30
120.0
 11
7.422956
 21
1.331648
 31
120.0
  0
ARC
  5
6EE
330
70
100
AcDbEntity
  8
Visible
100
AcDbCircle
 10
9.570855
 20
4.705294
 30
120.0
 40
0.0196850393700766
100
AcDbArc
 50
120.0
 51
180.0
  0
ARC
  5
6EF
330
70
100
AcDbEntity
  8
Visible
100
AcDbCircle
 10
9.601411
 20
4.722936
 30
120.0
 40
0.0196850393700782
100
AcDbArc
 50
39.928192
 51
120.0
  0
LINE
  5
6F0
330
70
100
AcDbEntity
  8
Visible
100
AcDbLine
 10
7.16928
 20
5.107239
 30
120.0
 11
7.16928
 21
1.351333
 31
120.0
  0
ARC
  5
6F1
330
70
100
AcDbEntity
  8
Visible
100
AcDbCircle
 10
-9.688965
 20
4.796215
 30
-120.0
 40
0.0944881889763778
210
0.0
220
0.0
230
-1.0
100
AcDbArc
 50
39.928192
 51
320.071808
  0
LINE
  5
6F2
330
70
100
AcDbEntity
  8
Visible
100
AcDbLine
 10
7.266558
 20
5.126924
 30
120.0
 11
7.188965
 21
5.126924
 31
120.0
  0
ARC
  5
6F3
330
70
100
AcDbEntity
  8
Visible
100
AcDbCircle
 10
9.601411
 20
4.869494
 30
120.0
 40
0.0196850393700795
100
AcDbArc
 50
240.0
 51
320.071808
  0
ARC
  5
6F4
330
70
100
AcDbEntity
  8
Visible
100
AcDbCircle
 10
9.531485
 20
4.909867
 30
120.0
 40
0.019685039370079
100
AcDbArc
 50
180.0
 51
240.0
  0
LINE
  5
6F5
330
70
100
AcDbEntity
  8
Visible
100
AcDbLine
 10
7.268405
 20
5.167467
 30
120.0
 11
7.274877
 21
5.164449
 31
120.0
  0
ARC
  5
6F6
330
70
100
AcDbEntity
  8
Visible
100
AcDbCircle
 10
9.523611
 20
4.981254
 30
120.0
 40
0.011811023622047
100
AcDbArc
 50
90.0
 51
180.0
  0
LINE
  5
6F7
330
70
100
AcDbEntity
  8
Visible
100
AcDbLine
 10
7.304565
 20
5.206297
 30
120.0
 11
7.270075
 21
5.195045
 31
120.0
  0
ARC
  5
6F8
330
70
100
AcDbEntity
  8
Visible
100
AcDbCircle
 10
-9.618099
 20
5.032435
 30
-120.0
 40
0.0078740157480307
210
0.0
220
0.0
230
-1.0
100
AcDbArc
 50
135.0
 51
225.0
  0
LINE
  5
6F9
330
70
100
AcDbEntity
  8
Visible
100
AcDbLine
 10
7.565271
 20
5.149801
 30
120.0
 11
7.349315
 21
5.20751
 31
120.0
  0
LINE
  5
6FA
330
70
100
AcDbEntity
  8
Visible
100
AcDbLine
 10
7.594477
 20
5.082941
 30
120.0
 11
7.594477
 21
5.111765
 31
120.0
  0
LINE
  5
6FB
330
70
100
AcDbEntity
  8
Visible
100
AcDbLine
 10
7.549539
 20
5.038003
 30
120.0
 11
7.594477
 21
5.082941
 31
120.0
  0
LINE
  5
6FC
330
70
100
AcDbEntity
  8
Visible
100
AcDbLine
 10
7.583341
 20
4.993065
 30
120.0
 11
7.549539
 21
5.026868
 31
120.0
  0
ARC
  5
6FD
330
70
100
AcDbEntity
  8
Visible
100
AcDbCircle
 10
9.618099
 20
5.111765
 30
120.0
 40
0.0393700787401571
100
AcDbArc
 50
104.961496
 51
180.0
  0
LINE
  5
6FE
330
70
100
AcDbEntity
  8
Visible
100
AcDbLine
 10
7.649595
 20
4.993065
 30
120.0
 11
7.583341
 21
4.993065
 31
120.0
  0
ARC
  5
6FF
330
70
100
AcDbEntity
  8
Visible
100
AcDbCircle
 10
9.844218
 20
5.13144
 30
120.0
 40
0.078740157480317
100
AcDbArc
 50
71.931183
 51
104.961496
  0
LINE
  5
700
330
70
100
AcDbEntity
  8
Visible
100
AcDbLine
 10
7.661406
 20
4.909867
 30
120.0
 11
7.661406
 21
4.981254
 31
120.0
  0
LINE
  5
701
330
70
100
AcDbEntity
  8
Visible
100
AcDbLine
 10
7.581637
 20
4.852447
 30
120.0
 11
7.651563
 21
4.892819
 31
120.0
  0
ARC
  5
702
330
70
100
AcDbEntity
  8
Visible
100
AcDbCircle
 10
9.898524
 20
5.180926
 30
120.0
 40
0.0148506362127863
100
AcDbArc
 50
295.0
 51
71.931183
  0
LINE
  5
703
330
70
100
AcDbEntity
  8
Visible
100
AcDbLine
 10
7.651563
 20
4.699611
 30
120.0
 11
7.581637
 21
4.739983
 31
120.0
  0
ARC
  5
704
330
70
100
AcDbEntity
  8
Visible
100
AcDbCircle
 10
9.98424
 20
5.107239
 30
120.0
 40
0.0196850393700799
100
AcDbArc
 50
0.0
 51
90.0
  0
LINE
  5
705
330
70
100
AcDbEntity
  8
Visible
100
AcDbLine
 10
7.661406
 20
4.531137
 30
120.0
 11
7.661406
 21
4.682563
 31
120.0
  0
ARC
  5
706
330
70
100
AcDbEntity
  8
Visible
100
AcDbCircle
 10
9.98424
 20
1.351333
 30
120.0
 40
0.0196850393700789
100
AcDbArc
 50
270.0
 51
0.0
  0
LINE
  5
707
330
70
100
AcDbEntity
  8
Visible
100
AcDbLine
 10
7.661406
 20
2.35527
 30
120.0
 11
7.661406
 21
2.935309
 31
120.0
  0
ARC
  5
708
330
70
100
AcDbEntity
  8
Visible
100
AcDbCircle
 10
-9.906648
 20
5.146609
 30
-120.0
 40
0.019685039370079
210
0.0
220
0.0
230
-1.0
100
AcDbArc
 50
270.0
 51
65.0
  0
LINE
  5
709
330
70
100
AcDbEntity
  8
Visible
100
AcDbLine
 10
9.511799
 20
2.535813
 30
120.0
 11
9.511799
 21
2.35527
 31
120.0
  0
LINE
  5
70A
330
70
100
AcDbEntity
  8
Visible
100
AcDbLine
 10
9.539638
 20
2.579959
 30
120.0
 11
9.523331
 21
2.563652
 31
120.0
  0
ARC
  5
70B
330
70
100
AcDbEntity
  8
Visible
100
AcDbCircle
 10
-9.928335
 20
3.733223
 30
-120.0
 40
2.392913385826771
210
0.0
220
0.0
230
-1.0
100
AcDbArc
 50
342.055049
 51
17.944951
  0
LINE
  5
70C
330
70
100
AcDbEntity
  8
Visible
100
AcDbLine
 10
9.55117
 20
3.452064
 30
120.0
 11
9.55117
 21
2.607798
 31
120.0
  0
ARC
  5
70D
330
70
100
AcDbEntity
  8
Visible
100
AcDbCircle
 10
-7.48424
 20
4.796215
 30
-120.0
 40
0.0944881889763778
210
0.0
220
0.0
230
-1.0
100
AcDbArc
 50
219.928192
 51
140.071808
  0
LINE
  5
70E
330
70
100
AcDbEntity
  8
Visible
100
AcDbLine
 10
9.55117
 20
4.705294
 30
120.0
 11
9.55117
 21
4.014381
 31
120.0
  0
ARC
  5
70F
330
70
100
AcDbEntity
  8
Visible
100
AcDbCircle
 10
-7.555106
 20
5.032435
 30
-120.0
 40
0.0078740157480308
210
0.0
220
0.0
230
-1.0
100
AcDbArc
 50
315.0
 51
45.0
  0
LINE
  5
710
330
70
100
AcDbEntity
  8
Visible
100
AcDbLine
 10
9.591569
 20
4.739983
 30
120.0
 11
9.561012
 21
4.722342
 31
120.0
  0
ARC
  5
711
330
70
100
AcDbEntity
  8
Visible
100
AcDbCircle
 10
7.274682
 20
5.180926
 30
120.0
 40
0.014850636212786
100
AcDbArc
 50
108.068817
 51
245.0
  0
LINE
  5
712
330
70
100
AcDbEntity
  8
Visible
100
AcDbLine
 10
9.521642
 20
4.892819
 30
120.0
 11
9.591569
 21
4.852447
 31
120.0
  0
ARC
  5
713
330
70
100
AcDbEntity
  8
Visible
100
AcDbCircle
 10
-7.400226
 20
1.469443
 30
-120.0
 40
0.0196850393700789
210
0.0
220
0.0
230
-1.0
100
AcDbArc
 50
330.0
 51
90.0
  0
LINE
  5
714
330
70
100
AcDbEntity
  8
Visible
100
AcDbLine
 10
9.511799
 20
4.981254
 30
120.0
 11
9.511799
 21
4.909867
 31
120.0
  0
ARC
  5
715
330
70
100
AcDbEntity
  8
Visible
100
AcDbCircle
 10
-7.818886
 20
1.528498
 30
-120.0
 40
0.094488188976378
210
0.0
220
0.0
230
-1.0
100
AcDbArc
 50
264.928192
 51
185.071808
  0
ARC
  5
716
330
70
100
AcDbEntity
  8
Visible
100
AcDbCircle
 10
7.932612
 20
1.518405
 30
120.0
 40
0.0196850393700787
100
AcDbArc
 50
174.928192
 51
255.0
  0
LINE
  5
717
330
70
100
AcDbEntity
  8
Visible
100
AcDbLine
 10
9.589864
 20
4.993065
 30
120.0
 11
9.523611
 21
4.993065
 31
120.0
  0
ARC
  5
718
330
70
100
AcDbEntity
  8
Visible
100
AcDbCircle
 10
-9.354319
 20
1.528498
 30
-120.0
 40
0.0944881889763781
210
0.0
220
0.0
230
-1.0
100
AcDbArc
 50
354.928192
 51
275.071808
  0
LINE
  5
719
330
70
100
AcDbEntity
  8
Visible
100
AcDbLine
 10
9.623666
 20
5.026868
 30
120.0
 11
9.589864
 21
4.993065
 31
120.0
  0
ARC
  5
71A
330
70
100
AcDbEntity
  8
Visible
100
AcDbCircle
 10
9.327227
 20
1.351333
 30
120.0
 40
0.0196850393700788
100
AcDbArc
 50
165.0
 51
270.0
  0
ARC
  5
71B
330
70
100
AcDbEntity
  8
Visible
100
AcDbCircle
 10
9.750249
 20
1.351333
 30
120.0
 40
0.0196850393700789
100
AcDbArc
 50
150.0
 51
270.0
  0
LINE
  5
71C
330
70
100
AcDbEntity
  8
Visible
100
AcDbLine
 10
9.578729
 20
5.082941
 30
120.0
 11
9.623666
 21
5.038003
 31
120.0
  0
LINE
  5
71D
330
70
100
AcDbEntity
  8
Visible
100
AcDbLine
 10
9.578729
 20
5.111765
 30
120.0
 11
9.578729
 21
5.082941
 31
120.0
  0
ARC
  5
71E
330
70
100
AcDbEntity
  8
Hidden
100
AcDbCircle
 10
8.586603
 20
114.0
 30
-1.764569
 40
0.5905
210
0.0
220
-1.0
230
0.0
100
AcDbArc
 50
360.0
 51
180.0
  0
LINE
  5
71F
330
70
100
AcDbEntity
  8
Visible
100
AcDbLine
 10
9.82389
 20
5.20751
 30
120.0
 11
9.607934
 21
5.149801
 31
120.0
  0
ARC
  5
720
330
70
100
AcDbEntity
  8
Visible
100
AcDbCircle
 10
-8.055106
 20
2.35527
 30
-120.0
 40
0.3937007874015749
210
0.0
220
0.0
230
-1.0
100
AcDbArc
 50
270.0
 51
0.0
  0
LINE
  5
721
330
70
100
AcDbEntity
  8
Visible
100
AcDbLine
 10
9.90313
 20
5.195045
 30
120.0
 11
9.86864
 21
5.206297
 31
120.0
  0
ARC
  5
722
330
70
100
AcDbEntity
  8
Visible
100
AcDbCircle
 10
-9.118099
 20
2.35527
 30
-120.0
 40
0.3937007874015751
210
0.0
220
0.0
230
-1.0
100
AcDbArc
 50
180.000014
 51
270.0
  0
LINE
  5
723
330
70
100
AcDbEntity
  8
Visible
100
AcDbLine
 10
9.898328
 20
5.164449
 30
120.0
 11
9.9048
 21
5.167467
 31
120.0
  0
LINE
  5
724
330
70
100
AcDbEntity
  8
Visible
100
AcDbLine
 10
9.98424
 20
5.126924
 30
120.0
 11
9.906648
 21
5.126924
 31
120.0
  0
LINE
  5
725
330
70
100
AcDbEntity
  8
Visible
100
AcDbLine
 10
10.003925
 20
1.351333
 30
120.0
 11
10.003925
 21
5.107239
 31
120.0
  0
LINE
  5
726
330
70
100
AcDbEntity
  8
Visible
100
AcDbLine
 10
8.586603
 20
1.941884
 30
120.0
 11
8.566917
 21
1.961569
 31
120.0
  0
LINE
  5
727
330
70
100
AcDbEntity
  8
Visible
100
AcDbLine
 10
8.566917
 20
1.961569
 30
120.0
 11
8.055106
 21
1.961569
 31
120.0
  0
LINE
  5
728
330
70
100
AcDbEntity
  8
Visible
100
AcDbLine
 10
8.606288
 20
1.961569
 30
120.0
 11
8.586603
 21
1.941884
 31
120.0
  0
LINE
  5
729
330
70
100
AcDbEntity
  8
Visible
100
AcDbLine
 10
9.118099
 20
1.961569
 30
120.0
 11
8.606288
 21
1.961569
 31
120.0
  0
LINE
  5
72A
330
70
100
AcDbEntity
  8
Visible
100
AcDbLine
 10
8.071482
 20
1.567869
 30
120.0
 11
9.101723
 21
1.567869
 31
120.0
  0
ARC
  5
72B
330
70
100
AcDbEntity
  8
Visible
100
AcDbCircle
 10
-9.772979
 20
1.469443
 30
-120.0
 40
0.0196850393700788
210
0.0
220
0.0
230
-1.0
100
AcDbArc
 50
90.0
 51
210.0
  0
LINE
  5
72C
330
70
100
AcDbEntity
  8
Hidden
100
AcDbLine
 10
8.330603
 20
1.567869
 30
80.0
 11
8.330603
 21
1.961569
 31
80.0
  0
LINE
  5
72D
330
70
100
AcDbEntity
  8
Hidden
100
AcDbLine
 10
8.842603
 20
1.567869
 30
80.0
 11
8.842603
 21
1.961569
 31
80.0
  0
LINE
  5
72E
330
70
100
AcDbEntity
  8
Hidden
100
AcDbLine
 10
9.177103
 20
1.966016
 30
114.0
 11
9.177103
 21
1.764569
 31
114.0
  0
LINE
  5
72F
330
70
100
AcDbEntity
  8
Hidden
100
AcDbLine
 10
7.996103
 20
1.966016
 30
114.0
 11
7.996103
 21
1.764569
 31
114.0
  0
LINE
  5
730
330
70
100
AcDbEntity
  8
Hidden
100
AcDbLine
 10
8.252103
 20
1.567869
 30
114.0
 11
8.252103
 21
1.764569
 31
114.0
  0
LINE
  5
731
330
70
100
AcDbEntity
  8
Hidden
100
AcDbLine
 10
8.921103
 20
1.567869
 30
114.0
 11
8.921103
 21
1.764569
 31
114.0
  0
MTEXT
  5
732
330
70
100
AcDbEntity
  8
Annotations
  6
PHANTOM2
100
AcDbMText
 10
2.419664
 20
9.369446
 30
0.0
 40
0.24
 41
0.0
 46
0.0
 71
     5
 72
     5
  1
A
 73
     1
 44
1.0
  0
ARC
  5
733
330
70
100
AcDbEntity
  8
Annotations
  6
PHANTOM2
370
    25
100
AcDbCircle
 10
-3.470389
 20
9.576982
 30
0.0
 40
1.071025749794351
210
0.0
220
0.0
230
-1.0
100
AcDbArc
 50
14.570533
 51
322.93414
  0
SOLID
  5
734
330
70
100
AcDbEntity
  8
Annotations
  6
PHANTOM2
370
    25
100
AcDbTrace
 10
2.394296
 20
9.852081
 30
0.0
 11
2.399853
 21
9.609343
 31
0.0
 12
2.473322
 22
9.840763
 32
0.0
 13
2.473322
 23
9.840763
 33
0.0
  0
SOLID
  5
735
330
70
100
AcDbEntity
  8
Annotations
  6
PHANTOM2
370
    25
100
AcDbTrace
 10
2.650113
 20
8.951787
 30
0.0
 11
2.493691
 21
9.137488
 31
0.0
 12
2.58143
 22
8.911093
 32
0.0
 13
2.58143
 23
8.911093
 33
0.0
  0
ENDSEC
  0
SECTION
  2
OBJECTS
  0
DICTIONARY
  5
C
330
0
100
AcDbDictionary
281
     1
  3
ACAD_COLOR
350
63
  3
ACAD_DETAILVIEWSTYLE
350
6A
  3
ACAD_FIELDLIST
350
34C
  3
ACAD_GROUP
350
D
  3
ACAD_IMAGE_DICT
350
219
  3
ACAD_IMAGE_VARS
350
21B
  3
ACAD_LAYOUT
350
62
  3
ACAD_MATERIAL
350
10
  3
ACAD_MLEADERSTYLE
350
66
  3
ACAD_MLINESTYLE
350
5F
  3
ACAD_PLOTSETTINGS
350
61
  3
ACAD_PLOTSTYLENAME
350
E
  3
ACAD_SCALELIST
350
42
  3
ACAD_SECTIONVIEWSTYLE
350
68
  3
ACAD_TABLESTYLE
350
64
  3
ACAD_VISUALSTYLE
350
29
  3
ACDB_RECOMPOSE_DATA
350
7DD
  3
AcDbVariableDictionary
350
7D3
  0
DICTIONARY
  5
B6
330
70
100
AcDbDictionary
280
     1
281
     1
  3
ACAD_SORTENTS
360
20F
  0
DICTIONARY
  5
213
330
212
100
AcDbDictionary
280
     1
281
     1
  3
ACAD_SORTENTS
360
5ED
  0
IMAGEDEF_REACTOR
  5
21A
330
217
100
AcDbRasterImageDefReactor
 90
        2
330
217
  0
DICTIONARY
  5
266
330
265
100
AcDbDictionary
280
     1
281
     1
  0
DICTIONARY
  5
2CE
330
2CD
100
AcDbDictionary
280
     1
281
     1
  3
ACAD_MTEXT_2008_RT
360
7DC
  0
DICTIONARY
  5
63
102
{ACAD_REACTORS
330
C
102
}
330
C
100
AcDbDictionary
281
     1
  0
DICTIONARY
  5
6A
102
{ACAD_REACTORS
330
C
102
}
330
C
100
AcDbDictionary
281
     1
  3
Imperial24
350
6B
  0
FIELDLIST
  5
34C
102
{ACAD_REACTORS
330
C
102
}
330
C
100
AcDbIdSet
 90
        3
330
269
330
26A
330
26B
100
AcDbFieldList
  0
DICTIONARY
  5
D
102
{ACAD_REACTORS
330
C
102
}
330
C
100
AcDbDictionary
281
     1
  0
DICTIONARY
  5
219
102
{ACAD_REACTORS
330
C
102
}
330
C
100
AcDbDictionary
281
     1
  3
morse_logo-16 (1)_01-2018(B)_1_1
350
218
  0
RASTERVARIABLES
  5
21B
102
{ACAD_REACTORS
330
C
102
}
330
C
100
AcDbRasterVariables
 90
        0
 70
     0
 71
     1
 72
     5
  0
DICTIONARY
  5
62
102
{ACAD_REACTORS
330
C
102
}
330
C
100
AcDbDictionary
281
     1
  3
Model
350
73
  3
Sheet1
350
6F
  3
Sheet2
350
77
  0
DICTIONARY
  5
10
102
{ACAD_REACTORS
330
C
102
}
330
C
100
AcDbDictionary
281
     1
  3
ByBlock
350
19
  3
ByLayer
350
11
  3
Global
350
21
  0
DICTIONARY
  5
66
102
{ACAD_REACTORS
330
C
102
}
330
C
100
AcDbDictionary
281
     1
  3
Standard
350
67
  0
DICTIONARY
  5
5F
102
{ACAD_REACTORS
330
C
102
}
330
C
100
AcDbDictionary
281
     1
  3
Standard
350
60
  0
DICTIONARY
  5
61
102
{ACAD_REACTORS
330
C
102
}
330
C
100
AcDbDictionary
281
     1
  0
ACDBDICTIONARYWDFLT
  5
E
102
{ACAD_REACTORS
330
C
102
}
330
C
100
AcDbDictionary
281
     1
  3
Normal
350
F
100
AcDbDictionaryWithDefault
340
F
  0
DICTIONARY
  5
42
102
{ACAD_REACTORS
330
C
102
}
330
C
100
AcDbDictionary
281
     1
  3
*A1
350
A6
  3
*A10
350
AF
  3
*A11
350
B0
  3
*A12
350
B1
  3
*A13
350
B2
  3
*A14
350
B3
  3
*A15
350
B4
  3
*A16
350
B5
  3
*A2
350
A7
  3
*A3
350
A8
  3
*A4
350
A9
  3
*A5
350
AA
  3
*A6
350
AB
  3
*A7
350
AC
  3
*A8
350
AD
  3
*A9
350
AE
  3
A0
350
43
  3
A1
350
44
  3
A2
350
45
  3
A3
350
46
  3
A4
350
47
  3
A5
350
48
  3
A6
350
49
  3
A7
350
4A
  3
A8
350
4B
  3
A9
350
4C
  3
B0
350
4D
  3
B1
350
4E
  3
B2
350
4F
  3
B3
350
50
  3
B4
350
51
  3
B5
350
52
  3
B6
350
53
  0
DICTIONARY
  5
68
102
{ACAD_REACTORS
330
C
102
}
330
C
100
AcDbDictionary
281
     1
  3
Imperial24
350
69
  0
DICTIONARY
  5
64
102
{ACAD_REACTORS
330
C
102
}
330
C
100
AcDbDictionary
281
     1
  3
Standard
350
65
  0
DICTIONARY
  5
29
102
{ACAD_REACTORS
330
C
102
}
330
C
100
AcDbDictionary
281
     1
  3
2dWireframe
350
2F
  3
Basic
350
2E
  3
Brighten
350
35
  3
ColorChange
350
39
  3
Conceptual
350
32
  3
Dim
350
34
  3
EdgeColorOff
350
41
  3
Facepattern
350
38
  3
Flat
350
2A
  3
FlatWithEdges
350
2B
  3
Gouraud
350
2C
  3
GouraudWithEdges
350
2D
  3
Hidden
350
31
  3
JitterOff
350
3F
  3
Linepattern
350
37
  3
OverhangOff
350
40
  3
Realistic
350
33
  3
Shaded
350
3E
  3
Shaded with edges
350
3D
  3
Shades of Gray
350
3A
  3
Sketchy
350
3B
  3
Thicken
350
36
  3
Wireframe
350
30
  3
X-Ray
350
3C
  0
XRECORD
  5
7DD
102
{ACAD_REACTORS
330
C
102
}
330
C
100
AcDbXrecord
280
     1
 90
        1
330
65
330
21F
330
229
330
22A
330
22B
330
22E
330
2CB
330
2CC
330
2CD
330
342
  0
DICTIONARY
  5
7D3
102
{ACAD_REACTORS
330
C
102
}
330
C
100
AcDbDictionary
281
     1
  3
ANNOALLVISIBLE
350
7D8
  3
CANNOSCALE
350
7D9
  3
CMLEADERSTYLE
350
7D5
  3
CTABLESTYLE
350
7D4
  3
CVIEWDETAILSTYLE
350
7D6
  3
CVIEWSECTIONSTYLE
350
7D7
  0
SORTENTSTABLE
  5
20F
102
{ACAD_REACTORS
330
B6
102
}
330
B6
100
AcDbSortentsTable
330
70
  0
SORTENTSTABLE
  5
5ED
102
{ACAD_REACTORS
330
213
102
}
330
213
100
AcDbSortentsTable
330
212
  0
XRECORD
  5
7DC
102
{ACAD_REACTORS
330
2CE
102
}
330
2CE
100
AcDbXrecord
280
     1
 40
1406940.0
  1
\pxi-3,l3,t3;{\fSymbol|b0|i0|c2|p18;·^I}(20) %%C1.181" straight holes\P{\fSymbol|b0|i0|c2|p18;·^I}(20) %%C.669" straight holes\P{\fSymbol|b0|i0|c2|p18;·^I}(5) %%C.512" straight holes
  0
ACDBDETAILVIEWSTYLE
  5
6B
102
{ACAD_XDICTIONARY
360
7E0
102
}
102
{ACAD_REACTORS
330
6A
102
}
330
6A
100
AcDbModelDocViewStyle
 70
     0
  3
Imperial24
290
     0
100
AcDbDetailViewStyle
 70
     0
 71
     0
 90
        3
 71
     1
340
55
 62
   256
 40
0.24
340
0
 62
   256
 40
0.24
300

 40
0.36
280
     3
 71
     2
340
5D
 90
       25
 62
   256
 71
     3
340
55
 62
   256
 40
0.24
 90
        1
 40
0.75
 90
        1
300
%<\AcVar ViewType \f "%tc1">% %<\AcVar ViewDetailId>%\PSCALE %<\AcVar ViewScale \f "%sn">%
 71
     4
340
5D
 90
       25
 62
   256
340
5D
 90
       25
 62
   256
280
     0
  0
IMAGEDEF
  5
218
102
{ACAD_REACTORS
330
219
330
21A
330
736
102
}
330
219
100
AcDbRasterImageDef
 90
        0
  1
morse_logo-16 (1)_01-2018(B)_1_1.jpg
 10
948.0
 20
333.0
 11
0.264583
 21
0.264583
280
     1
281
     5
  0
LAYOUT
  5
73
102
{ACAD_REACTORS
330
62
102
}
330
62
100
AcDbPlotSettings
  1

  2
AutoCAD PDF (High Quality Print).pc3
  4
ANSI_full_bleed_B_(17.00_x_11.00_Inches)
  6

 40
0.0
 41
0.0
 42
0.0
 43
0.0
 44
431.799988
 45
279.399994
 46
0.0
 47
0.0
 48
0.0
 49
0.0
140
0.0
141
0.0
142
1.0
143
1.656881
 70
 11952
 72
     0
 73
     0
 74
     0
  7

 75
     0
147
0.603544
 76
     0
 77
     2
 78
   300
148
153.703315
149
84.898674
100
AcDbLayout
  1
Model
 70
     1
 71
     0
 10
0.0
 20
0.0
 11
12.0
 21
9.0
 12
0.0
 22
0.0
 32
0.0
 14
0.0
 24
0.0
 34
0.0
 15
0.0
 25
0.0
 35
0.0
146
0.0
 13
0.0
 23
0.0
 33
0.0
 16
1.0
 26
0.0
 36
0.0
 17
0.0
 27
1.0
 37
0.0
 76
     0
330
70
1001
ACAD_PSEXT
1000
AutoCAD PDF (High Quality Print).pc3
1000
DWG To PDF
1000
File
1000

1070
     0
  0
LAYOUT
  5
6F
102
{ACAD_REACTORS
330
62
102
}
330
62
100
AcDbPlotSettings
  1

  2
None
  4

  6

 40
0.0
 41
0.0
 42
0.0
 43
0.0
 44
0.0
 45
0.0
 46
0.0
 47
0.0
 48
0.0
 49
0.0
140
0.0
141
0.0
142
1.0
143
1.0
 70
   688
 72
     0
 73
     0
 74
     5
  7

 75
    16
147
1.0
 76
     0
 77
     2
 78
   300
148
0.0
149
0.0
100
AcDbLayout
  1
Sheet1
 70
     1
 71
     1
 10
0.0
 20
0.0
 11
12.0
 21
9.0
 12
0.0
 22
0.0
 32
0.0
 14
0.0
 24
0.0
 34
0.0
 15
0.0
 25
0.0
 35
0.0
146
0.0
 13
0.0
 23
0.0
 33
0.0
 16
1.0
 26
0.0
 36
0.0
 17
0.0
 27
1.0
 37
0.0
 76
     0
330
6C
  0
LAYOUT
  5
77
102
{ACAD_REACTORS
330
62
102
}
330
62
100
AcDbPlotSettings
  1

  2
None
  4

  6

 40
0.0
 41
0.0
 42
0.0
 43
0.0
 44
0.0
 45
0.0
 46
0.0
 47
0.0
 48
0.0
 49
0.0
140
0.0
141
0.0
142
1.0
143
1.0
 70
   688
 72
     0
 73
     0
 74
     5
  7

 75
    16
147
1.0
 76
     0
 77
     2
 78
   300
148
0.0
149
0.0
100
AcDbLayout
  1
Sheet2
 70
     1
 71
     2
 10
0.0
 20
0.0
 11
12.0
 21
9.0
 12
0.0
 22
0.0
 32
0.0
 14
0.0
 24
0.0
 34
0.0
 15
0.0
 25
0.0
 35
0.0
146
0.0
 13
0.0
 23
0.0
 33
0.0
 16
1.0
 26
0.0
 36
0.0
 17
0.0
 27
1.0
 37
0.0
 76
     0
330
74
  0
MATERIAL
  5
19
102
{ACAD_XDICTIONARY
360
1A
102
}
102
{ACAD_REACTORS
330
10
102
}
330
10
100
AcDbMaterial
  1
ByBlock
 72
     0
 43
0.020833
 43
0.0
 43
0.0
 43
0.0
 43
0.0
 43
0.020833
 43
0.0
 43
0.0
 43
0.0
 43
0.0
 43
1.0
 43
0.0
 43
0.0
 43
0.0
 43
0.0
 43
1.0
 77
     0
 47
0.020833
 47
0.0
 47
0.0
 47
0.0
 47
0.0
 47
0.020833
 47
0.0
 47
0.0
 47
0.0
 47
0.0
 47
1.0
 47
0.0
 47
0.0
 47
0.0
 47
0.0
 47
1.0
171
     0
 49
0.020833
 49
0.0
 49
0.0
 49
0.0
 49
0.0
 49
0.020833
 49
0.0
 49
0.0
 49
0.0
 49
0.0
 49
1.0
 49
0.0
 49
0.0
 49
0.0
 49
0.0
 49
1.0
175
     0
142
0.020833
142
0.0
142
0.0
142
0.0
142
0.0
142
0.020833
142
0.0
142
0.0
142
0.0
142
0.0
142
1.0
142
0.0
142
0.0
142
0.0
142
0.0
142
1.0
179
     0
144
0.020833
144
0.0
144
0.0
144
0.0
144
0.0
144
0.020833
144
0.0
144
0.0
144
0.0
144
0.0
144
1.0
144
0.0
144
0.0
144
0.0
144
0.0
144
1.0
147
0.020833
147
0.0
147
0.0
147
0.0
147
0.0
147
0.020833
147
0.0
147
0.0
147
0.0
147
0.0
147
1.0
147
0.0
147
0.0
147
0.0
147
0.0
147
1.0
  0
MATERIAL
  5
11
102
{ACAD_XDICTIONARY
360
12
102
}
102
{ACAD_REACTORS
330
10
102
}
330
10
100
AcDbMaterial
  1
ByLayer
 72
     0
 43
0.020833
 43
0.0
 43
0.0
 43
0.0
 43
0.0
 43
0.020833
 43
0.0
 43
0.0
 43
0.0
 43
0.0
 43
1.0
 43
0.0
 43
0.0
 43
0.0
 43
0.0
 43
1.0
 77
     0
 47
0.020833
 47
0.0
 47
0.0
 47
0.0
 47
0.0
 47
0.020833
 47
0.0
 47
0.0
 47
0.0
 47
0.0
 47
1.0
 47
0.0
 47
0.0
 47
0.0
 47
0.0
 47
1.0
171
     0
 49
0.020833
 49
0.0
 49
0.0
 49
0.0
 49
0.0
 49
0.020833
 49
0.0
 49
0.0
 49
0.0
 49
0.0
 49
1.0
 49
0.0
 49
0.0
 49
0.0
 49
0.0
 49
1.0
175
     0
142
0.020833
142
0.0
142
0.0
142
0.0
142
0.0
142
0.020833
142
0.0
142
0.0
142
0.0
142
0.0
142
1.0
142
0.0
142
0.0
142
0.0
142
0.0
142
1.0
179
     0
144
0.020833
144
0.0
144
0.0
144
0.0
144
0.0
144
0.020833
144
0.0
144
0.0
144
0.0
144
0.0
144
1.0
144
0.0
144
0.0
144
0.0
144
0.0
144
1.0
147
0.020833
147
0.0
147
0.0
147
0.0
147
0.0
147
0.020833
147
0.0
147
0.0
147
0.0
147
0.0
147
1.0
147
0.0
147
0.0
147
0.0
147
0.0
147
1.0
  0
MATERIAL
  5
21
102
{ACAD_XDICTIONARY
360
22
102
}
102
{ACAD_REACTORS
330
10
102
}
330
10
100
AcDbMaterial
  1
Global
 72
     0
 43
0.020833
 43
0.0
 43
0.0
 43
0.0
 43
0.0
 43
0.020833
 43
0.0
 43
0.0
 43
0.0
 43
0.0
 43
1.0
 43
0.0
 43
0.0
 43
0.0
 43
0.0
 43
1.0
 77
     0
 47
0.020833
 47
0.0
 47
0.0
 47
0.0
 47
0.0
 47
0.020833
 47
0.0
 47
0.0
 47
0.0
 47
0.0
 47
1.0
 47
0.0
 47
0.0
 47
0.0
 47
0.0
 47
1.0
171
     0
 49
0.020833
 49
0.0
 49
0.0
 49
0.0
 49
0.0
 49
0.020833
 49
0.0
 49
0.0
 49
0.0
 49
0.0
 49
1.0
 49
0.0
 49
0.0
 49
0.0
 49
0.0
 49
1.0
175
     0
142
0.020833
142
0.0
142
0.0
142
0.0
142
0.0
142
0.020833
142
0.0
142
0.0
142
0.0
142
0.0
142
1.0
142
0.0
142
0.0
142
0.0
142
0.0
142
1.0
179
     0
144
0.020833
144
0.0
144
0.0
144
0.0
144
0.0
144
0.020833
144
0.0
144
0.0
144
0.0
144
0.0
144
1.0
144
0.0
144
0.0
144
0.0
144
0.0
144
1.0
147
0.020833
147
0.0
147
0.0
147
0.0
147
0.0
147
0.020833
147
0.0
147
0.0
147
0.0
147
0.0
147
1.0
147
0.0
147
0.0
147
0.0
147
0.0
147
1.0
  0
MLEADERSTYLE
  5
67
102
{ACAD_REACTORS
330
66
102
}
330
66
100
AcDbMLeaderStyle
179
     2
170
     2
171
     1
172
     0
 90
        2
 40
0.0
 41
0.0
173
     1
 91
-1056964608
340
5B
 92
       -2
290
     1
 42
0.09
291
     1
 43
0.36
  3
Standard
 44
0.18
300

342
55
174
     1
178
     6
175
     1
176
     0
 93
-1056964608
 45
0.18
292
     0
297
     0
 46
0.18
 94
-1056964608
 47
1.0
 49
1.0
140
1.0
293
     1
141
0.0
294
     1
177
     0
142
1.0
295
     0
296
     0
143
0.125
271
     0
272
     9
273
     9
298
     1
  0
MLINESTYLE
  5
60
102
{ACAD_REACTORS
330
5F
102
}
330
5F
100
AcDbMlineStyle
  2
STANDARD
 70
     0
  3

 62
   256
 51
90.0
 52
90.0
 71
     0
  0
ACDBPLACEHOLDER
  5
F
102
{ACAD_REACTORS
330
E
102
}
330
E
  0
SCALE
  5
A6
102
{ACAD_REACTORS
330
42
102
}
330
42
100
AcDbScale
 70
     0
300
1:2
140
1.0
141
2.0
290
     0
  0
SCALE
  5
AF
102
{ACAD_REACTORS
330
42
102
}
330
42
100
AcDbScale
 70
     0
300
1:50
140
1.0
141
50.0
290
     0
  0
SCALE
  5
B0
102
{ACAD_REACTORS
330
42
102
}
330
42
100
AcDbScale
 70
     0
300
1:100
140
1.0
141
100.0
290
     0
  0
SCALE
  5
B1
102
{ACAD_REACTORS
330
42
102
}
330
42
100
AcDbScale
 70
     0
300
2:1
140
2.0
141
1.0
290
     0
  0
SCALE
  5
B2
102
{ACAD_REACTORS
330
42
102
}
330
42
100
AcDbScale
 70
     0
300
4:1
140
4.0
141
1.0
290
     0
  0
SCALE
  5
B3
102
{ACAD_REACTORS
330
42
102
}
330
42
100
AcDbScale
 70
     0
300
8:1
140
8.0
141
1.0
290
     0
  0
SCALE
  5
B4
102
{ACAD_REACTORS
330
42
102
}
330
42
100
AcDbScale
 70
     0
300
10:1
140
10.0
141
1.0
290
     0
  0
SCALE
  5
B5
102
{ACAD_REACTORS
330
42
102
}
330
42
100
AcDbScale
 70
     0
300
100:1
140
100.0
141
1.0
290
     0
  0
SCALE
  5
A7
102
{ACAD_REACTORS
330
42
102
}
330
42
100
AcDbScale
 70
     0
300
1:4
140
1.0
141
4.0
290
     0
  0
SCALE
  5
A8
102
{ACAD_REACTORS
330
42
102
}
330
42
100
AcDbScale
 70
     0
300
1:5
140
1.0
141
5.0
290
     0
  0
SCALE
  5
A9
102
{ACAD_REACTORS
330
42
102
}
330
42
100
AcDbScale
 70
     0
300
1:8
140
1.0
141
8.0
290
     0
  0
SCALE
  5
AA
102
{ACAD_REACTORS
330
42
102
}
330
42
100
AcDbScale
 70
     0
300
1:10
140
1.0
141
10.0
290
     0
  0
SCALE
  5
AB
102
{ACAD_REACTORS
330
42
102
}
330
42
100
AcDbScale
 70
     0
300
1:16
140
1.0
141
16.0
290
     0
  0
SCALE
  5
AC
102
{ACAD_REACTORS
330
42
102
}
330
42
100
AcDbScale
 70
     0
300
1:20
140
1.0
141
20.0
290
     0
  0
SCALE
  5
AD
102
{ACAD_REACTORS
330
42
102
}
330
42
100
AcDbScale
 70
     0
300
1:30
140
1.0
141
30.0
290
     0
  0
SCALE
  5
AE
102
{ACAD_REACTORS
330
42
102
}
330
42
100
AcDbScale
 70
     0
300
1:40
140
1.0
141
40.0
290
     0
  0
SCALE
  5
43
102
{ACAD_REACTORS
330
42
102
}
330
42
100
AcDbScale
 70
     0
300
1:1
140
1.0
141
1.0
290
     1
  0
SCALE
  5
44
102
{ACAD_REACTORS
330
42
102
}
330
42
100
AcDbScale
 70
     0
300
1/128" = 1'-0"
140
0.007813
141
12.0
290
     0
  0
SCALE
  5
45
102
{ACAD_REACTORS
330
42
102
}
330
42
100
AcDbScale
 70
     0
300
1/64" = 1'-0"
140
0.015625
141
12.0
290
     0
  0
SCALE
  5
46
102
{ACAD_REACTORS
330
42
102
}
330
42
100
AcDbScale
 70
     0
300
1/32" = 1'-0"
140
0.03125
141
12.0
290
     0
  0
SCALE
  5
47
102
{ACAD_REACTORS
330
42
102
}
330
42
100
AcDbScale
 70
     0
300
1/16" = 1'-0"
140
0.0625
141
12.0
290
     0
  0
SCALE
  5
48
102
{ACAD_REACTORS
330
42
102
}
330
42
100
AcDbScale
 70
     0
300
3/32" = 1'-0"
140
0.09375
141
12.0
290
     0
  0
SCALE
  5
49
102
{ACAD_REACTORS
330
42
102
}
330
42
100
AcDbScale
 70
     0
300
1/8" = 1'-0"
140
0.125
141
12.0
290
     0
  0
SCALE
  5
4A
102
{ACAD_REACTORS
330
42
102
}
330
42
100
AcDbScale
 70
     0
300
3/16" = 1'-0"
140
0.1875
141
12.0
290
     0
  0
SCALE
  5
4B
102
{ACAD_REACTORS
330
42
102
}
330
42
100
AcDbScale
 70
     0
300
1/4" = 1'-0"
140
0.25
141
12.0
290
     0
  0
SCALE
  5
4C
102
{ACAD_REACTORS
330
42
102
}
330
42
100
AcDbScale
 70
     0
300
3/8" = 1'-0"
140
0.375
141
12.0
290
     0
  0
SCALE
  5
4D
102
{ACAD_REACTORS
330
42
102
}
330
42
100
AcDbScale
 70
     0
300
1/2" = 1'-0"
140
0.5
141
12.0
290
     0
  0
SCALE
  5
4E
102
{ACAD_REACTORS
330
42
102
}
330
42
100
AcDbScale
 70
     0
300
3/4" = 1'-0"
140
0.75
141
12.0
290
     0
  0
SCALE
  5
4F
102
{ACAD_REACTORS
330
42
102
}
330
42
100
AcDbScale
 70
     0
300
1" = 1'-0"
140
1.0
141
12.0
290
     0
  0
SCALE
  5
50
102
{ACAD_REACTORS
330
42
102
}
330
42
100
AcDbScale
 70
     0
300
1-1/2" = 1'-0"
140
1.5
141
12.0
290
     0
  0
SCALE
  5
51
102
{ACAD_REACTORS
330
42
102
}
330
42
100
AcDbScale
 70
     0
300
3" = 1'-0"
140
3.0
141
12.0
290
     0
  0
SCALE
  5
52
102
{ACAD_REACTORS
330
42
102
}
330
42
100
AcDbScale
 70
     0
300
6" = 1'-0"
140
6.0
141
12.0
290
     0
  0
SCALE
  5
53
102
{ACAD_REACTORS
330
42
102
}
330
42
100
AcDbScale
 70
     0
300
1'-0" = 1'-0"
140
12.0
141
12.0
290
     0
  0
ACDBSECTIONVIEWSTYLE
  5
69
102
{ACAD_XDICTIONARY
360
7DE
102
}
102
{ACAD_REACTORS
330
68
102
}
330
68
100
AcDbModelDocViewStyle
 70
     0
  3
Imperial24
290
     0
100
AcDbSectionViewStyle
 70
     0
 71
     0
 90
       78
 71
     1
340
55
 62
   256
 40
0.24
340
0
340
0
 62
   256
 40
0.24
300
I, O, Q, S, X, Z
 40
0.48
 90
        3
 40
0.18
 90
        1
 71
     2
340
5D
 90
       25
 62
   256
340
5D
 90
       50
 62
   256
 40
0.24
 40
0.0
 40
0.24
 71
     3
340
55
 62
   256
 40
0.24
 90
        1
 40
0.75
 90
        1
300
%<\AcVar ViewType \f "%tc1">% %<\AcVar ViewSectionStartId>%-%<\AcVar ViewSectionEndId>%\PSCALE %<\AcVar ViewScale \f "%sn">%
 71
     4
 62
   256
 62
   257
300
ANSI31
 40
1.0
 90
        0
290
     0
290
     0
 90
        6
 40
0.0
 40
1.570796
 40
0.261799
 40
1.308997
 40
-0.261799
 40
1.832596
  0
TABLESTYLE
  5
65
102
{ACAD_XDICTIONARY
360
7DA
102
}
102
{ACAD_REACTORS
330
64
102
}
330
64
100
AcDbTableStyle
280
     0
  3
Standard
 70
     0
 71
     0
 40
0.06
 41
0.06
280
     0
281
     0
  7
Standard
140
0.18
170
     2
 62
     0
 63
     7
283
     0
 90
      512
 91
        0
  1

274
    -2
284
     1
 64
     0
275
    -2
285
     1
 65
     0
276
    -2
286
     1
 66
     0
277
    -2
287
     1
 67
     0
278
    -2
288
     1
 68
     0
279
    -2
289
     1
 69
     0
  7
Standard
140
0.25
170
     5
 62
     0
 63
     7
283
     0
 90
      512
 91
        0
  1

274
    -2
284
     1
 64
     0
275
    -2
285
     1
 65
     0
276
    -2
286
     1
 66
     0
277
    -2
287
     1
 67
     0
278
    -2
288
     1
 68
     0
279
    -2
289
     1
 69
     0
  7
Standard
140
0.18
170
     5
 62
     0
 63
     7
283
     0
 90
      512
 91
        0
  1

274
    -2
284
     1
 64
     0
275
    -2
285
     1
 65
     0
276
    -2
286
     1
 66
     0
277
    -2
287
     1
 67
     0
278
    -2
288
     1
 68
     0
279
    -2
289
     1
 69
     0
  0
VISUALSTYLE
  5
2F
102
{ACAD_REACTORS
330
29
102
}
330
29
100
AcDbVisualStyle
  2
2dWireframe
 70
     4
177
     3
291
     0
 70
    58
 90
        0
176
     1
 90
        2
176
     1
 90
        0
176
     1
 90
        0
176
     1
 40
0.6
176
     1
 40
30.0
176
     1
 62
     7
420
 16777215
176
     1
 90
        1
176
     1
 90
        4
176
     1
 62
     7
176
     1
 62
   257
176
     1
 90
        1
176
     1
 90
        1
176
     1
 40
1.0
176
     1
 90
        0
176
     1
 62
   257
176
     1
 40
1.0
176
     1
 90
        1
176
     1
 90
        6
176
     1
 90
        2
176
     1
 62
     7
176
     1
 90
        5
176
     1
 90
        0
176
     1
 90
        0
176
     1
290
     0
176
     1
 90
        1
176
     1
 40
0.0
176
     1
 90
        0
176
     1
290
     1
176
     1
290
     1
176
     1
290
     0
176
     1
290
     0
176
     1
290
     0
176
     1
290
     0
176
     1
290
     0
176
     1
290
     0
176
     1
290
     0
176
     1
 90
       50
176
     1
 40
0.0
176
     1
 40
1.0
176
     1
 90
        0
176
     1
 62
    18
420
        0
176
     1
 90
       50
176
     1
 90
        3
176
     1
 62
     5
420
      255
176
     1
290
     0
176
     1
 90
       50
176
     1
 90
       50
176
     1
 90
       50
176
     1
290
     0
176
     1
 90
       50
176
     1
 62
   256
176
     0
 40
1.0
176
     0
 90
        2
176
     1
  1
strokes_ogs.tif
176
     1
290
     0
176
     1
 40
1.0
176
     1
 40
1.0
176
     1
1001
ACAD
1000
AcDbSavedByObjectVersion
1070
     0
  0
VISUALSTYLE
  5
2E
102
{ACAD_REACTORS
330
29
102
}
330
29
100
AcDbVisualStyle
  2
Basic
 70
     7
177
     3
291
     1
 70
    58
 90
        1
176
     1
 90
        0
176
     1
 90
        1
176
     1
 90
        0
176
     1
 40
0.6
176
     1
 40
30.0
176
     1
 62
     7
420
 16777215
176
     1
 90
        0
176
     1
 90
        4
176
     1
 62
     7
176
     1
 62
   257
176
     1
 90
        1
176
     1
 90
        1
176
     1
 40
1.0
176
     1
 90
        8
176
     1
 62
     7
176
     1
 40
1.0
176
     1
 90
        1
176
     1
 90
        6
176
     1
 90
        2
176
     1
 62
     7
176
     1
 90
        5
176
     1
 90
        0
176
     1
 90
        0
176
     1
290
     0
176
     1
 90
        1
176
     1
 40
0.0
176
     1
 90
        0
176
     1
290
     0
176
     1
290
     1
176
     1
290
     1
176
     1
290
     0
176
     1
290
     0
176
     1
290
     0
176
     1
290
     0
176
     1
290
     0
176
     1
290
     0
176
     1
 90
       50
176
     1
 40
0.0
176
     1
 40
1.0
176
     1
 90
        0
176
     1
 62
    18
420
        0
176
     1
 90
       50
176
     1
 90
        3
176
     1
 62
     5
420
      255
176
     1
290
     0
176
     1
 90
       50
176
     1
 90
       50
176
     1
 90
       50
176
     1
290
     0
176
     1
 90
       50
176
     1
 62
   256
176
     0
 40
1.0
176
     0
 90
        2
176
     1
  1
strokes_ogs.tif
176
     1
290
     0
176
     1
 40
1.0
176
     1
 40
1.0
176
     1
1001
ACAD
1000
AcDbSavedByObjectVersion
1070
     0
  0
VISUALSTYLE
  5
35
102
{ACAD_REACTORS
330
29
102
}
330
29
100
AcDbVisualStyle
  2
Brighten
 70
    12
177
     3
291
     1
 70
    58
 90
        2
176
     1
 90
        2
176
     1
 90
        0
176
     1
 90
        0
176
     1
 40
0.6
176
     1
 40
30.0
176
     1
 62
     7
420
 16777215
176
     1
 90
        1
176
     1
 90
        4
176
     1
 62
     7
176
     1
 62
   257
176
     1
 90
        1
176
     1
 90
        1
176
     1
 40
1.0
176
     1
 90
        8
176
     1
 62
     7
176
     1
 40
1.0
176
     1
 90
        1
176
     1
 90
        6
176
     1
 90
        2
176
     1
 62
     7
176
     1
 90
        5
176
     1
 90
        0
176
     1
 90
        0
176
     1
290
     0
176
     1
 90
        1
176
     1
 40
50.0
176
     1
 90
        0
176
     1
290
     0
176
     1
290
     1
176
     1
290
     1
176
     1
290
     0
176
     1
290
     0
176
     1
290
     0
176
     1
290
     0
176
     1
290
     0
176
     1
290
     0
176
     1
 90
       50
176
     1
 40
0.0
176
     1
 40
1.0
176
     1
 90
        0
176
     1
 62
    18
420
        0
176
     1
 90
       50
176
     1
 90
        3
176
     1
 62
     5
420
      255
176
     1
290
     0
176
     1
 90
       50
176
     1
 90
       50
176
     1
 90
       50
176
     1
290
     0
176
     1
 90
       50
176
     1
 62
   256
176
     0
 40
1.0
176
     0
 90
        2
176
     1
  1
strokes_ogs.tif
176
     1
290
     0
176
     1
 40
1.0
176
     1
 40
1.0
176
     1
1001
ACAD
1000
AcDbSavedByObjectVersion
1070
     0
  0
VISUALSTYLE
  5
39
102
{ACAD_REACTORS
330
29
102
}
330
29
100
AcDbVisualStyle
  2
ColorChange
 70
    16
177
     3
291
     1
 70
    58
 90
        2
176
     1
 90
        2
176
     1
 90
        3
176
     1
 90
        0
176
     1
 40
0.6
176
     1
 40
30.0
176
     1
 62
     8
420
  8421504
176
     1
 90
        1
176
     1
 90
        4
176
     1
 62
     7
176
     1
 62
   257
176
     1
 90
        1
176
     1
 90
        1
176
     1
 40
1.0
176
     1
 90
        8
176
     1
 62
     8
420
  8421504
176
     1
 40
1.0
176
     1
 90
        1
176
     1
 90
        6
176
     1
 90
        2
176
     1
 62
     7
176
     1
 90
        5
176
     1
 90
        0
176
     1
 90
        0
176
     1
290
     0
176
     1
 90
        1
176
     1
 40
0.0
176
     1
 90
        0
176
     1
290
     0
176
     1
290
     1
176
     1
290
     1
176
     1
290
     0
176
     1
290
     0
176
     1
290
     0
176
     1
290
     0
176
     1
290
     0
176
     1
290
     0
176
     1
 90
       50
176
     1
 40
0.0
176
     1
 40
1.0
176
     1
 90
        0
176
     1
 62
    18
420
        0
176
     1
 90
       50
176
     1
 90
        3
176
     1
 62
     5
420
      255
176
     1
290
     0
176
     1
 90
       50
176
     1
 90
       50
176
     1
 90
       50
176
     1
290
     0
176
     1
 90
       50
176
     1
 62
   256
176
     0
 40
1.0
176
     0
 90
        2
176
     1
  1
strokes_ogs.tif
176
     1
290
     0
176
     1
 40
1.0
176
     1
 40
1.0
176
     1
1001
ACAD
1000
AcDbSavedByObjectVersion
1070
     0
  0
VISUALSTYLE
  5
32
102
{ACAD_REACTORS
330
29
102
}
330
29
100
AcDbVisualStyle
  2
Conceptual
 70
     9
177
     3
291
     0
 70
    58
 90
        3
176
     1
 90
        2
176
     1
 90
        0
176
     1
 90
        0
176
     1
 40
0.6
176
     1
 40
30.0
176
     1
 62
     7
420
 16777215
176
     1
 90
        2
176
     1
 90
        2
176
     1
 62
     7
176
     1
 62
   257
176
     1
 90
        1
176
     1
 90
        1
176
     1
 40
179.0
176
     1
 90
        8
176
     1
 62
     7
176
     1
 40
1.0
176
     1
 90
        1
176
     1
 90
        6
176
     1
 90
        2
176
     1
 62
     7
176
     1
 90
        3
176
     1
 90
        0
176
     1
 90
        0
176
     1
290
     0
176
     1
 90
        1
176
     1
 40
0.0
176
     1
 90
        0
176
     1
290
     0
176
     1
290
     1
176
     1
290
     1
176
     1
290
     0
176
     1
290
     0
176
     1
290
     0
176
     1
290
     0
176
     1
290
     0
176
     1
290
     0
176
     1
 90
       50
176
     1
 40
0.0
176
     1
 40
1.0
176
     1
 90
        0
176
     1
 62
    18
420
        0
176
     1
 90
       50
176
     1
 90
        3
176
     1
 62
     5
420
      255
176
     1
290
     0
176
     1
 90
       50
176
     1
 90
       50
176
     1
 90
       50
176
     1
290
     0
176
     1
 90
       50
176
     1
 62
   256
176
     0
 40
1.0
176
     0
 90
        2
176
     1
  1
strokes_ogs.tif
176
     1
290
     0
176
     1
 40
1.0
176
     1
 40
1.0
176
     1
1001
ACAD
1000
AcDbSavedByObjectVersion
1070
     0
  0
VISUALSTYLE
  5
34
102
{ACAD_REACTORS
330
29
102
}
330
29
100
AcDbVisualStyle
  2
Dim
 70
    11
177
     3
291
     1
 70
    58
 90
        2
176
     1
 90
        2
176
     1
 90
        0
176
     1
 90
        0
176
     1
 40
0.6
176
     1
 40
30.0
176
     1
 62
     7
420
 16777215
176
     1
 90
        1
176
     1
 90
        4
176
     1
 62
     7
176
     1
 62
   257
176
     1
 90
        1
176
     1
 90
        1
176
     1
 40
1.0
176
     1
 90
        8
176
     1
 62
     7
176
     1
 40
1.0
176
     1
 90
        1
176
     1
 90
        6
176
     1
 90
        2
176
     1
 62
     7
176
     1
 90
        5
176
     1
 90
        0
176
     1
 90
        0
176
     1
290
     0
176
     1
 90
        1
176
     1
 40
-50.0
176
     1
 90
        0
176
     1
290
     0
176
     1
290
     1
176
     1
290
     1
176
     1
290
     0
176
     1
290
     0
176
     1
290
     0
176
     1
290
     0
176
     1
290
     0
176
     1
290
     0
176
     1
 90
       50
176
     1
 40
0.0
176
     1
 40
1.0
176
     1
 90
        0
176
     1
 62
    18
420
        0
176
     1
 90
       50
176
     1
 90
        3
176
     1
 62
     5
420
      255
176
     1
290
     0
176
     1
 90
       50
176
     1
 90
       50
176
     1
 90
       50
176
     1
290
     0
176
     1
 90
       50
176
     1
 62
   256
176
     0
 40
1.0
176
     0
 90
        2
176
     1
  1
strokes_ogs.tif
176
     1
290
     0
176
     1
 40
1.0
176
     1
 40
1.0
176
     1
1001
ACAD
1000
AcDbSavedByObjectVersion
1070
     0
  0
VISUALSTYLE
  5
41
102
{ACAD_REACTORS
330
29
102
}
330
29
100
AcDbVisualStyle
  2
EdgeColorOff
 70
    22
177
     3
291
     1
 70
    58
 90
        2
176
     0
 90
        2
176
     0
 90
        0
176
     0
 90
        0
176
     0
 40
0.6
176
     0
 40
30.0
176
     0
 62
     7
420
 16777215
176
     0
 90
        1
176
     0
 90
        4
176
     0
 62
     7
176
     0
 62
   257
176
     0
 90
        1
176
     0
 90
        1
176
     0
 40
1.0
176
     0
 90
        8
176
     2
 62
     7
176
     0
 40
1.0
176
     0
 90
        1
176
     0
 90
        6
176
     0
 90
        2
176
     0
 62
     7
176
     0
 90
        5
176
     0
 90
        0
176
     0
 90
        0
176
     0
290
     0
176
     0
 90
        1
176
     0
 40
0.0
176
     0
 90
        0
176
     0
290
     0
176
     0
290
     1
176
     0
290
     1
176
     0
290
     0
176
     0
290
     0
176
     0
290
     0
176
     0
290
     0
176
     0
290
     0
176
     0
290
     0
176
     0
 90
       50
176
     0
 40
0.0
176
     0
 40
1.0
176
     0
 90
        0
176
     0
 62
    18
420
        0
176
     0
 90
       50
176
     0
 90
        3
176
     0
 62
     5
420
      255
176
     0
290
     0
176
     0
 90
       50
176
     0
 90
       50
176
     0
 90
       50
176
     0
290
     0
176
     0
 90
       50
176
     0
 62
   256
176
     0
 40
1.0
176
     0
 90
        2
176
     0
  1
strokes_ogs.tif
176
     0
290
     0
176
     0
 40
1.0
176
     0
 40
1.0
176
     0
1001
ACAD
1000
AcDbSavedByObjectVersion
1070
     0
  0
VISUALSTYLE
  5
38
102
{ACAD_REACTORS
330
29
102
}
330
29
100
AcDbVisualStyle
  2
Facepattern
 70
    15
177
     3
291
     1
 70
    58
 90
        2
176
     1
 90
        2
176
     1
 90
        0
176
     1
 90
        0
176
     1
 40
0.6
176
     1
 40
30.0
176
     1
 62
     7
420
 16777215
176
     1
 90
        1
176
     1
 90
        4
176
     1
 62
     7
176
     1
 62
   257
176
     1
 90
        1
176
     1
 90
        1
176
     1
 40
1.0
176
     1
 90
        8
176
     1
 62
     7
176
     1
 40
1.0
176
     1
 90
        1
176
     1
 90
        6
176
     1
 90
        2
176
     1
 62
     7
176
     1
 90
        5
176
     1
 90
        0
176
     1
 90
        0
176
     1
290
     0
176
     1
 90
        1
176
     1
 40
0.0
176
     1
 90
        0
176
     1
290
     0
176
     1
290
     1
176
     1
290
     1
176
     1
290
     0
176
     1
290
     0
176
     1
290
     0
176
     1
290
     0
176
     1
290
     0
176
     1
290
     0
176
     1
 90
       50
176
     1
 40
0.0
176
     1
 40
1.0
176
     1
 90
        0
176
     1
 62
    18
420
        0
176
     1
 90
       50
176
     1
 90
        3
176
     1
 62
     5
420
      255
176
     1
290
     0
176
     1
 90
       50
176
     1
 90
       50
176
     1
 90
       50
176
     1
290
     0
176
     1
 90
       50
176
     1
 62
   256
176
     0
 40
1.0
176
     0
 90
        2
176
     1
  1
strokes_ogs.tif
176
     1
290
     0
176
     1
 40
1.0
176
     1
 40
1.0
176
     1
1001
ACAD
1000
AcDbSavedByObjectVersion
1070
     0
  0
VISUALSTYLE
  5
2A
102
{ACAD_REACTORS
330
29
102
}
330
29
100
AcDbVisualStyle
  2
Flat
 70
     0
177
     3
291
     1
 70
    58
 90
        2
176
     1
 90
        1
176
     1
 90
        1
176
     1
 90
        2
176
     1
 40
0.6
176
     1
 40
30.0
176
     1
 62
     7
420
 16777215
176
     1
 90
        0
176
     1
 90
        0
176
     1
 62
     7
176
     1
 62
   257
176
     1
 90
        1
176
     1
 90
        1
176
     1
 40
1.0
176
     1
 90
        8
176
     1
 62
     7
176
     1
 40
1.0
176
     1
 90
        1
176
     1
 90
        6
176
     1
 90
        2
176
     1
 62
     7
176
     1
 90
        5
176
     1
 90
        0
176
     1
 90
        0
176
     1
290
     0
176
     1
 90
       13
176
     1
 40
0.0
176
     1
 90
        0
176
     1
290
     0
176
     1
290
     1
176
     1
290
     1
176
     1
290
     0
176
     1
290
     0
176
     1
290
     0
176
     1
290
     0
176
     1
290
     0
176
     1
290
     0
176
     1
 90
       50
176
     1
 40
0.0
176
     1
 40
1.0
176
     1
 90
        0
176
     1
 62
    18
420
        0
176
     1
 90
       50
176
     1
 90
        3
176
     1
 62
     5
420
      255
176
     1
290
     0
176
     1
 90
       50
176
     1
 90
       50
176
     1
 90
       50
176
     1
290
     0
176
     1
 90
       50
176
     1
 62
   256
176
     0
 40
1.0
176
     0
 90
        2
176
     1
  1
strokes_ogs.tif
176
     1
290
     0
176
     1
 40
1.0
176
     1
 40
1.0
176
     1
1001
ACAD
1000
AcDbSavedByObjectVersion
1070
     0
  0
VISUALSTYLE
  5
2B
102
{ACAD_REACTORS
330
29
102
}
330
29
100
AcDbVisualStyle
  2
FlatWithEdges
 70
     1
177
     3
291
     1
 70
    58
 90
        2
176
     1
 90
        1
176
     1
 90
        1
176
     1
 90
        2
176
     1
 40
0.6
176
     1
 40
30.0
176
     1
 62
     7
420
 16777215
176
     1
 90
        1
176
     1
 90
        0
176
     1
 62
     7
176
     1
 62
   257
176
     1
 90
        1
176
     1
 90
        1
176
     1
 40
1.0
176
     1
 90
        0
176
     1
 62
   257
176
     1
 40
1.0
176
     1
 90
        1
176
     1
 90
        6
176
     1
 90
        2
176
     1
 62
     7
176
     1
 90
        5
176
     1
 90
        0
176
     1
 90
        0
176
     1
290
     0
176
     1
 90
       13
176
     1
 40
0.0
176
     1
 90
        0
176
     1
290
     0
176
     1
290
     1
176
     1
290
     1
176
     1
290
     0
176
     1
290
     0
176
     1
290
     0
176
     1
290
     0
176
     1
290
     0
176
     1
290
     0
176
     1
 90
       50
176
     1
 40
0.0
176
     1
 40
1.0
176
     1
 90
        0
176
     1
 62
    18
420
        0
176
     1
 90
       50
176
     1
 90
        3
176
     1
 62
     5
420
      255
176
     1
290
     0
176
     1
 90
       50
176
     1
 90
       50
176
     1
 90
       50
176
     1
290
     0
176
     1
 90
       50
176
     1
 62
   256
176
     0
 40
1.0
176
     0
 90
        2
176
     1
  1
strokes_ogs.tif
176
     1
290
     0
176
     1
 40
1.0
176
     1
 40
1.0
176
     1
1001
ACAD
1000
AcDbSavedByObjectVersion
1070
     0
  0
VISUALSTYLE
  5
2C
102
{ACAD_REACTORS
330
29
102
}
330
29
100
AcDbVisualStyle
  2
Gouraud
 70
     2
177
     3
291
     1
 70
    58
 90
        2
176
     1
 90
        2
176
     1
 90
        1
176
     1
 90
        2
176
     1
 40
0.6
176
     1
 40
30.0
176
     1
 62
     7
420
 16777215
176
     1
 90
        0
176
     1
 90
        0
176
     1
 62
     7
176
     1
 62
   257
176
     1
 90
        1
176
     1
 90
        1
176
     1
 40
1.0
176
     1
 90
        0
176
     1
 62
     7
176
     1
 40
1.0
176
     1
 90
        1
176
     1
 90
        6
176
     1
 90
        2
176
     1
 62
     7
176
     1
 90
        5
176
     1
 90
        0
176
     1
 90
        0
176
     1
290
     0
176
     1
 90
       13
176
     1
 40
0.0
176
     1
 90
        0
176
     1
290
     0
176
     1
290
     1
176
     1
290
     1
176
     1
290
     0
176
     1
290
     0
176
     1
290
     0
176
     1
290
     0
176
     1
290
     0
176
     1
290
     0
176
     1
 90
       50
176
     1
 40
0.0
176
     1
 40
1.0
176
     1
 90
        0
176
     1
 62
    18
420
        0
176
     1
 90
       50
176
     1
 90
        3
176
     1
 62
     5
420
      255
176
     1
290
     0
176
     1
 90
       50
176
     1
 90
       50
176
     1
 90
       50
176
     1
290
     0
176
     1
 90
       50
176
     1
 62
   256
176
     0
 40
1.0
176
     0
 90
        2
176
     1
  1
strokes_ogs.tif
176
     1
290
     0
176
     1
 40
1.0
176
     1
 40
1.0
176
     1
1001
ACAD
1000
AcDbSavedByObjectVersion
1070
     0
  0
VISUALSTYLE
  5
2D
102
{ACAD_REACTORS
330
29
102
}
330
29
100
AcDbVisualStyle
  2
GouraudWithEdges
 70
     3
177
     3
291
     1
 70
    58
 90
        2
176
     1
 90
        2
176
     1
 90
        1
176
     1
 90
        2
176
     1
 40
0.6
176
     1
 40
30.0
176
     1
 62
     7
420
 16777215
176
     1
 90
        1
176
     1
 90
        0
176
     1
 62
     7
176
     1
 62
   257
176
     1
 90
        1
176
     1
 90
        1
176
     1
 40
1.0
176
     1
 90
        0
176
     1
 62
   257
176
     1
 40
1.0
176
     1
 90
        1
176
     1
 90
        6
176
     1
 90
        2
176
     1
 62
     7
176
     1
 90
        5
176
     1
 90
        0
176
     1
 90
        0
176
     1
290
     0
176
     1
 90
       13
176
     1
 40
0.0
176
     1
 90
        0
176
     1
290
     0
176
     1
290
     1
176
     1
290
     1
176
     1
290
     0
176
     1
290
     0
176
     1
290
     0
176
     1
290
     0
176
     1
290
     0
176
     1
290
     0
176
     1
 90
       50
176
     1
 40
0.0
176
     1
 40
1.0
176
     1
 90
        0
176
     1
 62
    18
420
        0
176
     1
 90
       50
176
     1
 90
        3
176
     1
 62
     5
420
      255
176
     1
290
     0
176
     1
 90
       50
176
     1
 90
       50
176
     1
 90
       50
176
     1
290
     0
176
     1
 90
       50
176
     1
 62
   256
176
     0
 40
1.0
176
     0
 90
        2
176
     1
  1
strokes_ogs.tif
176
     1
290
     0
176
     1
 40
1.0
176
     1
 40
1.0
176
     1
1001
ACAD
1000
AcDbSavedByObjectVersion
1070
     0
  0
VISUALSTYLE
  5
31
102
{ACAD_REACTORS
330
29
102
}
330
29
100
AcDbVisualStyle
  2
Hidden
 70
     6
177
     3
291
     0
 70
    58
 90
        1
176
     1
 90
        2
176
     1
 90
        2
176
     1
 90
        0
176
     1
 40
0.6
176
     1
 40
30.0
176
     1
 62
     7
420
 16777215
176
     1
 90
        2
176
     1
 90
        2
176
     1
 62
     7
176
     1
 62
   257
176
     1
 90
        2
176
     1
 90
        1
176
     1
 40
40.0
176
     1
 90
        0
176
     1
 62
   257
176
     1
 40
1.0
176
     1
 90
        1
176
     1
 90
        6
176
     1
 90
        2
176
     1
 62
     7
176
     1
 90
        3
176
     1
 90
        0
176
     1
 90
        0
176
     1
290
     0
176
     1
 90
        1
176
     1
 40
0.0
176
     1
 90
        0
176
     1
290
     0
176
     1
290
     1
176
     1
290
     1
176
     1
290
     0
176
     1
290
     0
176
     1
290
     0
176
     1
290
     0
176
     1
290
     0
176
     1
290
     0
176
     1
 90
       50
176
     1
 40
0.0
176
     1
 40
1.0
176
     1
 90
        0
176
     1
 62
    18
420
        0
176
     1
 90
       50
176
     1
 90
        3
176
     1
 62
     5
420
      255
176
     1
290
     0
176
     1
 90
       50
176
     1
 90
       50
176
     1
 90
       50
176
     1
290
     0
176
     1
 90
       50
176
     1
 62
   256
176
     0
 40
1.0
176
     0
 90
        2
176
     1
  1
strokes_ogs.tif
176
     1
290
     0
176
     1
 40
1.0
176
     1
 40
1.0
176
     1
1001
ACAD
1000
AcDbSavedByObjectVersion
1070
     0
  0
VISUALSTYLE
  5
3F
102
{ACAD_REACTORS
330
29
102
}
330
29
100
AcDbVisualStyle
  2
JitterOff
 70
    20
177
     3
291
     1
 70
    58
 90
        2
176
     0
 90
        2
176
     0
 90
        0
176
     0
 90
        0
176
     0
 40
0.6
176
     0
 40
30.0
176
     0
 62
     7
420
 16777215
176
     0
 90
        1
176
     0
 90
        4
176
     0
 62
     7
176
     0
 62
   257
176
     0
 90
        1
176
     0
 90
        1
176
     0
 40
1.0
176
     0
 90
       10
176
     2
 62
     7
176
     0
 40
1.0
176
     0
 90
        1
176
     0
 90
        6
176
     0
 90
        2
176
     0
 62
     7
176
     0
 90
        5
176
     0
 90
        0
176
     0
 90
        0
176
     0
290
     0
176
     0
 90
        1
176
     0
 40
0.0
176
     0
 90
        0
176
     0
290
     0
176
     0
290
     1
176
     0
290
     1
176
     0
290
     0
176
     0
290
     0
176
     0
290
     0
176
     0
290
     0
176
     0
290
     0
176
     0
290
     0
176
     0
 90
       50
176
     0
 40
0.0
176
     0
 40
1.0
176
     0
 90
        0
176
     0
 62
    18
420
        0
176
     0
 90
       50
176
     0
 90
        3
176
     0
 62
     5
420
      255
176
     0
290
     0
176
     0
 90
       50
176
     0
 90
       50
176
     0
 90
       50
176
     0
290
     0
176
     0
 90
       50
176
     0
 62
   256
176
     0
 40
1.0
176
     0
 90
        2
176
     0
  1
strokes_ogs.tif
176
     0
290
     0
176
     0
 40
1.0
176
     0
 40
1.0
176
     0
1001
ACAD
1000
AcDbSavedByObjectVersion
1070
     0
  0
VISUALSTYLE
  5
37
102
{ACAD_REACTORS
330
29
102
}
330
29
100
AcDbVisualStyle
  2
Linepattern
 70
    14
177
     3
291
     1
 70
    58
 90
        2
176
     1
 90
        2
176
     1
 90
        0
176
     1
 90
        0
176
     1
 40
0.6
176
     1
 40
30.0
176
     1
 62
     7
420
 16777215
176
     1
 90
        1
176
     1
 90
        4
176
     1
 62
     7
176
     1
 62
   257
176
     1
 90
        7
176
     1
 90
        7
176
     1
 40
1.0
176
     1
 90
        8
176
     1
 62
     7
176
     1
 40
1.0
176
     1
 90
        1
176
     1
 90
        6
176
     1
 90
        2
176
     1
 62
     7
176
     1
 90
        5
176
     1
 90
        0
176
     1
 90
        0
176
     1
290
     0
176
     1
 90
        1
176
     1
 40
0.0
176
     1
 90
        0
176
     1
290
     0
176
     1
290
     1
176
     1
290
     1
176
     1
290
     0
176
     1
290
     0
176
     1
290
     0
176
     1
290
     0
176
     1
290
     0
176
     1
290
     0
176
     1
 90
       50
176
     1
 40
0.0
176
     1
 40
1.0
176
     1
 90
        0
176
     1
 62
    18
420
        0
176
     1
 90
       50
176
     1
 90
        3
176
     1
 62
     5
420
      255
176
     1
290
     0
176
     1
 90
       50
176
     1
 90
       50
176
     1
 90
       50
176
     1
290
     0
176
     1
 90
       50
176
     1
 62
   256
176
     0
 40
1.0
176
     0
 90
        2
176
     1
  1
strokes_ogs.tif
176
     1
290
     0
176
     1
 40
1.0
176
     1
 40
1.0
176
     1
1001
ACAD
1000
AcDbSavedByObjectVersion
1070
     0
  0
VISUALSTYLE
  5
40
102
{ACAD_REACTORS
330
29
102
}
330
29
100
AcDbVisualStyle
  2
OverhangOff
 70
    21
177
     3
291
     1
 70
    58
 90
        2
176
     0
 90
        2
176
     0
 90
        0
176
     0
 90
        0
176
     0
 40
0.6
176
     0
 40
30.0
176
     0
 62
     7
420
 16777215
176
     0
 90
        1
176
     0
 90
        4
176
     0
 62
     7
176
     0
 62
   257
176
     0
 90
        1
176
     0
 90
        1
176
     0
 40
1.0
176
     0
 90
        9
176
     2
 62
     7
176
     0
 40
1.0
176
     0
 90
        1
176
     0
 90
        6
176
     0
 90
        2
176
     0
 62
     7
176
     0
 90
        5
176
     0
 90
        0
176
     0
 90
        0
176
     0
290
     0
176
     0
 90
        1
176
     0
 40
0.0
176
     0
 90
        0
176
     0
290
     0
176
     0
290
     1
176
     0
290
     1
176
     0
290
     0
176
     0
290
     0
176
     0
290
     0
176
     0
290
     0
176
     0
290
     0
176
     0
290
     0
176
     0
 90
       50
176
     0
 40
0.0
176
     0
 40
1.0
176
     0
 90
        0
176
     0
 62
    18
420
        0
176
     0
 90
       50
176
     0
 90
        3
176
     0
 62
     5
420
      255
176
     0
290
     0
176
     0
 90
       50
176
     0
 90
       50
176
     0
 90
       50
176
     0
290
     0
176
     0
 90
       50
176
     0
 62
   256
176
     0
 40
1.0
176
     0
 90
        2
176
     0
  1
strokes_ogs.tif
176
     0
290
     0
176
     0
 40
1.0
176
     0
 40
1.0
176
     0
1001
ACAD
1000
AcDbSavedByObjectVersion
1070
     0
  0
VISUALSTYLE
  5
33
102
{ACAD_REACTORS
330
29
102
}
330
29
100
AcDbVisualStyle
  2
Realistic
 70
     8
177
     3
291
     0
 70
    58
 90
        2
176
     1
 90
        3
176
     1
 90
        0
176
     1
 90
        2
176
     1
 40
0.6
176
     1
 40
30.0
176
     1
 62
     7
420
 16777215
176
     1
 90
        0
176
     1
 90
        0
176
     1
 62
     7
176
     1
 62
   257
176
     1
 90
        1
176
     1
 90
        1
176
     1
 40
1.0
176
     1
 90
        8
176
     1
 62
   257
176
     1
 40
1.0
176
     1
 90
        1
176
     1
 90
        6
176
     1
 90
        2
176
     1
 62
     7
176
     1
 90
        3
176
     1
 90
        0
176
     1
 90
        0
176
     1
290
     0
176
     1
 90
       13
176
     1
 40
0.0
176
     1
 90
        0
176
     1
290
     0
176
     1
290
     1
176
     1
290
     1
176
     1
290
     0
176
     1
290
     0
176
     1
290
     0
176
     1
290
     0
176
     1
290
     0
176
     1
290
     0
176
     1
 90
       50
176
     1
 40
0.0
176
     1
 40
1.0
176
     1
 90
        0
176
     1
 62
    18
420
        0
176
     1
 90
       50
176
     1
 90
        3
176
     1
 62
     5
420
      255
176
     1
290
     0
176
     1
 90
       50
176
     1
 90
       50
176
     1
 90
       50
176
     1
290
     0
176
     1
 90
       50
176
     1
 62
   256
176
     0
 40
1.0
176
     0
 90
        2
176
     1
  1
strokes_ogs.tif
176
     1
290
     0
176
     1
 40
1.0
176
     1
 40
1.0
176
     1
1001
ACAD
1000
AcDbSavedByObjectVersion
1070
     0
  0
VISUALSTYLE
  5
3E
102
{ACAD_REACTORS
330
29
102
}
330
29
100
AcDbVisualStyle
  2
Shaded
 70
    27
177
     3
291
     0
 70
    58
 90
        2
176
     1
 90
        2
176
     1
 90
        1
176
     1
 90
        2
176
     1
 40
0.6
176
     1
 40
30.0
176
     1
 62
     7
420
 16777215
176
     1
 90
        0
176
     1
 90
        4
176
     1
 62
     7
176
     1
 62
   257
176
     1
 90
        1
176
     1
 90
        1
176
     1
 40
1.0
176
     1
 90
        8
176
     1
 62
   257
176
     1
 40
1.0
176
     1
 90
        1
176
     1
 90
        6
176
     1
 90
        2
176
     1
 62
     8
420
  7895160
176
     1
 90
        3
176
     1
 90
        0
176
     1
 90
        0
176
     1
290
     0
176
     1
 90
        5
176
     1
 40
0.0
176
     1
 90
        0
176
     1
290
     0
176
     1
290
     1
176
     1
290
     1
176
     1
290
     0
176
     1
290
     0
176
     1
290
     0
176
     1
290
     0
176
     1
290
     0
176
     1
290
     0
176
     1
 90
       50
176
     1
 40
0.0
176
     1
 40
1.0
176
     1
 90
        0
176
     1
 62
    18
420
        0
176
     1
 90
       50
176
     1
 90
        3
176
     1
 62
     5
420
      255
176
     1
290
     0
176
     1
 90
       50
176
     1
 90
       50
176
     1
 90
       50
176
     1
290
     0
176
     1
 90
       50
176
     1
 62
   256
176
     0
 40
1.0
176
     0
 90
        2
176
     1
  1
strokes_ogs.tif
176
     1
290
     0
176
     1
 40
1.0
176
     1
 40
1.0
176
     1
1001
ACAD
1000
AcDbSavedByObjectVersion
1070
     0
  0
VISUALSTYLE
  5
3D
102
{ACAD_REACTORS
330
29
102
}
330
29
100
AcDbVisualStyle
  2
Shaded with edges
 70
    26
177
     3
291
     0
 70
    58
 90
        2
176
     1
 90
        2
176
     1
 90
        1
176
     1
 90
        2
176
     1
 40
0.6
176
     1
 40
30.0
176
     1
 62
     7
420
 16777215
176
     1
 90
        1
176
     1
 90
        2
176
     1
 62
     7
176
     1
 62
   257
176
     1
 90
        2
176
     1
 90
        1
176
     1
 40
1.0
176
     1
 90
        8
176
     1
 62
   257
176
     1
 40
1.0
176
     1
 90
        1
176
     1
 90
        6
176
     1
 90
        2
176
     1
 62
     7
176
     1
 90
        3
176
     1
 90
        0
176
     1
 90
        0
176
     1
290
     0
176
     1
 90
        5
176
     1
 40
0.0
176
     1
 90
        0
176
     1
290
     0
176
     1
290
     1
176
     1
290
     1
176
     1
290
     0
176
     1
290
     0
176
     1
290
     0
176
     1
290
     0
176
     1
290
     0
176
     1
290
     0
176
     1
 90
       50
176
     1
 40
0.0
176
     1
 40
1.0
176
     1
 90
        0
176
     1
 62
    18
420
        0
176
     1
 90
       50
176
     1
 90
        3
176
     1
 62
     5
420
      255
176
     1
290
     0
176
     1
 90
       50
176
     1
 90
       50
176
     1
 90
       50
176
     1
290
     0
176
     1
 90
       50
176
     1
 62
   256
176
     0
 40
1.0
176
     0
 90
        2
176
     1
  1
strokes_ogs.tif
176
     1
290
     0
176
     1
 40
1.0
176
     1
 40
1.0
176
     1
1001
ACAD
1000
AcDbSavedByObjectVersion
1070
     0
  0
VISUALSTYLE
  5
3A
102
{ACAD_REACTORS
330
29
102
}
330
29
100
AcDbVisualStyle
  2
Shades of Gray
 70
    23
177
     3
291
     0
 70
    58
 90
        2
176
     1
 90
        2
176
     1
 90
        3
176
     1
 90
        0
176
     1
 40
0.6
176
     1
 40
30.0
176
     1
 62
     7
420
 16777215
176
     1
 90
        2
176
     1
 90
        2
176
     1
 62
     7
176
     1
 62
     7
176
     1
 90
        1
176
     1
 90
        1
176
     1
 40
40.0
176
     1
 90
        8
176
     1
 62
     7
176
     1
 40
1.0
176
     1
 90
        1
176
     1
 90
        6
176
     1
 90
        2
176
     1
 62
     7
176
     1
 90
        3
176
     1
 90
        0
176
     1
 90
        0
176
     1
290
     0
176
     1
 90
        1
176
     1
 40
0.0
176
     1
 90
        0
176
     1
290
     0
176
     1
290
     1
176
     1
290
     1
176
     1
290
     0
176
     1
290
     0
176
     1
290
     0
176
     1
290
     0
176
     1
290
     0
176
     1
290
     0
176
     1
 90
       50
176
     1
 40
0.0
176
     1
 40
1.0
176
     1
 90
        0
176
     1
 62
    18
420
        0
176
     1
 90
       50
176
     1
 90
        3
176
     1
 62
     5
420
      255
176
     1
290
     0
176
     1
 90
       50
176
     1
 90
       50
176
     1
 90
       50
176
     1
290
     0
176
     1
 90
       50
176
     1
 62
   256
176
     0
 40
1.0
176
     0
 90
        2
176
     1
  1
strokes_ogs.tif
176
     1
290
     0
176
     1
 40
1.0
176
     1
 40
1.0
176
     1
1001
ACAD
1000
AcDbSavedByObjectVersion
1070
     0
  0
VISUALSTYLE
  5
3B
102
{ACAD_REACTORS
330
29
102
}
330
29
100
AcDbVisualStyle
  2
Sketchy
 70
    24
177
     3
291
     0
 70
    58
 90
        1
176
     1
 90
        2
176
     1
 90
        2
176
     1
 90
        0
176
     1
 40
0.6
176
     1
 40
30.0
176
     1
 62
     7
420
 16777215
176
     1
 90
        2
176
     1
 90
        2
176
     1
 62
     7
176
     1
 62
     7
176
     1
 90
        1
176
     1
 90
        1
176
     1
 40
40.0
176
     1
 90
       11
176
     1
 62
     7
176
     1
 40
1.0
176
     1
 90
        1
176
     1
 90
        6
176
     1
 90
        2
176
     1
 62
     7
176
     1
 90
        6
176
     1
 90
        0
176
     1
 90
        0
176
     1
290
     0
176
     1
 90
        1
176
     1
 40
0.0
176
     1
 90
        0
176
     1
290
     0
176
     1
290
     1
176
     1
290
     1
176
     1
290
     0
176
     1
290
     0
176
     1
290
     0
176
     1
290
     0
176
     1
290
     0
176
     1
290
     0
176
     1
 90
       50
176
     1
 40
0.0
176
     1
 40
1.0
176
     1
 90
        0
176
     1
 62
    18
420
        0
176
     1
 90
       50
176
     1
 90
        3
176
     1
 62
     5
420
      255
176
     1
290
     0
176
     1
 90
       50
176
     1
 90
       50
176
     1
 90
       50
176
     1
290
     0
176
     1
 90
       50
176
     1
 62
   256
176
     0
 40
1.0
176
     0
 90
        2
176
     1
  1
strokes_ogs.tif
176
     1
290
     0
176
     1
 40
1.0
176
     1
 40
1.0
176
     1
1001
ACAD
1000
AcDbSavedByObjectVersion
1070
     0
  0
VISUALSTYLE
  5
36
102
{ACAD_REACTORS
330
29
102
}
330
29
100
AcDbVisualStyle
  2
Thicken
 70
    13
177
     3
291
     1
 70
    58
 90
        2
176
     1
 90
        2
176
     1
 90
        0
176
     1
 90
        0
176
     1
 40
0.6
176
     1
 40
30.0
176
     1
 62
     7
420
 16777215
176
     1
 90
        1
176
     1
 90
        4
176
     1
 62
     7
176
     1
 62
   257
176
     1
 90
        1
176
     1
 90
        1
176
     1
 40
1.0
176
     1
 90
       12
176
     1
 62
     7
176
     1
 40
1.0
176
     1
 90
        1
176
     1
 90
        6
176
     1
 90
        2
176
     1
 62
     7
176
     1
 90
        5
176
     1
 90
        0
176
     1
 90
        0
176
     1
290
     0
176
     1
 90
        1
176
     1
 40
0.0
176
     1
 90
        0
176
     1
290
     0
176
     1
290
     1
176
     1
290
     1
176
     1
290
     0
176
     1
290
     0
176
     1
290
     0
176
     1
290
     0
176
     1
290
     0
176
     1
290
     0
176
     1
 90
       50
176
     1
 40
0.0
176
     1
 40
1.0
176
     1
 90
        0
176
     1
 62
    18
420
        0
176
     1
 90
       50
176
     1
 90
        3
176
     1
 62
     5
420
      255
176
     1
290
     0
176
     1
 90
       50
176
     1
 90
       50
176
     1
 90
       50
176
     1
290
     0
176
     1
 90
       50
176
     1
 62
   256
176
     0
 40
1.0
176
     0
 90
        2
176
     1
  1
strokes_ogs.tif
176
     1
290
     0
176
     1
 40
1.0
176
     1
 40
1.0
176
     1
1001
ACAD
1000
AcDbSavedByObjectVersion
1070
     0
  0
VISUALSTYLE
  5
30
102
{ACAD_REACTORS
330
29
102
}
330
29
100
AcDbVisualStyle
  2
Wireframe
 70
     5
177
     3
291
     0
 70
    58
 90
        0
176
     1
 90
        2
176
     1
 90
        0
176
     1
 90
        0
176
     1
 40
0.6
176
     1
 40
30.0
176
     1
 62
     7
420
 16777215
176
     1
 90
        1
176
     1
 90
        4
176
     1
 62
     7
176
     1
 62
   257
176
     1
 90
        1
176
     1
 90
        1
176
     1
 40
1.0
176
     1
 90
        0
176
     1
 62
   257
176
     1
 40
1.0
176
     1
 90
        1
176
     1
 90
        6
176
     1
 90
        2
176
     1
 62
     7
176
     1
 90
        3
176
     1
 90
        0
176
     1
 90
        0
176
     1
290
     0
176
     1
 90
        1
176
     1
 40
0.0
176
     1
 90
        0
176
     1
290
     0
176
     1
290
     1
176
     1
290
     1
176
     1
290
     0
176
     1
290
     0
176
     1
290
     0
176
     1
290
     0
176
     1
290
     0
176
     1
290
     0
176
     1
 90
       50
176
     1
 40
0.0
176
     1
 40
1.0
176
     1
 90
        0
176
     1
 62
    18
420
        0
176
     1
 90
       50
176
     1
 90
        3
176
     1
 62
     5
420
      255
176
     1
290
     0
176
     1
 90
       50
176
     1
 90
       50
176
     1
 90
       50
176
     1
290
     0
176
     1
 90
       50
176
     1
 62
   256
176
     0
 40
1.0
176
     0
 90
        2
176
     1
  1
strokes_ogs.tif
176
     1
290
     0
176
     1
 40
1.0
176
     1
 40
1.0
176
     1
1001
ACAD
1000
AcDbSavedByObjectVersion
1070
     0
  0
VISUALSTYLE
  5
3C
102
{ACAD_REACTORS
330
29
102
}
330
29
100
AcDbVisualStyle
  2
X-Ray
 70
    25
177
     3
291
     0
 70
    58
 90
        2
176
     1
 90
        2
176
     1
 90
        1
176
     1
 90
        1
176
     1
 40
0.5
176
     1
 40
30.0
176
     1
 62
     7
420
 16777215
176
     1
 90
        1
176
     1
 90
        0
176
     1
 62
     7
176
     1
 62
   257
176
     1
 90
        1
176
     1
 90
        1
176
     1
 40
1.0
176
     1
 90
        8
176
     1
 62
     7
176
     1
 40
1.0
176
     1
 90
        1
176
     1
 90
        6
176
     1
 90
        2
176
     1
 62
     7
176
     1
 90
        3
176
     1
 90
        0
176
     1
 90
        0
176
     1
290
     0
176
     1
 90
       13
176
     1
 40
0.0
176
     1
 90
        0
176
     1
290
     0
176
     1
290
     1
176
     1
290
     1
176
     1
290
     0
176
     1
290
     0
176
     1
290
     0
176
     1
290
     0
176
     1
290
     0
176
     1
290
     0
176
     1
 90
       50
176
     1
 40
0.0
176
     1
 40
1.0
176
     1
 90
        0
176
     1
 62
    18
420
        0
176
     1
 90
       50
176
     1
 90
        3
176
     1
 62
     5
420
      255
176
     1
290
     0
176
     1
 90
       50
176
     1
 90
       50
176
     1
 90
       50
176
     1
290
     0
176
     1
 90
       50
176
     1
 62
   256
176
     0
 40
1.0
176
     0
 90
        2
176
     1
  1
strokes_ogs.tif
176
     1
290
     0
176
     1
 40
1.0
176
     1
 40
1.0
176
     1
1001
ACAD
1000
AcDbSavedByObjectVersion
1070
     0
  0
DICTIONARYVAR
  5
7D8
102
{ACAD_REACTORS
330
7D3
102
}
330
7D3
100
DictionaryVariables
280
     0
  1
0
  0
DICTIONARYVAR
  5
7D9
102
{ACAD_REACTORS
330
7D3
102
}
330
7D3
100
DictionaryVariables
280
     0
  1
1:1
  0
DICTIONARYVAR
  5
7D5
102
{ACAD_REACTORS
330
7D3
102
}
330
7D3
100
DictionaryVariables
280
     0
  1
STANDARD
  0
DICTIONARYVAR
  5
7D4
102
{ACAD_REACTORS
330
7D3
102
}
330
7D3
100
DictionaryVariables
280
     0
  1
STANDARD
  0
DICTIONARYVAR
  5
7D6
102
{ACAD_REACTORS
330
7D3
102
}
330
7D3
100
DictionaryVariables
280
     0
  1
Imperial24
  0
DICTIONARYVAR
  5
7D7
102
{ACAD_REACTORS
330
7D3
102
}
330
7D3
100
DictionaryVariables
280
     0
  1
Imperial24
  0
DICTIONARY
  5
7E0
330
6B
100
AcDbDictionary
280
     1
281
     1
  3
ACAD_XREC_ROUNDTRIP
360
7E1
  0
DICTIONARY
  5
1A
330
19
100
AcDbDictionary
280
     1
281
     1
  3
BUMPTILE
360
1C
  3
DIFFUSETILE
360
1B
  3
OPACITYTILE
360
1F
  3
REFLECTIONTILE
360
1E
  3
REFRACTIONTILE
360
20
  3
SPECULARTILE
360
1D
  0
DICTIONARY
  5
12
330
11
100
AcDbDictionary
280
     1
281
     1
  3
BUMPTILE
360
14
  3
DIFFUSETILE
360
13
  3
OPACITYTILE
360
17
  3
REFLECTIONTILE
360
16
  3
REFRACTIONTILE
360
18
  3
SPECULARTILE
360
15
  0
DICTIONARY
  5
22
330
21
100
AcDbDictionary
280
     1
281
     1
  3
BUMPTILE
360
24
  3
DIFFUSETILE
360
23
  3
OPACITYTILE
360
27
  3
REFLECTIONTILE
360
26
  3
REFRACTIONTILE
360
28
  3
SPECULARTILE
360
25
  0
DICTIONARY
  5
7DE
330
69
100
AcDbDictionary
280
     1
281
     1
  3
ACAD_XREC_ROUNDTRIP
360
7DF
  0
DICTIONARY
  5
7DA
330
65
100
AcDbDictionary
280
     1
281
     1
  3
ACAD_ROUNDTRIP_2008_TABLESTYLE_CELLSTYLEMAP
360
7DB
  0
XRECORD
  5
7E1
102
{ACAD_REACTORS
330
7E0
102
}
330
7E0
100
AcDbXrecord
280
     1
102
DISPLAYNAME
  1
Imperial24
102
FLAGS
 90
        0
  0
XRECORD
  5
1C
102
{ACAD_REACTORS
330
1A
102
}
330
1A
100
AcDbXrecord
280
     1
270
     1
271
     1
  0
XRECORD
  5
1B
102
{ACAD_REACTORS
330
1A
102
}
330
1A
100
AcDbXrecord
280
     1
270
     1
271
     1
  0
XRECORD
  5
1F
102
{ACAD_REACTORS
330
1A
102
}
330
1A
100
AcDbXrecord
280
     1
270
     1
271
     1
  0
XRECORD
  5
1E
102
{ACAD_REACTORS
330
1A
102
}
330
1A
100
AcDbXrecord
280
     1
270
     1
271
     1
  0
XRECORD
  5
20
102
{ACAD_REACTORS
330
1A
102
}
330
1A
100
AcDbXrecord
280
     1
270
     1
271
     1
  0
XRECORD
  5
1D
102
{ACAD_REACTORS
330
1A
102
}
330
1A
100
AcDbXrecord
280
     1
270
     1
271
     1
  0
XRECORD
  5
14
102
{ACAD_REACTORS
330
12
102
}
330
12
100
AcDbXrecord
280
     1
270
     1
271
     1
  0
XRECORD
  5
13
102
{ACAD_REACTORS
330
12
102
}
330
12
100
AcDbXrecord
280
     1
270
     1
271
     1
  0
XRECORD
  5
17
102
{ACAD_REACTORS
330
12
102
}
330
12
100
AcDbXrecord
280
     1
270
     1
271
     1
  0
XRECORD
  5
16
102
{ACAD_REACTORS
330
12
102
}
330
12
100
AcDbXrecord
280
     1
270
     1
271
     1
  0
XRECORD
  5
18
102
{ACAD_REACTORS
330
12
102
}
330
12
100
AcDbXrecord
280
     1
270
     1
271
     1
  0
XRECORD
  5
15
102
{ACAD_REACTORS
330
12
102
}
330
12
100
AcDbXrecord
280
     1
270
     1
271
     1
  0
XRECORD
  5
24
102
{ACAD_REACTORS
330
22
102
}
330
22
100
AcDbXrecord
280
     1
270
     1
271
     1
  0
XRECORD
  5
23
102
{ACAD_REACTORS
330
22
102
}
330
22
100
AcDbXrecord
280
     1
270
     1
271
     1
  0
XRECORD
  5
27
102
{ACAD_REACTORS
330
22
102
}
330
22
100
AcDbXrecord
280
     1
270
     1
271
     1
  0
XRECORD
  5
26
102
{ACAD_REACTORS
330
22
102
}
330
22
100
AcDbXrecord
280
     1
270
     1
271
     1
  0
XRECORD
  5
28
102
{ACAD_REACTORS
330
22
102
}
330
22
100
AcDbXrecord
280
     1
270
     1
271
     1
  0
XRECORD
  5
25
102
{ACAD_REACTORS
330
22
102
}
330
22
100
AcDbXrecord
280
     1
270
     1
271
     1
  0
XRECORD
  5
7DF
102
{ACAD_REACTORS
330
7DE
102
}
330
7DE
100
AcDbXrecord
280
     1
102
DISPLAYNAME
  1
Imperial24
102
FLAGS
 90
        0
  0
CELLSTYLEMAP
  5
7DB
102
{ACAD_REACTORS
330
7DA
102
}
330
7DA
100
AcDbCellStyleMap
 90
        3
300
CELLSTYLE
  1
TABLEFORMAT_BEGIN
 90
        5
170
     1
 91
        0
 92
    32768
 62
   257
 93
        1
300
CONTENTFORMAT
  1
CONTENTFORMAT_BEGIN
 90
        0
 91
        0
 92
      512
 93
        0
300

 40
0.0
140
1.0
 94
        5
 62
     0
340
55
144
0.25
309
CONTENTFORMAT_END
171
     0
 94
        0
309
TABLEFORMAT_END
  1
CELLSTYLE_BEGIN
 90
        1
 91
        1
300
_TITLE
309
CELLSTYLE_END
300
CELLSTYLE
  1
TABLEFORMAT_BEGIN
 90
        5
170
     1
 91
        0
 92
        0
 62
   257
 93
        1
300
CONTENTFORMAT
  1
CONTENTFORMAT_BEGIN
 90
        0
 91
        0
 92
      512
 93
        0
300

 40
0.0
140
1.0
 94
        5
 62
     0
340
55
144
0.18
309
CONTENTFORMAT_END
171
     0
 94
        0
309
TABLEFORMAT_END
  1
CELLSTYLE_BEGIN
 90
        2
 91
        1
300
_HEADER
309
CELLSTYLE_END
300
CELLSTYLE
  1
TABLEFORMAT_BEGIN
 90
        5
170
     1
 91
        0
 92
        0
 62
   257
 93
        1
300
CONTENTFORMAT
  1
CONTENTFORMAT_BEGIN
 90
        0
 91
        0
 92
      512
 93
        0
300

 40
0.0
140
1.0
 94
        2
 62
     0
340
55
144
0.18
309
CONTENTFORMAT_END
171
     0
 94
        0
309
TABLEFORMAT_END
  1
CELLSTYLE_BEGIN
 90
        3
 91
        2
300
_DATA
309
CELLSTYLE_END
  0
ENDSEC
  0
EOF
