  0
SECTION
  2
HEADER
  9
$ACADVER
  1
AC1027
  9
$ACADMAINTVER
 70
   125
  9
$DWGCODEPAGE
  3
ANSI_1252
  9
$LASTSAVEDBY
  1
Administrator
  9
$REQUIREDVERSIONS
160
                 0
  9
$INSBASE
 10
0.0
 20
0.0
 30
0.0
  9
$EXTMIN
 10
0.0
 20
0.0
 30
-0.382672
  9
$EXTMAX
 10
17.0
 20
11.0
 30
120.0
  9
$LIMMIN
 10
0.0
 20
0.0
  9
$LIMMAX
 10
17.0
 20
11.0
  9
$ORTHOMODE
 70
     0
  9
$REGENMODE
 70
     1
  9
$FILLMODE
 70
     1
  9
$QTEXTMODE
 70
     0
  9
$MIRRTEXT
 70
     0
  9
$LTSCALE
 40
0.75
  9
$ATTMODE
 70
     1
  9
$TEXTSIZE
 40
0.12
  9
$TRACEWID
 40
0.05
  9
$TEXTSTYLE
  7
Standard
  9
$CLAYER
  8
Titleblock
  9
$CELTYPE
  6
ByLayer
  9
$CECOLOR
 62
   256
  9
$CELTSCALE
 40
1.0
  9
$DISPSILH
 70
     0
  9
$DIMSCALE
 40
1.0
  9
$DIMASZ
 40
0.12
  9
$DIMEXO
 40
0.05
  9
$DIMDLI
 40
0.339411
  9
$DIMRND
 40
0.0
  9
$DIMDLE
 40
0.0
  9
$DIMEXE
 40
0.1
  9
$DIMTP
 40
0.01
  9
$DIMTM
 40
0.01
  9
$DIMTXT
 40
0.12
  9
$DIMCEN
 40
0.0
  9
$DIMTSZ
 40
0.0
  9
$DIMTOL
 70
     0
  9
$DIMLIM
 70
     0
  9
$DIMTIH
 70
     1
  9
$DIMTOH
 70
     1
  9
$DIMSE1
 70
     0
  9
$DIMSE2
 70
     0
  9
$DIMTAD
 70
     0
  9
$DIMZIN
 70
    12
  9
$DIMBLK
  1

  9
$DIMASO
 70
     1
  9
$DIMSHO
 70
     1
  9
$DIMPOST
  1
in
  9
$DIMAPOST
  1
mm
  9
$DIMALT
 70
     0
  9
$DIMALTD
 70
     2
  9
$DIMALTF
 40
25.4
  9
$DIMLFAC
 40
1.0
  9
$DIMTOFL
 70
     0
  9
$DIMTVP
 40
0.0
  9
$DIMTIX
 70
     0
  9
$DIMSOXD
 70
     0
  9
$DIMSAH
 70
     0
  9
$DIMBLK1
  1

  9
$DIMBLK2
  1

  9
$DIMSTYLE
  2
Standard
  9
$DIMCLRD
 70
   256
  9
$DIMCLRE
 70
   256
  9
$DIMCLRT
 70
   256
  9
$DIMTFAC
 40
1.0
  9
$DIMGAP
 40
0.06
  9
$DIMJUST
 70
     0
  9
$DIMSD1
 70
     0
  9
$DIMSD2
 70
     0
  9
$DIMTOLJ
 70
     1
  9
$DIMTZIN
 70
    12
  9
$DIMALTZ
 70
    12
  9
$DIMALTTZ
 70
    12
  9
$DIMUPT
 70
     0
  9
$DIMDEC
 70
     3
  9
$DIMTDEC
 70
     3
  9
$DIMALTU
 70
     2
  9
$DIMALTTD
 70
     2
  9
$DIMTXSTY
  7
Standard
  9
$DIMAUNIT
 70
     0
  9
$DIMADEC
 70
     2
  9
$DIMALTRND
 40
0.0
  9
$DIMAZIN
 70
     3
  9
$DIMDSEP
 70
    46
  9
$DIMATFIT
 70
     3
  9
$DIMFRAC
 70
     0
  9
$DIMLDRBLK
  1

  9
$DIMLUNIT
 70
     2
  9
$DIMLWD
 70
    -2
  9
$DIMLWE
 70
    -2
  9
$DIMTMOVE
 70
     0
  9
$DIMFXL
 40
1.0
  9
$DIMFXLON
 70
     0
  9
$DIMJOGANG
 40
0.785398
  9
$DIMTFILL
 70
     0
  9
$DIMTFILLCLR
 70
     0
  9
$DIMARCSYM
 70
     1
  9
$DIMLTYPE
  6

  9
$DIMLTEX1
  6

  9
$DIMLTEX2
  6

  9
$DIMTXTDIRECTION
 70
     0
  9
$LUNITS
 70
     2
  9
$LUPREC
 70
     4
  9
$SKETCHINC
 40
0.1
  9
$FILLETRAD
 40
0.0
  9
$AUNITS
 70
     0
  9
$AUPREC
 70
     0
  9
$MENU
  1
.
  9
$ELEVATION
 40
0.0
  9
$PELEVATION
 40
0.0
  9
$THICKNESS
 40
0.0
  9
$LIMCHECK
 70
     0
  9
$CHAMFERA
 40
0.0
  9
$CHAMFERB
 40
0.0
  9
$CHAMFERC
 40
0.0
  9
$CHAMFERD
 40
0.0
  9
$SKPOLY
 70
     0
  9
$TDCREATE
 40
2459328.395879630
  9
$TDUCREATE
 40
2459328.687546296
  9
$TDUPDATE
 40
2459328.395879630
  9
$TDUUPDATE
 40
2459328.687546296
  9
$TDINDWG
 40
0.0000115741
  9
$TDUSRTIMER
 40
0.0000115741
  9
$USRTIMER
 70
     1
  9
$ANGBASE
 50
0.0
  9
$ANGDIR
 70
     0
  9
$PDMODE
 70
     0
  9
$PDSIZE
 40
0.0
  9
$PLINEWID
 40
0.0
  9
$SPLFRAME
 70
     0
  9
$SPLINETYPE
 70
     6
  9
$SPLINESEGS
 70
     8
  9
$HANDSEED
  5
93E
  9
$SURFTAB1
 70
     6
  9
$SURFTAB2
 70
     6
  9
$SURFTYPE
 70
     6
  9
$SURFU
 70
     6
  9
$SURFV
 70
     6
  9
$UCSBASE
  2

  9
$UCSNAME
  2

  9
$UCSORG
 10
0.0
 20
0.0
 30
0.0
  9
$UCSXDIR
 10
1.0
 20
0.0
 30
0.0
  9
$UCSYDIR
 10
0.0
 20
1.0
 30
0.0
  9
$UCSORTHOREF
  2

  9
$UCSORTHOVIEW
 70
     0
  9
$UCSORGTOP
 10
0.0
 20
0.0
 30
0.0
  9
$UCSORGBOTTOM
 10
0.0
 20
0.0
 30
0.0
  9
$UCSORGLEFT
 10
0.0
 20
0.0
 30
0.0
  9
$UCSORGRIGHT
 10
0.0
 20
0.0
 30
0.0
  9
$UCSORGFRONT
 10
0.0
 20
0.0
 30
0.0
  9
$UCSORGBACK
 10
0.0
 20
0.0
 30
0.0
  9
$PUCSBASE
  2

  9
$PUCSNAME
  2

  9
$PUCSORG
 10
0.0
 20
0.0
 30
0.0
  9
$PUCSXDIR
 10
1.0
 20
0.0
 30
0.0
  9
$PUCSYDIR
 10
0.0
 20
1.0
 30
0.0
  9
$PUCSORTHOREF
  2

  9
$PUCSORTHOVIEW
 70
     0
  9
$PUCSORGTOP
 10
0.0
 20
0.0
 30
0.0
  9
$PUCSORGBOTTOM
 10
0.0
 20
0.0
 30
0.0
  9
$PUCSORGLEFT
 10
0.0
 20
0.0
 30
0.0
  9
$PUCSORGRIGHT
 10
0.0
 20
0.0
 30
0.0
  9
$PUCSORGFRONT
 10
0.0
 20
0.0
 30
0.0
  9
$PUCSORGBACK
 10
0.0
 20
0.0
 30
0.0
  9
$USERI1
 70
     0
  9
$USERI2
 70
     0
  9
$USERI3
 70
     0
  9
$USERI4
 70
     0
  9
$USERI5
 70
     0
  9
$USERR1
 40
0.0
  9
$USERR2
 40
0.0
  9
$USERR3
 40
0.0
  9
$USERR4
 40
0.0
  9
$USERR5
 40
0.0
  9
$WORLDVIEW
 70
     1
  9
$SHADEDGE
 70
     3
  9
$SHADEDIF
 70
    70
  9
$TILEMODE
 70
     1
  9
$MAXACTVP
 70
    64
  9
$PINSBASE
 10
0.0
 20
0.0
 30
0.0
  9
$PLIMCHECK
 70
     0
  9
$PEXTMIN
 10
1.000000E+20
 20
1.000000E+20
 30
1.000000E+20
  9
$PEXTMAX
 10
-1.000000E+20
 20
-1.000000E+20
 30
-1.000000E+20
  9
$PLIMMIN
 10
0.0
 20
0.0
  9
$PLIMMAX
 10
12.0
 20
9.0
  9
$UNITMODE
 70
     0
  9
$VISRETAIN
 70
     1
  9
$PLINEGEN
 70
     0
  9
$PSLTSCALE
 70
     1
  9
$TREEDEPTH
 70
  3020
  9
$CMLSTYLE
  2
Standard
  9
$CMLJUST
 70
     0
  9
$CMLSCALE
 40
1.0
  9
$PROXYGRAPHICS
 70
     1
  9
$MEASUREMENT
 70
     0
  9
$CELWEIGHT
370
    -1
  9
$ENDCAPS
280
     0
  9
$JOINSTYLE
280
     0
  9
$LWDISPLAY
290
     0
  9
$INSUNITS
 70
     1
  9
$HYPERLINKBASE
  1

  9
$STYLESHEET
  1

  9
$XEDIT
290
     1
  9
$CEPSNTYPE
380
     0
  9
$PSTYLEMODE
290
     1
  9
$FINGERPRINTGUID
  2
{3E9B4A10-0C10-4E4C-BB47-AF535C10A1C5}
  9
$VERSIONGUID
  2
{6D7F2D49-1205-BD40-A667-B58F531C23D7}
  9
$EXTNAMES
290
     1
  9
$PSVPSCALE
 40
0.0
  9
$OLESTARTUP
290
     0
  9
$SORTENTS
280
   127
  9
$INDEXCTL
280
     0
  9
$HIDETEXT
280
     1
  9
$XCLIPFRAME
280
     0
  9
$HALOGAP
280
     0
  9
$OBSCOLOR
 70
   257
  9
$OBSLTYPE
280
     0
  9
$INTERSECTIONDISPLAY
280
     0
  9
$INTERSECTIONCOLOR
 70
   257
  9
$DIMASSOC
280
     2
  9
$PROJECTNAME
  1

  9
$CAMERADISPLAY
290
     0
  9
$LENSLENGTH
 40
50.0
  9
$CAMERAHEIGHT
 40
0.0
  9
$STEPSPERSEC
 40
2.0
  9
$STEPSIZE
 40
6.0
  9
$3DDWFPREC
 40
2.0
  9
$PSOLWIDTH
 40
0.25
  9
$PSOLHEIGHT
 40
4.0
  9
$LOFTANG1
 40
1.570796
  9
$LOFTANG2
 40
1.570796
  9
$LOFTMAG1
 40
0.0
  9
$LOFTMAG2
 40
0.0
  9
$LOFTPARAM
 70
     7
  9
$LOFTNORMALS
280
     1
  9
$LATITUDE
 40
37.795
  9
$LONGITUDE
 40
-122.394
  9
$NORTHDIRECTION
 40
0.0
  9
$TIMEZONE
 70
 -8000
  9
$LIGHTGLYPHDISPLAY
280
     1
  9
$TILEMODELIGHTSYNCH
280
     1
  9
$CMATERIAL
347
11
  9
$SOLIDHIST
280
     0
  9
$SHOWHIST
280
     1
  9
$DWFFRAME
280
     2
  9
$DGNFRAME
280
     0
  9
$REALWORLDSCALE
290
     1
  9
$INTERFERECOLOR
 62
     1
  9
$INTERFEREOBJVS
345
33
  9
$INTERFEREVPVS
346
30
  9
$CSHADOW
280
     0
  9
$SHADOWPLANELOCATION
 40
0.0
  0
ENDSEC
  0
SECTION
  2
CLASSES
  0
CLASS
  1
ACDBDICTIONARYWDFLT
  2
AcDbDictionaryWithDefault
  3
ObjectDBX Classes
 90
        0
 91
        1
280
     0
281
     0
  0
CLASS
  1
MATERIAL
  2
AcDbMaterial
  3
ObjectDBX Classes
 90
     1153
 91
        3
280
     0
281
     0
  0
CLASS
  1
VISUALSTYLE
  2
AcDbVisualStyle
  3
ObjectDBX Classes
 90
     4095
 91
       24
280
     0
281
     0
  0
CLASS
  1
SCALE
  2
AcDbScale
  3
ObjectDBX Classes
 90
     1153
 91
       33
280
     0
281
     0
  0
CLASS
  1
TABLESTYLE
  2
AcDbTableStyle
  3
ObjectDBX Classes
 90
     4095
 91
        1
280
     0
281
     0
  0
CLASS
  1
MLEADERSTYLE
  2
AcDbMLeaderStyle
  3
ACDB_MLEADERSTYLE_CLASS
 90
     4095
 91
        1
280
     0
281
     0
  0
CLASS
  1
ACDBSECTIONVIEWSTYLE
  2
AcDbSectionViewStyle
  3
ObjectDBX Classes
 90
     1025
 91
        1
280
     0
281
     0
  0
CLASS
  1
ACDBDETAILVIEWSTYLE
  2
AcDbDetailViewStyle
  3
ObjectDBX Classes
 90
     1025
 91
        1
280
     0
281
     0
  0
CLASS
  1
ACMESCOPE
  2
AcMeScope
  3
AcMeServices
 90
     1024
 91
        1
280
     0
281
     0
  0
CLASS
  1
ACMECOMMANDHISTORY
  2
AcMeCommandHistory
  3
AcMeServices
 90
     1024
 91
        1
280
     0
281
     0
  0
CLASS
  1
ACIMSYSVARMAN
  2
AcImSysVarManager
  3
AcMeServices
 90
     1024
 91
        1
280
     0
281
     0
  0
CLASS
  1
ACIMINTSYSVAR
  2
AcImIntSysVar
  3
AcMeServices
 90
     1024
 91
        1
280
     0
281
     0
  0
CLASS
  1
ACMESTATEMGR
  2
AcMeStateMgr
  3
AcMeServices
 90
     1024
 91
        1
280
     0
281
     0
  0
CLASS
  1
ACGREFMASTER
  2
AcGrefMaster
  3
AcAttribServices
 90
     1024
 91
        1
280
     0
281
     0
  0
CLASS
  1
SORTENTSTABLE
  2
AcDbSortentsTable
  3
ObjectDBX Classes
 90
        0
 91
        6
280
     0
281
     0
  0
CLASS
  1
IMAGE
  2
AcDbRasterImage
  3
ISM
 90
     2175
 91
        1
280
     0
281
     1
  0
CLASS
  1
IMAGEDEF
  2
AcDbRasterImageDef
  3
ISM
 90
        0
 91
        1
280
     0
281
     0
  0
CLASS
  1
IMAGEDEF_REACTOR
  2
AcDbRasterImageDefReactor
  3
ISM
 90
        1
 91
        2
280
     0
281
     0
  0
CLASS
  1
RASTERVARIABLES
  2
AcDbRasterVariables
  3
ISM
 90
        0
 91
        1
280
     0
281
     0
  0
CLASS
  1
FIELD
  2
AcDbField
  3
ObjectDBX Classes
 90
     1152
 91
        4
280
     0
281
     0
  0
CLASS
  1
FIELDLIST
  2
AcDbFieldList
  3
ObjectDBX Classes
 90
     1152
 91
        1
280
     0
281
     0
  0
CLASS
  1
DICTIONARYVAR
  2
AcDbDictionaryVar
  3
ObjectDBX Classes
 90
        0
 91
        6
280
     0
281
     0
  0
CLASS
  1
CELLSTYLEMAP
  2
AcDbCellStyleMap
  3
ObjectDBX Classes
 90
     1152
 91
        1
280
     0
281
     0
  0
ENDSEC
  0
SECTION
  2
TABLES
  0
TABLE
  2
VPORT
  5
8
330
0
100
AcDbSymbolTable
 70
     1
1001
ACAD
1000
DbSaveVer
1071
      223
  0
VPORT
  5
57
330
8
100
AcDbSymbolTableRecord
100
AcDbViewportTableRecord
  2
*Active
 70
     0
 10
0.0
 20
0.0
 11
1.0
 21
1.0
 12
8.5
 22
5.5
 13
0.0
 23
0.0
 14
0.5
 24
0.5
 15
0.0
 25
0.0
 16
0.0
 26
0.0
 36
1.0
 17
0.0
 27
0.0
 37
0.0
 40
11.0
 41
1.77906
 42
50.0
 43
0.0
 44
0.0
 50
0.0
 51
0.0
 71
     0
 72
 20000
 73
     1
 74
     0
 75
     0
 76
     0
 77
     0
 78
     0
281
     0
 65
     1
110
0.0
120
0.0
130
0.0
111
1.0
121
0.0
131
0.0
112
0.0
122
1.0
132
0.0
 79
     0
146
0.0
348
2F
 60
     3
 61
     5
292
     1
282
     1
141
0.0
142
0.0
 63
   250
421
  3355443
  0
ENDTAB
  0
TABLE
  2
LTYPE
  5
5
330
0
100
AcDbSymbolTable
 70
    10
  0
LTYPE
  5
5B
330
5
100
AcDbSymbolTableRecord
100
AcDbLinetypeTableRecord
  2
ByBlock
 70
     0
  3

 72
    65
 73
     0
 40
0.0
  0
LTYPE
  5
5C
330
5
100
AcDbSymbolTableRecord
100
AcDbLinetypeTableRecord
  2
ByLayer
 70
     0
  3

 72
    65
 73
     0
 40
0.0
  0
LTYPE
  5
5D
330
5
100
AcDbSymbolTableRecord
100
AcDbLinetypeTableRecord
  2
Continuous
 70
     0
  3
Solid line
 72
    65
 73
     0
 40
0.0
  0
LTYPE
  5
81
330
5
100
AcDbSymbolTableRecord
100
AcDbLinetypeTableRecord
  2
HIDDEN
 70
     0
  3
Hidden __ __ __ __ __ __ __ __ __ __ __ __ __ _
 72
    65
 73
     2
 40
0.375
 49
0.25
 74
     0
 49
-0.125
 74
     0
  0
LTYPE
  5
82
330
5
100
AcDbSymbolTableRecord
100
AcDbLinetypeTableRecord
  2
PHANTOM2
 70
     0
  3
Phantom (.5x) ___ _ _ ___ _ _ ___ _ _ ___ _ _
 72
    65
 73
     6
 40
1.25
 49
0.625
 74
     0
 49
-0.125
 74
     0
 49
0.125
 74
     0
 49
-0.125
 74
     0
 49
0.125
 74
     0
 49
-0.125
 74
     0
  0
LTYPE
  5
83
330
5
100
AcDbSymbolTableRecord
100
AcDbLinetypeTableRecord
  2
CENTER
 70
     0
  3
Center ____ _ ____ _ ____ _ ____ _ ____ _ ____
 72
    65
 73
     4
 40
2.0
 49
1.25
 74
     0
 49
-0.25
 74
     0
 49
0.25
 74
     0
 49
-0.25
 74
     0
  0
LTYPE
  5
9E
330
5
100
AcDbSymbolTableRecord
100
AcDbLinetypeTableRecord
  2
CENTER2
 70
     0
  3
Center (.5x) ___ _ ___ _ ___ _ ___ _ ___ _ ___
 72
    65
 73
     4
 40
1.125
 49
0.75
 74
     0
 49
-0.125
 74
     0
 49
0.125
 74
     0
 49
-0.125
 74
     0
  0
LTYPE
  5
9F
330
5
100
AcDbSymbolTableRecord
100
AcDbLinetypeTableRecord
  2
HIDDEN2
 70
     0
  3
Hidden (.5x) _ _ _ _ _ _ _ _ _ _ _ _ _ _ _ _ _
 72
    65
 73
     2
 40
0.1875
 49
0.125
 74
     0
 49
-0.0625
 74
     0
  0
LTYPE
  5
A0
330
5
100
AcDbSymbolTableRecord
100
AcDbLinetypeTableRecord
  2
Amconstr
 70
     0
  3
_______________________
 72
    65
 73
     2
 40
9999.0
 49
9999.0
 74
     0
 49
0.0
 74
     0
  0
LTYPE
  5
A1
330
5
100
AcDbSymbolTableRecord
100
AcDbLinetypeTableRecord
  2
Amzigzag2
 70
     0
  3
/\/-/\/-/\/-/\/-/\/-/\/
 72
    65
 73
     2
 40
0.4401
 49
0.0001
 74
     4
 75
   136
340
9B
 46
0.0016
 50
0.0
 44
0.0
 45
0.0
 49
-0.44
 74
     0
  0
LTYPE
  5
A2
330
5
100
AcDbSymbolTableRecord
100
AcDbLinetypeTableRecord
  2
ACANSTGB
 70
     0
  3
__ . . __ . .
 72
    65
 73
     6
 40
0.354331
 49
0.15748
 74
     0
 49
-0.03937
 74
     0
 49
0.03937
 74
     0
 49
-0.03937
 74
     0
 49
0.03937
 74
     0
 49
-0.03937
 74
     0
  0
LTYPE
  5
A3
330
5
100
AcDbSymbolTableRecord
100
AcDbLinetypeTableRecord
  2
ACANSTGL
 70
     0
  3
_ _ _ _ _
 72
    65
 73
     2
 40
0.11811
 49
0.07874
 74
     0
 49
-0.03937
 74
     0
  0
ENDTAB
  0
TABLE
  2
LAYER
  5
2
330
0
100
AcDbSymbolTable
 70
    12
  0
LAYER
  5
54
330
2
100
AcDbSymbolTableRecord
100
AcDbLayerTableRecord
  2
0
 70
     0
 62
     7
  6
Continuous
370
    -3
390
F
347
21
348
0
1001
AcAecLayerStandard
1000

1000

  0
LAYER
  5
79
330
2
100
AcDbSymbolTableRecord
100
AcDbLayerTableRecord
  2
Defpoints
 70
     0
 62
     7
  6
Continuous
290
     0
370
    -3
390
F
347
21
348
0
1001
AcAecLayerStandard
1000

1000

  0
LAYER
  5
BD
330
2
100
AcDbSymbolTableRecord
100
AcDbLayerTableRecord
  2
Hidden
 70
     0
 62
     7
  6
HIDDEN2
370
    13
390
F
347
21
348
0
  0
LAYER
  5
C4
330
2
100
AcDbSymbolTableRecord
100
AcDbLayerTableRecord
  2
Visible
 70
     0
 62
     7
  6
Continuous
370
    25
390
F
347
21
348
0
  0
LAYER
  5
299
330
2
100
AcDbSymbolTableRecord
100
AcDbLayerTableRecord
  2
Titleblock
 70
     0
 62
     7
  6
Continuous
370
    -3
390
F
347
21
348
0
1001
AcAecLayerStandard
1000

1000

1001
AcCmTransparency
1071
        0
  0
LAYER
  5
2BE
330
2
100
AcDbSymbolTableRecord
100
AcDbLayerTableRecord
  2
Border
 70
     0
 62
     7
  6
Continuous
370
    -3
390
F
347
21
348
0
1001
AcAecLayerStandard
1000

1000

1001
AcCmTransparency
1071
        0
  0
LAYER
  5
2DF
330
2
100
AcDbSymbolTableRecord
100
AcDbLayerTableRecord
  2
Dimensions
 70
     0
 62
     7
  6
Continuous
370
    13
390
F
347
21
348
0
  0
LAYER
  5
2F4
330
2
100
AcDbSymbolTableRecord
100
AcDbLayerTableRecord
  2
Annotations
 70
     0
 62
     7
  6
Continuous
370
    13
390
F
347
21
348
0
  0
ENDTAB
  0
TABLE
  2
STYLE
  5
3
330
0
100
AcDbSymbolTable
 70
     4
  0
STYLE
  5
55
330
3
100
AcDbSymbolTableRecord
100
AcDbTextStyleTableRecord
  2
Standard
 70
     0
 40
0.0
 41
1.0
 50
0.0
 71
     0
 42
0.12
  3
arial.ttf
  4

1001
ACAD
1000
Arial
1071
       34
  0
STYLE
  5
5A
330
3
100
AcDbSymbolTableRecord
100
AcDbTextStyleTableRecord
  2
Annotative
 70
     0
 40
0.0
 41
1.0
 50
0.0
 71
     0
 42
0.2
  3
txt
  4

1001
AcadAnnotative
1000
AnnotativeData
1002
{
1070
     1
1070
     1
1002
}
  0
STYLE
  5
9B
330
3
100
AcDbSymbolTableRecord
100
AcDbTextStyleTableRecord
  2

 70
     1
 40
0.0
 41
1.0
 50
0.0
 71
     0
 42
0.12
  3
genltshp.shx
  4

  0
STYLE
  5
9C
330
3
100
AcDbSymbolTableRecord
100
AcDbTextStyleTableRecord
  2
ACANSGDT
 70
     0
 40
0.0
 41
1.0
 50
0.0
 71
     0
 42
0.12
  3
amgdt.shx
  4

  0
ENDTAB
  0
TABLE
  2
VIEW
  5
6
330
0
100
AcDbSymbolTable
 70
     0
  0
ENDTAB
  0
TABLE
  2
UCS
  5
7
330
0
100
AcDbSymbolTable
 70
     0
  0
ENDTAB
  0
TABLE
  2
APPID
  5
9
330
0
100
AcDbSymbolTable
 70
    28
  0
APPID
  5
56
330
9
100
AcDbSymbolTableRecord
100
AcDbRegAppTableRecord
  2
ACAD
 70
     0
  0
APPID
  5
5E
330
9
100
AcDbSymbolTableRecord
100
AcDbRegAppTableRecord
  2
AcadAnnotative
 70
     0
  0
APPID
  5
78
330
9
100
AcDbSymbolTableRecord
100
AcDbRegAppTableRecord
  2
ACAD_PSEXT
 70
     0
  0
APPID
  5
7A
330
9
100
AcDbSymbolTableRecord
100
AcDbRegAppTableRecord
  2
MCAD_NO_VIS
 70
     0
  0
APPID
  5
7B
330
9
100
AcDbSymbolTableRecord
100
AcDbRegAppTableRecord
  2
ACAD_TEMP_GRAPHIC
 70
     0
  0
APPID
  5
84
330
9
100
AcDbSymbolTableRecord
100
AcDbRegAppTableRecord
  2
ACAD_DSTYLE_DIMJAG
 70
     0
  0
APPID
  5
85
330
9
100
AcDbSymbolTableRecord
100
AcDbRegAppTableRecord
  2
ACAD_DSTYLE_DIMTALN
 70
     0
  0
APPID
  5
86
330
9
100
AcDbSymbolTableRecord
100
AcDbRegAppTableRecord
  2
ACAD_NAV_VCDISPLAY
 70
     0
  0
APPID
  5
87
330
9
100
AcDbSymbolTableRecord
100
AcDbRegAppTableRecord
  2
AcAecLayerStandard
 70
     0
  0
APPID
  5
88
330
9
100
AcDbSymbolTableRecord
100
AcDbRegAppTableRecord
  2
AcCmTransparency
 70
     0
  0
APPID
  5
89
330
9
100
AcDbSymbolTableRecord
100
AcDbRegAppTableRecord
  2
ACAD_DSTYLE_DIMBREAK
 70
     0
  0
APPID
  5
8A
330
9
100
AcDbSymbolTableRecord
100
AcDbRegAppTableRecord
  2
ACAD_DSTYLE_DIMRADIAL_EXTENSION
 70
     0
  0
APPID
  5
8B
330
9
100
AcDbSymbolTableRecord
100
AcDbRegAppTableRecord
  2
FUSIONTITLEBLOCK
 70
     0
  0
APPID
  5
8C
330
9
100
AcDbSymbolTableRecord
100
AcDbRegAppTableRecord
  2
FUSIONCURRENTTITLEBLOCK
 70
     0
  0
APPID
  5
8D
330
9
100
AcDbSymbolTableRecord
100
AcDbRegAppTableRecord
  2
AcSynergy
 70
     0
  0
APPID
  5
8E
330
9
100
AcDbSymbolTableRecord
100
AcDbRegAppTableRecord
  2
ACAD_VIEW_EDGE_ID
 70
     0
  0
APPID
  5
8F
330
9
100
AcDbSymbolTableRecord
100
AcDbRegAppTableRecord
  2
GENIUS_GENSCREG_15
 70
     0
  0
APPID
  5
90
330
9
100
AcDbSymbolTableRecord
100
AcDbRegAppTableRecord
  2
GENIUS_GENOBJ-N-SDF_13
 70
     0
  0
APPID
  5
91
330
9
100
AcDbSymbolTableRecord
100
AcDbRegAppTableRecord
  2
GENIUS_GENODEF_13
 70
     0
  0
APPID
  5
92
330
9
100
AcDbSymbolTableRecord
100
AcDbRegAppTableRecord
  2
ACAD_DIMASSOC_CALC_DIMLFAC
 70
     0
  0
APPID
  5
93
330
9
100
AcDbSymbolTableRecord
100
AcDbRegAppTableRecord
  2
ACAD_DIMASSOC_DIMLFAC
 70
     0
  0
APPID
  5
94
330
9
100
AcDbSymbolTableRecord
100
AcDbRegAppTableRecord
  2
ACAD_DIMASSOC_OVERRIDDEN_DIMLFAC
 70
     0
  0
APPID
  5
95
330
9
100
AcDbSymbolTableRecord
100
AcDbRegAppTableRecord
  2
FD_ATT_APPNAME
 70
     0
  0
APPID
  5
96
330
9
100
AcDbSymbolTableRecord
100
AcDbRegAppTableRecord
  2
SYNERGY_BODY_TBR_ID
 70
     0
  0
APPID
  5
97
330
9
100
AcDbSymbolTableRecord
100
AcDbRegAppTableRecord
  2
FusionCutBodyId
 70
     0
  0
APPID
  5
98
330
9
100
AcDbSymbolTableRecord
100
AcDbRegAppTableRecord
  2
FUSIONTITLEBLOCKATTRIBUTEOVERRIDE
 70
     0
  0
APPID
  5
99
330
9
100
AcDbSymbolTableRecord
100
AcDbRegAppTableRecord
  2
ACAD_DSTYLE_DIMJAG_POSITION
 70
     0
  0
APPID
  5
9A
330
9
100
AcDbSymbolTableRecord
100
AcDbRegAppTableRecord
  2
ACATTRIBSERVICES
 70
     0
  0
ENDTAB
  0
TABLE
  2
DIMSTYLE
  5
A
330
0
100
AcDbSymbolTable
 70
     2
100
AcDbDimStyleTable
 71
     1
340
58
  0
DIMSTYLE
105
58
102
{ACAD_REACTORS
330
2DE
330
2F5
330
303
330
311
330
31F
330
329
330
333
330
33D
330
34B
330
359
330
367
330
375
330
384
330
393
330
3A1
330
3AF
102
}
330
A
100
AcDbSymbolTableRecord
100
AcDbDimStyleTableRecord
  2
Standard
 70
     0
  3
in
  4
mm
 41
0.12
 42
0.05
 43
0.339411
 44
0.1
 47
0.01
 48
0.01
 78
    12
 79
     3
 90
        1
140
0.12
141
0.0
147
0.06
176
   256
177
   256
178
   256
179
     2
271
     3
272
     3
284
    12
285
    12
286
    12
340
55
  0
DIMSTYLE
105
59
330
A
100
AcDbSymbolTableRecord
100
AcDbDimStyleTableRecord
  2
Annotative
 70
     0
  3
in
  4
mm
 40
0.0
 43
0.339411
 78
    12
 79
     3
140
0.12
179
     2
271
     3
272
     3
284
    12
285
    12
286
    12
340
55
1001
AcadAnnotative
1000
AnnotativeData
1002
{
1070
     1
1070
     1
1002
}
  0
ENDTAB
  0
TABLE
  2
BLOCK_RECORD
  5
1
330
0
100
AcDbSymbolTable
 70
    39
  0
BLOCK_RECORD
  5
70
102
{ACAD_XDICTIONARY
360
B6
102
}
330
1
100
AcDbSymbolTableRecord
100
AcDbBlockTableRecord
  2
*Model_Space
340
73
 70
     0
280
     1
281
     0
  0
BLOCK_RECORD
  5
6C
330
1
100
AcDbSymbolTableRecord
100
AcDbBlockTableRecord
  2
*Paper_Space
340
6F
 70
     0
280
     1
281
     0
  0
BLOCK_RECORD
  5
74
330
1
100
AcDbSymbolTableRecord
100
AcDbBlockTableRecord
  2
*Paper_Space0
340
77
 70
     0
280
     1
281
     0
  0
BLOCK_RECORD
  5
29A
102
{ACAD_XDICTIONARY
360
29B
102
}
330
1
100
AcDbSymbolTableRecord
100
AcDbBlockTableRecord
  2
Shower
340
0
102
{BLKREFS
331
298
102
}
 70
     1
280
     1
281
     0
1001
FUSIONTITLEBLOCK
1000
TitleBlock
  0
BLOCK_RECORD
  5
2BF
330
1
100
AcDbSymbolTableRecord
100
AcDbBlockTableRecord
  2
ANSI_B_SHEET
340
0
310
2800000020000000200000000100080000000000000400000000000000000000000000000000000000000000000080000080000000808000800000008000800080800000C0C0C000C0DCC000F0CAA6000020400000206000002080000020A0000020C0000020E00000400000004020000040400000406000004080000040A0
310
000040C0000040E00000600000006020000060400000606000006080000060A0000060C0000060E00000800000008020000080400000806000008080000080A0000080C0000080E00000A0000000A0200000A0400000A0600000A0800000A0A00000A0C00000A0E00000C0000000C0200000C0400000C0600000C0800000C0
310
A00000C0C00000C0E00000E0000000E0200000E0400000E0600000E0800000E0A00000E0C00000E0E00040000000400020004000400040006000400080004000A0004000C0004000E00040200000402020004020400040206000402080004020A0004020C0004020E000404000004040200040404000404060004040800040
310
40A0004040C0004040E00040600000406020004060400040606000406080004060A0004060C0004060E00040800000408020004080400040806000408080004080A0004080C0004080E00040A0000040A0200040A0400040A0600040A0800040A0A00040A0C00040A0E00040C0000040C0200040C0400040C0600040C08000
310
40C0A00040C0C00040C0E00040E0000040E0200040E0400040E0600040E0800040E0A00040E0C00040E0E00080000000800020008000400080006000800080008000A0008000C0008000E00080200000802020008020400080206000802080008020A0008020C0008020E00080400000804020008040400080406000804080
310
008040A0008040C0008040E00080600000806020008060400080606000806080008060A0008060C0008060E00080800000808020008080400080806000808080008080A0008080C0008080E00080A0000080A0200080A0400080A0600080A0800080A0A00080A0C00080A0E00080C0000080C0200080C0400080C0600080C0
310
800080C0A00080C0C00080C0E00080E0000080E0200080E0400080E0600080E0800080E0A00080E0C00080E0E000C0000000C0002000C0004000C0006000C0008000C000A000C000C000C000E000C0200000C0202000C0204000C0206000C0208000C020A000C020C000C020E000C0400000C0402000C0404000C0406000C0
310
408000C040A000C040C000C040E000C0600000C0602000C0604000C0606000C0608000C060A000C060C000C060E000C0800000C0802000C0804000C0806000C0808000C080A000C080C000C080E000C0A00000C0A02000C0A04000C0A06000C0A08000C0A0A000C0A0C000C0A0E000C0C00000C0C02000C0C04000C0C06000
310
C0C08000C0C0A000F0FBFF00A4A0A000808080000000FF0000FF000000FFFF00FF000000FF00FF00FFFF0000FFFFFF0049494949494949494949494949494949494949494949494949494949494949494949494949494949494949494949494949494949494949494949494949494949494949494949494949494949494949
310
494949494949494949494949494949494949494949494949494949494949494949494949494949494949494949494949494949494949494949494949494949494949494949494949494949494949494949494949494949494949494949494949494949494949494949494949494949494949FFFF4949494949494949494949
310
494949494949494949494949494949FFFF4949FFFFFFFFFFFFFFFFFFFFFFFFFFFFFFFFFFFFFFFFFFFFFFFFFFFFFFFFFFFF494949FF4949494949494949494949494949494949494949494949494949FF49494949FF4949494949494949494949494949494949494949494949494949FF49494949FF49494949494949494949
310
49494949494949494949494949494949FF49494949FF4949494949494949494949494949494949494949494949494949FF49494949FF4949494949494949494949494949494949494949494949494949FF49494949FF4949494949494949494949494949494949494949494949494949FF49494949FF494949494949494949
310
4949494949494949494949494949494949FF49494949FF4949494949494949494949494949494949494949494949494949FF49494949FF4949494949494949494949494949494949494949494949494949FF49494949FF4949494949494949494949494949494949494949494949494949FF49494949FF4949494949494949
310
494949494949494949494949494949494949FF49494949FF4949494949494949494949494949494949494949494949494949FF49494949FF4949494949494949494949494949494949494949494949494949FF49494949FF4949494949494949494949494949494949494949494949494949FF49494949FF49494949494949
310
49494949494949494949494949494949494949FF49494949FF4949494949494949494949494949494949494949494949494949FF494949FFFFFFFFFFFFFFFFFFFFFFFFFFFFFFFFFFFFFFFFFFFFFFFFFFFFFFFFFFFF4949FFFF4949494949494949494949494949494949494949494949494949FFFF49494949494949494949
310
49494949494949494949494949494949494949494949494949494949494949494949494949494949494949494949494949494949494949494949494949494949494949494949494949494949494949494949494949494949494949494949494949494949494949494949494949494949494949494949494949494949494949
310
4949494949494949494949494949494949494949494949494949494949494949494949494949494949494949494949494949494949494949
102
{BLKREFS
331
2BD
102
}
 70
     1
280
     1
281
     0
  0
BLOCK_RECORD
  5
2E0
330
1
100
AcDbSymbolTableRecord
100
AcDbBlockTableRecord
  2
*D6
340
0
 70
     0
280
     1
281
     0
  0
BLOCK_RECORD
  5
2F6
330
1
100
AcDbSymbolTableRecord
100
AcDbBlockTableRecord
  2
*D7
340
0
 70
     0
280
     1
281
     0
  0
BLOCK_RECORD
  5
304
330
1
100
AcDbSymbolTableRecord
100
AcDbBlockTableRecord
  2
*D8
340
0
 70
     0
280
     1
281
     0
  0
BLOCK_RECORD
  5
312
330
1
100
AcDbSymbolTableRecord
100
AcDbBlockTableRecord
  2
*D9
340
0
 70
     0
280
     1
281
     0
  0
BLOCK_RECORD
  5
320
330
1
100
AcDbSymbolTableRecord
100
AcDbBlockTableRecord
  2
*D10
340
0
 70
     0
280
     1
281
     0
  0
BLOCK_RECORD
  5
32A
330
1
100
AcDbSymbolTableRecord
100
AcDbBlockTableRecord
  2
*D11
340
0
 70
     0
280
     1
281
     0
  0
BLOCK_RECORD
  5
334
330
1
100
AcDbSymbolTableRecord
100
AcDbBlockTableRecord
  2
*D12
340
0
 70
     0
280
     1
281
     0
  0
BLOCK_RECORD
  5
33E
330
1
100
AcDbSymbolTableRecord
100
AcDbBlockTableRecord
  2
*D13
340
0
 70
     0
280
     1
281
     0
  0
BLOCK_RECORD
  5
34C
330
1
100
AcDbSymbolTableRecord
100
AcDbBlockTableRecord
  2
*D14
340
0
 70
     0
280
     1
281
     0
  0
BLOCK_RECORD
  5
35A
330
1
100
AcDbSymbolTableRecord
100
AcDbBlockTableRecord
  2
*D15
340
0
 70
     0
280
     1
281
     0
  0
BLOCK_RECORD
  5
368
330
1
100
AcDbSymbolTableRecord
100
AcDbBlockTableRecord
  2
*D16
340
0
 70
     0
280
     1
281
     0
  0
BLOCK_RECORD
  5
376
330
1
100
AcDbSymbolTableRecord
100
AcDbBlockTableRecord
  2
*D17
340
0
 70
     0
280
     1
281
     0
  0
BLOCK_RECORD
  5
385
330
1
100
AcDbSymbolTableRecord
100
AcDbBlockTableRecord
  2
*D18
340
0
 70
     0
280
     1
281
     0
  0
BLOCK_RECORD
  5
394
330
1
100
AcDbSymbolTableRecord
100
AcDbBlockTableRecord
  2
*D19
340
0
 70
     0
280
     1
281
     0
  0
BLOCK_RECORD
  5
3A2
330
1
100
AcDbSymbolTableRecord
100
AcDbBlockTableRecord
  2
*D20
340
0
 70
     0
280
     1
281
     0
  0
BLOCK_RECORD
  5
3B0
330
1
100
AcDbSymbolTableRecord
100
AcDbBlockTableRecord
  2
*D21
340
0
 70
     0
280
     1
281
     0
  0
BLOCK_RECORD
  5
3C7
330
1
100
AcDbSymbolTableRecord
100
AcDbBlockTableRecord
  2
*D23
340
0
 70
     0
280
     1
281
     0
  0
BLOCK_RECORD
  5
3D4
330
1
100
AcDbSymbolTableRecord
100
AcDbBlockTableRecord
  2
*D24
340
0
 70
     0
280
     1
281
     0
  0
BLOCK_RECORD
  5
3E1
330
1
100
AcDbSymbolTableRecord
100
AcDbBlockTableRecord
  2
*D25
340
0
 70
     0
280
     1
281
     0
  0
BLOCK_RECORD
  5
3EE
330
1
100
AcDbSymbolTableRecord
100
AcDbBlockTableRecord
  2
*D26
340
0
 70
     0
280
     1
281
     0
  0
BLOCK_RECORD
  5
3FB
330
1
100
AcDbSymbolTableRecord
100
AcDbBlockTableRecord
  2
*D27
340
0
 70
     0
280
     1
281
     0
  0
BLOCK_RECORD
  5
404
330
1
100
AcDbSymbolTableRecord
100
AcDbBlockTableRecord
  2
*D28
340
0
 70
     0
280
     1
281
     0
  0
BLOCK_RECORD
  5
40D
330
1
100
AcDbSymbolTableRecord
100
AcDbBlockTableRecord
  2
*D29
340
0
 70
     0
280
     1
281
     0
  0
BLOCK_RECORD
  5
416
330
1
100
AcDbSymbolTableRecord
100
AcDbBlockTableRecord
  2
*D30
340
0
 70
     0
280
     1
281
     0
  0
BLOCK_RECORD
  5
423
330
1
100
AcDbSymbolTableRecord
100
AcDbBlockTableRecord
  2
*D31
340
0
 70
     0
280
     1
281
     0
  0
BLOCK_RECORD
  5
430
330
1
100
AcDbSymbolTableRecord
100
AcDbBlockTableRecord
  2
*D32
340
0
 70
     0
280
     1
281
     0
  0
BLOCK_RECORD
  5
43D
330
1
100
AcDbSymbolTableRecord
100
AcDbBlockTableRecord
  2
*D33
340
0
 70
     0
280
     1
281
     0
  0
BLOCK_RECORD
  5
44A
330
1
100
AcDbSymbolTableRecord
100
AcDbBlockTableRecord
  2
*D34
340
0
 70
     0
280
     1
281
     0
  0
BLOCK_RECORD
  5
458
330
1
100
AcDbSymbolTableRecord
100
AcDbBlockTableRecord
  2
*D35
340
0
 70
     0
280
     1
281
     0
  0
BLOCK_RECORD
  5
466
330
1
100
AcDbSymbolTableRecord
100
AcDbBlockTableRecord
  2
*D36
340
0
 70
     0
280
     1
281
     0
  0
BLOCK_RECORD
  5
473
330
1
100
AcDbSymbolTableRecord
100
AcDbBlockTableRecord
  2
*D37
340
0
 70
     0
280
     1
281
     0
  0
BLOCK_RECORD
  5
47B
330
1
100
AcDbSymbolTableRecord
100
AcDbBlockTableRecord
  2
*D38
340
0
 70
     0
280
     1
281
     0
  0
ENDTAB
  0
ENDSEC
  0
SECTION
  2
BLOCKS
  0
BLOCK
  5
71
330
70
100
AcDbEntity
  8
0
100
AcDbBlockBegin
  2
*Model_Space
 70
     0
 10
0.0
 20
0.0
 30
0.0
  3
*Model_Space
  1

  0
ENDBLK
  5
72
330
70
100
AcDbEntity
  8
0
100
AcDbBlockEnd
  0
BLOCK
  5
6D
330
6C
100
AcDbEntity
 67
     1
  8
0
100
AcDbBlockBegin
  2
*Paper_Space
 70
     0
 10
0.0
 20
0.0
 30
0.0
  3
*Paper_Space
  1

  0
ENDBLK
  5
6E
330
6C
100
AcDbEntity
 67
     1
  8
0
100
AcDbBlockEnd
  0
BLOCK
  5
75
330
74
100
AcDbEntity
 67
     1
  8
0
100
AcDbBlockBegin
  2
*Paper_Space0
 70
     0
 10
0.0
 20
0.0
 30
0.0
  3
*Paper_Space0
  1

  0
ENDBLK
  5
76
330
74
100
AcDbEntity
 67
     1
  8
0
100
AcDbBlockEnd
  0
BLOCK
  5
29D
330
29A
100
AcDbEntity
  8
0
100
AcDbBlockBegin
  2
Shower
 70
     2
 10
0.0
 20
0.0
 30
0.0
  3
Shower
  1

  0
LWPOLYLINE
  5
29E
330
29A
100
AcDbEntity
  8
Titleblock
100
AcDbPolyline
 90
        4
 70
     1
 43
0.0
 10
0.0
 20
0.0
 10
-4.9375
 20
0.0
 10
-4.9375
 20
2.5
 10
0.0
 20
2.5
  0
IMAGE
  5
29F
330
29A
100
AcDbEntity
  8
Titleblock
  6
Continuous
160
               140
310
8C0000000100000084000000060000000500000000000000008013C000B87FA8928AB03F000000000000000000000000008013C035B4911D6523F03F000000000000000001000000008001C035B4911D6523F03F000000000000000001000000008001C000B87FA8928AB03F000000000000000000000000008013C000B87F
310
A8928AB03F0000000000000000
370
     0
100
AcDbRasterImage
 90
        0
 10
-4.875
 20
0.064614
 30
0.0
 11
0.0028349156118143
 21
0.0
 31
0.0
 12
0.0
 22
0.0028349156118143
 32
0.0
 13
948.0
 23
333.0
340
2A0
 70
    15
280
     0
281
    50
282
    50
283
     0
290
     0
360
2A2
 71
     1
 91
        2
 14
-0.5
 24
-0.5
 14
947.5
 24
332.5
  0
LWPOLYLINE
  5
2A4
330
29A
100
AcDbEntity
  8
Titleblock
  6
Continuous
370
    25
100
AcDbPolyline
 90
        4
 70
     1
 43
0.0
 10
0.0
 20
1.0625
 10
-4.9375
 20
1.061638
 10
-4.9375
 20
0.0
 10
0.0
 20
0.0
  0
LWPOLYLINE
  5
2A5
330
29A
100
AcDbEntity
  8
Titleblock
  6
Continuous
370
    25
100
AcDbPolyline
 90
        4
 70
     1
 43
0.0
 10
-1.75
 20
2.5
 10
0.0
 20
2.5
 10
0.0
 20
2.5
 10
-1.75
 20
2.5
  0
ATTDEF
  5
2A6
330
29A
100
AcDbEntity
  8
Titleblock
  6
Continuous
370
    25
100
AcDbText
 10
-3.6875
 20
2.3125
 30
0.0
 40
0.12
  1

100
AcDbAttributeDefinition
280
     0
  3

  2
PROJECT
 70
     0
280
     1
  0
MTEXT
  5
2A7
330
29A
100
AcDbEntity
  8
Titleblock
  6
Continuous
370
    25
100
AcDbMText
 10
-4.875
 20
1.653875
 30
0.0
 40
0.12
 41
0.6875
 46
0.0
 71
     1
 72
     5
  1
Description:
 73
     1
 44
1.0
1001
ACAD
1000
ACAD_MTEXT_COLUMN_INFO_BEGIN
1070
    75
1070
     2
1070
    79
1070
     0
1070
    76
1070
     1
1070
    78
1070
     0
1070
    48
1040
0.6875
1070
    49
1040
0.6
1070
    50
1070
     1
1040
0.0
1000
ACAD_MTEXT_COLUMN_INFO_END
  0
ATTDEF
  5
2A8
330
29A
100
AcDbEntity
  8
Titleblock
  6
Continuous
370
    25
100
AcDbText
 10
-1.6875
 20
0.6875
 30
0.0
 40
0.12
  1

100
AcDbAttributeDefinition
280
     0
  3

  2
DRAWN_DATE
 70
     0
280
     1
  0
ATTDEF
  5
2A9
330
29A
100
AcDbEntity
  8
Titleblock
  6
Continuous
370
    25
100
AcDbText
 10
-4.3125
 20
1.8125
 30
0.0
 40
0.3048
  1

100
AcDbAttributeDefinition
280
     0
  3

  2
TITLE_1
 70
     0
280
     1
  0
ATTDEF
  5
2AA
330
29A
100
AcDbEntity
  8
Titleblock
  6
Continuous
370
    25
100
AcDbText
 10
-1.6875
 20
0.91994
 30
0.0
 40
0.12
  1

100
AcDbAttributeDefinition
280
     0
  3

  2
SCALE
 70
     0
280
     1
  0
LWPOLYLINE
  5
2AB
330
29A
100
AcDbEntity
  8
Titleblock
  6
Continuous
370
    25
100
AcDbPolyline
 90
        4
 70
     1
 43
0.0
 10
0.0
 20
1.0625
 10
0.0
 20
1.0625
 10
0.0
 20
0.0
 10
0.0
 20
0.0
  0
LWPOLYLINE
  5
2AC
330
29A
100
AcDbEntity
  8
Titleblock
  6
Continuous
370
    25
100
AcDbPolyline
 90
        4
 70
     1
 43
0.0
 10
0.0
 20
1.0625
 10
0.0
 20
1.0625
 10
0.0
 20
0.0
 10
0.0
 20
0.0
  0
LINE
  5
2AD
330
29A
100
AcDbEntity
  8
Titleblock
  6
Continuous
370
    25
100
AcDbLine
 10
-2.125
 20
1.062165
 30
0.0
 11
-2.125
 21
0.0
 31
0.0
  0
LWPOLYLINE
  5
2AE
330
29A
100
AcDbEntity
  8
Titleblock
  6
Continuous
370
    25
100
AcDbPolyline
 90
        4
 70
     1
 43
0.0
 10
-4.9375
 20
2.5
 10
0.0
 20
2.5
 10
0.0
 20
2.5
 10
-4.9375
 20
2.5
  0
LINE
  5
2AF
330
29A
100
AcDbEntity
  8
Titleblock
  6
Continuous
370
    25
100
AcDbLine
 10
-4.9375
 20
2.25
 30
0.0
 11
0.0
 21
2.25
 31
0.0
  0
LINE
  5
2B0
330
29A
100
AcDbEntity
  8
Titleblock
  6
Continuous
370
    25
100
AcDbLine
 10
-4.9375
 20
1.6875
 30
0.0
 11
0.0
 21
1.6875
 31
0.0
  0
MTEXT
  5
2B1
330
29A
100
AcDbEntity
  8
Titleblock
100
AcDbMText
 10
-4.875
 20
2.467284
 30
0.0
 40
0.12
 41
0.375
 46
0.0
 71
     1
 72
     5
  1
Project:
 73
     1
 44
1.0
1001
ACAD
1000
ACAD_MTEXT_COLUMN_INFO_BEGIN
1070
    75
1070
     2
1070
    79
1070
     0
1070
    76
1070
     1
1070
    78
1070
     0
1070
    48
1040
0.375
1070
    49
1040
0.6
1070
    50
1070
     1
1040
0.0
1000
ACAD_MTEXT_COLUMN_INFO_END
  0
MTEXT
  5
2B2
330
29A
100
AcDbEntity
  8
Titleblock
100
AcDbMText
 10
-2.0625
 20
1.045477
 30
0.0
 40
0.075
 41
0.375
 46
0.0
 71
     1
 72
     5
  1
Scale:
 73
     1
 44
1.0
1001
ACAD
1000
ACAD_MTEXT_COLUMN_INFO_BEGIN
1070
    75
1070
     2
1070
    79
1070
     0
1070
    76
1070
     1
1070
    78
1070
     0
1070
    48
1040
0.375
1070
    49
1040
0.6
1070
    50
1070
     1
1040
0.0
1000
ACAD_MTEXT_COLUMN_INFO_END
  0
MTEXT
  5
2B3
330
29A
100
AcDbEntity
  8
Titleblock
100
AcDbMText
 10
-2.0625
 20
0.857735
 30
0.0
 40
0.075
 41
0.375
 46
0.0
 71
     1
 72
     5
  1
Date Drawn:
 73
     1
 44
1.0
1001
ACAD
1000
ACAD_MTEXT_COLUMN_INFO_BEGIN
1070
    75
1070
     2
1070
    79
1070
     0
1070
    76
1070
     1
1070
    78
1070
     0
1070
    48
1040
0.375
1070
    49
1040
0.6
1070
    50
1070
     1
1040
0.0
1000
ACAD_MTEXT_COLUMN_INFO_END
  0
LINE
  5
2B4
330
29A
100
AcDbEntity
  8
Titleblock
100
AcDbLine
 10
-2.125
 20
0.875
 30
0.0
 11
0.0
 21
0.875
 31
0.0
  0
LINE
  5
2B5
330
29A
100
AcDbEntity
  8
Titleblock
100
AcDbLine
 10
-2.125
 20
0.625
 30
0.0
 11
0.0
 21
0.625
 31
0.0
  0
MTEXT
  5
2B6
330
29A
100
AcDbEntity
  8
Titleblock
100
AcDbMText
 10
-4.875
 20
2.220603
 30
0.0
 40
0.12
 41
0.625
 46
0.0
 71
     1
 72
     5
  1
Title:
 73
     1
 44
1.0
1001
ACAD
1000
ACAD_MTEXT_COLUMN_INFO_BEGIN
1070
    75
1070
     2
1070
    79
1070
     0
1070
    76
1070
     1
1070
    78
1070
     0
1070
    48
1040
0.625
1070
    49
1040
0.6
1070
    50
1070
     1
1040
0.0
1000
ACAD_MTEXT_COLUMN_INFO_END
  0
ENDBLK
  5
2B7
330
29A
100
AcDbEntity
  8
0
100
AcDbBlockEnd
  0
BLOCK
  5
2C0
330
2BF
100
AcDbEntity
  8
0
100
AcDbBlockBegin
  2
ANSI_B_SHEET
 70
     0
 10
0.0
 20
0.0
 30
0.0
  3
ANSI_B_SHEET
  1

  0
LINE
  5
2C1
330
2BF
100
AcDbEntity
  8
Border
100
AcDbLine
 10
0.0
 20
0.0
 30
0.0
 11
0.5
 21
0.0
 31
0.0
  0
LINE
  5
2C2
330
2BF
100
AcDbEntity
  8
Border
100
AcDbLine
 10
16.5
 20
0.0
 30
0.0
 11
17.0
 21
0.0
 31
0.0
  0
LINE
  5
2C3
330
2BF
100
AcDbEntity
  8
Border
100
AcDbLine
 10
0.62
 20
0.38
 30
0.0
 11
16.38
 21
0.38
 31
0.0
  0
LINE
  5
2C4
330
2BF
100
AcDbEntity
  8
Border
100
AcDbLine
 10
17.0
 20
0.0
 30
0.0
 11
17.0
 21
0.5
 31
0.0
  0
LINE
  5
2C5
330
2BF
100
AcDbEntity
  8
Border
100
AcDbLine
 10
17.0
 20
10.5
 30
0.0
 11
17.0
 21
11.0
 31
0.0
  0
LINE
  5
2C6
330
2BF
100
AcDbEntity
  8
Border
100
AcDbLine
 10
16.38
 20
0.38
 30
0.0
 11
16.38
 21
10.62
 31
0.0
  0
LINE
  5
2C7
330
2BF
100
AcDbEntity
  8
Border
100
AcDbLine
 10
17.0
 20
11.0
 30
0.0
 11
16.5
 21
11.0
 31
0.0
  0
LINE
  5
2C8
330
2BF
100
AcDbEntity
  8
Border
100
AcDbLine
 10
0.5
 20
11.0
 30
0.0
 11
0.0
 21
11.0
 31
0.0
  0
LINE
  5
2C9
330
2BF
100
AcDbEntity
  8
Border
100
AcDbLine
 10
16.38
 20
10.62
 30
0.0
 11
0.62
 21
10.62
 31
0.0
  0
LINE
  5
2CA
330
2BF
100
AcDbEntity
  8
Border
100
AcDbLine
 10
0.0
 20
11.0
 30
0.0
 11
0.0
 21
10.5
 31
0.0
  0
LINE
  5
2CB
330
2BF
100
AcDbEntity
  8
Border
100
AcDbLine
 10
0.0
 20
0.5
 30
0.0
 11
0.0
 21
0.0
 31
0.0
  0
LINE
  5
2CC
330
2BF
100
AcDbEntity
  8
Border
100
AcDbLine
 10
0.62
 20
10.62
 30
0.0
 11
0.62
 21
0.38
 31
0.0
  0
LINE
  5
2CD
330
2BF
100
AcDbEntity
  8
Border
100
AcDbLine
 10
8.413397
 20
0.23
 30
0.0
 11
8.586603
 21
0.23
 31
0.0
  0
LINE
  5
2CE
330
2BF
100
AcDbEntity
  8
Border
100
AcDbLine
 10
8.5
 20
0.38
 30
0.0
 11
8.5
 21
0.13
 31
0.0
  0
LINE
  5
2CF
330
2BF
100
AcDbEntity
  8
Border
100
AcDbLine
 10
8.5
 20
0.38
 30
0.0
 11
8.413397
 21
0.23
 31
0.0
  0
LINE
  5
2D0
330
2BF
100
AcDbEntity
  8
Border
100
AcDbLine
 10
8.5
 20
0.38
 30
0.0
 11
8.586603
 21
0.23
 31
0.0
  0
LINE
  5
2D1
330
2BF
100
AcDbEntity
  8
Border
100
AcDbLine
 10
0.47
 20
5.586603
 30
0.0
 11
0.47
 21
5.413397
 31
0.0
  0
LINE
  5
2D2
330
2BF
100
AcDbEntity
  8
Border
100
AcDbLine
 10
0.62
 20
5.5
 30
0.0
 11
0.37
 21
5.5
 31
0.0
  0
LINE
  5
2D3
330
2BF
100
AcDbEntity
  8
Border
100
AcDbLine
 10
0.62
 20
5.5
 30
0.0
 11
0.47
 21
5.586603
 31
0.0
  0
LINE
  5
2D4
330
2BF
100
AcDbEntity
  8
Border
100
AcDbLine
 10
0.62
 20
5.5
 30
0.0
 11
0.47
 21
5.413397
 31
0.0
  0
LINE
  5
2D5
330
2BF
100
AcDbEntity
  8
Border
100
AcDbLine
 10
16.53
 20
5.586603
 30
0.0
 11
16.53
 21
5.413397
 31
0.0
  0
LINE
  5
2D6
330
2BF
100
AcDbEntity
  8
Border
100
AcDbLine
 10
16.38
 20
5.5
 30
0.0
 11
16.63
 21
5.5
 31
0.0
  0
LINE
  5
2D7
330
2BF
100
AcDbEntity
  8
Border
100
AcDbLine
 10
16.38
 20
5.5
 30
0.0
 11
16.53
 21
5.586603
 31
0.0
  0
LINE
  5
2D8
330
2BF
100
AcDbEntity
  8
Border
100
AcDbLine
 10
16.38
 20
5.5
 30
0.0
 11
16.53
 21
5.413397
 31
0.0
  0
LINE
  5
2D9
330
2BF
100
AcDbEntity
  8
Border
100
AcDbLine
 10
8.413397
 20
10.77
 30
0.0
 11
8.586603
 21
10.77
 31
0.0
  0
LINE
  5
2DA
330
2BF
100
AcDbEntity
  8
Border
100
AcDbLine
 10
8.5
 20
10.62
 30
0.0
 11
8.5
 21
10.87
 31
0.0
  0
LINE
  5
2DB
330
2BF
100
AcDbEntity
  8
Border
100
AcDbLine
 10
8.5
 20
10.62
 30
0.0
 11
8.413397
 21
10.77
 31
0.0
  0
LINE
  5
2DC
330
2BF
100
AcDbEntity
  8
Border
100
AcDbLine
 10
8.5
 20
10.62
 30
0.0
 11
8.586603
 21
10.77
 31
0.0
  0
ENDBLK
  5
2DD
330
2BF
100
AcDbEntity
  8
0
100
AcDbBlockEnd
  0
BLOCK
  5
2E1
330
2E0
100
AcDbEntity
  8
0
100
AcDbBlockBegin
  2
*D6
 70
     1
 10
0.0
 20
0.0
 30
0.0
  3
*D6
  1

  0
LINE
  5
2E2
330
2E0
100
AcDbEntity
  8
Dimensions
440
 16777216
370
    -2
100
AcDbLine
 10
2.500219
 20
9.572383
 30
0.0
 11
2.500858
 21
9.961794
 31
0.0
  0
LINE
  5
2E3
330
2E0
100
AcDbEntity
  8
Dimensions
440
 16777216
370
    -2
100
AcDbLine
 10
14.500203
 20
9.552697
 30
0.0
 11
14.500842
 21
9.942108
 31
0.0
  0
LINE
  5
2E4
330
2E0
100
AcDbEntity
  8
Dimensions
440
 16777216
370
    -2
100
AcDbLine
 10
2.620694
 20
9.861597
 30
0.0
 11
8.243824
 21
9.852372
 31
0.0
  0
LINE
  5
2E5
330
2E0
100
AcDbEntity
  8
Dimensions
440
 16777216
370
    -2
100
AcDbLine
 10
14.380678
 20
9.842305
 30
0.0
 11
8.757548
 21
9.85153
 31
0.0
  0
SOLID
  5
2E6
330
2E0
100
AcDbEntity
  8
Dimensions
440
 16777216
100
AcDbTrace
 10
2.620727
 20
9.881597
 30
0.0
 11
2.620661
 21
9.841597
 31
0.0
 12
2.500694
 22
9.861794
 32
0.0
 13
2.500694
 23
9.861794
 33
0.0
  0
SOLID
  5
2E7
330
2E0
100
AcDbEntity
  8
Dimensions
440
 16777216
100
AcDbTrace
 10
14.380711
 20
9.862305
 30
0.0
 11
14.380645
 21
9.822305
 31
0.0
 12
14.500678
 22
9.842108
 32
0.0
 13
14.500678
 23
9.842108
 33
0.0
  0
MTEXT
  5
2E8
330
2E0
100
AcDbEntity
  8
Dimensions
440
 16777216
100
AcDbMText
 10
8.500686
 20
9.851951
 30
0.0
 40
0.12
 41
0.0
 46
0.0
 71
     5
 72
     1
  1
\A1;240in
 73
     1
 44
1.0
  0
POINT
  5
2E9
330
2E0
100
AcDbEntity
  8
Defpoints
 62
     0
440
 16777216
100
AcDbPoint
 10
2.500137
 20
9.522383
 30
0.0
  0
POINT
  5
2EA
330
2E0
100
AcDbEntity
  8
Defpoints
 62
     0
440
 16777216
100
AcDbPoint
 10
14.500121
 20
9.502697
 30
0.0
  0
POINT
  5
2EB
330
2E0
100
AcDbEntity
  8
Defpoints
 62
     0
440
 16777216
100
AcDbPoint
 10
14.500678
 20
9.842108
 30
0.0
  0
ENDBLK
  5
2EC
330
2E0
100
AcDbEntity
  8
0
100
AcDbBlockEnd
  0
BLOCK
  5
2F7
330
2F6
100
AcDbEntity
  8
0
100
AcDbBlockBegin
  2
*D7
 70
     1
 10
0.0
 20
0.0
 30
0.0
  3
*D7
  1

  0
LINE
  5
2F8
330
2F6
100
AcDbEntity
  8
Dimensions
440
 16777216
370
    -2
100
AcDbLine
 10
5.604692
 20
7.838321
 30
0.0
 11
5.604692
 21
6.768118
 31
0.0
  0
LINE
  5
2F9
330
2F6
100
AcDbEntity
  8
Dimensions
440
 16777216
370
    -2
100
AcDbLine
 10
4.404688
 20
7.836352
 30
0.0
 11
4.404688
 21
6.768118
 31
0.0
  0
LINE
  5
2FA
330
2F6
100
AcDbEntity
  8
Dimensions
440
 16777216
370
    -2
100
AcDbLine
 10
5.484692
 20
6.868118
 30
0.0
 11
5.167623
 21
6.868118
 31
0.0
  0
LINE
  5
2FB
330
2F6
100
AcDbEntity
  8
Dimensions
440
 16777216
370
    -2
100
AcDbLine
 10
4.524688
 20
6.868118
 30
0.0
 11
4.841757
 21
6.868118
 31
0.0
  0
SOLID
  5
2FC
330
2F6
100
AcDbEntity
  8
Dimensions
440
 16777216
100
AcDbTrace
 10
5.484692
 20
6.888118
 30
0.0
 11
5.484692
 21
6.848118
 31
0.0
 12
5.604692
 22
6.868118
 32
0.0
 13
5.604692
 23
6.868118
 33
0.0
  0
SOLID
  5
2FD
330
2F6
100
AcDbEntity
  8
Dimensions
440
 16777216
100
AcDbTrace
 10
4.524688
 20
6.888118
 30
0.0
 11
4.524688
 21
6.848118
 31
0.0
 12
4.404688
 22
6.868118
 32
0.0
 13
4.404688
 23
6.868118
 33
0.0
  0
MTEXT
  5
2FE
330
2F6
100
AcDbEntity
  8
Dimensions
440
 16777216
100
AcDbMText
 10
5.00469
 20
6.868118
 30
0.0
 40
0.12
 41
0.0
 46
0.0
 71
     5
 72
     1
  1
\A1;6in
 73
     1
 44
1.0
  0
POINT
  5
2FF
330
2F6
100
AcDbEntity
  8
Defpoints
 62
     0
440
 16777216
100
AcDbPoint
 10
5.604692
 20
7.888321
 30
0.0
  0
POINT
  5
300
330
2F6
100
AcDbEntity
  8
Defpoints
 62
     0
440
 16777216
100
AcDbPoint
 10
4.404688
 20
7.886352
 30
0.0
  0
POINT
  5
301
330
2F6
100
AcDbEntity
  8
Defpoints
 62
     0
440
 16777216
100
AcDbPoint
 10
4.404688
 20
6.868118
 30
0.0
  0
ENDBLK
  5
302
330
2F6
100
AcDbEntity
  8
0
100
AcDbBlockEnd
  0
BLOCK
  5
305
330
304
100
AcDbEntity
  8
0
100
AcDbBlockBegin
  2
*D8
 70
     1
 10
0.0
 20
0.0
 30
0.0
  3
*D8
  1

  0
LINE
  5
306
330
304
100
AcDbEntity
  8
Dimensions
440
 16777216
370
    -2
100
AcDbLine
 10
5.60461
 20
7.838321
 30
0.0
 11
5.602858
 21
6.770088
 31
0.0
  0
LINE
  5
307
330
304
100
AcDbEntity
  8
Dimensions
440
 16777216
370
    -2
100
AcDbLine
 10
8.004607
 20
7.834383
 30
0.0
 11
8.002855
 21
6.766151
 31
0.0
  0
LINE
  5
308
330
304
100
AcDbEntity
  8
Dimensions
440
 16777216
370
    -2
100
AcDbLine
 10
5.723022
 20
6.869891
 30
0.0
 11
6.599446
 21
6.868454
 31
0.0
  0
LINE
  5
309
330
304
100
AcDbEntity
  8
Dimensions
440
 16777216
370
    -2
100
AcDbLine
 10
7.883019
 20
6.866348
 30
0.0
 11
7.006595
 21
6.867786
 31
0.0
  0
SOLID
  5
30A
330
304
100
AcDbEntity
  8
Dimensions
440
 16777216
100
AcDbTrace
 10
5.723055
 20
6.889891
 30
0.0
 11
5.722989
 21
6.849891
 31
0.0
 12
5.603022
 22
6.870088
 32
0.0
 13
5.603022
 23
6.870088
 33
0.0
  0
SOLID
  5
30B
330
304
100
AcDbEntity
  8
Dimensions
440
 16777216
100
AcDbTrace
 10
7.883052
 20
6.886348
 30
0.0
 11
7.882986
 21
6.846348
 31
0.0
 12
8.003019
 22
6.866151
 32
0.0
 13
8.003019
 23
6.866151
 33
0.0
  0
MTEXT
  5
30C
330
304
100
AcDbEntity
  8
Dimensions
440
 16777216
100
AcDbMText
 10
6.80302
 20
6.86812
 30
0.0
 40
0.12
 41
0.0
 46
0.0
 71
     5
 72
     1
  1
\A1;12in
 73
     1
 44
1.0
  0
POINT
  5
30D
330
304
100
AcDbEntity
  8
Defpoints
 62
     0
440
 16777216
100
AcDbPoint
 10
5.604692
 20
7.888321
 30
0.0
  0
POINT
  5
30E
330
304
100
AcDbEntity
  8
Defpoints
 62
     0
440
 16777216
100
AcDbPoint
 10
8.004689
 20
7.884383
 30
0.0
  0
POINT
  5
30F
330
304
100
AcDbEntity
  8
Defpoints
 62
     0
440
 16777216
100
AcDbPoint
 10
8.003019
 20
6.866151
 30
0.0
  0
ENDBLK
  5
310
330
304
100
AcDbEntity
  8
0
100
AcDbBlockEnd
  0
BLOCK
  5
313
330
312
100
AcDbEntity
  8
0
100
AcDbBlockBegin
  2
*D9
 70
     1
 10
0.0
 20
0.0
 30
0.0
  3
*D9
  1

  0
LINE
  5
314
330
312
100
AcDbEntity
  8
Dimensions
440
 16777216
370
    -2
100
AcDbLine
 10
12.404626
 20
7.827165
 30
0.0
 11
12.402788
 21
6.226678
 31
0.0
  0
LINE
  5
315
330
312
100
AcDbEntity
  8
Dimensions
440
 16777216
370
    -2
100
AcDbLine
 10
4.40463
 20
7.836352
 30
0.0
 11
4.402792
 21
6.235865
 31
0.0
  0
LINE
  5
316
330
312
100
AcDbEntity
  8
Dimensions
440
 16777216
370
    -2
100
AcDbLine
 10
12.282903
 20
6.326816
 30
0.0
 11
8.614542
 21
6.331028
 31
0.0
  0
LINE
  5
317
330
312
100
AcDbEntity
  8
Dimensions
440
 16777216
370
    -2
100
AcDbLine
 10
4.522907
 20
6.335727
 30
0.0
 11
8.191268
 21
6.331514
 31
0.0
  0
SOLID
  5
318
330
312
100
AcDbEntity
  8
Dimensions
440
 16777216
100
AcDbTrace
 10
12.282926
 20
6.346816
 30
0.0
 11
12.28288
 21
6.306816
 31
0.0
 12
12.402903
 22
6.326678
 32
0.0
 13
12.402903
 23
6.326678
 33
0.0
  0
SOLID
  5
319
330
312
100
AcDbEntity
  8
Dimensions
440
 16777216
100
AcDbTrace
 10
4.52293
 20
6.355727
 30
0.0
 11
4.522884
 21
6.315727
 31
0.0
 12
4.402907
 22
6.335865
 32
0.0
 13
4.402907
 23
6.335865
 33
0.0
  0
MTEXT
  5
31A
330
312
100
AcDbEntity
  8
Dimensions
440
 16777216
100
AcDbMText
 10
8.402905
 20
6.331271
 30
0.0
 40
0.12
 41
0.0
 46
0.0
 71
     5
 72
     1
  1
\A1;40in
 73
     1
 44
1.0
  0
POINT
  5
31B
330
312
100
AcDbEntity
  8
Defpoints
 62
     0
440
 16777216
100
AcDbPoint
 10
12.404683
 20
7.877165
 30
0.0
  0
POINT
  5
31C
330
312
100
AcDbEntity
  8
Defpoints
 62
     0
440
 16777216
100
AcDbPoint
 10
4.404688
 20
7.886352
 30
0.0
  0
POINT
  5
31D
330
312
100
AcDbEntity
  8
Defpoints
 62
     0
440
 16777216
100
AcDbPoint
 10
4.402907
 20
6.335865
 30
0.0
  0
ENDBLK
  5
31E
330
312
100
AcDbEntity
  8
0
100
AcDbBlockEnd
  0
BLOCK
  5
321
330
320
100
AcDbEntity
  8
0
100
AcDbBlockBegin
  2
*D10
 70
     1
 10
0.0
 20
0.0
 30
0.0
  3
*D10
  1

  0
LINE
  5
322
330
320
100
AcDbEntity
  8
Dimensions
440
 16777216
370
    -2
100
AcDbLine
 10
12.058125
 20
8.728762
 30
0.0
 11
12.178125
 21
8.728762
 31
0.0
  0
LINE
  5
323
330
320
100
AcDbEntity
  8
Dimensions
440
 16777216
370
    -2
100
AcDbLine
 10
12.178125
 20
8.728762
 30
0.0
 11
12.360673
 21
8.042592
 31
0.0
  0
MTEXT
  5
324
330
320
100
AcDbEntity
  8
Dimensions
440
 16777216
100
AcDbMText
 10
11.713718
 20
8.728762
 30
0.0
 40
0.12
 41
0.0
 46
0.0
 71
     5
 72
     1
  1
\A1;∅.512in
 73
     1
 44
1.0
  0
SOLID
  5
325
330
320
100
AcDbEntity
  8
Dimensions
440
 16777216
100
AcDbTrace
 10
12.380001
 20
8.047734
 30
0.0
 11
12.341345
 21
8.03745
 31
0.0
 12
12.391525
 22
7.926626
 32
0.0
 13
12.391525
 23
7.926626
 33
0.0
  0
POINT
  5
326
330
320
100
AcDbEntity
  8
Defpoints
 62
     0
440
 16777216
100
AcDbPoint
 10
12.391525
 20
7.926626
 30
0.0
  0
POINT
  5
327
330
320
100
AcDbEntity
  8
Defpoints
 62
     0
440
 16777216
100
AcDbPoint
 10
12.417842
 20
7.827705
 30
0.0
  0
ENDBLK
  5
328
330
320
100
AcDbEntity
  8
0
100
AcDbBlockEnd
  0
BLOCK
  5
32B
330
32A
100
AcDbEntity
  8
0
100
AcDbBlockBegin
  2
*D11
 70
     1
 10
0.0
 20
0.0
 30
0.0
  3
*D11
  1

  0
LINE
  5
32C
330
32A
100
AcDbEntity
  8
Dimensions
440
 16777216
370
    -2
100
AcDbLine
 10
6.164176
 20
8.880471
 30
0.0
 11
6.044176
 21
8.880471
 31
0.0
  0
LINE
  5
32D
330
32A
100
AcDbEntity
  8
Dimensions
440
 16777216
370
    -2
100
AcDbLine
 10
6.044176
 20
8.880471
 30
0.0
 11
5.701128
 21
8.106028
 31
0.0
  0
MTEXT
  5
32E
330
32A
100
AcDbEntity
  8
Dimensions
440
 16777216
100
AcDbMText
 10
6.555199
 20
8.880471
 30
0.0
 40
0.12
 41
0.0
 46
0.0
 71
     5
 72
     1
  1
\A1;∅1.181in
 73
     1
 44
1.0
  0
SOLID
  5
32F
330
32A
100
AcDbEntity
  8
Dimensions
440
 16777216
100
AcDbTrace
 10
5.682842
 20
8.114128
 30
0.0
 11
5.719415
 21
8.097928
 31
0.0
 12
5.652528
 22
7.99631
 32
0.0
 13
5.652528
 23
7.99631
 33
0.0
  0
POINT
  5
330
330
32A
100
AcDbEntity
  8
Defpoints
 62
     0
440
 16777216
100
AcDbPoint
 10
5.652528
 20
7.99631
 30
0.0
  0
POINT
  5
331
330
32A
100
AcDbEntity
  8
Defpoints
 62
     0
440
 16777216
100
AcDbPoint
 10
5.556857
 20
7.780331
 30
0.0
  0
ENDBLK
  5
332
330
32A
100
AcDbEntity
  8
0
100
AcDbBlockEnd
  0
BLOCK
  5
335
330
334
100
AcDbEntity
  8
0
100
AcDbBlockBegin
  2
*D12
 70
     1
 10
0.0
 20
0.0
 30
0.0
  3
*D12
  1

  0
LINE
  5
336
330
334
100
AcDbEntity
  8
Dimensions
440
 16777216
370
    -2
100
AcDbLine
 10
6.28038
 20
8.530613
 30
0.0
 11
6.16038
 21
8.530613
 31
0.0
  0
LINE
  5
337
330
334
100
AcDbEntity
  8
Dimensions
440
 16777216
370
    -2
100
AcDbLine
 10
6.16038
 20
8.530613
 30
0.0
 11
5.726997
 21
8.029686
 31
0.0
  0
MTEXT
  5
338
330
334
100
AcDbEntity
  8
Dimensions
440
 16777216
100
AcDbMText
 10
6.624787
 20
8.530613
 30
0.0
 40
0.12
 41
0.0
 46
0.0
 71
     5
 72
     1
  1
\A1;∅.669in
 73
     1
 44
1.0
  0
SOLID
  5
339
330
334
100
AcDbEntity
  8
Dimensions
440
 16777216
100
AcDbTrace
 10
5.711872
 20
8.042772
 30
0.0
 11
5.742122
 21
8.0166
 31
0.0
 12
5.648483
 22
7.938936
 32
0.0
 13
5.648483
 23
7.938936
 33
0.0
  0
POINT
  5
33A
330
334
100
AcDbEntity
  8
Defpoints
 62
     0
440
 16777216
100
AcDbPoint
 10
5.648483
 20
7.938936
 30
0.0
  0
POINT
  5
33B
330
334
100
AcDbEntity
  8
Defpoints
 62
     0
440
 16777216
100
AcDbPoint
 10
5.560902
 20
7.837705
 30
0.0
  0
ENDBLK
  5
33C
330
334
100
AcDbEntity
  8
0
100
AcDbBlockEnd
  0
BLOCK
  5
33F
330
33E
100
AcDbEntity
  8
0
100
AcDbBlockBegin
  2
*D13
 70
     1
 10
0.0
 20
0.0
 30
0.0
  3
*D13
  1

  0
LINE
  5
340
330
33E
100
AcDbEntity
  8
Dimensions
440
 16777216
370
    -2
100
AcDbLine
 10
6.925197
 20
1.503985
 30
0.0
 11
6.925197
 21
1.001016
 31
0.0
  0
LINE
  5
341
330
33E
100
AcDbEntity
  8
Dimensions
440
 16777216
370
    -2
100
AcDbLine
 10
10.074803
 20
1.503985
 30
0.0
 11
10.074803
 21
1.001016
 31
0.0
  0
LINE
  5
342
330
33E
100
AcDbEntity
  8
Dimensions
440
 16777216
370
    -2
100
AcDbLine
 10
7.045197
 20
1.101016
 30
0.0
 11
8.220914
 21
1.101016
 31
0.0
  0
LINE
  5
343
330
33E
100
AcDbEntity
  8
Dimensions
440
 16777216
370
    -2
100
AcDbLine
 10
9.954803
 20
1.101016
 30
0.0
 11
8.779086
 21
1.101016
 31
0.0
  0
SOLID
  5
344
330
33E
100
AcDbEntity
  8
Dimensions
440
 16777216
100
AcDbTrace
 10
7.045197
 20
1.121016
 30
0.0
 11
7.045197
 21
1.081016
 31
0.0
 12
6.925197
 22
1.101016
 32
0.0
 13
6.925197
 23
1.101016
 33
0.0
  0
SOLID
  5
345
330
33E
100
AcDbEntity
  8
Dimensions
440
 16777216
100
AcDbTrace
 10
9.954803
 20
1.121016
 30
0.0
 11
9.954803
 21
1.081016
 31
0.0
 12
10.074803
 22
1.101016
 32
0.0
 13
10.074803
 23
1.101016
 33
0.0
  0
MTEXT
  5
346
330
33E
100
AcDbEntity
  8
Dimensions
440
 16777216
100
AcDbMText
 10
8.5
 20
1.101016
 30
0.0
 40
0.12
 41
0.0
 46
0.0
 71
     5
 72
     1
  1
\A1;3.15in
 73
     1
 44
1.0
  0
POINT
  5
347
330
33E
100
AcDbEntity
  8
Defpoints
 62
     0
440
 16777216
100
AcDbPoint
 10
6.925197
 20
1.553985
 30
0.0
  0
POINT
  5
348
330
33E
100
AcDbEntity
  8
Defpoints
 62
     0
440
 16777216
100
AcDbPoint
 10
10.074803
 20
1.553985
 30
0.0
  0
POINT
  5
349
330
33E
100
AcDbEntity
  8
Defpoints
 62
     0
440
 16777216
100
AcDbPoint
 10
10.074803
 20
1.101016
 30
0.0
  0
ENDBLK
  5
34A
330
33E
100
AcDbEntity
  8
0
100
AcDbBlockEnd
  0
BLOCK
  5
34D
330
34C
100
AcDbEntity
  8
0
100
AcDbBlockBegin
  2
*D14
 70
     1
 10
0.0
 20
0.0
 30
0.0
  3
*D14
  1

  0
LINE
  5
34E
330
34C
100
AcDbEntity
  8
Dimensions
440
 16777216
370
    -2
100
AcDbLine
 10
6.894882
 20
1.5343
 30
0.0
 11
4.878352
 21
1.5343
 31
0.0
  0
LINE
  5
34F
330
34C
100
AcDbEntity
  8
Dimensions
440
 16777216
370
    -2
100
AcDbLine
 10
6.965748
 20
5.41619
 30
0.0
 11
4.878352
 21
5.41619
 31
0.0
  0
LINE
  5
350
330
34C
100
AcDbEntity
  8
Dimensions
440
 16777216
370
    -2
100
AcDbLine
 10
4.978352
 20
1.6543
 30
0.0
 11
4.978352
 21
3.353935
 31
0.0
  0
LINE
  5
351
330
34C
100
AcDbEntity
  8
Dimensions
440
 16777216
370
    -2
100
AcDbLine
 10
4.978352
 20
5.29619
 30
0.0
 11
4.978352
 21
3.596554
 31
0.0
  0
SOLID
  5
352
330
34C
100
AcDbEntity
  8
Dimensions
440
 16777216
100
AcDbTrace
 10
4.958352
 20
1.6543
 30
0.0
 11
4.998352
 21
1.6543
 31
0.0
 12
4.978352
 22
1.5343
 32
0.0
 13
4.978352
 23
1.5343
 33
0.0
  0
SOLID
  5
353
330
34C
100
AcDbEntity
  8
Dimensions
440
 16777216
100
AcDbTrace
 10
4.958352
 20
5.29619
 30
0.0
 11
4.998352
 21
5.29619
 31
0.0
 12
4.978352
 22
5.41619
 32
0.0
 13
4.978352
 23
5.41619
 33
0.0
  0
MTEXT
  5
354
330
34C
100
AcDbEntity
  8
Dimensions
440
 16777216
100
AcDbMText
 10
4.978352
 20
3.475245
 30
0.0
 40
0.12
 41
0.0
 46
0.0
 71
     5
 72
     1
  1
\A1;3.882in
 73
     1
 44
1.0
  0
POINT
  5
355
330
34C
100
AcDbEntity
  8
Defpoints
 62
     0
440
 16777216
100
AcDbPoint
 10
6.944882
 20
1.5343
 30
0.0
  0
POINT
  5
356
330
34C
100
AcDbEntity
  8
Defpoints
 62
     0
440
 16777216
100
AcDbPoint
 10
7.015748
 20
5.41619
 30
0.0
  0
POINT
  5
357
330
34C
100
AcDbEntity
  8
Defpoints
 62
     0
440
 16777216
100
AcDbPoint
 10
4.978352
 20
5.41619
 30
0.0
  0
ENDBLK
  5
358
330
34C
100
AcDbEntity
  8
0
100
AcDbBlockEnd
  0
BLOCK
  5
35B
330
35A
100
AcDbEntity
  8
0
100
AcDbBlockBegin
  2
*D15
 70
     1
 10
0.0
 20
0.0
 30
0.0
  3
*D15
  1

  0
LINE
  5
35C
330
35A
100
AcDbEntity
  8
Dimensions
440
 16777216
370
    -2
100
AcDbLine
 10
7.909449
 20
2.214221
 30
0.0
 11
7.909449
 21
2.91263
 31
0.0
  0
LINE
  5
35D
330
35A
100
AcDbEntity
  8
Dimensions
440
 16777216
370
    -2
100
AcDbLine
 10
9.090551
 20
2.214221
 30
0.0
 11
9.090551
 21
2.91263
 31
0.0
  0
LINE
  5
35E
330
35A
100
AcDbEntity
  8
Dimensions
440
 16777216
370
    -2
100
AcDbLine
 10
8.029449
 20
2.81263
 30
0.0
 11
8.970551
 21
2.81263
 31
0.0
  0
LINE
  5
35F
330
35A
100
AcDbEntity
  8
Dimensions
440
 16777216
370
    -2
100
AcDbLine
 10
9.090551
 20
2.81263
 30
0.0
 11
10.261931
 21
2.81263
 31
0.0
  0
SOLID
  5
360
330
35A
100
AcDbEntity
  8
Dimensions
440
 16777216
100
AcDbTrace
 10
8.029449
 20
2.83263
 30
0.0
 11
8.029449
 21
2.79263
 31
0.0
 12
7.909449
 22
2.81263
 32
0.0
 13
7.909449
 23
2.81263
 33
0.0
  0
SOLID
  5
361
330
35A
100
AcDbEntity
  8
Dimensions
440
 16777216
100
AcDbTrace
 10
8.970551
 20
2.83263
 30
0.0
 11
8.970551
 21
2.79263
 31
0.0
 12
9.090551
 22
2.81263
 32
0.0
 13
9.090551
 23
2.81263
 33
0.0
  0
MTEXT
  5
362
330
35A
100
AcDbEntity
  8
Dimensions
440
 16777216
100
AcDbMText
 10
10.652954
 20
2.81263
 30
0.0
 40
0.12
 41
0.0
 46
0.0
 71
     5
 72
     1
  1
\A1;%%C1.181in
 73
     1
 44
1.0
  0
POINT
  5
363
330
35A
100
AcDbEntity
  8
Defpoints
 62
     0
440
 16777216
100
AcDbPoint
 10
7.909449
 20
2.164221
 30
0.0
  0
POINT
  5
364
330
35A
100
AcDbEntity
  8
Defpoints
 62
     0
440
 16777216
100
AcDbPoint
 10
9.090551
 20
2.164221
 30
0.0
  0
POINT
  5
365
330
35A
100
AcDbEntity
  8
Defpoints
 62
     0
440
 16777216
100
AcDbPoint
 10
9.090551
 20
2.81263
 30
0.0
  0
ENDBLK
  5
366
330
35A
100
AcDbEntity
  8
0
100
AcDbBlockEnd
  0
BLOCK
  5
369
330
368
100
AcDbEntity
  8
0
100
AcDbBlockBegin
  2
*D16
 70
     1
 10
0.0
 20
0.0
 30
0.0
  3
*D16
  1

  0
LINE
  5
36A
330
368
100
AcDbEntity
  8
Dimensions
440
 16777216
370
    -2
100
AcDbLine
 10
8.165354
 20
2.017371
 30
0.0
 11
8.165354
 21
2.500563
 31
0.0
  0
LINE
  5
36B
330
368
100
AcDbEntity
  8
Dimensions
440
 16777216
370
    -2
100
AcDbLine
 10
8.834646
 20
2.017371
 30
0.0
 11
8.834646
 21
2.500563
 31
0.0
  0
LINE
  5
36C
330
368
100
AcDbEntity
  8
Dimensions
440
 16777216
370
    -2
100
AcDbLine
 10
8.285354
 20
2.400563
 30
0.0
 11
8.714646
 21
2.400563
 31
0.0
  0
LINE
  5
36D
330
368
100
AcDbEntity
  8
Dimensions
440
 16777216
370
    -2
100
AcDbLine
 10
8.834646
 20
2.400563
 30
0.0
 11
10.308548
 21
2.400563
 31
0.0
  0
SOLID
  5
36E
330
368
100
AcDbEntity
  8
Dimensions
440
 16777216
100
AcDbTrace
 10
8.285354
 20
2.420563
 30
0.0
 11
8.285354
 21
2.380563
 31
0.0
 12
8.165354
 22
2.400563
 32
0.0
 13
8.165354
 23
2.400563
 33
0.0
  0
SOLID
  5
36F
330
368
100
AcDbEntity
  8
Dimensions
440
 16777216
100
AcDbTrace
 10
8.714646
 20
2.420563
 30
0.0
 11
8.714646
 21
2.380563
 31
0.0
 12
8.834646
 22
2.400563
 32
0.0
 13
8.834646
 23
2.400563
 33
0.0
  0
MTEXT
  5
370
330
368
100
AcDbEntity
  8
Dimensions
440
 16777216
100
AcDbMText
 10
10.652954
 20
2.400563
 30
0.0
 40
0.12
 41
0.0
 46
0.0
 71
     5
 72
     1
  1
\A1;%%C.669in
 73
     1
 44
1.0
  0
POINT
  5
371
330
368
100
AcDbEntity
  8
Defpoints
 62
     0
440
 16777216
100
AcDbPoint
 10
8.165354
 20
1.967371
 30
0.0
  0
POINT
  5
372
330
368
100
AcDbEntity
  8
Defpoints
 62
     0
440
 16777216
100
AcDbPoint
 10
8.834646
 20
1.967371
 30
0.0
  0
POINT
  5
373
330
368
100
AcDbEntity
  8
Defpoints
 62
     0
440
 16777216
100
AcDbPoint
 10
8.834646
 20
2.400563
 30
0.0
  0
ENDBLK
  5
374
330
368
100
AcDbEntity
  8
0
100
AcDbBlockEnd
  0
BLOCK
  5
377
330
376
100
AcDbEntity
  8
0
100
AcDbBlockBegin
  2
*D17
 70
     1
 10
0.0
 20
0.0
 30
0.0
  3
*D17
  1

  0
LINE
  5
378
330
376
100
AcDbEntity
  8
Dimensions
440
 16777216
370
    -2
100
AcDbLine
 10
7.859449
 20
2.164221
 30
0.0
 11
5.756395
 21
2.164221
 31
0.0
  0
LINE
  5
379
330
376
100
AcDbEntity
  8
Dimensions
440
 16777216
370
    -2
100
AcDbLine
 10
7.859449
 20
1.967371
 30
0.0
 11
5.756395
 21
1.967371
 31
0.0
  0
LINE
  5
37A
330
376
100
AcDbEntity
  8
Dimensions
440
 16777216
370
    -2
100
AcDbLine
 10
5.856395
 20
1.847371
 30
0.0
 11
5.856395
 21
1.727371
 31
0.0
  0
LINE
  5
37B
330
376
100
AcDbEntity
  8
Dimensions
440
 16777216
370
    -2
100
AcDbLine
 10
5.856395
 20
2.284221
 30
0.0
 11
5.856395
 21
2.553749
 31
0.0
  0
LINE
  5
37C
330
376
100
AcDbEntity
  8
Dimensions
440
 16777216
370
    -2
100
AcDbLine
 10
5.856395
 20
2.553749
 30
0.0
 11
5.976395
 21
2.553749
 31
0.0
  0
SOLID
  5
37D
330
376
100
AcDbEntity
  8
Dimensions
440
 16777216
100
AcDbTrace
 10
5.836395
 20
1.847371
 30
0.0
 11
5.876395
 21
1.847371
 31
0.0
 12
5.856395
 22
1.967371
 32
0.0
 13
5.856395
 23
1.967371
 33
0.0
  0
SOLID
  5
37E
330
376
100
AcDbEntity
  8
Dimensions
440
 16777216
100
AcDbTrace
 10
5.836395
 20
2.284221
 30
0.0
 11
5.876395
 21
2.284221
 31
0.0
 12
5.856395
 22
2.164221
 32
0.0
 13
5.856395
 23
2.164221
 33
0.0
  0
MTEXT
  5
37F
330
376
100
AcDbEntity
  8
Dimensions
440
 16777216
100
AcDbMText
 10
6.251388
 20
2.553749
 30
0.0
 40
0.12
 41
0.0
 46
0.0
 71
     5
 72
     1
  1
\A1;.197in
 73
     1
 44
1.0
  0
POINT
  5
380
330
376
100
AcDbEntity
  8
Defpoints
 62
     0
440
 16777216
100
AcDbPoint
 10
7.909449
 20
2.164221
 30
0.0
  0
POINT
  5
381
330
376
100
AcDbEntity
  8
Defpoints
 62
     0
440
 16777216
100
AcDbPoint
 10
7.909449
 20
1.967371
 30
0.0
  0
POINT
  5
382
330
376
100
AcDbEntity
  8
Defpoints
 62
     0
440
 16777216
100
AcDbPoint
 10
5.856395
 20
1.967371
 30
0.0
  0
ENDBLK
  5
383
330
376
100
AcDbEntity
  8
0
100
AcDbBlockEnd
  0
BLOCK
  5
386
330
385
100
AcDbEntity
  8
0
100
AcDbBlockBegin
  2
*D18
 70
     1
 10
0.0
 20
0.0
 30
0.0
  3
*D18
  1

  0
LINE
  5
387
330
385
100
AcDbEntity
  8
Dimensions
440
 16777216
370
    -2
100
AcDbLine
 10
8.115354
 20
1.967371
 30
0.0
 11
6.496213
 21
1.967371
 31
0.0
  0
LINE
  5
388
330
385
100
AcDbEntity
  8
Dimensions
440
 16777216
370
    -2
100
AcDbLine
 10
8.115354
 20
1.77052
 30
0.0
 11
6.496213
 21
1.77052
 31
0.0
  0
LINE
  5
389
330
385
100
AcDbEntity
  8
Dimensions
440
 16777216
370
    -2
100
AcDbLine
 10
6.596213
 20
2.087371
 30
0.0
 11
6.596213
 21
2.207371
 31
0.0
  0
LINE
  5
38A
330
385
100
AcDbEntity
  8
Dimensions
440
 16777216
370
    -2
100
AcDbLine
 10
6.596213
 20
1.65052
 30
0.0
 11
6.596213
 21
1.419087
 31
0.0
  0
LINE
  5
38B
330
385
100
AcDbEntity
  8
Dimensions
440
 16777216
370
    -2
100
AcDbLine
 10
6.596213
 20
1.419087
 30
0.0
 11
6.476213
 21
1.419087
 31
0.0
  0
SOLID
  5
38C
330
385
100
AcDbEntity
  8
Dimensions
440
 16777216
100
AcDbTrace
 10
6.576213
 20
2.087371
 30
0.0
 11
6.616213
 21
2.087371
 31
0.0
 12
6.596213
 22
1.967371
 32
0.0
 13
6.596213
 23
1.967371
 33
0.0
  0
SOLID
  5
38D
330
385
100
AcDbEntity
  8
Dimensions
440
 16777216
100
AcDbTrace
 10
6.576213
 20
1.65052
 30
0.0
 11
6.616213
 21
1.65052
 31
0.0
 12
6.596213
 22
1.77052
 32
0.0
 13
6.596213
 23
1.77052
 33
0.0
  0
MTEXT
  5
38E
330
385
100
AcDbEntity
  8
Dimensions
440
 16777216
100
AcDbMText
 10
6.201219
 20
1.419087
 30
0.0
 40
0.12
 41
0.0
 46
0.0
 71
     5
 72
     1
  1
\A1;.197in
 73
     1
 44
1.0
  0
POINT
  5
38F
330
385
100
AcDbEntity
  8
Defpoints
 62
     0
440
 16777216
100
AcDbPoint
 10
8.165354
 20
1.967371
 30
0.0
  0
POINT
  5
390
330
385
100
AcDbEntity
  8
Defpoints
 62
     0
440
 16777216
100
AcDbPoint
 10
8.165354
 20
1.77052
 30
0.0
  0
POINT
  5
391
330
385
100
AcDbEntity
  8
Defpoints
 62
     0
440
 16777216
100
AcDbPoint
 10
6.596213
 20
1.77052
 30
0.0
  0
ENDBLK
  5
392
330
385
100
AcDbEntity
  8
0
100
AcDbBlockEnd
  0
BLOCK
  5
395
330
394
100
AcDbEntity
  8
0
100
AcDbBlockBegin
  2
*D19
 70
     1
 10
0.0
 20
0.0
 30
0.0
  3
*D19
  1

  0
LINE
  5
396
330
394
100
AcDbEntity
  8
Dimensions
440
 16777216
370
    -2
100
AcDbLine
 10
7.859449
 20
2.164221
 30
0.0
 11
5.311059
 21
2.164221
 31
0.0
  0
LINE
  5
397
330
394
100
AcDbEntity
  8
Dimensions
440
 16777216
370
    -2
100
AcDbLine
 10
7.551895
 20
1.5343
 30
0.0
 11
5.311059
 21
1.5343
 31
0.0
  0
LINE
  5
398
330
394
100
AcDbEntity
  8
Dimensions
440
 16777216
370
    -2
100
AcDbLine
 10
5.411059
 20
2.044221
 30
0.0
 11
5.411059
 21
1.97057
 31
0.0
  0
LINE
  5
399
330
394
100
AcDbEntity
  8
Dimensions
440
 16777216
370
    -2
100
AcDbLine
 10
5.411059
 20
1.6543
 30
0.0
 11
5.411059
 21
1.727951
 31
0.0
  0
SOLID
  5
39A
330
394
100
AcDbEntity
  8
Dimensions
440
 16777216
100
AcDbTrace
 10
5.391059
 20
2.044221
 30
0.0
 11
5.431059
 21
2.044221
 31
0.0
 12
5.411059
 22
2.164221
 32
0.0
 13
5.411059
 23
2.164221
 33
0.0
  0
SOLID
  5
39B
330
394
100
AcDbEntity
  8
Dimensions
440
 16777216
100
AcDbTrace
 10
5.391059
 20
1.6543
 30
0.0
 11
5.431059
 21
1.6543
 31
0.0
 12
5.411059
 22
1.5343
 32
0.0
 13
5.411059
 23
1.5343
 33
0.0
  0
MTEXT
  5
39C
330
394
100
AcDbEntity
  8
Dimensions
440
 16777216
100
AcDbMText
 10
5.411059
 20
1.849261
 30
0.0
 40
0.12
 41
0.0
 46
0.0
 71
     5
 72
     1
  1
\A1;.63in
 73
     1
 44
1.0
  0
POINT
  5
39D
330
394
100
AcDbEntity
  8
Defpoints
 62
     0
440
 16777216
100
AcDbPoint
 10
7.909449
 20
2.164221
 30
0.0
  0
POINT
  5
39E
330
394
100
AcDbEntity
  8
Defpoints
 62
     0
440
 16777216
100
AcDbPoint
 10
7.601895
 20
1.5343
 30
0.0
  0
POINT
  5
39F
330
394
100
AcDbEntity
  8
Defpoints
 62
     0
440
 16777216
100
AcDbPoint
 10
5.411059
 20
1.5343
 30
0.0
  0
ENDBLK
  5
3A0
330
394
100
AcDbEntity
  8
0
100
AcDbBlockEnd
  0
BLOCK
  5
3A3
330
3A2
100
AcDbEntity
  8
0
100
AcDbBlockBegin
  2
*D20
 70
     1
 10
0.0
 20
0.0
 30
0.0
  3
*D20
  1

  0
LINE
  5
3A4
330
3A2
100
AcDbEntity
  8
Dimensions
440
 16777216
370
    -2
100
AcDbLine
 10
7.763879
 20
4.255867
 30
0.0
 11
7.442251
 21
4.30946
 31
0.0
  0
MTEXT
  5
3A5
330
3A2
100
AcDbEntity
  8
Dimensions
440
 16777216
100
AcDbMText
 10
8.147044
 20
4.255867
 30
0.0
 40
0.12
 41
0.0
 46
0.0
 71
     5
 72
     1
  1
\A1;R2.393in
 73
     1
 44
1.0
  0
SOLID
  5
3A6
330
3A2
100
AcDbEntity
  8
Dimensions
440
 16777216
100
AcDbTrace
 10
7.445538
 20
4.329188
 30
0.0
 11
7.438963
 21
4.289732
 31
0.0
 12
7.323883
 22
4.329184
 32
0.0
 13
7.323883
 23
4.329184
 33
0.0
  0
POINT
  5
3A7
330
3A2
100
AcDbEntity
  8
Defpoints
 62
     0
440
 16777216
100
AcDbPoint
 10
7.323883
 20
4.329184
 30
0.0
  0
POINT
  5
3A8
330
3A2
100
AcDbEntity
  8
Defpoints
 62
     0
440
 16777216
100
AcDbPoint
 10
9.684252
 20
3.935875
 30
0.0
  0
ENDBLK
  5
3A9
330
3A2
100
AcDbEntity
  8
0
100
AcDbBlockEnd
  0
BLOCK
  5
3B1
330
3B0
100
AcDbEntity
  8
0
100
AcDbBlockBegin
  2
*D21
 70
     1
 10
0.0
 20
0.0
 30
0.0
  3
*D21
  1

  0
LINE
  5
3B2
330
3B0
100
AcDbEntity
  8
Dimensions
440
 16777216
370
    -2
100
AcDbLine
 10
7.417323
 20
4.935215
 30
0.0
 11
7.417323
 21
5.810552
 31
0.0
  0
LINE
  5
3B3
330
3B0
100
AcDbEntity
  8
Dimensions
440
 16777216
370
    -2
100
AcDbLine
 10
9.622047
 20
4.957946
 30
0.0
 11
9.622047
 21
5.810552
 31
0.0
  0
LINE
  5
3B4
330
3B0
100
AcDbEntity
  8
Dimensions
440
 16777216
370
    -2
100
AcDbLine
 10
7.537323
 20
5.710552
 30
0.0
 11
8.192918
 21
5.710552
 31
0.0
  0
LINE
  5
3B5
330
3B0
100
AcDbEntity
  8
Dimensions
440
 16777216
370
    -2
100
AcDbLine
 10
9.502047
 20
5.710552
 30
0.0
 11
8.846452
 21
5.710552
 31
0.0
  0
SOLID
  5
3B6
330
3B0
100
AcDbEntity
  8
Dimensions
440
 16777216
100
AcDbTrace
 10
7.537323
 20
5.730552
 30
0.0
 11
7.537323
 21
5.690552
 31
0.0
 12
7.417323
 22
5.710552
 32
0.0
 13
7.417323
 23
5.710552
 33
0.0
  0
SOLID
  5
3B7
330
3B0
100
AcDbEntity
  8
Dimensions
440
 16777216
100
AcDbTrace
 10
9.502047
 20
5.730552
 30
0.0
 11
9.502047
 21
5.690552
 31
0.0
 12
9.622047
 22
5.710552
 32
0.0
 13
9.622047
 23
5.710552
 33
0.0
  0
MTEXT
  5
3B8
330
3B0
100
AcDbEntity
  8
Dimensions
440
 16777216
100
AcDbMText
 10
8.519685
 20
5.710552
 30
0.0
 40
0.12
 41
0.0
 46
0.0
 71
     5
 72
     1
  1
\A1;2.205in
 73
     1
 44
1.0
  0
POINT
  5
3B9
330
3B0
100
AcDbEntity
  8
Defpoints
 62
     0
440
 16777216
100
AcDbPoint
 10
7.417323
 20
4.885215
 30
0.0
  0
POINT
  5
3BA
330
3B0
100
AcDbEntity
  8
Defpoints
 62
     0
440
 16777216
100
AcDbPoint
 10
9.622047
 20
4.907946
 30
0.0
  0
POINT
  5
3BB
330
3B0
100
AcDbEntity
  8
Defpoints
 62
     0
440
 16777216
100
AcDbPoint
 10
9.622047
 20
5.710552
 30
0.0
  0
ENDBLK
  5
3BC
330
3B0
100
AcDbEntity
  8
0
100
AcDbBlockEnd
  0
BLOCK
  5
3C8
330
3C7
100
AcDbEntity
  8
0
100
AcDbBlockBegin
  2
*D23
 70
     1
 10
0.0
 20
0.0
 30
0.0
  3
*D23
  1

  0
LINE
  5
8AD
330
3C7
100
AcDbEntity
  8
Dimensions
440
 16777216
370
    -2
100
AcDbLine
 10
2.500219
 20
9.572383
 30
0.0
 11
2.500858
 21
9.961794
 31
0.0
  0
LINE
  5
8AE
330
3C7
100
AcDbEntity
  8
Dimensions
440
 16777216
370
    -2
100
AcDbLine
 10
14.500203
 20
9.552697
 30
0.0
 11
14.500842
 21
9.942108
 31
0.0
  0
LINE
  5
8AF
330
3C7
100
AcDbEntity
  8
Dimensions
440
 16777216
370
    -2
100
AcDbLine
 10
2.620694
 20
9.861597
 30
0.0
 11
8.243824
 21
9.852372
 31
0.0
  0
LINE
  5
8B0
330
3C7
100
AcDbEntity
  8
Dimensions
440
 16777216
370
    -2
100
AcDbLine
 10
14.380678
 20
9.842305
 30
0.0
 11
8.757548
 21
9.85153
 31
0.0
  0
SOLID
  5
8B1
330
3C7
100
AcDbEntity
  8
Dimensions
440
 16777216
100
AcDbTrace
 10
2.620727
 20
9.881597
 30
0.0
 11
2.620661
 21
9.841597
 31
0.0
 12
2.500694
 22
9.861794
 32
0.0
 13
2.500694
 23
9.861794
 33
0.0
  0
SOLID
  5
8B2
330
3C7
100
AcDbEntity
  8
Dimensions
440
 16777216
100
AcDbTrace
 10
14.380711
 20
9.862305
 30
0.0
 11
14.380645
 21
9.822305
 31
0.0
 12
14.500678
 22
9.842108
 32
0.0
 13
14.500678
 23
9.842108
 33
0.0
  0
MTEXT
  5
8B3
330
3C7
100
AcDbEntity
  8
Dimensions
440
 16777216
100
AcDbMText
 10
8.500686
 20
9.851951
 30
0.0
 40
0.12
 41
0.0
 46
0.0
 71
     5
 72
     1
  1
\A1;240in
 73
     1
 44
1.0
  0
POINT
  5
8B4
330
3C7
100
AcDbEntity
  8
Defpoints
 62
     0
440
 16777216
100
AcDbPoint
 10
2.500137
 20
9.522383
 30
0.0
  0
POINT
  5
8B5
330
3C7
100
AcDbEntity
  8
Defpoints
 62
     0
440
 16777216
100
AcDbPoint
 10
14.500121
 20
9.502697
 30
0.0
  0
POINT
  5
8B6
330
3C7
100
AcDbEntity
  8
Defpoints
 62
     0
440
 16777216
100
AcDbPoint
 10
14.500678
 20
9.842108
 30
0.0
  0
ENDBLK
  5
3C9
330
3C7
100
AcDbEntity
  8
0
100
AcDbBlockEnd
  0
BLOCK
  5
3D5
330
3D4
100
AcDbEntity
  8
0
100
AcDbBlockBegin
  2
*D24
 70
     1
 10
0.0
 20
0.0
 30
0.0
  3
*D24
  1

  0
LINE
  5
8B7
330
3D4
100
AcDbEntity
  8
Dimensions
440
 16777216
370
    -2
100
AcDbLine
 10
5.604692
 20
7.838321
 30
0.0
 11
5.604692
 21
6.768118
 31
0.0
  0
LINE
  5
8B8
330
3D4
100
AcDbEntity
  8
Dimensions
440
 16777216
370
    -2
100
AcDbLine
 10
4.404688
 20
7.836352
 30
0.0
 11
4.404688
 21
6.768118
 31
0.0
  0
LINE
  5
8B9
330
3D4
100
AcDbEntity
  8
Dimensions
440
 16777216
370
    -2
100
AcDbLine
 10
5.484692
 20
6.868118
 30
0.0
 11
5.167623
 21
6.868118
 31
0.0
  0
LINE
  5
8BA
330
3D4
100
AcDbEntity
  8
Dimensions
440
 16777216
370
    -2
100
AcDbLine
 10
4.524688
 20
6.868118
 30
0.0
 11
4.841757
 21
6.868118
 31
0.0
  0
SOLID
  5
8BB
330
3D4
100
AcDbEntity
  8
Dimensions
440
 16777216
100
AcDbTrace
 10
5.484692
 20
6.888118
 30
0.0
 11
5.484692
 21
6.848118
 31
0.0
 12
5.604692
 22
6.868118
 32
0.0
 13
5.604692
 23
6.868118
 33
0.0
  0
SOLID
  5
8BC
330
3D4
100
AcDbEntity
  8
Dimensions
440
 16777216
100
AcDbTrace
 10
4.524688
 20
6.888118
 30
0.0
 11
4.524688
 21
6.848118
 31
0.0
 12
4.404688
 22
6.868118
 32
0.0
 13
4.404688
 23
6.868118
 33
0.0
  0
MTEXT
  5
8BD
330
3D4
100
AcDbEntity
  8
Dimensions
440
 16777216
100
AcDbMText
 10
5.00469
 20
6.868118
 30
0.0
 40
0.12
 41
0.0
 46
0.0
 71
     5
 72
     1
  1
\A1;6in
 73
     1
 44
1.0
  0
POINT
  5
8BE
330
3D4
100
AcDbEntity
  8
Defpoints
 62
     0
440
 16777216
100
AcDbPoint
 10
5.604692
 20
7.888321
 30
0.0
  0
POINT
  5
8BF
330
3D4
100
AcDbEntity
  8
Defpoints
 62
     0
440
 16777216
100
AcDbPoint
 10
4.404688
 20
7.886352
 30
0.0
  0
POINT
  5
8C0
330
3D4
100
AcDbEntity
  8
Defpoints
 62
     0
440
 16777216
100
AcDbPoint
 10
4.404688
 20
6.868118
 30
0.0
  0
ENDBLK
  5
3D6
330
3D4
100
AcDbEntity
  8
0
100
AcDbBlockEnd
  0
BLOCK
  5
3E2
330
3E1
100
AcDbEntity
  8
0
100
AcDbBlockBegin
  2
*D25
 70
     1
 10
0.0
 20
0.0
 30
0.0
  3
*D25
  1

  0
LINE
  5
8C1
330
3E1
100
AcDbEntity
  8
Dimensions
440
 16777216
370
    -2
100
AcDbLine
 10
5.60461
 20
7.838321
 30
0.0
 11
5.602858
 21
6.770088
 31
0.0
  0
LINE
  5
8C2
330
3E1
100
AcDbEntity
  8
Dimensions
440
 16777216
370
    -2
100
AcDbLine
 10
8.004607
 20
7.834383
 30
0.0
 11
8.002855
 21
6.766151
 31
0.0
  0
LINE
  5
8C3
330
3E1
100
AcDbEntity
  8
Dimensions
440
 16777216
370
    -2
100
AcDbLine
 10
5.723022
 20
6.869891
 30
0.0
 11
6.599446
 21
6.868454
 31
0.0
  0
LINE
  5
8C4
330
3E1
100
AcDbEntity
  8
Dimensions
440
 16777216
370
    -2
100
AcDbLine
 10
7.883019
 20
6.866348
 30
0.0
 11
7.006595
 21
6.867786
 31
0.0
  0
SOLID
  5
8C5
330
3E1
100
AcDbEntity
  8
Dimensions
440
 16777216
100
AcDbTrace
 10
5.723055
 20
6.889891
 30
0.0
 11
5.722989
 21
6.849891
 31
0.0
 12
5.603022
 22
6.870088
 32
0.0
 13
5.603022
 23
6.870088
 33
0.0
  0
SOLID
  5
8C6
330
3E1
100
AcDbEntity
  8
Dimensions
440
 16777216
100
AcDbTrace
 10
7.883052
 20
6.886348
 30
0.0
 11
7.882986
 21
6.846348
 31
0.0
 12
8.003019
 22
6.866151
 32
0.0
 13
8.003019
 23
6.866151
 33
0.0
  0
MTEXT
  5
8C7
330
3E1
100
AcDbEntity
  8
Dimensions
440
 16777216
100
AcDbMText
 10
6.80302
 20
6.86812
 30
0.0
 40
0.12
 41
0.0
 46
0.0
 71
     5
 72
     1
  1
\A1;12in
 73
     1
 44
1.0
  0
POINT
  5
8C8
330
3E1
100
AcDbEntity
  8
Defpoints
 62
     0
440
 16777216
100
AcDbPoint
 10
5.604692
 20
7.888321
 30
0.0
  0
POINT
  5
8C9
330
3E1
100
AcDbEntity
  8
Defpoints
 62
     0
440
 16777216
100
AcDbPoint
 10
8.004689
 20
7.884383
 30
0.0
  0
POINT
  5
8CA
330
3E1
100
AcDbEntity
  8
Defpoints
 62
     0
440
 16777216
100
AcDbPoint
 10
8.003019
 20
6.866151
 30
0.0
  0
ENDBLK
  5
3E3
330
3E1
100
AcDbEntity
  8
0
100
AcDbBlockEnd
  0
BLOCK
  5
3EF
330
3EE
100
AcDbEntity
  8
0
100
AcDbBlockBegin
  2
*D26
 70
     1
 10
0.0
 20
0.0
 30
0.0
  3
*D26
  1

  0
LINE
  5
8CB
330
3EE
100
AcDbEntity
  8
Dimensions
440
 16777216
370
    -2
100
AcDbLine
 10
12.404626
 20
7.827165
 30
0.0
 11
12.402788
 21
6.226678
 31
0.0
  0
LINE
  5
8CC
330
3EE
100
AcDbEntity
  8
Dimensions
440
 16777216
370
    -2
100
AcDbLine
 10
4.40463
 20
7.836352
 30
0.0
 11
4.402792
 21
6.235865
 31
0.0
  0
LINE
  5
8CD
330
3EE
100
AcDbEntity
  8
Dimensions
440
 16777216
370
    -2
100
AcDbLine
 10
12.282903
 20
6.326816
 30
0.0
 11
8.614542
 21
6.331028
 31
0.0
  0
LINE
  5
8CE
330
3EE
100
AcDbEntity
  8
Dimensions
440
 16777216
370
    -2
100
AcDbLine
 10
4.522907
 20
6.335727
 30
0.0
 11
8.191268
 21
6.331514
 31
0.0
  0
SOLID
  5
8CF
330
3EE
100
AcDbEntity
  8
Dimensions
440
 16777216
100
AcDbTrace
 10
12.282926
 20
6.346816
 30
0.0
 11
12.28288
 21
6.306816
 31
0.0
 12
12.402903
 22
6.326678
 32
0.0
 13
12.402903
 23
6.326678
 33
0.0
  0
SOLID
  5
8D0
330
3EE
100
AcDbEntity
  8
Dimensions
440
 16777216
100
AcDbTrace
 10
4.52293
 20
6.355727
 30
0.0
 11
4.522884
 21
6.315727
 31
0.0
 12
4.402907
 22
6.335865
 32
0.0
 13
4.402907
 23
6.335865
 33
0.0
  0
MTEXT
  5
8D1
330
3EE
100
AcDbEntity
  8
Dimensions
440
 16777216
100
AcDbMText
 10
8.402905
 20
6.331271
 30
0.0
 40
0.12
 41
0.0
 46
0.0
 71
     5
 72
     1
  1
\A1;40in
 73
     1
 44
1.0
  0
POINT
  5
8D2
330
3EE
100
AcDbEntity
  8
Defpoints
 62
     0
440
 16777216
100
AcDbPoint
 10
12.404683
 20
7.877165
 30
0.0
  0
POINT
  5
8D3
330
3EE
100
AcDbEntity
  8
Defpoints
 62
     0
440
 16777216
100
AcDbPoint
 10
4.404688
 20
7.886352
 30
0.0
  0
POINT
  5
8D4
330
3EE
100
AcDbEntity
  8
Defpoints
 62
     0
440
 16777216
100
AcDbPoint
 10
4.402907
 20
6.335865
 30
0.0
  0
ENDBLK
  5
3F0
330
3EE
100
AcDbEntity
  8
0
100
AcDbBlockEnd
  0
BLOCK
  5
3FC
330
3FB
100
AcDbEntity
  8
0
100
AcDbBlockBegin
  2
*D27
 70
     1
 10
0.0
 20
0.0
 30
0.0
  3
*D27
  1

  0
LINE
  5
8D5
330
3FB
100
AcDbEntity
  8
Dimensions
440
 16777216
370
    -2
100
AcDbLine
 10
12.058125
 20
8.728762
 30
0.0
 11
12.178125
 21
8.728762
 31
0.0
  0
LINE
  5
8D6
330
3FB
100
AcDbEntity
  8
Dimensions
440
 16777216
370
    -2
100
AcDbLine
 10
12.178125
 20
8.728762
 30
0.0
 11
12.360673
 21
8.042592
 31
0.0
  0
MTEXT
  5
8D7
330
3FB
100
AcDbEntity
  8
Dimensions
440
 16777216
100
AcDbMText
 10
11.713718
 20
8.728762
 30
0.0
 40
0.12
 41
0.0
 46
0.0
 71
     5
 72
     1
  1
\A1;∅.512in
 73
     1
 44
1.0
  0
SOLID
  5
8D8
330
3FB
100
AcDbEntity
  8
Dimensions
440
 16777216
100
AcDbTrace
 10
12.380001
 20
8.047734
 30
0.0
 11
12.341345
 21
8.03745
 31
0.0
 12
12.391525
 22
7.926626
 32
0.0
 13
12.391525
 23
7.926626
 33
0.0
  0
POINT
  5
8D9
330
3FB
100
AcDbEntity
  8
Defpoints
 62
     0
440
 16777216
100
AcDbPoint
 10
12.391525
 20
7.926626
 30
0.0
  0
POINT
  5
8DA
330
3FB
100
AcDbEntity
  8
Defpoints
 62
     0
440
 16777216
100
AcDbPoint
 10
12.417842
 20
7.827705
 30
0.0
  0
ENDBLK
  5
3FD
330
3FB
100
AcDbEntity
  8
0
100
AcDbBlockEnd
  0
BLOCK
  5
405
330
404
100
AcDbEntity
  8
0
100
AcDbBlockBegin
  2
*D28
 70
     1
 10
0.0
 20
0.0
 30
0.0
  3
*D28
  1

  0
LINE
  5
8DB
330
404
100
AcDbEntity
  8
Dimensions
440
 16777216
370
    -2
100
AcDbLine
 10
6.164176
 20
8.880471
 30
0.0
 11
6.044176
 21
8.880471
 31
0.0
  0
LINE
  5
8DC
330
404
100
AcDbEntity
  8
Dimensions
440
 16777216
370
    -2
100
AcDbLine
 10
6.044176
 20
8.880471
 30
0.0
 11
5.701128
 21
8.106028
 31
0.0
  0
MTEXT
  5
8DD
330
404
100
AcDbEntity
  8
Dimensions
440
 16777216
100
AcDbMText
 10
6.555199
 20
8.880471
 30
0.0
 40
0.12
 41
0.0
 46
0.0
 71
     5
 72
     1
  1
\A1;∅1.181in
 73
     1
 44
1.0
  0
SOLID
  5
8DE
330
404
100
AcDbEntity
  8
Dimensions
440
 16777216
100
AcDbTrace
 10
5.682842
 20
8.114128
 30
0.0
 11
5.719415
 21
8.097928
 31
0.0
 12
5.652528
 22
7.99631
 32
0.0
 13
5.652528
 23
7.99631
 33
0.0
  0
POINT
  5
8DF
330
404
100
AcDbEntity
  8
Defpoints
 62
     0
440
 16777216
100
AcDbPoint
 10
5.652528
 20
7.99631
 30
0.0
  0
POINT
  5
8E0
330
404
100
AcDbEntity
  8
Defpoints
 62
     0
440
 16777216
100
AcDbPoint
 10
5.556857
 20
7.780331
 30
0.0
  0
ENDBLK
  5
406
330
404
100
AcDbEntity
  8
0
100
AcDbBlockEnd
  0
BLOCK
  5
40E
330
40D
100
AcDbEntity
  8
0
100
AcDbBlockBegin
  2
*D29
 70
     1
 10
0.0
 20
0.0
 30
0.0
  3
*D29
  1

  0
LINE
  5
8E1
330
40D
100
AcDbEntity
  8
Dimensions
440
 16777216
370
    -2
100
AcDbLine
 10
6.28038
 20
8.530613
 30
0.0
 11
6.16038
 21
8.530613
 31
0.0
  0
LINE
  5
8E2
330
40D
100
AcDbEntity
  8
Dimensions
440
 16777216
370
    -2
100
AcDbLine
 10
6.16038
 20
8.530613
 30
0.0
 11
5.726997
 21
8.029686
 31
0.0
  0
MTEXT
  5
8E3
330
40D
100
AcDbEntity
  8
Dimensions
440
 16777216
100
AcDbMText
 10
6.624787
 20
8.530613
 30
0.0
 40
0.12
 41
0.0
 46
0.0
 71
     5
 72
     1
  1
\A1;∅.669in
 73
     1
 44
1.0
  0
SOLID
  5
8E4
330
40D
100
AcDbEntity
  8
Dimensions
440
 16777216
100
AcDbTrace
 10
5.711872
 20
8.042772
 30
0.0
 11
5.742122
 21
8.0166
 31
0.0
 12
5.648483
 22
7.938936
 32
0.0
 13
5.648483
 23
7.938936
 33
0.0
  0
POINT
  5
8E5
330
40D
100
AcDbEntity
  8
Defpoints
 62
     0
440
 16777216
100
AcDbPoint
 10
5.648483
 20
7.938936
 30
0.0
  0
POINT
  5
8E6
330
40D
100
AcDbEntity
  8
Defpoints
 62
     0
440
 16777216
100
AcDbPoint
 10
5.560902
 20
7.837705
 30
0.0
  0
ENDBLK
  5
40F
330
40D
100
AcDbEntity
  8
0
100
AcDbBlockEnd
  0
BLOCK
  5
417
330
416
100
AcDbEntity
  8
0
100
AcDbBlockBegin
  2
*D30
 70
     1
 10
0.0
 20
0.0
 30
0.0
  3
*D30
  1

  0
LINE
  5
8E7
330
416
100
AcDbEntity
  8
Dimensions
440
 16777216
370
    -2
100
AcDbLine
 10
6.925197
 20
1.503985
 30
0.0
 11
6.925197
 21
1.001016
 31
0.0
  0
LINE
  5
8E8
330
416
100
AcDbEntity
  8
Dimensions
440
 16777216
370
    -2
100
AcDbLine
 10
10.074803
 20
1.503985
 30
0.0
 11
10.074803
 21
1.001016
 31
0.0
  0
LINE
  5
8E9
330
416
100
AcDbEntity
  8
Dimensions
440
 16777216
370
    -2
100
AcDbLine
 10
7.045197
 20
1.101016
 30
0.0
 11
8.220914
 21
1.101016
 31
0.0
  0
LINE
  5
8EA
330
416
100
AcDbEntity
  8
Dimensions
440
 16777216
370
    -2
100
AcDbLine
 10
9.954803
 20
1.101016
 30
0.0
 11
8.779086
 21
1.101016
 31
0.0
  0
SOLID
  5
8EB
330
416
100
AcDbEntity
  8
Dimensions
440
 16777216
100
AcDbTrace
 10
7.045197
 20
1.121016
 30
0.0
 11
7.045197
 21
1.081016
 31
0.0
 12
6.925197
 22
1.101016
 32
0.0
 13
6.925197
 23
1.101016
 33
0.0
  0
SOLID
  5
8EC
330
416
100
AcDbEntity
  8
Dimensions
440
 16777216
100
AcDbTrace
 10
9.954803
 20
1.121016
 30
0.0
 11
9.954803
 21
1.081016
 31
0.0
 12
10.074803
 22
1.101016
 32
0.0
 13
10.074803
 23
1.101016
 33
0.0
  0
MTEXT
  5
8ED
330
416
100
AcDbEntity
  8
Dimensions
440
 16777216
100
AcDbMText
 10
8.5
 20
1.101016
 30
0.0
 40
0.12
 41
0.0
 46
0.0
 71
     5
 72
     1
  1
\A1;3.15in
 73
     1
 44
1.0
  0
POINT
  5
8EE
330
416
100
AcDbEntity
  8
Defpoints
 62
     0
440
 16777216
100
AcDbPoint
 10
6.925197
 20
1.553985
 30
0.0
  0
POINT
  5
8EF
330
416
100
AcDbEntity
  8
Defpoints
 62
     0
440
 16777216
100
AcDbPoint
 10
10.074803
 20
1.553985
 30
0.0
  0
POINT
  5
8F0
330
416
100
AcDbEntity
  8
Defpoints
 62
     0
440
 16777216
100
AcDbPoint
 10
10.074803
 20
1.101016
 30
0.0
  0
ENDBLK
  5
418
330
416
100
AcDbEntity
  8
0
100
AcDbBlockEnd
  0
BLOCK
  5
424
330
423
100
AcDbEntity
  8
0
100
AcDbBlockBegin
  2
*D31
 70
     1
 10
0.0
 20
0.0
 30
0.0
  3
*D31
  1

  0
LINE
  5
8F1
330
423
100
AcDbEntity
  8
Dimensions
440
 16777216
370
    -2
100
AcDbLine
 10
6.894882
 20
1.5343
 30
0.0
 11
4.878352
 21
1.5343
 31
0.0
  0
LINE
  5
8F2
330
423
100
AcDbEntity
  8
Dimensions
440
 16777216
370
    -2
100
AcDbLine
 10
6.965748
 20
5.41619
 30
0.0
 11
4.878352
 21
5.41619
 31
0.0
  0
LINE
  5
8F3
330
423
100
AcDbEntity
  8
Dimensions
440
 16777216
370
    -2
100
AcDbLine
 10
4.978352
 20
1.6543
 30
0.0
 11
4.978352
 21
3.353935
 31
0.0
  0
LINE
  5
8F4
330
423
100
AcDbEntity
  8
Dimensions
440
 16777216
370
    -2
100
AcDbLine
 10
4.978352
 20
5.29619
 30
0.0
 11
4.978352
 21
3.596554
 31
0.0
  0
SOLID
  5
8F5
330
423
100
AcDbEntity
  8
Dimensions
440
 16777216
100
AcDbTrace
 10
4.958352
 20
1.6543
 30
0.0
 11
4.998352
 21
1.6543
 31
0.0
 12
4.978352
 22
1.5343
 32
0.0
 13
4.978352
 23
1.5343
 33
0.0
  0
SOLID
  5
8F6
330
423
100
AcDbEntity
  8
Dimensions
440
 16777216
100
AcDbTrace
 10
4.958352
 20
5.29619
 30
0.0
 11
4.998352
 21
5.29619
 31
0.0
 12
4.978352
 22
5.41619
 32
0.0
 13
4.978352
 23
5.41619
 33
0.0
  0
MTEXT
  5
8F7
330
423
100
AcDbEntity
  8
Dimensions
440
 16777216
100
AcDbMText
 10
4.978352
 20
3.475245
 30
0.0
 40
0.12
 41
0.0
 46
0.0
 71
     5
 72
     1
  1
\A1;3.882in
 73
     1
 44
1.0
  0
POINT
  5
8F8
330
423
100
AcDbEntity
  8
Defpoints
 62
     0
440
 16777216
100
AcDbPoint
 10
6.944882
 20
1.5343
 30
0.0
  0
POINT
  5
8F9
330
423
100
AcDbEntity
  8
Defpoints
 62
     0
440
 16777216
100
AcDbPoint
 10
7.015748
 20
5.41619
 30
0.0
  0
POINT
  5
8FA
330
423
100
AcDbEntity
  8
Defpoints
 62
     0
440
 16777216
100
AcDbPoint
 10
4.978352
 20
5.41619
 30
0.0
  0
ENDBLK
  5
425
330
423
100
AcDbEntity
  8
0
100
AcDbBlockEnd
  0
BLOCK
  5
431
330
430
100
AcDbEntity
  8
0
100
AcDbBlockBegin
  2
*D32
 70
     1
 10
0.0
 20
0.0
 30
0.0
  3
*D32
  1

  0
LINE
  5
8FB
330
430
100
AcDbEntity
  8
Dimensions
440
 16777216
370
    -2
100
AcDbLine
 10
7.909449
 20
2.214221
 30
0.0
 11
7.909449
 21
2.91263
 31
0.0
  0
LINE
  5
8FC
330
430
100
AcDbEntity
  8
Dimensions
440
 16777216
370
    -2
100
AcDbLine
 10
9.090551
 20
2.214221
 30
0.0
 11
9.090551
 21
2.91263
 31
0.0
  0
LINE
  5
8FD
330
430
100
AcDbEntity
  8
Dimensions
440
 16777216
370
    -2
100
AcDbLine
 10
8.029449
 20
2.81263
 30
0.0
 11
8.970551
 21
2.81263
 31
0.0
  0
LINE
  5
8FE
330
430
100
AcDbEntity
  8
Dimensions
440
 16777216
370
    -2
100
AcDbLine
 10
9.090551
 20
2.81263
 30
0.0
 11
10.261931
 21
2.81263
 31
0.0
  0
SOLID
  5
8FF
330
430
100
AcDbEntity
  8
Dimensions
440
 16777216
100
AcDbTrace
 10
8.029449
 20
2.83263
 30
0.0
 11
8.029449
 21
2.79263
 31
0.0
 12
7.909449
 22
2.81263
 32
0.0
 13
7.909449
 23
2.81263
 33
0.0
  0
SOLID
  5
900
330
430
100
AcDbEntity
  8
Dimensions
440
 16777216
100
AcDbTrace
 10
8.970551
 20
2.83263
 30
0.0
 11
8.970551
 21
2.79263
 31
0.0
 12
9.090551
 22
2.81263
 32
0.0
 13
9.090551
 23
2.81263
 33
0.0
  0
MTEXT
  5
901
330
430
100
AcDbEntity
  8
Dimensions
440
 16777216
100
AcDbMText
 10
10.652954
 20
2.81263
 30
0.0
 40
0.12
 41
0.0
 46
0.0
 71
     5
 72
     1
  1
\A1;%%C1.181in
 73
     1
 44
1.0
  0
POINT
  5
902
330
430
100
AcDbEntity
  8
Defpoints
 62
     0
440
 16777216
100
AcDbPoint
 10
7.909449
 20
2.164221
 30
0.0
  0
POINT
  5
903
330
430
100
AcDbEntity
  8
Defpoints
 62
     0
440
 16777216
100
AcDbPoint
 10
9.090551
 20
2.164221
 30
0.0
  0
POINT
  5
904
330
430
100
AcDbEntity
  8
Defpoints
 62
     0
440
 16777216
100
AcDbPoint
 10
9.090551
 20
2.81263
 30
0.0
  0
ENDBLK
  5
432
330
430
100
AcDbEntity
  8
0
100
AcDbBlockEnd
  0
BLOCK
  5
43E
330
43D
100
AcDbEntity
  8
0
100
AcDbBlockBegin
  2
*D33
 70
     1
 10
0.0
 20
0.0
 30
0.0
  3
*D33
  1

  0
LINE
  5
905
330
43D
100
AcDbEntity
  8
Dimensions
440
 16777216
370
    -2
100
AcDbLine
 10
8.165354
 20
2.017371
 30
0.0
 11
8.165354
 21
2.500563
 31
0.0
  0
LINE
  5
906
330
43D
100
AcDbEntity
  8
Dimensions
440
 16777216
370
    -2
100
AcDbLine
 10
8.834646
 20
2.017371
 30
0.0
 11
8.834646
 21
2.500563
 31
0.0
  0
LINE
  5
907
330
43D
100
AcDbEntity
  8
Dimensions
440
 16777216
370
    -2
100
AcDbLine
 10
8.285354
 20
2.400563
 30
0.0
 11
8.714646
 21
2.400563
 31
0.0
  0
LINE
  5
908
330
43D
100
AcDbEntity
  8
Dimensions
440
 16777216
370
    -2
100
AcDbLine
 10
8.834646
 20
2.400563
 30
0.0
 11
10.308548
 21
2.400563
 31
0.0
  0
SOLID
  5
909
330
43D
100
AcDbEntity
  8
Dimensions
440
 16777216
100
AcDbTrace
 10
8.285354
 20
2.420563
 30
0.0
 11
8.285354
 21
2.380563
 31
0.0
 12
8.165354
 22
2.400563
 32
0.0
 13
8.165354
 23
2.400563
 33
0.0
  0
SOLID
  5
90A
330
43D
100
AcDbEntity
  8
Dimensions
440
 16777216
100
AcDbTrace
 10
8.714646
 20
2.420563
 30
0.0
 11
8.714646
 21
2.380563
 31
0.0
 12
8.834646
 22
2.400563
 32
0.0
 13
8.834646
 23
2.400563
 33
0.0
  0
MTEXT
  5
90B
330
43D
100
AcDbEntity
  8
Dimensions
440
 16777216
100
AcDbMText
 10
10.652954
 20
2.400563
 30
0.0
 40
0.12
 41
0.0
 46
0.0
 71
     5
 72
     1
  1
\A1;%%C.669in
 73
     1
 44
1.0
  0
POINT
  5
90C
330
43D
100
AcDbEntity
  8
Defpoints
 62
     0
440
 16777216
100
AcDbPoint
 10
8.165354
 20
1.967371
 30
0.0
  0
POINT
  5
90D
330
43D
100
AcDbEntity
  8
Defpoints
 62
     0
440
 16777216
100
AcDbPoint
 10
8.834646
 20
1.967371
 30
0.0
  0
POINT
  5
90E
330
43D
100
AcDbEntity
  8
Defpoints
 62
     0
440
 16777216
100
AcDbPoint
 10
8.834646
 20
2.400563
 30
0.0
  0
ENDBLK
  5
43F
330
43D
100
AcDbEntity
  8
0
100
AcDbBlockEnd
  0
BLOCK
  5
44B
330
44A
100
AcDbEntity
  8
0
100
AcDbBlockBegin
  2
*D34
 70
     1
 10
0.0
 20
0.0
 30
0.0
  3
*D34
  1

  0
LINE
  5
90F
330
44A
100
AcDbEntity
  8
Dimensions
440
 16777216
370
    -2
100
AcDbLine
 10
7.859449
 20
2.164221
 30
0.0
 11
5.756395
 21
2.164221
 31
0.0
  0
LINE
  5
910
330
44A
100
AcDbEntity
  8
Dimensions
440
 16777216
370
    -2
100
AcDbLine
 10
7.859449
 20
1.967371
 30
0.0
 11
5.756395
 21
1.967371
 31
0.0
  0
LINE
  5
911
330
44A
100
AcDbEntity
  8
Dimensions
440
 16777216
370
    -2
100
AcDbLine
 10
5.856395
 20
1.847371
 30
0.0
 11
5.856395
 21
1.727371
 31
0.0
  0
LINE
  5
912
330
44A
100
AcDbEntity
  8
Dimensions
440
 16777216
370
    -2
100
AcDbLine
 10
5.856395
 20
2.284221
 30
0.0
 11
5.856395
 21
2.553749
 31
0.0
  0
LINE
  5
913
330
44A
100
AcDbEntity
  8
Dimensions
440
 16777216
370
    -2
100
AcDbLine
 10
5.856395
 20
2.553749
 30
0.0
 11
5.976395
 21
2.553749
 31
0.0
  0
SOLID
  5
914
330
44A
100
AcDbEntity
  8
Dimensions
440
 16777216
100
AcDbTrace
 10
5.836395
 20
1.847371
 30
0.0
 11
5.876395
 21
1.847371
 31
0.0
 12
5.856395
 22
1.967371
 32
0.0
 13
5.856395
 23
1.967371
 33
0.0
  0
SOLID
  5
915
330
44A
100
AcDbEntity
  8
Dimensions
440
 16777216
100
AcDbTrace
 10
5.836395
 20
2.284221
 30
0.0
 11
5.876395
 21
2.284221
 31
0.0
 12
5.856395
 22
2.164221
 32
0.0
 13
5.856395
 23
2.164221
 33
0.0
  0
MTEXT
  5
916
330
44A
100
AcDbEntity
  8
Dimensions
440
 16777216
100
AcDbMText
 10
6.251388
 20
2.553749
 30
0.0
 40
0.12
 41
0.0
 46
0.0
 71
     5
 72
     1
  1
\A1;.197in
 73
     1
 44
1.0
  0
POINT
  5
917
330
44A
100
AcDbEntity
  8
Defpoints
 62
     0
440
 16777216
100
AcDbPoint
 10
7.909449
 20
2.164221
 30
0.0
  0
POINT
  5
918
330
44A
100
AcDbEntity
  8
Defpoints
 62
     0
440
 16777216
100
AcDbPoint
 10
7.909449
 20
1.967371
 30
0.0
  0
POINT
  5
919
330
44A
100
AcDbEntity
  8
Defpoints
 62
     0
440
 16777216
100
AcDbPoint
 10
5.856395
 20
1.967371
 30
0.0
  0
ENDBLK
  5
44C
330
44A
100
AcDbEntity
  8
0
100
AcDbBlockEnd
  0
BLOCK
  5
459
330
458
100
AcDbEntity
  8
0
100
AcDbBlockBegin
  2
*D35
 70
     1
 10
0.0
 20
0.0
 30
0.0
  3
*D35
  1

  0
LINE
  5
91A
330
458
100
AcDbEntity
  8
Dimensions
440
 16777216
370
    -2
100
AcDbLine
 10
8.115354
 20
1.967371
 30
0.0
 11
6.496213
 21
1.967371
 31
0.0
  0
LINE
  5
91B
330
458
100
AcDbEntity
  8
Dimensions
440
 16777216
370
    -2
100
AcDbLine
 10
8.115354
 20
1.77052
 30
0.0
 11
6.496213
 21
1.77052
 31
0.0
  0
LINE
  5
91C
330
458
100
AcDbEntity
  8
Dimensions
440
 16777216
370
    -2
100
AcDbLine
 10
6.596213
 20
2.087371
 30
0.0
 11
6.596213
 21
2.207371
 31
0.0
  0
LINE
  5
91D
330
458
100
AcDbEntity
  8
Dimensions
440
 16777216
370
    -2
100
AcDbLine
 10
6.596213
 20
1.65052
 30
0.0
 11
6.596213
 21
1.419087
 31
0.0
  0
LINE
  5
91E
330
458
100
AcDbEntity
  8
Dimensions
440
 16777216
370
    -2
100
AcDbLine
 10
6.596213
 20
1.419087
 30
0.0
 11
6.476213
 21
1.419087
 31
0.0
  0
SOLID
  5
91F
330
458
100
AcDbEntity
  8
Dimensions
440
 16777216
100
AcDbTrace
 10
6.576213
 20
2.087371
 30
0.0
 11
6.616213
 21
2.087371
 31
0.0
 12
6.596213
 22
1.967371
 32
0.0
 13
6.596213
 23
1.967371
 33
0.0
  0
SOLID
  5
920
330
458
100
AcDbEntity
  8
Dimensions
440
 16777216
100
AcDbTrace
 10
6.576213
 20
1.65052
 30
0.0
 11
6.616213
 21
1.65052
 31
0.0
 12
6.596213
 22
1.77052
 32
0.0
 13
6.596213
 23
1.77052
 33
0.0
  0
MTEXT
  5
921
330
458
100
AcDbEntity
  8
Dimensions
440
 16777216
100
AcDbMText
 10
6.201219
 20
1.419087
 30
0.0
 40
0.12
 41
0.0
 46
0.0
 71
     5
 72
     1
  1
\A1;.197in
 73
     1
 44
1.0
  0
POINT
  5
922
330
458
100
AcDbEntity
  8
Defpoints
 62
     0
440
 16777216
100
AcDbPoint
 10
8.165354
 20
1.967371
 30
0.0
  0
POINT
  5
923
330
458
100
AcDbEntity
  8
Defpoints
 62
     0
440
 16777216
100
AcDbPoint
 10
8.165354
 20
1.77052
 30
0.0
  0
POINT
  5
924
330
458
100
AcDbEntity
  8
Defpoints
 62
     0
440
 16777216
100
AcDbPoint
 10
6.596213
 20
1.77052
 30
0.0
  0
ENDBLK
  5
45A
330
458
100
AcDbEntity
  8
0
100
AcDbBlockEnd
  0
BLOCK
  5
467
330
466
100
AcDbEntity
  8
0
100
AcDbBlockBegin
  2
*D36
 70
     1
 10
0.0
 20
0.0
 30
0.0
  3
*D36
  1

  0
LINE
  5
925
330
466
100
AcDbEntity
  8
Dimensions
440
 16777216
370
    -2
100
AcDbLine
 10
7.859449
 20
2.164221
 30
0.0
 11
5.311059
 21
2.164221
 31
0.0
  0
LINE
  5
926
330
466
100
AcDbEntity
  8
Dimensions
440
 16777216
370
    -2
100
AcDbLine
 10
7.551895
 20
1.5343
 30
0.0
 11
5.311059
 21
1.5343
 31
0.0
  0
LINE
  5
927
330
466
100
AcDbEntity
  8
Dimensions
440
 16777216
370
    -2
100
AcDbLine
 10
5.411059
 20
2.044221
 30
0.0
 11
5.411059
 21
1.97057
 31
0.0
  0
LINE
  5
928
330
466
100
AcDbEntity
  8
Dimensions
440
 16777216
370
    -2
100
AcDbLine
 10
5.411059
 20
1.6543
 30
0.0
 11
5.411059
 21
1.727951
 31
0.0
  0
SOLID
  5
929
330
466
100
AcDbEntity
  8
Dimensions
440
 16777216
100
AcDbTrace
 10
5.391059
 20
2.044221
 30
0.0
 11
5.431059
 21
2.044221
 31
0.0
 12
5.411059
 22
2.164221
 32
0.0
 13
5.411059
 23
2.164221
 33
0.0
  0
SOLID
  5
92A
330
466
100
AcDbEntity
  8
Dimensions
440
 16777216
100
AcDbTrace
 10
5.391059
 20
1.6543
 30
0.0
 11
5.431059
 21
1.6543
 31
0.0
 12
5.411059
 22
1.5343
 32
0.0
 13
5.411059
 23
1.5343
 33
0.0
  0
MTEXT
  5
92B
330
466
100
AcDbEntity
  8
Dimensions
440
 16777216
100
AcDbMText
 10
5.411059
 20
1.849261
 30
0.0
 40
0.12
 41
0.0
 46
0.0
 71
     5
 72
     1
  1
\A1;.63in
 73
     1
 44
1.0
  0
POINT
  5
92C
330
466
100
AcDbEntity
  8
Defpoints
 62
     0
440
 16777216
100
AcDbPoint
 10
7.909449
 20
2.164221
 30
0.0
  0
POINT
  5
92D
330
466
100
AcDbEntity
  8
Defpoints
 62
     0
440
 16777216
100
AcDbPoint
 10
7.601895
 20
1.5343
 30
0.0
  0
POINT
  5
92E
330
466
100
AcDbEntity
  8
Defpoints
 62
     0
440
 16777216
100
AcDbPoint
 10
5.411059
 20
1.5343
 30
0.0
  0
ENDBLK
  5
468
330
466
100
AcDbEntity
  8
0
100
AcDbBlockEnd
  0
BLOCK
  5
474
330
473
100
AcDbEntity
  8
0
100
AcDbBlockBegin
  2
*D37
 70
     1
 10
0.0
 20
0.0
 30
0.0
  3
*D37
  1

  0
LINE
  5
92F
330
473
100
AcDbEntity
  8
Dimensions
440
 16777216
370
    -2
100
AcDbLine
 10
7.763879
 20
4.255867
 30
0.0
 11
7.442251
 21
4.30946
 31
0.0
  0
MTEXT
  5
930
330
473
100
AcDbEntity
  8
Dimensions
440
 16777216
100
AcDbMText
 10
8.147044
 20
4.255867
 30
0.0
 40
0.12
 41
0.0
 46
0.0
 71
     5
 72
     1
  1
\A1;R2.393in
 73
     1
 44
1.0
  0
SOLID
  5
931
330
473
100
AcDbEntity
  8
Dimensions
440
 16777216
100
AcDbTrace
 10
7.445538
 20
4.329188
 30
0.0
 11
7.438963
 21
4.289732
 31
0.0
 12
7.323883
 22
4.329184
 32
0.0
 13
7.323883
 23
4.329184
 33
0.0
  0
POINT
  5
932
330
473
100
AcDbEntity
  8
Defpoints
 62
     0
440
 16777216
100
AcDbPoint
 10
7.323883
 20
4.329184
 30
0.0
  0
POINT
  5
933
330
473
100
AcDbEntity
  8
Defpoints
 62
     0
440
 16777216
100
AcDbPoint
 10
9.684252
 20
3.935875
 30
0.0
  0
ENDBLK
  5
475
330
473
100
AcDbEntity
  8
0
100
AcDbBlockEnd
  0
BLOCK
  5
47C
330
47B
100
AcDbEntity
  8
0
100
AcDbBlockBegin
  2
*D38
 70
     1
 10
0.0
 20
0.0
 30
0.0
  3
*D38
  1

  0
LINE
  5
934
330
47B
100
AcDbEntity
  8
Dimensions
440
 16777216
370
    -2
100
AcDbLine
 10
7.417323
 20
4.935215
 30
0.0
 11
7.417323
 21
5.810552
 31
0.0
  0
LINE
  5
935
330
47B
100
AcDbEntity
  8
Dimensions
440
 16777216
370
    -2
100
AcDbLine
 10
9.622047
 20
4.957946
 30
0.0
 11
9.622047
 21
5.810552
 31
0.0
  0
LINE
  5
936
330
47B
100
AcDbEntity
  8
Dimensions
440
 16777216
370
    -2
100
AcDbLine
 10
7.537323
 20
5.710552
 30
0.0
 11
8.192918
 21
5.710552
 31
0.0
  0
LINE
  5
937
330
47B
100
AcDbEntity
  8
Dimensions
440
 16777216
370
    -2
100
AcDbLine
 10
9.502047
 20
5.710552
 30
0.0
 11
8.846452
 21
5.710552
 31
0.0
  0
SOLID
  5
938
330
47B
100
AcDbEntity
  8
Dimensions
440
 16777216
100
AcDbTrace
 10
7.537323
 20
5.730552
 30
0.0
 11
7.537323
 21
5.690552
 31
0.0
 12
7.417323
 22
5.710552
 32
0.0
 13
7.417323
 23
5.710552
 33
0.0
  0
SOLID
  5
939
330
47B
100
AcDbEntity
  8
Dimensions
440
 16777216
100
AcDbTrace
 10
9.502047
 20
5.730552
 30
0.0
 11
9.502047
 21
5.690552
 31
0.0
 12
9.622047
 22
5.710552
 32
0.0
 13
9.622047
 23
5.710552
 33
0.0
  0
MTEXT
  5
93A
330
47B
100
AcDbEntity
  8
Dimensions
440
 16777216
100
AcDbMText
 10
8.519685
 20
5.710552
 30
0.0
 40
0.12
 41
0.0
 46
0.0
 71
     5
 72
     1
  1
\A1;2.205in
 73
     1
 44
1.0
  0
POINT
  5
93B
330
47B
100
AcDbEntity
  8
Defpoints
 62
     0
440
 16777216
100
AcDbPoint
 10
7.417323
 20
4.885215
 30
0.0
  0
POINT
  5
93C
330
47B
100
AcDbEntity
  8
Defpoints
 62
     0
440
 16777216
100
AcDbPoint
 10
9.622047
 20
4.907946
 30
0.0
  0
POINT
  5
93D
330
47B
100
AcDbEntity
  8
Defpoints
 62
     0
440
 16777216
100
AcDbPoint
 10
9.622047
 20
5.710552
 30
0.0
  0
ENDBLK
  5
47D
330
47B
100
AcDbEntity
  8
0
100
AcDbBlockEnd
  0
ENDSEC
  0
SECTION
  2
ENTITIES
  0
INSERT
  5
298
330
70
100
AcDbEntity
  8
Titleblock
100
AcDbBlockReference
 66
     1
  2
Shower
 10
16.38
 20
0.38
 30
0.0
  0
ATTRIB
  5
2B8
330
298
100
AcDbEntity
  8
Titleblock
  6
Continuous
370
    25
100
AcDbText
 10
12.6925
 20
2.6925
 30
0.0
 40
0.12
  1
Railing Products and Mock Ups
100
AcDbAttribute
280
     0
  2
PROJECT
 70
     0
280
     1
1001
FD_ATT_APPNAME
1005
2A6
  0
ATTRIB
  5
2B9
330
298
100
AcDbEntity
  8
Titleblock
  6
Continuous
370
    25
100
AcDbText
 10
14.6925
 20
1.0675
 30
0.0
 40
0.12
  1
8/6/2019
100
AcDbAttribute
280
     0
  2
DRAWN_DATE
 70
     0
280
     1
1001
FD_ATT_APPNAME
1005
2A8
  0
ATTRIB
  5
2BA
330
298
100
AcDbEntity
  8
Titleblock
  6
Continuous
370
    25
100
AcDbText
 10
12.0675
 20
2.1925
 30
0.0
 40
0.3048
  1
A42-PL80MF20CB
100
AcDbAttribute
280
     0
  2
TITLE_1
 70
     0
280
     1
1001
FD_ATT_APPNAME
1005
2A9
1001
FUSIONTITLEBLOCKATTRIBUTEOVERRIDE
1070
     1
  0
ATTRIB
  5
2BB
330
298
100
AcDbEntity
  8
Titleblock
  6
Continuous
370
    25
100
AcDbText
 10
14.6925
 20
1.29994
 30
0.0
 40
0.12
  1
1:10
100
AcDbAttribute
280
     0
  2
SCALE
 70
     0
280
     1
1001
FD_ATT_APPNAME
1005
2AA
  0
SEQEND
  5
2BC
330
298
100
AcDbEntity
  8
Titleblock
  0
INSERT
  5
2BD
330
70
100
AcDbEntity
  8
Border
100
AcDbBlockReference
  2
ANSI_B_SHEET
 10
0.0
 20
0.0
 30
0.0
  0
DIMENSION
  5
2DE
330
70
100
AcDbEntity
  8
Dimensions
100
AcDbDimension
280
     0
  2
*D23
 10
14.500678
 20
9.842108
 30
0.0
 11
8.500686
 21
9.851951
 31
0.0
 70
    33
 71
     5
 42
240.0
 73
     0
 74
     0
 75
     0
  3
Standard
100
AcDbAlignedDimension
 13
2.500137
 23
9.522383
 33
0.0
 14
14.500121
 24
9.502697
 34
0.0
1001
ACAD_DIMASSOC_CALC_DIMLFAC
1040
-20.0
1001
ACAD_DIMASSOC_DIMLFAC
1040
-20.0
1001
ACAD_DIMASSOC_OVERRIDDEN_DIMLFAC
1040
0.0
1001
ACAD_DSTYLE_DIMJAG_POSITION
1070
   387
1070
     0
1070
   389
1010
0.0
1020
0.0
1030
0.0
1001
ACAD
1000
DSTYLE
1002
{
1070
   144
1040
20.0
1070
   176
1070
   256
1070
   177
1070
   256
1002
}
  0
MTEXT
  5
2ED
102
{ACAD_XDICTIONARY
360
2EE
102
}
330
70
100
AcDbEntity
  8
Annotations
100
AcDbMText
 10
1.902088
 20
8.311879
 30
0.0
 40
0.24
 41
1.747449
 46
0.768186
 71
     2
 72
     5
  1
DETAIL A\PSCALE 1:5
 73
     1
 44
1.0
  0
DIMENSION
  5
2F5
330
70
100
AcDbEntity
  8
Dimensions
100
AcDbDimension
280
     0
  2
*D24
 10
4.404688
 20
6.868118
 30
0.0
 11
5.00469
 21
6.868118
 31
0.0
 70
    32
 71
     5
 42
6.000024
 73
     0
 74
     0
 75
     0
  3
Standard
100
AcDbAlignedDimension
 13
5.604692
 23
7.888321
 33
0.0
 14
4.404688
 24
7.886352
 34
0.0
100
AcDbRotatedDimension
1001
ACAD_DIMASSOC_OVERRIDDEN_DIMLFAC
1040
0.0
1001
ACAD_DIMASSOC_CALC_DIMLFAC
1040
-5.0
1001
ACAD_DIMASSOC_DIMLFAC
1040
-5.0
1001
ACAD_DSTYLE_DIMJAG_POSITION
1070
   387
1070
     0
1070
   389
1010
0.0
1020
0.0
1030
0.0
1001
ACAD
1000
DSTYLE
1002
{
1070
   177
1070
   256
1070
   176
1070
   256
1070
   144
1040
5.0
1002
}
  0
DIMENSION
  5
303
330
70
100
AcDbEntity
  8
Dimensions
100
AcDbDimension
280
     0
  2
*D25
 10
8.003019
 20
6.866151
 30
0.0
 11
6.80302
 21
6.86812
 31
0.0
 70
    33
 71
     5
 42
12.0
 73
     0
 74
     0
 75
     0
  3
Standard
100
AcDbAlignedDimension
 13
5.604692
 23
7.888321
 33
0.0
 14
8.004689
 24
7.884383
 34
0.0
1001
ACAD_DIMASSOC_OVERRIDDEN_DIMLFAC
1040
0.0
1001
ACAD_DIMASSOC_CALC_DIMLFAC
1040
-5.0
1001
ACAD_DIMASSOC_DIMLFAC
1040
-5.0
1001
ACAD_DSTYLE_DIMJAG_POSITION
1070
   387
1070
     0
1070
   389
1010
0.0
1020
0.0
1030
0.0
1001
ACAD
1000
DSTYLE
1002
{
1070
   144
1040
5.0
1070
   176
1070
   256
1070
   177
1070
   256
1002
}
  0
DIMENSION
  5
311
330
70
100
AcDbEntity
  8
Dimensions
100
AcDbDimension
280
     0
  2
*D26
 10
4.402907
 20
6.335865
 30
0.0
 11
8.402905
 21
6.331271
 31
0.0
 70
    33
 71
     5
 42
40.000005
 73
     0
 74
     0
 75
     0
  3
Standard
100
AcDbAlignedDimension
 13
12.404683
 23
7.877165
 33
0.0
 14
4.404688
 24
7.886352
 34
0.0
1001
ACAD_DIMASSOC_OVERRIDDEN_DIMLFAC
1040
0.0
1001
ACAD_DIMASSOC_CALC_DIMLFAC
1040
-5.0
1001
ACAD_DIMASSOC_DIMLFAC
1040
-5.0
1001
ACAD_DSTYLE_DIMJAG_POSITION
1070
   387
1070
     0
1070
   389
1010
0.0
1020
0.0
1030
0.0
1001
ACAD
1000
DSTYLE
1002
{
1070
   144
1040
5.0
1070
   176
1070
   256
1070
   177
1070
   256
1002
}
  0
DIMENSION
  5
31F
330
70
100
AcDbEntity
  8
Dimensions
100
AcDbDimension
280
     0
  2
*D27
 10
12.417842
 20
7.827705
 30
0.0
 11
11.713718
 21
8.728762
 31
0.0
 70
   163
 71
     5
 42
0.511811
 73
     0
 74
     0
 75
     0
  3
Standard
100
AcDbDiametricDimension
 15
12.391525
 25
7.926626
 35
0.0
 40
0.0
1001
ACAD_DIMASSOC_OVERRIDDEN_DIMLFAC
1040
0.0
1001
ACAD_DIMASSOC_CALC_DIMLFAC
1040
-5.0
1001
ACAD_DIMASSOC_DIMLFAC
1040
-5.0
1001
ACAD_DSTYLE_DIMJAG_POSITION
1070
   387
1070
     0
1070
   389
1010
0.0
1020
0.0
1030
0.0
1001
ACAD_DSTYLE_DIMRADIAL_EXTENSION
1070
   387
1070
     1
1070
   388
1040
0.0
1070
   390
1040
0.0
1001
ACAD
1000
DSTYLE
1002
{
1070
   144
1040
5.0
1070
   288
1070
     1
1002
}
  0
DIMENSION
  5
329
330
70
100
AcDbEntity
  8
Dimensions
100
AcDbDimension
280
     0
  2
*D28
 10
5.556857
 20
7.780331
 30
0.0
 11
6.555199
 21
8.880471
 31
0.0
 70
   163
 71
     5
 42
1.181102
 73
     0
 74
     0
 75
     0
  3
Standard
100
AcDbDiametricDimension
 15
5.652528
 25
7.99631
 35
0.0
 40
0.0
1001
ACAD_DIMASSOC_OVERRIDDEN_DIMLFAC
1040
0.0
1001
ACAD_DIMASSOC_CALC_DIMLFAC
1040
-5.0
1001
ACAD_DIMASSOC_DIMLFAC
1040
-5.0
1001
ACAD_DSTYLE_DIMJAG_POSITION
1070
   387
1070
     0
1070
   389
1010
0.0
1020
0.0
1030
0.0
1001
ACAD_DSTYLE_DIMRADIAL_EXTENSION
1070
   387
1070
     1
1070
   388
1040
0.0
1070
   390
1040
0.0
1001
ACAD
1000
DSTYLE
1002
{
1070
   144
1040
5.0
1070
   288
1070
     1
1002
}
  0
DIMENSION
  5
333
330
70
100
AcDbEntity
  8
Dimensions
100
AcDbDimension
280
     0
  2
*D29
 10
5.560902
 20
7.837705
 30
0.0
 11
6.624787
 21
8.530613
 31
0.0
 70
   163
 71
     5
 42
0.669291
 73
     0
 74
     0
 75
     0
  3
Standard
100
AcDbDiametricDimension
 15
5.648483
 25
7.938936
 35
0.0
 40
0.0
1001
ACAD_DIMASSOC_OVERRIDDEN_DIMLFAC
1040
0.0
1001
ACAD_DIMASSOC_CALC_DIMLFAC
1040
-5.0
1001
ACAD_DIMASSOC_DIMLFAC
1040
-5.0
1001
ACAD_DSTYLE_DIMJAG_POSITION
1070
   387
1070
     0
1070
   389
1010
0.0
1020
0.0
1030
0.0
1001
ACAD_DSTYLE_DIMRADIAL_EXTENSION
1070
   387
1070
     1
1070
   388
1040
0.0
1070
   390
1040
0.0
1001
ACAD
1000
DSTYLE
1002
{
1070
   144
1040
5.0
1070
   288
1070
     1
1002
}
  0
DIMENSION
  5
33D
330
70
100
AcDbEntity
  8
Dimensions
100
AcDbDimension
280
     0
  2
*D30
 10
10.074803
 20
1.101016
 30
0.0
 11
8.5
 21
1.101016
 31
0.0
 70
    32
 71
     5
 42
3.149606
 73
     0
 74
     0
 75
     0
  3
Standard
100
AcDbAlignedDimension
 13
6.925197
 23
1.553985
 33
0.0
 14
10.074803
 24
1.553985
 34
0.0
100
AcDbRotatedDimension
1001
ACAD_DIMASSOC_CALC_DIMLFAC
1040
-1.0
1001
ACAD_DIMASSOC_DIMLFAC
1040
-1.0
1001
ACAD_DIMASSOC_OVERRIDDEN_DIMLFAC
1040
0.0
1001
ACAD_DSTYLE_DIMJAG_POSITION
1070
   387
1070
     0
1070
   389
1010
0.0
1020
0.0
1030
0.0
1001
ACAD
1000
DSTYLE
1002
{
1070
   144
1040
1.0
1070
   176
1070
   256
1070
   177
1070
   256
1002
}
  0
DIMENSION
  5
34B
330
70
100
AcDbEntity
  8
Dimensions
100
AcDbDimension
280
     0
  2
*D31
 10
4.978352
 20
5.41619
 30
0.0
 11
4.978352
 21
3.475245
 31
0.0
 70
   160
 71
     5
 42
3.88189
 73
     0
 74
     0
 75
     0
  3
Standard
100
AcDbAlignedDimension
 13
6.944882
 23
1.5343
 33
0.0
 14
7.015748
 24
5.41619
 34
0.0
 50
90.0
100
AcDbRotatedDimension
1001
ACAD_DIMASSOC_CALC_DIMLFAC
1040
-1.0
1001
ACAD_DIMASSOC_DIMLFAC
1040
-1.0
1001
ACAD_DIMASSOC_OVERRIDDEN_DIMLFAC
1040
0.0
1001
ACAD_DSTYLE_DIMJAG_POSITION
1070
   387
1070
     0
1070
   389
1010
0.0
1020
0.0
1030
0.0
1001
ACAD
1000
DSTYLE
1002
{
1070
   144
1040
1.0
1002
}
  0
DIMENSION
  5
359
330
70
100
AcDbEntity
  8
Dimensions
100
AcDbDimension
280
     0
  2
*D32
 10
9.090551
 20
2.81263
 30
0.0
 11
10.652954
 21
2.81263
 31
0.0
 70
   161
  1
%%C<>
 71
     5
 42
1.181102
 73
     0
 74
     0
 75
     0
  3
Standard
100
AcDbAlignedDimension
 13
7.909449
 23
2.164221
 33
0.0
 14
9.090551
 24
2.164221
 34
0.0
1001
ACAD_DIMASSOC_CALC_DIMLFAC
1040
-1.0
1001
ACAD_DIMASSOC_DIMLFAC
1040
-1.0
1001
ACAD_DIMASSOC_OVERRIDDEN_DIMLFAC
1040
0.0
1001
ACAD_DSTYLE_DIMJAG_POSITION
1070
   387
1070
     0
1070
   389
1010
0.0
1020
0.0
1030
0.0
1001
ACAD
1000
DSTYLE
1002
{
1070
   144
1040
1.0
1002
}
  0
DIMENSION
  5
367
330
70
100
AcDbEntity
  8
Dimensions
100
AcDbDimension
280
     0
  2
*D33
 10
8.834646
 20
2.400563
 30
0.0
 11
10.652954
 21
2.400563
 31
0.0
 70
   161
  1
%%C<>
 71
     5
 42
0.669291
 73
     0
 74
     0
 75
     0
  3
Standard
100
AcDbAlignedDimension
 13
8.165354
 23
1.967371
 33
0.0
 14
8.834646
 24
1.967371
 34
0.0
1001
ACAD_DIMASSOC_CALC_DIMLFAC
1040
-1.0
1001
ACAD_DIMASSOC_DIMLFAC
1040
-1.0
1001
ACAD_DIMASSOC_OVERRIDDEN_DIMLFAC
1040
0.0
1001
ACAD_DSTYLE_DIMJAG_POSITION
1070
   387
1070
     0
1070
   389
1010
0.0
1020
0.0
1030
0.0
1001
ACAD
1000
DSTYLE
1002
{
1070
   144
1040
1.0
1002
}
  0
DIMENSION
  5
375
330
70
100
AcDbEntity
  8
Dimensions
100
AcDbDimension
280
     0
  2
*D34
 10
5.856395
 20
1.967371
 30
0.0
 11
6.251388
 21
2.553749
 31
0.0
 70
   161
 71
     5
 42
0.19685
 73
     0
 74
     0
 75
     0
  3
Standard
100
AcDbAlignedDimension
 13
7.909449
 23
2.164221
 33
0.0
 14
7.909449
 24
1.967371
 34
0.0
1001
ACAD_DIMASSOC_CALC_DIMLFAC
1040
-1.0
1001
ACAD_DIMASSOC_DIMLFAC
1040
-1.0
1001
ACAD_DIMASSOC_OVERRIDDEN_DIMLFAC
1040
0.0
1001
ACAD_DSTYLE_DIMJAG_POSITION
1070
   387
1070
     0
1070
   389
1010
0.0
1020
0.0
1030
0.0
1001
ACAD
1000
DSTYLE
1002
{
1070
   144
1040
1.0
1002
}
  0
DIMENSION
  5
384
330
70
100
AcDbEntity
  8
Dimensions
100
AcDbDimension
280
     0
  2
*D35
 10
6.596213
 20
1.77052
 30
0.0
 11
6.201219
 21
1.419087
 31
0.0
 70
   161
 71
     5
 42
0.19685
 73
     0
 74
     0
 75
     0
  3
Standard
100
AcDbAlignedDimension
 13
8.165354
 23
1.967371
 33
0.0
 14
8.165354
 24
1.77052
 34
0.0
1001
ACAD_DIMASSOC_CALC_DIMLFAC
1040
-1.0
1001
ACAD_DIMASSOC_DIMLFAC
1040
-1.0
1001
ACAD_DIMASSOC_OVERRIDDEN_DIMLFAC
1040
0.0
1001
ACAD_DSTYLE_DIMJAG_POSITION
1070
   387
1070
     0
1070
   389
1010
0.0
1020
0.0
1030
0.0
1001
ACAD
1000
DSTYLE
1002
{
1070
   144
1040
1.0
1002
}
  0
DIMENSION
  5
393
330
70
100
AcDbEntity
  8
Dimensions
100
AcDbDimension
280
     0
  2
*D36
 10
5.411059
 20
1.5343
 30
0.0
 11
5.411059
 21
1.849261
 31
0.0
 70
   160
 71
     5
 42
0.629921
 73
     0
 74
     0
 75
     0
  3
Standard
100
AcDbAlignedDimension
 13
7.909449
 23
2.164221
 33
0.0
 14
7.601895
 24
1.5343
 34
0.0
 50
90.0
100
AcDbRotatedDimension
1001
ACAD_DIMASSOC_CALC_DIMLFAC
1040
-1.0
1001
ACAD_DIMASSOC_DIMLFAC
1040
-1.0
1001
ACAD_DIMASSOC_OVERRIDDEN_DIMLFAC
1040
0.0
1001
ACAD_DSTYLE_DIMJAG_POSITION
1070
   387
1070
     0
1070
   389
1010
0.0
1020
0.0
1030
0.0
1001
ACAD
1000
DSTYLE
1002
{
1070
   144
1040
1.0
1002
}
  0
DIMENSION
  5
3A1
330
70
100
AcDbEntity
  8
Dimensions
100
AcDbDimension
280
     0
  2
*D37
 10
9.684252
 20
3.935875
 30
0.0
 11
7.763879
 21
4.255867
 31
0.0
 70
   164
 71
     5
 42
2.392913
 73
     0
 74
     0
 75
     0
  3
Standard
100
AcDbRadialDimension
 15
7.323883
 25
4.329184
 35
0.0
 40
0.0
1001
ACAD_DIMASSOC_CALC_DIMLFAC
1040
-1.0
1001
ACAD_DIMASSOC_DIMLFAC
1040
-1.0
1001
ACAD_DIMASSOC_OVERRIDDEN_DIMLFAC
1040
0.0
1001
ACAD_DSTYLE_DIMJAG_POSITION
1070
   387
1070
     0
1070
   389
1010
0.0
1020
0.0
1030
0.0
1001
ACAD_DSTYLE_DIMRADIAL_EXTENSION
1070
   387
1070
     1
1070
   388
1040
2.828394
1070
   390
1040
3.454791
1001
ACAD
1000
DSTYLE
1002
{
1070
   144
1040
1.0
1070
    75
1070
     1
1070
   288
1070
     1
1002
}
  0
MTEXT
  5
3AA
330
70
100
AcDbEntity
  8
Annotations
100
AcDbMText
 10
6.013086
 20
2.434641
 30
0.0
 40
0.1
 41
0.221521
 46
0.0
 71
     1
 72
     5
  1
(%%P0.0157)
 73
     1
 44
1.0
1001
ACAD
1000
ACAD_MTEXT_COLUMN_INFO_BEGIN
1070
    75
1070
     2
1070
    79
1070
     0
1070
    76
1070
     1
1070
    78
1070
     0
1070
    48
1040
0.221521
1070
    49
1040
0.6
1070
    50
1070
     1
1040
0.0
1000
ACAD_MTEXT_COLUMN_INFO_END
  0
MTEXT
  5
3AB
330
70
100
AcDbEntity
  8
Annotations
100
AcDbMText
 10
5.944104
 20
1.318785
 30
0.0
 40
0.1
 41
0.547013
 46
0.0
 71
     1
 72
     5
  1
(%%P0.0157)
 73
     1
 44
1.0
1001
ACAD
1000
ACAD_MTEXT_COLUMN_INFO_BEGIN
1070
    75
1070
     2
1070
    79
1070
     0
1070
    76
1070
     1
1070
    78
1070
     0
1070
    48
1040
0.547013
1070
    49
1040
0.6
1070
    50
1070
     1
1040
0.0
1000
ACAD_MTEXT_COLUMN_INFO_END
  0
MTEXT
  5
3AC
102
{ACAD_XDICTIONARY
360
3AD
102
}
330
70
100
AcDbEntity
  8
Annotations
100
AcDbMText
 10
1.057822
 20
2.040231
 30
0.0
 40
0.12
 41
3.680115
 46
0.0
 71
     1
 72
     5
  3
\pi-0.36,l0.36,t0.36;{\fSymbol|b0|i0|c2|p18;\H1.66667x;·^I\fArial|b0|i0|c0|p34;(20) Ø 1.181" straight holes\P\fSymbol|b0|i0|c2|p18;·^I\fArial|b0|i0|c0|p34;(20) Ø .669" straight holes\P\fSymbol|b0|i0|c2|p18;·^I\fArial|b0|i0|c0|p34;(5) Ø .512" straight ho
  1
les}
 73
     1
 44
1.0
1001
ACAD
1000
ACAD_MTEXT_COLUMN_INFO_BEGIN
1070
    75
1070
     2
1070
    79
1070
     0
1070
    76
1070
     1
1070
    78
1070
     0
1070
    48
1040
3.680115
1070
    49
1040
0.6
1070
    50
1070
     1
1040
0.0
1000
ACAD_MTEXT_COLUMN_INFO_END
  0
MTEXT
  5
3AE
330
70
100
AcDbEntity
  8
Annotations
100
AcDbMText
 10
2.390129
 20
3.635716
 30
0.0
 40
0.12
 41
1.926954
 46
0.0
 71
     1
 72
     5
  1
With Snap On Gasket Extrusions In Place, Shoe Height will be 4-1/8"
 73
     1
 44
1.0
1001
ACAD
1000
ACAD_MTEXT_COLUMN_INFO_BEGIN
1070
    75
1070
     2
1070
    79
1070
     0
1070
    76
1070
     1
1070
    78
1070
     0
1070
    48
1040
1.926954
1070
    49
1040
0.6
1070
    50
1070
     1
1040
0.0
1000
ACAD_MTEXT_COLUMN_INFO_END
  0
DIMENSION
  5
3AF
330
70
100
AcDbEntity
  8
Dimensions
100
AcDbDimension
280
     0
  2
*D38
 10
9.622047
 20
5.710552
 30
0.0
 11
8.519685
 21
5.710552
 31
0.0
 70
    32
 71
     5
 42
2.204725
 73
     0
 74
     0
 75
     0
  3
Standard
100
AcDbAlignedDimension
 13
7.417323
 23
4.885215
 33
0.0
 14
9.622047
 24
4.907946
 34
0.0
 50
180.0
100
AcDbRotatedDimension
1001
ACAD_DIMASSOC_CALC_DIMLFAC
1040
-1.0
1001
ACAD_DIMASSOC_DIMLFAC
1040
-1.0
1001
ACAD_DIMASSOC_OVERRIDDEN_DIMLFAC
1040
0.0
1001
ACAD_DSTYLE_DIMJAG_POSITION
1070
   387
1070
     0
1070
   389
1010
0.0
1020
0.0
1030
0.0
1001
ACAD
1000
DSTYLE
1002
{
1070
   144
1040
1.0
1070
   176
1070
   256
1070
   177
1070
   256
1002
}
  0
CIRCLE
  5
63C
330
70
100
AcDbEntity
  8
Hidden
100
AcDbCircle
 10
8.2
 20
9.434292
 30
0.075394
 40
0.0295275590551181
  0
LINE
  5
63D
330
70
100
AcDbEntity
  8
Hidden
100
AcDbLine
 10
2.500105
 20
9.502698
 30
-0.023031
 11
14.500089
 21
9.483012
 31
-0.023031
210
-0.9999986544281252
220
0.0016404700359496
230
0.0
  0
LINE
  5
63E
330
70
100
AcDbEntity
  8
Hidden
100
AcDbLine
 10
2.500118
 20
9.510867
 30
-0.076181
 11
14.500102
 21
9.491182
 31
-0.076181
210
-0.9999986544281252
220
0.0016404700359496
230
0.0
  0
LINE
  5
63F
330
70
100
AcDbEntity
  8
Hidden
100
AcDbLine
 10
2.500109
 20
9.504897
 30
-0.087992
 11
14.500092
 21
9.485211
 31
-0.087992
210
-0.9999986544281252
220
0.0016404700359496
230
0.0
  0
LINE
  5
640
330
70
100
AcDbEntity
  8
Hidden
100
AcDbLine
 10
2.50012
 20
9.51182
 30
0.090157
 11
14.500104
 21
9.492134
 31
0.090157
210
-0.9999986544281252
220
0.0016404700359496
230
0.0
  0
LINE
  5
641
330
70
100
AcDbEntity
  8
Hidden
100
AcDbLine
 10
2.500091
 20
9.494135
 30
0.087205
 11
14.500075
 21
9.474449
 31
0.087205
210
-0.9999986544281252
220
0.0016404700359496
230
0.0
  0
LINE
  5
642
330
70
100
AcDbEntity
  8
Visible
100
AcDbLine
 10
2.499936
 20
9.399722
 30
0.096063
 11
14.49992
 21
9.380036
 31
0.096063
210
-0.9999986544281252
220
0.0016404700359496
230
0.0
  0
LINE
  5
643
330
70
100
AcDbEntity
  8
Visible
100
AcDbLine
 10
2.499901
 20
9.378571
 30
0.096063
 11
14.499885
 21
9.358885
 31
0.096063
210
-0.9999986544281252
220
0.0016404700359496
230
0.0
  0
LINE
  5
644
330
70
100
AcDbEntity
  8
Hidden
100
AcDbLine
 10
2.499909
 20
9.38321
 30
-0.023032
 11
14.499893
 21
9.363524
 31
-0.023032
210
-0.9999986544281252
220
0.0016404700359496
230
0.0
  0
LINE
  5
645
330
70
100
AcDbEntity
  8
Hidden
100
AcDbLine
 10
2.499898
 20
9.376419
 30
-0.076181
 11
14.499882
 21
9.356733
 31
-0.076181
210
-0.9999986544281252
220
0.0016404700359496
230
0.0
  0
LINE
  5
646
330
70
100
AcDbEntity
  8
Hidden
100
AcDbLine
 10
2.499908
 20
9.382389
 30
-0.087992
 11
14.499891
 21
9.362703
 31
-0.087992
210
-0.9999986544281252
220
0.0016404700359496
230
0.0
  0
LINE
  5
647
330
70
100
AcDbEntity
  8
Hidden
100
AcDbLine
 10
2.499896
 20
9.375466
 30
0.090157
 11
14.49988
 21
9.35578
 31
0.090157
210
-0.9999986544281252
220
0.0016404700359496
230
0.0
  0
LINE
  5
648
330
70
100
AcDbEntity
  8
Hidden
100
AcDbLine
 10
2.499925
 20
9.393151
 30
0.087205
 11
14.499909
 21
9.373465
 31
0.087205
210
-0.9999986544281252
220
0.0016404700359496
230
0.0
  0
LINE
  5
649
330
70
100
AcDbEntity
  8
Visible
100
AcDbLine
 10
2.50008
 20
9.487564
 30
0.096063
 11
14.500064
 21
9.467878
 31
0.096063
210
-0.9999986544281252
220
0.0016404700359496
230
0.0
  0
LINE
  5
64A
330
70
100
AcDbEntity
  8
Visible
100
AcDbLine
 10
2.500115
 20
9.508715
 30
0.096063
 11
14.500099
 21
9.489029
 31
0.096063
210
-0.9999986544281252
220
0.0016404700359496
230
0.0
  0
LINE
  5
64B
330
70
100
AcDbEntity
  8
Hidden
100
AcDbLine
 10
2.500101
 20
9.499995
 30
0.015258
 11
14.500084
 21
9.48031
 31
0.015258
210
-0.9999986544281252
220
0.0016404700359496
230
0.0
  0
LINE
  5
64C
330
70
100
AcDbEntity
  8
Hidden
100
AcDbLine
 10
2.500097
 20
9.497777
 30
0.045866
 11
14.500081
 21
9.478091
 31
0.045866
210
-0.9999986544281252
220
0.0016404700359496
230
0.0
  0
LINE
  5
64D
330
70
100
AcDbEntity
  8
Hidden
100
AcDbLine
 10
2.500106
 20
9.503092
 30
-0.086024
 11
14.500089
 21
9.483406
 31
-0.086024
210
-0.9999986544281252
220
0.0016404700359496
230
0.0
  0
LINE
  5
64E
330
70
100
AcDbEntity
  8
Hidden
100
AcDbLine
 10
2.500104
 20
9.502107
 30
-0.090945
 11
14.500088
 21
9.482422
 31
-0.090945
210
-0.9999986544281252
220
0.0016404700359496
230
0.0
  0
LINE
  5
64F
330
70
100
AcDbEntity
  8
Hidden
100
AcDbLine
 10
2.500102
 20
9.501123
 30
-0.091535
 11
14.500086
 21
9.481438
 31
-0.091535
210
-0.9999986544281252
220
0.0016404700359496
230
0.0
  0
LINE
  5
650
330
70
100
AcDbEntity
  8
Hidden
100
AcDbLine
 10
2.500131
 20
9.51884
 30
-0.095669
 11
14.500115
 21
9.499154
 31
-0.095669
210
-0.9999986544281252
220
0.0016404700359496
230
0.0
  0
LINE
  5
651
330
70
100
AcDbEntity
  8
Hidden
100
AcDbLine
 10
2.500128
 20
9.516871
 30
-0.093701
 11
14.500112
 21
9.497186
 31
-0.093701
210
-0.9999986544281252
220
0.0016404700359496
230
0.0
  0
LINE
  5
652
330
70
100
AcDbEntity
  8
Visible
100
AcDbLine
 10
2.500137
 20
9.522383
 30
0.096063
 11
14.500121
 21
9.502697
 31
0.096063
210
-0.9999986544281252
220
0.0016404700359496
230
0.0
  0
LINE
  5
653
330
70
100
AcDbEntity
  8
Visible
100
AcDbLine
 10
2.499879
 20
9.364903
 30
0.096063
 11
14.499863
 21
9.345217
 31
0.096063
210
-0.9999986544281252
220
0.0016404700359496
230
0.0
  0
LINE
  5
654
330
70
100
AcDbEntity
  8
Hidden
100
AcDbLine
 10
2.499888
 20
9.370415
 30
-0.093701
 11
14.499872
 21
9.350729
 31
-0.093701
210
-0.9999986544281252
220
0.0016404700359496
230
0.0
  0
LINE
  5
655
330
70
100
AcDbEntity
  8
Hidden
100
AcDbLine
 10
2.499885
 20
9.368446
 30
-0.095669
 11
14.499869
 21
9.348761
 31
-0.095669
210
-0.9999986544281252
220
0.0016404700359496
230
0.0
  0
LINE
  5
656
330
70
100
AcDbEntity
  8
Hidden
100
AcDbLine
 10
2.499914
 20
9.386163
 30
-0.091535
 11
14.499898
 21
9.366477
 31
-0.091535
210
-0.9999986544281252
220
0.0016404700359496
230
0.0
  0
LINE
  5
657
330
70
100
AcDbEntity
  8
Hidden
100
AcDbLine
 10
2.499912
 20
9.385178
 30
-0.090945
 11
14.499896
 21
9.365493
 31
-0.090945
210
-0.9999986544281252
220
0.0016404700359496
230
0.0
  0
LINE
  5
658
330
70
100
AcDbEntity
  8
Hidden
100
AcDbLine
 10
2.499911
 20
9.384194
 30
-0.086024
 11
14.499894
 21
9.364509
 31
-0.086024
210
-0.9999986544281252
220
0.0016404700359496
230
0.0
  0
CIRCLE
  5
659
330
70
100
AcDbEntity
  8
Hidden
100
AcDbCircle
 10
7.600001
 20
9.435277
 30
0.075394
 40
0.0295275590551181
  0
LINE
  5
65A
330
70
100
AcDbEntity
  8
Hidden
100
AcDbLine
 10
2.499919
 20
9.389509
 30
0.045866
 11
14.499903
 21
9.369824
 31
0.045866
210
-0.9999986544281252
220
0.0016404700359496
230
0.0
  0
LINE
  5
65B
330
70
100
AcDbEntity
  8
Hidden
100
AcDbLine
 10
8.512795
 20
9.433779
 30
0.066535
 11
8.770472
 21
9.433356
 31
0.066535
210
-0.9999986544281252
220
0.0016404700359496
230
0.0
  0
CIRCLE
  5
65C
330
70
100
AcDbEntity
  8
Hidden
100
AcDbCircle
 10
7.000002
 20
9.436261
 30
0.075394
 40
0.0295275590551181
  0
LINE
  5
65D
330
70
100
AcDbEntity
  8
Hidden
100
AcDbLine
 10
7.629529
 20
9.435228
 30
0.066535
 11
8.170473
 21
9.434341
 31
0.066535
210
-0.9999986544281252
220
0.0016404700359496
230
0.0
  0
LINE
  5
65E
330
70
100
AcDbEntity
  8
Hidden
100
AcDbLine
 10
7.02953
 20
9.436212
 30
0.066535
 11
7.570474
 21
9.435325
 31
0.066535
210
-0.9999986544281252
220
0.0016404700359496
230
0.0
  0
LINE
  5
65F
330
70
100
AcDbEntity
  8
Hidden
100
AcDbLine
 10
5.829531
 20
9.438181
 30
0.066535
 11
6.370475
 21
9.437294
 31
0.066535
210
-0.9999986544281252
220
0.0016404700359496
230
0.0
  0
LINE
  5
660
330
70
100
AcDbEntity
  8
Hidden
100
AcDbLine
 10
5.229532
 20
9.439165
 30
0.066535
 11
5.770476
 21
9.438278
 31
0.066535
210
-0.9999986544281252
220
0.0016404700359496
230
0.0
  0
ARC
  5
661
330
70
100
AcDbEntity
  8
Visible
100
AcDbCircle
 10
9.414101
 20
0.087205
 30
2.484513
 40
0.0019685039370079
210
0.9999986544281252
220
-0.0016404700359496
230
0.0
100
AcDbArc
 50
225.0
 51
270.0
  0
LINE
  5
662
330
70
100
AcDbEntity
  8
Hidden
100
AcDbLine
 10
4.629533
 20
9.44015
 30
0.066535
 11
5.170477
 21
9.439262
 31
0.066535
210
-0.9999986544281252
220
0.0016404700359496
230
0.0
  0
ARC
  5
663
330
70
100
AcDbEntity
  8
Visible
100
AcDbCircle
 10
-9.408649
 20
0.08709
 30
-2.484513
 40
0.0019685039370079
210
-0.9999986544281252
220
0.0016404700359496
230
0.0
100
AcDbArc
 50
75.0
 51
135.0
  0
LINE
  5
664
330
70
100
AcDbEntity
  8
Hidden
100
AcDbLine
 10
3.429534
 20
9.442118
 30
0.066535
 11
3.970479
 21
9.441231
 31
0.066535
210
-0.9999986544281252
220
0.0016404700359496
230
0.0
  0
ARC
  5
665
330
70
100
AcDbEntity
  8
Visible
100
AcDbCircle
 10
-9.407661
 20
0.086825
 30
-2.484513
 40
0.0019685039370079
210
-0.9999986544281252
220
0.0016404700359496
230
0.0
100
AcDbArc
 50
3.509405
 51
75.0
  0
LINE
  5
666
330
70
100
AcDbEntity
  8
Hidden
100
AcDbLine
 10
2.829535
 20
9.443102
 30
0.066535
 11
3.370479
 21
9.442215
 31
0.066535
210
-0.9999986544281252
220
0.0016404700359496
230
0.0
  0
ARC
  5
667
330
70
100
AcDbEntity
  8
Visible
100
AcDbCircle
 10
9.401472
 20
0.087205
 30
2.484513
 40
0.0042322834645677
210
0.9999986544281252
220
-0.0016404700359496
230
0.0
100
AcDbArc
 50
303.546951
 51
356.490595
  0
LINE
  5
668
330
70
100
AcDbEntity
  8
Hidden
100
AcDbLine
 10
4.512801
 20
9.440341
 30
0.066535
 11
4.570478
 21
9.440246
 31
0.066535
210
-0.9999986544281252
220
0.0016404700359496
230
0.0
  0
ARC
  5
669
330
70
100
AcDbEntity
  8
Visible
100
AcDbCircle
 10
-9.402826
 20
0.096063
 30
-2.484513
 40
0.0009842519685039
210
-0.9999986544281252
220
0.0016404700359496
230
0.0
100
AcDbArc
 50
90.0
 51
180.0
  0
ARC
  5
66A
330
70
100
AcDbEntity
  8
Visible
100
AcDbCircle
 10
-9.39304
 20
0.096063
 30
-2.484513
 40
0.0009842519685039
210
-0.9999986544281252
220
0.0016404700359496
230
0.0
100
AcDbArc
 50
30.0
 51
90.0
  0
ARC
  5
66B
330
70
100
AcDbEntity
  8
Visible
100
AcDbCircle
 10
9.387358
 20
0.090157
 30
2.484513
 40
0.0009842519685039
210
0.9999986544281252
220
-0.0016404700359496
230
0.0
100
AcDbArc
 50
270.0
 51
330.0
  0
LINE
  5
66C
330
70
100
AcDbEntity
  8
Hidden
100
AcDbLine
 10
2.500008
 20
9.443643
 30
0.066535
 11
2.77048
 21
9.443199
 31
0.066535
210
-0.9999986544281252
220
0.0016404700359496
230
0.0
  0
ARC
  5
66D
330
70
100
AcDbEntity
  8
Visible
100
AcDbCircle
 10
-9.381675
 20
0.096063
 30
-2.484513
 40
0.0009842519685039
210
-0.9999986544281252
220
0.0016404700359496
230
0.0
100
AcDbArc
 50
90.0
 51
180.0
  0
LINE
  5
66E
330
70
100
AcDbEntity
  8
Visible
100
AcDbLine
 10
2.499946
 20
9.405952
 30
0.088482
 11
2.499951
 21
9.408621
 31
0.085813
210
-0.9999986544281252
220
0.0016404700359496
230
0.0
  0
ARC
  5
66F
330
70
100
AcDbEntity
  8
Visible
100
AcDbCircle
 10
-9.369976
 20
0.096063
 30
-2.484513
 40
0.0009842519685039
210
-0.9999986544281252
220
0.0016404700359496
230
0.0
100
AcDbArc
 50
0.0
 51
90.0
  0
LINE
  5
670
330
70
100
AcDbEntity
  8
Visible
100
AcDbLine
 10
2.499942
 20
9.403063
 30
0.088727
 11
2.499943
 21
9.404051
 31
0.088991
210
-0.9999986544281252
220
0.0016404700359496
230
0.0
  0
ARC
  5
671
330
70
100
AcDbEntity
  8
Visible
100
AcDbCircle
 10
-9.525487
 20
0.096063
 30
-2.484513
 40
0.0009842519685039
210
-0.9999986544281252
220
0.0016404700359496
230
0.0
100
AcDbArc
 50
90.0
 51
180.0
  0
LINE
  5
672
330
70
100
AcDbEntity
  8
Visible
100
AcDbLine
 10
2.499918
 20
9.388952
 30
0.097047
 11
2.499934
 21
9.398738
 31
0.097047
210
-0.9999986544281252
220
0.0016404700359496
230
0.0
  0
ARC
  5
673
330
70
100
AcDbEntity
  8
Visible
100
AcDbCircle
 10
-9.513788
 20
0.096063
 30
-2.484513
 40
0.000984251968504
210
-0.9999986544281252
220
0.0016404700359496
230
0.0
100
AcDbArc
 50
0.0
 51
90.0
  0
LINE
  5
674
330
70
100
AcDbEntity
  8
Visible
100
AcDbLine
 10
2.49991
 20
9.384122
 30
0.089665
 11
2.499917
 21
9.388099
 31
0.096555
210
-0.9999986544281252
220
0.0016404700359496
230
0.0
  0
ARC
  5
675
330
70
100
AcDbEntity
  8
Visible
100
AcDbCircle
 10
9.508105
 20
0.090157
 30
2.484513
 40
0.0009842519685039
210
0.9999986544281252
220
-0.0016404700359496
230
0.0
100
AcDbArc
 50
210.0
 51
270.0
  0
ARC
  5
676
330
70
100
AcDbEntity
  8
Visible
100
AcDbCircle
 10
-9.502423
 20
0.096063
 30
-2.484513
 40
0.0009842519685039
210
-0.9999986544281252
220
0.0016404700359496
230
0.0
100
AcDbArc
 50
90.0
 51
150.0
  0
ARC
  5
677
330
70
100
AcDbEntity
  8
Visible
100
AcDbCircle
 10
-9.492637
 20
0.096063
 30
-2.484513
 40
0.000984251968504
210
-0.9999986544281252
220
0.0016404700359496
230
0.0
100
AcDbArc
 50
0.0
 51
90.0
  0
LINE
  5
678
330
70
100
AcDbEntity
  8
Visible
100
AcDbLine
 10
2.499901
 20
9.378571
 30
0.089173
 11
2.499909
 21
9.383269
 31
0.089173
210
-0.9999986544281252
220
0.0016404700359496
230
0.0
  0
ARC
  5
679
330
70
100
AcDbEntity
  8
Visible
100
AcDbCircle
 10
9.493991
 20
0.087205
 30
2.484513
 40
0.0042322834645677
210
0.9999986544281252
220
-0.0016404700359496
230
0.0
100
AcDbArc
 50
183.509405
 51
236.453049
  0
LINE
  5
67A
330
70
100
AcDbEntity
  8
Visible
100
AcDbLine
 10
2.499881
 20
9.365887
 30
0.097047
 11
2.4999
 21
9.377587
 31
0.097047
210
-0.9999986544281252
220
0.0016404700359496
230
0.0
  0
ARC
  5
67B
330
70
100
AcDbEntity
  8
Visible
100
AcDbCircle
 10
-9.487802
 20
0.086825
 30
-2.484513
 40
0.0019685039370079
210
-0.9999986544281252
220
0.0016404700359496
230
0.0
100
AcDbArc
 50
105.0
 51
176.490595
  0
LINE
  5
67C
330
70
100
AcDbEntity
  8
Visible
100
AcDbLine
 10
2.500116
 20
9.509699
 30
0.097047
 11
2.500136
 21
9.521399
 31
0.097047
210
-0.9999986544281252
220
0.0016404700359496
230
0.0
  0
ARC
  5
67D
330
70
100
AcDbEntity
  8
Visible
100
AcDbCircle
 10
-9.486814
 20
0.08709
 30
-2.484513
 40
0.0019685039370079
210
-0.9999986544281252
220
0.0016404700359496
230
0.0
100
AcDbArc
 50
45.0
 51
105.0
  0
LINE
  5
67E
330
70
100
AcDbEntity
  8
Visible
100
AcDbLine
 10
2.500107
 20
9.504017
 30
0.089173
 11
2.500115
 21
9.508715
 31
0.089173
210
-0.9999986544281252
220
0.0016404700359496
230
0.0
  0
ARC
  5
67F
330
70
100
AcDbEntity
  8
Visible
100
AcDbCircle
 10
9.481361
 20
0.087205
 30
2.484513
 40
0.0019685039370079
210
0.9999986544281252
220
-0.0016404700359496
230
0.0
100
AcDbArc
 50
270.0
 51
315.0
  0
LINE
  5
680
330
70
100
AcDbEntity
  8
Visible
100
AcDbLine
 10
2.500099
 20
9.499186
 30
0.096555
 11
2.500106
 21
9.503164
 31
0.089665
210
-0.9999986544281252
220
0.0016404700359496
230
0.0
  0
CIRCLE
  5
681
330
70
100
AcDbEntity
  8
Hidden
100
AcDbCircle
 10
6.400003
 20
9.437245
 30
0.075394
 40
0.0295275590551181
  0
CIRCLE
  5
682
330
70
100
AcDbEntity
  8
Hidden
100
AcDbCircle
 10
5.800004
 20
9.438229
 30
0.075394
 40
0.0295275590551181
  0
CIRCLE
  5
683
330
70
100
AcDbEntity
  8
Hidden
100
AcDbCircle
 10
5.200004
 20
9.439214
 30
0.075394
 40
0.0295275590551181
  0
CIRCLE
  5
684
330
70
100
AcDbEntity
  8
Hidden
100
AcDbCircle
 10
4.600005
 20
9.440198
 30
0.075394
 40
0.0295275590551181
  0
LINE
  5
685
330
70
100
AcDbEntity
  8
Visible
100
AcDbLine
 10
2.500082
 20
9.488548
 30
0.097047
 11
2.500098
 21
9.498334
 31
0.097047
210
-0.9999986544281252
220
0.0016404700359496
230
0.0
  0
LINE
  5
686
330
70
100
AcDbEntity
  8
Visible
100
AcDbLine
 10
2.500073
 20
9.483235
 30
0.088991
 11
2.500075
 21
9.484223
 31
0.088727
210
-0.9999986544281252
220
0.0016404700359496
230
0.0
  0
LINE
  5
687
330
70
100
AcDbEntity
  8
Visible
100
AcDbLine
 10
2.500066
 20
9.478665
 30
0.085813
 11
2.50007
 21
9.481334
 31
0.088482
210
-0.9999986544281252
220
0.0016404700359496
230
0.0
  0
LINE
  5
688
330
70
100
AcDbEntity
  8
Hidden
100
AcDbLine
 10
2.5001
 20
9.499745
 30
0.03324
 11
14.500084
 21
9.48006
 31
0.03324
210
-0.9999986544281252
220
0.0016404700359496
230
0.0
  0
CIRCLE
  5
689
330
70
100
AcDbEntity
  8
Hidden
100
AcDbCircle
 10
4.000006
 20
9.441182
 30
0.075394
 40
0.0295275590551181
  0
CIRCLE
  5
68A
330
70
100
AcDbEntity
  8
Hidden
100
AcDbCircle
 10
3.400007
 20
9.442167
 30
0.075394
 40
0.0295275590551181
  0
CIRCLE
  5
68B
330
70
100
AcDbEntity
  8
Hidden
100
AcDbCircle
 10
2.800008
 20
9.443151
 30
0.075394
 40
0.0295275590551181
  0
CIRCLE
  5
68C
330
70
100
AcDbEntity
  8
Visible
100
AcDbCircle
 10
3.400007
 20
9.442167
 30
0.085236
 40
0.0167322834645669
  0
LINE
  5
68D
330
70
100
AcDbEntity
  8
Visible
100
AcDbLine
 10
2.499953
 20
9.410013
 30
0.085236
 11
2.500063
 21
9.477273
 31
0.085236
210
-0.9999986544281252
220
0.0016404700359496
230
0.0
  0
LINE
  5
68E
330
70
100
AcDbEntity
  8
Hidden
100
AcDbLine
 10
7.629511
 20
9.434244
 30
0.065551
 11
8.170488
 21
9.433356
 31
0.065551
210
-0.9999986544281252
220
0.0016404700359496
230
0.0
  0
LINE
  5
68F
330
70
100
AcDbEntity
  8
Hidden
100
AcDbLine
 10
7.029512
 20
9.435228
 30
0.065551
 11
7.570488
 21
9.434341
 31
0.065551
210
-0.9999986544281252
220
0.0016404700359496
230
0.0
  0
CIRCLE
  5
690
330
70
100
AcDbEntity
  8
Visible
100
AcDbCircle
 10
4.600005
 20
9.440198
 30
0.085236
 40
0.0167322834645669
  0
CIRCLE
  5
691
330
70
100
AcDbEntity
  8
Visible
100
AcDbCircle
 10
5.800004
 20
9.438229
 30
0.085236
 40
0.0167322834645669
  0
CIRCLE
  5
692
330
70
100
AcDbEntity
  8
Visible
100
AcDbCircle
 10
7.000002
 20
9.436261
 30
0.085236
 40
0.0167322834645669
  0
CIRCLE
  5
693
330
70
100
AcDbEntity
  8
Visible
100
AcDbCircle
 10
-8.2
 20
9.434292
 30
-0.085236
 40
0.0167322834645669
210
0.0
220
0.0000000000000001
230
-1.0
  0
LINE
  5
694
330
70
100
AcDbEntity
  8
Hidden
100
AcDbLine
 10
5.829513
 20
9.437197
 30
0.065551
 11
6.37049
 21
9.436309
 31
0.065551
210
-0.9999986544281252
220
0.0016404700359496
230
0.0
  0
LINE
  5
695
330
70
100
AcDbEntity
  8
Hidden
100
AcDbLine
 10
5.229514
 20
9.438181
 30
0.065551
 11
5.770491
 21
9.437294
 31
0.065551
210
-0.9999986544281252
220
0.0016404700359496
230
0.0
  0
LINE
  5
696
330
70
100
AcDbEntity
  8
Hidden
100
AcDbLine
 10
4.629515
 20
9.439165
 30
0.065551
 11
5.170492
 21
9.438278
 31
0.065551
210
-0.9999986544281252
220
0.0016404700359496
230
0.0
  0
LINE
  5
697
330
70
100
AcDbEntity
  8
Hidden
100
AcDbLine
 10
4.512761
 20
9.439357
 30
0.065551
 11
4.570493
 21
9.439262
 31
0.065551
210
-0.9999986544281252
220
0.0016404700359496
230
0.0
  0
CIRCLE
  5
698
330
70
100
AcDbEntity
  8
Visible
100
AcDbCircle
 10
7.600001
 20
9.435277
 30
0.085236
 40
0.0167322834645669
  0
CIRCLE
  5
699
330
70
100
AcDbEntity
  8
Visible
100
AcDbCircle
 10
6.400003
 20
9.437245
 30
0.085236
 40
0.0167322834645669
  0
CIRCLE
  5
69A
330
70
100
AcDbEntity
  8
Visible
100
AcDbCircle
 10
5.200004
 20
9.439214
 30
0.085236
 40
0.0167322834645669
  0
CIRCLE
  5
69B
330
70
100
AcDbEntity
  8
Visible
100
AcDbCircle
 10
4.000006
 20
9.441182
 30
0.085236
 40
0.0167322834645669
  0
LINE
  5
69C
330
70
100
AcDbEntity
  8
Hidden
100
AcDbLine
 10
3.429516
 20
9.441134
 30
0.065551
 11
3.970493
 21
9.440246
 31
0.065551
210
-0.9999986544281252
220
0.0016404700359496
230
0.0
  0
LINE
  5
69D
330
70
100
AcDbEntity
  8
Hidden
100
AcDbLine
 10
2.829517
 20
9.442118
 30
0.065551
 11
3.370494
 21
9.441231
 31
0.065551
210
-0.9999986544281252
220
0.0016404700359496
230
0.0
  0
CIRCLE
  5
69E
330
70
100
AcDbEntity
  8
Visible
100
AcDbCircle
 10
2.800008
 20
9.443151
 30
0.085236
 40
0.0167322834645669
  0
CIRCLE
  5
69F
330
70
100
AcDbEntity
  8
Visible
100
AcDbCircle
 10
-6.500003
 20
9.437081
 30
-0.085236
 40
0.0127952755905512
210
0.0
220
0.0000000000000001
230
-1.0
  0
LINE
  5
6A0
330
70
100
AcDbEntity
  8
Hidden
100
AcDbLine
 10
2.500006
 20
9.442659
 30
0.065551
 11
2.770495
 21
9.442215
 31
0.065551
210
-0.9999986544281252
220
0.0016404700359496
230
0.0
  0
LINE
  5
6A1
330
70
100
AcDbEntity
  8
Hidden
100
AcDbLine
 10
8.512756
 20
9.432795
 30
0.065551
 11
8.770487
 21
9.432372
 31
0.065551
210
-0.9999986544281252
220
0.0016404700359496
230
0.0
  0
CIRCLE
  5
6A2
330
70
100
AcDbEntity
  8
Visible
100
AcDbCircle
 10
-4.500005
 20
9.440362
 30
-0.085236
 40
0.0127952755905513
210
0.0
220
0.0000000000000001
230
-1.0
  0
CIRCLE
  5
6A3
330
70
100
AcDbEntity
  8
Visible
100
AcDbCircle
 10
-14.199992
 20
9.424449
 30
-0.085236
 40
0.0167322834645669
210
0.0
220
0.0000000000000001
230
-1.0
  0
LINE
  5
6A4
330
70
100
AcDbEntity
  8
Hidden
100
AcDbLine
 10
6.970489
 20
9.435325
 30
0.065551
 11
6.512758
 21
9.436076
 31
0.065551
210
-0.9999986544281252
220
0.0016404700359496
230
0.0
  0
LINE
  5
6A5
330
70
100
AcDbEntity
  8
Hidden
100
AcDbLine
 10
6.512798
 20
9.43706
 30
0.066535
 11
6.970474
 21
9.436309
 31
0.066535
210
-0.9999986544281252
220
0.0016404700359496
230
0.0
  0
CIRCLE
  5
6A6
330
70
100
AcDbEntity
  8
Hidden
100
AcDbCircle
 10
14.199992
 20
9.424449
 30
0.075394
 40
0.0295275590551181
  0
LINE
  5
6A7
330
70
100
AcDbEntity
  8
Hidden
100
AcDbLine
 10
6.42953
 20
9.437197
 30
0.066535
 11
6.487207
 21
9.437102
 31
0.066535
210
-0.9999986544281252
220
0.0016404700359496
230
0.0
  0
LINE
  5
6A8
330
70
100
AcDbEntity
  8
Hidden
100
AcDbLine
 10
6.487244
 20
9.436118
 30
0.065551
 11
6.429512
 21
9.436212
 31
0.065551
210
-0.9999986544281252
220
0.0016404700359496
230
0.0
  0
CIRCLE
  5
6A9
330
70
100
AcDbEntity
  8
Visible
100
AcDbCircle
 10
13.599993
 20
9.425434
 30
0.085236
 40
0.0167322834645669
  0
LINE
  5
6AA
330
70
100
AcDbEntity
  8
Hidden
100
AcDbLine
 10
4.029516
 20
9.44015
 30
0.065551
 11
4.487246
 21
9.439399
 31
0.065551
210
-0.9999986544281252
220
0.0016404700359496
230
0.0
  0
LINE
  5
6AB
330
70
100
AcDbEntity
  8
Hidden
100
AcDbLine
 10
4.029534
 20
9.441134
 30
0.066535
 11
4.48721
 21
9.440383
 31
0.066535
210
-0.9999986544281252
220
0.0016404700359496
230
0.0
  0
LINE
  5
6AC
330
70
100
AcDbEntity
  8
Hidden
100
AcDbLine
 10
14.229502
 20
9.423417
 30
0.065551
 11
14.49999
 21
9.422973
 31
0.065551
210
-0.9999986544281252
220
0.0016404700359496
230
0.0
  0
LINE
  5
6AD
330
70
100
AcDbEntity
  8
Hidden
100
AcDbLine
 10
14.22952
 20
9.424401
 30
0.066535
 11
14.499992
 21
9.423957
 31
0.066535
210
-0.9999986544281252
220
0.0016404700359496
230
0.0
  0
LINE
  5
6AE
330
70
100
AcDbEntity
  8
Hidden
100
AcDbLine
 10
13.629503
 20
9.424401
 30
0.065551
 11
14.17048
 21
9.423514
 31
0.065551
210
-0.9999986544281252
220
0.0016404700359496
230
0.0
  0
LINE
  5
6AF
330
70
100
AcDbEntity
  8
Hidden
100
AcDbLine
 10
13.629521
 20
9.425385
 30
0.066535
 11
14.170465
 21
9.424498
 31
0.066535
210
-0.9999986544281252
220
0.0016404700359496
230
0.0
  0
LINE
  5
6B0
330
70
100
AcDbEntity
  8
Hidden
100
AcDbLine
 10
13.029503
 20
9.425385
 30
0.065551
 11
13.57048
 21
9.424498
 31
0.065551
210
-0.9999986544281252
220
0.0016404700359496
230
0.0
  0
LINE
  5
6B1
330
70
100
AcDbEntity
  8
Hidden
100
AcDbLine
 10
13.029521
 20
9.42637
 30
0.066535
 11
13.570466
 21
9.425482
 31
0.066535
210
-0.9999986544281252
220
0.0016404700359496
230
0.0
  0
LINE
  5
6B2
330
70
100
AcDbEntity
  8
Hidden
100
AcDbLine
 10
11.829505
 20
9.427354
 30
0.065551
 11
12.370482
 21
9.426466
 31
0.065551
210
-0.9999986544281252
220
0.0016404700359496
230
0.0
  0
LINE
  5
6B3
330
70
100
AcDbEntity
  8
Hidden
100
AcDbLine
 10
11.829523
 20
9.428338
 30
0.066535
 11
12.370467
 21
9.427451
 31
0.066535
210
-0.9999986544281252
220
0.0016404700359496
230
0.0
  0
LINE
  5
6B4
330
70
100
AcDbEntity
  8
Hidden
100
AcDbLine
 10
11.229506
 20
9.428338
 30
0.065551
 11
11.770483
 21
9.427451
 31
0.065551
210
-0.9999986544281252
220
0.0016404700359496
230
0.0
  0
LINE
  5
6B5
330
70
100
AcDbEntity
  8
Hidden
100
AcDbLine
 10
11.229524
 20
9.429322
 30
0.066535
 11
11.770468
 21
9.428435
 31
0.066535
210
-0.9999986544281252
220
0.0016404700359496
230
0.0
  0
LINE
  5
6B6
330
70
100
AcDbEntity
  8
Hidden
100
AcDbLine
 10
10.629507
 20
9.429322
 30
0.065551
 11
11.170484
 21
9.428435
 31
0.065551
210
-0.9999986544281252
220
0.0016404700359496
230
0.0
  0
LINE
  5
6B7
330
70
100
AcDbEntity
  8
Hidden
100
AcDbLine
 10
10.629525
 20
9.430307
 30
0.066535
 11
11.170469
 21
9.429419
 31
0.066535
210
-0.9999986544281252
220
0.0016404700359496
230
0.0
  0
LINE
  5
6B8
330
70
100
AcDbEntity
  8
Hidden
100
AcDbLine
 10
10.512753
 20
9.429514
 30
0.065551
 11
10.570484
 21
9.429419
 31
0.065551
210
-0.9999986544281252
220
0.0016404700359496
230
0.0
  0
CIRCLE
  5
6B9
330
70
100
AcDbEntity
  8
Hidden
100
AcDbCircle
 10
13.599993
 20
9.425434
 30
0.075394
 40
0.0295275590551181
  0
CIRCLE
  5
6BA
330
70
100
AcDbEntity
  8
Visible
100
AcDbCircle
 10
12.999994
 20
9.426418
 30
0.085236
 40
0.0167322834645669
  0
CIRCLE
  5
6BB
330
70
100
AcDbEntity
  8
Hidden
100
AcDbCircle
 10
12.999994
 20
9.426418
 30
0.075394
 40
0.0295275590551181
  0
CIRCLE
  5
6BC
330
70
100
AcDbEntity
  8
Visible
100
AcDbCircle
 10
12.399995
 20
9.427402
 30
0.085236
 40
0.0167322834645669
  0
CIRCLE
  5
6BD
330
70
100
AcDbEntity
  8
Hidden
100
AcDbCircle
 10
12.399995
 20
9.427402
 30
0.075394
 40
0.0295275590551181
  0
CIRCLE
  5
6BE
330
70
100
AcDbEntity
  8
Visible
100
AcDbCircle
 10
11.799996
 20
9.428387
 30
0.085236
 40
0.0167322834645669
  0
CIRCLE
  5
6BF
330
70
100
AcDbEntity
  8
Hidden
100
AcDbCircle
 10
11.799996
 20
9.428387
 30
0.075394
 40
0.0295275590551181
  0
CIRCLE
  5
6C0
330
70
100
AcDbEntity
  8
Visible
100
AcDbCircle
 10
11.199996
 20
9.429371
 30
0.085236
 40
0.0167322834645669
  0
CIRCLE
  5
6C1
330
70
100
AcDbEntity
  8
Hidden
100
AcDbCircle
 10
11.199996
 20
9.429371
 30
0.075394
 40
0.0295275590551181
  0
CIRCLE
  5
6C2
330
70
100
AcDbEntity
  8
Visible
100
AcDbCircle
 10
10.599997
 20
9.430355
 30
0.085236
 40
0.0167322834645669
  0
LINE
  5
6C3
330
70
100
AcDbEntity
  8
Hidden
100
AcDbLine
 10
9.429508
 20
9.431291
 30
0.065551
 11
9.970485
 21
9.430404
 31
0.065551
210
-0.9999986544281252
220
0.0016404700359496
230
0.0
  0
ARC
  5
6C4
330
70
100
AcDbEntity
  8
Visible
100
AcDbCircle
 10
-9.369976
 20
0.096063
 30
-14.484513
 40
0.0009842519685039
210
-0.9999986544281252
220
0.0016404700359496
230
0.0
100
AcDbArc
 50
0.0
 51
90.0
  0
LINE
  5
6C5
330
70
100
AcDbEntity
  8
Hidden
100
AcDbLine
 10
9.429526
 20
9.432275
 30
0.066535
 11
9.97047
 21
9.431388
 31
0.066535
210
-0.9999986544281252
220
0.0016404700359496
230
0.0
  0
ARC
  5
6C6
330
70
100
AcDbEntity
  8
Visible
100
AcDbCircle
 10
-9.381675
 20
0.096063
 30
-14.484513
 40
0.0009842519685039
210
-0.9999986544281252
220
0.0016404700359496
230
0.0
100
AcDbArc
 50
90.0
 51
180.0
  0
LINE
  5
6C7
330
70
100
AcDbEntity
  8
Hidden
100
AcDbLine
 10
8.829509
 20
9.432275
 30
0.065551
 11
9.370486
 21
9.431388
 31
0.065551
210
-0.9999986544281252
220
0.0016404700359496
230
0.0
  0
ARC
  5
6C8
330
70
100
AcDbEntity
  8
Visible
100
AcDbCircle
 10
9.387358
 20
0.090157
 30
14.484513
 40
0.0009842519685039
210
0.9999986544281252
220
-0.0016404700359496
230
0.0
100
AcDbArc
 50
270.0
 51
330.0
  0
ARC
  5
6C9
330
70
100
AcDbEntity
  8
Visible
100
AcDbCircle
 10
-9.39304
 20
0.096063
 30
-14.484513
 40
0.0009842519685039
210
-0.9999986544281252
220
0.0016404700359496
230
0.0
100
AcDbArc
 50
30.0
 51
90.0
  0
ARC
  5
6CA
330
70
100
AcDbEntity
  8
Visible
100
AcDbCircle
 10
-9.402826
 20
0.096063
 30
-14.484513
 40
0.0009842519685039
210
-0.9999986544281252
220
0.0016404700359496
230
0.0
100
AcDbArc
 50
90.0
 51
180.0
  0
LINE
  5
6CB
330
70
100
AcDbEntity
  8
Hidden
100
AcDbLine
 10
8.829527
 20
9.43326
 30
0.066535
 11
9.370471
 21
9.432372
 31
0.066535
210
-0.9999986544281252
220
0.0016404700359496
230
0.0
  0
ARC
  5
6CC
330
70
100
AcDbEntity
  8
Visible
100
AcDbCircle
 10
9.401472
 20
0.087205
 30
14.484513
 40
0.0042322834645677
210
0.9999986544281252
220
-0.0016404700359496
230
0.0
100
AcDbArc
 50
303.546951
 51
356.490595
  0
LINE
  5
6CD
330
70
100
AcDbEntity
  8
Hidden
100
AcDbLine
 10
10.512793
 20
9.430498
 30
0.066535
 11
10.57047
 21
9.430404
 31
0.066535
210
-0.9999986544281252
220
0.0016404700359496
230
0.0
  0
ARC
  5
6CE
330
70
100
AcDbEntity
  8
Visible
100
AcDbCircle
 10
-9.407661
 20
0.086825
 30
-14.484513
 40
0.0019685039370079
210
-0.9999986544281252
220
0.0016404700359496
230
0.0
100
AcDbArc
 50
3.509405
 51
75.0
  0
LINE
  5
6CF
330
70
100
AcDbEntity
  8
Visible
100
AcDbLine
 10
14.499864
 20
9.346202
 30
0.097047
 11
14.499884
 21
9.357901
 31
0.097047
210
-0.9999986544281252
220
0.0016404700359496
230
0.0
  0
ARC
  5
6D0
330
70
100
AcDbEntity
  8
Visible
100
AcDbCircle
 10
-9.408649
 20
0.08709
 30
-14.484513
 40
0.0019685039370079
210
-0.9999986544281252
220
0.0016404700359496
230
0.0
100
AcDbArc
 50
75.0
 51
135.0
  0
LINE
  5
6D1
330
70
100
AcDbEntity
  8
Visible
100
AcDbLine
 10
14.499885
 20
9.358885
 30
0.089173
 11
14.499893
 21
9.363584
 31
0.089173
210
-0.9999986544281252
220
0.0016404700359496
230
0.0
  0
ARC
  5
6D2
330
70
100
AcDbEntity
  8
Visible
100
AcDbCircle
 10
9.414101
 20
0.087205
 30
14.484513
 40
0.0019685039370079
210
0.9999986544281252
220
-0.0016404700359496
230
0.0
100
AcDbArc
 50
225.0
 51
270.0
  0
ARC
  5
6D3
330
70
100
AcDbEntity
  8
Visible
100
AcDbCircle
 10
9.481361
 20
0.087205
 30
14.484513
 40
0.0019685039370079
210
0.9999986544281252
220
-0.0016404700359496
230
0.0
100
AcDbArc
 50
270.0
 51
315.0
  0
LINE
  5
6D4
330
70
100
AcDbEntity
  8
Visible
100
AcDbLine
 10
14.499894
 20
9.364436
 30
0.089665
 11
14.499901
 21
9.368414
 31
0.096555
210
-0.9999986544281252
220
0.0016404700359496
230
0.0
  0
ARC
  5
6D5
330
70
100
AcDbEntity
  8
Visible
100
AcDbCircle
 10
-9.486814
 20
0.08709
 30
-14.484513
 40
0.0019685039370079
210
-0.9999986544281252
220
0.0016404700359496
230
0.0
100
AcDbArc
 50
45.0
 51
105.0
  0
LINE
  5
6D6
330
70
100
AcDbEntity
  8
Visible
100
AcDbLine
 10
14.499902
 20
9.369266
 30
0.097047
 11
14.499918
 21
9.379052
 31
0.097047
210
-0.9999986544281252
220
0.0016404700359496
230
0.0
  0
ARC
  5
6D7
330
70
100
AcDbEntity
  8
Visible
100
AcDbCircle
 10
-9.487802
 20
0.086825
 30
-14.484513
 40
0.0019685039370079
210
-0.9999986544281252
220
0.0016404700359496
230
0.0
100
AcDbArc
 50
105.0
 51
176.490595
  0
LINE
  5
6D8
330
70
100
AcDbEntity
  8
Visible
100
AcDbLine
 10
14.499925
 20
9.383377
 30
0.088727
 11
14.499927
 21
9.384365
 31
0.088991
210
-0.9999986544281252
220
0.0016404700359496
230
0.0
  0
ARC
  5
6D9
330
70
100
AcDbEntity
  8
Visible
100
AcDbCircle
 10
9.493991
 20
0.087205
 30
14.484513
 40
0.0042322834645677
210
0.9999986544281252
220
-0.0016404700359496
230
0.0
100
AcDbArc
 50
183.509405
 51
236.453049
  0
LINE
  5
6DA
330
70
100
AcDbEntity
  8
Visible
100
AcDbLine
 10
14.49993
 20
9.386266
 30
0.088482
 11
14.499934
 21
9.388935
 31
0.085813
210
-0.9999986544281252
220
0.0016404700359496
230
0.0
  0
ARC
  5
6DB
330
70
100
AcDbEntity
  8
Visible
100
AcDbCircle
 10
-9.492637
 20
0.096063
 30
-14.484513
 40
0.000984251968504
210
-0.9999986544281252
220
0.0016404700359496
230
0.0
100
AcDbArc
 50
0.0
 51
90.0
  0
ARC
  5
6DC
330
70
100
AcDbEntity
  8
Visible
100
AcDbCircle
 10
-9.502423
 20
0.096063
 30
-14.484513
 40
0.0009842519685039
210
-0.9999986544281252
220
0.0016404700359496
230
0.0
100
AcDbArc
 50
90.0
 51
150.0
  0
ARC
  5
6DD
330
70
100
AcDbEntity
  8
Visible
100
AcDbCircle
 10
9.508105
 20
0.090157
 30
14.484513
 40
0.0009842519685039
210
0.9999986544281252
220
-0.0016404700359496
230
0.0
100
AcDbArc
 50
210.0
 51
270.0
  0
LINE
  5
6DE
330
70
100
AcDbEntity
  8
Visible
100
AcDbLine
 10
14.499937
 20
9.390327
 30
0.085236
 11
14.500047
 21
9.457587
 31
0.085236
210
-0.9999986544281252
220
0.0016404700359496
230
0.0
  0
ARC
  5
6DF
330
70
100
AcDbEntity
  8
Visible
100
AcDbCircle
 10
-9.513788
 20
0.096063
 30
-14.484513
 40
0.000984251968504
210
-0.9999986544281252
220
0.0016404700359496
230
0.0
100
AcDbArc
 50
0.0
 51
90.0
  0
LINE
  5
6E0
330
70
100
AcDbEntity
  8
Visible
100
AcDbLine
 10
14.500049
 20
9.458979
 30
0.085813
 11
14.500054
 21
9.461648
 31
0.088482
210
-0.9999986544281252
220
0.0016404700359496
230
0.0
  0
ARC
  5
6E1
330
70
100
AcDbEntity
  8
Visible
100
AcDbCircle
 10
-9.525487
 20
0.096063
 30
-14.484513
 40
0.0009842519685039
210
-0.9999986544281252
220
0.0016404700359496
230
0.0
100
AcDbArc
 50
90.0
 51
180.0
  0
LINE
  5
6E2
330
70
100
AcDbEntity
  8
Visible
100
AcDbLine
 10
14.500057
 20
9.46355
 30
0.088991
 11
14.500058
 21
9.464537
 31
0.088727
210
-0.9999986544281252
220
0.0016404700359496
230
0.0
  0
LINE
  5
6E3
330
70
100
AcDbEntity
  8
Visible
100
AcDbLine
 10
14.500066
 20
9.468862
 30
0.097047
 11
14.500082
 21
9.478648
 31
0.097047
210
-0.9999986544281252
220
0.0016404700359496
230
0.0
  0
CIRCLE
  5
6E4
330
70
100
AcDbEntity
  8
Hidden
100
AcDbCircle
 10
10.599997
 20
9.430355
 30
0.075394
 40
0.0295275590551181
  0
CIRCLE
  5
6E5
330
70
100
AcDbEntity
  8
Visible
100
AcDbCircle
 10
9.999998
 20
9.431339
 30
0.085236
 40
0.0167322834645669
  0
LINE
  5
6E6
330
70
100
AcDbEntity
  8
Visible
100
AcDbLine
 10
14.500083
 20
9.479501
 30
0.096555
 11
14.50009
 21
9.483479
 31
0.089665
210
-0.9999986544281252
220
0.0016404700359496
230
0.0
  0
LINE
  5
6E7
330
70
100
AcDbEntity
  8
Visible
100
AcDbLine
 10
14.500091
 20
9.484331
 30
0.089173
 11
14.500099
 21
9.489029
 31
0.089173
210
-0.9999986544281252
220
0.0016404700359496
230
0.0
  0
CIRCLE
  5
6E8
330
70
100
AcDbEntity
  8
Hidden
100
AcDbCircle
 10
9.999998
 20
9.431339
 30
0.075394
 40
0.0295275590551181
  0
CIRCLE
  5
6E9
330
70
100
AcDbEntity
  8
Visible
100
AcDbCircle
 10
9.399999
 20
9.432324
 30
0.085236
 40
0.0167322834645669
  0
LINE
  5
6EA
330
70
100
AcDbEntity
  8
Visible
100
AcDbLine
 10
14.5001
 20
9.490014
 30
0.097047
 11
14.500119
 21
9.501713
 31
0.097047
210
-0.9999986544281252
220
0.0016404700359496
230
0.0
  0
CIRCLE
  5
6EB
330
70
100
AcDbEntity
  8
Hidden
100
AcDbCircle
 10
9.399999
 20
9.432324
 30
0.075394
 40
0.0295275590551181
  0
CIRCLE
  5
6EC
330
70
100
AcDbEntity
  8
Visible
100
AcDbCircle
 10
8.8
 20
9.433308
 30
0.085236
 40
0.0167322834645669
  0
LINE
  5
6ED
330
70
100
AcDbEntity
  8
Hidden
100
AcDbLine
 10
12.970481
 20
9.425482
 30
0.065551
 11
12.51275
 21
9.426233
 31
0.065551
210
-0.9999986544281252
220
0.0016404700359496
230
0.0
  0
LINE
  5
6EE
330
70
100
AcDbEntity
  8
Hidden
100
AcDbLine
 10
12.51279
 20
9.427217
 30
0.066535
 11
12.970466
 21
9.426466
 31
0.066535
210
-0.9999986544281252
220
0.0016404700359496
230
0.0
  0
CIRCLE
  5
6EF
330
70
100
AcDbEntity
  8
Hidden
100
AcDbCircle
 10
8.8
 20
9.433308
 30
0.075394
 40
0.0295275590551181
  0
CIRCLE
  5
6F0
330
70
100
AcDbEntity
  8
Visible
100
AcDbCircle
 10
-12.499995
 20
9.427238
 30
-0.085236
 40
0.0127952755905512
210
0.0
220
0.0000000000000001
230
-1.0
  0
LINE
  5
6F1
330
70
100
AcDbEntity
  8
Hidden
100
AcDbLine
 10
12.429522
 20
9.427354
 30
0.066535
 11
12.487199
 21
9.427259
 31
0.066535
210
-0.9999986544281252
220
0.0016404700359496
230
0.0
  0
CIRCLE
  5
6F2
330
70
100
AcDbEntity
  8
Visible
100
AcDbCircle
 10
-10.499997
 20
9.430519
 30
-0.085236
 40
0.0127952755905513
210
0.0
220
0.0000000000000001
230
-1.0
  0
LINE
  5
6F3
330
70
100
AcDbEntity
  8
Hidden
100
AcDbLine
 10
12.487236
 20
9.426275
 30
0.065551
 11
12.429504
 21
9.42637
 31
0.065551
210
-0.9999986544281252
220
0.0016404700359496
230
0.0
  0
CIRCLE
  5
6F4
330
70
100
AcDbEntity
  8
Visible
100
AcDbCircle
 10
-8.5
 20
9.4338
 30
-0.085236
 40
0.0127952755905512
210
0.0
220
0.0000000000000001
230
-1.0
  0
LINE
  5
6F5
330
70
100
AcDbEntity
  8
Hidden
100
AcDbLine
 10
10.029507
 20
9.430307
 30
0.065551
 11
10.487238
 21
9.429556
 31
0.065551
210
-0.9999986544281252
220
0.0016404700359496
230
0.0
  0
LINE
  5
6F6
330
70
100
AcDbEntity
  8
Hidden
100
AcDbLine
 10
10.029526
 20
9.431291
 30
0.066535
 11
10.487202
 21
9.43054
 31
0.066535
210
-0.9999986544281252
220
0.0016404700359496
230
0.0
  0
LINE
  5
6F7
330
70
100
AcDbEntity
  8
Hidden
100
AcDbLine
 10
8.22951
 20
9.43326
 30
0.065551
 11
8.487241
 21
9.432837
 31
0.065551
210
-0.9999986544281252
220
0.0016404700359496
230
0.0
  0
LINE
  5
6F8
330
70
100
AcDbEntity
  8
Hidden
100
AcDbLine
 10
8.229528
 20
9.434244
 30
0.066535
 11
8.487205
 21
9.433821
 31
0.066535
210
-0.9999986544281252
220
0.0016404700359496
230
0.0
  0
LINE
  5
6F9
330
70
100
AcDbEntity
  8
Hidden
100
AcDbLine
 10
8.77049
 20
9.434341
 30
0.065551
 11
8.512759
 21
9.434763
 31
0.065551
210
-0.9999986544281252
220
0.0016404700359496
230
0.0
  0
LINE
  5
6FA
330
70
100
AcDbEntity
  8
Hidden
100
AcDbLine
 10
9.370489
 20
9.433356
 30
0.065551
 11
8.829512
 21
9.434244
 31
0.065551
210
-0.9999986544281252
220
0.0016404700359496
230
0.0
  0
LINE
  5
6FB
330
70
100
AcDbEntity
  8
Hidden
100
AcDbLine
 10
9.970488
 20
9.432372
 30
0.065551
 11
9.429512
 21
9.43326
 31
0.065551
210
-0.9999986544281252
220
0.0016404700359496
230
0.0
  0
LINE
  5
6FC
330
70
100
AcDbEntity
  8
Hidden
100
AcDbLine
 10
10.487242
 20
9.431524
 30
0.065551
 11
10.029511
 21
9.432275
 31
0.065551
210
-0.9999986544281252
220
0.0016404700359496
230
0.0
  0
LINE
  5
6FD
330
70
100
AcDbEntity
  8
Hidden
100
AcDbLine
 10
10.570488
 20
9.431388
 30
0.065551
 11
10.512756
 21
9.431483
 31
0.065551
210
-0.9999986544281252
220
0.0016404700359496
230
0.0
  0
LINE
  5
6FE
330
70
100
AcDbEntity
  8
Hidden
100
AcDbLine
 10
11.170487
 20
9.430404
 30
0.065551
 11
10.62951
 21
9.431291
 31
0.065551
210
-0.9999986544281252
220
0.0016404700359496
230
0.0
  0
LINE
  5
6FF
330
70
100
AcDbEntity
  8
Hidden
100
AcDbLine
 10
11.770486
 20
9.429419
 30
0.065551
 11
11.229509
 21
9.430307
 31
0.065551
210
-0.9999986544281252
220
0.0016404700359496
230
0.0
  0
LINE
  5
700
330
70
100
AcDbEntity
  8
Hidden
100
AcDbLine
 10
12.370485
 20
9.428435
 30
0.065551
 11
11.829508
 21
9.429322
 31
0.065551
210
-0.9999986544281252
220
0.0016404700359496
230
0.0
  0
LINE
  5
701
330
70
100
AcDbEntity
  8
Hidden
100
AcDbLine
 10
12.487239
 20
9.428243
 30
0.065551
 11
12.429507
 21
9.428338
 31
0.065551
210
-0.9999986544281252
220
0.0016404700359496
230
0.0
  0
LINE
  5
702
330
70
100
AcDbEntity
  8
Hidden
100
AcDbLine
 10
12.970484
 20
9.427451
 30
0.065551
 11
12.512754
 21
9.428202
 31
0.065551
210
-0.9999986544281252
220
0.0016404700359496
230
0.0
  0
LINE
  5
703
330
70
100
AcDbEntity
  8
Hidden
100
AcDbLine
 10
13.570484
 20
9.426466
 30
0.065551
 11
13.029507
 21
9.427354
 31
0.065551
210
-0.9999986544281252
220
0.0016404700359496
230
0.0
  0
LINE
  5
704
330
70
100
AcDbEntity
  8
Hidden
100
AcDbLine
 10
14.170483
 20
9.425482
 30
0.065551
 11
13.629506
 21
9.42637
 31
0.065551
210
-0.9999986544281252
220
0.0016404700359496
230
0.0
  0
LINE
  5
705
330
70
100
AcDbEntity
  8
Hidden
100
AcDbLine
 10
14.499994
 20
9.424942
 30
0.065551
 11
14.229505
 21
9.425385
 31
0.065551
210
-0.9999986544281252
220
0.0016404700359496
230
0.0
  0
LINE
  5
706
330
70
100
AcDbEntity
  8
Hidden
100
AcDbLine
 10
2.770498
 20
9.444183
 30
0.065551
 11
2.50001
 21
9.444627
 31
0.065551
210
-0.9999986544281252
220
0.0016404700359496
230
0.0
  0
LINE
  5
707
330
70
100
AcDbEntity
  8
Hidden
100
AcDbLine
 10
3.370497
 20
9.443199
 30
0.065551
 11
2.82952
 21
9.444087
 31
0.065551
210
-0.9999986544281252
220
0.0016404700359496
230
0.0
  0
LINE
  5
708
330
70
100
AcDbEntity
  8
Hidden
100
AcDbLine
 10
3.970497
 20
9.442215
 30
0.065551
 11
3.42952
 21
9.443102
 31
0.065551
210
-0.9999986544281252
220
0.0016404700359496
230
0.0
  0
LINE
  5
709
330
70
100
AcDbEntity
  8
Hidden
100
AcDbLine
 10
4.48725
 20
9.441367
 30
0.065551
 11
4.029519
 21
9.442118
 31
0.065551
210
-0.9999986544281252
220
0.0016404700359496
230
0.0
  0
LINE
  5
70A
330
70
100
AcDbEntity
  8
Hidden
100
AcDbLine
 10
4.570496
 20
9.441231
 30
0.065551
 11
4.512764
 21
9.441325
 31
0.065551
210
-0.9999986544281252
220
0.0016404700359496
230
0.0
  0
LINE
  5
70B
330
70
100
AcDbEntity
  8
Hidden
100
AcDbLine
 10
5.170495
 20
9.440246
 30
0.065551
 11
4.629518
 21
9.441134
 31
0.065551
210
-0.9999986544281252
220
0.0016404700359496
230
0.0
  0
LINE
  5
70C
330
70
100
AcDbEntity
  8
Hidden
100
AcDbLine
 10
5.770494
 20
9.439262
 30
0.065551
 11
5.229517
 21
9.44015
 31
0.065551
210
-0.9999986544281252
220
0.0016404700359496
230
0.0
  0
LINE
  5
70D
330
70
100
AcDbEntity
  8
Hidden
100
AcDbLine
 10
6.370493
 20
9.438278
 30
0.065551
 11
5.829516
 21
9.439165
 31
0.065551
210
-0.9999986544281252
220
0.0016404700359496
230
0.0
  0
LINE
  5
70E
330
70
100
AcDbEntity
  8
Hidden
100
AcDbLine
 10
6.487247
 20
9.438086
 30
0.065551
 11
6.429516
 21
9.438181
 31
0.065551
210
-0.9999986544281252
220
0.0016404700359496
230
0.0
  0
LINE
  5
70F
330
70
100
AcDbEntity
  8
Hidden
100
AcDbLine
 10
6.970493
 20
9.437294
 30
0.065551
 11
6.512762
 21
9.438044
 31
0.065551
210
-0.9999986544281252
220
0.0016404700359496
230
0.0
  0
LINE
  5
710
330
70
100
AcDbEntity
  8
Hidden
100
AcDbLine
 10
7.570492
 20
9.436309
 30
0.065551
 11
7.029515
 21
9.437197
 31
0.065551
210
-0.9999986544281252
220
0.0016404700359496
230
0.0
  0
LINE
  5
711
330
70
100
AcDbEntity
  8
Hidden
100
AcDbLine
 10
8.170491
 20
9.435325
 30
0.065551
 11
7.629514
 21
9.436212
 31
0.065551
210
-0.9999986544281252
220
0.0016404700359496
230
0.0
  0
LINE
  5
712
330
70
100
AcDbEntity
  8
Hidden
100
AcDbLine
 10
8.487244
 20
9.434805
 30
0.065551
 11
8.229513
 21
9.435228
 31
0.065551
210
-0.9999986544281252
220
0.0016404700359496
230
0.0
  0
SPLINE
  5
713
330
70
100
AcDbEntity
  8
Visible
100
AcDbSpline
 70
     0
 71
     3
 72
    14
 73
    10
 74
     0
 42
0.000000001
 43
0.0000000001
 40
0.1508875241108729
 40
0.1508875241108729
 40
0.1508875241108729
 40
0.1508875241108729
 40
0.169733226693262
 40
0.169733226693262
 40
0.1885789292756511
 40
0.1885789292756511
 40
0.2074556810319552
 40
0.2074556810319552
 40
0.2263324327882593
 40
0.2263324327882593
 40
0.2263324327882593
 40
0.2263324327882593
 10
12.68859728815898
 20
8.191660622795552
 30
0.3842567573080942
 10
12.68859728815898
 20
8.191660622795552
 30
0.3847513951711789
 10
12.68860466277412
 20
8.191561689953232
 30
0.3852788758931638
 10
12.68863458346831
 20
8.191159704363371
 30
0.3862488678721547
 10
12.68865712385327
 20
8.19085666009937
 30
0.3866913828201177
 10
12.68870902189532
 20
8.19015747969388
 30
0.3873904771478465
 10
12.68874185310432
 20
8.189714534016275
 30
0.3876934519316819
 10
12.68881356370626
 20
8.188744417381485
 30
0.3880950920279247
 10
12.68885243787652
 20
8.188217249285116
 30
0.3881937651819953
 10
12.68888878381949
 20
8.187723131433131
 30
0.3881937651819953
1001
ACAD_VIEW_EDGE_ID
1071
       53
1071
       -1
1071
        2
1071
        0
  0
ARC
  5
714
330
70
100
AcDbEntity
  8
Visible
100
AcDbCircle
 10
-8.508873
 20
7.880253
 30
-0.388194
 40
4.191308955326761
210
0.0
220
0.0000000000000001
230
-1.0
100
AcDbArc
 50
175.793057
 51
176.434346
  0
SPLINE
  5
715
330
70
100
AcDbEntity
  8
Visible
100
AcDbSpline
 70
     0
 71
     3
 72
    16
 73
    12
 74
     0
 42
0.000000001
 43
0.0000000001
 40
-0.0751534459730349
 40
-0.0751534459730349
 40
-0.0751534459730349
 40
-0.0751534459730349
 40
-0.0675250654372436
 40
-0.0675250654372436
 40
-0.0506258982348409
 40
-0.0506258982348409
 40
-0.0337267310324383
 40
-0.0337267310324383
 40
-0.0168633655162192
 40
-0.0168633655162192
 40
-0.0000000000000162
 40
0.0
 40
0.0
 40
0.0
 10
12.69206828279456
 20
8.140919618937459
 30
0.3881937651819953
 10
12.6920815423654
 20
8.140706828683732
 30
0.3881937651819953
 10
12.69209454818352
 20
8.140497843113962
 30
0.388176209112089
 10
12.69213399552949
 20
8.139863277090853
 30
0.3880751810690981
 10
12.69216232456839
 20
8.139406350797571
 30
0.3879220981552862
 10
12.69221341409109
 20
8.13858033606948
 30
0.3874588058961308
 10
12.69223617871805
 20
8.138211251801976
 30
0.3871485895776914
 10
12.69227156929413
 20
8.137636672980761
 30
0.3864748844232508
 10
12.69228680729664
 20
8.137388773364591
 30
0.3860621712954071
 10
12.69230690821345
 20
8.137061537266163
 30
0.3851744127348411
 10
12.69231177414188
 20
8.136982206325455
 30
0.3846993653269237
 10
12.69231177414188
 20
8.136982206325455
 30
0.3842567573080942
1001
ACAD_VIEW_EDGE_ID
1071
       55
1071
       -1
1071
        2
1071
        0
  0
ARC
  5
716
330
70
100
AcDbEntity
  8
Visible
100
AcDbCircle
 10
-8.508873
 20
7.880253
 30
-0.356698
 40
4.191308955922108
210
0.0
220
0.0000000000000001
230
-1.0
100
AcDbArc
 50
176.488274
 51
176.745655
  0
SPLINE
  5
717
330
70
100
AcDbEntity
  8
Visible
100
AcDbSpline
 70
     0
 71
     3
 72
    12
 73
     8
 74
     0
 42
0.000000001
 43
0.0000000001
 40
0.2262062088246509
 40
0.2262062088246509
 40
0.2262062088246509
 40
0.2262062088246509
 40
0.2450740413153906
 40
0.2450740413153906
 40
0.2639418738061304
 40
0.2639418738061304
 40
0.2765950526226641
 40
0.2765950526226641
 40
0.2765950526226641
 40
0.2765950526226641
 10
12.69342282822865
 20
8.118187040699694
 30
0.3566977021898765
 10
12.69345094105111
 20
8.117692620604202
 30
0.3566977021898765
 10
12.69348083451099
 20
8.117165179389985
 30
0.356796504765498
 10
12.69353566246138
 20
8.11619475409816
 30
0.3571985253381626
 10
12.69356060183112
 20
8.115751772417752
 30
0.3575017484577074
 10
12.69359343956979
 20
8.115167393245656
 30
0.3580864588382155
 10
12.69360549306609
 20
8.114952524380669
 30
0.3583625143603513
 10
12.69361532032279
 20
8.114777171500008
 30
0.3586662061270545
1001
ACAD_VIEW_EDGE_ID
1071
       59
1071
       -1
1071
        2
1071
        0
  0
ELLIPSE
  5
718
330
70
100
AcDbEntity
  8
Visible
100
AcDbEllipse
 10
8.508873
 20
7.880253
 30
0.776764
 11
-0.0068757166972074
 21
-4.191303316096747
 31
7.259560061671275
210
-0.0014206887252795
220
-0.8660242384850157
230
-0.4999999999999944
 40
0.4999999999562776
 41
4.654764327489221
 42
4.658566474449474
1001
ACAD_VIEW_EDGE_ID
1071
       60
1071
       -1
1071
        2
1071
        0
  0
SPLINE
  5
719
330
70
100
AcDbEntity
  8
Visible
100
AcDbSpline
 70
     0
 71
     3
 72
    12
 73
     8
 74
     0
 42
0.000000001
 43
0.0000000001
 40
0.1757926933225676
 40
0.1757926933225676
 40
0.1757926933225676
 40
0.1757926933225676
 40
0.1884607574592706
 40
0.1884607574592706
 40
0.2073162874422326
 40
0.2073162874422326
 40
0.2261718174251945
 40
0.2261718174251945
 40
0.2261718174251945
 40
0.2261718174251945
 10
12.69447676664562
 20
8.098864509020359
 30
0.3862252612450447
 10
12.69448593641337
 20
8.098688942022818
 30
0.3865293257413214
 10
12.69449716403186
 20
8.098473751252186
 30
0.3868057021859386
 10
12.69452761404763
 20
8.09788906849053
 30
0.3873903342084759
 10
12.69455062972301
 20
8.097446231806543
 30
0.3876933173712587
 10
12.69460085418433
 20
8.096476151266188
 30
0.3880950309221589
 10
12.69462805789608
 20
8.09594890874996
 30
0.3881937651819953
 10
12.69465346822485
 20
8.095454665724901
 30
0.3881937651819953
1001
ACAD_VIEW_EDGE_ID
1071
       61
1071
       -1
1071
        2
1071
        0
  0
ARC
  5
71A
330
70
100
AcDbEntity
  8
Visible
100
AcDbCircle
 10
-8.508873
 20
7.880253
 30
-0.388194
 40
4.191308955394964
210
0.0
220
0.0000000000000001
230
-1.0
100
AcDbArc
 50
177.056865
 51
177.592593
  0
SPLINE
  5
71B
330
70
100
AcDbEntity
  8
Visible
100
AcDbSpline
 70
     0
 71
     3
 72
    14
 73
    10
 74
     0
 42
0.000000001
 43
0.0000000001
 40
-0.0753726145632531
 40
-0.0753726145632531
 40
-0.0753726145632531
 40
-0.0753726145632531
 40
-0.0565242717382144
 40
-0.0565242717382144
 40
-0.0376759289131757
 40
-0.0376759289131757
 40
-0.0188379644565879
 40
-0.0188379644565879
 40
-0.0000000000000159
 40
0.0
 40
0.0
 40
0.0
 10
12.69648265165275
 20
8.056307855037175
 30
0.3881937651819953
 10
12.69650343173273
 20
8.055813584501038
 30
0.3881937651819953
 10
12.6965255021592
 20
8.055286322501842
 30
0.3880950149755335
 10
12.69656593608472
 20
8.054316254094146
 30
0.3876932794987624
 10
12.69658430452827
 20
8.053873449093089
 30
0.3873902913283018
 10
12.69661323267485
 20
8.05317429511183
 30
0.3866911857437571
 10
12.69662572424955
 20
8.052871276754785
 30
0.3862485395677595
 10
12.69664226963559
 20
8.052469414566303
 30
0.3852785432325163
 10
12.6966463283577
 20
8.052370573358757
 30
0.3847511920705528
 10
12.6966463283577
 20
8.052370573358757
 30
0.3842567573080942
1001
ACAD_VIEW_EDGE_ID
1071
       63
1071
       -1
1071
        2
1071
        0
  0
SPLINE
  5
71C
330
70
100
AcDbEntity
  8
Visible
100
AcDbSpline
 70
     0
 71
     3
 72
    12
 73
     8
 74
     0
 42
0.000000001
 43
0.0000000001
 40
1.092624743246072
 40
1.092624743246072
 40
1.092624743246072
 40
1.092624743246072
 40
1.134454247577114
 40
1.134454247577114
 40
1.215456623698003
 40
1.215456623698003
 40
1.283421982951364
 40
1.283421982951364
 40
1.283421982951364
 40
1.283421982951364
 10
12.69664621276389
 20
8.052373086641637
 30
0.3347181794752032
 10
12.69668563979241
 20
8.051413806220807
 30
0.3353544733602121
 10
12.6967215981571
 20
8.05053110164772
 30
0.3360770016222432
 10
12.69681383183245
 20
8.048252292079268
 30
0.3383556568176118
 10
12.69686571712423
 20
8.046949312866445
 30
0.3402590498276368
 10
12.69692863406767
 20
8.045360373964967
 30
0.3440943877153586
 10
12.69694514804105
 20
8.044939393090999
 30
0.345972114684173
 10
12.69694952307437
 20
8.044828058214989
 30
0.3477874138598054
1001
ACAD_VIEW_EDGE_ID
1071
       66
1071
       -1
1071
        2
1071
        0
  0
SPLINE
  5
71D
330
70
100
AcDbEntity
  8
Visible
100
AcDbSpline
 70
     0
 71
     3
 72
    14
 73
    10
 74
     0
 42
0.000000001
 43
0.0000000001
 40
0.3075280453481152
 40
0.3075280453481152
 40
0.3075280453481152
 40
0.3075280453481152
 40
0.3391316235404106
 40
0.3391316235404106
 40
0.3767989049372897
 40
0.3767989049372897
 40
0.4144988906653511
 40
0.4144988906653511
 40
0.4268577459423141
 40
0.4268577459423141
 40
0.4268577459423141
 40
0.4268577459423141
 10
12.69694952307437
 20
8.044828058214989
 30
0.3477874138598054
 10
12.69695155746096
 20
8.044776287597414
 30
0.348631526352392
 10
12.6969592547535
 20
8.044580567865068
 30
0.3495046752857434
 10
12.69698818092976
 20
8.04384183315301
 30
0.3512882256165994
 10
12.69701183905401
 20
8.043236028407363
 30
0.3521734224161719
 10
12.69706601159512
 20
8.041837968318077
 30
0.3535718304419788
 10
12.69710014216461
 20
8.040952294856424
 30
0.3541780293105603
 10
12.69714927342999
 20
8.039664023730665
 30
0.3547116833331074
 10
12.69716170264735
 20
8.039337156297278
 30
0.3548225153288058
 10
12.69717424053319
 20
8.039006376865927
 30
0.354911141779894
1001
ACAD_VIEW_EDGE_ID
1071
       67
1071
       -1
1071
        2
1071
        0
  0
ELLIPSE
  5
71E
330
70
100
AcDbEntity
  8
Visible
100
AcDbEllipse
 10
8.508873
 20
7.880253
 30
0.39929
 11
-0.0068757313661352
 21
-4.191303302980196
 31
1.123057846428968
210
-0.0004245848882238
220
-0.2588186968429024
230
-0.9659258262890658
 40
0.9659258292172632
 41
4.672862575768413
 42
4.673805973577568
1001
ACAD_VIEW_EDGE_ID
1071
       68
1071
       -1
1071
        2
1071
        0
  0
SPLINE
  5
71F
330
70
100
AcDbEntity
  8
Visible
100
AcDbSpline
 70
     0
 71
     3
 72
    12
 73
     8
 74
     0
 42
0.000000001
 43
0.0000000001
 40
0.426850617075015
 40
0.426850617075015
 40
0.426850617075015
 40
0.426850617075015
 40
0.4521905834041828
 40
0.4521905834041828
 40
0.4898801975981641
 40
0.4898801975981641
 40
0.5275698117921452
 40
0.5275698117921452
 40
0.5275698117921452
 40
0.5275698117921452
 10
12.69732214456869
 20
8.035055072519298
 30
0.3559698241510887
 10
12.69734721208475
 20
8.034376826887637
 30
0.356151548257003
 10
12.69737273266034
 20
8.03368165084862
 30
0.356238124731135
 10
12.69743302908831
 20
8.032028430352966
 30
0.356238124731135
 10
12.69747110400316
 20
8.030973887415484
 30
0.3560406068897919
 10
12.69754046676917
 20
8.029033767106511
 30
0.3552371132545886
 10
12.69757177453419
 20
8.0281481923937
 30
0.3546311327600051
 10
12.69759634850432
 20
8.027448897293425
 30
0.3539318789137269
1001
ACAD_VIEW_EDGE_ID
1071
       69
1071
       -1
1071
        2
1071
        0
  0
ELLIPSE
  5
720
330
70
100
AcDbEntity
  8
Visible
100
AcDbEllipse
 10
8.508873
 20
7.880253
 30
0.199864
 11
0.0068757165236253
 21
4.191303317302731
 31
4.191308957009807
210
0.0011599874867533
220
0.7071058297235508
230
-0.7071067811865471
 40
0.7071067809214659
 41
1.534029251864005
 42
1.536578024420522
1001
ACAD_VIEW_EDGE_ID
1071
       70
1071
       -1
1071
        2
1071
        0
  0
SPLINE
  5
721
330
70
100
AcDbEntity
  8
Visible
100
AcDbSpline
 70
     0
 71
     3
 72
    10
 73
     6
 74
     0
 42
0.000000001
 43
0.0000000001
 40
0.3767776483385359
 40
0.3767776483385359
 40
0.3767776483385359
 40
0.3767776483385359
 40
0.4144630460927122
 40
0.4144630460927122
 40
0.4521484438468885
 40
0.4521484438468885
 40
0.4521484438468885
 40
0.4521484438468885
 10
12.69795791219992
 20
8.016772327390526
 30
0.3432559165112252
 10
12.69798070016772
 20
8.016073081789045
 30
0.3425567092335768
 10
12.69800937129484
 20
8.015187554118256
 30
0.3419507341866392
 10
12.69807141329401
 20
8.013247459755348
 30
0.3411472162513291
 10
12.69810476414828
 20
8.01219289352889
 30
0.3409496706938171
 10
12.69813566774679
 20
8.011204258364841
 30
0.3409496706938171
1001
ACAD_VIEW_EDGE_ID
1071
       71
1071
       -1
1071
        2
1071
        0
  0
ARC
  5
722
330
70
100
AcDbEntity
  8
Visible
100
AcDbCircle
 10
-8.508873
 20
7.880253
 30
-0.34095
 40
4.191308955435959
210
0.0
220
0.0000000000000001
230
-1.0
100
AcDbArc
 50
178.209583
 51
181.888034
  0
SPLINE
  5
723
330
70
100
AcDbEntity
  8
Visible
100
AcDbSpline
 70
     0
 71
     3
 72
    10
 73
     6
 74
     0
 42
0.000000001
 43
0.0000000001
 40
0.4521331054291882
 40
0.4521331054291882
 40
0.4521331054291882
 40
0.4521331054291882
 40
0.4898169647828725
 40
0.4898169647828725
 40
0.527500824136557
 40
0.527500824136557
 40
0.527500824136557
 40
0.527500824136557
 10
12.69790648026048
 20
7.742163960859897
 30
0.3409496706938171
 10
12.69787389366014
 20
7.741175420138461
 30
0.3409496706938171
 10
12.69783874774217
 20
7.740120959679416
 30
0.3411472204475103
 10
12.69777340385981
 20
7.738181074138765
 30
0.3419507435644391
 10
12.69774322591034
 20
7.737295649377074
 30
0.3425567193264669
 10
12.69771924830209
 20
7.73659649058618
 30
0.3432559165112252
1001
ACAD_VIEW_EDGE_ID
1071
       73
1071
       -1
1071
        2
1071
        0
  0
ELLIPSE
  5
724
330
70
100
AcDbEntity
  8
Visible
100
AcDbEllipse
 10
8.508873
 20
7.880253
 30
0.206472
 11
-0.0068757175651592
 21
-4.191303321600163
 31
4.191308961308935
210
-0.0011599874867533
220
-0.7071058297235502
230
-0.7071067811865475
 40
0.7071067801969664
 41
-1.5381552942364
 42
-1.535606661254676
1001
ACAD_VIEW_EDGE_ID
1071
       74
1071
       -1
1071
        2
1071
        0
  0
SPLINE
  5
725
330
70
100
AcDbEntity
  8
Visible
100
AcDbSpline
 70
     0
 71
     3
 72
    12
 73
     8
 74
     0
 42
0.000000001
 43
0.0000000001
 40
0.3767969717232841
 40
0.3767969717232841
 40
0.3767969717232841
 40
0.3767969717232841
 40
0.4144848595072057
 40
0.4144848595072057
 40
0.4521727472911271
 40
0.4521727472911271
 40
0.4775113042548411
 40
0.4775113042548411
 40
0.4775113042548411
 40
0.4775113042548411
 10
12.69733951730907
 20
7.725921136756596
 30
0.3539318789137269
 10
12.69731375401454
 20
7.725221936399975
 30
0.3546311205932398
 10
12.6972809398876
 20
7.724336475147083
 30
0.3552371015609879
 10
12.69720827645702
 20
7.722396588296305
 30
0.3560406014605633
 10
12.69716840723852
 20
7.721342165241821
 30
0.356238124731135
 10
12.69710529785193
 20
7.719689132100938
 30
0.356238124731135
 10
12.69707859469967
 20
7.718994041631276
 30
0.3561515476487784
 10
12.69705237353076
 20
7.718315882406159
 30
0.3559698241510887
1001
ACAD_VIEW_EDGE_ID
1071
       75
1071
       -1
1071
        2
1071
        0
  0
ELLIPSE
  5
726
330
70
100
AcDbEntity
  8
Visible
100
AcDbEllipse
 10
8.508873
 20
7.880253
 30
0.39752
 11
0.0068757028198747
 21
4.191303303231725
 31
1.123057846483818
210
0.0004245848882238
220
0.2588186968429026
230
-0.9659258262890658
 40
0.9659258291704428
 41
1.607801818439771
 42
1.608745159273485
1001
ACAD_VIEW_EDGE_ID
1071
       76
1071
       -1
1071
        2
1071
        0
  0
SPLINE
  5
727
330
70
100
AcDbEntity
  8
Visible
100
AcDbSpline
 70
     0
 71
     3
 72
    14
 73
    10
 74
     0
 42
0.000000001
 43
0.0000000001
 40
0.4775202502582516
 40
0.4775202502582516
 40
0.4775202502582516
 40
0.4775202502582516
 40
0.4898781341320428
 40
0.4898781341320428
 40
0.527575680873902
 40
0.527575680873902
 40
0.5652430770379429
 40
0.5652430770379429
 40
0.5968467741160718
 40
0.5968467741160718
 40
0.5968467741160718
 40
0.5968467741160718
 10
12.6968977484079
 20
7.714365074350098
 30
0.354911141779894
 10
12.6968846482125
 20
7.714034344818401
 30
0.354822517429966
 10
12.69687166336477
 20
7.713707527322867
 30
0.3547116887430093
 10
12.69682034177105
 20
7.712419441525298
 30
0.3541780483096772
 10
12.69678470552783
 20
7.711533898607513
 30
0.3535718661851206
 10
12.69672815457208
 20
7.710136002606304
 30
0.3521734745731919
 10
12.69670346548059
 20
7.709530260232668
 30
0.3512882609518328
 10
12.69667328230943
 20
7.708791606248496
 30
0.349504687367471
 10
12.69666525210041
 20
7.70859591059343
 30
0.3486315306813594
 10
12.69666312966037
 20
7.708544146529447
 30
0.3477874138598054
1001
ACAD_VIEW_EDGE_ID
1071
       77
1071
       -1
1071
        2
1071
        0
  0
SPLINE
  5
728
330
70
100
AcDbEntity
  8
Visible
100
AcDbSpline
 70
     0
 71
     3
 72
    12
 73
     8
 74
     0
 42
0.000000001
 43
0.0000000001
 40
0.66124388420541
 40
0.66124388420541
 40
0.66124388420541
 40
0.66124388420541
 40
0.7292081612188574
 40
0.7292081612188574
 40
0.8102094420595822
 40
0.8102094420595822
 40
0.8520372855974876
 40
0.8520372855974876
 40
0.8520372855974876
 40
0.8520372855974876
 10
12.69666312966037
 20
7.708544146529447
 30
0.3477874138598054
 10
12.69665856535147
 20
7.708432827871092
 30
0.3459721400051876
 10
12.69664133585679
 20
7.708011912505071
 30
0.3440944309684255
 10
12.69657571745065
 20
7.706423199763094
 30
0.3402590971470545
 10
12.69652161649904
 20
7.705120396124812
 30
0.3383556855310417
 10
12.69642550696128
 20
7.702841872304588
 30
0.3360770071119532
 10
12.69638804769875
 20
7.701959288182251
 30
0.3353544772226087
 10
12.6963469893838
 20
7.701000133996558
 30
0.3347181793922118
1001
ACAD_VIEW_EDGE_ID
1071
       78
1071
       -1
1071
        2
1071
        0
  0
SPLINE
  5
729
330
70
100
AcDbEntity
  8
Visible
100
AcDbSpline
 70
     0
 71
     3
 72
    14
 73
    10
 74
     0
 42
0.000000001
 43
0.0000000001
 40
0.1507414459637011
 40
0.1507414459637011
 40
0.1507414459637173
 40
0.1507414459637173
 40
0.1695791480700271
 40
0.1695791480700271
 40
0.1884168501763531
 40
0.1884168501763531
 40
0.2072641911237969
 40
0.2072641911237969
 40
0.2261115320712406
 40
0.2261115320712406
 40
0.2261115320712406
 40
0.2261115320712406
 10
12.69634710925967
 20
7.701002647190762
 30
0.3842567573080942
 10
12.69634710925967
 20
7.701002647190762
 30
0.3847511851849958
 10
12.69634288260521
 20
7.700903822504869
 30
0.3852785319052145
 10
12.69632565409965
 20
7.700502019210489
 30
0.3862485283286787
 10
12.6963126473355
 20
7.700199043049678
 30
0.3866911789582445
 10
12.69628253048148
 20
7.699499986072169
 30
0.387390284400908
 10
12.69626340938407
 20
7.69905724719274
 30
0.3876932728987867
 10
12.69622132620207
 20
7.698087314323174
 30
0.3880950119389581
 10
12.69619835917182
 20
7.697560121665901
 30
0.3881937651819953
 10
12.6961767384778
 20
7.697065913507913
 30
0.3881937651819953
1001
ACAD_VIEW_EDGE_ID
1071
       81
1071
       -1
1071
        2
1071
        0
  0
ARC
  5
72A
330
70
100
AcDbEntity
  8
Visible
100
AcDbCircle
 10
-8.508873
 20
7.880253
 30
-0.388194
 40
4.191308955401943
210
0.0
220
0.0000000000000001
230
-1.0
100
AcDbArc
 50
182.504987
 51
183.040675
  0
SPLINE
  5
72B
330
70
100
AcDbEntity
  8
Visible
100
AcDbSpline
 70
     0
 71
     3
 72
    12
 73
     8
 74
     0
 42
0.000000001
 43
0.0000000001
 40
0.2261608939913263
 40
0.2261608939913263
 40
0.2261608939913263
 40
0.2261608939913263
 40
0.2450151859299833
 40
0.2450151859299833
 40
0.2638694778686403
 40
0.2638694778686403
 40
0.2765371464045649
 40
0.2765371464045649
 40
0.2765371464045649
 40
0.2765371464045649
 10
12.69428104275849
 20
7.657925213381076
 30
0.3881937651819953
 10
12.69425479279062
 20
7.657431046779493
 30
0.3881937651819953
 10
12.69422669358178
 20
7.656903889533396
 30
0.3880950273653525
 10
12.69417482206485
 20
7.655933976518554
 30
0.3876933095334607
 10
12.69415105482814
 20
7.655491221986721
 30
0.3873903258779592
 10
12.69411961246595
 20
7.654906646595463
 30
0.386805699693241
 10
12.69410801955852
 20
7.654691494225062
 30
0.3865293230926454
 10
12.69409855180647
 20
7.654515959331092
 30
0.3862252612450447
1001
ACAD_VIEW_EDGE_ID
1071
       83
1071
       -1
1071
        2
1071
        0
  0
ELLIPSE
  5
72C
330
70
100
AcDbEntity
  8
Visible
100
AcDbEllipse
 10
8.508873
 20
7.880253
 30
0.76532
 11
0.0068757165926526
 21
4.191303314647092
 31
7.259560059160098
210
0.0014206887252795
220
0.8660242384850157
230
-0.4999999999999949
 40
0.500000000128702
 41
1.623040224883741
 42
1.626842041772129
1001
ACAD_VIEW_EDGE_ID
1071
       84
1071
       -1
1071
        2
1071
        0
  0
SPLINE
  5
72D
330
70
100
AcDbEntity
  8
Visible
100
AcDbSpline
 70
     0
 71
     3
 72
    12
 73
     8
 74
     0
 42
0.000000001
 43
0.0000000001
 40
0.175808460350249
 40
0.175808460350249
 40
0.175808460350249
 40
0.175808460350249
 40
0.1884620711202804
 40
0.1884620711202804
 40
0.2073281048226816
 40
0.2073281048226816
 40
0.2261941385250828
 40
0.2261941385250828
 40
0.2261941385250828
 40
0.2261941385250828
 10
12.69321009784517
 20
7.638606167514581
 30
0.3586662061270545
 10
12.69319997247474
 20
7.63843083720917
 30
0.3583624967689047
 10
12.69318755345273
 20
7.638215991999004
 30
0.358086423842451
 10
12.69315372353697
 20
7.637631710830191
 30
0.3575017228440629
 10
12.69312803328883
 20
7.637188824550548
 30
0.3571985121013768
 10
12.69307155995073
 20
7.636218599869152
 30
0.3567965042018386
 10
12.6930407719796
 20
7.635691263762737
 30
0.3566977021898765
 10
12.69301182049033
 20
7.635196939361094
 30
0.3566977021898765
1001
ACAD_VIEW_EDGE_ID
1071
       85
1071
       -1
1071
        2
1071
        0
  0
ARC
  5
72E
330
70
100
AcDbEntity
  8
Visible
100
AcDbCircle
 10
-8.508873
 20
7.880253
 30
-0.356698
 40
4.191308955845803
210
0.0
220
0.0000000000000001
230
-1.0
100
AcDbArc
 50
183.351858
 51
183.609215
  0
SPLINE
  5
72F
330
70
100
AcDbEntity
  8
Visible
100
AcDbSpline
 70
     0
 71
     3
 72
    14
 73
    10
 74
     0
 42
0.000000001
 43
0.0000000001
 40
0.1508211348587388
 40
0.1508211348587388
 40
0.1508211348587544
 40
0.1508211348587544
 40
0.1696629462810466
 40
0.1696629462810466
 40
0.1885047577033544
 40
0.1885047577033544
 40
0.2073677575596702
 40
0.2073677575596702
 40
0.226230757415986
 40
0.226230757415986
 40
0.226230757415986
 40
0.226230757415986
 10
12.69186889221498
 20
7.616405471330836
 30
0.3842567573080942
 10
12.69186889221498
 20
7.616405471330836
 30
0.3847512930408356
 10
12.69186265972021
 20
7.616306604053761
 30
0.3852787092571361
 10
12.69183728400435
 20
7.615904759544719
 30
0.3862487042165412
 10
12.69181813608698
 20
7.615601787777222
 30
0.3866912851005963
 10
12.69177385016962
 20
7.614902752274019
 30
0.3873903923131365
 10
12.69174575061774
 20
7.614459956355858
 30
0.387693375566414
 10
12.6916840070546
 20
7.613490053313626
 30
0.3880950590987595
 10
12.69165035820715
 20
7.612962948901213
 30
0.3881937651819953
 10
12.69161872665552
 20
7.612468868549058
 30
0.3881937651819953
1001
ACAD_VIEW_EDGE_ID
1071
       89
1071
       -1
1071
        2
1071
        0
  0
ARC
  5
730
330
70
100
AcDbEntity
  8
Visible
100
AcDbCircle
 10
-8.508873
 20
7.880253
 30
-0.388194
 40
4.191308955392483
210
0.0
220
0.0000000000000001
230
-1.0
100
AcDbArc
 50
183.663138
 51
184.304357
  0
SPLINE
  5
731
330
70
100
AcDbEntity
  8
Visible
100
AcDbSpline
 70
     0
 71
     3
 72
    14
 73
    10
 74
     0
 42
0.000000001
 43
0.0000000001
 40
-0.0754404375933142
 40
-0.0754404375933142
 40
-0.0754404375933142
 40
-0.0754404375933142
 40
-0.0565654508185364
 40
-0.0565654508185364
 40
-0.0376904640437587
 40
-0.0376904640437587
 40
-0.0188452320218793
 40
-0.0188452320218793
 40
0.0
 40
0.0
 40
0.0
 40
0.0
 10
12.68835998298586
 20
7.565675917811859
 30
0.3881937651819953
 10
12.68832280047615
 20
7.565181908663589
 30
0.3881937651819953
 10
12.68828303418425
 20
7.564654861791495
 30
0.3880950869415756
 10
12.68820968301276
 20
7.563684983203074
 30
0.3876934407346653
 10
12.68817610335051
 20
7.563242154203635
 30
0.3873904652564306
 10
12.68812302298359
 20
7.562543145839072
 30
0.3866913707554431
 10
12.68809997021271
 20
7.562240176977866
 30
0.3862488478252999
 10
12.6880693702637
 20
7.561838296878477
 30
0.3852788556282576
 10
12.6880618287646
 20
7.561739393753668
 30
0.3847513828202409
 10
12.6880618287646
 20
7.561739393753668
 30
0.3842567573080942
1001
ACAD_VIEW_EDGE_ID
1071
       91
1071
       -1
1071
        2
1071
        0
  0
ARC
  5
732
330
70
100
AcDbEntity
  8
Visible
100
AcDbCircle
 10
-8.116269
 20
0.384257
 30
-4.391744
 40
0.0039370078740157
210
-0.9999986544281252
220
0.0016404700359496
230
0.0
100
AcDbArc
 50
90.0
 51
150.0
  0
LINE
  5
733
330
70
100
AcDbEntity
  8
Visible
100
AcDbLine
 10
4.405059
 20
8.112463
 30
0.386225
 11
4.405085
 21
8.128374
 31
0.358666
210
-0.9999986544281252
220
0.0016404700359496
230
0.0
  0
ARC
  5
734
330
70
100
AcDbEntity
  8
Visible
100
AcDbCircle
 10
8.138999
 20
0.360635
 30
4.391744
 40
0.0039370078740157
210
0.9999986544281252
220
-0.0016404700359496
230
0.0
100
AcDbArc
 50
210.0
 51
270.0
  0
LINE
  5
735
330
70
100
AcDbEntity
  8
Visible
100
AcDbLine
 10
4.40509
 20
8.131784
 30
0.356698
 11
4.405121
 21
8.150577
 31
0.356698
210
-0.9999986544281252
220
0.0016404700359496
230
0.0
  0
ARC
  5
736
330
70
100
AcDbEntity
  8
Visible
100
AcDbCircle
 10
-8.16173
 20
0.384257
 30
-4.391744
 40
0.0039370078740158
210
-0.9999986544281252
220
0.0016404700359496
230
0.0
100
AcDbArc
 50
0.0
 51
90.0
  0
LINE
  5
737
330
70
100
AcDbEntity
  8
Visible
100
AcDbLine
 10
4.405127
 20
8.154514
 30
0.388194
 11
4.405204
 21
8.201312
 31
0.388194
210
-0.9999986544281252
220
0.0016404700359496
230
0.0
  0
LINE
  5
738
330
70
100
AcDbEntity
  8
Visible
100
AcDbLine
 10
4.405211
 20
8.205249
 30
0.384257
 11
12.688597
 21
8.191661
 31
0.384257
210
-0.9999986544281252
220
0.0016404700359496
230
0.0
  0
ARC
  5
739
330
70
100
AcDbEntity
  8
Visible
100
AcDbCircle
 10
-8.208528
 20
0.384257
 30
-4.391744
 40
0.0039370078740158
210
-0.9999986544281252
220
0.0016404700359496
230
0.0
100
AcDbArc
 50
90.0
 51
180.0
  0
LINE
  5
73A
330
70
100
AcDbEntity
  8
Hidden
100
AcDbLine
 10
4.405175
 20
8.183202
 30
-0.374798
 11
12.690182
 21
8.169611
 31
-0.374798
210
-0.9999986544281252
220
0.0016404700359496
230
0.0
  0
LINE
  5
73B
330
70
100
AcDbEntity
  8
Hidden
100
AcDbLine
 10
4.405187
 20
8.191076
 30
-0.382672
 11
12.689629
 21
8.177486
 31
-0.382672
210
-0.9999986544281252
220
0.0016404700359496
230
0.0
  0
LINE
  5
73C
330
70
100
AcDbEntity
  8
Hidden
100
AcDbLine
 10
4.405071
 20
8.12021
 30
-0.366137
 11
12.694065
 21
8.106612
 31
-0.366137
210
-0.9999986544281252
220
0.0016404700359496
230
0.0
  0
LINE
  5
73D
330
70
100
AcDbEntity
  8
Hidden
100
AcDbLine
 10
4.405078
 20
8.124147
 30
-0.363775
 11
12.69385
 21
8.11055
 31
-0.363775
210
-0.9999986544281252
220
0.0016404700359496
230
0.0
  0
LINE
  5
73E
330
70
100
AcDbEntity
  8
Hidden
100
AcDbLine
 10
4.405084
 20
8.128084
 30
-0.34409
 11
12.693632
 21
8.114487
 31
-0.34409
210
-0.9999986544281252
220
0.0016404700359496
230
0.0
  0
LINE
  5
73F
330
70
100
AcDbEntity
  8
Hidden
100
AcDbLine
 10
4.405062
 20
8.114698
 30
0.132964
 11
12.694359
 21
8.1011
 31
0.132964
210
-0.9999986544281252
220
0.0016404700359496
230
0.0
  0
LINE
  5
740
330
70
100
AcDbEntity
  8
Hidden
100
AcDbLine
 10
4.405049
 20
8.106824
 30
0.183469
 11
12.694767
 21
8.093225
 31
0.183469
210
-0.9999986544281252
220
0.0016404700359496
230
0.0
  0
LINE
  5
741
330
70
100
AcDbEntity
  8
Hidden
100
AcDbLine
 10
12.686645
 20
7.88064
 30
0.262209
 11
12.455719
 21
7.881019
 31
0.262209
210
-0.9999986544281252
220
0.0016404700359496
230
0.0
  0
LINE
  5
742
330
70
100
AcDbEntity
  8
Hidden
100
AcDbLine
 10
12.35366
 20
7.881186
 30
0.262209
 11
10.522737
 21
7.88419
 31
0.262209
210
-0.9999986544281252
220
0.0016404700359496
230
0.0
  0
LINE
  5
743
330
70
100
AcDbEntity
  8
Hidden
100
AcDbLine
 10
10.286648
 20
7.884577
 30
0.262209
 11
8.12274
 21
7.888127
 31
0.262209
210
-0.9999986544281252
220
0.0016404700359496
230
0.0
  0
LINE
  5
744
330
70
100
AcDbEntity
  8
Hidden
100
AcDbLine
 10
7.886651
 20
7.888514
 30
0.262209
 11
5.722743
 21
7.892064
 31
0.262209
210
-0.9999986544281252
220
0.0016404700359496
230
0.0
  0
LINE
  5
745
330
70
100
AcDbEntity
  8
Hidden
100
AcDbLine
 10
5.486654
 20
7.892451
 30
0.262209
 11
4.4047
 21
7.894226
 31
0.262209
210
-0.9999986544281252
220
0.0016404700359496
230
0.0
  0
ARC
  5
746
330
70
100
AcDbEntity
  8
Hidden
100
AcDbCircle
 10
12.804683
 20
7.876509
 30
0.30158
 40
0.1181102362204766
100
AcDbArc
 50
152.5448
 51
207.355339
  0
LINE
  5
747
330
70
100
AcDbEntity
  8
Hidden
100
AcDbLine
 10
4.404688
 20
7.886352
 30
0.262209
 11
5.486642
 21
7.884577
 31
0.262209
210
-0.9999986544281252
220
0.0016404700359496
230
0.0
  0
LINE
  5
748
330
70
100
AcDbEntity
  8
Hidden
100
AcDbLine
 10
5.72273
 20
7.88419
 30
0.262209
 11
7.886638
 21
7.88064
 31
0.262209
210
-0.9999986544281252
220
0.0016404700359496
230
0.0
  0
LINE
  5
749
330
70
100
AcDbEntity
  8
Hidden
100
AcDbLine
 10
8.122727
 20
7.880253
 30
0.262209
 11
10.286635
 21
7.876703
 31
0.262209
210
-0.9999986544281252
220
0.0016404700359496
230
0.0
  0
LINE
  5
74A
330
70
100
AcDbEntity
  8
Hidden
100
AcDbLine
 10
10.522724
 20
7.876316
 30
0.262209
 11
12.353647
 21
7.873312
 31
0.262209
210
-0.9999986544281252
220
0.0016404700359496
230
0.0
  0
LINE
  5
74B
330
70
100
AcDbEntity
  8
Hidden
100
AcDbLine
 10
12.455706
 20
7.873145
 30
0.262209
 11
12.686632
 21
7.872766
 31
0.262209
210
-0.9999986544281252
220
0.0016404700359496
230
0.0
  0
LINE
  5
74C
330
70
100
AcDbEntity
  8
Hidden
100
AcDbLine
 10
4.404339
 20
7.673754
 30
0.183469
 11
12.694399
 21
7.660154
 31
0.183469
210
-0.9999986544281252
220
0.0016404700359496
230
0.0
  0
CIRCLE
  5
74D
330
70
100
AcDbEntity
  8
Visible
100
AcDbCircle
 10
-12.404683
 20
7.877165
 30
-0.34095
 40
0.0511811023622052
210
0.0
220
0.0000000000000001
230
-1.0
  0
LINE
  5
74E
330
70
100
AcDbEntity
  8
Hidden
100
AcDbLine
 10
10.522796
 20
7.880253
 30
0.266147
 11
12.353502
 21
7.877249
 31
0.266147
210
-0.9999986544281252
220
0.0016404700359496
230
0.0
  0
LINE
  5
74F
330
70
100
AcDbEntity
  8
Visible
100
AcDbLine
 10
4.404473
 20
7.755769
 30
0.34095
 11
4.404915
 21
8.024809
 31
0.34095
210
-0.9999986544281252
220
0.0016404700359496
230
0.0
  0
CIRCLE
  5
750
330
70
100
AcDbEntity
  8
Visible
100
AcDbCircle
 10
5.604692
 20
7.888321
 30
0.34095
 40
0.0669291338582677
  0
CIRCLE
  5
751
330
70
100
AcDbEntity
  8
Visible
100
AcDbCircle
 10
10.404686
 20
7.880446
 30
0.34095
 40
0.0669291338582677
  0
CIRCLE
  5
752
330
70
100
AcDbEntity
  8
Visible
100
AcDbCircle
 10
8.004689
 20
7.884383
 30
0.34095
 40
0.0669291338582677
  0
ARC
  5
753
330
70
100
AcDbEntity
  8
Visible
100
AcDbCircle
 10
8.032024
 20
0.348824
 30
4.391744
 40
0.0078740157480316
210
0.9999986544281252
220
-0.0016404700359496
230
0.0
100
AcDbArc
 50
270.0
 51
315.0
  0
LINE
  5
754
330
70
100
AcDbEntity
  8
Visible
100
AcDbLine
 10
4.404924
 20
8.030377
 30
0.343256
 11
4.404941
 21
8.041053
 31
0.353932
210
-0.9999986544281252
220
0.0016404700359496
230
0.0
  0
ARC
  5
755
330
70
100
AcDbEntity
  8
Visible
100
AcDbCircle
 10
-8.053836
 20
0.348364
 30
-4.391744
 40
0.0078740157480315
210
-0.9999986544281252
220
0.0016404700359496
230
0.0
100
AcDbArc
 50
45.0
 51
105.0
  0
LINE
  5
756
330
70
100
AcDbEntity
  8
Visible
100
AcDbLine
 10
4.404954
 20
8.048658
 30
0.35597
 11
4.40496
 21
8.05261
 31
0.354911
210
-0.9999986544281252
220
0.0016404700359496
230
0.0
  0
ARC
  5
757
330
70
100
AcDbEntity
  8
Visible
100
AcDbCircle
 10
-8.057787
 20
0.347305
 30
-4.391744
 40
0.0078740157480315
210
-0.9999986544281252
220
0.0016404700359496
230
0.0
100
AcDbArc
 50
105.0
 51
176.490595
  0
ARC
  5
758
330
70
100
AcDbEntity
  8
Visible
100
AcDbCircle
 10
8.082544
 20
0.348824
 30
4.391744
 40
0.0169291338582708
210
0.9999986544281252
220
-0.0016404700359496
230
0.0
100
AcDbArc
 50
183.509405
 51
236.453049
  0
ARC
  5
759
330
70
100
AcDbEntity
  8
Visible
100
AcDbCircle
 10
-8.077125
 20
0.384257
 30
-4.391744
 40
0.0039370078740158
210
-0.9999986544281252
220
0.0016404700359496
230
0.0
100
AcDbArc
 50
0.0
 51
90.0
  0
LINE
  5
75A
330
70
100
AcDbEntity
  8
Visible
100
AcDbLine
 10
4.404989
 20
8.06991
 30
0.388194
 11
4.405053
 21
8.109054
 31
0.388194
210
-0.9999986544281252
220
0.0016404700359496
230
0.0
  0
ARC
  5
75B
330
70
100
AcDbEntity
  8
Visible
100
AcDbCircle
 10
-7.586481
 20
0.384257
 30
-4.391744
 40
0.0039370078740157
210
-0.9999986544281252
220
0.0016404700359496
230
0.0
100
AcDbArc
 50
0.0
 51
90.0
  0
LINE
  5
75C
330
70
100
AcDbEntity
  8
Visible
100
AcDbLine
 10
4.404184
 20
7.579266
 30
0.388194
 11
4.404261
 21
7.626064
 31
0.388194
210
-0.9999986544281252
220
0.0016404700359496
230
0.0
  0
ARC
  5
75D
330
70
100
AcDbEntity
  8
Visible
100
AcDbCircle
 10
-7.633279
 20
0.384257
 30
-4.391744
 40
0.0039370078740158
210
-0.9999986544281252
220
0.0016404700359496
230
0.0
100
AcDbArc
 50
90.0
 51
180.0
  0
LINE
  5
75E
330
70
100
AcDbEntity
  8
Visible
100
AcDbLine
 10
4.404267
 20
7.630001
 30
0.356698
 11
4.404298
 21
7.648794
 31
0.356698
210
-0.9999986544281252
220
0.0016404700359496
230
0.0
  0
ARC
  5
75F
330
70
100
AcDbEntity
  8
Visible
100
AcDbCircle
 10
7.656009
 20
0.360635
 30
4.391744
 40
0.0039370078740158
210
0.9999986544281252
220
-0.0016404700359496
230
0.0
100
AcDbArc
 50
270.0
 51
330.0
  0
LINE
  5
760
330
70
100
AcDbEntity
  8
Visible
100
AcDbLine
 10
4.404303
 20
7.652204
 30
0.358666
 11
4.40433
 21
7.668115
 31
0.386225
210
-0.9999986544281252
220
0.0016404700359496
230
0.0
  0
ARC
  5
761
330
70
100
AcDbEntity
  8
Visible
100
AcDbCircle
 10
-7.678739
 20
0.384257
 30
-4.391744
 40
0.0039370078740158
210
-0.9999986544281252
220
0.0016404700359496
230
0.0
100
AcDbArc
 50
30.0
 51
90.0
  0
LINE
  5
762
330
70
100
AcDbEntity
  8
Visible
100
AcDbLine
 10
4.404335
 20
7.671525
 30
0.388194
 11
4.404399
 21
7.710668
 31
0.388194
210
-0.9999986544281252
220
0.0016404700359496
230
0.0
  0
ARC
  5
763
330
70
100
AcDbEntity
  8
Visible
100
AcDbCircle
 10
-7.717883
 20
0.384257
 30
-4.391744
 40
0.0039370078740157
210
-0.9999986544281252
220
0.0016404700359496
230
0.0
100
AcDbArc
 50
90.0
 51
180.0
  0
ARC
  5
764
330
70
100
AcDbEntity
  8
Visible
100
AcDbCircle
 10
7.712465
 20
0.348824
 30
4.391744
 40
0.0169291338582708
210
0.9999986544281252
220
-0.0016404700359496
230
0.0
100
AcDbArc
 50
303.546951
 51
356.490595
  0
ARC
  5
765
330
70
100
AcDbEntity
  8
Visible
100
AcDbCircle
 10
-7.737222
 20
0.347305
 30
-4.391744
 40
0.0078740157480315
210
-0.9999986544281252
220
0.0016404700359496
230
0.0
100
AcDbArc
 50
3.509405
 51
75.0
  0
LINE
  5
766
330
70
100
AcDbEntity
  8
Visible
100
AcDbLine
 10
4.404428
 20
7.727969
 30
0.354911
 11
4.404434
 21
7.73192
 31
0.35597
210
-0.9999986544281252
220
0.0016404700359496
230
0.0
  0
ARC
  5
767
330
70
100
AcDbEntity
  8
Visible
100
AcDbCircle
 10
-7.741173
 20
0.348364
 30
-4.391744
 40
0.0078740157480315
210
-0.9999986544281252
220
0.0016404700359496
230
0.0
100
AcDbArc
 50
75.0
 51
135.0
  0
LINE
  5
768
330
70
100
AcDbEntity
  8
Visible
100
AcDbLine
 10
4.404447
 20
7.739525
 30
0.353932
 11
4.404464
 21
7.750201
 31
0.343256
210
-0.9999986544281252
220
0.0016404700359496
230
0.0
  0
ARC
  5
769
330
70
100
AcDbEntity
  8
Visible
100
AcDbCircle
 10
7.762984
 20
0.348824
 30
4.391744
 40
0.0078740157480315
210
0.9999986544281252
220
-0.0016404700359496
230
0.0
100
AcDbArc
 50
225.0
 51
270.0
  0
LINE
  5
76A
330
70
100
AcDbEntity
  8
Hidden
100
AcDbLine
 10
4.404694
 20
7.890289
 30
0.266147
 11
5.486582
 21
7.888514
 31
0.266147
210
-0.9999986544281252
220
0.0016404700359496
230
0.0
  0
LINE
  5
76B
330
70
100
AcDbEntity
  8
Hidden
100
AcDbLine
 10
12.455864
 20
7.877081
 30
0.266147
 11
12.686573
 21
7.876703
 31
0.266147
210
-0.9999986544281252
220
0.0016404700359496
230
0.0
  0
CIRCLE
  5
76C
330
70
100
AcDbEntity
  8
Hidden
100
AcDbCircle
 10
5.604692
 20
7.888321
 30
0.30158
 40
0.1181102362204724
  0
CIRCLE
  5
76D
330
70
100
AcDbEntity
  8
Hidden
100
AcDbCircle
 10
8.004689
 20
7.884383
 30
0.30158
 40
0.1181102362204724
  0
LINE
  5
76E
330
70
100
AcDbEntity
  8
Hidden
100
AcDbLine
 10
5.722803
 20
7.888127
 30
0.266147
 11
7.886579
 21
7.884577
 31
0.266147
210
-0.9999986544281252
220
0.0016404700359496
230
0.0
  0
LINE
  5
76F
330
70
100
AcDbEntity
  8
Hidden
100
AcDbLine
 10
8.122799
 20
7.88419
 30
0.266147
 11
10.286576
 21
7.88064
 31
0.266147
210
-0.9999986544281252
220
0.0016404700359496
230
0.0
  0
CIRCLE
  5
770
330
70
100
AcDbEntity
  8
Hidden
100
AcDbCircle
 10
10.404686
 20
7.880446
 30
0.30158
 40
0.1181102362204724
  0
LINE
  5
771
330
70
100
AcDbEntity
  8
Hidden
100
AcDbLine
 10
4.404304
 20
7.652494
 30
-0.34409
 11
12.693227
 21
7.638896
 31
-0.34409
210
-0.9999986544281252
220
0.0016404700359496
230
0.0
  0
LINE
  5
772
330
70
100
AcDbEntity
  8
Hidden
100
AcDbLine
 10
4.40431
 20
7.656431
 30
-0.363775
 11
12.693452
 21
7.642833
 31
-0.363775
210
-0.9999986544281252
220
0.0016404700359496
230
0.0
  0
LINE
  5
773
330
70
100
AcDbEntity
  8
Hidden
100
AcDbLine
 10
4.404317
 20
7.660368
 30
-0.366137
 11
12.693674
 21
7.64677
 31
-0.366137
210
-0.9999986544281252
220
0.0016404700359496
230
0.0
  0
LINE
  5
774
330
70
100
AcDbEntity
  8
Hidden
100
AcDbLine
 10
4.404201
 20
7.589502
 30
-0.382672
 11
12.689118
 21
7.575911
 31
-0.382672
210
-0.9999986544281252
220
0.0016404700359496
230
0.0
  0
LINE
  5
775
330
70
100
AcDbEntity
  8
Hidden
100
AcDbLine
 10
4.404214
 20
7.597376
 30
-0.374798
 11
12.689683
 21
7.583784
 31
-0.374798
210
-0.9999986544281252
220
0.0016404700359496
230
0.0
  0
LINE
  5
776
330
70
100
AcDbEntity
  8
Visible
100
AcDbLine
 10
4.404177
 20
7.575329
 30
0.384257
 11
12.688062
 21
7.561739
 31
0.384257
210
-0.9999986544281252
220
0.0016404700359496
230
0.0
  0
LINE
  5
777
330
70
100
AcDbEntity
  8
Hidden
100
AcDbLine
 10
4.405141
 20
8.162997
 30
0.360635
 11
12.691531
 21
8.149404
 31
0.360635
210
-0.9999986544281252
220
0.0016404700359496
230
0.0
  0
LINE
  5
778
330
70
100
AcDbEntity
  8
Visible
100
AcDbLine
 10
4.405121
 20
8.150577
 30
0.384257
 11
12.692312
 21
8.136982
 31
0.384257
210
-0.9999986544281252
220
0.0016404700359496
230
0.0
  0
LINE
  5
779
330
70
100
AcDbEntity
  8
Hidden
100
AcDbLine
 10
4.405096
 20
8.135306
 30
-0.351964
 11
12.693221
 21
8.121709
 31
-0.351964
210
-0.9999986544281252
220
0.0016404700359496
230
0.0
  0
LINE
  5
77A
330
70
100
AcDbEntity
  8
Hidden
100
AcDbLine
 10
4.405135
 20
8.159186
 30
-0.30472
 11
12.691774
 21
8.145592
 31
-0.30472
210
-0.9999986544281252
220
0.0016404700359496
230
0.0
  0
LINE
  5
77B
330
70
100
AcDbEntity
  8
Hidden
100
AcDbLine
 10
4.405082
 20
8.126509
 30
-0.092121
 11
12.693719
 21
8.112912
 31
-0.092121
210
-0.9999986544281252
220
0.0016404700359496
230
0.0
  0
LINE
  5
77C
330
70
100
AcDbEntity
  8
Hidden
100
AcDbLine
 10
4.405064
 20
8.115698
 30
0.061037
 11
12.694307
 21
8.1021
 31
0.061037
210
-0.9999986544281252
220
0.0016404700359496
230
0.0
  0
LINE
  5
77D
330
70
100
AcDbEntity
  8
Hidden
100
AcDbLine
 10
4.404297
 20
7.648557
 30
-0.092121
 11
12.692998
 21
7.63496
 31
-0.092121
210
-0.9999986544281252
220
0.0016404700359496
230
0.0
  0
LINE
  5
77E
330
70
100
AcDbEntity
  8
Visible
100
AcDbLine
 10
4.404982
 20
8.065973
 30
0.384257
 11
12.696646
 21
8.052371
 31
0.384257
210
-0.9999986544281252
220
0.0016404700359496
230
0.0
  0
LINE
  5
77F
330
70
100
AcDbEntity
  8
Hidden
100
AcDbLine
 10
4.404363
 20
7.688321
 30
0.348824
 11
12.695139
 21
7.67472
 31
0.348824
210
-0.9999986544281252
220
0.0016404700359496
230
0.0
  0
LINE
  5
780
330
70
100
AcDbEntity
  8
Hidden
100
AcDbLine
 10
4.404247
 20
7.617581
 30
0.360635
 11
12.691067
 21
7.603987
 31
0.360635
210
-0.9999986544281252
220
0.0016404700359496
230
0.0
  0
LINE
  5
781
330
70
100
AcDbEntity
  8
Hidden
100
AcDbLine
 10
4.404292
 20
7.645272
 30
-0.351964
 11
12.692804
 21
7.631675
 31
-0.351964
210
-0.9999986544281252
220
0.0016404700359496
230
0.0
  0
LINE
  5
782
330
70
100
AcDbEntity
  8
Hidden
100
AcDbLine
 10
4.404253
 20
7.621392
 30
-0.30472
 11
12.691317
 21
7.607797
 31
-0.30472
210
-0.9999986544281252
220
0.0016404700359496
230
0.0
  0
LINE
  5
783
330
70
100
AcDbEntity
  8
Visible
100
AcDbLine
 10
4.404267
 20
7.630001
 30
0.384257
 11
12.691869
 21
7.616405
 31
0.384257
210
-0.9999986544281252
220
0.0016404700359496
230
0.0
  0
LINE
  5
784
330
70
100
AcDbEntity
  8
Visible
100
AcDbLine
 10
4.404406
 20
7.714605
 30
0.384257
 11
12.696347
 21
7.701003
 31
0.384257
210
-0.9999986544281252
220
0.0016404700359496
230
0.0
  0
LINE
  5
785
330
70
100
AcDbEntity
  8
Hidden
100
AcDbLine
 10
4.405025
 20
8.092257
 30
0.348824
 11
12.695483
 21
8.078657
 31
0.348824
210
-0.9999986544281252
220
0.0016404700359496
230
0.0
  0
LINE
  5
786
330
70
100
AcDbEntity
  8
Hidden
100
AcDbLine
 10
8.834646
 20
1.77052
 30
114.0
 11
8.834646
 21
1.967371
 31
114.0
  0
LINE
  5
787
330
70
100
AcDbEntity
  8
Hidden
100
AcDbLine
 10
8.165354
 20
1.77052
 30
114.0
 11
8.165354
 21
1.967371
 31
114.0
  0
LINE
  5
788
330
70
100
AcDbEntity
  8
Hidden
100
AcDbLine
 10
7.909449
 20
2.164221
 30
114.0
 11
7.909449
 21
1.967371
 31
114.0
  0
ARC
  5
789
330
70
100
AcDbEntity
  8
Hidden
100
AcDbCircle
 10
8.5
 20
114.0
 30
-1.967371
 40
0.5905511811023622
210
0.0
220
-1.0
230
0.0
100
AcDbArc
 50
0.0
 51
180.0
  0
ARC
  5
78A
330
70
100
AcDbEntity
  8
Visible
100
AcDbCircle
 10
-7.827399
 20
1.73115
 30
-120.0
 40
0.0393700787401573
210
0.0
220
0.0
230
-1.0
100
AcDbArc
 50
45.0
 51
90.0
  0
LINE
  5
78B
330
70
100
AcDbEntity
  8
Hidden
100
AcDbLine
 10
9.090551
 20
2.164221
 30
114.0
 11
9.090551
 21
1.967371
 31
114.0
  0
LINE
  5
78C
330
70
100
AcDbEntity
  8
Hidden
100
AcDbLine
 10
8.755906
 20
1.77052
 30
80.0
 11
8.755906
 21
2.164221
 31
80.0
  0
LINE
  5
78D
330
70
100
AcDbEntity
  8
Hidden
100
AcDbLine
 10
8.244094
 20
1.77052
 30
80.0
 11
8.244094
 21
2.164221
 31
80.0
  0
ARC
  5
78E
330
70
100
AcDbEntity
  8
Visible
100
AcDbCircle
 10
7.718342
 20
1.733448
 30
120.0
 40
0.0393700787401576
100
AcDbArc
 50
255.0
 51
315.0
  0
LINE
  5
78F
330
70
100
AcDbEntity
  8
Visible
100
AcDbLine
 10
7.746181
 20
1.705609
 30
120.0
 11
7.79956
 21
1.758989
 31
120.0
  0
ARC
  5
790
330
70
100
AcDbEntity
  8
Visible
100
AcDbCircle
 10
7.698586
 20
1.738742
 30
120.0
 40
0.0393700787401574
100
AcDbArc
 50
183.509405
 51
255.0
  0
LINE
  5
791
330
70
100
AcDbEntity
  8
Visible
100
AcDbLine
 10
7.688397
 20
1.700713
 30
120.0
 11
7.708152
 21
1.69542
 31
120.0
  0
ARC
  5
792
330
70
100
AcDbEntity
  8
Visible
100
AcDbCircle
 10
-7.574803
 20
1.73115
 30
-120.0
 40
0.0846456692913542
210
0.0
220
0.0
230
-1.0
100
AcDbArc
 50
273.509405
 51
176.490595
  0
ARC
  5
793
330
70
100
AcDbEntity
  8
Visible
100
AcDbCircle
 10
7.567212
 20
1.607367
 30
120.0
 40
0.0393700787401575
100
AcDbArc
 50
15.0
 51
86.490595
  0
ARC
  5
794
330
70
100
AcDbEntity
  8
Visible
100
AcDbCircle
 10
7.601895
 20
1.553985
 30
120.0
 40
0.0196850393700788
100
AcDbArc
 50
270.0
 51
15.0
  0
LINE
  5
795
330
70
100
AcDbEntity
  8
Visible
100
AcDbLine
 10
7.620909
 20
1.55908
 30
120.0
 11
7.605241
 21
1.617557
 31
120.0
  0
ARC
  5
796
330
70
100
AcDbEntity
  8
Visible
100
AcDbCircle
 10
7.406176
 20
1.553985
 30
120.0
 40
0.0196850393700788
100
AcDbArc
 50
210.0
 51
270.0
  0
LINE
  5
797
330
70
100
AcDbEntity
  8
Visible
100
AcDbLine
 10
7.406176
 20
1.5343
 30
120.0
 11
7.601895
 21
1.5343
 31
120.0
  0
ARC
  5
798
330
70
100
AcDbEntity
  8
Visible
100
AcDbCircle
 10
-7.292525
 20
1.672095
 30
-120.0
 40
0.0196850393700788
210
0.0
220
0.0
230
-1.0
100
AcDbArc
 50
90.0
 51
150.0
  0
LINE
  5
799
330
70
100
AcDbEntity
  8
Visible
100
AcDbLine
 10
7.309572
 20
1.681938
 30
120.0
 11
7.389129
 21
1.544142
 31
120.0
  0
ARC
  5
79A
330
70
100
AcDbEntity
  8
Visible
100
AcDbCircle
 10
-7.156143
 20
1.672095
 30
-120.0
 40
0.0196850393700789
210
0.0
220
0.0
230
-1.0
100
AcDbArc
 50
330.0
 51
90.0
  0
LINE
  5
79B
330
70
100
AcDbEntity
  8
Visible
100
AcDbLine
 10
7.156143
 20
1.69178
 30
120.0
 11
7.292525
 21
1.69178
 31
120.0
  0
ARC
  5
79C
330
70
100
AcDbEntity
  8
Visible
100
AcDbCircle
 10
7.178873
 20
1.553985
 30
120.0
 40
0.0196850393700787
100
AcDbArc
 50
270.0
 51
30.0
  0
LINE
  5
79D
330
70
100
AcDbEntity
  8
Visible
100
AcDbLine
 10
7.195921
 20
1.563827
 30
120.0
 11
7.139095
 21
1.662253
 31
120.0
  0
ARC
  5
79E
330
70
100
AcDbEntity
  8
Visible
100
AcDbCircle
 10
6.944882
 20
1.553985
 30
120.0
 40
0.0196850393700787
100
AcDbArc
 50
180.0
 51
270.0
  0
LINE
  5
79F
330
70
100
AcDbEntity
  8
Visible
100
AcDbLine
 10
6.944882
 20
1.5343
 30
120.0
 11
7.178873
 21
1.5343
 31
120.0
  0
ARC
  5
7A0
330
70
100
AcDbEntity
  8
Visible
100
AcDbCircle
 10
6.944882
 20
5.30989
 30
120.0
 40
0.0196850393700797
100
AcDbArc
 50
90.0
 51
180.0
  0
LINE
  5
7A1
330
70
100
AcDbEntity
  8
Visible
100
AcDbLine
 10
6.925197
 20
5.30989
 30
120.0
 11
6.925197
 21
1.553985
 31
120.0
  0
ARC
  5
7A2
330
70
100
AcDbEntity
  8
Visible
100
AcDbCircle
 10
-7.015748
 20
5.349261
 30
-120.0
 40
0.0196850393700796
210
0.0
220
0.0
230
-1.0
100
AcDbArc
 50
180.0
 51
270.0
  0
LINE
  5
7A3
330
70
100
AcDbEntity
  8
Visible
100
AcDbLine
 10
7.015748
 20
5.329575
 30
120.0
 11
6.944882
 21
5.329575
 31
120.0
  0
ARC
  5
7A4
330
70
100
AcDbEntity
  8
Visible
100
AcDbCircle
 10
-7.015748
 20
5.357135
 30
-120.0
 40
0.0196850393700797
210
0.0
220
0.0
230
-1.0
100
AcDbArc
 50
90.0
 51
180.0
  0
LINE
  5
7A5
330
70
100
AcDbEntity
  8
Visible
100
AcDbLine
 10
7.035433
 20
5.357135
 30
120.0
 11
7.035433
 21
5.349261
 31
120.0
  0
ARC
  5
7A6
330
70
100
AcDbEntity
  8
Visible
100
AcDbCircle
 10
7.007874
 20
5.388631
 30
120.0
 40
0.0118110236220465
100
AcDbArc
 50
180.0
 51
270.0
  0
LINE
  5
7A7
330
70
100
AcDbEntity
  8
Visible
100
AcDbLine
 10
7.007874
 20
5.37682
 30
120.0
 11
7.015748
 21
5.37682
 31
120.0
  0
ARC
  5
7A8
330
70
100
AcDbEntity
  8
Visible
100
AcDbCircle
 10
7.015748
 20
5.396505
 30
120.0
 40
0.019685039370079
100
AcDbArc
 50
90.0
 51
180.0
  0
LINE
  5
7A9
330
70
100
AcDbEntity
  8
Visible
100
AcDbLine
 10
6.996063
 20
5.396505
 30
120.0
 11
6.996063
 21
5.388631
 31
120.0
  0
ARC
  5
7AA
330
70
100
AcDbEntity
  8
Visible
100
AcDbCircle
 10
7.052592
 20
5.219339
 30
120.0
 40
0.1968503937007923
100
AcDbArc
 50
77.124996
 51
90.0
  0
LINE
  5
7AB
330
70
100
AcDbEntity
  8
Visible
100
AcDbLine
 10
7.052592
 20
5.41619
 30
120.0
 11
7.015748
 21
5.41619
 31
120.0
  0
ARC
  5
7AC
330
70
100
AcDbEntity
  8
Visible
100
AcDbCircle
 10
7.330709
 20
5.337504
 30
120.0
 40
0.019685039370078
100
AcDbArc
 50
0.0
 51
77.124996
  0
LINE
  5
7AD
330
70
100
AcDbEntity
  8
Visible
100
AcDbLine
 10
7.335095
 20
5.356694
 30
120.0
 11
7.096456
 21
5.411241
 31
120.0
  0
ARC
  5
7AE
330
70
100
AcDbEntity
  8
Visible
100
AcDbCircle
 10
7.338583
 20
5.305953
 30
120.0
 40
0.0118110236220477
100
AcDbArc
 50
270.0
 51
0.0
  0
LINE
  5
7AF
330
70
100
AcDbEntity
  8
Visible
100
AcDbLine
 10
7.350394
 20
5.305953
 30
120.0
 11
7.350394
 21
5.337504
 31
120.0
  0
ARC
  5
7B0
330
70
100
AcDbEntity
  8
Visible
100
AcDbCircle
 10
-7.282789
 20
5.235087
 30
-120.0
 40
0.0078740157480308
210
0.0
220
0.0
230
-1.0
100
AcDbArc
 50
315.0
 51
45.0
  0
LINE
  5
7B1
330
70
100
AcDbEntity
  8
Visible
100
AcDbLine
 10
7.330709
 20
5.294142
 30
120.0
 11
7.338583
 21
5.294142
 31
120.0
  0
LINE
  5
7B2
330
70
100
AcDbEntity
  8
Visible
100
AcDbLine
 10
7.277221
 20
5.240655
 30
120.0
 11
7.330709
 21
5.294142
 31
120.0
  0
ARC
  5
7B3
330
70
100
AcDbEntity
  8
Visible
100
AcDbCircle
 10
7.405512
 20
5.183906
 30
120.0
 40
0.0118110236220468
100
AcDbArc
 50
0.0
 51
90.0
  0
LINE
  5
7B4
330
70
100
AcDbEntity
  8
Visible
100
AcDbLine
 10
7.311024
 20
5.195717
 30
120.0
 11
7.277221
 21
5.22952
 31
120.0
  0
LINE
  5
7B5
330
70
100
AcDbEntity
  8
Visible
100
AcDbLine
 10
7.405512
 20
5.195717
 30
120.0
 11
7.311024
 21
5.195717
 31
120.0
  0
ARC
  5
7B6
330
70
100
AcDbEntity
  8
Visible
100
AcDbCircle
 10
7.397638
 20
5.112518
 30
120.0
 40
0.0196850393700788
100
AcDbArc
 50
300.0
 51
0.0
  0
LINE
  5
7B7
330
70
100
AcDbEntity
  8
Visible
100
AcDbLine
 10
7.417323
 20
5.112518
 30
120.0
 11
7.417323
 21
5.183906
 31
120.0
  0
ARC
  5
7B8
330
70
100
AcDbEntity
  8
Visible
100
AcDbCircle
 10
7.319045
 20
5.067143
 30
120.0
 40
0.0196850393700787
100
AcDbArc
 50
220.875716
 51
300.0
  0
LINE
  5
7B9
330
70
100
AcDbEntity
  8
Visible
100
AcDbLine
 10
7.328888
 20
5.050095
 30
120.0
 11
7.40748
 21
5.095471
 31
120.0
  0
ARC
  5
7BA
330
70
100
AcDbEntity
  8
Visible
100
AcDbCircle
 10
-7.240157
 20
4.998867
 30
-120.0
 40
0.0846456692913386
210
0.0
220
0.0
230
-1.0
100
AcDbArc
 50
220.875716
 51
139.124284
  0
ARC
  5
7BB
330
70
100
AcDbEntity
  8
Visible
100
AcDbCircle
 10
7.319045
 20
4.930591
 30
120.0
 40
0.0196850393700787
100
AcDbArc
 50
60.0
 51
139.124284
  0
ARC
  5
7BC
330
70
100
AcDbEntity
  8
Visible
100
AcDbCircle
 10
7.397638
 20
4.885215
 30
120.0
 40
0.019685039370079
100
AcDbArc
 50
0.0
 51
60.0
  0
LINE
  5
7BD
330
70
100
AcDbEntity
  8
Visible
100
AcDbLine
 10
7.40748
 20
4.902263
 30
120.0
 11
7.328888
 21
4.947638
 31
120.0
  0
ARC
  5
7BE
330
70
100
AcDbEntity
  8
Visible
100
AcDbCircle
 10
7.220472
 20
4.733789
 30
120.0
 40
0.1968503937007857
100
AcDbArc
 50
342.055049
 51
0.0
  0
LINE
  5
7BF
330
70
100
AcDbEntity
  8
Visible
100
AcDbLine
 10
7.417323
 20
4.733789
 30
120.0
 11
7.417323
 21
4.885215
 31
120.0
  0
ARC
  5
7C0
330
70
100
AcDbEntity
  8
Visible
100
AcDbCircle
 10
-9.684252
 20
3.935875
 30
-120.0
 40
2.392913385826771
210
0.0
220
0.0
230
-1.0
100
AcDbArc
 50
342.055049
 51
17.944951
  0
ARC
  5
7C1
330
70
100
AcDbEntity
  8
Visible
100
AcDbCircle
 10
7.220472
 20
3.137961
 30
120.0
 40
0.196850393700787
100
AcDbArc
 50
0.0
 51
17.944951
  0
ARC
  5
7C2
330
70
100
AcDbEntity
  8
Visible
100
AcDbCircle
 10
-7.811024
 20
2.557922
 30
-120.0
 40
0.3937007874015749
210
0.0
220
0.0
230
-1.0
100
AcDbArc
 50
270.0
 51
0.0
  0
ARC
  5
7C3
330
70
100
AcDbEntity
  8
Visible
100
AcDbCircle
 10
-9.188976
 20
2.557922
 30
-120.0
 40
0.3937007874015752
210
0.0
220
0.0
230
-1.0
100
AcDbArc
 50
180.000014
 51
270.0
  0
LINE
  5
7C4
330
70
100
AcDbEntity
  8
Visible
100
AcDbLine
 10
7.417323
 20
2.557922
 30
120.0
 11
7.417323
 21
3.137961
 31
120.0
  0
ARC
  5
7C5
330
70
100
AcDbEntity
  8
Visible
100
AcDbCircle
 10
9.622047
 20
2.738465
 30
120.0
 40
0.0393700787401583
100
AcDbArc
 50
135.0
 51
180.0
  0
LINE
  5
7C6
330
70
100
AcDbEntity
  8
Visible
100
AcDbLine
 10
8.5
 20
2.144536
 30
120.0
 11
8.480315
 21
2.164221
 31
120.0
  0
ARC
  5
7C7
330
70
100
AcDbEntity
  8
Visible
100
AcDbCircle
 10
-9.582677
 20
2.81045
 30
-120.0
 40
0.0393700787401575
210
0.0
220
0.0
230
-1.0
100
AcDbArc
 50
180.0
 51
225.0
  0
LINE
  5
7C8
330
70
100
AcDbEntity
  8
Visible
100
AcDbLine
 10
8.519685
 20
2.164221
 30
120.0
 11
8.5
 21
2.144536
 31
120.0
  0
LINE
  5
7C9
330
70
100
AcDbEntity
  8
Visible
100
AcDbLine
 10
9.582677
 20
2.738465
 30
120.0
 11
9.582677
 21
2.557922
 31
120.0
  0
ARC
  5
7CA
330
70
100
AcDbEntity
  8
Visible
100
AcDbCircle
 10
9.818898
 20
3.654716
 30
120.0
 40
0.1968503937007849
100
AcDbArc
 50
156.275861
 51
180.0
  0
LINE
  5
7CB
330
70
100
AcDbEntity
  8
Visible
100
AcDbLine
 10
9.610516
 20
2.782611
 30
120.0
 11
9.594208
 21
2.766304
 31
120.0
  0
ARC
  5
7CC
330
70
100
AcDbEntity
  8
Visible
100
AcDbCircle
 10
-9.179133
 20
3.935875
 30
-120.0
 40
0.5019691728049362
210
0.0
220
0.0
230
-1.0
100
AcDbArc
 50
156.275861
 51
203.724139
  0
ARC
  5
7CD
330
70
100
AcDbEntity
  8
Visible
100
AcDbCircle
 10
9.818898
 20
4.217033
 30
120.0
 40
0.1968503937007832
100
AcDbArc
 50
180.0
 51
203.724139
  0
ARC
  5
7CE
330
70
100
AcDbEntity
  8
Visible
100
AcDbCircle
 10
9.641732
 20
4.907946
 30
120.0
 40
0.0196850393700762
100
AcDbArc
 50
120.0
 51
180.0
  0
LINE
  5
7CF
330
70
100
AcDbEntity
  8
Visible
100
AcDbLine
 10
9.622047
 20
4.907946
 30
120.0
 11
9.622047
 21
4.217033
 31
120.0
  0
ARC
  5
7D0
330
70
100
AcDbEntity
  8
Visible
100
AcDbCircle
 10
9.680955
 20
4.930591
 30
120.0
 40
0.0196850393700787
100
AcDbArc
 50
40.875716
 51
120.0
  0
LINE
  5
7D1
330
70
100
AcDbEntity
  8
Visible
100
AcDbLine
 10
9.671112
 20
4.947638
 30
120.0
 11
9.63189
 21
4.924993
 31
120.0
  0
ARC
  5
7D2
330
70
100
AcDbEntity
  8
Visible
100
AcDbCircle
 10
-9.759843
 20
4.998867
 30
-120.0
 40
0.0846456692913386
210
0.0
220
0.0
230
-1.0
100
AcDbArc
 50
40.875716
 51
319.124284
  0
ARC
  5
7D3
330
70
100
AcDbEntity
  8
Visible
100
AcDbCircle
 10
9.680955
 20
5.067143
 30
120.0
 40
0.0196850393700786
100
AcDbArc
 50
240.0
 51
319.124284
  0
ARC
  5
7D4
330
70
100
AcDbEntity
  8
Visible
100
AcDbCircle
 10
9.602362
 20
5.112518
 30
120.0
 40
0.0196850393700797
100
AcDbArc
 50
180.0
 51
240.0
  0
LINE
  5
7D5
330
70
100
AcDbEntity
  8
Visible
100
AcDbLine
 10
9.59252
 20
5.095471
 30
120.0
 11
9.671112
 21
5.050095
 31
120.0
  0
ARC
  5
7D6
330
70
100
AcDbEntity
  8
Visible
100
AcDbCircle
 10
9.594488
 20
5.183906
 30
120.0
 40
0.0118110236220463
100
AcDbArc
 50
90.0
 51
180.0
  0
LINE
  5
7D7
330
70
100
AcDbEntity
  8
Visible
100
AcDbLine
 10
9.582677
 20
5.183906
 30
120.0
 11
9.582677
 21
5.112518
 31
120.0
  0
ARC
  5
7D8
330
70
100
AcDbEntity
  8
Visible
100
AcDbCircle
 10
-9.717211
 20
5.235087
 30
-120.0
 40
0.0078740157480307
210
0.0
220
0.0
230
-1.0
100
AcDbArc
 50
135.0
 51
225.0
  0
LINE
  5
7D9
330
70
100
AcDbEntity
  8
Visible
100
AcDbLine
 10
9.688976
 20
5.195717
 30
120.0
 11
9.594488
 21
5.195717
 31
120.0
  0
LINE
  5
7DA
330
70
100
AcDbEntity
  8
Visible
100
AcDbLine
 10
9.722779
 20
5.22952
 30
120.0
 11
9.688976
 21
5.195717
 31
120.0
  0
ARC
  5
7DB
330
70
100
AcDbEntity
  8
Visible
100
AcDbCircle
 10
9.661417
 20
5.305953
 30
120.0
 40
0.0118110236220465
100
AcDbArc
 50
180.0
 51
270.0
  0
LINE
  5
7DC
330
70
100
AcDbEntity
  8
Visible
100
AcDbLine
 10
9.669291
 20
5.294142
 30
120.0
 11
9.722779
 21
5.240655
 31
120.0
  0
LINE
  5
7DD
330
70
100
AcDbEntity
  8
Visible
100
AcDbLine
 10
9.661417
 20
5.294142
 30
120.0
 11
9.669291
 21
5.294142
 31
120.0
  0
ARC
  5
7DE
330
70
100
AcDbEntity
  8
Visible
100
AcDbCircle
 10
9.669291
 20
5.337504
 30
120.0
 40
0.0196850393700778
100
AcDbArc
 50
102.875004
 51
180.0
  0
LINE
  5
7DF
330
70
100
AcDbEntity
  8
Visible
100
AcDbLine
 10
9.649606
 20
5.337504
 30
120.0
 11
9.649606
 21
5.305953
 31
120.0
  0
ARC
  5
7E0
330
70
100
AcDbEntity
  8
Visible
100
AcDbCircle
 10
9.947408
 20
5.219339
 30
120.0
 40
0.1968503937007839
100
AcDbArc
 50
90.0
 51
102.875004
  0
LINE
  5
7E1
330
70
100
AcDbEntity
  8
Visible
100
AcDbLine
 10
9.903544
 20
5.411241
 30
120.0
 11
9.664905
 21
5.356694
 31
120.0
  0
ARC
  5
7E2
330
70
100
AcDbEntity
  8
Visible
100
AcDbCircle
 10
9.984252
 20
5.396505
 30
120.0
 40
0.0196850393700787
100
AcDbArc
 50
0.0
 51
90.0
  0
LINE
  5
7E3
330
70
100
AcDbEntity
  8
Visible
100
AcDbLine
 10
9.984252
 20
5.41619
 30
120.0
 11
9.947408
 21
5.41619
 31
120.0
  0
ARC
  5
7E4
330
70
100
AcDbEntity
  8
Visible
100
AcDbCircle
 10
9.992126
 20
5.388631
 30
120.0
 40
0.011811023622047
100
AcDbArc
 50
270.0
 51
0.0
  0
LINE
  5
7E5
330
70
100
AcDbEntity
  8
Visible
100
AcDbLine
 10
10.003937
 20
5.388631
 30
120.0
 11
10.003937
 21
5.396505
 31
120.0
  0
ARC
  5
7E6
330
70
100
AcDbEntity
  8
Visible
100
AcDbCircle
 10
-9.984252
 20
5.357135
 30
-120.0
 40
0.0196850393700797
210
0.0
220
0.0
230
-1.0
100
AcDbArc
 50
0.0
 51
90.0
  0
LINE
  5
7E7
330
70
100
AcDbEntity
  8
Visible
100
AcDbLine
 10
9.984252
 20
5.37682
 30
120.0
 11
9.992126
 21
5.37682
 31
120.0
  0
ARC
  5
7E8
330
70
100
AcDbEntity
  8
Visible
100
AcDbCircle
 10
-9.984252
 20
5.349261
 30
-120.0
 40
0.0196850393700797
210
0.0
220
0.0
230
-1.0
100
AcDbArc
 50
270.0
 51
0.0
  0
LINE
  5
7E9
330
70
100
AcDbEntity
  8
Visible
100
AcDbLine
 10
9.964567
 20
5.349261
 30
120.0
 11
9.964567
 21
5.357135
 31
120.0
  0
ARC
  5
7EA
330
70
100
AcDbEntity
  8
Visible
100
AcDbCircle
 10
10.055118
 20
5.30989
 30
120.0
 40
0.0196850393700794
100
AcDbArc
 50
0.0
 51
90.0
  0
LINE
  5
7EB
330
70
100
AcDbEntity
  8
Visible
100
AcDbLine
 10
10.055118
 20
5.329575
 30
120.0
 11
9.984252
 21
5.329575
 31
120.0
  0
ARC
  5
7EC
330
70
100
AcDbEntity
  8
Visible
100
AcDbCircle
 10
10.055118
 20
1.553985
 30
120.0
 40
0.0196850393700789
100
AcDbArc
 50
270.0
 51
0.0
  0
LINE
  5
7ED
330
70
100
AcDbEntity
  8
Visible
100
AcDbLine
 10
10.074803
 20
1.553985
 30
120.0
 11
10.074803
 21
5.30989
 31
120.0
  0
ARC
  5
7EE
330
70
100
AcDbEntity
  8
Visible
100
AcDbCircle
 10
9.821127
 20
1.553985
 30
120.0
 40
0.0196850393700786
100
AcDbArc
 50
150.0
 51
270.0
  0
LINE
  5
7EF
330
70
100
AcDbEntity
  8
Visible
100
AcDbLine
 10
9.821127
 20
1.5343
 30
120.0
 11
10.055118
 21
1.5343
 31
120.0
  0
ARC
  5
7F0
330
70
100
AcDbEntity
  8
Visible
100
AcDbCircle
 10
-9.843857
 20
1.672095
 30
-120.0
 40
0.0196850393700788
210
0.0
220
0.0
230
-1.0
100
AcDbArc
 50
90.0
 51
210.0
  0
LINE
  5
7F1
330
70
100
AcDbEntity
  8
Visible
100
AcDbLine
 10
9.860905
 20
1.662253
 30
120.0
 11
9.804079
 21
1.563827
 31
120.0
  0
ARC
  5
7F2
330
70
100
AcDbEntity
  8
Visible
100
AcDbCircle
 10
-9.707475
 20
1.672095
 30
-120.0
 40
0.0196850393700784
210
0.0
220
0.0
230
-1.0
100
AcDbArc
 50
30.0
 51
90.0
  0
LINE
  5
7F3
330
70
100
AcDbEntity
  8
Visible
100
AcDbLine
 10
9.707475
 20
1.69178
 30
120.0
 11
9.843857
 21
1.69178
 31
120.0
  0
ARC
  5
7F4
330
70
100
AcDbEntity
  8
Visible
100
AcDbCircle
 10
9.593824
 20
1.553985
 30
120.0
 40
0.0196850393700787
100
AcDbArc
 50
270.0
 51
330.0
  0
LINE
  5
7F5
330
70
100
AcDbEntity
  8
Visible
100
AcDbLine
 10
9.610871
 20
1.544142
 30
120.0
 11
9.690428
 21
1.681938
 31
120.0
  0
ARC
  5
7F6
330
70
100
AcDbEntity
  8
Visible
100
AcDbCircle
 10
9.398105
 20
1.553985
 30
120.0
 40
0.0196850393700788
100
AcDbArc
 50
165.0
 51
270.0
  0
LINE
  5
7F7
330
70
100
AcDbEntity
  8
Visible
100
AcDbLine
 10
9.398105
 20
1.5343
 30
120.0
 11
9.593824
 21
1.5343
 31
120.0
  0
ARC
  5
7F8
330
70
100
AcDbEntity
  8
Visible
100
AcDbCircle
 10
9.432788
 20
1.607367
 30
120.0
 40
0.0393700787401575
100
AcDbArc
 50
93.509405
 51
165.0
  0
LINE
  5
7F9
330
70
100
AcDbEntity
  8
Visible
100
AcDbLine
 10
9.394759
 20
1.617557
 30
120.0
 11
9.379091
 21
1.55908
 31
120.0
  0
ARC
  5
7FA
330
70
100
AcDbEntity
  8
Visible
100
AcDbCircle
 10
-9.425197
 20
1.73115
 30
-120.0
 40
0.0846456692913544
210
0.0
220
0.0
230
-1.0
100
AcDbArc
 50
3.509405
 51
266.490595
  0
ARC
  5
7FB
330
70
100
AcDbEntity
  8
Visible
100
AcDbCircle
 10
9.301414
 20
1.738742
 30
120.0
 40
0.0393700787401576
100
AcDbArc
 50
285.0
 51
356.490595
  0
ARC
  5
7FC
330
70
100
AcDbEntity
  8
Visible
100
AcDbCircle
 10
9.281658
 20
1.733448
 30
120.0
 40
0.0393700787401575
100
AcDbArc
 50
225.0
 51
285.0
  0
LINE
  5
7FD
330
70
100
AcDbEntity
  8
Visible
100
AcDbLine
 10
9.291848
 20
1.69542
 30
120.0
 11
9.311603
 21
1.700713
 31
120.0
  0
ARC
  5
7FE
330
70
100
AcDbEntity
  8
Visible
100
AcDbCircle
 10
-9.172601
 20
1.73115
 30
-120.0
 40
0.039370078740158
210
0.0
220
0.0
230
-1.0
100
AcDbArc
 50
90.0
 51
135.0
  0
LINE
  5
7FF
330
70
100
AcDbEntity
  8
Visible
100
AcDbLine
 10
9.20044
 20
1.758989
 30
120.0
 11
9.253819
 21
1.705609
 31
120.0
  0
ARC
  5
800
330
70
100
AcDbEntity
  8
Visible
100
AcDbCircle
 10
-9.622047
 20
3.170083
 30
-120.0
 40
0.0049999999999999
210
0.0
220
0.0
230
-1.0
100
AcDbArc
 50
90.0
 51
270.0
  0
ARC
  5
801
330
70
100
AcDbEntity
  8
Visible
100
AcDbCircle
 10
-9.622047
 20
3.295083
 30
-120.0
 40
0.0049999999999999
210
0.0
220
0.0
230
-1.0
100
AcDbArc
 50
90.0
 51
270.0
  0
LINE
  5
802
330
70
100
AcDbEntity
  8
Visible
100
AcDbLine
 10
9.622047
 20
3.290083
 30
120.0
 11
9.622047
 21
3.175083
 31
120.0
  0
LINE
  5
803
330
70
100
AcDbEntity
  8
Visible
100
AcDbLine
 10
9.622047
 20
3.654716
 30
120.0
 11
9.622047
 21
3.300083
 31
120.0
  0
LINE
  5
804
330
70
100
AcDbEntity
  8
Visible
100
AcDbLine
 10
9.622047
 20
3.165083
 30
120.0
 11
9.622047
 21
2.81045
 31
120.0
  0
LINE
  5
805
330
70
100
AcDbEntity
  8
Visible
100
AcDbLine
 10
7.827399
 20
1.77052
 30
120.0
 11
9.172601
 21
1.77052
 31
120.0
  0
LINE
  5
806
330
70
100
AcDbEntity
  8
Visible
100
AcDbLine
 10
8.480315
 20
2.164221
 30
120.0
 11
7.811024
 21
2.164221
 31
120.0
  0
LINE
  5
807
330
70
100
AcDbEntity
  8
Visible
100
AcDbLine
 10
9.188976
 20
2.164221
 30
120.0
 11
8.519685
 21
2.164221
 31
120.0
  0
MTEXT
  5
808
330
70
100
AcDbEntity
  8
Annotations
  6
PHANTOM2
100
AcDbMText
 10
5.133128
 20
9.125416
 30
0.0
 40
0.24
 41
0.0
 46
0.0
 71
     5
 72
     5
  1
A
 73
     1
 44
1.0
  0
CIRCLE
  5
809
330
70
100
AcDbEntity
  8
Annotations
  6
PHANTOM2
370
    25
100
AcDbCircle
 10
3.526053
 20
9.441134
 30
0.0
 40
1.047827238859108
  0
LINE
  5
80A
330
70
100
AcDbEntity
  8
Annotations
  6
PHANTOM2
370
    25
100
AcDbLine
 10
4.554227
 20
9.239144
 30
0.0
 11
4.901068
 21
9.171005
 31
0.0
  0
ENDSEC
  0
SECTION
  2
OBJECTS
  0
DICTIONARY
  5
C
330
0
100
AcDbDictionary
281
     1
  3
ACAD_COLOR
350
63
  3
ACAD_DETAILVIEWSTYLE
350
6A
  3
ACAD_FIELDLIST
350
3C5
  3
ACAD_GROUP
350
D
  3
ACAD_IMAGE_DICT
350
2A1
  3
ACAD_IMAGE_VARS
350
2A3
  3
ACAD_LAYOUT
350
62
  3
ACAD_MATERIAL
350
10
  3
ACAD_MLEADERSTYLE
350
66
  3
ACAD_MLINESTYLE
350
5F
  3
ACAD_PLOTSETTINGS
350
61
  3
ACAD_PLOTSTYLENAME
350
E
  3
ACAD_SCALELIST
350
42
  3
ACAD_SECTIONVIEWSTYLE
350
68
  3
ACAD_TABLESTYLE
350
64
  3
ACAD_VISUALSTYLE
350
29
  3
ACDB_RECOMPOSE_DATA
350
8A8
  3
AcDbVariableDictionary
350
89E
  0
DICTIONARY
  5
B6
330
70
100
AcDbDictionary
280
     1
281
     1
  3
ACAD_SORTENTS
360
297
  0
DICTIONARY
  5
29B
330
29A
100
AcDbDictionary
280
     1
281
     1
  3
ACAD_SORTENTS
360
63B
  0
IMAGEDEF_REACTOR
  5
2A2
330
29F
100
AcDbRasterImageDefReactor
 90
        2
330
29F
  0
DICTIONARY
  5
2EE
330
2ED
100
AcDbDictionary
280
     1
281
     1
  0
DICTIONARY
  5
3AD
330
3AC
100
AcDbDictionary
280
     1
281
     1
  3
ACAD_MTEXT_2008_RT
360
8A7
  0
DICTIONARY
  5
63
102
{ACAD_REACTORS
330
C
102
}
330
C
100
AcDbDictionary
281
     1
  0
DICTIONARY
  5
6A
102
{ACAD_REACTORS
330
C
102
}
330
C
100
AcDbDictionary
281
     1
  3
Imperial24
350
6B
  0
FIELDLIST
  5
3C5
102
{ACAD_REACTORS
330
C
102
}
330
C
100
AcDbIdSet
 90
        3
330
2F1
330
2F2
330
2F3
100
AcDbFieldList
  0
DICTIONARY
  5
D
102
{ACAD_REACTORS
330
C
102
}
330
C
100
AcDbDictionary
281
     1
  0
DICTIONARY
  5
2A1
102
{ACAD_REACTORS
330
C
102
}
330
C
100
AcDbDictionary
281
     1
  3
morse_logo-16 (1)_01-2018(B)_1_1
350
2A0
  0
RASTERVARIABLES
  5
2A3
102
{ACAD_REACTORS
330
C
102
}
330
C
100
AcDbRasterVariables
 90
        0
 70
     0
 71
     1
 72
     5
  0
DICTIONARY
  5
62
102
{ACAD_REACTORS
330
C
102
}
330
C
100
AcDbDictionary
281
     1
  3
Model
350
73
  3
Sheet1
350
6F
  3
Sheet2
350
77
  0
DICTIONARY
  5
10
102
{ACAD_REACTORS
330
C
102
}
330
C
100
AcDbDictionary
281
     1
  3
ByBlock
350
19
  3
ByLayer
350
11
  3
Global
350
21
  0
DICTIONARY
  5
66
102
{ACAD_REACTORS
330
C
102
}
330
C
100
AcDbDictionary
281
     1
  3
Standard
350
67
  0
DICTIONARY
  5
5F
102
{ACAD_REACTORS
330
C
102
}
330
C
100
AcDbDictionary
281
     1
  3
Standard
350
60
  0
DICTIONARY
  5
61
102
{ACAD_REACTORS
330
C
102
}
330
C
100
AcDbDictionary
281
     1
  0
ACDBDICTIONARYWDFLT
  5
E
102
{ACAD_REACTORS
330
C
102
}
330
C
100
AcDbDictionary
281
     1
  3
Normal
350
F
100
AcDbDictionaryWithDefault
340
F
  0
DICTIONARY
  5
42
102
{ACAD_REACTORS
330
C
102
}
330
C
100
AcDbDictionary
281
     1
  3
*A1
350
A6
  3
*A10
350
AF
  3
*A11
350
B0
  3
*A12
350
B1
  3
*A13
350
B2
  3
*A14
350
B3
  3
*A15
350
B4
  3
*A16
350
B5
  3
*A2
350
A7
  3
*A3
350
A8
  3
*A4
350
A9
  3
*A5
350
AA
  3
*A6
350
AB
  3
*A7
350
AC
  3
*A8
350
AD
  3
*A9
350
AE
  3
A0
350
43
  3
A1
350
44
  3
A2
350
45
  3
A3
350
46
  3
A4
350
47
  3
A5
350
48
  3
A6
350
49
  3
A7
350
4A
  3
A8
350
4B
  3
A9
350
4C
  3
B0
350
4D
  3
B1
350
4E
  3
B2
350
4F
  3
B3
350
50
  3
B4
350
51
  3
B5
350
52
  3
B6
350
53
  0
DICTIONARY
  5
68
102
{ACAD_REACTORS
330
C
102
}
330
C
100
AcDbDictionary
281
     1
  3
Imperial24
350
69
  0
DICTIONARY
  5
64
102
{ACAD_REACTORS
330
C
102
}
330
C
100
AcDbDictionary
281
     1
  3
Standard
350
65
  0
DICTIONARY
  5
29
102
{ACAD_REACTORS
330
C
102
}
330
C
100
AcDbDictionary
281
     1
  3
2dWireframe
350
2F
  3
Basic
350
2E
  3
Brighten
350
35
  3
ColorChange
350
39
  3
Conceptual
350
32
  3
Dim
350
34
  3
EdgeColorOff
350
41
  3
Facepattern
350
38
  3
Flat
350
2A
  3
FlatWithEdges
350
2B
  3
Gouraud
350
2C
  3
GouraudWithEdges
350
2D
  3
Hidden
350
31
  3
JitterOff
350
3F
  3
Linepattern
350
37
  3
OverhangOff
350
40
  3
Realistic
350
33
  3
Shaded
350
3E
  3
Shaded with edges
350
3D
  3
Shades of Gray
350
3A
  3
Sketchy
350
3B
  3
Thicken
350
36
  3
Wireframe
350
30
  3
X-Ray
350
3C
  0
XRECORD
  5
8A8
102
{ACAD_REACTORS
330
C
102
}
330
C
100
AcDbXrecord
280
     1
 90
        1
330
65
330
2A7
330
2B1
330
2B2
330
2B3
330
2B6
330
3AA
330
3AB
330
3AC
330
3AE
  0
DICTIONARY
  5
89E
102
{ACAD_REACTORS
330
C
102
}
330
C
100
AcDbDictionary
281
     1
  3
ANNOALLVISIBLE
350
8A3
  3
CANNOSCALE
350
8A4
  3
CMLEADERSTYLE
350
8A0
  3
CTABLESTYLE
350
89F
  3
CVIEWDETAILSTYLE
350
8A1
  3
CVIEWSECTIONSTYLE
350
8A2
  0
SORTENTSTABLE
  5
297
102
{ACAD_REACTORS
330
B6
102
}
330
B6
100
AcDbSortentsTable
330
70
  0
SORTENTSTABLE
  5
63B
102
{ACAD_REACTORS
330
29B
102
}
330
29B
100
AcDbSortentsTable
330
29A
  0
XRECORD
  5
8A7
102
{ACAD_REACTORS
330
3AD
102
}
330
3AD
100
AcDbXrecord
280
     1
 40
2811425.0
  1
\pxi-3,l3,t3;{\fSymbol|b0|i0|c2|p18;\H1.66667x;·^I}{\H1.66667x;(20) %%C 1.181" straight holes\P{\fSymbol|b0|i0|c2|p18;·^I}(20) %%C .669" straight holes\P{\fSymbol|b0|i0|c2|p18;·^I}(5) %%C .512" straight holes}
  0
ACDBDETAILVIEWSTYLE
  5
6B
102
{ACAD_XDICTIONARY
360
8AB
102
}
102
{ACAD_REACTORS
330
6A
102
}
330
6A
100
AcDbModelDocViewStyle
 70
     0
  3
Imperial24
290
     0
100
AcDbDetailViewStyle
 70
     0
 71
     0
 90
        3
 71
     1
340
55
 62
   256
 40
0.24
340
0
 62
   256
 40
0.24
300

 40
0.36
280
     3
 71
     2
340
5D
 90
       25
 62
   256
 71
     3
340
55
 62
   256
 40
0.24
 90
        1
 40
0.75
 90
        1
300
%<\AcVar ViewType \f "%tc1">% %<\AcVar ViewDetailId>%\PSCALE %<\AcVar ViewScale \f "%sn">%
 71
     4
340
5D
 90
       25
 62
   256
340
5D
 90
       25
 62
   256
280
     0
  0
IMAGEDEF
  5
2A0
102
{ACAD_REACTORS
330
2A1
330
2A2
330
80B
102
}
330
2A1
100
AcDbRasterImageDef
 90
        0
  1
morse_logo-16 (1)_01-2018(B)_1_1.jpg
 10
948.0
 20
333.0
 11
0.264583
 21
0.264583
280
     1
281
     5
  0
LAYOUT
  5
73
102
{ACAD_REACTORS
330
62
102
}
330
62
100
AcDbPlotSettings
  1

  2
AutoCAD PDF (High Quality Print).pc3
  4
ANSI_full_bleed_B_(17.00_x_11.00_Inches)
  6

 40
0.0
 41
0.0
 42
0.0
 43
0.0
 44
431.799988
 45
279.399994
 46
0.0
 47
0.0
 48
0.0
 49
0.0
140
0.0
141
0.0
142
1.0
143
1.789482
 70
 11952
 72
     0
 73
     0
 74
     0
  7

 75
     0
147
0.558821
 76
     0
 77
     2
 78
   300
148
138.785436
149
106.336821
100
AcDbLayout
  1
Model
 70
     1
 71
     0
 10
0.0
 20
0.0
 11
12.0
 21
9.0
 12
0.0
 22
0.0
 32
0.0
 14
0.0
 24
0.0
 34
0.0
 15
0.0
 25
0.0
 35
0.0
146
0.0
 13
0.0
 23
0.0
 33
0.0
 16
1.0
 26
0.0
 36
0.0
 17
0.0
 27
1.0
 37
0.0
 76
     0
330
70
1001
ACAD_PSEXT
1000
AutoCAD PDF (High Quality Print).pc3
1000
DWG To PDF
1000
File
1000

1070
     0
  0
LAYOUT
  5
6F
102
{ACAD_REACTORS
330
62
102
}
330
62
100
AcDbPlotSettings
  1

  2
None
  4

  6

 40
0.0
 41
0.0
 42
0.0
 43
0.0
 44
0.0
 45
0.0
 46
0.0
 47
0.0
 48
0.0
 49
0.0
140
0.0
141
0.0
142
1.0
143
1.0
 70
   688
 72
     0
 73
     0
 74
     5
  7

 75
    16
147
1.0
 76
     0
 77
     2
 78
   300
148
0.0
149
0.0
100
AcDbLayout
  1
Sheet1
 70
     1
 71
     1
 10
0.0
 20
0.0
 11
12.0
 21
9.0
 12
0.0
 22
0.0
 32
0.0
 14
0.0
 24
0.0
 34
0.0
 15
0.0
 25
0.0
 35
0.0
146
0.0
 13
0.0
 23
0.0
 33
0.0
 16
1.0
 26
0.0
 36
0.0
 17
0.0
 27
1.0
 37
0.0
 76
     0
330
6C
  0
LAYOUT
  5
77
102
{ACAD_REACTORS
330
62
102
}
330
62
100
AcDbPlotSettings
  1

  2
None
  4

  6

 40
0.0
 41
0.0
 42
0.0
 43
0.0
 44
0.0
 45
0.0
 46
0.0
 47
0.0
 48
0.0
 49
0.0
140
0.0
141
0.0
142
1.0
143
1.0
 70
   688
 72
     0
 73
     0
 74
     5
  7

 75
    16
147
1.0
 76
     0
 77
     2
 78
   300
148
0.0
149
0.0
100
AcDbLayout
  1
Sheet2
 70
     1
 71
     2
 10
0.0
 20
0.0
 11
12.0
 21
9.0
 12
0.0
 22
0.0
 32
0.0
 14
0.0
 24
0.0
 34
0.0
 15
0.0
 25
0.0
 35
0.0
146
0.0
 13
0.0
 23
0.0
 33
0.0
 16
1.0
 26
0.0
 36
0.0
 17
0.0
 27
1.0
 37
0.0
 76
     0
330
74
  0
MATERIAL
  5
19
102
{ACAD_XDICTIONARY
360
1A
102
}
102
{ACAD_REACTORS
330
10
102
}
330
10
100
AcDbMaterial
  1
ByBlock
 72
     0
 43
0.020833
 43
0.0
 43
0.0
 43
0.0
 43
0.0
 43
0.020833
 43
0.0
 43
0.0
 43
0.0
 43
0.0
 43
1.0
 43
0.0
 43
0.0
 43
0.0
 43
0.0
 43
1.0
 77
     0
 47
0.020833
 47
0.0
 47
0.0
 47
0.0
 47
0.0
 47
0.020833
 47
0.0
 47
0.0
 47
0.0
 47
0.0
 47
1.0
 47
0.0
 47
0.0
 47
0.0
 47
0.0
 47
1.0
171
     0
 49
0.020833
 49
0.0
 49
0.0
 49
0.0
 49
0.0
 49
0.020833
 49
0.0
 49
0.0
 49
0.0
 49
0.0
 49
1.0
 49
0.0
 49
0.0
 49
0.0
 49
0.0
 49
1.0
175
     0
142
0.020833
142
0.0
142
0.0
142
0.0
142
0.0
142
0.020833
142
0.0
142
0.0
142
0.0
142
0.0
142
1.0
142
0.0
142
0.0
142
0.0
142
0.0
142
1.0
179
     0
144
0.020833
144
0.0
144
0.0
144
0.0
144
0.0
144
0.020833
144
0.0
144
0.0
144
0.0
144
0.0
144
1.0
144
0.0
144
0.0
144
0.0
144
0.0
144
1.0
147
0.020833
147
0.0
147
0.0
147
0.0
147
0.0
147
0.020833
147
0.0
147
0.0
147
0.0
147
0.0
147
1.0
147
0.0
147
0.0
147
0.0
147
0.0
147
1.0
  0
MATERIAL
  5
11
102
{ACAD_XDICTIONARY
360
12
102
}
102
{ACAD_REACTORS
330
10
102
}
330
10
100
AcDbMaterial
  1
ByLayer
 72
     0
 43
0.020833
 43
0.0
 43
0.0
 43
0.0
 43
0.0
 43
0.020833
 43
0.0
 43
0.0
 43
0.0
 43
0.0
 43
1.0
 43
0.0
 43
0.0
 43
0.0
 43
0.0
 43
1.0
 77
     0
 47
0.020833
 47
0.0
 47
0.0
 47
0.0
 47
0.0
 47
0.020833
 47
0.0
 47
0.0
 47
0.0
 47
0.0
 47
1.0
 47
0.0
 47
0.0
 47
0.0
 47
0.0
 47
1.0
171
     0
 49
0.020833
 49
0.0
 49
0.0
 49
0.0
 49
0.0
 49
0.020833
 49
0.0
 49
0.0
 49
0.0
 49
0.0
 49
1.0
 49
0.0
 49
0.0
 49
0.0
 49
0.0
 49
1.0
175
     0
142
0.020833
142
0.0
142
0.0
142
0.0
142
0.0
142
0.020833
142
0.0
142
0.0
142
0.0
142
0.0
142
1.0
142
0.0
142
0.0
142
0.0
142
0.0
142
1.0
179
     0
144
0.020833
144
0.0
144
0.0
144
0.0
144
0.0
144
0.020833
144
0.0
144
0.0
144
0.0
144
0.0
144
1.0
144
0.0
144
0.0
144
0.0
144
0.0
144
1.0
147
0.020833
147
0.0
147
0.0
147
0.0
147
0.0
147
0.020833
147
0.0
147
0.0
147
0.0
147
0.0
147
1.0
147
0.0
147
0.0
147
0.0
147
0.0
147
1.0
  0
MATERIAL
  5
21
102
{ACAD_XDICTIONARY
360
22
102
}
102
{ACAD_REACTORS
330
10
102
}
330
10
100
AcDbMaterial
  1
Global
 72
     0
 43
0.020833
 43
0.0
 43
0.0
 43
0.0
 43
0.0
 43
0.020833
 43
0.0
 43
0.0
 43
0.0
 43
0.0
 43
1.0
 43
0.0
 43
0.0
 43
0.0
 43
0.0
 43
1.0
 77
     0
 47
0.020833
 47
0.0
 47
0.0
 47
0.0
 47
0.0
 47
0.020833
 47
0.0
 47
0.0
 47
0.0
 47
0.0
 47
1.0
 47
0.0
 47
0.0
 47
0.0
 47
0.0
 47
1.0
171
     0
 49
0.020833
 49
0.0
 49
0.0
 49
0.0
 49
0.0
 49
0.020833
 49
0.0
 49
0.0
 49
0.0
 49
0.0
 49
1.0
 49
0.0
 49
0.0
 49
0.0
 49
0.0
 49
1.0
175
     0
142
0.020833
142
0.0
142
0.0
142
0.0
142
0.0
142
0.020833
142
0.0
142
0.0
142
0.0
142
0.0
142
1.0
142
0.0
142
0.0
142
0.0
142
0.0
142
1.0
179
     0
144
0.020833
144
0.0
144
0.0
144
0.0
144
0.0
144
0.020833
144
0.0
144
0.0
144
0.0
144
0.0
144
1.0
144
0.0
144
0.0
144
0.0
144
0.0
144
1.0
147
0.020833
147
0.0
147
0.0
147
0.0
147
0.0
147
0.020833
147
0.0
147
0.0
147
0.0
147
0.0
147
1.0
147
0.0
147
0.0
147
0.0
147
0.0
147
1.0
  0
MLEADERSTYLE
  5
67
102
{ACAD_REACTORS
330
66
102
}
330
66
100
AcDbMLeaderStyle
179
     2
170
     2
171
     1
172
     0
 90
        2
 40
0.0
 41
0.0
173
     1
 91
-1056964608
340
5B
 92
       -2
290
     1
 42
0.09
291
     1
 43
0.36
  3
Standard
 44
0.18
300

342
55
174
     1
178
     6
175
     1
176
     0
 93
-1056964608
 45
0.18
292
     0
297
     0
 46
0.18
 94
-1056964608
 47
1.0
 49
1.0
140
1.0
293
     1
141
0.0
294
     1
177
     0
142
1.0
295
     0
296
     0
143
0.125
271
     0
272
     9
273
     9
298
     1
  0
MLINESTYLE
  5
60
102
{ACAD_REACTORS
330
5F
102
}
330
5F
100
AcDbMlineStyle
  2
STANDARD
 70
     0
  3

 62
   256
 51
90.0
 52
90.0
 71
     0
  0
ACDBPLACEHOLDER
  5
F
102
{ACAD_REACTORS
330
E
102
}
330
E
  0
SCALE
  5
A6
102
{ACAD_REACTORS
330
42
102
}
330
42
100
AcDbScale
 70
     0
300
1:2
140
1.0
141
2.0
290
     0
  0
SCALE
  5
AF
102
{ACAD_REACTORS
330
42
102
}
330
42
100
AcDbScale
 70
     0
300
1:50
140
1.0
141
50.0
290
     0
  0
SCALE
  5
B0
102
{ACAD_REACTORS
330
42
102
}
330
42
100
AcDbScale
 70
     0
300
1:100
140
1.0
141
100.0
290
     0
  0
SCALE
  5
B1
102
{ACAD_REACTORS
330
42
102
}
330
42
100
AcDbScale
 70
     0
300
2:1
140
2.0
141
1.0
290
     0
  0
SCALE
  5
B2
102
{ACAD_REACTORS
330
42
102
}
330
42
100
AcDbScale
 70
     0
300
4:1
140
4.0
141
1.0
290
     0
  0
SCALE
  5
B3
102
{ACAD_REACTORS
330
42
102
}
330
42
100
AcDbScale
 70
     0
300
8:1
140
8.0
141
1.0
290
     0
  0
SCALE
  5
B4
102
{ACAD_REACTORS
330
42
102
}
330
42
100
AcDbScale
 70
     0
300
10:1
140
10.0
141
1.0
290
     0
  0
SCALE
  5
B5
102
{ACAD_REACTORS
330
42
102
}
330
42
100
AcDbScale
 70
     0
300
100:1
140
100.0
141
1.0
290
     0
  0
SCALE
  5
A7
102
{ACAD_REACTORS
330
42
102
}
330
42
100
AcDbScale
 70
     0
300
1:4
140
1.0
141
4.0
290
     0
  0
SCALE
  5
A8
102
{ACAD_REACTORS
330
42
102
}
330
42
100
AcDbScale
 70
     0
300
1:5
140
1.0
141
5.0
290
     0
  0
SCALE
  5
A9
102
{ACAD_REACTORS
330
42
102
}
330
42
100
AcDbScale
 70
     0
300
1:8
140
1.0
141
8.0
290
     0
  0
SCALE
  5
AA
102
{ACAD_REACTORS
330
42
102
}
330
42
100
AcDbScale
 70
     0
300
1:10
140
1.0
141
10.0
290
     0
  0
SCALE
  5
AB
102
{ACAD_REACTORS
330
42
102
}
330
42
100
AcDbScale
 70
     0
300
1:16
140
1.0
141
16.0
290
     0
  0
SCALE
  5
AC
102
{ACAD_REACTORS
330
42
102
}
330
42
100
AcDbScale
 70
     0
300
1:20
140
1.0
141
20.0
290
     0
  0
SCALE
  5
AD
102
{ACAD_REACTORS
330
42
102
}
330
42
100
AcDbScale
 70
     0
300
1:30
140
1.0
141
30.0
290
     0
  0
SCALE
  5
AE
102
{ACAD_REACTORS
330
42
102
}
330
42
100
AcDbScale
 70
     0
300
1:40
140
1.0
141
40.0
290
     0
  0
SCALE
  5
43
102
{ACAD_REACTORS
330
42
102
}
330
42
100
AcDbScale
 70
     0
300
1:1
140
1.0
141
1.0
290
     1
  0
SCALE
  5
44
102
{ACAD_REACTORS
330
42
102
}
330
42
100
AcDbScale
 70
     0
300
1/128" = 1'-0"
140
0.007813
141
12.0
290
     0
  0
SCALE
  5
45
102
{ACAD_REACTORS
330
42
102
}
330
42
100
AcDbScale
 70
     0
300
1/64" = 1'-0"
140
0.015625
141
12.0
290
     0
  0
SCALE
  5
46
102
{ACAD_REACTORS
330
42
102
}
330
42
100
AcDbScale
 70
     0
300
1/32" = 1'-0"
140
0.03125
141
12.0
290
     0
  0
SCALE
  5
47
102
{ACAD_REACTORS
330
42
102
}
330
42
100
AcDbScale
 70
     0
300
1/16" = 1'-0"
140
0.0625
141
12.0
290
     0
  0
SCALE
  5
48
102
{ACAD_REACTORS
330
42
102
}
330
42
100
AcDbScale
 70
     0
300
3/32" = 1'-0"
140
0.09375
141
12.0
290
     0
  0
SCALE
  5
49
102
{ACAD_REACTORS
330
42
102
}
330
42
100
AcDbScale
 70
     0
300
1/8" = 1'-0"
140
0.125
141
12.0
290
     0
  0
SCALE
  5
4A
102
{ACAD_REACTORS
330
42
102
}
330
42
100
AcDbScale
 70
     0
300
3/16" = 1'-0"
140
0.1875
141
12.0
290
     0
  0
SCALE
  5
4B
102
{ACAD_REACTORS
330
42
102
}
330
42
100
AcDbScale
 70
     0
300
1/4" = 1'-0"
140
0.25
141
12.0
290
     0
  0
SCALE
  5
4C
102
{ACAD_REACTORS
330
42
102
}
330
42
100
AcDbScale
 70
     0
300
3/8" = 1'-0"
140
0.375
141
12.0
290
     0
  0
SCALE
  5
4D
102
{ACAD_REACTORS
330
42
102
}
330
42
100
AcDbScale
 70
     0
300
1/2" = 1'-0"
140
0.5
141
12.0
290
     0
  0
SCALE
  5
4E
102
{ACAD_REACTORS
330
42
102
}
330
42
100
AcDbScale
 70
     0
300
3/4" = 1'-0"
140
0.75
141
12.0
290
     0
  0
SCALE
  5
4F
102
{ACAD_REACTORS
330
42
102
}
330
42
100
AcDbScale
 70
     0
300
1" = 1'-0"
140
1.0
141
12.0
290
     0
  0
SCALE
  5
50
102
{ACAD_REACTORS
330
42
102
}
330
42
100
AcDbScale
 70
     0
300
1-1/2" = 1'-0"
140
1.5
141
12.0
290
     0
  0
SCALE
  5
51
102
{ACAD_REACTORS
330
42
102
}
330
42
100
AcDbScale
 70
     0
300
3" = 1'-0"
140
3.0
141
12.0
290
     0
  0
SCALE
  5
52
102
{ACAD_REACTORS
330
42
102
}
330
42
100
AcDbScale
 70
     0
300
6" = 1'-0"
140
6.0
141
12.0
290
     0
  0
SCALE
  5
53
102
{ACAD_REACTORS
330
42
102
}
330
42
100
AcDbScale
 70
     0
300
1'-0" = 1'-0"
140
12.0
141
12.0
290
     0
  0
ACDBSECTIONVIEWSTYLE
  5
69
102
{ACAD_XDICTIONARY
360
8A9
102
}
102
{ACAD_REACTORS
330
68
102
}
330
68
100
AcDbModelDocViewStyle
 70
     0
  3
Imperial24
290
     0
100
AcDbSectionViewStyle
 70
     0
 71
     0
 90
       78
 71
     1
340
55
 62
   256
 40
0.24
340
0
340
0
 62
   256
 40
0.24
300
I, O, Q, S, X, Z
 40
0.48
 90
        3
 40
0.18
 90
        1
 71
     2
340
5D
 90
       25
 62
   256
340
5D
 90
       50
 62
   256
 40
0.24
 40
0.0
 40
0.24
 71
     3
340
55
 62
   256
 40
0.24
 90
        1
 40
0.75
 90
        1
300
%<\AcVar ViewType \f "%tc1">% %<\AcVar ViewSectionStartId>%-%<\AcVar ViewSectionEndId>%\PSCALE %<\AcVar ViewScale \f "%sn">%
 71
     4
 62
   256
 62
   257
300
ANSI31
 40
1.0
 90
        0
290
     0
290
     0
 90
        6
 40
0.0
 40
1.570796
 40
0.261799
 40
1.308997
 40
-0.261799
 40
1.832596
  0
TABLESTYLE
  5
65
102
{ACAD_XDICTIONARY
360
8A5
102
}
102
{ACAD_REACTORS
330
64
102
}
330
64
100
AcDbTableStyle
280
     0
  3
Standard
 70
     0
 71
     0
 40
0.06
 41
0.06
280
     0
281
     0
  7
Standard
140
0.18
170
     2
 62
     0
 63
     7
283
     0
 90
      512
 91
        0
  1

274
    -2
284
     1
 64
     0
275
    -2
285
     1
 65
     0
276
    -2
286
     1
 66
     0
277
    -2
287
     1
 67
     0
278
    -2
288
     1
 68
     0
279
    -2
289
     1
 69
     0
  7
Standard
140
0.25
170
     5
 62
     0
 63
     7
283
     0
 90
      512
 91
        0
  1

274
    -2
284
     1
 64
     0
275
    -2
285
     1
 65
     0
276
    -2
286
     1
 66
     0
277
    -2
287
     1
 67
     0
278
    -2
288
     1
 68
     0
279
    -2
289
     1
 69
     0
  7
Standard
140
0.18
170
     5
 62
     0
 63
     7
283
     0
 90
      512
 91
        0
  1

274
    -2
284
     1
 64
     0
275
    -2
285
     1
 65
     0
276
    -2
286
     1
 66
     0
277
    -2
287
     1
 67
     0
278
    -2
288
     1
 68
     0
279
    -2
289
     1
 69
     0
  0
VISUALSTYLE
  5
2F
102
{ACAD_REACTORS
330
29
102
}
330
29
100
AcDbVisualStyle
  2
2dWireframe
 70
     4
177
     3
291
     0
 70
    58
 90
        0
176
     1
 90
        2
176
     1
 90
        0
176
     1
 90
        0
176
     1
 40
0.6
176
     1
 40
30.0
176
     1
 62
     7
420
 16777215
176
     1
 90
        1
176
     1
 90
        4
176
     1
 62
     7
176
     1
 62
   257
176
     1
 90
        1
176
     1
 90
        1
176
     1
 40
1.0
176
     1
 90
        0
176
     1
 62
   257
176
     1
 40
1.0
176
     1
 90
        1
176
     1
 90
        6
176
     1
 90
        2
176
     1
 62
     7
176
     1
 90
        5
176
     1
 90
        0
176
     1
 90
        0
176
     1
290
     0
176
     1
 90
        1
176
     1
 40
0.0
176
     1
 90
        0
176
     1
290
     1
176
     1
290
     1
176
     1
290
     0
176
     1
290
     0
176
     1
290
     0
176
     1
290
     0
176
     1
290
     0
176
     1
290
     0
176
     1
290
     0
176
     1
 90
       50
176
     1
 40
0.0
176
     1
 40
1.0
176
     1
 90
        0
176
     1
 62
    18
420
        0
176
     1
 90
       50
176
     1
 90
        3
176
     1
 62
     5
420
      255
176
     1
290
     0
176
     1
 90
       50
176
     1
 90
       50
176
     1
 90
       50
176
     1
290
     0
176
     1
 90
       50
176
     1
 62
   256
176
     0
 40
1.0
176
     0
 90
        2
176
     1
  1
strokes_ogs.tif
176
     1
290
     0
176
     1
 40
1.0
176
     1
 40
1.0
176
     1
1001
ACAD
1000
AcDbSavedByObjectVersion
1070
     0
  0
VISUALSTYLE
  5
2E
102
{ACAD_REACTORS
330
29
102
}
330
29
100
AcDbVisualStyle
  2
Basic
 70
     7
177
     3
291
     1
 70
    58
 90
        1
176
     1
 90
        0
176
     1
 90
        1
176
     1
 90
        0
176
     1
 40
0.6
176
     1
 40
30.0
176
     1
 62
     7
420
 16777215
176
     1
 90
        0
176
     1
 90
        4
176
     1
 62
     7
176
     1
 62
   257
176
     1
 90
        1
176
     1
 90
        1
176
     1
 40
1.0
176
     1
 90
        8
176
     1
 62
     7
176
     1
 40
1.0
176
     1
 90
        1
176
     1
 90
        6
176
     1
 90
        2
176
     1
 62
     7
176
     1
 90
        5
176
     1
 90
        0
176
     1
 90
        0
176
     1
290
     0
176
     1
 90
        1
176
     1
 40
0.0
176
     1
 90
        0
176
     1
290
     0
176
     1
290
     1
176
     1
290
     1
176
     1
290
     0
176
     1
290
     0
176
     1
290
     0
176
     1
290
     0
176
     1
290
     0
176
     1
290
     0
176
     1
 90
       50
176
     1
 40
0.0
176
     1
 40
1.0
176
     1
 90
        0
176
     1
 62
    18
420
        0
176
     1
 90
       50
176
     1
 90
        3
176
     1
 62
     5
420
      255
176
     1
290
     0
176
     1
 90
       50
176
     1
 90
       50
176
     1
 90
       50
176
     1
290
     0
176
     1
 90
       50
176
     1
 62
   256
176
     0
 40
1.0
176
     0
 90
        2
176
     1
  1
strokes_ogs.tif
176
     1
290
     0
176
     1
 40
1.0
176
     1
 40
1.0
176
     1
1001
ACAD
1000
AcDbSavedByObjectVersion
1070
     0
  0
VISUALSTYLE
  5
35
102
{ACAD_REACTORS
330
29
102
}
330
29
100
AcDbVisualStyle
  2
Brighten
 70
    12
177
     3
291
     1
 70
    58
 90
        2
176
     1
 90
        2
176
     1
 90
        0
176
     1
 90
        0
176
     1
 40
0.6
176
     1
 40
30.0
176
     1
 62
     7
420
 16777215
176
     1
 90
        1
176
     1
 90
        4
176
     1
 62
     7
176
     1
 62
   257
176
     1
 90
        1
176
     1
 90
        1
176
     1
 40
1.0
176
     1
 90
        8
176
     1
 62
     7
176
     1
 40
1.0
176
     1
 90
        1
176
     1
 90
        6
176
     1
 90
        2
176
     1
 62
     7
176
     1
 90
        5
176
     1
 90
        0
176
     1
 90
        0
176
     1
290
     0
176
     1
 90
        1
176
     1
 40
50.0
176
     1
 90
        0
176
     1
290
     0
176
     1
290
     1
176
     1
290
     1
176
     1
290
     0
176
     1
290
     0
176
     1
290
     0
176
     1
290
     0
176
     1
290
     0
176
     1
290
     0
176
     1
 90
       50
176
     1
 40
0.0
176
     1
 40
1.0
176
     1
 90
        0
176
     1
 62
    18
420
        0
176
     1
 90
       50
176
     1
 90
        3
176
     1
 62
     5
420
      255
176
     1
290
     0
176
     1
 90
       50
176
     1
 90
       50
176
     1
 90
       50
176
     1
290
     0
176
     1
 90
       50
176
     1
 62
   256
176
     0
 40
1.0
176
     0
 90
        2
176
     1
  1
strokes_ogs.tif
176
     1
290
     0
176
     1
 40
1.0
176
     1
 40
1.0
176
     1
1001
ACAD
1000
AcDbSavedByObjectVersion
1070
     0
  0
VISUALSTYLE
  5
39
102
{ACAD_REACTORS
330
29
102
}
330
29
100
AcDbVisualStyle
  2
ColorChange
 70
    16
177
     3
291
     1
 70
    58
 90
        2
176
     1
 90
        2
176
     1
 90
        3
176
     1
 90
        0
176
     1
 40
0.6
176
     1
 40
30.0
176
     1
 62
     8
420
  8421504
176
     1
 90
        1
176
     1
 90
        4
176
     1
 62
     7
176
     1
 62
   257
176
     1
 90
        1
176
     1
 90
        1
176
     1
 40
1.0
176
     1
 90
        8
176
     1
 62
     8
420
  8421504
176
     1
 40
1.0
176
     1
 90
        1
176
     1
 90
        6
176
     1
 90
        2
176
     1
 62
     7
176
     1
 90
        5
176
     1
 90
        0
176
     1
 90
        0
176
     1
290
     0
176
     1
 90
        1
176
     1
 40
0.0
176
     1
 90
        0
176
     1
290
     0
176
     1
290
     1
176
     1
290
     1
176
     1
290
     0
176
     1
290
     0
176
     1
290
     0
176
     1
290
     0
176
     1
290
     0
176
     1
290
     0
176
     1
 90
       50
176
     1
 40
0.0
176
     1
 40
1.0
176
     1
 90
        0
176
     1
 62
    18
420
        0
176
     1
 90
       50
176
     1
 90
        3
176
     1
 62
     5
420
      255
176
     1
290
     0
176
     1
 90
       50
176
     1
 90
       50
176
     1
 90
       50
176
     1
290
     0
176
     1
 90
       50
176
     1
 62
   256
176
     0
 40
1.0
176
     0
 90
        2
176
     1
  1
strokes_ogs.tif
176
     1
290
     0
176
     1
 40
1.0
176
     1
 40
1.0
176
     1
1001
ACAD
1000
AcDbSavedByObjectVersion
1070
     0
  0
VISUALSTYLE
  5
32
102
{ACAD_REACTORS
330
29
102
}
330
29
100
AcDbVisualStyle
  2
Conceptual
 70
     9
177
     3
291
     0
 70
    58
 90
        3
176
     1
 90
        2
176
     1
 90
        0
176
     1
 90
        0
176
     1
 40
0.6
176
     1
 40
30.0
176
     1
 62
     7
420
 16777215
176
     1
 90
        2
176
     1
 90
        2
176
     1
 62
     7
176
     1
 62
   257
176
     1
 90
        1
176
     1
 90
        1
176
     1
 40
179.0
176
     1
 90
        8
176
     1
 62
     7
176
     1
 40
1.0
176
     1
 90
        1
176
     1
 90
        6
176
     1
 90
        2
176
     1
 62
     7
176
     1
 90
        3
176
     1
 90
        0
176
     1
 90
        0
176
     1
290
     0
176
     1
 90
        1
176
     1
 40
0.0
176
     1
 90
        0
176
     1
290
     0
176
     1
290
     1
176
     1
290
     1
176
     1
290
     0
176
     1
290
     0
176
     1
290
     0
176
     1
290
     0
176
     1
290
     0
176
     1
290
     0
176
     1
 90
       50
176
     1
 40
0.0
176
     1
 40
1.0
176
     1
 90
        0
176
     1
 62
    18
420
        0
176
     1
 90
       50
176
     1
 90
        3
176
     1
 62
     5
420
      255
176
     1
290
     0
176
     1
 90
       50
176
     1
 90
       50
176
     1
 90
       50
176
     1
290
     0
176
     1
 90
       50
176
     1
 62
   256
176
     0
 40
1.0
176
     0
 90
        2
176
     1
  1
strokes_ogs.tif
176
     1
290
     0
176
     1
 40
1.0
176
     1
 40
1.0
176
     1
1001
ACAD
1000
AcDbSavedByObjectVersion
1070
     0
  0
VISUALSTYLE
  5
34
102
{ACAD_REACTORS
330
29
102
}
330
29
100
AcDbVisualStyle
  2
Dim
 70
    11
177
     3
291
     1
 70
    58
 90
        2
176
     1
 90
        2
176
     1
 90
        0
176
     1
 90
        0
176
     1
 40
0.6
176
     1
 40
30.0
176
     1
 62
     7
420
 16777215
176
     1
 90
        1
176
     1
 90
        4
176
     1
 62
     7
176
     1
 62
   257
176
     1
 90
        1
176
     1
 90
        1
176
     1
 40
1.0
176
     1
 90
        8
176
     1
 62
     7
176
     1
 40
1.0
176
     1
 90
        1
176
     1
 90
        6
176
     1
 90
        2
176
     1
 62
     7
176
     1
 90
        5
176
     1
 90
        0
176
     1
 90
        0
176
     1
290
     0
176
     1
 90
        1
176
     1
 40
-50.0
176
     1
 90
        0
176
     1
290
     0
176
     1
290
     1
176
     1
290
     1
176
     1
290
     0
176
     1
290
     0
176
     1
290
     0
176
     1
290
     0
176
     1
290
     0
176
     1
290
     0
176
     1
 90
       50
176
     1
 40
0.0
176
     1
 40
1.0
176
     1
 90
        0
176
     1
 62
    18
420
        0
176
     1
 90
       50
176
     1
 90
        3
176
     1
 62
     5
420
      255
176
     1
290
     0
176
     1
 90
       50
176
     1
 90
       50
176
     1
 90
       50
176
     1
290
     0
176
     1
 90
       50
176
     1
 62
   256
176
     0
 40
1.0
176
     0
 90
        2
176
     1
  1
strokes_ogs.tif
176
     1
290
     0
176
     1
 40
1.0
176
     1
 40
1.0
176
     1
1001
ACAD
1000
AcDbSavedByObjectVersion
1070
     0
  0
VISUALSTYLE
  5
41
102
{ACAD_REACTORS
330
29
102
}
330
29
100
AcDbVisualStyle
  2
EdgeColorOff
 70
    22
177
     3
291
     1
 70
    58
 90
        2
176
     0
 90
        2
176
     0
 90
        0
176
     0
 90
        0
176
     0
 40
0.6
176
     0
 40
30.0
176
     0
 62
     7
420
 16777215
176
     0
 90
        1
176
     0
 90
        4
176
     0
 62
     7
176
     0
 62
   257
176
     0
 90
        1
176
     0
 90
        1
176
     0
 40
1.0
176
     0
 90
        8
176
     2
 62
     7
176
     0
 40
1.0
176
     0
 90
        1
176
     0
 90
        6
176
     0
 90
        2
176
     0
 62
     7
176
     0
 90
        5
176
     0
 90
        0
176
     0
 90
        0
176
     0
290
     0
176
     0
 90
        1
176
     0
 40
0.0
176
     0
 90
        0
176
     0
290
     0
176
     0
290
     1
176
     0
290
     1
176
     0
290
     0
176
     0
290
     0
176
     0
290
     0
176
     0
290
     0
176
     0
290
     0
176
     0
290
     0
176
     0
 90
       50
176
     0
 40
0.0
176
     0
 40
1.0
176
     0
 90
        0
176
     0
 62
    18
420
        0
176
     0
 90
       50
176
     0
 90
        3
176
     0
 62
     5
420
      255
176
     0
290
     0
176
     0
 90
       50
176
     0
 90
       50
176
     0
 90
       50
176
     0
290
     0
176
     0
 90
       50
176
     0
 62
   256
176
     0
 40
1.0
176
     0
 90
        2
176
     0
  1
strokes_ogs.tif
176
     0
290
     0
176
     0
 40
1.0
176
     0
 40
1.0
176
     0
1001
ACAD
1000
AcDbSavedByObjectVersion
1070
     0
  0
VISUALSTYLE
  5
38
102
{ACAD_REACTORS
330
29
102
}
330
29
100
AcDbVisualStyle
  2
Facepattern
 70
    15
177
     3
291
     1
 70
    58
 90
        2
176
     1
 90
        2
176
     1
 90
        0
176
     1
 90
        0
176
     1
 40
0.6
176
     1
 40
30.0
176
     1
 62
     7
420
 16777215
176
     1
 90
        1
176
     1
 90
        4
176
     1
 62
     7
176
     1
 62
   257
176
     1
 90
        1
176
     1
 90
        1
176
     1
 40
1.0
176
     1
 90
        8
176
     1
 62
     7
176
     1
 40
1.0
176
     1
 90
        1
176
     1
 90
        6
176
     1
 90
        2
176
     1
 62
     7
176
     1
 90
        5
176
     1
 90
        0
176
     1
 90
        0
176
     1
290
     0
176
     1
 90
        1
176
     1
 40
0.0
176
     1
 90
        0
176
     1
290
     0
176
     1
290
     1
176
     1
290
     1
176
     1
290
     0
176
     1
290
     0
176
     1
290
     0
176
     1
290
     0
176
     1
290
     0
176
     1
290
     0
176
     1
 90
       50
176
     1
 40
0.0
176
     1
 40
1.0
176
     1
 90
        0
176
     1
 62
    18
420
        0
176
     1
 90
       50
176
     1
 90
        3
176
     1
 62
     5
420
      255
176
     1
290
     0
176
     1
 90
       50
176
     1
 90
       50
176
     1
 90
       50
176
     1
290
     0
176
     1
 90
       50
176
     1
 62
   256
176
     0
 40
1.0
176
     0
 90
        2
176
     1
  1
strokes_ogs.tif
176
     1
290
     0
176
     1
 40
1.0
176
     1
 40
1.0
176
     1
1001
ACAD
1000
AcDbSavedByObjectVersion
1070
     0
  0
VISUALSTYLE
  5
2A
102
{ACAD_REACTORS
330
29
102
}
330
29
100
AcDbVisualStyle
  2
Flat
 70
     0
177
     3
291
     1
 70
    58
 90
        2
176
     1
 90
        1
176
     1
 90
        1
176
     1
 90
        2
176
     1
 40
0.6
176
     1
 40
30.0
176
     1
 62
     7
420
 16777215
176
     1
 90
        0
176
     1
 90
        0
176
     1
 62
     7
176
     1
 62
   257
176
     1
 90
        1
176
     1
 90
        1
176
     1
 40
1.0
176
     1
 90
        8
176
     1
 62
     7
176
     1
 40
1.0
176
     1
 90
        1
176
     1
 90
        6
176
     1
 90
        2
176
     1
 62
     7
176
     1
 90
        5
176
     1
 90
        0
176
     1
 90
        0
176
     1
290
     0
176
     1
 90
       13
176
     1
 40
0.0
176
     1
 90
        0
176
     1
290
     0
176
     1
290
     1
176
     1
290
     1
176
     1
290
     0
176
     1
290
     0
176
     1
290
     0
176
     1
290
     0
176
     1
290
     0
176
     1
290
     0
176
     1
 90
       50
176
     1
 40
0.0
176
     1
 40
1.0
176
     1
 90
        0
176
     1
 62
    18
420
        0
176
     1
 90
       50
176
     1
 90
        3
176
     1
 62
     5
420
      255
176
     1
290
     0
176
     1
 90
       50
176
     1
 90
       50
176
     1
 90
       50
176
     1
290
     0
176
     1
 90
       50
176
     1
 62
   256
176
     0
 40
1.0
176
     0
 90
        2
176
     1
  1
strokes_ogs.tif
176
     1
290
     0
176
     1
 40
1.0
176
     1
 40
1.0
176
     1
1001
ACAD
1000
AcDbSavedByObjectVersion
1070
     0
  0
VISUALSTYLE
  5
2B
102
{ACAD_REACTORS
330
29
102
}
330
29
100
AcDbVisualStyle
  2
FlatWithEdges
 70
     1
177
     3
291
     1
 70
    58
 90
        2
176
     1
 90
        1
176
     1
 90
        1
176
     1
 90
        2
176
     1
 40
0.6
176
     1
 40
30.0
176
     1
 62
     7
420
 16777215
176
     1
 90
        1
176
     1
 90
        0
176
     1
 62
     7
176
     1
 62
   257
176
     1
 90
        1
176
     1
 90
        1
176
     1
 40
1.0
176
     1
 90
        0
176
     1
 62
   257
176
     1
 40
1.0
176
     1
 90
        1
176
     1
 90
        6
176
     1
 90
        2
176
     1
 62
     7
176
     1
 90
        5
176
     1
 90
        0
176
     1
 90
        0
176
     1
290
     0
176
     1
 90
       13
176
     1
 40
0.0
176
     1
 90
        0
176
     1
290
     0
176
     1
290
     1
176
     1
290
     1
176
     1
290
     0
176
     1
290
     0
176
     1
290
     0
176
     1
290
     0
176
     1
290
     0
176
     1
290
     0
176
     1
 90
       50
176
     1
 40
0.0
176
     1
 40
1.0
176
     1
 90
        0
176
     1
 62
    18
420
        0
176
     1
 90
       50
176
     1
 90
        3
176
     1
 62
     5
420
      255
176
     1
290
     0
176
     1
 90
       50
176
     1
 90
       50
176
     1
 90
       50
176
     1
290
     0
176
     1
 90
       50
176
     1
 62
   256
176
     0
 40
1.0
176
     0
 90
        2
176
     1
  1
strokes_ogs.tif
176
     1
290
     0
176
     1
 40
1.0
176
     1
 40
1.0
176
     1
1001
ACAD
1000
AcDbSavedByObjectVersion
1070
     0
  0
VISUALSTYLE
  5
2C
102
{ACAD_REACTORS
330
29
102
}
330
29
100
AcDbVisualStyle
  2
Gouraud
 70
     2
177
     3
291
     1
 70
    58
 90
        2
176
     1
 90
        2
176
     1
 90
        1
176
     1
 90
        2
176
     1
 40
0.6
176
     1
 40
30.0
176
     1
 62
     7
420
 16777215
176
     1
 90
        0
176
     1
 90
        0
176
     1
 62
     7
176
     1
 62
   257
176
     1
 90
        1
176
     1
 90
        1
176
     1
 40
1.0
176
     1
 90
        0
176
     1
 62
     7
176
     1
 40
1.0
176
     1
 90
        1
176
     1
 90
        6
176
     1
 90
        2
176
     1
 62
     7
176
     1
 90
        5
176
     1
 90
        0
176
     1
 90
        0
176
     1
290
     0
176
     1
 90
       13
176
     1
 40
0.0
176
     1
 90
        0
176
     1
290
     0
176
     1
290
     1
176
     1
290
     1
176
     1
290
     0
176
     1
290
     0
176
     1
290
     0
176
     1
290
     0
176
     1
290
     0
176
     1
290
     0
176
     1
 90
       50
176
     1
 40
0.0
176
     1
 40
1.0
176
     1
 90
        0
176
     1
 62
    18
420
        0
176
     1
 90
       50
176
     1
 90
        3
176
     1
 62
     5
420
      255
176
     1
290
     0
176
     1
 90
       50
176
     1
 90
       50
176
     1
 90
       50
176
     1
290
     0
176
     1
 90
       50
176
     1
 62
   256
176
     0
 40
1.0
176
     0
 90
        2
176
     1
  1
strokes_ogs.tif
176
     1
290
     0
176
     1
 40
1.0
176
     1
 40
1.0
176
     1
1001
ACAD
1000
AcDbSavedByObjectVersion
1070
     0
  0
VISUALSTYLE
  5
2D
102
{ACAD_REACTORS
330
29
102
}
330
29
100
AcDbVisualStyle
  2
GouraudWithEdges
 70
     3
177
     3
291
     1
 70
    58
 90
        2
176
     1
 90
        2
176
     1
 90
        1
176
     1
 90
        2
176
     1
 40
0.6
176
     1
 40
30.0
176
     1
 62
     7
420
 16777215
176
     1
 90
        1
176
     1
 90
        0
176
     1
 62
     7
176
     1
 62
   257
176
     1
 90
        1
176
     1
 90
        1
176
     1
 40
1.0
176
     1
 90
        0
176
     1
 62
   257
176
     1
 40
1.0
176
     1
 90
        1
176
     1
 90
        6
176
     1
 90
        2
176
     1
 62
     7
176
     1
 90
        5
176
     1
 90
        0
176
     1
 90
        0
176
     1
290
     0
176
     1
 90
       13
176
     1
 40
0.0
176
     1
 90
        0
176
     1
290
     0
176
     1
290
     1
176
     1
290
     1
176
     1
290
     0
176
     1
290
     0
176
     1
290
     0
176
     1
290
     0
176
     1
290
     0
176
     1
290
     0
176
     1
 90
       50
176
     1
 40
0.0
176
     1
 40
1.0
176
     1
 90
        0
176
     1
 62
    18
420
        0
176
     1
 90
       50
176
     1
 90
        3
176
     1
 62
     5
420
      255
176
     1
290
     0
176
     1
 90
       50
176
     1
 90
       50
176
     1
 90
       50
176
     1
290
     0
176
     1
 90
       50
176
     1
 62
   256
176
     0
 40
1.0
176
     0
 90
        2
176
     1
  1
strokes_ogs.tif
176
     1
290
     0
176
     1
 40
1.0
176
     1
 40
1.0
176
     1
1001
ACAD
1000
AcDbSavedByObjectVersion
1070
     0
  0
VISUALSTYLE
  5
31
102
{ACAD_REACTORS
330
29
102
}
330
29
100
AcDbVisualStyle
  2
Hidden
 70
     6
177
     3
291
     0
 70
    58
 90
        1
176
     1
 90
        2
176
     1
 90
        2
176
     1
 90
        0
176
     1
 40
0.6
176
     1
 40
30.0
176
     1
 62
     7
420
 16777215
176
     1
 90
        2
176
     1
 90
        2
176
     1
 62
     7
176
     1
 62
   257
176
     1
 90
        2
176
     1
 90
        1
176
     1
 40
40.0
176
     1
 90
        0
176
     1
 62
   257
176
     1
 40
1.0
176
     1
 90
        1
176
     1
 90
        6
176
     1
 90
        2
176
     1
 62
     7
176
     1
 90
        3
176
     1
 90
        0
176
     1
 90
        0
176
     1
290
     0
176
     1
 90
        1
176
     1
 40
0.0
176
     1
 90
        0
176
     1
290
     0
176
     1
290
     1
176
     1
290
     1
176
     1
290
     0
176
     1
290
     0
176
     1
290
     0
176
     1
290
     0
176
     1
290
     0
176
     1
290
     0
176
     1
 90
       50
176
     1
 40
0.0
176
     1
 40
1.0
176
     1
 90
        0
176
     1
 62
    18
420
        0
176
     1
 90
       50
176
     1
 90
        3
176
     1
 62
     5
420
      255
176
     1
290
     0
176
     1
 90
       50
176
     1
 90
       50
176
     1
 90
       50
176
     1
290
     0
176
     1
 90
       50
176
     1
 62
   256
176
     0
 40
1.0
176
     0
 90
        2
176
     1
  1
strokes_ogs.tif
176
     1
290
     0
176
     1
 40
1.0
176
     1
 40
1.0
176
     1
1001
ACAD
1000
AcDbSavedByObjectVersion
1070
     0
  0
VISUALSTYLE
  5
3F
102
{ACAD_REACTORS
330
29
102
}
330
29
100
AcDbVisualStyle
  2
JitterOff
 70
    20
177
     3
291
     1
 70
    58
 90
        2
176
     0
 90
        2
176
     0
 90
        0
176
     0
 90
        0
176
     0
 40
0.6
176
     0
 40
30.0
176
     0
 62
     7
420
 16777215
176
     0
 90
        1
176
     0
 90
        4
176
     0
 62
     7
176
     0
 62
   257
176
     0
 90
        1
176
     0
 90
        1
176
     0
 40
1.0
176
     0
 90
       10
176
     2
 62
     7
176
     0
 40
1.0
176
     0
 90
        1
176
     0
 90
        6
176
     0
 90
        2
176
     0
 62
     7
176
     0
 90
        5
176
     0
 90
        0
176
     0
 90
        0
176
     0
290
     0
176
     0
 90
        1
176
     0
 40
0.0
176
     0
 90
        0
176
     0
290
     0
176
     0
290
     1
176
     0
290
     1
176
     0
290
     0
176
     0
290
     0
176
     0
290
     0
176
     0
290
     0
176
     0
290
     0
176
     0
290
     0
176
     0
 90
       50
176
     0
 40
0.0
176
     0
 40
1.0
176
     0
 90
        0
176
     0
 62
    18
420
        0
176
     0
 90
       50
176
     0
 90
        3
176
     0
 62
     5
420
      255
176
     0
290
     0
176
     0
 90
       50
176
     0
 90
       50
176
     0
 90
       50
176
     0
290
     0
176
     0
 90
       50
176
     0
 62
   256
176
     0
 40
1.0
176
     0
 90
        2
176
     0
  1
strokes_ogs.tif
176
     0
290
     0
176
     0
 40
1.0
176
     0
 40
1.0
176
     0
1001
ACAD
1000
AcDbSavedByObjectVersion
1070
     0
  0
VISUALSTYLE
  5
37
102
{ACAD_REACTORS
330
29
102
}
330
29
100
AcDbVisualStyle
  2
Linepattern
 70
    14
177
     3
291
     1
 70
    58
 90
        2
176
     1
 90
        2
176
     1
 90
        0
176
     1
 90
        0
176
     1
 40
0.6
176
     1
 40
30.0
176
     1
 62
     7
420
 16777215
176
     1
 90
        1
176
     1
 90
        4
176
     1
 62
     7
176
     1
 62
   257
176
     1
 90
        7
176
     1
 90
        7
176
     1
 40
1.0
176
     1
 90
        8
176
     1
 62
     7
176
     1
 40
1.0
176
     1
 90
        1
176
     1
 90
        6
176
     1
 90
        2
176
     1
 62
     7
176
     1
 90
        5
176
     1
 90
        0
176
     1
 90
        0
176
     1
290
     0
176
     1
 90
        1
176
     1
 40
0.0
176
     1
 90
        0
176
     1
290
     0
176
     1
290
     1
176
     1
290
     1
176
     1
290
     0
176
     1
290
     0
176
     1
290
     0
176
     1
290
     0
176
     1
290
     0
176
     1
290
     0
176
     1
 90
       50
176
     1
 40
0.0
176
     1
 40
1.0
176
     1
 90
        0
176
     1
 62
    18
420
        0
176
     1
 90
       50
176
     1
 90
        3
176
     1
 62
     5
420
      255
176
     1
290
     0
176
     1
 90
       50
176
     1
 90
       50
176
     1
 90
       50
176
     1
290
     0
176
     1
 90
       50
176
     1
 62
   256
176
     0
 40
1.0
176
     0
 90
        2
176
     1
  1
strokes_ogs.tif
176
     1
290
     0
176
     1
 40
1.0
176
     1
 40
1.0
176
     1
1001
ACAD
1000
AcDbSavedByObjectVersion
1070
     0
  0
VISUALSTYLE
  5
40
102
{ACAD_REACTORS
330
29
102
}
330
29
100
AcDbVisualStyle
  2
OverhangOff
 70
    21
177
     3
291
     1
 70
    58
 90
        2
176
     0
 90
        2
176
     0
 90
        0
176
     0
 90
        0
176
     0
 40
0.6
176
     0
 40
30.0
176
     0
 62
     7
420
 16777215
176
     0
 90
        1
176
     0
 90
        4
176
     0
 62
     7
176
     0
 62
   257
176
     0
 90
        1
176
     0
 90
        1
176
     0
 40
1.0
176
     0
 90
        9
176
     2
 62
     7
176
     0
 40
1.0
176
     0
 90
        1
176
     0
 90
        6
176
     0
 90
        2
176
     0
 62
     7
176
     0
 90
        5
176
     0
 90
        0
176
     0
 90
        0
176
     0
290
     0
176
     0
 90
        1
176
     0
 40
0.0
176
     0
 90
        0
176
     0
290
     0
176
     0
290
     1
176
     0
290
     1
176
     0
290
     0
176
     0
290
     0
176
     0
290
     0
176
     0
290
     0
176
     0
290
     0
176
     0
290
     0
176
     0
 90
       50
176
     0
 40
0.0
176
     0
 40
1.0
176
     0
 90
        0
176
     0
 62
    18
420
        0
176
     0
 90
       50
176
     0
 90
        3
176
     0
 62
     5
420
      255
176
     0
290
     0
176
     0
 90
       50
176
     0
 90
       50
176
     0
 90
       50
176
     0
290
     0
176
     0
 90
       50
176
     0
 62
   256
176
     0
 40
1.0
176
     0
 90
        2
176
     0
  1
strokes_ogs.tif
176
     0
290
     0
176
     0
 40
1.0
176
     0
 40
1.0
176
     0
1001
ACAD
1000
AcDbSavedByObjectVersion
1070
     0
  0
VISUALSTYLE
  5
33
102
{ACAD_REACTORS
330
29
102
}
330
29
100
AcDbVisualStyle
  2
Realistic
 70
     8
177
     3
291
     0
 70
    58
 90
        2
176
     1
 90
        3
176
     1
 90
        0
176
     1
 90
        2
176
     1
 40
0.6
176
     1
 40
30.0
176
     1
 62
     7
420
 16777215
176
     1
 90
        0
176
     1
 90
        0
176
     1
 62
     7
176
     1
 62
   257
176
     1
 90
        1
176
     1
 90
        1
176
     1
 40
1.0
176
     1
 90
        8
176
     1
 62
   257
176
     1
 40
1.0
176
     1
 90
        1
176
     1
 90
        6
176
     1
 90
        2
176
     1
 62
     7
176
     1
 90
        3
176
     1
 90
        0
176
     1
 90
        0
176
     1
290
     0
176
     1
 90
       13
176
     1
 40
0.0
176
     1
 90
        0
176
     1
290
     0
176
     1
290
     1
176
     1
290
     1
176
     1
290
     0
176
     1
290
     0
176
     1
290
     0
176
     1
290
     0
176
     1
290
     0
176
     1
290
     0
176
     1
 90
       50
176
     1
 40
0.0
176
     1
 40
1.0
176
     1
 90
        0
176
     1
 62
    18
420
        0
176
     1
 90
       50
176
     1
 90
        3
176
     1
 62
     5
420
      255
176
     1
290
     0
176
     1
 90
       50
176
     1
 90
       50
176
     1
 90
       50
176
     1
290
     0
176
     1
 90
       50
176
     1
 62
   256
176
     0
 40
1.0
176
     0
 90
        2
176
     1
  1
strokes_ogs.tif
176
     1
290
     0
176
     1
 40
1.0
176
     1
 40
1.0
176
     1
1001
ACAD
1000
AcDbSavedByObjectVersion
1070
     0
  0
VISUALSTYLE
  5
3E
102
{ACAD_REACTORS
330
29
102
}
330
29
100
AcDbVisualStyle
  2
Shaded
 70
    27
177
     3
291
     0
 70
    58
 90
        2
176
     1
 90
        2
176
     1
 90
        1
176
     1
 90
        2
176
     1
 40
0.6
176
     1
 40
30.0
176
     1
 62
     7
420
 16777215
176
     1
 90
        0
176
     1
 90
        4
176
     1
 62
     7
176
     1
 62
   257
176
     1
 90
        1
176
     1
 90
        1
176
     1
 40
1.0
176
     1
 90
        8
176
     1
 62
   257
176
     1
 40
1.0
176
     1
 90
        1
176
     1
 90
        6
176
     1
 90
        2
176
     1
 62
     8
420
  7895160
176
     1
 90
        3
176
     1
 90
        0
176
     1
 90
        0
176
     1
290
     0
176
     1
 90
        5
176
     1
 40
0.0
176
     1
 90
        0
176
     1
290
     0
176
     1
290
     1
176
     1
290
     1
176
     1
290
     0
176
     1
290
     0
176
     1
290
     0
176
     1
290
     0
176
     1
290
     0
176
     1
290
     0
176
     1
 90
       50
176
     1
 40
0.0
176
     1
 40
1.0
176
     1
 90
        0
176
     1
 62
    18
420
        0
176
     1
 90
       50
176
     1
 90
        3
176
     1
 62
     5
420
      255
176
     1
290
     0
176
     1
 90
       50
176
     1
 90
       50
176
     1
 90
       50
176
     1
290
     0
176
     1
 90
       50
176
     1
 62
   256
176
     0
 40
1.0
176
     0
 90
        2
176
     1
  1
strokes_ogs.tif
176
     1
290
     0
176
     1
 40
1.0
176
     1
 40
1.0
176
     1
1001
ACAD
1000
AcDbSavedByObjectVersion
1070
     0
  0
VISUALSTYLE
  5
3D
102
{ACAD_REACTORS
330
29
102
}
330
29
100
AcDbVisualStyle
  2
Shaded with edges
 70
    26
177
     3
291
     0
 70
    58
 90
        2
176
     1
 90
        2
176
     1
 90
        1
176
     1
 90
        2
176
     1
 40
0.6
176
     1
 40
30.0
176
     1
 62
     7
420
 16777215
176
     1
 90
        1
176
     1
 90
        2
176
     1
 62
     7
176
     1
 62
   257
176
     1
 90
        2
176
     1
 90
        1
176
     1
 40
1.0
176
     1
 90
        8
176
     1
 62
   257
176
     1
 40
1.0
176
     1
 90
        1
176
     1
 90
        6
176
     1
 90
        2
176
     1
 62
     7
176
     1
 90
        3
176
     1
 90
        0
176
     1
 90
        0
176
     1
290
     0
176
     1
 90
        5
176
     1
 40
0.0
176
     1
 90
        0
176
     1
290
     0
176
     1
290
     1
176
     1
290
     1
176
     1
290
     0
176
     1
290
     0
176
     1
290
     0
176
     1
290
     0
176
     1
290
     0
176
     1
290
     0
176
     1
 90
       50
176
     1
 40
0.0
176
     1
 40
1.0
176
     1
 90
        0
176
     1
 62
    18
420
        0
176
     1
 90
       50
176
     1
 90
        3
176
     1
 62
     5
420
      255
176
     1
290
     0
176
     1
 90
       50
176
     1
 90
       50
176
     1
 90
       50
176
     1
290
     0
176
     1
 90
       50
176
     1
 62
   256
176
     0
 40
1.0
176
     0
 90
        2
176
     1
  1
strokes_ogs.tif
176
     1
290
     0
176
     1
 40
1.0
176
     1
 40
1.0
176
     1
1001
ACAD
1000
AcDbSavedByObjectVersion
1070
     0
  0
VISUALSTYLE
  5
3A
102
{ACAD_REACTORS
330
29
102
}
330
29
100
AcDbVisualStyle
  2
Shades of Gray
 70
    23
177
     3
291
     0
 70
    58
 90
        2
176
     1
 90
        2
176
     1
 90
        3
176
     1
 90
        0
176
     1
 40
0.6
176
     1
 40
30.0
176
     1
 62
     7
420
 16777215
176
     1
 90
        2
176
     1
 90
        2
176
     1
 62
     7
176
     1
 62
     7
176
     1
 90
        1
176
     1
 90
        1
176
     1
 40
40.0
176
     1
 90
        8
176
     1
 62
     7
176
     1
 40
1.0
176
     1
 90
        1
176
     1
 90
        6
176
     1
 90
        2
176
     1
 62
     7
176
     1
 90
        3
176
     1
 90
        0
176
     1
 90
        0
176
     1
290
     0
176
     1
 90
        1
176
     1
 40
0.0
176
     1
 90
        0
176
     1
290
     0
176
     1
290
     1
176
     1
290
     1
176
     1
290
     0
176
     1
290
     0
176
     1
290
     0
176
     1
290
     0
176
     1
290
     0
176
     1
290
     0
176
     1
 90
       50
176
     1
 40
0.0
176
     1
 40
1.0
176
     1
 90
        0
176
     1
 62
    18
420
        0
176
     1
 90
       50
176
     1
 90
        3
176
     1
 62
     5
420
      255
176
     1
290
     0
176
     1
 90
       50
176
     1
 90
       50
176
     1
 90
       50
176
     1
290
     0
176
     1
 90
       50
176
     1
 62
   256
176
     0
 40
1.0
176
     0
 90
        2
176
     1
  1
strokes_ogs.tif
176
     1
290
     0
176
     1
 40
1.0
176
     1
 40
1.0
176
     1
1001
ACAD
1000
AcDbSavedByObjectVersion
1070
     0
  0
VISUALSTYLE
  5
3B
102
{ACAD_REACTORS
330
29
102
}
330
29
100
AcDbVisualStyle
  2
Sketchy
 70
    24
177
     3
291
     0
 70
    58
 90
        1
176
     1
 90
        2
176
     1
 90
        2
176
     1
 90
        0
176
     1
 40
0.6
176
     1
 40
30.0
176
     1
 62
     7
420
 16777215
176
     1
 90
        2
176
     1
 90
        2
176
     1
 62
     7
176
     1
 62
     7
176
     1
 90
        1
176
     1
 90
        1
176
     1
 40
40.0
176
     1
 90
       11
176
     1
 62
     7
176
     1
 40
1.0
176
     1
 90
        1
176
     1
 90
        6
176
     1
 90
        2
176
     1
 62
     7
176
     1
 90
        6
176
     1
 90
        0
176
     1
 90
        0
176
     1
290
     0
176
     1
 90
        1
176
     1
 40
0.0
176
     1
 90
        0
176
     1
290
     0
176
     1
290
     1
176
     1
290
     1
176
     1
290
     0
176
     1
290
     0
176
     1
290
     0
176
     1
290
     0
176
     1
290
     0
176
     1
290
     0
176
     1
 90
       50
176
     1
 40
0.0
176
     1
 40
1.0
176
     1
 90
        0
176
     1
 62
    18
420
        0
176
     1
 90
       50
176
     1
 90
        3
176
     1
 62
     5
420
      255
176
     1
290
     0
176
     1
 90
       50
176
     1
 90
       50
176
     1
 90
       50
176
     1
290
     0
176
     1
 90
       50
176
     1
 62
   256
176
     0
 40
1.0
176
     0
 90
        2
176
     1
  1
strokes_ogs.tif
176
     1
290
     0
176
     1
 40
1.0
176
     1
 40
1.0
176
     1
1001
ACAD
1000
AcDbSavedByObjectVersion
1070
     0
  0
VISUALSTYLE
  5
36
102
{ACAD_REACTORS
330
29
102
}
330
29
100
AcDbVisualStyle
  2
Thicken
 70
    13
177
     3
291
     1
 70
    58
 90
        2
176
     1
 90
        2
176
     1
 90
        0
176
     1
 90
        0
176
     1
 40
0.6
176
     1
 40
30.0
176
     1
 62
     7
420
 16777215
176
     1
 90
        1
176
     1
 90
        4
176
     1
 62
     7
176
     1
 62
   257
176
     1
 90
        1
176
     1
 90
        1
176
     1
 40
1.0
176
     1
 90
       12
176
     1
 62
     7
176
     1
 40
1.0
176
     1
 90
        1
176
     1
 90
        6
176
     1
 90
        2
176
     1
 62
     7
176
     1
 90
        5
176
     1
 90
        0
176
     1
 90
        0
176
     1
290
     0
176
     1
 90
        1
176
     1
 40
0.0
176
     1
 90
        0
176
     1
290
     0
176
     1
290
     1
176
     1
290
     1
176
     1
290
     0
176
     1
290
     0
176
     1
290
     0
176
     1
290
     0
176
     1
290
     0
176
     1
290
     0
176
     1
 90
       50
176
     1
 40
0.0
176
     1
 40
1.0
176
     1
 90
        0
176
     1
 62
    18
420
        0
176
     1
 90
       50
176
     1
 90
        3
176
     1
 62
     5
420
      255
176
     1
290
     0
176
     1
 90
       50
176
     1
 90
       50
176
     1
 90
       50
176
     1
290
     0
176
     1
 90
       50
176
     1
 62
   256
176
     0
 40
1.0
176
     0
 90
        2
176
     1
  1
strokes_ogs.tif
176
     1
290
     0
176
     1
 40
1.0
176
     1
 40
1.0
176
     1
1001
ACAD
1000
AcDbSavedByObjectVersion
1070
     0
  0
VISUALSTYLE
  5
30
102
{ACAD_REACTORS
330
29
102
}
330
29
100
AcDbVisualStyle
  2
Wireframe
 70
     5
177
     3
291
     0
 70
    58
 90
        0
176
     1
 90
        2
176
     1
 90
        0
176
     1
 90
        0
176
     1
 40
0.6
176
     1
 40
30.0
176
     1
 62
     7
420
 16777215
176
     1
 90
        1
176
     1
 90
        4
176
     1
 62
     7
176
     1
 62
   257
176
     1
 90
        1
176
     1
 90
        1
176
     1
 40
1.0
176
     1
 90
        0
176
     1
 62
   257
176
     1
 40
1.0
176
     1
 90
        1
176
     1
 90
        6
176
     1
 90
        2
176
     1
 62
     7
176
     1
 90
        3
176
     1
 90
        0
176
     1
 90
        0
176
     1
290
     0
176
     1
 90
        1
176
     1
 40
0.0
176
     1
 90
        0
176
     1
290
     0
176
     1
290
     1
176
     1
290
     1
176
     1
290
     0
176
     1
290
     0
176
     1
290
     0
176
     1
290
     0
176
     1
290
     0
176
     1
290
     0
176
     1
 90
       50
176
     1
 40
0.0
176
     1
 40
1.0
176
     1
 90
        0
176
     1
 62
    18
420
        0
176
     1
 90
       50
176
     1
 90
        3
176
     1
 62
     5
420
      255
176
     1
290
     0
176
     1
 90
       50
176
     1
 90
       50
176
     1
 90
       50
176
     1
290
     0
176
     1
 90
       50
176
     1
 62
   256
176
     0
 40
1.0
176
     0
 90
        2
176
     1
  1
strokes_ogs.tif
176
     1
290
     0
176
     1
 40
1.0
176
     1
 40
1.0
176
     1
1001
ACAD
1000
AcDbSavedByObjectVersion
1070
     0
  0
VISUALSTYLE
  5
3C
102
{ACAD_REACTORS
330
29
102
}
330
29
100
AcDbVisualStyle
  2
X-Ray
 70
    25
177
     3
291
     0
 70
    58
 90
        2
176
     1
 90
        2
176
     1
 90
        1
176
     1
 90
        1
176
     1
 40
0.5
176
     1
 40
30.0
176
     1
 62
     7
420
 16777215
176
     1
 90
        1
176
     1
 90
        0
176
     1
 62
     7
176
     1
 62
   257
176
     1
 90
        1
176
     1
 90
        1
176
     1
 40
1.0
176
     1
 90
        8
176
     1
 62
     7
176
     1
 40
1.0
176
     1
 90
        1
176
     1
 90
        6
176
     1
 90
        2
176
     1
 62
     7
176
     1
 90
        3
176
     1
 90
        0
176
     1
 90
        0
176
     1
290
     0
176
     1
 90
       13
176
     1
 40
0.0
176
     1
 90
        0
176
     1
290
     0
176
     1
290
     1
176
     1
290
     1
176
     1
290
     0
176
     1
290
     0
176
     1
290
     0
176
     1
290
     0
176
     1
290
     0
176
     1
290
     0
176
     1
 90
       50
176
     1
 40
0.0
176
     1
 40
1.0
176
     1
 90
        0
176
     1
 62
    18
420
        0
176
     1
 90
       50
176
     1
 90
        3
176
     1
 62
     5
420
      255
176
     1
290
     0
176
     1
 90
       50
176
     1
 90
       50
176
     1
 90
       50
176
     1
290
     0
176
     1
 90
       50
176
     1
 62
   256
176
     0
 40
1.0
176
     0
 90
        2
176
     1
  1
strokes_ogs.tif
176
     1
290
     0
176
     1
 40
1.0
176
     1
 40
1.0
176
     1
1001
ACAD
1000
AcDbSavedByObjectVersion
1070
     0
  0
DICTIONARYVAR
  5
8A3
102
{ACAD_REACTORS
330
89E
102
}
330
89E
100
DictionaryVariables
280
     0
  1
0
  0
DICTIONARYVAR
  5
8A4
102
{ACAD_REACTORS
330
89E
102
}
330
89E
100
DictionaryVariables
280
     0
  1
1:1
  0
DICTIONARYVAR
  5
8A0
102
{ACAD_REACTORS
330
89E
102
}
330
89E
100
DictionaryVariables
280
     0
  1
STANDARD
  0
DICTIONARYVAR
  5
89F
102
{ACAD_REACTORS
330
89E
102
}
330
89E
100
DictionaryVariables
280
     0
  1
STANDARD
  0
DICTIONARYVAR
  5
8A1
102
{ACAD_REACTORS
330
89E
102
}
330
89E
100
DictionaryVariables
280
     0
  1
Imperial24
  0
DICTIONARYVAR
  5
8A2
102
{ACAD_REACTORS
330
89E
102
}
330
89E
100
DictionaryVariables
280
     0
  1
Imperial24
  0
DICTIONARY
  5
8AB
330
6B
100
AcDbDictionary
280
     1
281
     1
  3
ACAD_XREC_ROUNDTRIP
360
8AC
  0
DICTIONARY
  5
1A
330
19
100
AcDbDictionary
280
     1
281
     1
  3
BUMPTILE
360
1C
  3
DIFFUSETILE
360
1B
  3
OPACITYTILE
360
1F
  3
REFLECTIONTILE
360
1E
  3
REFRACTIONTILE
360
20
  3
SPECULARTILE
360
1D
  0
DICTIONARY
  5
12
330
11
100
AcDbDictionary
280
     1
281
     1
  3
BUMPTILE
360
14
  3
DIFFUSETILE
360
13
  3
OPACITYTILE
360
17
  3
REFLECTIONTILE
360
16
  3
REFRACTIONTILE
360
18
  3
SPECULARTILE
360
15
  0
DICTIONARY
  5
22
330
21
100
AcDbDictionary
280
     1
281
     1
  3
BUMPTILE
360
24
  3
DIFFUSETILE
360
23
  3
OPACITYTILE
360
27
  3
REFLECTIONTILE
360
26
  3
REFRACTIONTILE
360
28
  3
SPECULARTILE
360
25
  0
DICTIONARY
  5
8A9
330
69
100
AcDbDictionary
280
     1
281
     1
  3
ACAD_XREC_ROUNDTRIP
360
8AA
  0
DICTIONARY
  5
8A5
330
65
100
AcDbDictionary
280
     1
281
     1
  3
ACAD_ROUNDTRIP_2008_TABLESTYLE_CELLSTYLEMAP
360
8A6
  0
XRECORD
  5
8AC
102
{ACAD_REACTORS
330
8AB
102
}
330
8AB
100
AcDbXrecord
280
     1
102
DISPLAYNAME
  1
Imperial24
102
FLAGS
 90
        0
  0
XRECORD
  5
1C
102
{ACAD_REACTORS
330
1A
102
}
330
1A
100
AcDbXrecord
280
     1
270
     1
271
     1
  0
XRECORD
  5
1B
102
{ACAD_REACTORS
330
1A
102
}
330
1A
100
AcDbXrecord
280
     1
270
     1
271
     1
  0
XRECORD
  5
1F
102
{ACAD_REACTORS
330
1A
102
}
330
1A
100
AcDbXrecord
280
     1
270
     1
271
     1
  0
XRECORD
  5
1E
102
{ACAD_REACTORS
330
1A
102
}
330
1A
100
AcDbXrecord
280
     1
270
     1
271
     1
  0
XRECORD
  5
20
102
{ACAD_REACTORS
330
1A
102
}
330
1A
100
AcDbXrecord
280
     1
270
     1
271
     1
  0
XRECORD
  5
1D
102
{ACAD_REACTORS
330
1A
102
}
330
1A
100
AcDbXrecord
280
     1
270
     1
271
     1
  0
XRECORD
  5
14
102
{ACAD_REACTORS
330
12
102
}
330
12
100
AcDbXrecord
280
     1
270
     1
271
     1
  0
XRECORD
  5
13
102
{ACAD_REACTORS
330
12
102
}
330
12
100
AcDbXrecord
280
     1
270
     1
271
     1
  0
XRECORD
  5
17
102
{ACAD_REACTORS
330
12
102
}
330
12
100
AcDbXrecord
280
     1
270
     1
271
     1
  0
XRECORD
  5
16
102
{ACAD_REACTORS
330
12
102
}
330
12
100
AcDbXrecord
280
     1
270
     1
271
     1
  0
XRECORD
  5
18
102
{ACAD_REACTORS
330
12
102
}
330
12
100
AcDbXrecord
280
     1
270
     1
271
     1
  0
XRECORD
  5
15
102
{ACAD_REACTORS
330
12
102
}
330
12
100
AcDbXrecord
280
     1
270
     1
271
     1
  0
XRECORD
  5
24
102
{ACAD_REACTORS
330
22
102
}
330
22
100
AcDbXrecord
280
     1
270
     1
271
     1
  0
XRECORD
  5
23
102
{ACAD_REACTORS
330
22
102
}
330
22
100
AcDbXrecord
280
     1
270
     1
271
     1
  0
XRECORD
  5
27
102
{ACAD_REACTORS
330
22
102
}
330
22
100
AcDbXrecord
280
     1
270
     1
271
     1
  0
XRECORD
  5
26
102
{ACAD_REACTORS
330
22
102
}
330
22
100
AcDbXrecord
280
     1
270
     1
271
     1
  0
XRECORD
  5
28
102
{ACAD_REACTORS
330
22
102
}
330
22
100
AcDbXrecord
280
     1
270
     1
271
     1
  0
XRECORD
  5
25
102
{ACAD_REACTORS
330
22
102
}
330
22
100
AcDbXrecord
280
     1
270
     1
271
     1
  0
XRECORD
  5
8AA
102
{ACAD_REACTORS
330
8A9
102
}
330
8A9
100
AcDbXrecord
280
     1
102
DISPLAYNAME
  1
Imperial24
102
FLAGS
 90
        0
  0
CELLSTYLEMAP
  5
8A6
102
{ACAD_REACTORS
330
8A5
102
}
330
8A5
100
AcDbCellStyleMap
 90
        3
300
CELLSTYLE
  1
TABLEFORMAT_BEGIN
 90
        5
170
     1
 91
        0
 92
    32768
 62
   257
 93
        1
300
CONTENTFORMAT
  1
CONTENTFORMAT_BEGIN
 90
        0
 91
        0
 92
      512
 93
        0
300

 40
0.0
140
1.0
 94
        5
 62
     0
340
55
144
0.25
309
CONTENTFORMAT_END
171
     0
 94
        0
309
TABLEFORMAT_END
  1
CELLSTYLE_BEGIN
 90
        1
 91
        1
300
_TITLE
309
CELLSTYLE_END
300
CELLSTYLE
  1
TABLEFORMAT_BEGIN
 90
        5
170
     1
 91
        0
 92
        0
 62
   257
 93
        1
300
CONTENTFORMAT
  1
CONTENTFORMAT_BEGIN
 90
        0
 91
        0
 92
      512
 93
        0
300

 40
0.0
140
1.0
 94
        5
 62
     0
340
55
144
0.18
309
CONTENTFORMAT_END
171
     0
 94
        0
309
TABLEFORMAT_END
  1
CELLSTYLE_BEGIN
 90
        2
 91
        1
300
_HEADER
309
CELLSTYLE_END
300
CELLSTYLE
  1
TABLEFORMAT_BEGIN
 90
        5
170
     1
 91
        0
 92
        0
 62
   257
 93
        1
300
CONTENTFORMAT
  1
CONTENTFORMAT_BEGIN
 90
        0
 91
        0
 92
      512
 93
        0
300

 40
0.0
140
1.0
 94
        2
 62
     0
340
55
144
0.18
309
CONTENTFORMAT_END
171
     0
 94
        0
309
TABLEFORMAT_END
  1
CELLSTYLE_BEGIN
 90
        3
 91
        2
300
_DATA
309
CELLSTYLE_END
  0
ENDSEC
  0
EOF
