  0
SECTION
  2
HEADER
  9
$ACADVER
  1
AC1027
  9
$ACADMAINTVER
 70
   125
  9
$DWGCODEPAGE
  3
ANSI_1252
  9
$LASTSAVEDBY
  1
Administrator
  9
$REQUIREDVERSIONS
160
                 0
  9
$INSBASE
 10
0.0
 20
0.0
 30
0.0
  9
$EXTMIN
 10
0.0
 20
0.0
 30
-1.234394
  9
$EXTMAX
 10
17.0
 20
11.0
 30
2.084561
  9
$LIMMIN
 10
0.0
 20
0.0
  9
$LIMMAX
 10
17.0
 20
11.0
  9
$ORTHOMODE
 70
     0
  9
$REGENMODE
 70
     1
  9
$FILLMODE
 70
     1
  9
$QTEXTMODE
 70
     0
  9
$MIRRTEXT
 70
     0
  9
$LTSCALE
 40
0.75
  9
$ATTMODE
 70
     1
  9
$TEXTSIZE
 40
0.12
  9
$TRACEWID
 40
0.05
  9
$TEXTSTYLE
  7
Standard
  9
$CLAYER
  8
Titleblock
  9
$CELTYPE
  6
ByLayer
  9
$CECOLOR
 62
   256
  9
$CELTSCALE
 40
1.0
  9
$DISPSILH
 70
     0
  9
$DIMSCALE
 40
1.0
  9
$DIMASZ
 40
0.12
  9
$DIMEXO
 40
0.05
  9
$DIMDLI
 40
0.339411
  9
$DIMRND
 40
0.0
  9
$DIMDLE
 40
0.0
  9
$DIMEXE
 40
0.1
  9
$DIMTP
 40
0.01
  9
$DIMTM
 40
0.01
  9
$DIMTXT
 40
0.12
  9
$DIMCEN
 40
0.0
  9
$DIMTSZ
 40
0.0
  9
$DIMTOL
 70
     0
  9
$DIMLIM
 70
     0
  9
$DIMTIH
 70
     1
  9
$DIMTOH
 70
     1
  9
$DIMSE1
 70
     0
  9
$DIMSE2
 70
     0
  9
$DIMTAD
 70
     0
  9
$DIMZIN
 70
    12
  9
$DIMBLK
  1

  9
$DIMASO
 70
     1
  9
$DIMSHO
 70
     1
  9
$DIMPOST
  1
in
  9
$DIMAPOST
  1
mm
  9
$DIMALT
 70
     0
  9
$DIMALTD
 70
     2
  9
$DIMALTF
 40
25.4
  9
$DIMLFAC
 40
1.0
  9
$DIMTOFL
 70
     0
  9
$DIMTVP
 40
0.0
  9
$DIMTIX
 70
     0
  9
$DIMSOXD
 70
     0
  9
$DIMSAH
 70
     0
  9
$DIMBLK1
  1

  9
$DIMBLK2
  1

  9
$DIMSTYLE
  2
Standard
  9
$DIMCLRD
 70
   256
  9
$DIMCLRE
 70
   256
  9
$DIMCLRT
 70
   256
  9
$DIMTFAC
 40
1.0
  9
$DIMGAP
 40
0.06
  9
$DIMJUST
 70
     0
  9
$DIMSD1
 70
     0
  9
$DIMSD2
 70
     0
  9
$DIMTOLJ
 70
     1
  9
$DIMTZIN
 70
    12
  9
$DIMALTZ
 70
    12
  9
$DIMALTTZ
 70
    12
  9
$DIMUPT
 70
     0
  9
$DIMDEC
 70
     2
  9
$DIMTDEC
 70
     2
  9
$DIMALTU
 70
     2
  9
$DIMALTTD
 70
     2
  9
$DIMTXSTY
  7
Standard
  9
$DIMAUNIT
 70
     0
  9
$DIMADEC
 70
     2
  9
$DIMALTRND
 40
0.0
  9
$DIMAZIN
 70
     3
  9
$DIMDSEP
 70
    46
  9
$DIMATFIT
 70
     3
  9
$DIMFRAC
 70
     0
  9
$DIMLDRBLK
  1

  9
$DIMLUNIT
 70
     2
  9
$DIMLWD
 70
    -2
  9
$DIMLWE
 70
    -2
  9
$DIMTMOVE
 70
     0
  9
$DIMFXL
 40
1.0
  9
$DIMFXLON
 70
     0
  9
$DIMJOGANG
 40
0.785398
  9
$DIMTFILL
 70
     0
  9
$DIMTFILLCLR
 70
     0
  9
$DIMARCSYM
 70
     1
  9
$DIMLTYPE
  6

  9
$DIMLTEX1
  6

  9
$DIMLTEX2
  6

  9
$DIMTXTDIRECTION
 70
     0
  9
$LUNITS
 70
     2
  9
$LUPREC
 70
     4
  9
$SKETCHINC
 40
0.1
  9
$FILLETRAD
 40
0.0
  9
$AUNITS
 70
     0
  9
$AUPREC
 70
     0
  9
$MENU
  1
.
  9
$ELEVATION
 40
0.0
  9
$PELEVATION
 40
0.0
  9
$THICKNESS
 40
0.0
  9
$LIMCHECK
 70
     0
  9
$CHAMFERA
 40
0.0
  9
$CHAMFERB
 40
0.0
  9
$CHAMFERC
 40
0.0
  9
$CHAMFERD
 40
0.0
  9
$SKPOLY
 70
     0
  9
$TDCREATE
 40
2459467.485625000
  9
$TDUCREATE
 40
2459467.777291667
  9
$TDUPDATE
 40
2459467.485625000
  9
$TDUUPDATE
 40
2459467.777291667
  9
$TDINDWG
 40
0.0000000000
  9
$TDUSRTIMER
 40
0.0000000000
  9
$USRTIMER
 70
     1
  9
$ANGBASE
 50
0.0
  9
$ANGDIR
 70
     0
  9
$PDMODE
 70
     0
  9
$PDSIZE
 40
0.0
  9
$PLINEWID
 40
0.0
  9
$SPLFRAME
 70
     0
  9
$SPLINETYPE
 70
     6
  9
$SPLINESEGS
 70
     8
  9
$HANDSEED
  5
3D1
  9
$SURFTAB1
 70
     6
  9
$SURFTAB2
 70
     6
  9
$SURFTYPE
 70
     6
  9
$SURFU
 70
     6
  9
$SURFV
 70
     6
  9
$UCSBASE
  2

  9
$UCSNAME
  2

  9
$UCSORG
 10
0.0
 20
0.0
 30
0.0
  9
$UCSXDIR
 10
1.0
 20
0.0
 30
0.0
  9
$UCSYDIR
 10
0.0
 20
1.0
 30
0.0
  9
$UCSORTHOREF
  2

  9
$UCSORTHOVIEW
 70
     0
  9
$UCSORGTOP
 10
0.0
 20
0.0
 30
0.0
  9
$UCSORGBOTTOM
 10
0.0
 20
0.0
 30
0.0
  9
$UCSORGLEFT
 10
0.0
 20
0.0
 30
0.0
  9
$UCSORGRIGHT
 10
0.0
 20
0.0
 30
0.0
  9
$UCSORGFRONT
 10
0.0
 20
0.0
 30
0.0
  9
$UCSORGBACK
 10
0.0
 20
0.0
 30
0.0
  9
$PUCSBASE
  2

  9
$PUCSNAME
  2

  9
$PUCSORG
 10
0.0
 20
0.0
 30
0.0
  9
$PUCSXDIR
 10
1.0
 20
0.0
 30
0.0
  9
$PUCSYDIR
 10
0.0
 20
1.0
 30
0.0
  9
$PUCSORTHOREF
  2

  9
$PUCSORTHOVIEW
 70
     0
  9
$PUCSORGTOP
 10
0.0
 20
0.0
 30
0.0
  9
$PUCSORGBOTTOM
 10
0.0
 20
0.0
 30
0.0
  9
$PUCSORGLEFT
 10
0.0
 20
0.0
 30
0.0
  9
$PUCSORGRIGHT
 10
0.0
 20
0.0
 30
0.0
  9
$PUCSORGFRONT
 10
0.0
 20
0.0
 30
0.0
  9
$PUCSORGBACK
 10
0.0
 20
0.0
 30
0.0
  9
$USERI1
 70
     0
  9
$USERI2
 70
     0
  9
$USERI3
 70
     0
  9
$USERI4
 70
     0
  9
$USERI5
 70
     0
  9
$USERR1
 40
0.0
  9
$USERR2
 40
0.0
  9
$USERR3
 40
0.0
  9
$USERR4
 40
0.0
  9
$USERR5
 40
0.0
  9
$WORLDVIEW
 70
     1
  9
$SHADEDGE
 70
     3
  9
$SHADEDIF
 70
    70
  9
$TILEMODE
 70
     1
  9
$MAXACTVP
 70
    64
  9
$PINSBASE
 10
0.0
 20
0.0
 30
0.0
  9
$PLIMCHECK
 70
     0
  9
$PEXTMIN
 10
1.000000E+20
 20
1.000000E+20
 30
1.000000E+20
  9
$PEXTMAX
 10
-1.000000E+20
 20
-1.000000E+20
 30
-1.000000E+20
  9
$PLIMMIN
 10
0.0
 20
0.0
  9
$PLIMMAX
 10
12.0
 20
9.0
  9
$UNITMODE
 70
     0
  9
$VISRETAIN
 70
     1
  9
$PLINEGEN
 70
     0
  9
$PSLTSCALE
 70
     1
  9
$TREEDEPTH
 70
  3020
  9
$CMLSTYLE
  2
Standard
  9
$CMLJUST
 70
     0
  9
$CMLSCALE
 40
1.0
  9
$PROXYGRAPHICS
 70
     1
  9
$MEASUREMENT
 70
     0
  9
$CELWEIGHT
370
    -1
  9
$ENDCAPS
280
     0
  9
$JOINSTYLE
280
     0
  9
$LWDISPLAY
290
     0
  9
$INSUNITS
 70
     1
  9
$HYPERLINKBASE
  1

  9
$STYLESHEET
  1

  9
$XEDIT
290
     1
  9
$CEPSNTYPE
380
     0
  9
$PSTYLEMODE
290
     1
  9
$FINGERPRINTGUID
  2
{EA235AED-7782-114E-8A40-020614F99F0A}
  9
$VERSIONGUID
  2
{29AB960E-28F3-BD41-8A8D-489632FA9277}
  9
$EXTNAMES
290
     1
  9
$PSVPSCALE
 40
0.0
  9
$OLESTARTUP
290
     0
  9
$SORTENTS
280
   127
  9
$INDEXCTL
280
     0
  9
$HIDETEXT
280
     1
  9
$XCLIPFRAME
280
     0
  9
$HALOGAP
280
     0
  9
$OBSCOLOR
 70
   257
  9
$OBSLTYPE
280
     0
  9
$INTERSECTIONDISPLAY
280
     0
  9
$INTERSECTIONCOLOR
 70
   257
  9
$DIMASSOC
280
     2
  9
$PROJECTNAME
  1

  9
$CAMERADISPLAY
290
     0
  9
$LENSLENGTH
 40
50.0
  9
$CAMERAHEIGHT
 40
0.0
  9
$STEPSPERSEC
 40
2.0
  9
$STEPSIZE
 40
6.0
  9
$3DDWFPREC
 40
2.0
  9
$PSOLWIDTH
 40
0.25
  9
$PSOLHEIGHT
 40
4.0
  9
$LOFTANG1
 40
1.570796
  9
$LOFTANG2
 40
1.570796
  9
$LOFTMAG1
 40
0.0
  9
$LOFTMAG2
 40
0.0
  9
$LOFTPARAM
 70
     7
  9
$LOFTNORMALS
280
     1
  9
$LATITUDE
 40
37.795
  9
$LONGITUDE
 40
-122.394
  9
$NORTHDIRECTION
 40
0.0
  9
$TIMEZONE
 70
 -8000
  9
$LIGHTGLYPHDISPLAY
280
     1
  9
$TILEMODELIGHTSYNCH
280
     1
  9
$CMATERIAL
347
11
  9
$SOLIDHIST
280
     0
  9
$SHOWHIST
280
     1
  9
$DWFFRAME
280
     2
  9
$DGNFRAME
280
     0
  9
$REALWORLDSCALE
290
     1
  9
$INTERFERECOLOR
 62
     1
  9
$INTERFEREOBJVS
345
33
  9
$INTERFEREVPVS
346
30
  9
$CSHADOW
280
     0
  9
$SHADOWPLANELOCATION
 40
0.0
  0
ENDSEC
  0
SECTION
  2
CLASSES
  0
CLASS
  1
ACDBDICTIONARYWDFLT
  2
AcDbDictionaryWithDefault
  3
ObjectDBX Classes
 90
        0
 91
        1
280
     0
281
     0
  0
CLASS
  1
MATERIAL
  2
AcDbMaterial
  3
ObjectDBX Classes
 90
     1153
 91
        3
280
     0
281
     0
  0
CLASS
  1
VISUALSTYLE
  2
AcDbVisualStyle
  3
ObjectDBX Classes
 90
     4095
 91
       24
280
     0
281
     0
  0
CLASS
  1
SCALE
  2
AcDbScale
  3
ObjectDBX Classes
 90
     1153
 91
       33
280
     0
281
     0
  0
CLASS
  1
TABLESTYLE
  2
AcDbTableStyle
  3
ObjectDBX Classes
 90
     4095
 91
        1
280
     0
281
     0
  0
CLASS
  1
MLEADERSTYLE
  2
AcDbMLeaderStyle
  3
ACDB_MLEADERSTYLE_CLASS
 90
     4095
 91
        1
280
     0
281
     0
  0
CLASS
  1
ACDBSECTIONVIEWSTYLE
  2
AcDbSectionViewStyle
  3
ObjectDBX Classes
 90
     1025
 91
        1
280
     0
281
     0
  0
CLASS
  1
ACDBDETAILVIEWSTYLE
  2
AcDbDetailViewStyle
  3
ObjectDBX Classes
 90
     1025
 91
        1
280
     0
281
     0
  0
CLASS
  1
ACMESCOPE
  2
AcMeScope
  3
AcMeServices
 90
     1024
 91
        1
280
     0
281
     0
  0
CLASS
  1
ACMECOMMANDHISTORY
  2
AcMeCommandHistory
  3
AcMeServices
 90
     1024
 91
        1
280
     0
281
     0
  0
CLASS
  1
ACIMSYSVARMAN
  2
AcImSysVarManager
  3
AcMeServices
 90
     1024
 91
        1
280
     0
281
     0
  0
CLASS
  1
ACIMINTSYSVAR
  2
AcImIntSysVar
  3
AcMeServices
 90
     1024
 91
        1
280
     0
281
     0
  0
CLASS
  1
ACMESTATEMGR
  2
AcMeStateMgr
  3
AcMeServices
 90
     1024
 91
        1
280
     0
281
     0
  0
CLASS
  1
ACGREFMASTER
  2
AcGrefMaster
  3
AcAttribServices
 90
     1024
 91
        1
280
     0
281
     0
  0
CLASS
  1
SORTENTSTABLE
  2
AcDbSortentsTable
  3
ObjectDBX Classes
 90
        0
 91
        6
280
     0
281
     0
  0
CLASS
  1
IMAGE
  2
AcDbRasterImage
  3
ISM
 90
     2175
 91
        1
280
     0
281
     1
  0
CLASS
  1
IMAGEDEF
  2
AcDbRasterImageDef
  3
ISM
 90
        0
 91
        1
280
     0
281
     0
  0
CLASS
  1
IMAGEDEF_REACTOR
  2
AcDbRasterImageDefReactor
  3
ISM
 90
        1
 91
        2
280
     0
281
     0
  0
CLASS
  1
RASTERVARIABLES
  2
AcDbRasterVariables
  3
ISM
 90
        0
 91
        1
280
     0
281
     0
  0
CLASS
  1
DICTIONARYVAR
  2
AcDbDictionaryVar
  3
ObjectDBX Classes
 90
        0
 91
        6
280
     0
281
     0
  0
CLASS
  1
CELLSTYLEMAP
  2
AcDbCellStyleMap
  3
ObjectDBX Classes
 90
     1152
 91
        1
280
     0
281
     0
  0
ENDSEC
  0
SECTION
  2
TABLES
  0
TABLE
  2
VPORT
  5
8
330
0
100
AcDbSymbolTable
 70
     1
1001
ACAD
1000
DbSaveVer
1071
      246
  0
VPORT
  5
57
330
8
100
AcDbSymbolTableRecord
100
AcDbViewportTableRecord
  2
*Active
 70
     0
 10
0.0
 20
0.0
 11
1.0
 21
1.0
 12
8.5
 22
5.5
 13
0.0
 23
0.0
 14
0.5
 24
0.5
 15
0.0
 25
0.0
 16
0.0
 26
0.0
 36
1.0
 17
0.0
 27
0.0
 37
0.0
 40
11.0
 41
1.7981
 42
50.0
 43
0.0
 44
0.0
 50
0.0
 51
0.0
 71
     0
 72
 20000
 73
     1
 74
     0
 75
     0
 76
     0
 77
     0
 78
     0
281
     0
 65
     1
110
0.0
120
0.0
130
0.0
111
1.0
121
0.0
131
0.0
112
0.0
122
1.0
132
0.0
 79
     0
146
0.0
348
2F
 60
     3
 61
     5
292
     1
282
     1
141
0.0
142
0.0
 63
   250
421
  3355443
  0
ENDTAB
  0
TABLE
  2
LTYPE
  5
5
330
0
100
AcDbSymbolTable
 70
    10
  0
LTYPE
  5
5B
330
5
100
AcDbSymbolTableRecord
100
AcDbLinetypeTableRecord
  2
ByBlock
 70
     0
  3

 72
    65
 73
     0
 40
0.0
  0
LTYPE
  5
5C
330
5
100
AcDbSymbolTableRecord
100
AcDbLinetypeTableRecord
  2
ByLayer
 70
     0
  3

 72
    65
 73
     0
 40
0.0
  0
LTYPE
  5
5D
330
5
100
AcDbSymbolTableRecord
100
AcDbLinetypeTableRecord
  2
Continuous
 70
     0
  3
Solid line
 72
    65
 73
     0
 40
0.0
  0
LTYPE
  5
81
330
5
100
AcDbSymbolTableRecord
100
AcDbLinetypeTableRecord
  2
HIDDEN
 70
     0
  3
Hidden __ __ __ __ __ __ __ __ __ __ __ __ __ _
 72
    65
 73
     2
 40
0.375
 49
0.25
 74
     0
 49
-0.125
 74
     0
  0
LTYPE
  5
82
330
5
100
AcDbSymbolTableRecord
100
AcDbLinetypeTableRecord
  2
PHANTOM2
 70
     0
  3
Phantom (.5x) ___ _ _ ___ _ _ ___ _ _ ___ _ _
 72
    65
 73
     6
 40
1.25
 49
0.625
 74
     0
 49
-0.125
 74
     0
 49
0.125
 74
     0
 49
-0.125
 74
     0
 49
0.125
 74
     0
 49
-0.125
 74
     0
  0
LTYPE
  5
83
330
5
100
AcDbSymbolTableRecord
100
AcDbLinetypeTableRecord
  2
CENTER
 70
     0
  3
Center ____ _ ____ _ ____ _ ____ _ ____ _ ____
 72
    65
 73
     4
 40
2.0
 49
1.25
 74
     0
 49
-0.25
 74
     0
 49
0.25
 74
     0
 49
-0.25
 74
     0
  0
LTYPE
  5
9D
330
5
100
AcDbSymbolTableRecord
100
AcDbLinetypeTableRecord
  2
CENTER2
 70
     0
  3
Center (.5x) ___ _ ___ _ ___ _ ___ _ ___ _ ___
 72
    65
 73
     4
 40
1.125
 49
0.75
 74
     0
 49
-0.125
 74
     0
 49
0.125
 74
     0
 49
-0.125
 74
     0
  0
LTYPE
  5
9E
330
5
100
AcDbSymbolTableRecord
100
AcDbLinetypeTableRecord
  2
HIDDEN2
 70
     0
  3
Hidden (.5x) _ _ _ _ _ _ _ _ _ _ _ _ _ _ _ _ _
 72
    65
 73
     2
 40
0.1875
 49
0.125
 74
     0
 49
-0.0625
 74
     0
  0
LTYPE
  5
9F
330
5
100
AcDbSymbolTableRecord
100
AcDbLinetypeTableRecord
  2
Amconstr
 70
     0
  3
_______________________
 72
    65
 73
     2
 40
9999.0
 49
9999.0
 74
     0
 49
0.0
 74
     0
  0
LTYPE
  5
A0
330
5
100
AcDbSymbolTableRecord
100
AcDbLinetypeTableRecord
  2
Amzigzag2
 70
     0
  3
/\/-/\/-/\/-/\/-/\/-/\/
 72
    65
 73
     2
 40
0.4401
 49
0.0001
 74
     4
 75
   136
340
9A
 46
0.0016
 50
0.0
 44
0.0
 45
0.0
 49
-0.44
 74
     0
  0
LTYPE
  5
A1
330
5
100
AcDbSymbolTableRecord
100
AcDbLinetypeTableRecord
  2
ACANSTGB
 70
     0
  3
__ . . __ . .
 72
    65
 73
     6
 40
0.354331
 49
0.15748
 74
     0
 49
-0.03937
 74
     0
 49
0.03937
 74
     0
 49
-0.03937
 74
     0
 49
0.03937
 74
     0
 49
-0.03937
 74
     0
  0
LTYPE
  5
A2
330
5
100
AcDbSymbolTableRecord
100
AcDbLinetypeTableRecord
  2
ACANSTGL
 70
     0
  3
_ _ _ _ _
 72
    65
 73
     2
 40
0.11811
 49
0.07874
 74
     0
 49
-0.03937
 74
     0
  0
ENDTAB
  0
TABLE
  2
LAYER
  5
2
330
0
100
AcDbSymbolTable
 70
     9
  0
LAYER
  5
54
330
2
100
AcDbSymbolTableRecord
100
AcDbLayerTableRecord
  2
0
 70
     0
 62
     7
  6
Continuous
370
    -3
390
F
347
21
348
0
1001
AcAecLayerStandard
1000

1000

  0
LAYER
  5
79
330
2
100
AcDbSymbolTableRecord
100
AcDbLayerTableRecord
  2
Defpoints
 70
     0
 62
     7
  6
Continuous
290
     0
370
    -3
390
F
347
21
348
0
1001
AcAecLayerStandard
1000

1000

  0
LAYER
  5
BC
330
2
100
AcDbSymbolTableRecord
100
AcDbLayerTableRecord
  2
Visible
 70
     0
 62
     7
  6
Continuous
370
    50
390
F
347
21
348
0
  0
LAYER
  5
123
330
2
100
AcDbSymbolTableRecord
100
AcDbLayerTableRecord
  2
Titleblock
 70
     0
 62
     7
  6
Continuous
370
    -3
390
F
347
21
348
0
1001
AcAecLayerStandard
1000

1000

1001
AcCmTransparency
1071
        0
  0
LAYER
  5
148
330
2
100
AcDbSymbolTableRecord
100
AcDbLayerTableRecord
  2
Border
 70
     0
 62
     7
  6
Continuous
370
    -3
390
F
347
21
348
0
1001
AcAecLayerStandard
1000

1000

1001
AcCmTransparency
1071
        0
  0
LAYER
  5
169
330
2
100
AcDbSymbolTableRecord
100
AcDbLayerTableRecord
  2
Dimensions
 70
     0
 62
     7
  6
Continuous
370
    25
390
F
347
21
348
0
  0
ENDTAB
  0
TABLE
  2
STYLE
  5
3
330
0
100
AcDbSymbolTable
 70
     4
  0
STYLE
  5
55
330
3
100
AcDbSymbolTableRecord
100
AcDbTextStyleTableRecord
  2
Standard
 70
     0
 40
0.0
 41
1.0
 50
0.0
 71
     0
 42
0.12
  3
arial.ttf
  4

1001
ACAD
1000
Arial
1071
       34
  0
STYLE
  5
5A
330
3
100
AcDbSymbolTableRecord
100
AcDbTextStyleTableRecord
  2
Annotative
 70
     0
 40
0.0
 41
1.0
 50
0.0
 71
     0
 42
0.2
  3
txt
  4

1001
AcadAnnotative
1000
AnnotativeData
1002
{
1070
     1
1070
     1
1002
}
  0
STYLE
  5
9A
330
3
100
AcDbSymbolTableRecord
100
AcDbTextStyleTableRecord
  2

 70
     1
 40
0.0
 41
1.0
 50
0.0
 71
     0
 42
0.12
  3
genltshp.shx
  4

  0
STYLE
  5
9B
330
3
100
AcDbSymbolTableRecord
100
AcDbTextStyleTableRecord
  2
ACANSGDT
 70
     0
 40
0.0
 41
1.0
 50
0.0
 71
     0
 42
0.12
  3
amgdt.shx
  4

  0
ENDTAB
  0
TABLE
  2
VIEW
  5
6
330
0
100
AcDbSymbolTable
 70
     0
  0
ENDTAB
  0
TABLE
  2
UCS
  5
7
330
0
100
AcDbSymbolTable
 70
     0
  0
ENDTAB
  0
TABLE
  2
APPID
  5
9
330
0
100
AcDbSymbolTable
 70
    27
  0
APPID
  5
56
330
9
100
AcDbSymbolTableRecord
100
AcDbRegAppTableRecord
  2
ACAD
 70
     0
  0
APPID
  5
5E
330
9
100
AcDbSymbolTableRecord
100
AcDbRegAppTableRecord
  2
AcadAnnotative
 70
     0
  0
APPID
  5
78
330
9
100
AcDbSymbolTableRecord
100
AcDbRegAppTableRecord
  2
ACAD_PSEXT
 70
     0
  0
APPID
  5
7A
330
9
100
AcDbSymbolTableRecord
100
AcDbRegAppTableRecord
  2
MCAD_NO_VIS
 70
     0
  0
APPID
  5
7B
330
9
100
AcDbSymbolTableRecord
100
AcDbRegAppTableRecord
  2
ACAD_TEMP_GRAPHIC
 70
     0
  0
APPID
  5
84
330
9
100
AcDbSymbolTableRecord
100
AcDbRegAppTableRecord
  2
ACAD_DSTYLE_DIMJAG
 70
     0
  0
APPID
  5
85
330
9
100
AcDbSymbolTableRecord
100
AcDbRegAppTableRecord
  2
ACAD_DSTYLE_DIMTALN
 70
     0
  0
APPID
  5
86
330
9
100
AcDbSymbolTableRecord
100
AcDbRegAppTableRecord
  2
ACAD_NAV_VCDISPLAY
 70
     0
  0
APPID
  5
87
330
9
100
AcDbSymbolTableRecord
100
AcDbRegAppTableRecord
  2
AcAecLayerStandard
 70
     0
  0
APPID
  5
88
330
9
100
AcDbSymbolTableRecord
100
AcDbRegAppTableRecord
  2
AcCmTransparency
 70
     0
  0
APPID
  5
89
330
9
100
AcDbSymbolTableRecord
100
AcDbRegAppTableRecord
  2
ACAD_DSTYLE_DIMBREAK
 70
     0
  0
APPID
  5
8A
330
9
100
AcDbSymbolTableRecord
100
AcDbRegAppTableRecord
  2
ACAD_DSTYLE_DIMRADIAL_EXTENSION
 70
     0
  0
APPID
  5
8B
330
9
100
AcDbSymbolTableRecord
100
AcDbRegAppTableRecord
  2
FUSIONTITLEBLOCK
 70
     0
  0
APPID
  5
8C
330
9
100
AcDbSymbolTableRecord
100
AcDbRegAppTableRecord
  2
FUSIONCURRENTTITLEBLOCK
 70
     0
  0
APPID
  5
8D
330
9
100
AcDbSymbolTableRecord
100
AcDbRegAppTableRecord
  2
AcSynergy
 70
     0
  0
APPID
  5
8E
330
9
100
AcDbSymbolTableRecord
100
AcDbRegAppTableRecord
  2
ACAD_VIEW_EDGE_ID
 70
     0
  0
APPID
  5
8F
330
9
100
AcDbSymbolTableRecord
100
AcDbRegAppTableRecord
  2
GENIUS_GENSCREG_15
 70
     0
  0
APPID
  5
90
330
9
100
AcDbSymbolTableRecord
100
AcDbRegAppTableRecord
  2
GENIUS_GENOBJ-N-SDF_13
 70
     0
  0
APPID
  5
91
330
9
100
AcDbSymbolTableRecord
100
AcDbRegAppTableRecord
  2
GENIUS_GENODEF_13
 70
     0
  0
APPID
  5
92
330
9
100
AcDbSymbolTableRecord
100
AcDbRegAppTableRecord
  2
ACAD_DIMASSOC_CALC_DIMLFAC
 70
     0
  0
APPID
  5
93
330
9
100
AcDbSymbolTableRecord
100
AcDbRegAppTableRecord
  2
ACAD_DIMASSOC_DIMLFAC
 70
     0
  0
APPID
  5
94
330
9
100
AcDbSymbolTableRecord
100
AcDbRegAppTableRecord
  2
ACAD_DIMASSOC_OVERRIDDEN_DIMLFAC
 70
     0
  0
APPID
  5
95
330
9
100
AcDbSymbolTableRecord
100
AcDbRegAppTableRecord
  2
FD_ATT_APPNAME
 70
     0
  0
APPID
  5
96
330
9
100
AcDbSymbolTableRecord
100
AcDbRegAppTableRecord
  2
FUSIONTITLEBLOCKATTRIBUTEOVERRIDE
 70
     0
  0
APPID
  5
97
330
9
100
AcDbSymbolTableRecord
100
AcDbRegAppTableRecord
  2
ACAD_DSTYLE_DIMJAG_POSITION
 70
     0
  0
APPID
  5
98
330
9
100
AcDbSymbolTableRecord
100
AcDbRegAppTableRecord
  2
ACAD_TC
 70
     0
  0
APPID
  5
99
330
9
100
AcDbSymbolTableRecord
100
AcDbRegAppTableRecord
  2
ACATTRIBSERVICES
 70
     0
  0
ENDTAB
  0
TABLE
  2
DIMSTYLE
  5
A
330
0
100
AcDbSymbolTable
 70
     2
100
AcDbDimStyleTable
 71
     1
340
58
  0
DIMSTYLE
105
58
102
{ACAD_REACTORS
330
168
330
174
330
182
330
190
330
19A
330
1A8
330
1B2
330
1BC
102
}
330
A
100
AcDbSymbolTableRecord
100
AcDbDimStyleTableRecord
  2
Standard
 70
     0
  3
in
  4
mm
 41
0.12
 42
0.05
 43
0.339411
 44
0.1
 47
0.01
 48
0.01
 78
    12
 79
     3
 90
        1
140
0.12
141
0.0
147
0.06
176
   256
177
   256
178
   256
179
     2
271
     2
272
     2
284
    12
285
    12
286
    12
340
55
  0
DIMSTYLE
105
59
330
A
100
AcDbSymbolTableRecord
100
AcDbDimStyleTableRecord
  2
Annotative
 70
     0
  3
in
  4
mm
 40
0.0
 43
0.339411
 78
    12
 79
     3
140
0.12
179
     2
271
     2
272
     2
284
    12
285
    12
286
    12
340
55
1001
AcadAnnotative
1000
AnnotativeData
1002
{
1070
     1
1070
     1
1002
}
  0
ENDTAB
  0
TABLE
  2
BLOCK_RECORD
  5
1
330
0
100
AcDbSymbolTable
 70
    22
  0
BLOCK_RECORD
  5
70
102
{ACAD_XDICTIONARY
360
B5
102
}
330
1
100
AcDbSymbolTableRecord
100
AcDbBlockTableRecord
  2
*Model_Space
340
73
 70
     0
280
     1
281
     0
  0
BLOCK_RECORD
  5
6C
330
1
100
AcDbSymbolTableRecord
100
AcDbBlockTableRecord
  2
*Paper_Space
340
6F
 70
     0
280
     1
281
     0
  0
BLOCK_RECORD
  5
74
330
1
100
AcDbSymbolTableRecord
100
AcDbBlockTableRecord
  2
*Paper_Space0
340
77
 70
     0
280
     1
281
     0
  0
BLOCK_RECORD
  5
124
102
{ACAD_XDICTIONARY
360
125
102
}
330
1
100
AcDbSymbolTableRecord
100
AcDbBlockTableRecord
  2
Shower
340
0
102
{BLKREFS
331
122
102
}
 70
     1
280
     1
281
     0
1001
FUSIONTITLEBLOCK
1000
TitleBlock
  0
BLOCK_RECORD
  5
149
330
1
100
AcDbSymbolTableRecord
100
AcDbBlockTableRecord
  2
ANSI_B_SHEET
340
0
310
2800000020000000200000000100080000000000000400000000000000000000000000000000000000000000000080000080000000808000800000008000800080800000C0C0C000C0DCC000F0CAA6000020400000206000002080000020A0000020C0000020E00000400000004020000040400000406000004080000040A0
310
000040C0000040E00000600000006020000060400000606000006080000060A0000060C0000060E00000800000008020000080400000806000008080000080A0000080C0000080E00000A0000000A0200000A0400000A0600000A0800000A0A00000A0C00000A0E00000C0000000C0200000C0400000C0600000C0800000C0
310
A00000C0C00000C0E00000E0000000E0200000E0400000E0600000E0800000E0A00000E0C00000E0E00040000000400020004000400040006000400080004000A0004000C0004000E00040200000402020004020400040206000402080004020A0004020C0004020E000404000004040200040404000404060004040800040
310
40A0004040C0004040E00040600000406020004060400040606000406080004060A0004060C0004060E00040800000408020004080400040806000408080004080A0004080C0004080E00040A0000040A0200040A0400040A0600040A0800040A0A00040A0C00040A0E00040C0000040C0200040C0400040C0600040C08000
310
40C0A00040C0C00040C0E00040E0000040E0200040E0400040E0600040E0800040E0A00040E0C00040E0E00080000000800020008000400080006000800080008000A0008000C0008000E00080200000802020008020400080206000802080008020A0008020C0008020E00080400000804020008040400080406000804080
310
008040A0008040C0008040E00080600000806020008060400080606000806080008060A0008060C0008060E00080800000808020008080400080806000808080008080A0008080C0008080E00080A0000080A0200080A0400080A0600080A0800080A0A00080A0C00080A0E00080C0000080C0200080C0400080C0600080C0
310
800080C0A00080C0C00080C0E00080E0000080E0200080E0400080E0600080E0800080E0A00080E0C00080E0E000C0000000C0002000C0004000C0006000C0008000C000A000C000C000C000E000C0200000C0202000C0204000C0206000C0208000C020A000C020C000C020E000C0400000C0402000C0404000C0406000C0
310
408000C040A000C040C000C040E000C0600000C0602000C0604000C0606000C0608000C060A000C060C000C060E000C0800000C0802000C0804000C0806000C0808000C080A000C080C000C080E000C0A00000C0A02000C0A04000C0A06000C0A08000C0A0A000C0A0C000C0A0E000C0C00000C0C02000C0C04000C0C06000
310
C0C08000C0C0A000F0FBFF00A4A0A000808080000000FF0000FF000000FFFF00FF000000FF00FF00FFFF0000FFFFFF0049494949494949494949494949494949494949494949494949494949494949494949494949494949494949494949494949494949494949494949494949494949494949494949494949494949494949
310
494949494949494949494949494949494949494949494949494949494949494949494949494949494949494949494949494949494949494949494949494949494949494949494949494949494949494949494949494949494949494949494949494949494949494949494949494949494949FFFF4949494949494949494949
310
494949494949494949494949494949FFFF4949FFFFFFFFFFFFFFFFFFFFFFFFFFFFFFFFFFFFFFFFFFFFFFFFFFFFFFFFFFFF494949FF4949494949494949494949494949494949494949494949494949FF49494949FF4949494949494949494949494949494949494949494949494949FF49494949FF49494949494949494949
310
49494949494949494949494949494949FF49494949FF4949494949494949494949494949494949494949494949494949FF49494949FF4949494949494949494949494949494949494949494949494949FF49494949FF4949494949494949494949494949494949494949494949494949FF49494949FF494949494949494949
310
4949494949494949494949494949494949FF49494949FF4949494949494949494949494949494949494949494949494949FF49494949FF4949494949494949494949494949494949494949494949494949FF49494949FF4949494949494949494949494949494949494949494949494949FF49494949FF4949494949494949
310
494949494949494949494949494949494949FF49494949FF4949494949494949494949494949494949494949494949494949FF49494949FF4949494949494949494949494949494949494949494949494949FF49494949FF4949494949494949494949494949494949494949494949494949FF49494949FF49494949494949
310
49494949494949494949494949494949494949FF49494949FF4949494949494949494949494949494949494949494949494949FF494949FFFFFFFFFFFFFFFFFFFFFFFFFFFFFFFFFFFFFFFFFFFFFFFFFFFFFFFFFFFF4949FFFF4949494949494949494949494949494949494949494949494949FFFF49494949494949494949
310
49494949494949494949494949494949494949494949494949494949494949494949494949494949494949494949494949494949494949494949494949494949494949494949494949494949494949494949494949494949494949494949494949494949494949494949494949494949494949494949494949494949494949
310
4949494949494949494949494949494949494949494949494949494949494949494949494949494949494949494949494949494949494949
102
{BLKREFS
331
147
102
}
 70
     1
280
     1
281
     0
  0
BLOCK_RECORD
  5
16A
330
1
100
AcDbSymbolTableRecord
100
AcDbBlockTableRecord
  2
*D6
340
0
 70
     0
280
     1
281
     0
  0
BLOCK_RECORD
  5
175
330
1
100
AcDbSymbolTableRecord
100
AcDbBlockTableRecord
  2
*D7
340
0
 70
     0
280
     1
281
     0
  0
BLOCK_RECORD
  5
183
330
1
100
AcDbSymbolTableRecord
100
AcDbBlockTableRecord
  2
*D8
340
0
 70
     0
280
     1
281
     0
  0
BLOCK_RECORD
  5
191
330
1
100
AcDbSymbolTableRecord
100
AcDbBlockTableRecord
  2
*D9
340
0
 70
     0
280
     1
281
     0
  0
BLOCK_RECORD
  5
19B
330
1
100
AcDbSymbolTableRecord
100
AcDbBlockTableRecord
  2
*D10
340
0
 70
     0
280
     1
281
     0
  0
BLOCK_RECORD
  5
1A9
330
1
100
AcDbSymbolTableRecord
100
AcDbBlockTableRecord
  2
*D11
340
0
 70
     0
280
     1
281
     0
  0
BLOCK_RECORD
  5
1B3
330
1
100
AcDbSymbolTableRecord
100
AcDbBlockTableRecord
  2
*D12
340
0
 70
     0
280
     1
281
     0
  0
BLOCK_RECORD
  5
1BD
330
1
100
AcDbSymbolTableRecord
100
AcDbBlockTableRecord
  2
*D13
340
0
 70
     0
280
     1
281
     0
  0
BLOCK_RECORD
  5
1CB
330
1
100
AcDbSymbolTableRecord
100
AcDbBlockTableRecord
  2
*D14
340
0
 70
     0
280
     1
281
     0
  0
BLOCK_RECORD
  5
1D5
330
1
100
AcDbSymbolTableRecord
100
AcDbBlockTableRecord
  2
*D15
340
0
 70
     0
280
     1
281
     0
  0
BLOCK_RECORD
  5
1E2
330
1
100
AcDbSymbolTableRecord
100
AcDbBlockTableRecord
  2
*D16
340
0
 70
     0
280
     1
281
     0
  0
BLOCK_RECORD
  5
1EF
330
1
100
AcDbSymbolTableRecord
100
AcDbBlockTableRecord
  2
*D17
340
0
 70
     0
280
     1
281
     0
  0
BLOCK_RECORD
  5
1F8
330
1
100
AcDbSymbolTableRecord
100
AcDbBlockTableRecord
  2
*D18
340
0
 70
     0
280
     1
281
     0
  0
BLOCK_RECORD
  5
205
330
1
100
AcDbSymbolTableRecord
100
AcDbBlockTableRecord
  2
*D19
340
0
 70
     0
280
     1
281
     0
  0
BLOCK_RECORD
  5
20E
330
1
100
AcDbSymbolTableRecord
100
AcDbBlockTableRecord
  2
*D20
340
0
 70
     0
280
     1
281
     0
  0
BLOCK_RECORD
  5
217
330
1
100
AcDbSymbolTableRecord
100
AcDbBlockTableRecord
  2
*D21
340
0
 70
     0
280
     1
281
     0
  0
ENDTAB
  0
ENDSEC
  0
SECTION
  2
BLOCKS
  0
BLOCK
  5
71
330
70
100
AcDbEntity
  8
0
100
AcDbBlockBegin
  2
*Model_Space
 70
     0
 10
0.0
 20
0.0
 30
0.0
  3
*Model_Space
  1

  0
ENDBLK
  5
72
330
70
100
AcDbEntity
  8
0
100
AcDbBlockEnd
  0
BLOCK
  5
6D
330
6C
100
AcDbEntity
 67
     1
  8
0
100
AcDbBlockBegin
  2
*Paper_Space
 70
     0
 10
0.0
 20
0.0
 30
0.0
  3
*Paper_Space
  1

  0
ENDBLK
  5
6E
330
6C
100
AcDbEntity
 67
     1
  8
0
100
AcDbBlockEnd
  0
BLOCK
  5
75
330
74
100
AcDbEntity
 67
     1
  8
0
100
AcDbBlockBegin
  2
*Paper_Space0
 70
     0
 10
0.0
 20
0.0
 30
0.0
  3
*Paper_Space0
  1

  0
ENDBLK
  5
76
330
74
100
AcDbEntity
 67
     1
  8
0
100
AcDbBlockEnd
  0
BLOCK
  5
127
330
124
100
AcDbEntity
  8
0
100
AcDbBlockBegin
  2
Shower
 70
     2
 10
0.0
 20
0.0
 30
0.0
  3
Shower
  1

  0
LWPOLYLINE
  5
128
330
124
100
AcDbEntity
  8
Titleblock
100
AcDbPolyline
 90
        4
 70
     1
 43
0.0
 10
0.0
 20
0.0
 10
-4.9375
 20
0.0
 10
-4.9375
 20
2.5
 10
0.0
 20
2.5
  0
IMAGE
  5
129
330
124
100
AcDbEntity
  8
Titleblock
  6
Continuous
160
               140
310
8C0000000100000084000000060000000500000000000000008013C000B87FA8928AB03F000000000000000000000000008013C035B4911D6523F03F000000000000000001000000008001C035B4911D6523F03F000000000000000001000000008001C000B87FA8928AB03F000000000000000000000000008013C000B87F
310
A8928AB03F0000000000000000
370
     0
100
AcDbRasterImage
 90
        0
 10
-4.875
 20
0.064614
 30
0.0
 11
0.0028349156118143
 21
0.0
 31
0.0
 12
0.0
 22
0.0028349156118143
 32
0.0
 13
948.0
 23
333.0
340
12A
 70
    15
280
     0
281
    50
282
    50
283
     0
290
     0
360
12C
 71
     1
 91
        2
 14
-0.5
 24
-0.5
 14
947.5
 24
332.5
  0
LWPOLYLINE
  5
12E
330
124
100
AcDbEntity
  8
Titleblock
  6
Continuous
370
    25
100
AcDbPolyline
 90
        4
 70
     1
 43
0.0
 10
0.0
 20
1.0625
 10
-4.9375
 20
1.061638
 10
-4.9375
 20
0.0
 10
0.0
 20
0.0
  0
LWPOLYLINE
  5
12F
330
124
100
AcDbEntity
  8
Titleblock
  6
Continuous
370
    25
100
AcDbPolyline
 90
        4
 70
     1
 43
0.0
 10
-1.75
 20
2.5
 10
0.0
 20
2.5
 10
0.0
 20
2.5
 10
-1.75
 20
2.5
  0
ATTDEF
  5
130
330
124
100
AcDbEntity
  8
Titleblock
  6
Continuous
370
    25
100
AcDbText
 10
-3.6875
 20
2.3125
 30
0.0
 40
0.12
  1

100
AcDbAttributeDefinition
280
     0
  3

  2
PROJECT
 70
     0
280
     1
  0
MTEXT
  5
131
330
124
100
AcDbEntity
  8
Titleblock
  6
Continuous
370
    25
100
AcDbMText
 10
-4.875
 20
1.653875
 30
0.0
 40
0.12
 41
0.6875
 46
0.0
 71
     1
 72
     5
  1
Description:
 73
     1
 44
1.0
1001
ACAD
1000
ACAD_MTEXT_COLUMN_INFO_BEGIN
1070
    75
1070
     2
1070
    79
1070
     0
1070
    76
1070
     1
1070
    78
1070
     0
1070
    48
1040
0.6875
1070
    49
1040
0.6
1070
    50
1070
     1
1040
0.0
1000
ACAD_MTEXT_COLUMN_INFO_END
  0
ATTDEF
  5
132
330
124
100
AcDbEntity
  8
Titleblock
  6
Continuous
370
    25
100
AcDbText
 10
-1.6875
 20
0.6875
 30
0.0
 40
0.12
  1

100
AcDbAttributeDefinition
280
     0
  3

  2
DRAWN_DATE
 70
     0
280
     1
  0
ATTDEF
  5
133
330
124
100
AcDbEntity
  8
Titleblock
  6
Continuous
370
    25
100
AcDbText
 10
-4.3125
 20
1.8125
 30
0.0
 40
0.3048
  1

100
AcDbAttributeDefinition
280
     0
  3

  2
TITLE_1
 70
     0
280
     1
  0
ATTDEF
  5
134
330
124
100
AcDbEntity
  8
Titleblock
  6
Continuous
370
    25
100
AcDbText
 10
-1.6875
 20
0.91994
 30
0.0
 40
0.12
  1

100
AcDbAttributeDefinition
280
     0
  3

  2
SCALE
 70
     0
280
     1
  0
LWPOLYLINE
  5
135
330
124
100
AcDbEntity
  8
Titleblock
  6
Continuous
370
    25
100
AcDbPolyline
 90
        4
 70
     1
 43
0.0
 10
0.0
 20
1.0625
 10
0.0
 20
1.0625
 10
0.0
 20
0.0
 10
0.0
 20
0.0
  0
LWPOLYLINE
  5
136
330
124
100
AcDbEntity
  8
Titleblock
  6
Continuous
370
    25
100
AcDbPolyline
 90
        4
 70
     1
 43
0.0
 10
0.0
 20
1.0625
 10
0.0
 20
1.0625
 10
0.0
 20
0.0
 10
0.0
 20
0.0
  0
LINE
  5
137
330
124
100
AcDbEntity
  8
Titleblock
  6
Continuous
370
    25
100
AcDbLine
 10
-2.125
 20
1.062165
 30
0.0
 11
-2.125
 21
0.0
 31
0.0
  0
LWPOLYLINE
  5
138
330
124
100
AcDbEntity
  8
Titleblock
  6
Continuous
370
    25
100
AcDbPolyline
 90
        4
 70
     1
 43
0.0
 10
-4.9375
 20
2.5
 10
0.0
 20
2.5
 10
0.0
 20
2.5
 10
-4.9375
 20
2.5
  0
LINE
  5
139
330
124
100
AcDbEntity
  8
Titleblock
  6
Continuous
370
    25
100
AcDbLine
 10
-4.9375
 20
2.25
 30
0.0
 11
0.0
 21
2.25
 31
0.0
  0
LINE
  5
13A
330
124
100
AcDbEntity
  8
Titleblock
  6
Continuous
370
    25
100
AcDbLine
 10
-4.9375
 20
1.6875
 30
0.0
 11
0.0
 21
1.6875
 31
0.0
  0
MTEXT
  5
13B
330
124
100
AcDbEntity
  8
Titleblock
100
AcDbMText
 10
-4.875
 20
2.467284
 30
0.0
 40
0.12
 41
0.375
 46
0.0
 71
     1
 72
     5
  1
Project:
 73
     1
 44
1.0
1001
ACAD
1000
ACAD_MTEXT_COLUMN_INFO_BEGIN
1070
    75
1070
     2
1070
    79
1070
     0
1070
    76
1070
     1
1070
    78
1070
     0
1070
    48
1040
0.375
1070
    49
1040
0.6
1070
    50
1070
     1
1040
0.0
1000
ACAD_MTEXT_COLUMN_INFO_END
  0
MTEXT
  5
13C
330
124
100
AcDbEntity
  8
Titleblock
100
AcDbMText
 10
-2.0625
 20
1.045477
 30
0.0
 40
0.075
 41
0.375
 46
0.0
 71
     1
 72
     5
  1
Scale:
 73
     1
 44
1.0
1001
ACAD
1000
ACAD_MTEXT_COLUMN_INFO_BEGIN
1070
    75
1070
     2
1070
    79
1070
     0
1070
    76
1070
     1
1070
    78
1070
     0
1070
    48
1040
0.375
1070
    49
1040
0.6
1070
    50
1070
     1
1040
0.0
1000
ACAD_MTEXT_COLUMN_INFO_END
  0
MTEXT
  5
13D
330
124
100
AcDbEntity
  8
Titleblock
100
AcDbMText
 10
-2.0625
 20
0.857735
 30
0.0
 40
0.075
 41
0.375
 46
0.0
 71
     1
 72
     5
  1
Date Drawn:
 73
     1
 44
1.0
1001
ACAD
1000
ACAD_MTEXT_COLUMN_INFO_BEGIN
1070
    75
1070
     2
1070
    79
1070
     0
1070
    76
1070
     1
1070
    78
1070
     0
1070
    48
1040
0.375
1070
    49
1040
0.6
1070
    50
1070
     1
1040
0.0
1000
ACAD_MTEXT_COLUMN_INFO_END
  0
LINE
  5
13E
330
124
100
AcDbEntity
  8
Titleblock
100
AcDbLine
 10
-2.125
 20
0.875
 30
0.0
 11
0.0
 21
0.875
 31
0.0
  0
LINE
  5
13F
330
124
100
AcDbEntity
  8
Titleblock
100
AcDbLine
 10
-2.125
 20
0.625
 30
0.0
 11
0.0
 21
0.625
 31
0.0
  0
MTEXT
  5
140
330
124
100
AcDbEntity
  8
Titleblock
100
AcDbMText
 10
-4.875
 20
2.220603
 30
0.0
 40
0.12
 41
0.625
 46
0.0
 71
     1
 72
     5
  1
Title:
 73
     1
 44
1.0
1001
ACAD
1000
ACAD_MTEXT_COLUMN_INFO_BEGIN
1070
    75
1070
     2
1070
    79
1070
     0
1070
    76
1070
     1
1070
    78
1070
     0
1070
    48
1040
0.625
1070
    49
1040
0.6
1070
    50
1070
     1
1040
0.0
1000
ACAD_MTEXT_COLUMN_INFO_END
  0
ENDBLK
  5
141
330
124
100
AcDbEntity
  8
0
100
AcDbBlockEnd
  0
BLOCK
  5
14A
330
149
100
AcDbEntity
  8
0
100
AcDbBlockBegin
  2
ANSI_B_SHEET
 70
     0
 10
0.0
 20
0.0
 30
0.0
  3
ANSI_B_SHEET
  1

  0
LINE
  5
14B
330
149
100
AcDbEntity
  8
Border
100
AcDbLine
 10
0.0
 20
0.0
 30
0.0
 11
0.5
 21
0.0
 31
0.0
  0
LINE
  5
14C
330
149
100
AcDbEntity
  8
Border
100
AcDbLine
 10
16.5
 20
0.0
 30
0.0
 11
17.0
 21
0.0
 31
0.0
  0
LINE
  5
14D
330
149
100
AcDbEntity
  8
Border
100
AcDbLine
 10
0.62
 20
0.38
 30
0.0
 11
16.38
 21
0.38
 31
0.0
  0
LINE
  5
14E
330
149
100
AcDbEntity
  8
Border
100
AcDbLine
 10
17.0
 20
0.0
 30
0.0
 11
17.0
 21
0.5
 31
0.0
  0
LINE
  5
14F
330
149
100
AcDbEntity
  8
Border
100
AcDbLine
 10
17.0
 20
10.5
 30
0.0
 11
17.0
 21
11.0
 31
0.0
  0
LINE
  5
150
330
149
100
AcDbEntity
  8
Border
100
AcDbLine
 10
16.38
 20
0.38
 30
0.0
 11
16.38
 21
10.62
 31
0.0
  0
LINE
  5
151
330
149
100
AcDbEntity
  8
Border
100
AcDbLine
 10
17.0
 20
11.0
 30
0.0
 11
16.5
 21
11.0
 31
0.0
  0
LINE
  5
152
330
149
100
AcDbEntity
  8
Border
100
AcDbLine
 10
0.5
 20
11.0
 30
0.0
 11
0.0
 21
11.0
 31
0.0
  0
LINE
  5
153
330
149
100
AcDbEntity
  8
Border
100
AcDbLine
 10
16.38
 20
10.62
 30
0.0
 11
0.62
 21
10.62
 31
0.0
  0
LINE
  5
154
330
149
100
AcDbEntity
  8
Border
100
AcDbLine
 10
0.0
 20
11.0
 30
0.0
 11
0.0
 21
10.5
 31
0.0
  0
LINE
  5
155
330
149
100
AcDbEntity
  8
Border
100
AcDbLine
 10
0.0
 20
0.5
 30
0.0
 11
0.0
 21
0.0
 31
0.0
  0
LINE
  5
156
330
149
100
AcDbEntity
  8
Border
100
AcDbLine
 10
0.62
 20
10.62
 30
0.0
 11
0.62
 21
0.38
 31
0.0
  0
LINE
  5
157
330
149
100
AcDbEntity
  8
Border
100
AcDbLine
 10
8.413397
 20
0.23
 30
0.0
 11
8.586603
 21
0.23
 31
0.0
  0
LINE
  5
158
330
149
100
AcDbEntity
  8
Border
100
AcDbLine
 10
8.5
 20
0.38
 30
0.0
 11
8.5
 21
0.13
 31
0.0
  0
LINE
  5
159
330
149
100
AcDbEntity
  8
Border
100
AcDbLine
 10
8.5
 20
0.38
 30
0.0
 11
8.413397
 21
0.23
 31
0.0
  0
LINE
  5
15A
330
149
100
AcDbEntity
  8
Border
100
AcDbLine
 10
8.5
 20
0.38
 30
0.0
 11
8.586603
 21
0.23
 31
0.0
  0
LINE
  5
15B
330
149
100
AcDbEntity
  8
Border
100
AcDbLine
 10
0.47
 20
5.586603
 30
0.0
 11
0.47
 21
5.413397
 31
0.0
  0
LINE
  5
15C
330
149
100
AcDbEntity
  8
Border
100
AcDbLine
 10
0.62
 20
5.5
 30
0.0
 11
0.37
 21
5.5
 31
0.0
  0
LINE
  5
15D
330
149
100
AcDbEntity
  8
Border
100
AcDbLine
 10
0.62
 20
5.5
 30
0.0
 11
0.47
 21
5.586603
 31
0.0
  0
LINE
  5
15E
330
149
100
AcDbEntity
  8
Border
100
AcDbLine
 10
0.62
 20
5.5
 30
0.0
 11
0.47
 21
5.413397
 31
0.0
  0
LINE
  5
15F
330
149
100
AcDbEntity
  8
Border
100
AcDbLine
 10
16.53
 20
5.586603
 30
0.0
 11
16.53
 21
5.413397
 31
0.0
  0
LINE
  5
160
330
149
100
AcDbEntity
  8
Border
100
AcDbLine
 10
16.38
 20
5.5
 30
0.0
 11
16.63
 21
5.5
 31
0.0
  0
LINE
  5
161
330
149
100
AcDbEntity
  8
Border
100
AcDbLine
 10
16.38
 20
5.5
 30
0.0
 11
16.53
 21
5.586603
 31
0.0
  0
LINE
  5
162
330
149
100
AcDbEntity
  8
Border
100
AcDbLine
 10
16.38
 20
5.5
 30
0.0
 11
16.53
 21
5.413397
 31
0.0
  0
LINE
  5
163
330
149
100
AcDbEntity
  8
Border
100
AcDbLine
 10
8.413397
 20
10.77
 30
0.0
 11
8.586603
 21
10.77
 31
0.0
  0
LINE
  5
164
330
149
100
AcDbEntity
  8
Border
100
AcDbLine
 10
8.5
 20
10.62
 30
0.0
 11
8.5
 21
10.87
 31
0.0
  0
LINE
  5
165
330
149
100
AcDbEntity
  8
Border
100
AcDbLine
 10
8.5
 20
10.62
 30
0.0
 11
8.413397
 21
10.77
 31
0.0
  0
LINE
  5
166
330
149
100
AcDbEntity
  8
Border
100
AcDbLine
 10
8.5
 20
10.62
 30
0.0
 11
8.586603
 21
10.77
 31
0.0
  0
ENDBLK
  5
167
330
149
100
AcDbEntity
  8
0
100
AcDbBlockEnd
  0
BLOCK
  5
16B
330
16A
100
AcDbEntity
  8
0
100
AcDbBlockBegin
  2
*D6
 70
     1
 10
0.0
 20
0.0
 30
0.0
  3
*D6
  1

  0
LINE
  5
16C
330
16A
100
AcDbEntity
  8
Dimensions
440
 16777216
370
    -2
100
AcDbLine
 10
5.453426
 20
7.790401
 30
0.0
 11
5.333426
 21
7.790401
 31
0.0
  0
LINE
  5
16D
330
16A
100
AcDbEntity
  8
Dimensions
440
 16777216
370
    -2
100
AcDbLine
 10
5.333426
 20
7.790401
 30
0.0
 11
5.131295
 21
7.869433
 31
0.0
  0
MTEXT
  5
16E
330
16A
100
AcDbEntity
  8
Dimensions
440
 16777216
100
AcDbMText
 10
5.797833
 20
7.790401
 30
0.0
 40
0.12
 41
0.0
 46
0.0
 71
     5
 72
     1
  1
\A1;∅1.51in
 73
     1
 44
1.0
  0
SOLID
  5
16F
330
16A
100
AcDbEntity
  8
Dimensions
440
 16777216
100
AcDbTrace
 10
5.138578
 20
7.88806
 30
0.0
 11
5.124012
 21
7.850807
 31
0.0
 12
5.019534
 22
7.913131
 32
0.0
 13
5.019534
 23
7.913131
 33
0.0
  0
ARC
  5
170
330
16A
100
AcDbEntity
  8
Dimensions
440
 16777216
370
    -2
100
AcDbCircle
 10
5.720958
 20
7.638879
 30
0.0
 40
0.7531332610132802
100
AcDbArc
 50
151.037134
 51
225.367395
  0
POINT
  5
171
330
16A
100
AcDbEntity
  8
Defpoints
 62
     0
440
 16777216
100
AcDbPoint
 10
5.019534
 20
7.913131
 30
0.0
  0
POINT
  5
172
330
16A
100
AcDbEntity
  8
Defpoints
 62
     0
440
 16777216
100
AcDbPoint
 10
6.422381
 20
7.364626
 30
0.0
  0
ENDBLK
  5
173
330
16A
100
AcDbEntity
  8
0
100
AcDbBlockEnd
  0
BLOCK
  5
176
330
175
100
AcDbEntity
  8
0
100
AcDbBlockBegin
  2
*D7
 70
     1
 10
0.0
 20
0.0
 30
0.0
  3
*D7
  1

  0
LINE
  5
177
330
175
100
AcDbEntity
  8
Dimensions
440
 16777216
370
    -2
100
AcDbLine
 10
7.181269
 20
6.935756
 30
0.0
 11
7.182485
 21
7.664577
 31
0.0
  0
LINE
  5
178
330
175
100
AcDbEntity
  8
Dimensions
440
 16777216
370
    -2
100
AcDbLine
 10
9.819061
 20
6.931355
 30
0.0
 11
9.820277
 21
7.660177
 31
0.0
  0
LINE
  5
179
330
175
100
AcDbEntity
  8
Dimensions
440
 16777216
370
    -2
100
AcDbLine
 10
7.302318
 20
7.564377
 30
0.0
 11
8.221064
 21
7.562845
 31
0.0
  0
LINE
  5
17A
330
175
100
AcDbEntity
  8
Dimensions
440
 16777216
370
    -2
100
AcDbLine
 10
9.70011
 20
7.560377
 30
0.0
 11
8.781364
 21
7.56191
 31
0.0
  0
SOLID
  5
17B
330
175
100
AcDbEntity
  8
Dimensions
440
 16777216
100
AcDbTrace
 10
7.302352
 20
7.584377
 30
0.0
 11
7.302285
 21
7.544377
 31
0.0
 12
7.182319
 22
7.564578
 32
0.0
 13
7.182319
 23
7.564578
 33
0.0
  0
SOLID
  5
17C
330
175
100
AcDbEntity
  8
Dimensions
440
 16777216
100
AcDbTrace
 10
9.700144
 20
7.580377
 30
0.0
 11
9.700077
 21
7.540377
 31
0.0
 12
9.82011
 22
7.560177
 32
0.0
 13
9.82011
 23
7.560177
 33
0.0
  0
MTEXT
  5
17D
330
175
100
AcDbEntity
  8
Dimensions
440
 16777216
100
AcDbMText
 10
8.501214
 20
7.562377
 30
0.0
 40
0.12
 41
0.0
 46
0.0
 71
     5
 72
     1
  1
\A1;2.64in
 73
     1
 44
1.0
  0
POINT
  5
17E
330
175
100
AcDbEntity
  8
Defpoints
 62
     0
440
 16777216
100
AcDbPoint
 10
7.181186
 20
6.885756
 30
0.0
  0
POINT
  5
17F
330
175
100
AcDbEntity
  8
Defpoints
 62
     0
440
 16777216
100
AcDbPoint
 10
9.818978
 20
6.881355
 30
0.0
  0
POINT
  5
180
330
175
100
AcDbEntity
  8
Defpoints
 62
     0
440
 16777216
100
AcDbPoint
 10
9.82011
 20
7.560177
 30
0.0
  0
ENDBLK
  5
181
330
175
100
AcDbEntity
  8
0
100
AcDbBlockEnd
  0
BLOCK
  5
184
330
183
100
AcDbEntity
  8
0
100
AcDbBlockBegin
  2
*D8
 70
     1
 10
0.0
 20
0.0
 30
0.0
  3
*D8
  1

  0
LINE
  5
185
330
183
100
AcDbEntity
  8
Dimensions
440
 16777216
370
    -2
100
AcDbLine
 10
9.868978
 20
6.881355
 30
0.0
 11
10.5978
 21
6.881355
 31
0.0
  0
LINE
  5
186
330
183
100
AcDbEntity
  8
Dimensions
440
 16777216
370
    -2
100
AcDbLine
 10
8.546798
 20
4.915054
 30
0.0
 11
10.5978
 21
4.915054
 31
0.0
  0
LINE
  5
187
330
183
100
AcDbEntity
  8
Dimensions
440
 16777216
370
    -2
100
AcDbLine
 10
10.4978
 20
6.761355
 30
0.0
 11
10.4978
 21
6.019474
 31
0.0
  0
LINE
  5
188
330
183
100
AcDbEntity
  8
Dimensions
440
 16777216
370
    -2
100
AcDbLine
 10
10.4978
 20
5.035054
 30
0.0
 11
10.4978
 21
5.776936
 31
0.0
  0
SOLID
  5
189
330
183
100
AcDbEntity
  8
Dimensions
440
 16777216
100
AcDbTrace
 10
10.4778
 20
6.761355
 30
0.0
 11
10.5178
 21
6.761355
 31
0.0
 12
10.4978
 22
6.881355
 32
0.0
 13
10.4978
 23
6.881355
 33
0.0
  0
SOLID
  5
18A
330
183
100
AcDbEntity
  8
Dimensions
440
 16777216
100
AcDbTrace
 10
10.4778
 20
5.035054
 30
0.0
 11
10.5178
 21
5.035054
 31
0.0
 12
10.4978
 22
4.915054
 32
0.0
 13
10.4978
 23
4.915054
 33
0.0
  0
MTEXT
  5
18B
330
183
100
AcDbEntity
  8
Dimensions
440
 16777216
100
AcDbMText
 10
10.4978
 20
5.898205
 30
0.0
 40
0.12
 41
0.0
 46
0.0
 71
     5
 72
     1
  1
\A1;1.97in
 73
     1
 44
1.0
  0
POINT
  5
18C
330
183
100
AcDbEntity
  8
Defpoints
 62
     0
440
 16777216
100
AcDbPoint
 10
9.818978
 20
6.881355
 30
0.0
  0
POINT
  5
18D
330
183
100
AcDbEntity
  8
Defpoints
 62
     0
440
 16777216
100
AcDbPoint
 10
8.496798
 20
4.915054
 30
0.0
  0
POINT
  5
18E
330
183
100
AcDbEntity
  8
Defpoints
 62
     0
440
 16777216
100
AcDbPoint
 10
10.4978
 20
4.915054
 30
0.0
  0
ENDBLK
  5
18F
330
183
100
AcDbEntity
  8
0
100
AcDbBlockEnd
  0
BLOCK
  5
192
330
191
100
AcDbEntity
  8
0
100
AcDbBlockBegin
  2
*D9
 70
     1
 10
0.0
 20
0.0
 30
0.0
  3
*D9
  1

  0
LINE
  5
193
330
191
100
AcDbEntity
  8
Dimensions
440
 16777216
370
    -2
100
AcDbLine
 10
7.212864
 20
3.659072
 30
0.0
 11
7.332864
 21
3.659072
 31
0.0
  0
LINE
  5
194
330
191
100
AcDbEntity
  8
Dimensions
440
 16777216
370
    -2
100
AcDbLine
 10
7.332864
 20
3.659072
 30
0.0
 11
7.746217
 21
4.105115
 31
0.0
  0
MTEXT
  5
195
330
191
100
AcDbEntity
  8
Dimensions
440
 16777216
100
AcDbMText
 10
6.868458
 20
3.659072
 30
0.0
 40
0.12
 41
0.0
 46
0.0
 71
     5
 72
     1
  1
\A1;∅1.97in
 73
     1
 44
1.0
  0
SOLID
  5
196
330
191
100
AcDbEntity
  8
Dimensions
440
 16777216
100
AcDbTrace
 10
7.731548
 20
4.118709
 30
0.0
 11
7.760887
 21
4.091521
 31
0.0
 12
7.827784
 22
4.193132
 32
0.0
 13
7.827784
 23
4.193132
 33
0.0
  0
POINT
  5
197
330
191
100
AcDbEntity
  8
Defpoints
 62
     0
440
 16777216
100
AcDbPoint
 10
7.827784
 20
4.193132
 30
0.0
  0
POINT
  5
198
330
191
100
AcDbEntity
  8
Defpoints
 62
     0
440
 16777216
100
AcDbPoint
 10
9.165812
 20
5.636977
 30
0.0
  0
ENDBLK
  5
199
330
191
100
AcDbEntity
  8
0
100
AcDbBlockEnd
  0
BLOCK
  5
19C
330
19B
100
AcDbEntity
  8
0
100
AcDbBlockBegin
  2
*D10
 70
     1
 10
0.0
 20
0.0
 30
0.0
  3
*D10
  1

  0
LINE
  5
19D
330
19B
100
AcDbEntity
  8
Dimensions
440
 16777216
370
    -2
100
AcDbLine
 10
2.681285
 20
5.809936
 30
0.0
 11
2.681285
 21
3.033093
 31
0.0
  0
LINE
  5
19E
330
19B
100
AcDbEntity
  8
Dimensions
440
 16777216
370
    -2
100
AcDbLine
 10
5.720655
 20
6.835745
 30
0.0
 11
5.720655
 21
3.033093
 31
0.0
  0
LINE
  5
19F
330
19B
100
AcDbEntity
  8
Dimensions
440
 16777216
370
    -2
100
AcDbLine
 10
2.801285
 20
3.133093
 30
0.0
 11
3.921884
 21
3.133093
 31
0.0
  0
LINE
  5
1A0
330
19B
100
AcDbEntity
  8
Dimensions
440
 16777216
370
    -2
100
AcDbLine
 10
5.600655
 20
3.133093
 30
0.0
 11
4.480056
 21
3.133093
 31
0.0
  0
SOLID
  5
1A1
330
19B
100
AcDbEntity
  8
Dimensions
440
 16777216
100
AcDbTrace
 10
2.801285
 20
3.153093
 30
0.0
 11
2.801285
 21
3.113093
 31
0.0
 12
2.681285
 22
3.133093
 32
0.0
 13
2.681285
 23
3.133093
 33
0.0
  0
SOLID
  5
1A2
330
19B
100
AcDbEntity
  8
Dimensions
440
 16777216
100
AcDbTrace
 10
5.600655
 20
3.153093
 30
0.0
 11
5.600655
 21
3.113093
 31
0.0
 12
5.720655
 22
3.133093
 32
0.0
 13
5.720655
 23
3.133093
 33
0.0
  0
MTEXT
  5
1A3
330
19B
100
AcDbEntity
  8
Dimensions
440
 16777216
100
AcDbMText
 10
4.20097
 20
3.133093
 30
0.0
 40
0.12
 41
0.0
 46
0.0
 71
     5
 72
     1
  1
\A1;3.04in
 73
     1
 44
1.0
  0
POINT
  5
1A4
330
19B
100
AcDbEntity
  8
Defpoints
 62
     0
440
 16777216
100
AcDbPoint
 10
2.681285
 20
5.859936
 30
0.0
  0
POINT
  5
1A5
330
19B
100
AcDbEntity
  8
Defpoints
 62
     0
440
 16777216
100
AcDbPoint
 10
5.720655
 20
6.885745
 30
0.0
  0
POINT
  5
1A6
330
19B
100
AcDbEntity
  8
Defpoints
 62
     0
440
 16777216
100
AcDbPoint
 10
5.720655
 20
3.133093
 30
0.0
  0
ENDBLK
  5
1A7
330
19B
100
AcDbEntity
  8
0
100
AcDbBlockEnd
  0
BLOCK
  5
1AA
330
1A9
100
AcDbEntity
  8
0
100
AcDbBlockBegin
  2
*D11
 70
     1
 10
0.0
 20
0.0
 30
0.0
  3
*D11
  1

  0
LINE
  5
1AB
330
1A9
100
AcDbEntity
  8
Dimensions
440
 16777216
370
    -2
100
AcDbLine
 10
8.640696
 20
4.400018
 30
0.0
 11
8.520696
 21
4.400018
 31
0.0
  0
LINE
  5
1AC
330
1A9
100
AcDbEntity
  8
Dimensions
440
 16777216
370
    -2
100
AcDbLine
 10
8.520696
 20
4.400018
 30
0.0
 11
8.515134
 21
4.519889
 31
0.0
  0
MTEXT
  5
1AD
330
1A9
100
AcDbEntity
  8
Dimensions
440
 16777216
100
AcDbMText
 10
8.938486
 20
4.400018
 30
0.0
 40
0.12
 41
0.0
 46
0.0
 71
     5
 72
     1
  1
\A1;∅.55in
 73
     1
 44
1.0
  0
SOLID
  5
1AE
330
1A9
100
AcDbEntity
  8
Dimensions
440
 16777216
100
AcDbTrace
 10
8.535112
 20
4.520816
 30
0.0
 11
8.495155
 21
4.518962
 31
0.0
 12
8.509572
 22
4.63976
 32
0.0
 13
8.509572
 23
4.63976
 33
0.0
  0
POINT
  5
1AF
330
1A9
100
AcDbEntity
  8
Defpoints
 62
     0
440
 16777216
100
AcDbPoint
 10
8.509572
 20
4.63976
 30
0.0
  0
POINT
  5
1B0
330
1A9
100
AcDbEntity
  8
Defpoints
 62
     0
440
 16777216
100
AcDbPoint
 10
8.484024
 20
5.190349
 30
0.0
  0
ENDBLK
  5
1B1
330
1A9
100
AcDbEntity
  8
0
100
AcDbBlockEnd
  0
BLOCK
  5
1B4
330
1B3
100
AcDbEntity
  8
0
100
AcDbBlockBegin
  2
*D12
 70
     1
 10
0.0
 20
0.0
 30
0.0
  3
*D12
  1

  0
LINE
  5
1B5
330
1B3
100
AcDbEntity
  8
Dimensions
440
 16777216
370
    -2
100
AcDbLine
 10
11.697068
 20
4.415771
 30
0.0
 11
11.817068
 21
4.415771
 31
0.0
  0
LINE
  5
1B6
330
1B3
100
AcDbEntity
  8
Dimensions
440
 16777216
370
    -2
100
AcDbLine
 10
11.817068
 20
4.415771
 30
0.0
 11
12.216264
 21
4.059358
 31
0.0
  0
MTEXT
  5
1B7
330
1B3
100
AcDbEntity
  8
Dimensions
440
 16777216
100
AcDbMText
 10
11.399278
 20
4.415771
 30
0.0
 40
0.12
 41
0.0
 46
0.0
 71
     5
 72
     1
  1
\A1;∅.22in
 73
     1
 44
1.0
  0
SOLID
  5
1B8
330
1B3
100
AcDbEntity
  8
Dimensions
440
 16777216
100
AcDbTrace
 10
12.229584
 20
4.074277
 30
0.0
 11
12.202944
 21
4.044439
 31
0.0
 12
12.305778
 22
3.979438
 32
0.0
 13
12.305778
 23
3.979438
 33
0.0
  0
POINT
  5
1B9
330
1B3
100
AcDbEntity
  8
Defpoints
 62
     0
440
 16777216
100
AcDbPoint
 10
12.305778
 20
3.979438
 30
0.0
  0
POINT
  5
1BA
330
1B3
100
AcDbEntity
  8
Defpoints
 62
     0
440
 16777216
100
AcDbPoint
 10
12.469887
 20
3.832917
 30
0.0
  0
ENDBLK
  5
1BB
330
1B3
100
AcDbEntity
  8
0
100
AcDbBlockEnd
  0
BLOCK
  5
1BE
330
1BD
100
AcDbEntity
  8
0
100
AcDbBlockBegin
  2
*D13
 70
     1
 10
0.0
 20
0.0
 30
0.0
  3
*D13
  1

  0
LINE
  5
1BF
330
1BD
100
AcDbEntity
  8
Dimensions
440
 16777216
370
    -2
100
AcDbLine
 10
14.117081
 20
3.856177
 30
0.0
 11
14.117081
 21
3.127355
 31
0.0
  0
LINE
  5
1C0
330
1BD
100
AcDbEntity
  8
Dimensions
440
 16777216
370
    -2
100
AcDbLine
 10
12.387832
 20
3.856177
 30
0.0
 11
12.387832
 21
3.127355
 31
0.0
  0
LINE
  5
1C1
330
1BD
100
AcDbEntity
  8
Dimensions
440
 16777216
370
    -2
100
AcDbLine
 10
13.997081
 20
3.227355
 30
0.0
 11
13.525936
 21
3.227355
 31
0.0
  0
LINE
  5
1C2
330
1BD
100
AcDbEntity
  8
Dimensions
440
 16777216
370
    -2
100
AcDbLine
 10
12.507832
 20
3.227355
 30
0.0
 11
12.978978
 21
3.227355
 31
0.0
  0
SOLID
  5
1C3
330
1BD
100
AcDbEntity
  8
Dimensions
440
 16777216
100
AcDbTrace
 10
13.997081
 20
3.247355
 30
0.0
 11
13.997081
 21
3.207355
 31
0.0
 12
14.117081
 22
3.227355
 32
0.0
 13
14.117081
 23
3.227355
 33
0.0
  0
SOLID
  5
1C4
330
1BD
100
AcDbEntity
  8
Dimensions
440
 16777216
100
AcDbTrace
 10
12.507832
 20
3.247355
 30
0.0
 11
12.507832
 21
3.207355
 31
0.0
 12
12.387832
 22
3.227355
 32
0.0
 13
12.387832
 23
3.227355
 33
0.0
  0
MTEXT
  5
1C5
330
1BD
100
AcDbEntity
  8
Dimensions
440
 16777216
100
AcDbMText
 10
13.252457
 20
3.227355
 30
0.0
 40
0.12
 41
0.0
 46
0.0
 71
     5
 72
     1
  1
\A1;1.73in
 73
     1
 44
1.0
  0
POINT
  5
1C6
330
1BD
100
AcDbEntity
  8
Defpoints
 62
     0
440
 16777216
100
AcDbPoint
 10
14.117081
 20
3.906177
 30
0.0
  0
POINT
  5
1C7
330
1BD
100
AcDbEntity
  8
Defpoints
 62
     0
440
 16777216
100
AcDbPoint
 10
12.387832
 20
3.906177
 30
0.0
  0
POINT
  5
1C8
330
1BD
100
AcDbEntity
  8
Defpoints
 62
     0
440
 16777216
100
AcDbPoint
 10
12.387832
 20
3.227355
 30
0.0
  0
ENDBLK
  5
1C9
330
1BD
100
AcDbEntity
  8
0
100
AcDbBlockEnd
  0
BLOCK
  5
1CC
330
1CB
100
AcDbEntity
  8
0
100
AcDbBlockBegin
  2
*D14
 70
     1
 10
0.0
 20
0.0
 30
0.0
  3
*D14
  1

  0
LINE
  5
390
330
1CB
100
AcDbEntity
  8
Dimensions
440
 16777216
370
    -2
100
AcDbLine
 10
5.453426
 20
7.790401
 30
0.0
 11
5.333426
 21
7.790401
 31
0.0
  0
LINE
  5
391
330
1CB
100
AcDbEntity
  8
Dimensions
440
 16777216
370
    -2
100
AcDbLine
 10
5.333426
 20
7.790401
 30
0.0
 11
5.131295
 21
7.869433
 31
0.0
  0
MTEXT
  5
392
330
1CB
100
AcDbEntity
  8
Dimensions
440
 16777216
100
AcDbMText
 10
5.797833
 20
7.790401
 30
0.0
 40
0.12
 41
0.0
 46
0.0
 71
     5
 72
     1
  1
\A1;∅1.51in
 73
     1
 44
1.0
  0
SOLID
  5
393
330
1CB
100
AcDbEntity
  8
Dimensions
440
 16777216
100
AcDbTrace
 10
5.138578
 20
7.88806
 30
0.0
 11
5.124012
 21
7.850807
 31
0.0
 12
5.019534
 22
7.913131
 32
0.0
 13
5.019534
 23
7.913131
 33
0.0
  0
ARC
  5
394
330
1CB
100
AcDbEntity
  8
Dimensions
440
 16777216
370
    -2
100
AcDbCircle
 10
5.720958
 20
7.638879
 30
0.0
 40
0.7531332610132804
100
AcDbArc
 50
151.037134
 51
225.367395
  0
POINT
  5
395
330
1CB
100
AcDbEntity
  8
Defpoints
 62
     0
440
 16777216
100
AcDbPoint
 10
5.019534
 20
7.913131
 30
0.0
  0
POINT
  5
396
330
1CB
100
AcDbEntity
  8
Defpoints
 62
     0
440
 16777216
100
AcDbPoint
 10
6.422381
 20
7.364626
 30
0.0
  0
ENDBLK
  5
1CD
330
1CB
100
AcDbEntity
  8
0
100
AcDbBlockEnd
  0
BLOCK
  5
1D6
330
1D5
100
AcDbEntity
  8
0
100
AcDbBlockBegin
  2
*D15
 70
     1
 10
0.0
 20
0.0
 30
0.0
  3
*D15
  1

  0
LINE
  5
397
330
1D5
100
AcDbEntity
  8
Dimensions
440
 16777216
370
    -2
100
AcDbLine
 10
7.181269
 20
6.935756
 30
0.0
 11
7.182485
 21
7.664577
 31
0.0
  0
LINE
  5
398
330
1D5
100
AcDbEntity
  8
Dimensions
440
 16777216
370
    -2
100
AcDbLine
 10
9.819061
 20
6.931355
 30
0.0
 11
9.820277
 21
7.660177
 31
0.0
  0
LINE
  5
399
330
1D5
100
AcDbEntity
  8
Dimensions
440
 16777216
370
    -2
100
AcDbLine
 10
7.302318
 20
7.564377
 30
0.0
 11
8.221064
 21
7.562845
 31
0.0
  0
LINE
  5
39A
330
1D5
100
AcDbEntity
  8
Dimensions
440
 16777216
370
    -2
100
AcDbLine
 10
9.70011
 20
7.560377
 30
0.0
 11
8.781364
 21
7.56191
 31
0.0
  0
SOLID
  5
39B
330
1D5
100
AcDbEntity
  8
Dimensions
440
 16777216
100
AcDbTrace
 10
7.302352
 20
7.584377
 30
0.0
 11
7.302285
 21
7.544377
 31
0.0
 12
7.182319
 22
7.564578
 32
0.0
 13
7.182319
 23
7.564578
 33
0.0
  0
SOLID
  5
39C
330
1D5
100
AcDbEntity
  8
Dimensions
440
 16777216
100
AcDbTrace
 10
9.700144
 20
7.580377
 30
0.0
 11
9.700077
 21
7.540377
 31
0.0
 12
9.82011
 22
7.560177
 32
0.0
 13
9.82011
 23
7.560177
 33
0.0
  0
MTEXT
  5
39D
330
1D5
100
AcDbEntity
  8
Dimensions
440
 16777216
100
AcDbMText
 10
8.501214
 20
7.562377
 30
0.0
 40
0.12
 41
0.0
 46
0.0
 71
     5
 72
     1
  1
\A1;2.64in
 73
     1
 44
1.0
  0
POINT
  5
39E
330
1D5
100
AcDbEntity
  8
Defpoints
 62
     0
440
 16777216
100
AcDbPoint
 10
7.181186
 20
6.885756
 30
0.0
  0
POINT
  5
39F
330
1D5
100
AcDbEntity
  8
Defpoints
 62
     0
440
 16777216
100
AcDbPoint
 10
9.818978
 20
6.881355
 30
0.0
  0
POINT
  5
3A0
330
1D5
100
AcDbEntity
  8
Defpoints
 62
     0
440
 16777216
100
AcDbPoint
 10
9.82011
 20
7.560177
 30
0.0
  0
ENDBLK
  5
1D7
330
1D5
100
AcDbEntity
  8
0
100
AcDbBlockEnd
  0
BLOCK
  5
1E3
330
1E2
100
AcDbEntity
  8
0
100
AcDbBlockBegin
  2
*D16
 70
     1
 10
0.0
 20
0.0
 30
0.0
  3
*D16
  1

  0
LINE
  5
3A1
330
1E2
100
AcDbEntity
  8
Dimensions
440
 16777216
370
    -2
100
AcDbLine
 10
9.868978
 20
6.881355
 30
0.0
 11
10.5978
 21
6.881355
 31
0.0
  0
LINE
  5
3A2
330
1E2
100
AcDbEntity
  8
Dimensions
440
 16777216
370
    -2
100
AcDbLine
 10
8.546798
 20
4.915054
 30
0.0
 11
10.5978
 21
4.915054
 31
0.0
  0
LINE
  5
3A3
330
1E2
100
AcDbEntity
  8
Dimensions
440
 16777216
370
    -2
100
AcDbLine
 10
10.4978
 20
6.761355
 30
0.0
 11
10.4978
 21
6.019474
 31
0.0
  0
LINE
  5
3A4
330
1E2
100
AcDbEntity
  8
Dimensions
440
 16777216
370
    -2
100
AcDbLine
 10
10.4978
 20
5.035054
 30
0.0
 11
10.4978
 21
5.776936
 31
0.0
  0
SOLID
  5
3A5
330
1E2
100
AcDbEntity
  8
Dimensions
440
 16777216
100
AcDbTrace
 10
10.4778
 20
6.761355
 30
0.0
 11
10.5178
 21
6.761355
 31
0.0
 12
10.4978
 22
6.881355
 32
0.0
 13
10.4978
 23
6.881355
 33
0.0
  0
SOLID
  5
3A6
330
1E2
100
AcDbEntity
  8
Dimensions
440
 16777216
100
AcDbTrace
 10
10.4778
 20
5.035054
 30
0.0
 11
10.5178
 21
5.035054
 31
0.0
 12
10.4978
 22
4.915054
 32
0.0
 13
10.4978
 23
4.915054
 33
0.0
  0
MTEXT
  5
3A7
330
1E2
100
AcDbEntity
  8
Dimensions
440
 16777216
100
AcDbMText
 10
10.4978
 20
5.898205
 30
0.0
 40
0.12
 41
0.0
 46
0.0
 71
     5
 72
     1
  1
\A1;1.97in
 73
     1
 44
1.0
  0
POINT
  5
3A8
330
1E2
100
AcDbEntity
  8
Defpoints
 62
     0
440
 16777216
100
AcDbPoint
 10
9.818978
 20
6.881355
 30
0.0
  0
POINT
  5
3A9
330
1E2
100
AcDbEntity
  8
Defpoints
 62
     0
440
 16777216
100
AcDbPoint
 10
8.496798
 20
4.915054
 30
0.0
  0
POINT
  5
3AA
330
1E2
100
AcDbEntity
  8
Defpoints
 62
     0
440
 16777216
100
AcDbPoint
 10
10.4978
 20
4.915054
 30
0.0
  0
ENDBLK
  5
1E4
330
1E2
100
AcDbEntity
  8
0
100
AcDbBlockEnd
  0
BLOCK
  5
1F0
330
1EF
100
AcDbEntity
  8
0
100
AcDbBlockBegin
  2
*D17
 70
     1
 10
0.0
 20
0.0
 30
0.0
  3
*D17
  1

  0
LINE
  5
3AB
330
1EF
100
AcDbEntity
  8
Dimensions
440
 16777216
370
    -2
100
AcDbLine
 10
7.212864
 20
3.659072
 30
0.0
 11
7.332864
 21
3.659072
 31
0.0
  0
LINE
  5
3AC
330
1EF
100
AcDbEntity
  8
Dimensions
440
 16777216
370
    -2
100
AcDbLine
 10
7.332864
 20
3.659072
 30
0.0
 11
7.746217
 21
4.105115
 31
0.0
  0
MTEXT
  5
3AD
330
1EF
100
AcDbEntity
  8
Dimensions
440
 16777216
100
AcDbMText
 10
6.868458
 20
3.659072
 30
0.0
 40
0.12
 41
0.0
 46
0.0
 71
     5
 72
     1
  1
\A1;∅1.97in
 73
     1
 44
1.0
  0
SOLID
  5
3AE
330
1EF
100
AcDbEntity
  8
Dimensions
440
 16777216
100
AcDbTrace
 10
7.731548
 20
4.118709
 30
0.0
 11
7.760887
 21
4.091521
 31
0.0
 12
7.827784
 22
4.193132
 32
0.0
 13
7.827784
 23
4.193132
 33
0.0
  0
POINT
  5
3AF
330
1EF
100
AcDbEntity
  8
Defpoints
 62
     0
440
 16777216
100
AcDbPoint
 10
7.827784
 20
4.193132
 30
0.0
  0
POINT
  5
3B0
330
1EF
100
AcDbEntity
  8
Defpoints
 62
     0
440
 16777216
100
AcDbPoint
 10
9.165812
 20
5.636977
 30
0.0
  0
ENDBLK
  5
1F1
330
1EF
100
AcDbEntity
  8
0
100
AcDbBlockEnd
  0
BLOCK
  5
1F9
330
1F8
100
AcDbEntity
  8
0
100
AcDbBlockBegin
  2
*D18
 70
     1
 10
0.0
 20
0.0
 30
0.0
  3
*D18
  1

  0
LINE
  5
3B1
330
1F8
100
AcDbEntity
  8
Dimensions
440
 16777216
370
    -2
100
AcDbLine
 10
2.681285
 20
5.809936
 30
0.0
 11
2.681285
 21
3.033093
 31
0.0
  0
LINE
  5
3B2
330
1F8
100
AcDbEntity
  8
Dimensions
440
 16777216
370
    -2
100
AcDbLine
 10
5.720655
 20
6.835745
 30
0.0
 11
5.720655
 21
3.033093
 31
0.0
  0
LINE
  5
3B3
330
1F8
100
AcDbEntity
  8
Dimensions
440
 16777216
370
    -2
100
AcDbLine
 10
2.801285
 20
3.133093
 30
0.0
 11
3.921884
 21
3.133093
 31
0.0
  0
LINE
  5
3B4
330
1F8
100
AcDbEntity
  8
Dimensions
440
 16777216
370
    -2
100
AcDbLine
 10
5.600655
 20
3.133093
 30
0.0
 11
4.480056
 21
3.133093
 31
0.0
  0
SOLID
  5
3B5
330
1F8
100
AcDbEntity
  8
Dimensions
440
 16777216
100
AcDbTrace
 10
2.801285
 20
3.153093
 30
0.0
 11
2.801285
 21
3.113093
 31
0.0
 12
2.681285
 22
3.133093
 32
0.0
 13
2.681285
 23
3.133093
 33
0.0
  0
SOLID
  5
3B6
330
1F8
100
AcDbEntity
  8
Dimensions
440
 16777216
100
AcDbTrace
 10
5.600655
 20
3.153093
 30
0.0
 11
5.600655
 21
3.113093
 31
0.0
 12
5.720655
 22
3.133093
 32
0.0
 13
5.720655
 23
3.133093
 33
0.0
  0
MTEXT
  5
3B7
330
1F8
100
AcDbEntity
  8
Dimensions
440
 16777216
100
AcDbMText
 10
4.20097
 20
3.133093
 30
0.0
 40
0.12
 41
0.0
 46
0.0
 71
     5
 72
     1
  1
\A1;3.04in
 73
     1
 44
1.0
  0
POINT
  5
3B8
330
1F8
100
AcDbEntity
  8
Defpoints
 62
     0
440
 16777216
100
AcDbPoint
 10
2.681285
 20
5.859936
 30
0.0
  0
POINT
  5
3B9
330
1F8
100
AcDbEntity
  8
Defpoints
 62
     0
440
 16777216
100
AcDbPoint
 10
5.720655
 20
6.885745
 30
0.0
  0
POINT
  5
3BA
330
1F8
100
AcDbEntity
  8
Defpoints
 62
     0
440
 16777216
100
AcDbPoint
 10
5.720655
 20
3.133093
 30
0.0
  0
ENDBLK
  5
1FA
330
1F8
100
AcDbEntity
  8
0
100
AcDbBlockEnd
  0
BLOCK
  5
206
330
205
100
AcDbEntity
  8
0
100
AcDbBlockBegin
  2
*D19
 70
     1
 10
0.0
 20
0.0
 30
0.0
  3
*D19
  1

  0
LINE
  5
3BB
330
205
100
AcDbEntity
  8
Dimensions
440
 16777216
370
    -2
100
AcDbLine
 10
8.640696
 20
4.400018
 30
0.0
 11
8.520696
 21
4.400018
 31
0.0
  0
LINE
  5
3BC
330
205
100
AcDbEntity
  8
Dimensions
440
 16777216
370
    -2
100
AcDbLine
 10
8.520696
 20
4.400018
 30
0.0
 11
8.515134
 21
4.519889
 31
0.0
  0
MTEXT
  5
3BD
330
205
100
AcDbEntity
  8
Dimensions
440
 16777216
100
AcDbMText
 10
8.938486
 20
4.400018
 30
0.0
 40
0.12
 41
0.0
 46
0.0
 71
     5
 72
     1
  1
\A1;∅.55in
 73
     1
 44
1.0
  0
SOLID
  5
3BE
330
205
100
AcDbEntity
  8
Dimensions
440
 16777216
100
AcDbTrace
 10
8.535112
 20
4.520816
 30
0.0
 11
8.495155
 21
4.518962
 31
0.0
 12
8.509572
 22
4.63976
 32
0.0
 13
8.509572
 23
4.63976
 33
0.0
  0
POINT
  5
3BF
330
205
100
AcDbEntity
  8
Defpoints
 62
     0
440
 16777216
100
AcDbPoint
 10
8.509572
 20
4.63976
 30
0.0
  0
POINT
  5
3C0
330
205
100
AcDbEntity
  8
Defpoints
 62
     0
440
 16777216
100
AcDbPoint
 10
8.484024
 20
5.190349
 30
0.0
  0
ENDBLK
  5
207
330
205
100
AcDbEntity
  8
0
100
AcDbBlockEnd
  0
BLOCK
  5
20F
330
20E
100
AcDbEntity
  8
0
100
AcDbBlockBegin
  2
*D20
 70
     1
 10
0.0
 20
0.0
 30
0.0
  3
*D20
  1

  0
LINE
  5
3C1
330
20E
100
AcDbEntity
  8
Dimensions
440
 16777216
370
    -2
100
AcDbLine
 10
11.697068
 20
4.415771
 30
0.0
 11
11.817068
 21
4.415771
 31
0.0
  0
LINE
  5
3C2
330
20E
100
AcDbEntity
  8
Dimensions
440
 16777216
370
    -2
100
AcDbLine
 10
11.817068
 20
4.415771
 30
0.0
 11
12.216264
 21
4.059358
 31
0.0
  0
MTEXT
  5
3C3
330
20E
100
AcDbEntity
  8
Dimensions
440
 16777216
100
AcDbMText
 10
11.399278
 20
4.415771
 30
0.0
 40
0.12
 41
0.0
 46
0.0
 71
     5
 72
     1
  1
\A1;∅.22in
 73
     1
 44
1.0
  0
SOLID
  5
3C4
330
20E
100
AcDbEntity
  8
Dimensions
440
 16777216
100
AcDbTrace
 10
12.229584
 20
4.074277
 30
0.0
 11
12.202944
 21
4.044439
 31
0.0
 12
12.305778
 22
3.979438
 32
0.0
 13
12.305778
 23
3.979438
 33
0.0
  0
POINT
  5
3C5
330
20E
100
AcDbEntity
  8
Defpoints
 62
     0
440
 16777216
100
AcDbPoint
 10
12.305778
 20
3.979438
 30
0.0
  0
POINT
  5
3C6
330
20E
100
AcDbEntity
  8
Defpoints
 62
     0
440
 16777216
100
AcDbPoint
 10
12.469887
 20
3.832917
 30
0.0
  0
ENDBLK
  5
210
330
20E
100
AcDbEntity
  8
0
100
AcDbBlockEnd
  0
BLOCK
  5
218
330
217
100
AcDbEntity
  8
0
100
AcDbBlockBegin
  2
*D21
 70
     1
 10
0.0
 20
0.0
 30
0.0
  3
*D21
  1

  0
LINE
  5
3C7
330
217
100
AcDbEntity
  8
Dimensions
440
 16777216
370
    -2
100
AcDbLine
 10
14.117081
 20
3.856177
 30
0.0
 11
14.117081
 21
3.127355
 31
0.0
  0
LINE
  5
3C8
330
217
100
AcDbEntity
  8
Dimensions
440
 16777216
370
    -2
100
AcDbLine
 10
12.387832
 20
3.856177
 30
0.0
 11
12.387832
 21
3.127355
 31
0.0
  0
LINE
  5
3C9
330
217
100
AcDbEntity
  8
Dimensions
440
 16777216
370
    -2
100
AcDbLine
 10
13.997081
 20
3.227355
 30
0.0
 11
13.525936
 21
3.227355
 31
0.0
  0
LINE
  5
3CA
330
217
100
AcDbEntity
  8
Dimensions
440
 16777216
370
    -2
100
AcDbLine
 10
12.507832
 20
3.227355
 30
0.0
 11
12.978978
 21
3.227355
 31
0.0
  0
SOLID
  5
3CB
330
217
100
AcDbEntity
  8
Dimensions
440
 16777216
100
AcDbTrace
 10
13.997081
 20
3.247355
 30
0.0
 11
13.997081
 21
3.207355
 31
0.0
 12
14.117081
 22
3.227355
 32
0.0
 13
14.117081
 23
3.227355
 33
0.0
  0
SOLID
  5
3CC
330
217
100
AcDbEntity
  8
Dimensions
440
 16777216
100
AcDbTrace
 10
12.507832
 20
3.247355
 30
0.0
 11
12.507832
 21
3.207355
 31
0.0
 12
12.387832
 22
3.227355
 32
0.0
 13
12.387832
 23
3.227355
 33
0.0
  0
MTEXT
  5
3CD
330
217
100
AcDbEntity
  8
Dimensions
440
 16777216
100
AcDbMText
 10
13.252457
 20
3.227355
 30
0.0
 40
0.12
 41
0.0
 46
0.0
 71
     5
 72
     1
  1
\A1;1.73in
 73
     1
 44
1.0
  0
POINT
  5
3CE
330
217
100
AcDbEntity
  8
Defpoints
 62
     0
440
 16777216
100
AcDbPoint
 10
14.117081
 20
3.906177
 30
0.0
  0
POINT
  5
3CF
330
217
100
AcDbEntity
  8
Defpoints
 62
     0
440
 16777216
100
AcDbPoint
 10
12.387832
 20
3.906177
 30
0.0
  0
POINT
  5
3D0
330
217
100
AcDbEntity
  8
Defpoints
 62
     0
440
 16777216
100
AcDbPoint
 10
12.387832
 20
3.227355
 30
0.0
  0
ENDBLK
  5
219
330
217
100
AcDbEntity
  8
0
100
AcDbBlockEnd
  0
ENDSEC
  0
SECTION
  2
ENTITIES
  0
INSERT
  5
122
330
70
100
AcDbEntity
  8
Titleblock
100
AcDbBlockReference
 66
     1
  2
Shower
 10
16.38
 20
0.38
 30
0.0
  0
ATTRIB
  5
142
330
122
100
AcDbEntity
  8
Titleblock
  6
Continuous
370
    25
100
AcDbText
 10
12.6925
 20
2.6925
 30
0.0
 40
0.12
  1
Railing Products and Mock Ups
100
AcDbAttribute
280
     0
  2
PROJECT
 70
     0
280
     1
1001
FD_ATT_APPNAME
1005
130
  0
ATTRIB
  5
143
330
122
100
AcDbEntity
  8
Titleblock
  6
Continuous
370
    25
100
AcDbText
 10
14.6925
 20
1.0675
 30
0.0
 40
0.12
  1
3/23/2020
100
AcDbAttribute
280
     0
  2
DRAWN_DATE
 70
     0
280
     1
1001
FD_ATT_APPNAME
1005
132
  0
ATTRIB
  5
144
330
122
100
AcDbEntity
  8
Titleblock
  6
Continuous
370
    25
100
AcDbText
 10
12.0675
 20
2.1925
 30
0.0
 40
0.3048
  1
M13-0117-038-12
100
AcDbAttribute
280
     0
  2
TITLE_1
 70
     0
280
     1
1001
FD_ATT_APPNAME
1005
133
1001
FUSIONTITLEBLOCKATTRIBUTEOVERRIDE
1070
     1
  0
ATTRIB
  5
145
330
122
100
AcDbEntity
  8
Titleblock
  6
Continuous
370
    25
100
AcDbText
 10
14.6925
 20
1.29994
 30
0.0
 40
0.12
  1
1:1
100
AcDbAttribute
280
     0
  2
SCALE
 70
     0
280
     1
1001
FD_ATT_APPNAME
1005
134
  0
SEQEND
  5
146
330
122
100
AcDbEntity
  8
Titleblock
  0
INSERT
  5
147
330
70
100
AcDbEntity
  8
Border
100
AcDbBlockReference
  2
ANSI_B_SHEET
 10
0.0
 20
0.0
 30
0.0
  0
DIMENSION
  5
168
330
70
100
AcDbEntity
  8
Dimensions
100
AcDbDimension
280
     0
  2
*D14
 10
6.422381
 20
7.364626
 30
0.0
 11
5.797833
 21
7.790401
 31
0.0
 70
   163
 71
     5
 42
1.506267
 73
     0
 74
     0
 75
     0
  3
Standard
100
AcDbDiametricDimension
 15
5.019534
 25
7.913131
 35
0.0
 40
0.0
1001
ACAD_DIMASSOC_CALC_DIMLFAC
1040
-1.0
1001
ACAD_DIMASSOC_DIMLFAC
1040
-1.0
1001
ACAD_DIMASSOC_OVERRIDDEN_DIMLFAC
1040
0.0
1001
ACAD_DSTYLE_DIMJAG_POSITION
1070
   387
1070
     0
1070
   389
1010
0.0
1020
0.0
1030
0.0
1001
ACAD_DSTYLE_DIMRADIAL_EXTENSION
1070
   387
1070
     1
1070
   388
1040
3.999792
1070
   390
1040
4.711987
1001
ACAD
1000
DSTYLE
1002
{
1070
   144
1040
1.0
1070
   288
1070
     1
1002
}
  0
DIMENSION
  5
174
330
70
100
AcDbEntity
  8
Dimensions
100
AcDbDimension
280
     0
  2
*D15
 10
9.82011
 20
7.560177
 30
0.0
 11
8.501214
 21
7.562377
 31
0.0
 70
    33
 71
     5
 42
2.637795
 73
     0
 74
     0
 75
     0
  3
Standard
100
AcDbAlignedDimension
 13
7.181186
 23
6.885756
 33
0.0
 14
9.818978
 24
6.881355
 34
0.0
1001
ACAD_DIMASSOC_CALC_DIMLFAC
1040
-1.0
1001
ACAD_DIMASSOC_DIMLFAC
1040
-1.0
1001
ACAD_DIMASSOC_OVERRIDDEN_DIMLFAC
1040
0.0
1001
ACAD_DSTYLE_DIMJAG_POSITION
1070
   387
1070
     0
1070
   389
1010
0.0
1020
0.0
1030
0.0
1001
ACAD
1000
DSTYLE
1002
{
1070
   177
1070
   256
1070
   176
1070
   256
1070
   144
1040
1.0
1002
}
  0
DIMENSION
  5
182
330
70
100
AcDbEntity
  8
Dimensions
100
AcDbDimension
280
     0
  2
*D16
 10
10.4978
 20
4.915054
 30
0.0
 11
10.4978
 21
5.898205
 31
0.0
 70
    32
 71
     5
 42
1.966301
 73
     0
 74
     0
 75
     0
  3
Standard
100
AcDbAlignedDimension
 13
9.818978
 23
6.881355
 33
0.0
 14
8.496798
 24
4.915054
 34
0.0
 50
90.0
100
AcDbRotatedDimension
1001
ACAD_DIMASSOC_CALC_DIMLFAC
1040
-1.0
1001
ACAD_DIMASSOC_DIMLFAC
1040
-1.0
1001
ACAD_DIMASSOC_OVERRIDDEN_DIMLFAC
1040
0.0
1001
ACAD_DSTYLE_DIMJAG_POSITION
1070
   387
1070
     0
1070
   389
1010
0.0
1020
0.0
1030
0.0
1001
ACAD
1000
DSTYLE
1002
{
1070
   177
1070
   256
1070
   176
1070
   256
1070
   144
1040
1.0
1002
}
  0
DIMENSION
  5
190
330
70
100
AcDbEntity
  8
Dimensions
100
AcDbDimension
280
     0
  2
*D17
 10
9.165812
 20
5.636977
 30
0.0
 11
6.868458
 21
3.659072
 31
0.0
 70
   163
 71
     5
 42
1.968504
 73
     0
 74
     0
 75
     0
  3
Standard
100
AcDbDiametricDimension
 15
7.827784
 25
4.193132
 35
0.0
 40
0.0
1001
ACAD_DIMASSOC_CALC_DIMLFAC
1040
-1.0
1001
ACAD_DIMASSOC_DIMLFAC
1040
-1.0
1001
ACAD_DIMASSOC_OVERRIDDEN_DIMLFAC
1040
0.0
1001
ACAD_DSTYLE_DIMJAG_POSITION
1070
   387
1070
     0
1070
   389
1010
0.0
1020
0.0
1030
0.0
1001
ACAD_DSTYLE_DIMRADIAL_EXTENSION
1070
   387
1070
     1
1070
   388
1040
0.0
1070
   390
1040
0.0
1001
ACAD
1000
DSTYLE
1002
{
1070
   144
1040
1.0
1070
   288
1070
     1
1002
}
  0
DIMENSION
  5
19A
330
70
100
AcDbEntity
  8
Dimensions
100
AcDbDimension
280
     0
  2
*D18
 10
5.720655
 20
3.133093
 30
0.0
 11
4.20097
 21
3.133093
 31
0.0
 70
    32
 71
     5
 42
3.03937
 73
     0
 74
     0
 75
     0
  3
Standard
100
AcDbAlignedDimension
 13
2.681285
 23
5.859936
 33
0.0
 14
5.720655
 24
6.885745
 34
0.0
100
AcDbRotatedDimension
1001
ACAD_DIMASSOC_CALC_DIMLFAC
1040
-1.0
1001
ACAD_DIMASSOC_DIMLFAC
1040
-1.0
1001
ACAD_DIMASSOC_OVERRIDDEN_DIMLFAC
1040
0.0
1001
ACAD_DSTYLE_DIMJAG_POSITION
1070
   387
1070
     0
1070
   389
1010
0.0
1020
0.0
1030
0.0
1001
ACAD
1000
DSTYLE
1002
{
1070
   177
1070
   256
1070
   176
1070
   256
1070
   144
1040
1.0
1002
}
  0
DIMENSION
  5
1A8
330
70
100
AcDbEntity
  8
Dimensions
100
AcDbDimension
280
     0
  2
*D19
 10
8.484024
 20
5.190349
 30
0.0
 11
8.938486
 21
4.400018
 31
0.0
 70
   163
 71
     5
 42
0.551181
 73
     0
 74
     0
 75
     0
  3
Standard
100
AcDbDiametricDimension
 15
8.509572
 25
4.63976
 35
0.0
 40
0.0
1001
ACAD_DIMASSOC_CALC_DIMLFAC
1040
-1.0
1001
ACAD_DIMASSOC_DIMLFAC
1040
-1.0
1001
ACAD_DIMASSOC_OVERRIDDEN_DIMLFAC
1040
0.0
1001
ACAD_DSTYLE_DIMJAG_POSITION
1070
   387
1070
     0
1070
   389
1010
0.0
1020
0.0
1030
0.0
1001
ACAD_DSTYLE_DIMRADIAL_EXTENSION
1070
   387
1070
     1
1070
   388
1040
0.0
1070
   390
1040
0.0
1001
ACAD
1000
DSTYLE
1002
{
1070
   144
1040
1.0
1070
   288
1070
     1
1002
}
  0
DIMENSION
  5
1B2
330
70
100
AcDbEntity
  8
Dimensions
100
AcDbDimension
280
     0
  2
*D20
 10
12.469887
 20
3.832917
 30
0.0
 11
11.399278
 21
4.415771
 31
0.0
 70
   163
 71
     5
 42
0.22
 73
     0
 74
     0
 75
     0
  3
Standard
100
AcDbDiametricDimension
 15
12.305778
 25
3.979438
 35
0.0
 40
0.0
1001
ACAD_DIMASSOC_CALC_DIMLFAC
1040
-1.0
1001
ACAD_DIMASSOC_DIMLFAC
1040
-1.0
1001
ACAD_DIMASSOC_OVERRIDDEN_DIMLFAC
1040
0.0
1001
ACAD_DSTYLE_DIMJAG_POSITION
1070
   387
1070
     0
1070
   389
1010
0.0
1020
0.0
1030
0.0
1001
ACAD_DSTYLE_DIMRADIAL_EXTENSION
1070
   387
1070
     1
1070
   388
1040
0.0
1070
   390
1040
0.0
1001
ACAD
1000
DSTYLE
1002
{
1070
   144
1040
1.0
1070
   288
1070
     1
1002
}
  0
DIMENSION
  5
1BC
330
70
100
AcDbEntity
  8
Dimensions
100
AcDbDimension
280
     0
  2
*D21
 10
12.387832
 20
3.227355
 30
0.0
 11
13.252457
 21
3.227355
 31
0.0
 70
    33
 71
     5
 42
1.729249
 73
     0
 74
     0
 75
     0
  3
Standard
100
AcDbAlignedDimension
 13
14.117081
 23
3.906177
 33
0.0
 14
12.387832
 24
3.906177
 34
0.0
1001
ACAD_DIMASSOC_CALC_DIMLFAC
1040
-1.0
1001
ACAD_DIMASSOC_DIMLFAC
1040
-1.0
1001
ACAD_DIMASSOC_OVERRIDDEN_DIMLFAC
1040
0.0
1001
ACAD_TC
1000
DSTYLE_TC
1002
{
1070
   176
1004
18000000020000008C8C8CC2000000000000000000000000
1070
   177
1004
18000000020000008C8C8CC2000000000000000000000000
1002
}
1001
ACAD
1000
DSTYLE
1002
{
1070
   272
1070
     2
1070
   271
1070
     2
1070
   144
1040
1.0
1070
   176
1070
   256
1070
   177
1070
   256
1002
}
  0
SPLINE
  5
2E8
330
70
100
AcDbEntity
  8
Visible
100
AcDbSpline
 70
     1
 71
     3
 72
    38
 73
    34
 74
     0
 42
0.000000001
 43
0.0000000001
 40
0.0
 40
0.0
 40
0.0
 40
0.0
 40
0.1053842838510786
 40
0.1053842838510786
 40
0.2107685677021572
 40
0.2107685677021572
 40
0.3161515972514693
 40
0.3161515972514693
 40
0.4215346268007816
 40
0.4215346268007816
 40
0.5269000386366044
 40
0.5269000386366044
 40
0.632265450472427
 40
0.632265450472427
 40
0.7376476960117783
 40
0.7376476960117783
 40
0.8430299415511296
 40
0.8430299415511296
 40
0.9483945838391296
 40
0.9483945838391296
 40
1.053759226127129
 40
1.053759226127129
 40
1.159123067736541
 40
1.159123067736541
 40
1.264486909345954
 40
1.264486909345954
 40
1.369868035590321
 40
1.369868035590321
 40
1.475249161834689
 40
1.475249161834689
 40
1.580615500134531
 40
1.580615500134531
 40
1.685981838434373
 40
1.685981838434373
 40
1.685981838434373
 40
1.685981838434373
 10
9.372004200935407
 20
6.79101931626716
 30
1.703822636860422
 10
9.385834140199222
 20
6.790996242864869
 30
1.703822636860422
 10
9.400574188333848
 20
6.790590774253724
 30
1.70105531459194
 10
9.427670862140075
 20
6.789171871179604
 30
1.689824274717466
 10
9.440028897435695
 20
6.788178434959677
 30
1.681361440489126
 10
9.459542946069632
 20
6.786316965069042
 30
1.661847375322395
 10
9.468005844724757
 20
6.785327278646009
 30
1.649489303954396
 10
9.479236921533811
 20
6.783917214877147
 30
1.622392500632486
 10
9.482004200935989
 20
6.783515809293222
 30
1.607652412258175
 10
9.482004200935989
 20
6.783470561671189
 30
1.579995173497081
 10
9.479237748941159
 20
6.783823622763454
 30
1.565256150022833
 10
9.46800805323437
 20
6.785144549155619
 30
1.538159917852681
 10
9.459545664945835
 20
6.786093430472009
 30
1.525801432528169
 10
9.440031233907575
 20
6.787890343236187
 30
1.50628535459873
 10
9.427672137549961
 20
6.788855668240865
 30
1.497821623415802
 10
9.400574138684532
 20
6.790237104784612
 30
1.486589842777902
 10
9.385833872704097
 20
6.790633256509007
 30
1.483822636861077
 10
9.358176839301449
 20
6.790679398566881
 30
1.483822636861077
 10
9.343437632247514
 20
6.790332537721507
 30
1.486589018481026
 10
9.316340218925688
 20
6.789041663439876
 30
1.497819412299577
 10
9.303980732545824
 20
6.788117610978256
 30
1.506282621247009
 10
9.284464314245269
 20
6.786385709456062
 30
1.525799023833315
 10
9.276001022359196
 20
6.785464963847756
 30
1.538158555360496
 10
9.264770557796509
 20
6.784181422990275
 30
1.565256116446107
 10
9.262004200936644
 20
6.783837602557616
 30
1.579995379564934
 10
9.262004200936644
 20
6.783882849433885
 30
1.607652162480007
 10
9.264771369715163
 20
6.784275010387048
 30
1.622392477733228
 10
9.276003204366134
 20
6.785647687376703
 30
1.649490621470249
 10
9.284467011862943
 20
6.786609240985065
 30
1.661849762958809
 10
9.303983092409907
 20
6.788405706122704
 30
1.681364196725553
 10
9.316341541412839
 20
6.789357872663201
 30
1.689826513496882
 10
9.343437640658521
 20
6.790686212114481
 30
1.701056154748584
 10
9.358176616728087
 20
6.791042385740356
 30
1.703822636860422
 10
9.372004200935407
 20
6.79101931626716
 30
1.703822636860422
1001
ACAD_VIEW_EDGE_ID
1071
        0
1071
       -1
1071
        5
1071
        0
  0
SPLINE
  5
2E9
330
70
100
AcDbEntity
  8
Visible
100
AcDbSpline
 70
     1
 71
     3
 72
    38
 73
    34
 74
     0
 42
0.000000001
 43
0.0000000001
 40
0.0
 40
0.0
 40
0.0
 40
0.0
 40
0.1053842838510782
 40
0.1053842838510782
 40
0.2107685677021563
 40
0.2107685677021563
 40
0.3161515972514677
 40
0.3161515972514677
 40
0.4215346268007792
 40
0.4215346268007792
 40
0.5269000386366017
 40
0.5269000386366017
 40
0.6322654504724241
 40
0.6322654504724241
 40
0.737647696011775
 40
0.737647696011775
 40
0.8430299415511257
 40
0.8430299415511257
 40
0.9483945838391253
 40
0.9483945838391253
 40
1.053759226127124
 40
1.053759226127124
 40
1.159123067736536
 40
1.159123067736536
 40
1.264486909345947
 40
1.264486909345947
 40
1.369868035590315
 40
1.369868035590315
 40
1.475249161834682
 40
1.475249161834682
 40
1.580615500134524
 40
1.580615500134524
 40
1.685981838434366
 40
1.685981838434366
 40
1.685981838434366
 40
1.685981838434366
 10
7.642754835645973
 20
6.793904337344047
 30
1.703822636860422
 10
7.656584774907969
 20
6.793881263941756
 30
1.703822636860422
 10
7.671324823044415
 20
6.793475795330611
 30
1.70105531459194
 10
7.698421496848823
 20
6.792056892256489
 30
1.689824274717466
 10
7.710779532144442
 20
6.791063456036564
 30
1.681361440489126
 10
7.730293580778379
 20
6.789201986145929
 30
1.661847375322395
 10
7.738756479433504
 20
6.788212299722895
 30
1.649489303954396
 10
7.749987556244377
 20
6.786802235954034
 30
1.622392500632486
 10
7.752754835644736
 20
6.786400830370109
 30
1.607652412258175
 10
7.752754835644736
 20
6.786355582748075
 30
1.579995173497081
 10
7.749988383651725
 20
6.786708643840341
 30
1.565256150022833
 10
7.738758687944937
 20
6.788029570232504
 30
1.538159917852681
 10
7.730296299654582
 20
6.788978451548896
 30
1.525801432528169
 10
7.710781868616322
 20
6.790775364313073
 30
1.50628535459873
 10
7.698422772258709
 20
6.791740689317752
 30
1.497821623415802
 10
7.671324773395099
 20
6.793122125861497
 30
1.486589842777902
 10
7.656584507412844
 20
6.793518277585894
 30
1.483822636861077
 10
7.628927474012016
 20
6.793564419643768
 30
1.483822636861077
 10
7.614188266956261
 20
6.793217558798394
 30
1.486589018481026
 10
7.587090853634435
 20
6.791926684516763
 30
1.497819412299577
 10
7.574731367254571
 20
6.791002632055141
 30
1.506282621247009
 10
7.555214948954017
 20
6.789270730532948
 30
1.525799023833315
 10
7.546751657067943
 20
6.788349984924643
 30
1.538158555360496
 10
7.535521192505257
 20
6.787066444067162
 30
1.565256116446107
 10
7.532754835645391
 20
6.786722623634503
 30
1.579995379564934
 10
7.532754835645391
 20
6.786767870510772
 30
1.607652162480007
 10
7.53552200442391
 20
6.787160031463935
 30
1.622392477733228
 10
7.546753839074881
 20
6.788532708453589
 30
1.649490621470249
 10
7.55521764657351
 20
6.789494262061952
 30
1.661849762958809
 10
7.574733727118655
 20
6.791290727199589
 30
1.681364196725553
 10
7.587092176121586
 20
6.792242893740088
 30
1.689826513496882
 10
7.614188275367268
 20
6.793571233191368
 30
1.701056154748584
 10
7.628927251438653
 20
6.793927406817243
 30
1.703822636860422
 10
7.642754835645973
 20
6.793904337344047
 30
1.703822636860422
1001
ACAD_VIEW_EDGE_ID
1071
        2
1071
       -1
1071
        5
1071
        0
  0
ARC
  5
2EA
330
70
100
AcDbEntity
  8
Visible
100
AcDbCircle
 10
8.496798
 20
4.915054
 30
-1.163471
 40
0.9842519685039368
100
AcDbArc
 50
106.164614
 51
73.644205
  0
SPLINE
  5
2EB
330
70
100
AcDbEntity
  8
Visible
100
AcDbSpline
 70
     0
 71
     3
 72
    18
 73
    14
 74
     0
 42
0.000000001
 43
0.0000000001
 40
1.958520060224103
 40
1.958520060224103
 40
1.958520060224103
 40
1.958520060224103
 40
2.20208895629171
 40
2.20208895629171
 40
2.445657852359316
 40
2.445657852359316
 40
2.932795644494529
 40
2.932795644494529
 40
3.424917882471368
 40
3.424917882471368
 40
3.670979001459788
 40
3.670979001459788
 40
3.917040120448207
 40
3.917040120448207
 40
3.917040120448207
 40
3.917040120448207
 10
7.181186018397056
 20
6.885755989137699
 30
1.592434605388916
 10
7.181186018397056
 20
6.885755989137699
 30
1.624399027445178
 10
7.184353922049922
 20
6.887839559315755
 30
1.657142751999344
 10
7.197333722064286
 20
6.896229465336366
 30
1.721657564479755
 10
7.207140352174974
 20
6.902530982483803
 30
1.753430338372709
 10
7.245371662344041
 20
6.92634776057954
 30
1.844013796006038
 10
7.283041447992218
 20
6.948999215995462
 30
1.898029637592117
 10
7.368330715718911
 20
6.993490164263317
 30
1.983244559532977
 10
7.422289805062973
 20
7.018753315633691
 30
2.020587117811373
 10
7.512449121548343
 20
7.047439882211385
 30
2.058574757864334
 10
7.544057357161364
 20
7.055422811559402
 30
2.068341591473654
 10
7.608492724628376
 20
7.066233033716072
 30
2.081338345318727
 10
7.641326921024301
 20
7.069027418559743
 30
2.084560589641114
 10
7.673618361515764
 20
7.068973544614035
 30
2.084560589641114
1001
ACAD_VIEW_EDGE_ID
1071
        7
1071
       -1
1071
        5
1071
        0
  0
SPLINE
  5
2EC
330
70
100
AcDbEntity
  8
Visible
100
AcDbSpline
 70
     0
 71
     3
 72
    18
 73
    14
 74
     0
 42
0.000000001
 43
0.0000000001
 40
-3.876493427834808
 40
-3.876493427834808
 40
-3.876493427834808
 40
-3.876493427834808
 40
-3.633547920997592
 40
-3.633547920997592
 40
-3.390602414160375
 40
-3.390602414160375
 40
-2.904711400485942
 40
-2.904711400485942
 40
-2.421479057201674
 40
-2.421479057201674
 40
-2.179862885559539
 40
-2.179862885559539
 40
-1.938246713917404
 40
-1.938246713917404
 40
-1.938246713917404
 40
-1.938246713917404
 10
7.673409562503366
 20
6.943821752391025
 30
2.084560589641114
 10
7.641526994430023
 20
6.94387494418784
 30
2.084560589641114
 10
7.608918626510785
 20
6.941656484332764
 30
2.081415514241598
 10
7.544666741538094
 20
6.932870873099295
 30
2.068555355945136
 10
7.513019220965361
 20
6.926323590398141
 30
2.058846710628131
 10
7.422584168454704
 20
6.902454548536308
 30
2.020898348529954
 10
7.3682872211848
 20
6.880990466884004
 30
1.983388755483247
 10
7.282521091976377
 20
6.842591347576407
 30
1.897686809337756
 10
7.244812671078761
 20
6.82280946495126
 30
1.843357599560476
 10
7.206722144674131
 20
6.801986327182428
 30
1.752704045078644
 10
7.196991425813394
 20
6.796474434728551
 30
1.720975433143394
 10
7.184138846236237
 20
6.789144563852991
 30
1.656695522638983
 10
7.181021809359663
 20
6.787330929267607
 30
1.624142764398129
 10
7.181021809359663
 20
6.787330929267607
 30
1.592434605388916
1001
ACAD_VIEW_EDGE_ID
1071
       11
1071
       -1
1071
        5
1071
        0
  0
SPLINE
  5
2ED
330
70
100
AcDbEntity
  8
Visible
100
AcDbSpline
 70
     0
 71
     3
 72
    18
 73
    14
 74
     0
 42
0.000000001
 43
0.0000000001
 40
-3.917040120448207
 40
-3.917040120448207
 40
-3.917040120448207
 40
-3.917040120448207
 40
-3.670979001459787
 40
-3.670979001459787
 40
-3.424917882471368
 40
-3.424917882471368
 40
-2.93279564449453
 40
-2.93279564449453
 40
-2.445657852359317
 40
-2.445657852359317
 40
-2.20208895629171
 40
-2.20208895629171
 40
-1.958520060224103
 40
-1.958520060224103
 40
-1.958520060224103
 40
-1.958520060224103
 10
9.327159367332569
 20
7.066214832800094
 30
2.084560589641114
 10
9.359450807824032
 20
7.066160958854387
 30
2.084560589641114
 10
9.392275497348236
 20
7.063257030949102
 30
2.081338345318727
 10
9.456674435394234
 20
7.052231866000324
 30
2.068341591473654
 10
9.488255858224874
 20
7.04414351316619
 30
2.058574757864334
 10
9.578318953679627
 20
7.015156269619975
 30
2.020587117811373
 10
9.632193446501332
 20
6.989713212353093
 30
1.983244559532977
 10
9.717333785463779
 20
6.944937925101346
 30
1.898029637592117
 10
9.754927779777062
 20
6.922160902143881
 30
1.844013796006038
 10
9.793079407127152
 20
6.898216689342037
 30
1.753430338372709
 10
9.802864956227494
 20
6.891882485266325
 30
1.721657564479755
 10
9.815816689191706
 20
6.883449315954312
 30
1.657142751999344
 10
9.818977622915554
 20
6.881355186958314
 30
1.624399027445178
 10
9.818977622915554
 20
6.881355186958314
 30
1.592434605388916
1001
ACAD_VIEW_EDGE_ID
1071
       14
1071
       -1
1071
        5
1071
        0
  0
SPLINE
  5
2EE
330
70
100
AcDbEntity
  8
Visible
100
AcDbSpline
 70
     0
 71
     3
 72
    18
 73
    14
 74
     0
 42
0.000000001
 43
0.0000000001
 40
1.938246713917403
 40
1.938246713917403
 40
1.938246713917403
 40
1.938246713917403
 40
2.179862885559538
 40
2.179862885559538
 40
2.421479057201672
 40
2.421479057201672
 40
2.904711400485942
 40
2.904711400485942
 40
3.390602414160374
 40
3.390602414160374
 40
3.633547920997591
 40
3.633547920997591
 40
3.876493427834807
 40
3.876493427834807
 40
3.876493427834807
 40
3.876493427834807
 10
9.81881341387816
 20
6.782930127088222
 30
1.592434605388916
 10
9.81881341387816
 20
6.782930127088222
 30
1.624142764398129
 10
9.815702445948772
 20
6.784754152265902
 30
1.656695522638983
 10
9.802874395671096
 20
6.792126867834591
 30
1.720975433143394
 10
9.793162122638022
 20
6.797671198317674
 30
1.752704045078644
 10
9.755141289320818
 20
6.818621317701413
 30
1.843357599560476
 10
9.71749908500351
 20
6.838528912757784
 30
1.897686809337756
 10
9.631861560466859
 20
6.877213996116394
 30
1.983388755483247
 10
9.577636535155761
 20
6.898859132152459
 30
2.020898348529954
 10
9.487281630466895
 20
6.923029797856106
 30
2.058846710628131
 10
9.455656132540752
 20
6.929682643118468
 30
2.068555355945136
 10
9.39143392040205
 20
6.938682596184547
 30
2.081415514241598
 10
9.358833136395332
 20
6.94100984878027
 30
2.084560589641114
 10
9.32695056832199
 20
6.941063040577084
 30
2.084560589641114
1001
ACAD_VIEW_EDGE_ID
1071
       16
1071
       -1
1071
        5
1071
        0
  0
SPLINE
  5
2EF
330
70
100
AcDbEntity
  8
Visible
100
AcDbSpline
 70
     0
 71
     3
 72
    14
 73
    10
 74
     0
 42
0.000000001
 43
0.0000000001
 40
0.0
 40
0.0
 40
0.0
 40
0.0
 40
0.2658325153783831
 40
0.2658325153783831
 40
0.5316650307567662
 40
0.5316650307567662
 40
0.7973869941606995
 40
0.7973869941606995
 40
1.063108957528601
 40
1.063108957528601
 40
1.063108957564632
 40
1.063108957564632
 10
8.499994367824911
 20
6.831137339455105
 30
1.868025156571093
 10
8.465108259502812
 20
6.831195542256748
 30
1.868025156571093
 10
8.428082655847902
 20
6.828743448417876
 30
1.861001080398636
 10
8.36025321915622
 20
6.81999063369208
 30
1.832801683109209
 10
8.329425104760957
 20
6.813840178655047
 30
1.811638332808797
 10
8.2807525754597
 20
6.802439343959633
 30
1.762984891987798
 10
8.259571348909958
 20
6.796418862453958
 30
1.732163029557341
 10
8.231351963360793
 20
6.787939803401389
 30
1.664333343200269
 10
8.224327443984293
 20
6.785590313480877
 30
1.627306254140421
 10
8.224327443982474
 20
6.785590313480238
 30
1.592434605398011
1001
ACAD_VIEW_EDGE_ID
1071
       21
1071
       -1
1071
        5
1071
        0
  0
SPLINE
  5
2F0
330
70
100
AcDbEntity
  8
Visible
100
AcDbSpline
 70
     0
 71
     3
 72
    14
 73
    10
 74
     0
 42
0.000000001
 43
0.0000000001
 40
3.189326872693899
 40
3.189326872693899
 40
3.189326872693902
 40
3.189326872693902
 40
3.455048836097833
 40
3.455048836097833
 40
3.720770799501766
 40
3.720770799501766
 40
3.98660331488015
 40
3.98660331488015
 40
4.252435830258533
 40
4.252435830258533
 40
4.252435830258533
 40
4.252435830258533
 10
8.775507779255349
 20
6.784670742875592
 30
1.592434605388916
 10
8.775507779255349
 20
6.784670742875592
 30
1.627306254129507
 10
8.768491138580429
 20
6.787043658592066
 30
1.664333343194812
 10
8.740300202394791
 20
6.795616830715559
 30
1.732163029557341
 10
8.719139182436265
 20
6.801707954591313
 30
1.762984891987798
 10
8.670504965517466
 20
6.813271132566651
 30
1.811638332808797
 10
8.639697545102535
 20
6.819524418242561
 30
1.832801683109209
 10
8.571897691726917
 20
6.828503512282575
 30
1.861001080398636
 10
8.534880476147009
 20
6.831079136653462
 30
1.868025156571093
 10
8.499994367824911
 20
6.831137339455105
 30
1.868025156571093
1001
ACAD_VIEW_EDGE_ID
1071
       21
1071
       -1
1071
        5
1071
        0
  0
LINE
  5
2F1
330
70
100
AcDbEntity
  8
Visible
100
AcDbLine
 10
7.67341
 20
6.943822
 30
2.084561
 11
9.326951
 21
6.941063
 31
2.084561
210
0.0
220
1.0
230
0.0
  0
LINE
  5
2F2
330
70
100
AcDbEntity
  8
Visible
100
AcDbLine
 10
7.673618
 20
7.068974
 30
2.084561
 11
9.327159
 21
7.066215
 31
2.084561
210
0.0
220
1.0
230
0.0
  0
ARC
  5
2F3
330
70
100
AcDbEntity
  8
Visible
100
AcDbCircle
 10
-8.496798
 20
4.915054
 30
-1.001883
 40
0.2755905511811024
210
0.0000000000000001
220
0.0
230
-1.0
100
AcDbArc
 50
180.09559
 51
0.09559
  0
LINE
  5
2F4
330
70
100
AcDbEntity
  8
Visible
100
AcDbLine
 10
7.181186
 20
6.885756
 30
1.592435
 11
7.181022
 21
6.787331
 31
1.592435
210
0.0
220
1.0
230
0.0
  0
LINE
  5
2F5
330
70
100
AcDbEntity
  8
Visible
100
AcDbLine
 10
9.818978
 20
6.881355
 30
1.592435
 11
9.818813
 21
6.78293
 31
1.592435
210
0.0
220
1.0
230
0.0
  0
LINE
  5
2F6
330
70
100
AcDbEntity
  8
Visible
100
AcDbLine
 10
7.181022
 20
6.787331
 30
1.592435
 11
7.532764
 21
6.786744
 31
1.592435
210
0.0
220
1.0
230
0.0
  0
LINE
  5
2F7
330
70
100
AcDbEntity
  8
Visible
100
AcDbLine
 10
7.752746
 20
6.786377
 30
1.592435
 11
8.224327
 21
6.78559
 31
1.592435
210
0.0
220
1.0
230
0.0
  0
LINE
  5
2F8
330
70
100
AcDbEntity
  8
Visible
100
AcDbLine
 10
8.775508
 20
6.784671
 30
1.592435
 11
9.262013
 21
6.783859
 31
1.592435
210
0.0
220
1.0
230
0.0
  0
LINE
  5
2F9
330
70
100
AcDbEntity
  8
Visible
100
AcDbLine
 10
9.481995
 20
6.783492
 30
1.592435
 11
9.818813
 21
6.78293
 31
1.592435
210
0.0
220
1.0
230
0.0
  0
LINE
  5
2FA
330
70
100
AcDbEntity
  8
Visible
100
AcDbLine
 10
8.222193
 20
5.506065
 30
1.592435
 11
8.224327
 21
6.78559
 31
1.592435
210
0.0
220
1.0
230
0.0
  0
LINE
  5
2FB
330
70
100
AcDbEntity
  8
Visible
100
AcDbLine
 10
8.773373
 20
5.505145
 30
1.592435
 11
8.775508
 21
6.784671
 31
1.592435
210
0.0
220
1.0
230
0.0
  0
ARC
  5
2FC
330
70
100
AcDbEntity
  8
Visible
100
AcDbCircle
 10
-5.519774
 20
1.001883
 30
-8.212995
 40
0.5905511811023624
210
-0.9999986082801282
220
0.0016683638112891
230
0.0
100
AcDbArc
 50
0.0
 51
90.0
  0
ARC
  5
2FD
330
70
100
AcDbEntity
  8
Visible
100
AcDbCircle
 10
5.519774
 20
1.001883
 30
8.764176
 40
0.5905511811023623
210
0.9999986082801282
220
-0.0016683638112889
230
0.0000000000000001
100
AcDbArc
 50
90.0
 51
180.0
  0
ARC
  5
2FE
330
70
100
AcDbEntity
  8
Visible
100
AcDbCircle
 10
-4.915054
 20
0.003202
 30
-2.04349
 40
0.9842519685039368
210
-1.0
220
0.0000000000000009
230
-0.0000000000002987
100
AcDbArc
 50
0.0
 51
180.0
  0
ARC
  5
2FF
330
70
100
AcDbEntity
  8
Visible
100
AcDbCircle
 10
-4.915054
 20
0.003202
 30
-2.27971
 40
0.9842519685039372
210
-1.0
220
0.0000000000000007
230
-0.0000000000002985
100
AcDbArc
 50
0.0
 51
180.0
  0
LINE
  5
300
330
70
100
AcDbEntity
  8
Visible
100
AcDbLine
 10
2.366324
 20
5.165054
 30
0.003202
 11
2.681285
 21
5.165054
 31
0.003202
210
0.0
220
1.0
230
0.0
  0
LINE
  5
301
330
70
100
AcDbEntity
  8
Visible
100
AcDbLine
 10
2.366324
 20
4.665054
 30
0.003202
 11
2.681285
 21
4.665054
 31
0.003202
210
0.0
220
1.0
230
0.0
  0
LINE
  5
302
330
70
100
AcDbEntity
  8
Visible
100
AcDbLine
 10
2.27971
 20
3.930802
 30
0.003202
 11
2.04349
 21
3.930802
 31
0.003202
210
0.0
220
1.0
230
0.0
  0
LINE
  5
303
330
70
100
AcDbEntity
  8
Visible
100
AcDbLine
 10
2.27971
 20
5.899306
 30
0.003202
 11
2.04349
 21
5.899306
 31
0.003202
210
0.0
220
1.0
230
0.0
  0
ARC
  5
304
330
70
100
AcDbEntity
  8
Visible
100
AcDbCircle
 10
4.915054
 20
0.003202
 30
2.366324
 40
0.9448818897637799
210
1.0
220
-0.000000000000008
230
0.0000000000002894
100
AcDbArc
 50
0.0
 51
180.0
  0
LINE
  5
305
330
70
100
AcDbEntity
  8
Visible
100
AcDbLine
 10
2.27971
 20
5.859936
 30
0.003202
 11
2.366324
 21
5.859936
 31
0.003202
210
0.0
220
1.0
230
0.0
  0
LINE
  5
306
330
70
100
AcDbEntity
  8
Visible
100
AcDbLine
 10
2.27971
 20
3.970173
 30
0.003202
 11
2.366324
 21
3.970173
 31
0.003202
210
0.0
220
1.0
230
0.0
  0
ARC
  5
307
330
70
100
AcDbEntity
  8
Visible
100
AcDbCircle
 10
4.915054
 20
0.003202
 30
2.681285
 40
0.9448818897637796
210
1.0
220
0.0000000000000037
230
0.000000000000288
100
AcDbArc
 50
0.0
 51
180.0
  0
LINE
  5
308
330
70
100
AcDbEntity
  8
Visible
100
AcDbLine
 10
2.681285
 20
5.859936
 30
0.003202
 11
2.767899
 21
5.859936
 31
0.003202
210
0.0
220
1.0
230
0.0
  0
LINE
  5
309
330
70
100
AcDbEntity
  8
Visible
100
AcDbLine
 10
2.681285
 20
3.970173
 30
0.003202
 11
2.767899
 21
3.970173
 31
0.003202
210
0.0
220
1.0
230
0.0
  0
SPLINE
  5
30A
330
70
100
AcDbEntity
  8
Visible
100
AcDbSpline
 70
     1
 71
     3
 72
    38
 73
    34
 74
     0
 42
0.000000001
 43
0.0000000001
 40
0.0
 40
0.0
 40
0.0
 40
0.0
 40
0.1053842838510782
 40
0.1053842838510782
 40
0.2107685677021563
 40
0.2107685677021563
 40
0.3161515972514677
 40
0.3161515972514677
 40
0.4215346268007792
 40
0.4215346268007792
 40
0.5269000386366017
 40
0.5269000386366017
 40
0.6322654504724241
 40
0.6322654504724241
 40
0.737647696011775
 40
0.737647696011775
 40
0.8430299415511257
 40
0.8430299415511257
 40
0.9483945838391253
 40
0.9483945838391253
 40
1.053759226127124
 40
1.053759226127124
 40
1.159123067736536
 40
1.159123067736536
 40
1.264486909345947
 40
1.264486909345947
 40
1.369868035590315
 40
1.369868035590315
 40
1.475249161834682
 40
1.475249161834682
 40
1.580615500134524
 40
1.580615500134524
 40
1.685981838434366
 40
1.685981838434366
 40
1.685981838434366
 40
1.685981838434366
 10
5.832043117576176
 20
6.793904369120118
 30
0.8572451643576641
 10
5.832043117576176
 20
6.793881295717827
 30
0.8434152250938495
 10
5.829275795307694
 20
6.793475827106682
 30
0.8286751769574038
 10
5.81804475543322
 20
6.792056924032561
 30
0.8015785031529958
 10
5.80958192120488
 20
6.791063487812635
 30
0.7892204678573762
 10
5.790067856038149
 20
6.789202017922001
 30
0.7697064192234393
 10
5.77770978467015
 20
6.788212331498966
 30
0.7612435205683142
 10
5.75061298134824
 20
6.786802267730106
 30
0.7500124437574414
 10
5.735872892973929
 20
6.78640086214618
 30
0.7472451643570821
 10
5.708215654212835
 20
6.786355614524147
 30
0.7472451643570821
 10
5.693476630738587
 20
6.786708675616413
 30
0.7500116163500934
 10
5.666380398568435
 20
6.788029602008576
 30
0.7612413120568818
 10
5.654021913243923
 20
6.788978483324967
 30
0.769703700347236
 10
5.634505835314485
 20
6.790775396089145
 30
0.7892181313854963
 10
5.626042104131556
 20
6.791740721093823
 30
0.8015772277431096
 10
5.614810323493657
 20
6.793122157637569
 30
0.8286752266067196
 10
5.612043117576831
 20
6.793518309361965
 30
0.8434154925889743
 10
5.612043117576831
 20
6.79356445141984
 30
0.8710725259898026
 10
5.61480949919678
 20
6.793217590574466
 30
0.885811733045557
 10
5.626039893015331
 20
6.791926716292834
 30
0.912909146367383
 10
5.634503101962764
 20
6.791002663831212
 30
0.9252686327472474
 10
5.654019504549069
 20
6.789270762309019
 30
0.9447850510478019
 10
5.66637903607625
 20
6.788350016700714
 30
0.9532483429338753
 10
5.693476597161861
 20
6.787066475843234
 30
0.9644788074965617
 10
5.708215860280688
 20
6.786722655410574
 30
0.9672451643564272
 10
5.735872643195762
 20
6.786767902286843
 30
0.9672451643564272
 10
5.750612958448982
 20
6.787160063240007
 30
0.9644779955779085
 10
5.777711102186003
 20
6.78853274022966
 30
0.9532461609269375
 10
5.790070243674563
 20
6.789494293838023
 30
0.9447823534283088
 10
5.809584677441307
 20
6.791290758975661
 30
0.9252662728831637
 10
5.818046994212636
 20
6.792242925516159
 30
0.9129078238802321
 10
5.829276635464339
 20
6.79357126496744
 30
0.88581172463455
 10
5.832043117576176
 20
6.793927438593314
 30
0.871072748563165
 10
5.832043117576176
 20
6.793904369120118
 30
0.8572451643576641
1001
ACAD_VIEW_EDGE_ID
1071
        2
1071
       -1
1071
        5
1071
        0
  0
ARC
  5
30B
330
70
100
AcDbEntity
  8
Visible
100
AcDbCircle
 10
4.915054
 20
0.003202
 30
2.96475
 40
0.9842519685039372
210
1.0
220
0.0
230
0.0000000000002969
100
AcDbArc
 50
0.0
 51
180.0
  0
ARC
  5
30C
330
70
100
AcDbEntity
  8
Visible
100
AcDbCircle
 10
4.915054
 20
0.003202
 30
2.767899
 40
0.9842519685039372
210
1.0
220
-0.0000000000000001
230
0.0000000000002968
100
AcDbArc
 50
0.0
 51
180.0
  0
SPLINE
  5
30D
330
70
100
AcDbEntity
  8
Visible
100
AcDbSpline
 70
     0
 71
     3
 72
    18
 73
    14
 74
     0
 42
0.000000001
 43
0.0000000001
 40
1.958520060224103
 40
1.958520060224103
 40
1.958520060224103
 40
1.958520060224103
 40
2.20208895629171
 40
2.20208895629171
 40
2.445657852359316
 40
2.445657852359316
 40
2.932795644494529
 40
2.932795644494529
 40
3.424917882471368
 40
3.424917882471368
 40
3.670979001459788
 40
3.670979001459788
 40
3.917040120448207
 40
3.917040120448207
 40
3.917040120448207
 40
3.917040120448207
 10
5.72065508610467
 20
6.88575602091377
 30
1.318813981604762
 10
5.752619508160933
 20
6.88575602091377
 30
1.318813981604762
 10
5.785363232715099
 20
6.887839591091827
 30
1.315646077951896
 10
5.849878045195509
 20
6.896229497112438
 30
1.302666277937532
 10
5.881650819088463
 20
6.902531014259874
 30
1.292859647826844
 10
5.972234276721792
 20
6.926347792355612
 30
1.254628337657777
 10
6.026250118307871
 20
6.948999247771533
 30
1.2169585520096
 10
6.111465040248731
 20
6.993490196039388
 30
1.131669284282907
 10
6.148807598527127
 20
7.018753347409763
 30
1.077710194938845
 10
6.186795238580089
 20
7.047439913987457
 30
0.9875508784534758
 10
6.196562072189408
 20
7.055422843335474
 30
0.9559426428404549
 10
6.209558826034481
 20
7.066233065492143
 30
0.891507275373442
 10
6.212781070356868
 20
7.069027450335815
 30
0.8586730789775174
 10
6.212781070356868
 20
7.068973576390106
 30
0.8263816384860547
1001
ACAD_VIEW_EDGE_ID
1071
        7
1071
       -1
1071
        5
1071
        0
  0
SPLINE
  5
30E
330
70
100
AcDbEntity
  8
Visible
100
AcDbSpline
 70
     0
 71
     3
 72
    18
 73
    14
 74
     0
 42
0.000000001
 43
0.0000000001
 40
0.0
 40
0.0
 40
0.0
 40
0.0
 40
0.2460611189884196
 40
0.2460611189884196
 40
0.4921222379768392
 40
0.4921222379768392
 40
0.9842444759536782
 40
0.9842444759536782
 40
1.47138226808889
 40
1.47138226808889
 40
1.714951164156497
 40
1.714951164156497
 40
1.958520060224103
 40
1.958520060224103
 40
1.958520060224103
 40
1.958520060224103
 10
5.228529101852473
 20
7.068973576390106
 30
0.8263816384860547
 10
5.228529101852473
 20
7.069027450335815
 30
0.8586730789775174
 10
5.23175134617486
 20
7.066233065492143
 30
0.891507275373442
 10
5.244748100021752
 20
7.055422843335474
 30
0.9559426428404549
 10
5.254514933629252
 20
7.047439913987458
 30
0.9875508784534758
 10
5.292502573682213
 20
7.018753347409763
 30
1.077710194938845
 10
5.32984513196061
 20
6.993490196039388
 30
1.131669284282907
 10
5.41506005390147
 20
6.948999247771533
 30
1.2169585520096
 10
5.469075895487549
 20
6.926347792355613
 30
1.254628337657777
 10
5.559659353120878
 20
6.902531014259874
 30
1.292859647826844
 10
5.591432127013831
 20
6.896229497112438
 30
1.302666277937532
 10
5.655946939496061
 20
6.887839591091827
 30
1.315646077951896
 10
5.688690664048408
 20
6.88575602091377
 30
1.318813981604762
 10
5.72065508610467
 20
6.88575602091377
 30
1.318813981604762
1001
ACAD_VIEW_EDGE_ID
1071
        8
1071
       -1
1071
        5
1071
        0
  0
LINE
  5
30F
330
70
100
AcDbEntity
  8
Visible
100
AcDbLine
 10
5.228529
 20
6.943822
 30
0.82659
 11
5.228529
 21
7.068974
 31
0.826382
210
0.0
220
1.0
230
0.0
  0
SPLINE
  5
310
330
70
100
AcDbEntity
  8
Visible
100
AcDbSpline
 70
     0
 71
     3
 72
    18
 73
    14
 74
     0
 42
0.000000001
 43
0.0000000001
 40
-1.938246713917404
 40
-1.938246713917404
 40
-1.938246713917404
 40
-1.938246713917404
 40
-1.696630542275269
 40
-1.696630542275269
 40
-1.455014370633135
 40
-1.455014370633135
 40
-0.9717820273488664
 40
-0.9717820273488664
 40
-0.4858910136744328
 40
-0.4858910136744328
 40
-0.2429455068372164
 40
-0.2429455068372164
 40
0.0
 40
0.0
 40
0.0
 40
0.0
 10
5.72065508610467
 20
6.787330961043679
 30
1.318978190642155
 10
5.688946927097276
 20
6.787330961043679
 30
1.318978190642155
 10
5.656394168856422
 20
6.789144595629062
 30
1.315861153765581
 10
5.592114258350193
 20
6.796474466504623
 30
1.303008574188424
 10
5.560385646414943
 20
6.801986358958499
 30
1.293277855327687
 10
5.46973209193311
 20
6.822809496727332
 30
1.255187328923057
 10
5.415402882155831
 20
6.842591379352478
 30
1.217478908025441
 10
5.32970093601034
 20
6.880990498660075
 30
1.131712778817018
 10
5.292191342963633
 20
6.90245458031238
 30
1.077415831547114
 10
5.254242980865456
 20
6.926323622174212
 30
0.9869807790364575
 10
5.244534335548451
 20
6.932870904875368
 30
0.9553332584637246
 10
5.231674177251989
 20
6.941656516108835
 30
0.8910813734910334
 10
5.228529101852473
 20
6.943874975963911
 30
0.8584730055717955
 10
5.228529101852473
 20
6.943821784167097
 30
0.8265904374984529
1001
ACAD_VIEW_EDGE_ID
1071
       10
1071
       -1
1071
        5
1071
        0
  0
SPLINE
  5
311
330
70
100
AcDbEntity
  8
Visible
100
AcDbSpline
 70
     0
 71
     3
 72
    18
 73
    14
 74
     0
 42
0.000000001
 43
0.0000000001
 40
-3.876493427834808
 40
-3.876493427834808
 40
-3.876493427834808
 40
-3.876493427834808
 40
-3.633547920997592
 40
-3.633547920997592
 40
-3.390602414160375
 40
-3.390602414160375
 40
-2.904711400485942
 40
-2.904711400485942
 40
-2.421479057201674
 40
-2.421479057201674
 40
-2.179862885559539
 40
-2.179862885559539
 40
-1.938246713917404
 40
-1.938246713917404
 40
-1.938246713917404
 40
-1.938246713917404
 10
6.212781070356868
 20
6.943821784167097
 30
0.8265904374984529
 10
6.212781070356868
 20
6.943874975963911
 30
0.8584730055717955
 10
6.209635994957352
 20
6.941656516108835
 30
0.8910813734910334
 10
6.19677583666089
 20
6.932870904875366
 30
0.9553332584637246
 10
6.187067191343885
 20
6.926323622174212
 30
0.9869807790364575
 10
6.149118829245708
 20
6.90245458031238
 30
1.077415831547114
 10
6.111609236199001
 20
6.880990498660075
 30
1.131712778817018
 10
6.02590729005351
 20
6.842591379352478
 30
1.217478908025441
 10
5.971578080276231
 20
6.822809496727332
 30
1.255187328923057
 10
5.880924525794398
 20
6.801986358958499
 30
1.293277855327687
 10
5.849195913859148
 20
6.796474466504623
 30
1.303008574188424
 10
5.784916003354737
 20
6.789144595629062
 30
1.315861153765581
 10
5.752363245113883
 20
6.787330961043679
 30
1.318978190642155
 10
5.72065508610467
 20
6.787330961043679
 30
1.318978190642155
1001
ACAD_VIEW_EDGE_ID
1071
       11
1071
       -1
1071
        5
1071
        0
  0
LINE
  5
312
330
70
100
AcDbEntity
  8
Visible
100
AcDbLine
 10
6.212781
 20
6.943822
 30
0.82659
 11
6.212781
 21
7.068974
 31
0.826382
210
0.0
220
1.0
230
0.0
  0
SPLINE
  5
313
330
70
100
AcDbEntity
  8
Visible
100
AcDbSpline
 70
     0
 71
     3
 72
    14
 73
    10
 74
     0
 42
0.000000001
 43
0.0000000001
 40
2.662000252272183
 40
2.662000252272183
 40
2.662000252272183
 40
2.662000252272183
 40
2.904711400485942
 40
2.904711400485942
 40
3.390602414160374
 40
3.390602414160374
 40
3.633547920997591
 40
3.633547920997591
 40
3.876493427834807
 40
3.876493427834807
 40
3.876493427834807
 40
3.876493427834807
 10
5.996169771382483
 20
6.8291163478174
 30
-1.234394382507161
 10
6.022788343945649
 20
6.838285593744036
 30
-1.216416340263094
 10
6.047177166956316
 20
6.848129974592623
 30
-1.196245196530071
 10
6.111609236199001
 20
6.877214027892465
 30
-1.13186156046504
 10
6.149118829245708
 20
6.898859163928531
 30
-1.077636535153942
 10
6.187067191343885
 20
6.923029829632177
 30
-0.9872816304650768
 10
6.19677583666089
 20
6.929682674894539
 30
-0.9556561325389338
 10
6.209635994957352
 20
6.938682627960618
 30
-0.8914339204002317
 10
6.212781070356868
 20
6.941009880556341
 30
-0.8588331363935139
 10
6.212781070356868
 20
6.941063072353156
 30
-0.8269505683201714
1001
ACAD_VIEW_EDGE_ID
1071
       16
1071
       -1
1071
        5
1071
        0
  0
SPLINE
  5
314
330
70
100
AcDbEntity
  8
Visible
100
AcDbSpline
 70
     0
 71
     3
 72
    14
 73
    10
 74
     0
 42
0.000000001
 43
0.0000000001
 40
0.0
 40
0.0
 40
0.0
 40
0.0
 40
0.2429455068372165
 40
0.2429455068372165
 40
0.485891013674433
 40
0.485891013674433
 40
0.9717820273488658
 40
0.9717820273488658
 40
1.214493175562628
 40
1.214493175562628
 40
1.214493175562628
 40
1.214493175562628
 10
5.228529101852473
 20
6.941063072353156
 30
-0.8269505683201714
 10
5.228529101852473
 20
6.941009880556341
 30
-0.8588331363935139
 10
5.231674177251989
 20
6.938682627960618
 30
-0.8914339204002317
 10
5.244534335548451
 20
6.929682674894539
 30
-0.9556561325389338
 10
5.254242980865456
 20
6.923029829632177
 30
-0.9872816304650768
 10
5.292191342963633
 20
6.898859163928532
 30
-1.077636535153942
 10
5.32970093601034
 20
6.877214027892465
 30
-1.13186156046504
 10
5.394133005253024
 20
6.848129974592623
 30
-1.196245196530071
 10
5.418521828263692
 20
6.838285593744036
 30
-1.216416340263094
 10
5.445140400828677
 20
6.829116347817398
 30
-1.234394382507161
1001
ACAD_VIEW_EDGE_ID
1071
       17
1071
       -1
1071
        5
1071
        0
  0
LINE
  5
315
330
70
100
AcDbEntity
  8
Visible
100
AcDbLine
 10
5.228529
 20
6.943822
 30
0.82659
 11
5.228529
 21
6.941063
 31
-0.826951
210
0.0
220
1.0
230
0.0
  0
SPLINE
  5
316
330
70
100
AcDbEntity
  8
Visible
100
AcDbSpline
 70
     0
 71
     3
 72
    22
 73
    18
 74
     0
 42
0.000000001
 43
0.0000000001
 40
0.0
 40
0.0
 40
0.0
 40
0.0
 40
0.2658325153783831
 40
0.2658325153783831
 40
0.5316650307567662
 40
0.5316650307567662
 40
0.7973869941606995
 40
0.7973869941606995
 40
1.063108957564632
 40
1.063108957564632
 40
1.328830920968566
 40
1.328830920968566
 40
1.5945528843725
 40
1.5945528843725
 40
1.860385399750883
 40
1.860385399750883
 40
2.126217915129264
 40
2.126217915129264
 40
2.126217915129266
 40
2.126217915129266
 10
5.996245637286847
 20
6.831137371231177
 30
0.000005632176908
 10
5.996245637286847
 20
6.83119557403282
 30
0.0348917404990061
 10
5.989221561114391
 20
6.828743480193947
 30
0.0719173441539169
 10
5.961022163824964
 20
6.819990665468152
 30
0.1397467808455985
 10
5.939858813524551
 20
6.813840210431118
 30
0.1705748952408612
 10
5.891205372703552
 20
6.802439375735705
 30
0.2192474245421181
 10
5.860383510273095
 20
6.796418894230029
 30
0.240428651091861
 10
5.792553823910566
 20
6.787939835176885
 30
0.2686480366428441
 10
5.755526734845261
 20
6.785590345256309
 30
0.2756725560193445
 10
5.685783437364079
 20
6.785590345256309
 30
0.2756725560193445
 10
5.648756348298775
 20
6.787939835176885
 30
0.2686480366428441
 10
5.580926661936246
 20
6.796418894230029
 30
0.240428651091861
 10
5.550104799507607
 20
6.802439375735705
 30
0.2192474245421181
 10
5.501451358684789
 20
6.813840210431118
 30
0.1705748952408612
 10
5.480288008384377
 20
6.819990665468154
 30
0.1397467808455985
 10
5.45208861109495
 20
6.828743480193949
 30
0.0719173441539169
 10
5.445064534924313
 20
6.83119557403282
 30
0.0348917404990061
 10
5.445064534924313
 20
6.831137371231177
 30
0.000005632176908
1001
ACAD_VIEW_EDGE_ID
1071
       21
1071
       -1
1071
        5
1071
        0
  0
LINE
  5
317
330
70
100
AcDbEntity
  8
Visible
100
AcDbLine
 10
6.212781
 20
6.943822
 30
0.82659
 11
6.212781
 21
6.941063
 31
-0.826951
210
0.0
220
1.0
230
0.0
  0
LINE
  5
318
330
70
100
AcDbEntity
  8
Visible
100
AcDbLine
 10
2.96475
 20
3.930802
 30
0.003202
 11
2.767899
 21
3.930802
 31
0.003202
210
0.0
220
1.0
230
0.0
  0
LINE
  5
319
330
70
100
AcDbEntity
  8
Visible
100
AcDbLine
 10
2.96475
 20
5.899306
 30
0.003202
 11
2.767899
 21
5.899306
 31
0.003202
210
0.0
220
1.0
230
0.0
  0
LINE
  5
31A
330
70
100
AcDbEntity
  8
Visible
100
AcDbLine
 10
5.445065
 20
5.505605
 30
0.002217
 11
5.445065
 21
6.831137
 31
0.000006
210
0.0
220
1.0
230
0.0
  0
LINE
  5
31B
330
70
100
AcDbEntity
  8
Visible
100
AcDbLine
 10
5.996246
 20
5.505605
 30
0.002217
 11
5.996246
 21
6.831137
 31
0.000006
210
0.0
220
1.0
230
0.0
  0
SPLINE
  5
31C
330
70
100
AcDbEntity
  8
Visible
100
AcDbSpline
210
-0.0000000003999471
220
-0.0011375207362278
230
-0.9999993530230781
 70
     8
 71
     3
 72
    16
 73
    12
 74
     0
 42
0.000000001
 43
0.0000000001
 40
1.570796326794896
 40
1.570796326794896
 40
1.570796326794896
 40
1.570796326794896
 40
1.884955592153875
 40
1.884955592153875
 40
2.199114857512855
 40
2.199114857512855
 40
2.513274122871834
 40
2.513274122871834
 40
2.827433388230813
 40
2.827433388230813
 40
3.141592653589793
 40
3.141592653589793
 40
3.141592653589793
 40
3.141592653589793
 10
5.130103905003124
 20
4.639463871241149
 30
0.0032023600779212
 10
5.220806014940535
 20
4.639463871241149
 30
0.0032023600779212
 10
5.311493468969274
 20
4.653827331998234
 30
0.0031860213111941
 10
5.484019156254362
 20
4.709884247887375
 30
0.0031222552952386
 10
5.565829512033815
 20
4.751568645554512
 30
0.0030748383505852
 10
5.71258867612596
 20
4.858195271246344
 30
0.0029535481808125
 10
5.777513769824508
 20
4.923120270502641
 30
0.002879694555304
 10
5.88414058768285
 20
5.06987929059281
 30
0.002712752959269
 10
5.925825081616494
 20
5.151689597301986
 30
0.0026196919643553
 10
5.98188213576941
 20
5.324215229900271
 30
0.0024234403463197
 10
5.996245637286847
 20
5.414902677441641
 30
0.002320281439097
 10
5.996245637286847
 20
5.505604781642799
 30
0.0022171058571985
1001
ACAD_VIEW_EDGE_ID
1071
   -24577
1071
       -1
1071
        5
1071
        0
  0
SPLINE
  5
31D
330
70
100
AcDbEntity
  8
Visible
100
AcDbSpline
 70
     0
 71
     3
 72
    16
 73
    12
 74
     0
 42
0.000000001
 43
0.0000000001
 40
1.570796326794896
 40
1.570796326794896
 40
1.570796326794896
 40
1.570796326794896
 40
1.884955592153875
 40
1.884955592153875
 40
2.199114857512855
 40
2.199114857512855
 40
2.513274122871834
 40
2.513274122871834
 40
2.827433388230813
 40
2.827433388230813
 40
3.141592653589793
 40
3.141592653589793
 40
3.141592653589793
 40
3.141592653589793
 10
5.130103905003124
 20
5.190644973603353
 30
0.0032023600779212
 10
5.16308654520435
 20
5.190644973603353
 30
0.0032023600779212
 10
5.196063855464672
 20
5.195868060066874
 30
0.0031860213111941
 10
5.25880054335721
 20
5.216252417270128
 30
0.0031222552952386
 10
5.288549783112102
 20
5.231410393555361
 30
0.0030748383505852
 10
5.341916748640869
 20
5.270183709640365
 30
0.0029535481808125
 10
5.365525851235361
 20
5.293792783461635
 30
0.002879694555304
 10
5.404299177509528
 20
5.347159614470667
 30
0.002712752959269
 10
5.419457136635173
 20
5.376908748038264
 30
0.0026196919643553
 10
5.439841461960895
 20
5.439645163197157
 30
0.0024234403463197
 10
5.445064534924313
 20
5.472622307837151
 30
0.002320281439097
 10
5.445064534924313
 20
5.505604781642799
 30
0.0022171058571985
1001
ACAD_VIEW_EDGE_ID
1071
   -24578
1071
       -1
1071
        5
1071
        0
  0
LINE
  5
31E
330
70
100
AcDbEntity
  8
Visible
100
AcDbLine
 10
2.96475
 20
5.190645
 30
0.003202
 11
5.130104
 21
5.190645
 31
0.003202
210
0.0
220
1.0
230
0.0
  0
LINE
  5
31F
330
70
100
AcDbEntity
  8
Visible
100
AcDbLine
 10
2.96475
 20
4.639464
 30
0.003202
 11
5.130104
 21
4.639464
 31
0.003202
210
0.0
220
1.0
230
0.0
  0
ARC
  5
320
330
70
100
AcDbEntity
  8
Visible
100
AcDbCircle
 10
-13.241875
 20
-0.584946
 30
7.584731
 40
0.9842519685039368
210
0.0000000000000018
220
1.0
230
0.0000000000000009
100
AcDbArc
 50
0.0
 51
180.0
  0
ARC
  5
321
330
70
100
AcDbEntity
  8
Visible
100
AcDbCircle
 10
-13.241875
 20
-0.584946
 30
7.34851
 40
0.9842519685039372
210
0.0000000000000016
220
1.0
230
0.0000000000000007
100
AcDbArc
 50
0.0
 51
180.0
  0
LINE
  5
322
330
70
100
AcDbEntity
  8
Visible
100
AcDbLine
 10
13.491875
 20
7.261896
 30
-0.584946
 11
13.491875
 21
6.946935
 31
-0.584946
  0
LINE
  5
323
330
70
100
AcDbEntity
  8
Visible
100
AcDbLine
 10
12.991875
 20
7.261896
 30
-0.584946
 11
12.991875
 21
6.946935
 31
-0.584946
  0
LINE
  5
324
330
70
100
AcDbEntity
  8
Visible
100
AcDbLine
 10
12.257623
 20
7.34851
 30
-0.584946
 11
12.257623
 21
7.584731
 31
-0.584946
  0
LINE
  5
325
330
70
100
AcDbEntity
  8
Visible
100
AcDbLine
 10
14.226127
 20
7.34851
 30
-0.584946
 11
14.226127
 21
7.584731
 31
-0.584946
  0
ARC
  5
326
330
70
100
AcDbEntity
  8
Visible
100
AcDbCircle
 10
13.241875
 20
-0.584946
 30
-7.261896
 40
0.9448818897637796
210
0.0000000000000075
220
-1.0
230
-0.000000000000008
100
AcDbArc
 50
360.0
 51
180.0
  0
LINE
  5
327
330
70
100
AcDbEntity
  8
Visible
100
AcDbLine
 10
14.186757
 20
7.34851
 30
-0.584946
 11
14.186757
 21
7.261896
 31
-0.584946
  0
LINE
  5
328
330
70
100
AcDbEntity
  8
Visible
100
AcDbLine
 10
12.296993
 20
7.34851
 30
-0.584946
 11
12.296993
 21
7.261896
 31
-0.584946
  0
ARC
  5
329
330
70
100
AcDbEntity
  8
Visible
100
AcDbCircle
 10
13.241875
 20
-0.584946
 30
-6.946935
 40
0.9448818897637803
210
0.0000000000000089
220
-1.0
230
0.0000000000000037
100
AcDbArc
 50
0.0
 51
180.0
  0
LINE
  5
32A
330
70
100
AcDbEntity
  8
Visible
100
AcDbLine
 10
14.186757
 20
6.946935
 30
-0.584946
 11
14.186757
 21
6.860321
 31
-0.584946
  0
LINE
  5
32B
330
70
100
AcDbEntity
  8
Visible
100
AcDbLine
 10
12.296993
 20
6.946935
 30
-0.584946
 11
12.296993
 21
6.860321
 31
-0.584946
  0
SPLINE
  5
32C
330
70
100
AcDbEntity
  8
Visible
100
AcDbSpline
 70
     1
 71
     3
 72
    38
 73
    34
 74
     0
 42
0.000000001
 43
0.0000000001
 40
0.0
 40
0.0
 40
0.0
 40
0.0
 40
0.1054017830341942
 40
0.1054017830341942
 40
0.2108035660683884
 40
0.2108035660683884
 40
0.3162227688897273
 40
0.3162227688897273
 40
0.4216419717110664
 40
0.4216419717110664
 40
0.527038987988415
 40
0.527038987988415
 40
0.6324360042657636
 40
0.6324360042657636
 40
0.7378355392812513
 40
0.7378355392812513
 40
0.843235074296739
 40
0.843235074296739
 40
0.9486545528905573
 40
0.9486545528905573
 40
1.054074031484375
 40
1.054074031484375
 40
1.159472818158939
 40
1.159472818158939
 40
1.264871604833504
 40
1.264871604833504
 40
1.370292954500049
 40
1.370292954500049
 40
1.475714304166595
 40
1.475714304166595
 40
1.581136420641036
 40
1.581136420641036
 40
1.686558537115478
 40
1.686558537115478
 40
1.686558537115478
 40
1.686558537115478
 10
14.11708149994592
 20
3.796177363137758
 30
1.390418565105556
 10
14.10324926420617
 20
3.796177363137758
 30
1.390441642339211
 10
14.08850839164734
 20
3.798945659927994
 30
1.390034109856796
 10
14.06141387307434
 20
3.810176444609169
 30
1.388522129632484
 10
14.04905851003787
 20
3.818637855427368
 30
1.387440537495675
 10
14.02954731259524
 20
3.838147064625445
 30
1.385402024758594
 10
14.02108406752086
 20
3.850503283665602
 30
1.384311802333895
 10
14.00985061038409
 20
3.877600334946691
 30
1.382755769207607
 10
14.00708149994716
 20
3.892342845776511
 30
1.382311310716574
 10
14.00708149994716
 20
3.920008968882029
 30
1.382260108624852
 10
14.00984956775573
 20
3.934750129077656
 30
1.382649839093095
 10
14.02108126716121
 20
3.961846434305698
 30
1.38410489204746
 10
14.029543851786
 20
3.974203156632938
 30
1.385148844373372
 10
14.04905548911665
 20
3.993714894371805
 30
1.387114112310891
 10
14.06141218549055
 20
4.002177450314775
 30
1.38816376763946
 10
14.08850839188562
 20
4.013409198276349
 30
1.389633128115149
 10
14.10324955922078
 20
4.016177363137103
 30
1.390030033509874
 10
14.1309160579367
 20
4.016177363137103
 30
1.389983875660394
 10
14.14565842157026
 20
4.013408264818281
 30
1.389537641853364
 10
14.17275528878781
 20
4.002174948105675
 30
1.387977682379343
 10
14.18511154438238
 20
3.993711801605968
 30
1.386886754764794
 10
14.20462093509013
 20
3.97420042860358
 30
1.384856521942126
 10
14.21308249680987
 20
3.961844889621715
 30
1.383784465305076
 10
14.22431332499582
 20
3.934750088890723
 30
1.382292047215387
 10
14.22708149994651
 20
3.920009201217908
 30
1.381893067645566
 10
14.22708149994651
 20
3.892342564038699
 30
1.381944270688688
 10
14.22431226487788
 20
3.877600311450805
 30
1.382397983362203
 10
14.21307966668974
 20
3.850504777850801
 30
1.383991383192693
 10
14.204617450574
 20
3.838149769237134
 30
1.385109706203007
 10
14.18510855026761
 20
3.818640974264781
 30
1.387213175493826
 10
14.17275365474961
 20
3.810178978261319
 30
1.38833603624004
 10
14.14565848779057
 20
3.798946611412247
 30
1.389938617222177
 10
14.13091640411403
 20
3.796177363137758
 30
1.390395483419986
 10
14.11708149994592
 20
3.796177363137758
 30
1.390418565105556
1001
ACAD_VIEW_EDGE_ID
1071
        1
1071
       -1
1071
        5
1071
        0
  0
SPLINE
  5
32D
330
70
100
AcDbEntity
  8
Visible
100
AcDbSpline
 70
     1
 71
     3
 72
    38
 73
    34
 74
     0
 42
0.000000001
 43
0.0000000001
 40
0.0
 40
0.0
 40
0.0
 40
0.0
 40
0.1054017830341936
 40
0.1054017830341936
 40
0.2108035660683871
 40
0.2108035660683871
 40
0.3162227688897261
 40
0.3162227688897261
 40
0.4216419717110651
 40
0.4216419717110651
 40
0.5270389879884128
 40
0.5270389879884128
 40
0.6324360042657604
 40
0.6324360042657604
 40
0.7378355392812481
 40
0.7378355392812481
 40
0.8432350742967356
 40
0.8432350742967356
 40
0.9486545528905535
 40
0.9486545528905535
 40
1.054074031484371
 40
1.054074031484371
 40
1.159472818158935
 40
1.159472818158935
 40
1.264871604833499
 40
1.264871604833499
 40
1.370292954500045
 40
1.370292954500045
 40
1.475714304166591
 40
1.475714304166591
 40
1.581136420641032
 40
1.581136420641032
 40
1.686558537115473
 40
1.686558537115473
 40
1.686558537115473
 40
1.686558537115473
 10
12.38783213465649
 20
3.796177363137758
 30
1.393303586182442
 10
12.37399989891492
 20
3.796177363137758
 30
1.393326663416098
 10
12.35925902635608
 20
3.798945659927994
 30
1.392919130933683
 10
12.33216450778309
 20
3.810176444609169
 30
1.39140715070937
 10
12.31980914474661
 20
3.818637855427368
 30
1.390325558572561
 10
12.30029794730399
 20
3.838147064625445
 30
1.38828704583548
 10
12.29183470222961
 20
3.850503283665602
 30
1.387196823410781
 10
12.28060124509466
 20
3.877600334946691
 30
1.385640790284493
 10
12.27783213465591
 20
3.892342845776511
 30
1.38519633179346
 10
12.27783213465591
 20
3.920008968882029
 30
1.385145129701739
 10
12.2806002024663
 20
3.934750129077656
 30
1.385534860169982
 10
12.29183190186995
 20
3.961846434305698
 30
1.386989913124347
 10
12.30029448649475
 20
3.974203156632938
 30
1.388033865450258
 10
12.3198061238254
 20
3.993714894371805
 30
1.389999133387776
 10
12.3321628201993
 20
4.002177450314775
 30
1.391048788716346
 10
12.35925902659437
 20
4.013409198276349
 30
1.392518149192035
 10
12.37400019392953
 20
4.016177363137103
 30
1.392915054586759
 10
12.40166669264545
 20
4.016177363137103
 30
1.392868896737279
 10
12.41640905627901
 20
4.013408264818281
 30
1.39242266293025
 10
12.44350592349656
 20
4.002174948105675
 30
1.39086270345623
 10
12.45586217909113
 20
3.993711801605968
 30
1.38977177584168
 10
12.4753715698007
 20
3.97420042860358
 30
1.387741543019013
 10
12.48383313151862
 20
3.961844889621715
 30
1.386669486381962
 10
12.49506395970456
 20
3.934750088890723
 30
1.385177068292273
 10
12.49783213465525
 20
3.920009201217908
 30
1.384778088722452
 10
12.49783213465525
 20
3.892342564038699
 30
1.384829291765575
 10
12.49506289958844
 20
3.877600311450805
 30
1.385283004439089
 10
12.48383030139848
 20
3.850504777850801
 30
1.386876404269578
 10
12.47536808528275
 20
3.838149769237134
 30
1.387994727279893
 10
12.45585918497636
 20
3.818640974264781
 30
1.390098196570712
 10
12.44350428945836
 20
3.810178978261319
 30
1.391221057316928
 10
12.41640912250113
 20
3.798946611412247
 30
1.392823638299065
 10
12.40166703882278
 20
3.796177363137758
 30
1.393280504496873
 10
12.38783213465649
 20
3.796177363137758
 30
1.393303586182442
1001
ACAD_VIEW_EDGE_ID
1071
        3
1071
       -1
1071
        5
1071
        0
  0
ARC
  5
32E
330
70
100
AcDbEntity
  8
Visible
100
AcDbCircle
 10
13.241875
 20
-0.584946
 30
-6.663471
 40
0.9842519685039368
210
0.0
220
-1.0
230
0.0
100
AcDbArc
 50
360.0
 51
180.0
  0
ARC
  5
32F
330
70
100
AcDbEntity
  8
Visible
100
AcDbCircle
 10
13.241875
 20
-0.584946
 30
-6.860321
 40
0.9842519685039368
210
0.0000000000000001
220
-1.0
230
0.0
100
AcDbArc
 50
360.0
 51
180.0
  0
SPLINE
  5
330
330
70
100
AcDbEntity
  8
Visible
100
AcDbSpline
 70
     0
 71
     3
 72
    18
 73
    14
 74
     0
 42
0.000000001
 43
0.0000000001
 40
1.958520060224103
 40
1.958520060224103
 40
1.958520060224103
 40
1.958520060224103
 40
2.20208895629171
 40
2.20208895629171
 40
2.445657852359316
 40
2.445657852359316
 40
2.932795644494529
 40
2.932795644494529
 40
3.424917882471368
 40
3.424917882471368
 40
3.670979001459788
 40
3.670979001459788
 40
3.917040120448207
 40
3.917040120448207
 40
3.917040120448207
 40
3.917040120448207
 10
11.92626331740757
 20
3.907565394609264
 30
1.385755989137699
 10
11.92626331740757
 20
3.875600972553002
 30
1.385755989137699
 10
11.92943122106044
 20
3.842857247998836
 30
1.387839559315756
 10
11.9424110210748
 20
3.778342435518425
 30
1.396229465336367
 10
11.95221765118549
 20
3.746569661625471
 30
1.402530982483803
 10
11.99044896135456
 20
3.655986203992142
 30
1.426347760579541
 10
12.02811874700273
 20
3.601970362406063
 30
1.448999215995462
 10
12.11340801472943
 20
3.516755440465203
 30
1.493490164263318
 10
12.16736710407349
 20
3.479412882186807
 30
1.518753315633692
 10
12.25752642055886
 20
3.441425242133846
 30
1.547439882211386
 10
12.28913465617188
 20
3.431658408524526
 30
1.555422811559404
 10
12.35357002363889
 20
3.418661654679453
 30
1.566233033716072
 10
12.38640422003482
 20
3.415439410357066
 30
1.569027418559744
 10
12.41869566052628
 20
3.415439410357066
 30
1.568973544614036
1001
ACAD_VIEW_EDGE_ID
1071
        7
1071
       -1
1071
        5
1071
        0
  0
SPLINE
  5
331
330
70
100
AcDbEntity
  8
Visible
100
AcDbSpline
 70
     0
 71
     3
 72
    18
 73
    14
 74
     0
 42
0.000000001
 43
0.0000000001
 40
0.0
 40
0.0
 40
0.0
 40
0.0
 40
0.2460611189884196
 40
0.2460611189884196
 40
0.4921222379768392
 40
0.4921222379768392
 40
0.9842444759536782
 40
0.9842444759536782
 40
1.47138226808889
 40
1.47138226808889
 40
1.714951164156497
 40
1.714951164156497
 40
1.958520060224103
 40
1.958520060224103
 40
1.958520060224103
 40
1.958520060224103
 10
12.41869566052628
 20
4.399691378861461
 30
1.568973544614036
 10
12.38640422003482
 20
4.399691378861461
 30
1.569027418559744
 10
12.35357002363889
 20
4.396469134539074
 30
1.566233033716072
 10
12.28913465617188
 20
4.383472380692182
 30
1.555422811559404
 10
12.25752642055886
 20
4.373705547084682
 30
1.547439882211387
 10
12.16736710407349
 20
4.335717907031721
 30
1.518753315633692
 10
12.11340801472943
 20
4.298375348753324
 30
1.493490164263318
 10
12.02811874700273
 20
4.213160426812464
 30
1.448999215995462
 10
11.99044896135456
 20
4.159144585226385
 30
1.426347760579542
 10
11.95221765118549
 20
4.068561127593056
 30
1.402530982483803
 10
11.9424110210748
 20
4.036788353700103
 30
1.396229465336367
 10
11.92943122106044
 20
3.972273541217873
 30
1.387839559315756
 10
11.92626331740757
 20
3.939529816665526
 30
1.385755989137699
 10
11.92626331740757
 20
3.907565394609264
 30
1.385755989137699
1001
ACAD_VIEW_EDGE_ID
1071
        8
1071
       -1
1071
        5
1071
        0
  0
LINE
  5
332
330
70
100
AcDbEntity
  8
Visible
100
AcDbLine
 10
12.418487
 20
4.399691
 30
1.443822
 11
12.418696
 21
4.399691
 31
1.568974
  0
SPLINE
  5
333
330
70
100
AcDbEntity
  8
Visible
100
AcDbSpline
 70
     0
 71
     3
 72
    18
 73
    14
 74
     0
 42
0.000000001
 43
0.0000000001
 40
-1.938246713917404
 40
-1.938246713917404
 40
-1.938246713917404
 40
-1.938246713917404
 40
-1.696630542275269
 40
-1.696630542275269
 40
-1.455014370633135
 40
-1.455014370633135
 40
-0.9717820273488664
 40
-0.9717820273488664
 40
-0.4858910136744328
 40
-0.4858910136744328
 40
-0.2429455068372164
 40
-0.2429455068372164
 40
0.0
 40
0.0
 40
0.0
 40
0.0
 10
11.92609910837018
 20
3.907565394609264
 30
1.287330929267608
 10
11.92609910837018
 20
3.939273553616658
 30
1.287330929267608
 10
11.92921614524675
 20
3.971826311857512
 30
1.289144563852992
 10
11.94206872482391
 20
4.036106222363741
 30
1.296474434728552
 10
11.95179944368465
 20
4.067834834298992
 30
1.301986327182428
 10
11.98988997008928
 20
4.158488388780824
 30
1.322809464951261
 10
12.02759839098689
 20
4.212817598558103
 30
1.342591347576408
 10
12.11336452019532
 20
4.298519544703594
 30
1.380990466884004
 10
12.16766146746522
 20
4.336029137750301
 30
1.402454548536309
 10
12.25809651997588
 20
4.373977499848479
 30
1.426323590398141
 10
12.28974404054861
 20
4.383686145165484
 30
1.432870873099297
 10
12.3539959255213
 20
4.396546303461946
 30
1.441656484332765
 10
12.38660429344054
 20
4.399691378861461
 30
1.443874944187841
 10
12.41848686151388
 20
4.399691378861461
 30
1.443821752391027
1001
ACAD_VIEW_EDGE_ID
1071
       10
1071
       -1
1071
        5
1071
        0
  0
SPLINE
  5
334
330
70
100
AcDbEntity
  8
Visible
100
AcDbSpline
 70
     0
 71
     3
 72
    18
 73
    14
 74
     0
 42
0.000000001
 43
0.0000000001
 40
-3.876493427834808
 40
-3.876493427834808
 40
-3.876493427834808
 40
-3.876493427834808
 40
-3.633547920997592
 40
-3.633547920997592
 40
-3.390602414160375
 40
-3.390602414160375
 40
-2.904711400485942
 40
-2.904711400485942
 40
-2.421479057201674
 40
-2.421479057201674
 40
-2.179862885559539
 40
-2.179862885559539
 40
-1.938246713917404
 40
-1.938246713917404
 40
-1.938246713917404
 40
-1.938246713917404
 10
12.41848686151388
 20
3.415439410357066
 30
1.443821752391027
 10
12.38660429344054
 20
3.415439410357066
 30
1.443874944187841
 10
12.3539959255213
 20
3.418584485756582
 30
1.441656484332765
 10
12.28974404054861
 20
3.431444644053044
 30
1.432870873099296
 10
12.25809651997588
 20
3.441153289370049
 30
1.426323590398141
 10
12.16766146746522
 20
3.479101651468226
 30
1.402454548536309
 10
12.11336452019532
 20
3.516611244514933
 30
1.380990466884004
 10
12.02759839098689
 20
3.602313190660424
 30
1.342591347576408
 10
11.98988997008928
 20
3.656642400437704
 30
1.322809464951261
 10
11.95179944368465
 20
3.747295954919536
 30
1.301986327182428
 10
11.94206872482391
 20
3.779024566854786
 30
1.296474434728552
 10
11.92921614524675
 20
3.843304477359197
 30
1.289144563852992
 10
11.92609910837018
 20
3.875857235600051
 30
1.287330929267608
 10
11.92609910837018
 20
3.907565394609264
 30
1.287330929267608
1001
ACAD_VIEW_EDGE_ID
1071
       11
1071
       -1
1071
        5
1071
        0
  0
LINE
  5
335
330
70
100
AcDbEntity
  8
Visible
100
AcDbLine
 10
12.418487
 20
3.415439
 30
1.443822
 11
12.418696
 21
3.415439
 31
1.568974
  0
SPLINE
  5
336
330
70
100
AcDbEntity
  8
Visible
100
AcDbSpline
 70
     0
 71
     3
 72
    18
 73
    14
 74
     0
 42
0.000000001
 43
0.0000000001
 40
-1.958520060224103
 40
-1.958520060224103
 40
-1.958520060224103
 40
-1.958520060224103
 40
-1.714951164156498
 40
-1.714951164156498
 40
-1.471382268088891
 40
-1.471382268088891
 40
-0.9842444759536794
 40
-0.9842444759536794
 40
-0.4921222379768393
 40
-0.4921222379768393
 40
-0.2460611189884192
 40
-0.2460611189884192
 40
0.0
 40
0.0
 40
0.0
 40
0.0
 10
14.56405492192607
 20
3.907565394609264
 30
1.381355186958315
 10
14.56405492192607
 20
3.939529816665526
 30
1.381355186958315
 10
14.56089398820222
 20
3.972273541217873
 30
1.383449315954313
 10
14.54794225523801
 20
4.036788353700103
 30
1.391882485266326
 10
14.53815670613767
 20
4.068561127593056
 30
1.398216689342037
 10
14.50000507878758
 20
4.159144585226385
 30
1.422160902143882
 10
14.4624110844743
 20
4.213160426812464
 30
1.444937925101347
 10
14.37727074551185
 20
4.298375348753324
 30
1.489713212353094
 10
14.32339625269014
 20
4.335717907031721
 30
1.515156269619975
 10
14.23333315723539
 20
4.373705547084682
 30
1.544143513166191
 10
14.20175173440475
 20
4.383472380692182
 30
1.552231866000325
 10
14.13735279635875
 20
4.396469134539074
 30
1.563257030949104
 10
14.10452810683455
 20
4.399691378861461
 30
1.566160958854389
 10
14.07223666634308
 20
4.399691378861461
 30
1.566214832800095
1001
ACAD_VIEW_EDGE_ID
1071
       13
1071
       -1
1071
        5
1071
        0
  0
SPLINE
  5
337
330
70
100
AcDbEntity
  8
Visible
100
AcDbSpline
 70
     0
 71
     3
 72
    18
 73
    14
 74
     0
 42
0.000000001
 43
0.0000000001
 40
-3.917040120448207
 40
-3.917040120448207
 40
-3.917040120448207
 40
-3.917040120448207
 40
-3.670979001459787
 40
-3.670979001459787
 40
-3.424917882471368
 40
-3.424917882471368
 40
-2.93279564449453
 40
-2.93279564449453
 40
-2.445657852359317
 40
-2.445657852359317
 40
-2.20208895629171
 40
-2.20208895629171
 40
-1.958520060224103
 40
-1.958520060224103
 40
-1.958520060224103
 40
-1.958520060224103
 10
14.07223666634308
 20
3.415439410357066
 30
1.566214832800095
 10
14.10452810683455
 20
3.415439410357066
 30
1.566160958854389
 10
14.13735279635875
 20
3.418661654679453
 30
1.563257030949104
 10
14.20175173440475
 20
3.431658408524526
 30
1.552231866000325
 10
14.23333315723539
 20
3.441425242133846
 30
1.544143513166191
 10
14.32339625269014
 20
3.479412882186807
 30
1.515156269619975
 10
14.37727074551185
 20
3.516755440465203
 30
1.489713212353094
 10
14.4624110844743
 20
3.601970362406063
 30
1.444937925101347
 10
14.50000507878758
 20
3.655986203992142
 30
1.422160902143882
 10
14.53815670613767
 20
3.746569661625471
 30
1.398216689342037
 10
14.54794225523801
 20
3.778342435518425
 30
1.391882485266326
 10
14.56089398820222
 20
3.842857247998836
 30
1.383449315954313
 10
14.56405492192607
 20
3.875600972553002
 30
1.381355186958315
 10
14.56405492192607
 20
3.907565394609264
 30
1.381355186958315
1001
ACAD_VIEW_EDGE_ID
1071
       14
1071
       -1
1071
        5
1071
        0
  0
LINE
  5
338
330
70
100
AcDbEntity
  8
Visible
100
AcDbLine
 10
12.418696
 20
4.399691
 30
1.568974
 11
14.072237
 21
4.399691
 31
1.566215
  0
LINE
  5
339
330
70
100
AcDbEntity
  8
Visible
100
AcDbLine
 10
12.418696
 20
3.415439
 30
1.568974
 11
14.072237
 21
3.415439
 31
1.566215
  0
LINE
  5
33A
330
70
100
AcDbEntity
  8
Visible
100
AcDbLine
 10
12.257623
 20
6.663471
 30
-0.584946
 11
12.257623
 21
6.860321
 31
-0.584946
  0
LINE
  5
33B
330
70
100
AcDbEntity
  8
Visible
100
AcDbLine
 10
14.226127
 20
6.663471
 30
-0.584946
 11
14.226127
 21
6.860321
 31
-0.584946
  0
SPLINE
  5
33C
330
70
100
AcDbEntity
  8
Visible
100
AcDbSpline
 70
     0
 71
     3
 72
     8
 73
     4
 74
     0
 42
0.000000001
 43
0.0000000001
 40
3.126878228885945
 40
3.126878228885945
 40
3.126878228885945
 40
3.126878228885945
 40
3.377671334181747
 40
3.377671334181747
 40
3.377671334181747
 40
3.377671334181747
 10
12.96629815810957
 20
4.399691464665011
 30
-0.5766983689402312
 10
12.96628900745418
 20
4.43216637896694
 30
-0.582178718539002
 10
12.96628438775406
 20
4.46520409470213
 30
-0.5849456093538188
 10
12.96628438775406
 20
4.49811657571081
 30
-0.5849456093538188
1001
ACAD_VIEW_EDGE_ID
1071
   -24577
1071
       -1
1071
        5
1071
        0
  0
SPLINE
  5
33D
330
70
100
AcDbEntity
  8
Visible
100
AcDbSpline
 70
     0
 71
     3
 72
     8
 73
     4
 74
     0
 42
0.000000001
 43
0.0000000001
 40
0.0
 40
0.0
 40
0.0
 40
0.0
 40
0.2500503641876612
 40
0.2500503641876612
 40
0.2500503641876612
 40
0.2500503641876612
 10
13.51746549011659
 20
4.49811657571081
 30
-0.5849456093538193
 10
13.51746549011659
 20
4.465301567288406
 30
-0.5849456093538193
 10
13.51747017441994
 20
4.43226845647041
 30
-0.5821358969587039
 10
13.51747936636093
 20
4.399699964929823
 30
-0.5766218712646381
1001
ACAD_VIEW_EDGE_ID
1071
   -24578
1071
       -1
1071
        5
1071
        0
  0
LINE
  5
33E
330
70
100
AcDbEntity
  8
Visible
100
AcDbLine
 10
13.517465
 20
6.663471
 30
-0.584946
 11
13.517465
 21
4.498117
 31
-0.584946
  0
LINE
  5
33F
330
70
100
AcDbEntity
  8
Visible
100
AcDbLine
 10
12.966284
 20
6.663471
 30
-0.584946
 11
12.966284
 21
4.498117
 31
-0.584946
  0
ENDSEC
  0
SECTION
  2
OBJECTS
  0
DICTIONARY
  5
C
330
0
100
AcDbDictionary
281
     1
  3
ACAD_COLOR
350
63
  3
ACAD_DETAILVIEWSTYLE
350
6A
  3
ACAD_GROUP
350
D
  3
ACAD_IMAGE_DICT
350
12B
  3
ACAD_IMAGE_VARS
350
12D
  3
ACAD_LAYOUT
350
62
  3
ACAD_MATERIAL
350
10
  3
ACAD_MLEADERSTYLE
350
66
  3
ACAD_MLINESTYLE
350
5F
  3
ACAD_PLOTSETTINGS
350
61
  3
ACAD_PLOTSTYLENAME
350
E
  3
ACAD_SCALELIST
350
42
  3
ACAD_SECTIONVIEWSTYLE
350
68
  3
ACAD_TABLESTYLE
350
64
  3
ACAD_VISUALSTYLE
350
29
  3
ACDB_RECOMPOSE_DATA
350
38B
  3
AcDbVariableDictionary
350
382
  0
DICTIONARY
  5
B5
330
70
100
AcDbDictionary
280
     1
281
     1
  3
ACAD_SORTENTS
360
121
  0
DICTIONARY
  5
125
330
124
100
AcDbDictionary
280
     1
281
     1
  3
ACAD_SORTENTS
360
2E7
  0
IMAGEDEF_REACTOR
  5
12C
330
129
100
AcDbRasterImageDefReactor
 90
        2
330
129
  0
DICTIONARY
  5
63
102
{ACAD_REACTORS
330
C
102
}
330
C
100
AcDbDictionary
281
     1
  0
DICTIONARY
  5
6A
102
{ACAD_REACTORS
330
C
102
}
330
C
100
AcDbDictionary
281
     1
  3
Imperial24
350
6B
  0
DICTIONARY
  5
D
102
{ACAD_REACTORS
330
C
102
}
330
C
100
AcDbDictionary
281
     1
  0
DICTIONARY
  5
12B
102
{ACAD_REACTORS
330
C
102
}
330
C
100
AcDbDictionary
281
     1
  3
morse_logo-16 (1)_01-2018(B)_1_1
350
12A
  0
RASTERVARIABLES
  5
12D
102
{ACAD_REACTORS
330
C
102
}
330
C
100
AcDbRasterVariables
 90
        0
 70
     0
 71
     1
 72
     5
  0
DICTIONARY
  5
62
102
{ACAD_REACTORS
330
C
102
}
330
C
100
AcDbDictionary
281
     1
  3
Model
350
73
  3
Sheet1
350
6F
  3
Sheet2
350
77
  0
DICTIONARY
  5
10
102
{ACAD_REACTORS
330
C
102
}
330
C
100
AcDbDictionary
281
     1
  3
ByBlock
350
19
  3
ByLayer
350
11
  3
Global
350
21
  0
DICTIONARY
  5
66
102
{ACAD_REACTORS
330
C
102
}
330
C
100
AcDbDictionary
281
     1
  3
Standard
350
67
  0
DICTIONARY
  5
5F
102
{ACAD_REACTORS
330
C
102
}
330
C
100
AcDbDictionary
281
     1
  3
Standard
350
60
  0
DICTIONARY
  5
61
102
{ACAD_REACTORS
330
C
102
}
330
C
100
AcDbDictionary
281
     1
  0
ACDBDICTIONARYWDFLT
  5
E
102
{ACAD_REACTORS
330
C
102
}
330
C
100
AcDbDictionary
281
     1
  3
Normal
350
F
100
AcDbDictionaryWithDefault
340
F
  0
DICTIONARY
  5
42
102
{ACAD_REACTORS
330
C
102
}
330
C
100
AcDbDictionary
281
     1
  3
*A1
350
A5
  3
*A10
350
AE
  3
*A11
350
AF
  3
*A12
350
B0
  3
*A13
350
B1
  3
*A14
350
B2
  3
*A15
350
B3
  3
*A16
350
B4
  3
*A2
350
A6
  3
*A3
350
A7
  3
*A4
350
A8
  3
*A5
350
A9
  3
*A6
350
AA
  3
*A7
350
AB
  3
*A8
350
AC
  3
*A9
350
AD
  3
A0
350
43
  3
A1
350
44
  3
A2
350
45
  3
A3
350
46
  3
A4
350
47
  3
A5
350
48
  3
A6
350
49
  3
A7
350
4A
  3
A8
350
4B
  3
A9
350
4C
  3
B0
350
4D
  3
B1
350
4E
  3
B2
350
4F
  3
B3
350
50
  3
B4
350
51
  3
B5
350
52
  3
B6
350
53
  0
DICTIONARY
  5
68
102
{ACAD_REACTORS
330
C
102
}
330
C
100
AcDbDictionary
281
     1
  3
Imperial24
350
69
  0
DICTIONARY
  5
64
102
{ACAD_REACTORS
330
C
102
}
330
C
100
AcDbDictionary
281
     1
  3
Standard
350
65
  0
DICTIONARY
  5
29
102
{ACAD_REACTORS
330
C
102
}
330
C
100
AcDbDictionary
281
     1
  3
2dWireframe
350
2F
  3
Basic
350
2E
  3
Brighten
350
35
  3
ColorChange
350
39
  3
Conceptual
350
32
  3
Dim
350
34
  3
EdgeColorOff
350
41
  3
Facepattern
350
38
  3
Flat
350
2A
  3
FlatWithEdges
350
2B
  3
Gouraud
350
2C
  3
GouraudWithEdges
350
2D
  3
Hidden
350
31
  3
JitterOff
350
3F
  3
Linepattern
350
37
  3
OverhangOff
350
40
  3
Realistic
350
33
  3
Shaded
350
3E
  3
Shaded with edges
350
3D
  3
Shades of Gray
350
3A
  3
Sketchy
350
3B
  3
Thicken
350
36
  3
Wireframe
350
30
  3
X-Ray
350
3C
  0
XRECORD
  5
38B
102
{ACAD_REACTORS
330
C
102
}
330
C
100
AcDbXrecord
280
     1
 90
        1
330
65
330
131
330
13B
330
13C
330
13D
330
140
  0
DICTIONARY
  5
382
102
{ACAD_REACTORS
330
C
102
}
330
C
100
AcDbDictionary
281
     1
  3
ANNOALLVISIBLE
350
387
  3
CANNOSCALE
350
388
  3
CMLEADERSTYLE
350
384
  3
CTABLESTYLE
350
383
  3
CVIEWDETAILSTYLE
350
385
  3
CVIEWSECTIONSTYLE
350
386
  0
SORTENTSTABLE
  5
121
102
{ACAD_REACTORS
330
B5
102
}
330
B5
100
AcDbSortentsTable
330
70
  0
SORTENTSTABLE
  5
2E7
102
{ACAD_REACTORS
330
125
102
}
330
125
100
AcDbSortentsTable
330
124
  0
ACDBDETAILVIEWSTYLE
  5
6B
102
{ACAD_XDICTIONARY
360
38E
102
}
102
{ACAD_REACTORS
330
6A
102
}
330
6A
100
AcDbModelDocViewStyle
 70
     0
  3
Imperial24
290
     0
100
AcDbDetailViewStyle
 70
     0
 71
     0
 90
        3
 71
     1
340
55
 62
   256
 40
0.24
340
0
 62
   256
 40
0.24
300

 40
0.36
280
     3
 71
     2
340
5D
 90
       25
 62
   256
 71
     3
340
55
 62
   256
 40
0.24
 90
        1
 40
0.75
 90
        1
300
%<\AcVar ViewType \f "%tc1">% %<\AcVar ViewDetailId>%\PSCALE %<\AcVar ViewScale \f "%sn">%
 71
     4
340
5D
 90
       25
 62
   256
340
5D
 90
       25
 62
   256
280
     0
  0
IMAGEDEF
  5
12A
102
{ACAD_REACTORS
330
12B
330
12C
330
340
102
}
330
12B
100
AcDbRasterImageDef
 90
        0
  1
morse_logo-16 (1)_01-2018(B)_1_1.jpg
 10
948.0
 20
333.0
 11
0.264583
 21
0.264583
280
     1
281
     5
  0
LAYOUT
  5
73
102
{ACAD_REACTORS
330
62
102
}
330
62
100
AcDbPlotSettings
  1

  2
AutoCAD PDF (High Quality Print).pc3
  4
ANSI_full_bleed_B_(17.00_x_11.00_Inches)
  6

 40
0.0
 41
0.0
 42
0.0
 43
0.0
 44
431.799988
 45
279.399994
 46
0.0
 47
0.0
 48
0.0
 49
0.0
140
0.0
141
0.0
142
1.0
143
1.536567
 70
 11952
 72
     0
 73
     0
 74
     0
  7

 75
     0
147
0.650802
 76
     0
 77
     2
 78
   300
148
97.985761
149
52.459277
100
AcDbLayout
  1
Model
 70
     1
 71
     0
 10
0.0
 20
0.0
 11
12.0
 21
9.0
 12
0.0
 22
0.0
 32
0.0
 14
0.0
 24
0.0
 34
0.0
 15
0.0
 25
0.0
 35
0.0
146
0.0
 13
0.0
 23
0.0
 33
0.0
 16
1.0
 26
0.0
 36
0.0
 17
0.0
 27
1.0
 37
0.0
 76
     0
330
70
1001
ACAD_PSEXT
1000
AutoCAD PDF (High Quality Print).pc3
1000
DWG To PDF
1000
File
1000

1070
     0
  0
LAYOUT
  5
6F
102
{ACAD_REACTORS
330
62
102
}
330
62
100
AcDbPlotSettings
  1

  2
None
  4

  6

 40
0.0
 41
0.0
 42
0.0
 43
0.0
 44
0.0
 45
0.0
 46
0.0
 47
0.0
 48
0.0
 49
0.0
140
0.0
141
0.0
142
1.0
143
1.0
 70
   688
 72
     0
 73
     0
 74
     5
  7

 75
    16
147
1.0
 76
     0
 77
     2
 78
   300
148
0.0
149
0.0
100
AcDbLayout
  1
Sheet1
 70
     1
 71
     1
 10
0.0
 20
0.0
 11
12.0
 21
9.0
 12
0.0
 22
0.0
 32
0.0
 14
0.0
 24
0.0
 34
0.0
 15
0.0
 25
0.0
 35
0.0
146
0.0
 13
0.0
 23
0.0
 33
0.0
 16
1.0
 26
0.0
 36
0.0
 17
0.0
 27
1.0
 37
0.0
 76
     0
330
6C
  0
LAYOUT
  5
77
102
{ACAD_REACTORS
330
62
102
}
330
62
100
AcDbPlotSettings
  1

  2
None
  4

  6

 40
0.0
 41
0.0
 42
0.0
 43
0.0
 44
0.0
 45
0.0
 46
0.0
 47
0.0
 48
0.0
 49
0.0
140
0.0
141
0.0
142
1.0
143
1.0
 70
   688
 72
     0
 73
     0
 74
     5
  7

 75
    16
147
1.0
 76
     0
 77
     2
 78
   300
148
0.0
149
0.0
100
AcDbLayout
  1
Sheet2
 70
     1
 71
     2
 10
0.0
 20
0.0
 11
12.0
 21
9.0
 12
0.0
 22
0.0
 32
0.0
 14
0.0
 24
0.0
 34
0.0
 15
0.0
 25
0.0
 35
0.0
146
0.0
 13
0.0
 23
0.0
 33
0.0
 16
1.0
 26
0.0
 36
0.0
 17
0.0
 27
1.0
 37
0.0
 76
     0
330
74
  0
MATERIAL
  5
19
102
{ACAD_XDICTIONARY
360
1A
102
}
102
{ACAD_REACTORS
330
10
102
}
330
10
100
AcDbMaterial
  1
ByBlock
 72
     0
 43
0.020833
 43
0.0
 43
0.0
 43
0.0
 43
0.0
 43
0.020833
 43
0.0
 43
0.0
 43
0.0
 43
0.0
 43
1.0
 43
0.0
 43
0.0
 43
0.0
 43
0.0
 43
1.0
 77
     0
 47
0.020833
 47
0.0
 47
0.0
 47
0.0
 47
0.0
 47
0.020833
 47
0.0
 47
0.0
 47
0.0
 47
0.0
 47
1.0
 47
0.0
 47
0.0
 47
0.0
 47
0.0
 47
1.0
171
     0
 49
0.020833
 49
0.0
 49
0.0
 49
0.0
 49
0.0
 49
0.020833
 49
0.0
 49
0.0
 49
0.0
 49
0.0
 49
1.0
 49
0.0
 49
0.0
 49
0.0
 49
0.0
 49
1.0
175
     0
142
0.020833
142
0.0
142
0.0
142
0.0
142
0.0
142
0.020833
142
0.0
142
0.0
142
0.0
142
0.0
142
1.0
142
0.0
142
0.0
142
0.0
142
0.0
142
1.0
179
     0
144
0.020833
144
0.0
144
0.0
144
0.0
144
0.0
144
0.020833
144
0.0
144
0.0
144
0.0
144
0.0
144
1.0
144
0.0
144
0.0
144
0.0
144
0.0
144
1.0
147
0.020833
147
0.0
147
0.0
147
0.0
147
0.0
147
0.020833
147
0.0
147
0.0
147
0.0
147
0.0
147
1.0
147
0.0
147
0.0
147
0.0
147
0.0
147
1.0
  0
MATERIAL
  5
11
102
{ACAD_XDICTIONARY
360
12
102
}
102
{ACAD_REACTORS
330
10
102
}
330
10
100
AcDbMaterial
  1
ByLayer
 72
     0
 43
0.020833
 43
0.0
 43
0.0
 43
0.0
 43
0.0
 43
0.020833
 43
0.0
 43
0.0
 43
0.0
 43
0.0
 43
1.0
 43
0.0
 43
0.0
 43
0.0
 43
0.0
 43
1.0
 77
     0
 47
0.020833
 47
0.0
 47
0.0
 47
0.0
 47
0.0
 47
0.020833
 47
0.0
 47
0.0
 47
0.0
 47
0.0
 47
1.0
 47
0.0
 47
0.0
 47
0.0
 47
0.0
 47
1.0
171
     0
 49
0.020833
 49
0.0
 49
0.0
 49
0.0
 49
0.0
 49
0.020833
 49
0.0
 49
0.0
 49
0.0
 49
0.0
 49
1.0
 49
0.0
 49
0.0
 49
0.0
 49
0.0
 49
1.0
175
     0
142
0.020833
142
0.0
142
0.0
142
0.0
142
0.0
142
0.020833
142
0.0
142
0.0
142
0.0
142
0.0
142
1.0
142
0.0
142
0.0
142
0.0
142
0.0
142
1.0
179
     0
144
0.020833
144
0.0
144
0.0
144
0.0
144
0.0
144
0.020833
144
0.0
144
0.0
144
0.0
144
0.0
144
1.0
144
0.0
144
0.0
144
0.0
144
0.0
144
1.0
147
0.020833
147
0.0
147
0.0
147
0.0
147
0.0
147
0.020833
147
0.0
147
0.0
147
0.0
147
0.0
147
1.0
147
0.0
147
0.0
147
0.0
147
0.0
147
1.0
  0
MATERIAL
  5
21
102
{ACAD_XDICTIONARY
360
22
102
}
102
{ACAD_REACTORS
330
10
102
}
330
10
100
AcDbMaterial
  1
Global
 72
     0
 43
0.020833
 43
0.0
 43
0.0
 43
0.0
 43
0.0
 43
0.020833
 43
0.0
 43
0.0
 43
0.0
 43
0.0
 43
1.0
 43
0.0
 43
0.0
 43
0.0
 43
0.0
 43
1.0
 77
     0
 47
0.020833
 47
0.0
 47
0.0
 47
0.0
 47
0.0
 47
0.020833
 47
0.0
 47
0.0
 47
0.0
 47
0.0
 47
1.0
 47
0.0
 47
0.0
 47
0.0
 47
0.0
 47
1.0
171
     0
 49
0.020833
 49
0.0
 49
0.0
 49
0.0
 49
0.0
 49
0.020833
 49
0.0
 49
0.0
 49
0.0
 49
0.0
 49
1.0
 49
0.0
 49
0.0
 49
0.0
 49
0.0
 49
1.0
175
     0
142
0.020833
142
0.0
142
0.0
142
0.0
142
0.0
142
0.020833
142
0.0
142
0.0
142
0.0
142
0.0
142
1.0
142
0.0
142
0.0
142
0.0
142
0.0
142
1.0
179
     0
144
0.020833
144
0.0
144
0.0
144
0.0
144
0.0
144
0.020833
144
0.0
144
0.0
144
0.0
144
0.0
144
1.0
144
0.0
144
0.0
144
0.0
144
0.0
144
1.0
147
0.020833
147
0.0
147
0.0
147
0.0
147
0.0
147
0.020833
147
0.0
147
0.0
147
0.0
147
0.0
147
1.0
147
0.0
147
0.0
147
0.0
147
0.0
147
1.0
  0
MLEADERSTYLE
  5
67
102
{ACAD_REACTORS
330
66
102
}
330
66
100
AcDbMLeaderStyle
179
     2
170
     2
171
     1
172
     0
 90
        2
 40
0.0
 41
0.0
173
     1
 91
-1056964608
340
5B
 92
       -2
290
     1
 42
0.09
291
     1
 43
0.36
  3
Standard
 44
0.18
300

342
55
174
     1
178
     6
175
     1
176
     0
 93
-1056964608
 45
0.18
292
     0
297
     0
 46
0.18
 94
-1056964608
 47
1.0
 49
1.0
140
1.0
293
     1
141
0.0
294
     1
177
     0
142
1.0
295
     0
296
     0
143
0.125
271
     0
272
     9
273
     9
298
     1
  0
MLINESTYLE
  5
60
102
{ACAD_REACTORS
330
5F
102
}
330
5F
100
AcDbMlineStyle
  2
STANDARD
 70
     0
  3

 62
   256
 51
90.0
 52
90.0
 71
     0
  0
ACDBPLACEHOLDER
  5
F
102
{ACAD_REACTORS
330
E
102
}
330
E
  0
SCALE
  5
A5
102
{ACAD_REACTORS
330
42
102
}
330
42
100
AcDbScale
 70
     0
300
1:2
140
1.0
141
2.0
290
     0
  0
SCALE
  5
AE
102
{ACAD_REACTORS
330
42
102
}
330
42
100
AcDbScale
 70
     0
300
1:50
140
1.0
141
50.0
290
     0
  0
SCALE
  5
AF
102
{ACAD_REACTORS
330
42
102
}
330
42
100
AcDbScale
 70
     0
300
1:100
140
1.0
141
100.0
290
     0
  0
SCALE
  5
B0
102
{ACAD_REACTORS
330
42
102
}
330
42
100
AcDbScale
 70
     0
300
2:1
140
2.0
141
1.0
290
     0
  0
SCALE
  5
B1
102
{ACAD_REACTORS
330
42
102
}
330
42
100
AcDbScale
 70
     0
300
4:1
140
4.0
141
1.0
290
     0
  0
SCALE
  5
B2
102
{ACAD_REACTORS
330
42
102
}
330
42
100
AcDbScale
 70
     0
300
8:1
140
8.0
141
1.0
290
     0
  0
SCALE
  5
B3
102
{ACAD_REACTORS
330
42
102
}
330
42
100
AcDbScale
 70
     0
300
10:1
140
10.0
141
1.0
290
     0
  0
SCALE
  5
B4
102
{ACAD_REACTORS
330
42
102
}
330
42
100
AcDbScale
 70
     0
300
100:1
140
100.0
141
1.0
290
     0
  0
SCALE
  5
A6
102
{ACAD_REACTORS
330
42
102
}
330
42
100
AcDbScale
 70
     0
300
1:4
140
1.0
141
4.0
290
     0
  0
SCALE
  5
A7
102
{ACAD_REACTORS
330
42
102
}
330
42
100
AcDbScale
 70
     0
300
1:5
140
1.0
141
5.0
290
     0
  0
SCALE
  5
A8
102
{ACAD_REACTORS
330
42
102
}
330
42
100
AcDbScale
 70
     0
300
1:8
140
1.0
141
8.0
290
     0
  0
SCALE
  5
A9
102
{ACAD_REACTORS
330
42
102
}
330
42
100
AcDbScale
 70
     0
300
1:10
140
1.0
141
10.0
290
     0
  0
SCALE
  5
AA
102
{ACAD_REACTORS
330
42
102
}
330
42
100
AcDbScale
 70
     0
300
1:16
140
1.0
141
16.0
290
     0
  0
SCALE
  5
AB
102
{ACAD_REACTORS
330
42
102
}
330
42
100
AcDbScale
 70
     0
300
1:20
140
1.0
141
20.0
290
     0
  0
SCALE
  5
AC
102
{ACAD_REACTORS
330
42
102
}
330
42
100
AcDbScale
 70
     0
300
1:30
140
1.0
141
30.0
290
     0
  0
SCALE
  5
AD
102
{ACAD_REACTORS
330
42
102
}
330
42
100
AcDbScale
 70
     0
300
1:40
140
1.0
141
40.0
290
     0
  0
SCALE
  5
43
102
{ACAD_REACTORS
330
42
102
}
330
42
100
AcDbScale
 70
     0
300
1:1
140
1.0
141
1.0
290
     1
  0
SCALE
  5
44
102
{ACAD_REACTORS
330
42
102
}
330
42
100
AcDbScale
 70
     0
300
1/128" = 1'-0"
140
0.007813
141
12.0
290
     0
  0
SCALE
  5
45
102
{ACAD_REACTORS
330
42
102
}
330
42
100
AcDbScale
 70
     0
300
1/64" = 1'-0"
140
0.015625
141
12.0
290
     0
  0
SCALE
  5
46
102
{ACAD_REACTORS
330
42
102
}
330
42
100
AcDbScale
 70
     0
300
1/32" = 1'-0"
140
0.03125
141
12.0
290
     0
  0
SCALE
  5
47
102
{ACAD_REACTORS
330
42
102
}
330
42
100
AcDbScale
 70
     0
300
1/16" = 1'-0"
140
0.0625
141
12.0
290
     0
  0
SCALE
  5
48
102
{ACAD_REACTORS
330
42
102
}
330
42
100
AcDbScale
 70
     0
300
3/32" = 1'-0"
140
0.09375
141
12.0
290
     0
  0
SCALE
  5
49
102
{ACAD_REACTORS
330
42
102
}
330
42
100
AcDbScale
 70
     0
300
1/8" = 1'-0"
140
0.125
141
12.0
290
     0
  0
SCALE
  5
4A
102
{ACAD_REACTORS
330
42
102
}
330
42
100
AcDbScale
 70
     0
300
3/16" = 1'-0"
140
0.1875
141
12.0
290
     0
  0
SCALE
  5
4B
102
{ACAD_REACTORS
330
42
102
}
330
42
100
AcDbScale
 70
     0
300
1/4" = 1'-0"
140
0.25
141
12.0
290
     0
  0
SCALE
  5
4C
102
{ACAD_REACTORS
330
42
102
}
330
42
100
AcDbScale
 70
     0
300
3/8" = 1'-0"
140
0.375
141
12.0
290
     0
  0
SCALE
  5
4D
102
{ACAD_REACTORS
330
42
102
}
330
42
100
AcDbScale
 70
     0
300
1/2" = 1'-0"
140
0.5
141
12.0
290
     0
  0
SCALE
  5
4E
102
{ACAD_REACTORS
330
42
102
}
330
42
100
AcDbScale
 70
     0
300
3/4" = 1'-0"
140
0.75
141
12.0
290
     0
  0
SCALE
  5
4F
102
{ACAD_REACTORS
330
42
102
}
330
42
100
AcDbScale
 70
     0
300
1" = 1'-0"
140
1.0
141
12.0
290
     0
  0
SCALE
  5
50
102
{ACAD_REACTORS
330
42
102
}
330
42
100
AcDbScale
 70
     0
300
1-1/2" = 1'-0"
140
1.5
141
12.0
290
     0
  0
SCALE
  5
51
102
{ACAD_REACTORS
330
42
102
}
330
42
100
AcDbScale
 70
     0
300
3" = 1'-0"
140
3.0
141
12.0
290
     0
  0
SCALE
  5
52
102
{ACAD_REACTORS
330
42
102
}
330
42
100
AcDbScale
 70
     0
300
6" = 1'-0"
140
6.0
141
12.0
290
     0
  0
SCALE
  5
53
102
{ACAD_REACTORS
330
42
102
}
330
42
100
AcDbScale
 70
     0
300
1'-0" = 1'-0"
140
12.0
141
12.0
290
     0
  0
ACDBSECTIONVIEWSTYLE
  5
69
102
{ACAD_XDICTIONARY
360
38C
102
}
102
{ACAD_REACTORS
330
68
102
}
330
68
100
AcDbModelDocViewStyle
 70
     0
  3
Imperial24
290
     0
100
AcDbSectionViewStyle
 70
     0
 71
     0
 90
       78
 71
     1
340
55
 62
   256
 40
0.24
340
0
340
0
 62
   256
 40
0.24
300
I, O, Q, S, X, Z
 40
0.48
 90
        3
 40
0.18
 90
        1
 71
     2
340
5D
 90
       25
 62
   256
340
5D
 90
       50
 62
   256
 40
0.24
 40
0.0
 40
0.24
 71
     3
340
55
 62
   256
 40
0.24
 90
        1
 40
0.75
 90
        1
300
%<\AcVar ViewType \f "%tc1">% %<\AcVar ViewSectionStartId>%-%<\AcVar ViewSectionEndId>%\PSCALE %<\AcVar ViewScale \f "%sn">%
 71
     4
 62
   256
 62
   257
300
ANSI31
 40
1.0
 90
        0
290
     0
290
     0
 90
        6
 40
0.0
 40
1.570796
 40
0.261799
 40
1.308997
 40
-0.261799
 40
1.832596
  0
TABLESTYLE
  5
65
102
{ACAD_XDICTIONARY
360
389
102
}
102
{ACAD_REACTORS
330
64
102
}
330
64
100
AcDbTableStyle
280
     0
  3
Standard
 70
     0
 71
     0
 40
0.06
 41
0.06
280
     0
281
     0
  7
Standard
140
0.18
170
     2
 62
     0
 63
     7
283
     0
 90
      512
 91
        0
  1

274
    -2
284
     1
 64
     0
275
    -2
285
     1
 65
     0
276
    -2
286
     1
 66
     0
277
    -2
287
     1
 67
     0
278
    -2
288
     1
 68
     0
279
    -2
289
     1
 69
     0
  7
Standard
140
0.25
170
     5
 62
     0
 63
     7
283
     0
 90
      512
 91
        0
  1

274
    -2
284
     1
 64
     0
275
    -2
285
     1
 65
     0
276
    -2
286
     1
 66
     0
277
    -2
287
     1
 67
     0
278
    -2
288
     1
 68
     0
279
    -2
289
     1
 69
     0
  7
Standard
140
0.18
170
     5
 62
     0
 63
     7
283
     0
 90
      512
 91
        0
  1

274
    -2
284
     1
 64
     0
275
    -2
285
     1
 65
     0
276
    -2
286
     1
 66
     0
277
    -2
287
     1
 67
     0
278
    -2
288
     1
 68
     0
279
    -2
289
     1
 69
     0
  0
VISUALSTYLE
  5
2F
102
{ACAD_REACTORS
330
29
102
}
330
29
100
AcDbVisualStyle
  2
2dWireframe
 70
     4
177
     3
291
     0
 70
    58
 90
        0
176
     1
 90
        2
176
     1
 90
        0
176
     1
 90
        0
176
     1
 40
0.6
176
     1
 40
30.0
176
     1
 62
     7
420
 16777215
176
     1
 90
        1
176
     1
 90
        4
176
     1
 62
     7
176
     1
 62
   257
176
     1
 90
        1
176
     1
 90
        1
176
     1
 40
1.0
176
     1
 90
        0
176
     1
 62
   257
176
     1
 40
1.0
176
     1
 90
        1
176
     1
 90
        6
176
     1
 90
        2
176
     1
 62
     7
176
     1
 90
        5
176
     1
 90
        0
176
     1
 90
        0
176
     1
290
     0
176
     1
 90
        1
176
     1
 40
0.0
176
     1
 90
        0
176
     1
290
     1
176
     1
290
     1
176
     1
290
     0
176
     1
290
     0
176
     1
290
     0
176
     1
290
     0
176
     1
290
     0
176
     1
290
     0
176
     1
290
     0
176
     1
 90
       50
176
     1
 40
0.0
176
     1
 40
1.0
176
     1
 90
        0
176
     1
 62
    18
420
        0
176
     1
 90
       50
176
     1
 90
        3
176
     1
 62
     5
420
      255
176
     1
290
     0
176
     1
 90
       50
176
     1
 90
       50
176
     1
 90
       50
176
     1
290
     0
176
     1
 90
       50
176
     1
 62
   256
176
     0
 40
1.0
176
     0
 90
        2
176
     1
  1
strokes_ogs.tif
176
     1
290
     0
176
     1
 40
1.0
176
     1
 40
1.0
176
     1
1001
ACAD
1000
AcDbSavedByObjectVersion
1070
     0
  0
VISUALSTYLE
  5
2E
102
{ACAD_REACTORS
330
29
102
}
330
29
100
AcDbVisualStyle
  2
Basic
 70
     7
177
     3
291
     1
 70
    58
 90
        1
176
     1
 90
        0
176
     1
 90
        1
176
     1
 90
        0
176
     1
 40
0.6
176
     1
 40
30.0
176
     1
 62
     7
420
 16777215
176
     1
 90
        0
176
     1
 90
        4
176
     1
 62
     7
176
     1
 62
   257
176
     1
 90
        1
176
     1
 90
        1
176
     1
 40
1.0
176
     1
 90
        8
176
     1
 62
     7
176
     1
 40
1.0
176
     1
 90
        1
176
     1
 90
        6
176
     1
 90
        2
176
     1
 62
     7
176
     1
 90
        5
176
     1
 90
        0
176
     1
 90
        0
176
     1
290
     0
176
     1
 90
        1
176
     1
 40
0.0
176
     1
 90
        0
176
     1
290
     0
176
     1
290
     1
176
     1
290
     1
176
     1
290
     0
176
     1
290
     0
176
     1
290
     0
176
     1
290
     0
176
     1
290
     0
176
     1
290
     0
176
     1
 90
       50
176
     1
 40
0.0
176
     1
 40
1.0
176
     1
 90
        0
176
     1
 62
    18
420
        0
176
     1
 90
       50
176
     1
 90
        3
176
     1
 62
     5
420
      255
176
     1
290
     0
176
     1
 90
       50
176
     1
 90
       50
176
     1
 90
       50
176
     1
290
     0
176
     1
 90
       50
176
     1
 62
   256
176
     0
 40
1.0
176
     0
 90
        2
176
     1
  1
strokes_ogs.tif
176
     1
290
     0
176
     1
 40
1.0
176
     1
 40
1.0
176
     1
1001
ACAD
1000
AcDbSavedByObjectVersion
1070
     0
  0
VISUALSTYLE
  5
35
102
{ACAD_REACTORS
330
29
102
}
330
29
100
AcDbVisualStyle
  2
Brighten
 70
    12
177
     3
291
     1
 70
    58
 90
        2
176
     1
 90
        2
176
     1
 90
        0
176
     1
 90
        0
176
     1
 40
0.6
176
     1
 40
30.0
176
     1
 62
     7
420
 16777215
176
     1
 90
        1
176
     1
 90
        4
176
     1
 62
     7
176
     1
 62
   257
176
     1
 90
        1
176
     1
 90
        1
176
     1
 40
1.0
176
     1
 90
        8
176
     1
 62
     7
176
     1
 40
1.0
176
     1
 90
        1
176
     1
 90
        6
176
     1
 90
        2
176
     1
 62
     7
176
     1
 90
        5
176
     1
 90
        0
176
     1
 90
        0
176
     1
290
     0
176
     1
 90
        1
176
     1
 40
50.0
176
     1
 90
        0
176
     1
290
     0
176
     1
290
     1
176
     1
290
     1
176
     1
290
     0
176
     1
290
     0
176
     1
290
     0
176
     1
290
     0
176
     1
290
     0
176
     1
290
     0
176
     1
 90
       50
176
     1
 40
0.0
176
     1
 40
1.0
176
     1
 90
        0
176
     1
 62
    18
420
        0
176
     1
 90
       50
176
     1
 90
        3
176
     1
 62
     5
420
      255
176
     1
290
     0
176
     1
 90
       50
176
     1
 90
       50
176
     1
 90
       50
176
     1
290
     0
176
     1
 90
       50
176
     1
 62
   256
176
     0
 40
1.0
176
     0
 90
        2
176
     1
  1
strokes_ogs.tif
176
     1
290
     0
176
     1
 40
1.0
176
     1
 40
1.0
176
     1
1001
ACAD
1000
AcDbSavedByObjectVersion
1070
     0
  0
VISUALSTYLE
  5
39
102
{ACAD_REACTORS
330
29
102
}
330
29
100
AcDbVisualStyle
  2
ColorChange
 70
    16
177
     3
291
     1
 70
    58
 90
        2
176
     1
 90
        2
176
     1
 90
        3
176
     1
 90
        0
176
     1
 40
0.6
176
     1
 40
30.0
176
     1
 62
     8
420
  8421504
176
     1
 90
        1
176
     1
 90
        4
176
     1
 62
     7
176
     1
 62
   257
176
     1
 90
        1
176
     1
 90
        1
176
     1
 40
1.0
176
     1
 90
        8
176
     1
 62
     8
420
  8421504
176
     1
 40
1.0
176
     1
 90
        1
176
     1
 90
        6
176
     1
 90
        2
176
     1
 62
     7
176
     1
 90
        5
176
     1
 90
        0
176
     1
 90
        0
176
     1
290
     0
176
     1
 90
        1
176
     1
 40
0.0
176
     1
 90
        0
176
     1
290
     0
176
     1
290
     1
176
     1
290
     1
176
     1
290
     0
176
     1
290
     0
176
     1
290
     0
176
     1
290
     0
176
     1
290
     0
176
     1
290
     0
176
     1
 90
       50
176
     1
 40
0.0
176
     1
 40
1.0
176
     1
 90
        0
176
     1
 62
    18
420
        0
176
     1
 90
       50
176
     1
 90
        3
176
     1
 62
     5
420
      255
176
     1
290
     0
176
     1
 90
       50
176
     1
 90
       50
176
     1
 90
       50
176
     1
290
     0
176
     1
 90
       50
176
     1
 62
   256
176
     0
 40
1.0
176
     0
 90
        2
176
     1
  1
strokes_ogs.tif
176
     1
290
     0
176
     1
 40
1.0
176
     1
 40
1.0
176
     1
1001
ACAD
1000
AcDbSavedByObjectVersion
1070
     0
  0
VISUALSTYLE
  5
32
102
{ACAD_REACTORS
330
29
102
}
330
29
100
AcDbVisualStyle
  2
Conceptual
 70
     9
177
     3
291
     0
 70
    58
 90
        3
176
     1
 90
        2
176
     1
 90
        0
176
     1
 90
        0
176
     1
 40
0.6
176
     1
 40
30.0
176
     1
 62
     7
420
 16777215
176
     1
 90
        2
176
     1
 90
        2
176
     1
 62
     7
176
     1
 62
   257
176
     1
 90
        1
176
     1
 90
        1
176
     1
 40
179.0
176
     1
 90
        8
176
     1
 62
     7
176
     1
 40
1.0
176
     1
 90
        1
176
     1
 90
        6
176
     1
 90
        2
176
     1
 62
     7
176
     1
 90
        3
176
     1
 90
        0
176
     1
 90
        0
176
     1
290
     0
176
     1
 90
        1
176
     1
 40
0.0
176
     1
 90
        0
176
     1
290
     0
176
     1
290
     1
176
     1
290
     1
176
     1
290
     0
176
     1
290
     0
176
     1
290
     0
176
     1
290
     0
176
     1
290
     0
176
     1
290
     0
176
     1
 90
       50
176
     1
 40
0.0
176
     1
 40
1.0
176
     1
 90
        0
176
     1
 62
    18
420
        0
176
     1
 90
       50
176
     1
 90
        3
176
     1
 62
     5
420
      255
176
     1
290
     0
176
     1
 90
       50
176
     1
 90
       50
176
     1
 90
       50
176
     1
290
     0
176
     1
 90
       50
176
     1
 62
   256
176
     0
 40
1.0
176
     0
 90
        2
176
     1
  1
strokes_ogs.tif
176
     1
290
     0
176
     1
 40
1.0
176
     1
 40
1.0
176
     1
1001
ACAD
1000
AcDbSavedByObjectVersion
1070
     0
  0
VISUALSTYLE
  5
34
102
{ACAD_REACTORS
330
29
102
}
330
29
100
AcDbVisualStyle
  2
Dim
 70
    11
177
     3
291
     1
 70
    58
 90
        2
176
     1
 90
        2
176
     1
 90
        0
176
     1
 90
        0
176
     1
 40
0.6
176
     1
 40
30.0
176
     1
 62
     7
420
 16777215
176
     1
 90
        1
176
     1
 90
        4
176
     1
 62
     7
176
     1
 62
   257
176
     1
 90
        1
176
     1
 90
        1
176
     1
 40
1.0
176
     1
 90
        8
176
     1
 62
     7
176
     1
 40
1.0
176
     1
 90
        1
176
     1
 90
        6
176
     1
 90
        2
176
     1
 62
     7
176
     1
 90
        5
176
     1
 90
        0
176
     1
 90
        0
176
     1
290
     0
176
     1
 90
        1
176
     1
 40
-50.0
176
     1
 90
        0
176
     1
290
     0
176
     1
290
     1
176
     1
290
     1
176
     1
290
     0
176
     1
290
     0
176
     1
290
     0
176
     1
290
     0
176
     1
290
     0
176
     1
290
     0
176
     1
 90
       50
176
     1
 40
0.0
176
     1
 40
1.0
176
     1
 90
        0
176
     1
 62
    18
420
        0
176
     1
 90
       50
176
     1
 90
        3
176
     1
 62
     5
420
      255
176
     1
290
     0
176
     1
 90
       50
176
     1
 90
       50
176
     1
 90
       50
176
     1
290
     0
176
     1
 90
       50
176
     1
 62
   256
176
     0
 40
1.0
176
     0
 90
        2
176
     1
  1
strokes_ogs.tif
176
     1
290
     0
176
     1
 40
1.0
176
     1
 40
1.0
176
     1
1001
ACAD
1000
AcDbSavedByObjectVersion
1070
     0
  0
VISUALSTYLE
  5
41
102
{ACAD_REACTORS
330
29
102
}
330
29
100
AcDbVisualStyle
  2
EdgeColorOff
 70
    22
177
     3
291
     1
 70
    58
 90
        2
176
     0
 90
        2
176
     0
 90
        0
176
     0
 90
        0
176
     0
 40
0.6
176
     0
 40
30.0
176
     0
 62
     7
420
 16777215
176
     0
 90
        1
176
     0
 90
        4
176
     0
 62
     7
176
     0
 62
   257
176
     0
 90
        1
176
     0
 90
        1
176
     0
 40
1.0
176
     0
 90
        8
176
     2
 62
     7
176
     0
 40
1.0
176
     0
 90
        1
176
     0
 90
        6
176
     0
 90
        2
176
     0
 62
     7
176
     0
 90
        5
176
     0
 90
        0
176
     0
 90
        0
176
     0
290
     0
176
     0
 90
        1
176
     0
 40
0.0
176
     0
 90
        0
176
     0
290
     0
176
     0
290
     1
176
     0
290
     1
176
     0
290
     0
176
     0
290
     0
176
     0
290
     0
176
     0
290
     0
176
     0
290
     0
176
     0
290
     0
176
     0
 90
       50
176
     0
 40
0.0
176
     0
 40
1.0
176
     0
 90
        0
176
     0
 62
    18
420
        0
176
     0
 90
       50
176
     0
 90
        3
176
     0
 62
     5
420
      255
176
     0
290
     0
176
     0
 90
       50
176
     0
 90
       50
176
     0
 90
       50
176
     0
290
     0
176
     0
 90
       50
176
     0
 62
   256
176
     0
 40
1.0
176
     0
 90
        2
176
     0
  1
strokes_ogs.tif
176
     0
290
     0
176
     0
 40
1.0
176
     0
 40
1.0
176
     0
1001
ACAD
1000
AcDbSavedByObjectVersion
1070
     0
  0
VISUALSTYLE
  5
38
102
{ACAD_REACTORS
330
29
102
}
330
29
100
AcDbVisualStyle
  2
Facepattern
 70
    15
177
     3
291
     1
 70
    58
 90
        2
176
     1
 90
        2
176
     1
 90
        0
176
     1
 90
        0
176
     1
 40
0.6
176
     1
 40
30.0
176
     1
 62
     7
420
 16777215
176
     1
 90
        1
176
     1
 90
        4
176
     1
 62
     7
176
     1
 62
   257
176
     1
 90
        1
176
     1
 90
        1
176
     1
 40
1.0
176
     1
 90
        8
176
     1
 62
     7
176
     1
 40
1.0
176
     1
 90
        1
176
     1
 90
        6
176
     1
 90
        2
176
     1
 62
     7
176
     1
 90
        5
176
     1
 90
        0
176
     1
 90
        0
176
     1
290
     0
176
     1
 90
        1
176
     1
 40
0.0
176
     1
 90
        0
176
     1
290
     0
176
     1
290
     1
176
     1
290
     1
176
     1
290
     0
176
     1
290
     0
176
     1
290
     0
176
     1
290
     0
176
     1
290
     0
176
     1
290
     0
176
     1
 90
       50
176
     1
 40
0.0
176
     1
 40
1.0
176
     1
 90
        0
176
     1
 62
    18
420
        0
176
     1
 90
       50
176
     1
 90
        3
176
     1
 62
     5
420
      255
176
     1
290
     0
176
     1
 90
       50
176
     1
 90
       50
176
     1
 90
       50
176
     1
290
     0
176
     1
 90
       50
176
     1
 62
   256
176
     0
 40
1.0
176
     0
 90
        2
176
     1
  1
strokes_ogs.tif
176
     1
290
     0
176
     1
 40
1.0
176
     1
 40
1.0
176
     1
1001
ACAD
1000
AcDbSavedByObjectVersion
1070
     0
  0
VISUALSTYLE
  5
2A
102
{ACAD_REACTORS
330
29
102
}
330
29
100
AcDbVisualStyle
  2
Flat
 70
     0
177
     3
291
     1
 70
    58
 90
        2
176
     1
 90
        1
176
     1
 90
        1
176
     1
 90
        2
176
     1
 40
0.6
176
     1
 40
30.0
176
     1
 62
     7
420
 16777215
176
     1
 90
        0
176
     1
 90
        0
176
     1
 62
     7
176
     1
 62
   257
176
     1
 90
        1
176
     1
 90
        1
176
     1
 40
1.0
176
     1
 90
        8
176
     1
 62
     7
176
     1
 40
1.0
176
     1
 90
        1
176
     1
 90
        6
176
     1
 90
        2
176
     1
 62
     7
176
     1
 90
        5
176
     1
 90
        0
176
     1
 90
        0
176
     1
290
     0
176
     1
 90
       13
176
     1
 40
0.0
176
     1
 90
        0
176
     1
290
     0
176
     1
290
     1
176
     1
290
     1
176
     1
290
     0
176
     1
290
     0
176
     1
290
     0
176
     1
290
     0
176
     1
290
     0
176
     1
290
     0
176
     1
 90
       50
176
     1
 40
0.0
176
     1
 40
1.0
176
     1
 90
        0
176
     1
 62
    18
420
        0
176
     1
 90
       50
176
     1
 90
        3
176
     1
 62
     5
420
      255
176
     1
290
     0
176
     1
 90
       50
176
     1
 90
       50
176
     1
 90
       50
176
     1
290
     0
176
     1
 90
       50
176
     1
 62
   256
176
     0
 40
1.0
176
     0
 90
        2
176
     1
  1
strokes_ogs.tif
176
     1
290
     0
176
     1
 40
1.0
176
     1
 40
1.0
176
     1
1001
ACAD
1000
AcDbSavedByObjectVersion
1070
     0
  0
VISUALSTYLE
  5
2B
102
{ACAD_REACTORS
330
29
102
}
330
29
100
AcDbVisualStyle
  2
FlatWithEdges
 70
     1
177
     3
291
     1
 70
    58
 90
        2
176
     1
 90
        1
176
     1
 90
        1
176
     1
 90
        2
176
     1
 40
0.6
176
     1
 40
30.0
176
     1
 62
     7
420
 16777215
176
     1
 90
        1
176
     1
 90
        0
176
     1
 62
     7
176
     1
 62
   257
176
     1
 90
        1
176
     1
 90
        1
176
     1
 40
1.0
176
     1
 90
        0
176
     1
 62
   257
176
     1
 40
1.0
176
     1
 90
        1
176
     1
 90
        6
176
     1
 90
        2
176
     1
 62
     7
176
     1
 90
        5
176
     1
 90
        0
176
     1
 90
        0
176
     1
290
     0
176
     1
 90
       13
176
     1
 40
0.0
176
     1
 90
        0
176
     1
290
     0
176
     1
290
     1
176
     1
290
     1
176
     1
290
     0
176
     1
290
     0
176
     1
290
     0
176
     1
290
     0
176
     1
290
     0
176
     1
290
     0
176
     1
 90
       50
176
     1
 40
0.0
176
     1
 40
1.0
176
     1
 90
        0
176
     1
 62
    18
420
        0
176
     1
 90
       50
176
     1
 90
        3
176
     1
 62
     5
420
      255
176
     1
290
     0
176
     1
 90
       50
176
     1
 90
       50
176
     1
 90
       50
176
     1
290
     0
176
     1
 90
       50
176
     1
 62
   256
176
     0
 40
1.0
176
     0
 90
        2
176
     1
  1
strokes_ogs.tif
176
     1
290
     0
176
     1
 40
1.0
176
     1
 40
1.0
176
     1
1001
ACAD
1000
AcDbSavedByObjectVersion
1070
     0
  0
VISUALSTYLE
  5
2C
102
{ACAD_REACTORS
330
29
102
}
330
29
100
AcDbVisualStyle
  2
Gouraud
 70
     2
177
     3
291
     1
 70
    58
 90
        2
176
     1
 90
        2
176
     1
 90
        1
176
     1
 90
        2
176
     1
 40
0.6
176
     1
 40
30.0
176
     1
 62
     7
420
 16777215
176
     1
 90
        0
176
     1
 90
        0
176
     1
 62
     7
176
     1
 62
   257
176
     1
 90
        1
176
     1
 90
        1
176
     1
 40
1.0
176
     1
 90
        0
176
     1
 62
     7
176
     1
 40
1.0
176
     1
 90
        1
176
     1
 90
        6
176
     1
 90
        2
176
     1
 62
     7
176
     1
 90
        5
176
     1
 90
        0
176
     1
 90
        0
176
     1
290
     0
176
     1
 90
       13
176
     1
 40
0.0
176
     1
 90
        0
176
     1
290
     0
176
     1
290
     1
176
     1
290
     1
176
     1
290
     0
176
     1
290
     0
176
     1
290
     0
176
     1
290
     0
176
     1
290
     0
176
     1
290
     0
176
     1
 90
       50
176
     1
 40
0.0
176
     1
 40
1.0
176
     1
 90
        0
176
     1
 62
    18
420
        0
176
     1
 90
       50
176
     1
 90
        3
176
     1
 62
     5
420
      255
176
     1
290
     0
176
     1
 90
       50
176
     1
 90
       50
176
     1
 90
       50
176
     1
290
     0
176
     1
 90
       50
176
     1
 62
   256
176
     0
 40
1.0
176
     0
 90
        2
176
     1
  1
strokes_ogs.tif
176
     1
290
     0
176
     1
 40
1.0
176
     1
 40
1.0
176
     1
1001
ACAD
1000
AcDbSavedByObjectVersion
1070
     0
  0
VISUALSTYLE
  5
2D
102
{ACAD_REACTORS
330
29
102
}
330
29
100
AcDbVisualStyle
  2
GouraudWithEdges
 70
     3
177
     3
291
     1
 70
    58
 90
        2
176
     1
 90
        2
176
     1
 90
        1
176
     1
 90
        2
176
     1
 40
0.6
176
     1
 40
30.0
176
     1
 62
     7
420
 16777215
176
     1
 90
        1
176
     1
 90
        0
176
     1
 62
     7
176
     1
 62
   257
176
     1
 90
        1
176
     1
 90
        1
176
     1
 40
1.0
176
     1
 90
        0
176
     1
 62
   257
176
     1
 40
1.0
176
     1
 90
        1
176
     1
 90
        6
176
     1
 90
        2
176
     1
 62
     7
176
     1
 90
        5
176
     1
 90
        0
176
     1
 90
        0
176
     1
290
     0
176
     1
 90
       13
176
     1
 40
0.0
176
     1
 90
        0
176
     1
290
     0
176
     1
290
     1
176
     1
290
     1
176
     1
290
     0
176
     1
290
     0
176
     1
290
     0
176
     1
290
     0
176
     1
290
     0
176
     1
290
     0
176
     1
 90
       50
176
     1
 40
0.0
176
     1
 40
1.0
176
     1
 90
        0
176
     1
 62
    18
420
        0
176
     1
 90
       50
176
     1
 90
        3
176
     1
 62
     5
420
      255
176
     1
290
     0
176
     1
 90
       50
176
     1
 90
       50
176
     1
 90
       50
176
     1
290
     0
176
     1
 90
       50
176
     1
 62
   256
176
     0
 40
1.0
176
     0
 90
        2
176
     1
  1
strokes_ogs.tif
176
     1
290
     0
176
     1
 40
1.0
176
     1
 40
1.0
176
     1
1001
ACAD
1000
AcDbSavedByObjectVersion
1070
     0
  0
VISUALSTYLE
  5
31
102
{ACAD_REACTORS
330
29
102
}
330
29
100
AcDbVisualStyle
  2
Hidden
 70
     6
177
     3
291
     0
 70
    58
 90
        1
176
     1
 90
        2
176
     1
 90
        2
176
     1
 90
        0
176
     1
 40
0.6
176
     1
 40
30.0
176
     1
 62
     7
420
 16777215
176
     1
 90
        2
176
     1
 90
        2
176
     1
 62
     7
176
     1
 62
   257
176
     1
 90
        2
176
     1
 90
        1
176
     1
 40
40.0
176
     1
 90
        0
176
     1
 62
   257
176
     1
 40
1.0
176
     1
 90
        1
176
     1
 90
        6
176
     1
 90
        2
176
     1
 62
     7
176
     1
 90
        3
176
     1
 90
        0
176
     1
 90
        0
176
     1
290
     0
176
     1
 90
        1
176
     1
 40
0.0
176
     1
 90
        0
176
     1
290
     0
176
     1
290
     1
176
     1
290
     1
176
     1
290
     0
176
     1
290
     0
176
     1
290
     0
176
     1
290
     0
176
     1
290
     0
176
     1
290
     0
176
     1
 90
       50
176
     1
 40
0.0
176
     1
 40
1.0
176
     1
 90
        0
176
     1
 62
    18
420
        0
176
     1
 90
       50
176
     1
 90
        3
176
     1
 62
     5
420
      255
176
     1
290
     0
176
     1
 90
       50
176
     1
 90
       50
176
     1
 90
       50
176
     1
290
     0
176
     1
 90
       50
176
     1
 62
   256
176
     0
 40
1.0
176
     0
 90
        2
176
     1
  1
strokes_ogs.tif
176
     1
290
     0
176
     1
 40
1.0
176
     1
 40
1.0
176
     1
1001
ACAD
1000
AcDbSavedByObjectVersion
1070
     0
  0
VISUALSTYLE
  5
3F
102
{ACAD_REACTORS
330
29
102
}
330
29
100
AcDbVisualStyle
  2
JitterOff
 70
    20
177
     3
291
     1
 70
    58
 90
        2
176
     0
 90
        2
176
     0
 90
        0
176
     0
 90
        0
176
     0
 40
0.6
176
     0
 40
30.0
176
     0
 62
     7
420
 16777215
176
     0
 90
        1
176
     0
 90
        4
176
     0
 62
     7
176
     0
 62
   257
176
     0
 90
        1
176
     0
 90
        1
176
     0
 40
1.0
176
     0
 90
       10
176
     2
 62
     7
176
     0
 40
1.0
176
     0
 90
        1
176
     0
 90
        6
176
     0
 90
        2
176
     0
 62
     7
176
     0
 90
        5
176
     0
 90
        0
176
     0
 90
        0
176
     0
290
     0
176
     0
 90
        1
176
     0
 40
0.0
176
     0
 90
        0
176
     0
290
     0
176
     0
290
     1
176
     0
290
     1
176
     0
290
     0
176
     0
290
     0
176
     0
290
     0
176
     0
290
     0
176
     0
290
     0
176
     0
290
     0
176
     0
 90
       50
176
     0
 40
0.0
176
     0
 40
1.0
176
     0
 90
        0
176
     0
 62
    18
420
        0
176
     0
 90
       50
176
     0
 90
        3
176
     0
 62
     5
420
      255
176
     0
290
     0
176
     0
 90
       50
176
     0
 90
       50
176
     0
 90
       50
176
     0
290
     0
176
     0
 90
       50
176
     0
 62
   256
176
     0
 40
1.0
176
     0
 90
        2
176
     0
  1
strokes_ogs.tif
176
     0
290
     0
176
     0
 40
1.0
176
     0
 40
1.0
176
     0
1001
ACAD
1000
AcDbSavedByObjectVersion
1070
     0
  0
VISUALSTYLE
  5
37
102
{ACAD_REACTORS
330
29
102
}
330
29
100
AcDbVisualStyle
  2
Linepattern
 70
    14
177
     3
291
     1
 70
    58
 90
        2
176
     1
 90
        2
176
     1
 90
        0
176
     1
 90
        0
176
     1
 40
0.6
176
     1
 40
30.0
176
     1
 62
     7
420
 16777215
176
     1
 90
        1
176
     1
 90
        4
176
     1
 62
     7
176
     1
 62
   257
176
     1
 90
        7
176
     1
 90
        7
176
     1
 40
1.0
176
     1
 90
        8
176
     1
 62
     7
176
     1
 40
1.0
176
     1
 90
        1
176
     1
 90
        6
176
     1
 90
        2
176
     1
 62
     7
176
     1
 90
        5
176
     1
 90
        0
176
     1
 90
        0
176
     1
290
     0
176
     1
 90
        1
176
     1
 40
0.0
176
     1
 90
        0
176
     1
290
     0
176
     1
290
     1
176
     1
290
     1
176
     1
290
     0
176
     1
290
     0
176
     1
290
     0
176
     1
290
     0
176
     1
290
     0
176
     1
290
     0
176
     1
 90
       50
176
     1
 40
0.0
176
     1
 40
1.0
176
     1
 90
        0
176
     1
 62
    18
420
        0
176
     1
 90
       50
176
     1
 90
        3
176
     1
 62
     5
420
      255
176
     1
290
     0
176
     1
 90
       50
176
     1
 90
       50
176
     1
 90
       50
176
     1
290
     0
176
     1
 90
       50
176
     1
 62
   256
176
     0
 40
1.0
176
     0
 90
        2
176
     1
  1
strokes_ogs.tif
176
     1
290
     0
176
     1
 40
1.0
176
     1
 40
1.0
176
     1
1001
ACAD
1000
AcDbSavedByObjectVersion
1070
     0
  0
VISUALSTYLE
  5
40
102
{ACAD_REACTORS
330
29
102
}
330
29
100
AcDbVisualStyle
  2
OverhangOff
 70
    21
177
     3
291
     1
 70
    58
 90
        2
176
     0
 90
        2
176
     0
 90
        0
176
     0
 90
        0
176
     0
 40
0.6
176
     0
 40
30.0
176
     0
 62
     7
420
 16777215
176
     0
 90
        1
176
     0
 90
        4
176
     0
 62
     7
176
     0
 62
   257
176
     0
 90
        1
176
     0
 90
        1
176
     0
 40
1.0
176
     0
 90
        9
176
     2
 62
     7
176
     0
 40
1.0
176
     0
 90
        1
176
     0
 90
        6
176
     0
 90
        2
176
     0
 62
     7
176
     0
 90
        5
176
     0
 90
        0
176
     0
 90
        0
176
     0
290
     0
176
     0
 90
        1
176
     0
 40
0.0
176
     0
 90
        0
176
     0
290
     0
176
     0
290
     1
176
     0
290
     1
176
     0
290
     0
176
     0
290
     0
176
     0
290
     0
176
     0
290
     0
176
     0
290
     0
176
     0
290
     0
176
     0
 90
       50
176
     0
 40
0.0
176
     0
 40
1.0
176
     0
 90
        0
176
     0
 62
    18
420
        0
176
     0
 90
       50
176
     0
 90
        3
176
     0
 62
     5
420
      255
176
     0
290
     0
176
     0
 90
       50
176
     0
 90
       50
176
     0
 90
       50
176
     0
290
     0
176
     0
 90
       50
176
     0
 62
   256
176
     0
 40
1.0
176
     0
 90
        2
176
     0
  1
strokes_ogs.tif
176
     0
290
     0
176
     0
 40
1.0
176
     0
 40
1.0
176
     0
1001
ACAD
1000
AcDbSavedByObjectVersion
1070
     0
  0
VISUALSTYLE
  5
33
102
{ACAD_REACTORS
330
29
102
}
330
29
100
AcDbVisualStyle
  2
Realistic
 70
     8
177
     3
291
     0
 70
    58
 90
        2
176
     1
 90
        3
176
     1
 90
        0
176
     1
 90
        2
176
     1
 40
0.6
176
     1
 40
30.0
176
     1
 62
     7
420
 16777215
176
     1
 90
        0
176
     1
 90
        0
176
     1
 62
     7
176
     1
 62
   257
176
     1
 90
        1
176
     1
 90
        1
176
     1
 40
1.0
176
     1
 90
        8
176
     1
 62
   257
176
     1
 40
1.0
176
     1
 90
        1
176
     1
 90
        6
176
     1
 90
        2
176
     1
 62
     7
176
     1
 90
        3
176
     1
 90
        0
176
     1
 90
        0
176
     1
290
     0
176
     1
 90
       13
176
     1
 40
0.0
176
     1
 90
        0
176
     1
290
     0
176
     1
290
     1
176
     1
290
     1
176
     1
290
     0
176
     1
290
     0
176
     1
290
     0
176
     1
290
     0
176
     1
290
     0
176
     1
290
     0
176
     1
 90
       50
176
     1
 40
0.0
176
     1
 40
1.0
176
     1
 90
        0
176
     1
 62
    18
420
        0
176
     1
 90
       50
176
     1
 90
        3
176
     1
 62
     5
420
      255
176
     1
290
     0
176
     1
 90
       50
176
     1
 90
       50
176
     1
 90
       50
176
     1
290
     0
176
     1
 90
       50
176
     1
 62
   256
176
     0
 40
1.0
176
     0
 90
        2
176
     1
  1
strokes_ogs.tif
176
     1
290
     0
176
     1
 40
1.0
176
     1
 40
1.0
176
     1
1001
ACAD
1000
AcDbSavedByObjectVersion
1070
     0
  0
VISUALSTYLE
  5
3E
102
{ACAD_REACTORS
330
29
102
}
330
29
100
AcDbVisualStyle
  2
Shaded
 70
    27
177
     3
291
     0
 70
    58
 90
        2
176
     1
 90
        2
176
     1
 90
        1
176
     1
 90
        2
176
     1
 40
0.6
176
     1
 40
30.0
176
     1
 62
     7
420
 16777215
176
     1
 90
        0
176
     1
 90
        4
176
     1
 62
     7
176
     1
 62
   257
176
     1
 90
        1
176
     1
 90
        1
176
     1
 40
1.0
176
     1
 90
        8
176
     1
 62
   257
176
     1
 40
1.0
176
     1
 90
        1
176
     1
 90
        6
176
     1
 90
        2
176
     1
 62
     8
420
  7895160
176
     1
 90
        3
176
     1
 90
        0
176
     1
 90
        0
176
     1
290
     0
176
     1
 90
        5
176
     1
 40
0.0
176
     1
 90
        0
176
     1
290
     0
176
     1
290
     1
176
     1
290
     1
176
     1
290
     0
176
     1
290
     0
176
     1
290
     0
176
     1
290
     0
176
     1
290
     0
176
     1
290
     0
176
     1
 90
       50
176
     1
 40
0.0
176
     1
 40
1.0
176
     1
 90
        0
176
     1
 62
    18
420
        0
176
     1
 90
       50
176
     1
 90
        3
176
     1
 62
     5
420
      255
176
     1
290
     0
176
     1
 90
       50
176
     1
 90
       50
176
     1
 90
       50
176
     1
290
     0
176
     1
 90
       50
176
     1
 62
   256
176
     0
 40
1.0
176
     0
 90
        2
176
     1
  1
strokes_ogs.tif
176
     1
290
     0
176
     1
 40
1.0
176
     1
 40
1.0
176
     1
1001
ACAD
1000
AcDbSavedByObjectVersion
1070
     0
  0
VISUALSTYLE
  5
3D
102
{ACAD_REACTORS
330
29
102
}
330
29
100
AcDbVisualStyle
  2
Shaded with edges
 70
    26
177
     3
291
     0
 70
    58
 90
        2
176
     1
 90
        2
176
     1
 90
        1
176
     1
 90
        2
176
     1
 40
0.6
176
     1
 40
30.0
176
     1
 62
     7
420
 16777215
176
     1
 90
        1
176
     1
 90
        2
176
     1
 62
     7
176
     1
 62
   257
176
     1
 90
        2
176
     1
 90
        1
176
     1
 40
1.0
176
     1
 90
        8
176
     1
 62
   257
176
     1
 40
1.0
176
     1
 90
        1
176
     1
 90
        6
176
     1
 90
        2
176
     1
 62
     7
176
     1
 90
        3
176
     1
 90
        0
176
     1
 90
        0
176
     1
290
     0
176
     1
 90
        5
176
     1
 40
0.0
176
     1
 90
        0
176
     1
290
     0
176
     1
290
     1
176
     1
290
     1
176
     1
290
     0
176
     1
290
     0
176
     1
290
     0
176
     1
290
     0
176
     1
290
     0
176
     1
290
     0
176
     1
 90
       50
176
     1
 40
0.0
176
     1
 40
1.0
176
     1
 90
        0
176
     1
 62
    18
420
        0
176
     1
 90
       50
176
     1
 90
        3
176
     1
 62
     5
420
      255
176
     1
290
     0
176
     1
 90
       50
176
     1
 90
       50
176
     1
 90
       50
176
     1
290
     0
176
     1
 90
       50
176
     1
 62
   256
176
     0
 40
1.0
176
     0
 90
        2
176
     1
  1
strokes_ogs.tif
176
     1
290
     0
176
     1
 40
1.0
176
     1
 40
1.0
176
     1
1001
ACAD
1000
AcDbSavedByObjectVersion
1070
     0
  0
VISUALSTYLE
  5
3A
102
{ACAD_REACTORS
330
29
102
}
330
29
100
AcDbVisualStyle
  2
Shades of Gray
 70
    23
177
     3
291
     0
 70
    58
 90
        2
176
     1
 90
        2
176
     1
 90
        3
176
     1
 90
        0
176
     1
 40
0.6
176
     1
 40
30.0
176
     1
 62
     7
420
 16777215
176
     1
 90
        2
176
     1
 90
        2
176
     1
 62
     7
176
     1
 62
     7
176
     1
 90
        1
176
     1
 90
        1
176
     1
 40
40.0
176
     1
 90
        8
176
     1
 62
     7
176
     1
 40
1.0
176
     1
 90
        1
176
     1
 90
        6
176
     1
 90
        2
176
     1
 62
     7
176
     1
 90
        3
176
     1
 90
        0
176
     1
 90
        0
176
     1
290
     0
176
     1
 90
        1
176
     1
 40
0.0
176
     1
 90
        0
176
     1
290
     0
176
     1
290
     1
176
     1
290
     1
176
     1
290
     0
176
     1
290
     0
176
     1
290
     0
176
     1
290
     0
176
     1
290
     0
176
     1
290
     0
176
     1
 90
       50
176
     1
 40
0.0
176
     1
 40
1.0
176
     1
 90
        0
176
     1
 62
    18
420
        0
176
     1
 90
       50
176
     1
 90
        3
176
     1
 62
     5
420
      255
176
     1
290
     0
176
     1
 90
       50
176
     1
 90
       50
176
     1
 90
       50
176
     1
290
     0
176
     1
 90
       50
176
     1
 62
   256
176
     0
 40
1.0
176
     0
 90
        2
176
     1
  1
strokes_ogs.tif
176
     1
290
     0
176
     1
 40
1.0
176
     1
 40
1.0
176
     1
1001
ACAD
1000
AcDbSavedByObjectVersion
1070
     0
  0
VISUALSTYLE
  5
3B
102
{ACAD_REACTORS
330
29
102
}
330
29
100
AcDbVisualStyle
  2
Sketchy
 70
    24
177
     3
291
     0
 70
    58
 90
        1
176
     1
 90
        2
176
     1
 90
        2
176
     1
 90
        0
176
     1
 40
0.6
176
     1
 40
30.0
176
     1
 62
     7
420
 16777215
176
     1
 90
        2
176
     1
 90
        2
176
     1
 62
     7
176
     1
 62
     7
176
     1
 90
        1
176
     1
 90
        1
176
     1
 40
40.0
176
     1
 90
       11
176
     1
 62
     7
176
     1
 40
1.0
176
     1
 90
        1
176
     1
 90
        6
176
     1
 90
        2
176
     1
 62
     7
176
     1
 90
        6
176
     1
 90
        0
176
     1
 90
        0
176
     1
290
     0
176
     1
 90
        1
176
     1
 40
0.0
176
     1
 90
        0
176
     1
290
     0
176
     1
290
     1
176
     1
290
     1
176
     1
290
     0
176
     1
290
     0
176
     1
290
     0
176
     1
290
     0
176
     1
290
     0
176
     1
290
     0
176
     1
 90
       50
176
     1
 40
0.0
176
     1
 40
1.0
176
     1
 90
        0
176
     1
 62
    18
420
        0
176
     1
 90
       50
176
     1
 90
        3
176
     1
 62
     5
420
      255
176
     1
290
     0
176
     1
 90
       50
176
     1
 90
       50
176
     1
 90
       50
176
     1
290
     0
176
     1
 90
       50
176
     1
 62
   256
176
     0
 40
1.0
176
     0
 90
        2
176
     1
  1
strokes_ogs.tif
176
     1
290
     0
176
     1
 40
1.0
176
     1
 40
1.0
176
     1
1001
ACAD
1000
AcDbSavedByObjectVersion
1070
     0
  0
VISUALSTYLE
  5
36
102
{ACAD_REACTORS
330
29
102
}
330
29
100
AcDbVisualStyle
  2
Thicken
 70
    13
177
     3
291
     1
 70
    58
 90
        2
176
     1
 90
        2
176
     1
 90
        0
176
     1
 90
        0
176
     1
 40
0.6
176
     1
 40
30.0
176
     1
 62
     7
420
 16777215
176
     1
 90
        1
176
     1
 90
        4
176
     1
 62
     7
176
     1
 62
   257
176
     1
 90
        1
176
     1
 90
        1
176
     1
 40
1.0
176
     1
 90
       12
176
     1
 62
     7
176
     1
 40
1.0
176
     1
 90
        1
176
     1
 90
        6
176
     1
 90
        2
176
     1
 62
     7
176
     1
 90
        5
176
     1
 90
        0
176
     1
 90
        0
176
     1
290
     0
176
     1
 90
        1
176
     1
 40
0.0
176
     1
 90
        0
176
     1
290
     0
176
     1
290
     1
176
     1
290
     1
176
     1
290
     0
176
     1
290
     0
176
     1
290
     0
176
     1
290
     0
176
     1
290
     0
176
     1
290
     0
176
     1
 90
       50
176
     1
 40
0.0
176
     1
 40
1.0
176
     1
 90
        0
176
     1
 62
    18
420
        0
176
     1
 90
       50
176
     1
 90
        3
176
     1
 62
     5
420
      255
176
     1
290
     0
176
     1
 90
       50
176
     1
 90
       50
176
     1
 90
       50
176
     1
290
     0
176
     1
 90
       50
176
     1
 62
   256
176
     0
 40
1.0
176
     0
 90
        2
176
     1
  1
strokes_ogs.tif
176
     1
290
     0
176
     1
 40
1.0
176
     1
 40
1.0
176
     1
1001
ACAD
1000
AcDbSavedByObjectVersion
1070
     0
  0
VISUALSTYLE
  5
30
102
{ACAD_REACTORS
330
29
102
}
330
29
100
AcDbVisualStyle
  2
Wireframe
 70
     5
177
     3
291
     0
 70
    58
 90
        0
176
     1
 90
        2
176
     1
 90
        0
176
     1
 90
        0
176
     1
 40
0.6
176
     1
 40
30.0
176
     1
 62
     7
420
 16777215
176
     1
 90
        1
176
     1
 90
        4
176
     1
 62
     7
176
     1
 62
   257
176
     1
 90
        1
176
     1
 90
        1
176
     1
 40
1.0
176
     1
 90
        0
176
     1
 62
   257
176
     1
 40
1.0
176
     1
 90
        1
176
     1
 90
        6
176
     1
 90
        2
176
     1
 62
     7
176
     1
 90
        3
176
     1
 90
        0
176
     1
 90
        0
176
     1
290
     0
176
     1
 90
        1
176
     1
 40
0.0
176
     1
 90
        0
176
     1
290
     0
176
     1
290
     1
176
     1
290
     1
176
     1
290
     0
176
     1
290
     0
176
     1
290
     0
176
     1
290
     0
176
     1
290
     0
176
     1
290
     0
176
     1
 90
       50
176
     1
 40
0.0
176
     1
 40
1.0
176
     1
 90
        0
176
     1
 62
    18
420
        0
176
     1
 90
       50
176
     1
 90
        3
176
     1
 62
     5
420
      255
176
     1
290
     0
176
     1
 90
       50
176
     1
 90
       50
176
     1
 90
       50
176
     1
290
     0
176
     1
 90
       50
176
     1
 62
   256
176
     0
 40
1.0
176
     0
 90
        2
176
     1
  1
strokes_ogs.tif
176
     1
290
     0
176
     1
 40
1.0
176
     1
 40
1.0
176
     1
1001
ACAD
1000
AcDbSavedByObjectVersion
1070
     0
  0
VISUALSTYLE
  5
3C
102
{ACAD_REACTORS
330
29
102
}
330
29
100
AcDbVisualStyle
  2
X-Ray
 70
    25
177
     3
291
     0
 70
    58
 90
        2
176
     1
 90
        2
176
     1
 90
        1
176
     1
 90
        1
176
     1
 40
0.5
176
     1
 40
30.0
176
     1
 62
     7
420
 16777215
176
     1
 90
        1
176
     1
 90
        0
176
     1
 62
     7
176
     1
 62
   257
176
     1
 90
        1
176
     1
 90
        1
176
     1
 40
1.0
176
     1
 90
        8
176
     1
 62
     7
176
     1
 40
1.0
176
     1
 90
        1
176
     1
 90
        6
176
     1
 90
        2
176
     1
 62
     7
176
     1
 90
        3
176
     1
 90
        0
176
     1
 90
        0
176
     1
290
     0
176
     1
 90
       13
176
     1
 40
0.0
176
     1
 90
        0
176
     1
290
     0
176
     1
290
     1
176
     1
290
     1
176
     1
290
     0
176
     1
290
     0
176
     1
290
     0
176
     1
290
     0
176
     1
290
     0
176
     1
290
     0
176
     1
 90
       50
176
     1
 40
0.0
176
     1
 40
1.0
176
     1
 90
        0
176
     1
 62
    18
420
        0
176
     1
 90
       50
176
     1
 90
        3
176
     1
 62
     5
420
      255
176
     1
290
     0
176
     1
 90
       50
176
     1
 90
       50
176
     1
 90
       50
176
     1
290
     0
176
     1
 90
       50
176
     1
 62
   256
176
     0
 40
1.0
176
     0
 90
        2
176
     1
  1
strokes_ogs.tif
176
     1
290
     0
176
     1
 40
1.0
176
     1
 40
1.0
176
     1
1001
ACAD
1000
AcDbSavedByObjectVersion
1070
     0
  0
DICTIONARYVAR
  5
387
102
{ACAD_REACTORS
330
382
102
}
330
382
100
DictionaryVariables
280
     0
  1
0
  0
DICTIONARYVAR
  5
388
102
{ACAD_REACTORS
330
382
102
}
330
382
100
DictionaryVariables
280
     0
  1
1:1
  0
DICTIONARYVAR
  5
384
102
{ACAD_REACTORS
330
382
102
}
330
382
100
DictionaryVariables
280
     0
  1
STANDARD
  0
DICTIONARYVAR
  5
383
102
{ACAD_REACTORS
330
382
102
}
330
382
100
DictionaryVariables
280
     0
  1
STANDARD
  0
DICTIONARYVAR
  5
385
102
{ACAD_REACTORS
330
382
102
}
330
382
100
DictionaryVariables
280
     0
  1
Imperial24
  0
DICTIONARYVAR
  5
386
102
{ACAD_REACTORS
330
382
102
}
330
382
100
DictionaryVariables
280
     0
  1
Imperial24
  0
DICTIONARY
  5
38E
330
6B
100
AcDbDictionary
280
     1
281
     1
  3
ACAD_XREC_ROUNDTRIP
360
38F
  0
DICTIONARY
  5
1A
330
19
100
AcDbDictionary
280
     1
281
     1
  3
BUMPTILE
360
1C
  3
DIFFUSETILE
360
1B
  3
OPACITYTILE
360
1F
  3
REFLECTIONTILE
360
1E
  3
REFRACTIONTILE
360
20
  3
SPECULARTILE
360
1D
  0
DICTIONARY
  5
12
330
11
100
AcDbDictionary
280
     1
281
     1
  3
BUMPTILE
360
14
  3
DIFFUSETILE
360
13
  3
OPACITYTILE
360
17
  3
REFLECTIONTILE
360
16
  3
REFRACTIONTILE
360
18
  3
SPECULARTILE
360
15
  0
DICTIONARY
  5
22
330
21
100
AcDbDictionary
280
     1
281
     1
  3
BUMPTILE
360
24
  3
DIFFUSETILE
360
23
  3
OPACITYTILE
360
27
  3
REFLECTIONTILE
360
26
  3
REFRACTIONTILE
360
28
  3
SPECULARTILE
360
25
  0
DICTIONARY
  5
38C
330
69
100
AcDbDictionary
280
     1
281
     1
  3
ACAD_XREC_ROUNDTRIP
360
38D
  0
DICTIONARY
  5
389
330
65
100
AcDbDictionary
280
     1
281
     1
  3
ACAD_ROUNDTRIP_2008_TABLESTYLE_CELLSTYLEMAP
360
38A
  0
XRECORD
  5
38F
102
{ACAD_REACTORS
330
38E
102
}
330
38E
100
AcDbXrecord
280
     1
102
DISPLAYNAME
  1
Imperial24
102
FLAGS
 90
        0
  0
XRECORD
  5
1C
102
{ACAD_REACTORS
330
1A
102
}
330
1A
100
AcDbXrecord
280
     1
270
     1
271
     1
  0
XRECORD
  5
1B
102
{ACAD_REACTORS
330
1A
102
}
330
1A
100
AcDbXrecord
280
     1
270
     1
271
     1
  0
XRECORD
  5
1F
102
{ACAD_REACTORS
330
1A
102
}
330
1A
100
AcDbXrecord
280
     1
270
     1
271
     1
  0
XRECORD
  5
1E
102
{ACAD_REACTORS
330
1A
102
}
330
1A
100
AcDbXrecord
280
     1
270
     1
271
     1
  0
XRECORD
  5
20
102
{ACAD_REACTORS
330
1A
102
}
330
1A
100
AcDbXrecord
280
     1
270
     1
271
     1
  0
XRECORD
  5
1D
102
{ACAD_REACTORS
330
1A
102
}
330
1A
100
AcDbXrecord
280
     1
270
     1
271
     1
  0
XRECORD
  5
14
102
{ACAD_REACTORS
330
12
102
}
330
12
100
AcDbXrecord
280
     1
270
     1
271
     1
  0
XRECORD
  5
13
102
{ACAD_REACTORS
330
12
102
}
330
12
100
AcDbXrecord
280
     1
270
     1
271
     1
  0
XRECORD
  5
17
102
{ACAD_REACTORS
330
12
102
}
330
12
100
AcDbXrecord
280
     1
270
     1
271
     1
  0
XRECORD
  5
16
102
{ACAD_REACTORS
330
12
102
}
330
12
100
AcDbXrecord
280
     1
270
     1
271
     1
  0
XRECORD
  5
18
102
{ACAD_REACTORS
330
12
102
}
330
12
100
AcDbXrecord
280
     1
270
     1
271
     1
  0
XRECORD
  5
15
102
{ACAD_REACTORS
330
12
102
}
330
12
100
AcDbXrecord
280
     1
270
     1
271
     1
  0
XRECORD
  5
24
102
{ACAD_REACTORS
330
22
102
}
330
22
100
AcDbXrecord
280
     1
270
     1
271
     1
  0
XRECORD
  5
23
102
{ACAD_REACTORS
330
22
102
}
330
22
100
AcDbXrecord
280
     1
270
     1
271
     1
  0
XRECORD
  5
27
102
{ACAD_REACTORS
330
22
102
}
330
22
100
AcDbXrecord
280
     1
270
     1
271
     1
  0
XRECORD
  5
26
102
{ACAD_REACTORS
330
22
102
}
330
22
100
AcDbXrecord
280
     1
270
     1
271
     1
  0
XRECORD
  5
28
102
{ACAD_REACTORS
330
22
102
}
330
22
100
AcDbXrecord
280
     1
270
     1
271
     1
  0
XRECORD
  5
25
102
{ACAD_REACTORS
330
22
102
}
330
22
100
AcDbXrecord
280
     1
270
     1
271
     1
  0
XRECORD
  5
38D
102
{ACAD_REACTORS
330
38C
102
}
330
38C
100
AcDbXrecord
280
     1
102
DISPLAYNAME
  1
Imperial24
102
FLAGS
 90
        0
  0
CELLSTYLEMAP
  5
38A
102
{ACAD_REACTORS
330
389
102
}
330
389
100
AcDbCellStyleMap
 90
        3
300
CELLSTYLE
  1
TABLEFORMAT_BEGIN
 90
        5
170
     1
 91
        0
 92
    32768
 62
   257
 93
        1
300
CONTENTFORMAT
  1
CONTENTFORMAT_BEGIN
 90
        0
 91
        0
 92
      512
 93
        0
300

 40
0.0
140
1.0
 94
        5
 62
     0
340
55
144
0.25
309
CONTENTFORMAT_END
171
     0
 94
        0
309
TABLEFORMAT_END
  1
CELLSTYLE_BEGIN
 90
        1
 91
        1
300
_TITLE
309
CELLSTYLE_END
300
CELLSTYLE
  1
TABLEFORMAT_BEGIN
 90
        5
170
     1
 91
        0
 92
        0
 62
   257
 93
        1
300
CONTENTFORMAT
  1
CONTENTFORMAT_BEGIN
 90
        0
 91
        0
 92
      512
 93
        0
300

 40
0.0
140
1.0
 94
        5
 62
     0
340
55
144
0.18
309
CONTENTFORMAT_END
171
     0
 94
        0
309
TABLEFORMAT_END
  1
CELLSTYLE_BEGIN
 90
        2
 91
        1
300
_HEADER
309
CELLSTYLE_END
300
CELLSTYLE
  1
TABLEFORMAT_BEGIN
 90
        5
170
     1
 91
        0
 92
        0
 62
   257
 93
        1
300
CONTENTFORMAT
  1
CONTENTFORMAT_BEGIN
 90
        0
 91
        0
 92
      512
 93
        0
300

 40
0.0
140
1.0
 94
        2
 62
     0
340
55
144
0.18
309
CONTENTFORMAT_END
171
     0
 94
        0
309
TABLEFORMAT_END
  1
CELLSTYLE_BEGIN
 90
        3
 91
        2
300
_DATA
309
CELLSTYLE_END
  0
ENDSEC
  0
EOF
