  0
SECTION
  2
HEADER
  9
$ACADVER
  1
AC1027
  9
$ACADMAINTVER
 70
   125
  9
$DWGCODEPAGE
  3
ANSI_1252
  9
$LASTSAVEDBY
  1
Administrator
  9
$REQUIREDVERSIONS
160
                 0
  9
$INSBASE
 10
0.0
 20
0.0
 30
0.0
  9
$EXTMIN
 10
0.0
 20
0.0
 30
-2.043317
  9
$EXTMAX
 10
17.0
 20
11.0
 30
2.442227
  9
$LIMMIN
 10
0.0
 20
0.0
  9
$LIMMAX
 10
17.0
 20
11.0
  9
$ORTHOMODE
 70
     0
  9
$REGENMODE
 70
     1
  9
$FILLMODE
 70
     1
  9
$QTEXTMODE
 70
     0
  9
$MIRRTEXT
 70
     0
  9
$LTSCALE
 40
0.75
  9
$ATTMODE
 70
     1
  9
$TEXTSIZE
 40
0.12
  9
$TRACEWID
 40
0.05
  9
$TEXTSTYLE
  7
Standard
  9
$CLAYER
  8
Titleblock
  9
$CELTYPE
  6
ByLayer
  9
$CECOLOR
 62
   256
  9
$CELTSCALE
 40
1.0
  9
$DISPSILH
 70
     0
  9
$DIMSCALE
 40
1.0
  9
$DIMASZ
 40
0.12
  9
$DIMEXO
 40
0.05
  9
$DIMDLI
 40
0.339411
  9
$DIMRND
 40
0.0
  9
$DIMDLE
 40
0.0
  9
$DIMEXE
 40
0.1
  9
$DIMTP
 40
0.01
  9
$DIMTM
 40
0.01
  9
$DIMTXT
 40
0.12
  9
$DIMCEN
 40
0.0
  9
$DIMTSZ
 40
0.0
  9
$DIMTOL
 70
     0
  9
$DIMLIM
 70
     0
  9
$DIMTIH
 70
     1
  9
$DIMTOH
 70
     1
  9
$DIMSE1
 70
     0
  9
$DIMSE2
 70
     0
  9
$DIMTAD
 70
     0
  9
$DIMZIN
 70
    12
  9
$DIMBLK
  1

  9
$DIMASO
 70
     1
  9
$DIMSHO
 70
     1
  9
$DIMPOST
  1
in
  9
$DIMAPOST
  1
mm
  9
$DIMALT
 70
     0
  9
$DIMALTD
 70
     2
  9
$DIMALTF
 40
25.4
  9
$DIMLFAC
 40
1.0
  9
$DIMTOFL
 70
     0
  9
$DIMTVP
 40
0.0
  9
$DIMTIX
 70
     0
  9
$DIMSOXD
 70
     0
  9
$DIMSAH
 70
     0
  9
$DIMBLK1
  1

  9
$DIMBLK2
  1

  9
$DIMSTYLE
  2
Standard
  9
$DIMCLRD
 70
   256
  9
$DIMCLRE
 70
   256
  9
$DIMCLRT
 70
   256
  9
$DIMTFAC
 40
1.0
  9
$DIMGAP
 40
0.06
  9
$DIMJUST
 70
     0
  9
$DIMSD1
 70
     0
  9
$DIMSD2
 70
     0
  9
$DIMTOLJ
 70
     1
  9
$DIMTZIN
 70
    12
  9
$DIMALTZ
 70
    12
  9
$DIMALTTZ
 70
    12
  9
$DIMUPT
 70
     0
  9
$DIMDEC
 70
     2
  9
$DIMTDEC
 70
     2
  9
$DIMALTU
 70
     2
  9
$DIMALTTD
 70
     2
  9
$DIMTXSTY
  7
Standard
  9
$DIMAUNIT
 70
     0
  9
$DIMADEC
 70
     2
  9
$DIMALTRND
 40
0.0
  9
$DIMAZIN
 70
     3
  9
$DIMDSEP
 70
    46
  9
$DIMATFIT
 70
     3
  9
$DIMFRAC
 70
     0
  9
$DIMLDRBLK
  1

  9
$DIMLUNIT
 70
     2
  9
$DIMLWD
 70
    -2
  9
$DIMLWE
 70
    -2
  9
$DIMTMOVE
 70
     0
  9
$DIMFXL
 40
1.0
  9
$DIMFXLON
 70
     0
  9
$DIMJOGANG
 40
0.785398
  9
$DIMTFILL
 70
     0
  9
$DIMTFILLCLR
 70
     0
  9
$DIMARCSYM
 70
     1
  9
$DIMLTYPE
  6

  9
$DIMLTEX1
  6

  9
$DIMLTEX2
  6

  9
$DIMTXTDIRECTION
 70
     0
  9
$LUNITS
 70
     2
  9
$LUPREC
 70
     4
  9
$SKETCHINC
 40
0.1
  9
$FILLETRAD
 40
0.0
  9
$AUNITS
 70
     0
  9
$AUPREC
 70
     0
  9
$MENU
  1
.
  9
$ELEVATION
 40
0.0
  9
$PELEVATION
 40
0.0
  9
$THICKNESS
 40
0.0
  9
$LIMCHECK
 70
     0
  9
$CHAMFERA
 40
0.0
  9
$CHAMFERB
 40
0.0
  9
$CHAMFERC
 40
0.0
  9
$CHAMFERD
 40
0.0
  9
$SKPOLY
 70
     0
  9
$TDCREATE
 40
2458891.555763889
  9
$TDUCREATE
 40
2458891.889097222
  9
$TDUPDATE
 40
2458891.555763889
  9
$TDUUPDATE
 40
2458891.889097222
  9
$TDINDWG
 40
0.0000000000
  9
$TDUSRTIMER
 40
0.0000000000
  9
$USRTIMER
 70
     1
  9
$ANGBASE
 50
0.0
  9
$ANGDIR
 70
     0
  9
$PDMODE
 70
     0
  9
$PDSIZE
 40
0.0
  9
$PLINEWID
 40
0.0
  9
$SPLFRAME
 70
     0
  9
$SPLINETYPE
 70
     6
  9
$SPLINESEGS
 70
     8
  9
$HANDSEED
  5
391
  9
$SURFTAB1
 70
     6
  9
$SURFTAB2
 70
     6
  9
$SURFTYPE
 70
     6
  9
$SURFU
 70
     6
  9
$SURFV
 70
     6
  9
$UCSBASE
  2

  9
$UCSNAME
  2

  9
$UCSORG
 10
0.0
 20
0.0
 30
0.0
  9
$UCSXDIR
 10
1.0
 20
0.0
 30
0.0
  9
$UCSYDIR
 10
0.0
 20
1.0
 30
0.0
  9
$UCSORTHOREF
  2

  9
$UCSORTHOVIEW
 70
     0
  9
$UCSORGTOP
 10
0.0
 20
0.0
 30
0.0
  9
$UCSORGBOTTOM
 10
0.0
 20
0.0
 30
0.0
  9
$UCSORGLEFT
 10
0.0
 20
0.0
 30
0.0
  9
$UCSORGRIGHT
 10
0.0
 20
0.0
 30
0.0
  9
$UCSORGFRONT
 10
0.0
 20
0.0
 30
0.0
  9
$UCSORGBACK
 10
0.0
 20
0.0
 30
0.0
  9
$PUCSBASE
  2

  9
$PUCSNAME
  2

  9
$PUCSORG
 10
0.0
 20
0.0
 30
0.0
  9
$PUCSXDIR
 10
1.0
 20
0.0
 30
0.0
  9
$PUCSYDIR
 10
0.0
 20
1.0
 30
0.0
  9
$PUCSORTHOREF
  2

  9
$PUCSORTHOVIEW
 70
     0
  9
$PUCSORGTOP
 10
0.0
 20
0.0
 30
0.0
  9
$PUCSORGBOTTOM
 10
0.0
 20
0.0
 30
0.0
  9
$PUCSORGLEFT
 10
0.0
 20
0.0
 30
0.0
  9
$PUCSORGRIGHT
 10
0.0
 20
0.0
 30
0.0
  9
$PUCSORGFRONT
 10
0.0
 20
0.0
 30
0.0
  9
$PUCSORGBACK
 10
0.0
 20
0.0
 30
0.0
  9
$USERI1
 70
     0
  9
$USERI2
 70
     0
  9
$USERI3
 70
     0
  9
$USERI4
 70
     0
  9
$USERI5
 70
     0
  9
$USERR1
 40
0.0
  9
$USERR2
 40
0.0
  9
$USERR3
 40
0.0
  9
$USERR4
 40
0.0
  9
$USERR5
 40
0.0
  9
$WORLDVIEW
 70
     1
  9
$SHADEDGE
 70
     3
  9
$SHADEDIF
 70
    70
  9
$TILEMODE
 70
     1
  9
$MAXACTVP
 70
    64
  9
$PINSBASE
 10
0.0
 20
0.0
 30
0.0
  9
$PLIMCHECK
 70
     0
  9
$PEXTMIN
 10
1.000000E+20
 20
1.000000E+20
 30
1.000000E+20
  9
$PEXTMAX
 10
-1.000000E+20
 20
-1.000000E+20
 30
-1.000000E+20
  9
$PLIMMIN
 10
0.0
 20
0.0
  9
$PLIMMAX
 10
12.0
 20
9.0
  9
$UNITMODE
 70
     0
  9
$VISRETAIN
 70
     1
  9
$PLINEGEN
 70
     0
  9
$PSLTSCALE
 70
     1
  9
$TREEDEPTH
 70
  3020
  9
$CMLSTYLE
  2
Standard
  9
$CMLJUST
 70
     0
  9
$CMLSCALE
 40
1.0
  9
$PROXYGRAPHICS
 70
     1
  9
$MEASUREMENT
 70
     0
  9
$CELWEIGHT
370
    -1
  9
$ENDCAPS
280
     0
  9
$JOINSTYLE
280
     0
  9
$LWDISPLAY
290
     0
  9
$INSUNITS
 70
     1
  9
$HYPERLINKBASE
  1

  9
$STYLESHEET
  1

  9
$XEDIT
290
     1
  9
$CEPSNTYPE
380
     0
  9
$PSTYLEMODE
290
     1
  9
$FINGERPRINTGUID
  2
{5E6C302F-8796-1744-A5E3-41598203615B}
  9
$VERSIONGUID
  2
{4F3E9EC9-267F-3940-99BA-018BE02AE3E6}
  9
$EXTNAMES
290
     1
  9
$PSVPSCALE
 40
0.0
  9
$OLESTARTUP
290
     0
  9
$SORTENTS
280
   127
  9
$INDEXCTL
280
     0
  9
$HIDETEXT
280
     1
  9
$XCLIPFRAME
280
     2
  9
$HALOGAP
280
     0
  9
$OBSCOLOR
 70
   257
  9
$OBSLTYPE
280
     0
  9
$INTERSECTIONDISPLAY
280
     0
  9
$INTERSECTIONCOLOR
 70
   257
  9
$DIMASSOC
280
     2
  9
$PROJECTNAME
  1

  9
$CAMERADISPLAY
290
     0
  9
$LENSLENGTH
 40
50.0
  9
$CAMERAHEIGHT
 40
0.0
  9
$STEPSPERSEC
 40
2.0
  9
$STEPSIZE
 40
6.0
  9
$3DDWFPREC
 40
2.0
  9
$PSOLWIDTH
 40
0.25
  9
$PSOLHEIGHT
 40
4.0
  9
$LOFTANG1
 40
1.570796
  9
$LOFTANG2
 40
1.570796
  9
$LOFTMAG1
 40
0.0
  9
$LOFTMAG2
 40
0.0
  9
$LOFTPARAM
 70
     7
  9
$LOFTNORMALS
280
     1
  9
$LATITUDE
 40
37.795
  9
$LONGITUDE
 40
-122.394
  9
$NORTHDIRECTION
 40
0.0
  9
$TIMEZONE
 70
 -8000
  9
$LIGHTGLYPHDISPLAY
280
     1
  9
$TILEMODELIGHTSYNCH
280
     1
  9
$CMATERIAL
347
11
  9
$SOLIDHIST
280
     0
  9
$SHOWHIST
280
     1
  9
$DWFFRAME
280
     2
  9
$DGNFRAME
280
     0
  9
$REALWORLDSCALE
290
     1
  9
$INTERFERECOLOR
 62
     1
  9
$INTERFEREOBJVS
345
33
  9
$INTERFEREVPVS
346
30
  9
$CSHADOW
280
     0
  9
$SHADOWPLANELOCATION
 40
0.0
  0
ENDSEC
  0
SECTION
  2
CLASSES
  0
CLASS
  1
ACDBDICTIONARYWDFLT
  2
AcDbDictionaryWithDefault
  3
ObjectDBX Classes
 90
        0
 91
        1
280
     0
281
     0
  0
CLASS
  1
MATERIAL
  2
AcDbMaterial
  3
ObjectDBX Classes
 90
     1153
 91
        3
280
     0
281
     0
  0
CLASS
  1
VISUALSTYLE
  2
AcDbVisualStyle
  3
ObjectDBX Classes
 90
     4095
 91
       24
280
     0
281
     0
  0
CLASS
  1
SCALE
  2
AcDbScale
  3
ObjectDBX Classes
 90
     1153
 91
       33
280
     0
281
     0
  0
CLASS
  1
TABLESTYLE
  2
AcDbTableStyle
  3
ObjectDBX Classes
 90
     4095
 91
        1
280
     0
281
     0
  0
CLASS
  1
MLEADERSTYLE
  2
AcDbMLeaderStyle
  3
ACDB_MLEADERSTYLE_CLASS
 90
     4095
 91
        1
280
     0
281
     0
  0
CLASS
  1
ACDBSECTIONVIEWSTYLE
  2
AcDbSectionViewStyle
  3
ObjectDBX Classes
 90
     1025
 91
        1
280
     0
281
     0
  0
CLASS
  1
ACDBDETAILVIEWSTYLE
  2
AcDbDetailViewStyle
  3
ObjectDBX Classes
 90
     1025
 91
        1
280
     0
281
     0
  0
CLASS
  1
ACMESCOPE
  2
AcMeScope
  3
AcMeServices
 90
     1024
 91
        1
280
     0
281
     0
  0
CLASS
  1
ACMECOMMANDHISTORY
  2
AcMeCommandHistory
  3
AcMeServices
 90
     1024
 91
        1
280
     0
281
     0
  0
CLASS
  1
ACIMSYSVARMAN
  2
AcImSysVarManager
  3
AcMeServices
 90
     1024
 91
        1
280
     0
281
     0
  0
CLASS
  1
ACIMINTSYSVAR
  2
AcImIntSysVar
  3
AcMeServices
 90
     1024
 91
        1
280
     0
281
     0
  0
CLASS
  1
ACMESTATEMGR
  2
AcMeStateMgr
  3
AcMeServices
 90
     1024
 91
        1
280
     0
281
     0
  0
CLASS
  1
ACGREFMASTER
  2
AcGrefMaster
  3
AcAttribServices
 90
     1024
 91
        1
280
     0
281
     0
  0
CLASS
  1
SORTENTSTABLE
  2
AcDbSortentsTable
  3
ObjectDBX Classes
 90
        0
 91
        6
280
     0
281
     0
  0
CLASS
  1
IMAGE
  2
AcDbRasterImage
  3
ISM
 90
     2175
 91
        1
280
     0
281
     1
  0
CLASS
  1
IMAGEDEF
  2
AcDbRasterImageDef
  3
ISM
 90
        0
 91
        1
280
     0
281
     0
  0
CLASS
  1
IMAGEDEF_REACTOR
  2
AcDbRasterImageDefReactor
  3
ISM
 90
        1
 91
        2
280
     0
281
     0
  0
CLASS
  1
RASTERVARIABLES
  2
AcDbRasterVariables
  3
ISM
 90
        0
 91
        1
280
     0
281
     0
  0
CLASS
  1
DICTIONARYVAR
  2
AcDbDictionaryVar
  3
ObjectDBX Classes
 90
        0
 91
        6
280
     0
281
     0
  0
CLASS
  1
CELLSTYLEMAP
  2
AcDbCellStyleMap
  3
ObjectDBX Classes
 90
     1152
 91
        1
280
     0
281
     0
  0
ENDSEC
  0
SECTION
  2
TABLES
  0
TABLE
  2
VPORT
  5
8
330
0
100
AcDbSymbolTable
 70
     1
1001
ACAD
1000
DbSaveVer
1071
      251
  0
VPORT
  5
57
330
8
100
AcDbSymbolTableRecord
100
AcDbViewportTableRecord
  2
*Active
 70
     0
 10
0.0
 20
0.0
 11
1.0
 21
1.0
 12
8.5
 22
5.5
 13
0.0
 23
0.0
 14
0.5
 24
0.5
 15
0.0
 25
0.0
 16
0.0
 26
0.0
 36
1.0
 17
0.0
 27
0.0
 37
0.0
 40
11.0
 41
1.777518
 42
50.0
 43
0.0
 44
0.0
 50
0.0
 51
0.0
 71
     0
 72
 20000
 73
     1
 74
     0
 75
     0
 76
     0
 77
     0
 78
     0
281
     0
 65
     1
110
0.0
120
0.0
130
0.0
111
1.0
121
0.0
131
0.0
112
0.0
122
1.0
132
0.0
 79
     0
146
0.0
348
2F
 60
     3
 61
     5
292
     1
282
     1
141
0.0
142
0.0
 63
   250
421
  3355443
  0
ENDTAB
  0
TABLE
  2
LTYPE
  5
5
330
0
100
AcDbSymbolTable
 70
    10
  0
LTYPE
  5
5B
330
5
100
AcDbSymbolTableRecord
100
AcDbLinetypeTableRecord
  2
ByBlock
 70
     0
  3

 72
    65
 73
     0
 40
0.0
  0
LTYPE
  5
5C
330
5
100
AcDbSymbolTableRecord
100
AcDbLinetypeTableRecord
  2
ByLayer
 70
     0
  3

 72
    65
 73
     0
 40
0.0
  0
LTYPE
  5
5D
330
5
100
AcDbSymbolTableRecord
100
AcDbLinetypeTableRecord
  2
Continuous
 70
     0
  3
Solid line
 72
    65
 73
     0
 40
0.0
  0
LTYPE
  5
81
330
5
100
AcDbSymbolTableRecord
100
AcDbLinetypeTableRecord
  2
HIDDEN
 70
     0
  3
Hidden __ __ __ __ __ __ __ __ __ __ __ __ __ _
 72
    65
 73
     2
 40
0.375
 49
0.25
 74
     0
 49
-0.125
 74
     0
  0
LTYPE
  5
82
330
5
100
AcDbSymbolTableRecord
100
AcDbLinetypeTableRecord
  2
PHANTOM2
 70
     0
  3
Phantom (.5x) ___ _ _ ___ _ _ ___ _ _ ___ _ _
 72
    65
 73
     6
 40
1.25
 49
0.625
 74
     0
 49
-0.125
 74
     0
 49
0.125
 74
     0
 49
-0.125
 74
     0
 49
0.125
 74
     0
 49
-0.125
 74
     0
  0
LTYPE
  5
83
330
5
100
AcDbSymbolTableRecord
100
AcDbLinetypeTableRecord
  2
CENTER
 70
     0
  3
Center ____ _ ____ _ ____ _ ____ _ ____ _ ____
 72
    65
 73
     4
 40
2.0
 49
1.25
 74
     0
 49
-0.25
 74
     0
 49
0.25
 74
     0
 49
-0.25
 74
     0
  0
LTYPE
  5
9A
330
5
100
AcDbSymbolTableRecord
100
AcDbLinetypeTableRecord
  2
CENTER2
 70
     0
  3
Center (.5x) ___ _ ___ _ ___ _ ___ _ ___ _ ___
 72
    65
 73
     4
 40
1.125
 49
0.75
 74
     0
 49
-0.125
 74
     0
 49
0.125
 74
     0
 49
-0.125
 74
     0
  0
LTYPE
  5
9B
330
5
100
AcDbSymbolTableRecord
100
AcDbLinetypeTableRecord
  2
HIDDEN2
 70
     0
  3
Hidden (.5x) _ _ _ _ _ _ _ _ _ _ _ _ _ _ _ _ _
 72
    65
 73
     2
 40
0.1875
 49
0.125
 74
     0
 49
-0.0625
 74
     0
  0
LTYPE
  5
9C
330
5
100
AcDbSymbolTableRecord
100
AcDbLinetypeTableRecord
  2
Amconstr
 70
     0
  3
_______________________
 72
    65
 73
     2
 40
9999.0
 49
9999.0
 74
     0
 49
0.0
 74
     0
  0
LTYPE
  5
9D
330
5
100
AcDbSymbolTableRecord
100
AcDbLinetypeTableRecord
  2
Amzigzag2
 70
     0
  3
/\/-/\/-/\/-/\/-/\/-/\/
 72
    65
 73
     2
 40
0.4401
 49
0.0001
 74
     4
 75
   136
340
97
 46
0.0016
 50
0.0
 44
0.0
 45
0.0
 49
-0.44
 74
     0
  0
LTYPE
  5
9E
330
5
100
AcDbSymbolTableRecord
100
AcDbLinetypeTableRecord
  2
ACANSTGB
 70
     0
  3
__ . . __ . .
 72
    65
 73
     6
 40
0.354331
 49
0.15748
 74
     0
 49
-0.03937
 74
     0
 49
0.03937
 74
     0
 49
-0.03937
 74
     0
 49
0.03937
 74
     0
 49
-0.03937
 74
     0
  0
LTYPE
  5
9F
330
5
100
AcDbSymbolTableRecord
100
AcDbLinetypeTableRecord
  2
ACANSTGL
 70
     0
  3
_ _ _ _ _
 72
    65
 73
     2
 40
0.11811
 49
0.07874
 74
     0
 49
-0.03937
 74
     0
  0
ENDTAB
  0
TABLE
  2
LAYER
  5
2
330
0
100
AcDbSymbolTable
 70
    10
  0
LAYER
  5
54
330
2
100
AcDbSymbolTableRecord
100
AcDbLayerTableRecord
  2
0
 70
     0
 62
     7
  6
Continuous
370
    -3
390
F
347
21
348
0
1001
AcAecLayerStandard
1000

1000

  0
LAYER
  5
79
330
2
100
AcDbSymbolTableRecord
100
AcDbLayerTableRecord
  2
Defpoints
 70
     0
 62
     7
  6
Continuous
290
     0
370
    -3
390
F
347
21
348
0
1001
AcAecLayerStandard
1000

1000

  0
LAYER
  5
B9
330
2
100
AcDbSymbolTableRecord
100
AcDbLayerTableRecord
  2
Visible
 70
     0
 62
     7
  6
Continuous
370
    50
390
F
347
21
348
0
  0
LAYER
  5
ED
330
2
100
AcDbSymbolTableRecord
100
AcDbLayerTableRecord
  2
Visible Narrow
 70
     0
 62
     7
  6
Continuous
370
    35
390
F
347
21
348
0
  0
LAYER
  5
110
330
2
100
AcDbSymbolTableRecord
100
AcDbLayerTableRecord
  2
Titleblock
 70
     0
 62
     7
  6
Continuous
370
    -3
390
F
347
21
348
0
1001
AcAecLayerStandard
1000

1000

1001
AcCmTransparency
1071
        0
  0
LAYER
  5
135
330
2
100
AcDbSymbolTableRecord
100
AcDbLayerTableRecord
  2
Border
 70
     0
 62
     7
  6
Continuous
370
    -3
390
F
347
21
348
0
1001
AcAecLayerStandard
1000

1000

1001
AcCmTransparency
1071
        0
  0
LAYER
  5
156
330
2
100
AcDbSymbolTableRecord
100
AcDbLayerTableRecord
  2
Dimensions
 70
     0
 62
     7
  6
Continuous
370
    25
390
F
347
21
348
0
  0
ENDTAB
  0
TABLE
  2
STYLE
  5
3
330
0
100
AcDbSymbolTable
 70
     4
  0
STYLE
  5
55
330
3
100
AcDbSymbolTableRecord
100
AcDbTextStyleTableRecord
  2
Standard
 70
     0
 40
0.0
 41
1.0
 50
0.0
 71
     0
 42
0.12
  3
arial.ttf
  4

1001
ACAD
1000
Arial
1071
       34
  0
STYLE
  5
5A
330
3
100
AcDbSymbolTableRecord
100
AcDbTextStyleTableRecord
  2
Annotative
 70
     0
 40
0.0
 41
1.0
 50
0.0
 71
     0
 42
0.2
  3
txt
  4

1001
AcadAnnotative
1000
AnnotativeData
1002
{
1070
     1
1070
     1
1002
}
  0
STYLE
  5
97
330
3
100
AcDbSymbolTableRecord
100
AcDbTextStyleTableRecord
  2

 70
     1
 40
0.0
 41
1.0
 50
0.0
 71
     0
 42
0.12
  3
genltshp.shx
  4

  0
STYLE
  5
98
330
3
100
AcDbSymbolTableRecord
100
AcDbTextStyleTableRecord
  2
ACANSGDT
 70
     0
 40
0.0
 41
1.0
 50
0.0
 71
     0
 42
0.12
  3
amgdt.shx
  4

  0
ENDTAB
  0
TABLE
  2
VIEW
  5
6
330
0
100
AcDbSymbolTable
 70
     0
  0
ENDTAB
  0
TABLE
  2
UCS
  5
7
330
0
100
AcDbSymbolTable
 70
     0
  0
ENDTAB
  0
TABLE
  2
APPID
  5
9
330
0
100
AcDbSymbolTable
 70
    24
  0
APPID
  5
56
330
9
100
AcDbSymbolTableRecord
100
AcDbRegAppTableRecord
  2
ACAD
 70
     0
  0
APPID
  5
5E
330
9
100
AcDbSymbolTableRecord
100
AcDbRegAppTableRecord
  2
AcadAnnotative
 70
     0
  0
APPID
  5
78
330
9
100
AcDbSymbolTableRecord
100
AcDbRegAppTableRecord
  2
ACAD_PSEXT
 70
     0
  0
APPID
  5
7A
330
9
100
AcDbSymbolTableRecord
100
AcDbRegAppTableRecord
  2
MCAD_NO_VIS
 70
     0
  0
APPID
  5
7B
330
9
100
AcDbSymbolTableRecord
100
AcDbRegAppTableRecord
  2
ACAD_TEMP_GRAPHIC
 70
     0
  0
APPID
  5
84
330
9
100
AcDbSymbolTableRecord
100
AcDbRegAppTableRecord
  2
ACAD_DSTYLE_DIMJAG
 70
     0
  0
APPID
  5
85
330
9
100
AcDbSymbolTableRecord
100
AcDbRegAppTableRecord
  2
ACAD_DSTYLE_DIMTALN
 70
     0
  0
APPID
  5
86
330
9
100
AcDbSymbolTableRecord
100
AcDbRegAppTableRecord
  2
ACAD_NAV_VCDISPLAY
 70
     0
  0
APPID
  5
87
330
9
100
AcDbSymbolTableRecord
100
AcDbRegAppTableRecord
  2
AcAecLayerStandard
 70
     0
  0
APPID
  5
88
330
9
100
AcDbSymbolTableRecord
100
AcDbRegAppTableRecord
  2
AcCmTransparency
 70
     0
  0
APPID
  5
89
330
9
100
AcDbSymbolTableRecord
100
AcDbRegAppTableRecord
  2
ACAD_DSTYLE_DIMBREAK
 70
     0
  0
APPID
  5
8A
330
9
100
AcDbSymbolTableRecord
100
AcDbRegAppTableRecord
  2
ACAD_DSTYLE_DIMRADIAL_EXTENSION
 70
     0
  0
APPID
  5
8B
330
9
100
AcDbSymbolTableRecord
100
AcDbRegAppTableRecord
  2
FUSIONTITLEBLOCK
 70
     0
  0
APPID
  5
8C
330
9
100
AcDbSymbolTableRecord
100
AcDbRegAppTableRecord
  2
FUSIONCURRENTTITLEBLOCK
 70
     0
  0
APPID
  5
8D
330
9
100
AcDbSymbolTableRecord
100
AcDbRegAppTableRecord
  2
AcSynergy
 70
     0
  0
APPID
  5
8E
330
9
100
AcDbSymbolTableRecord
100
AcDbRegAppTableRecord
  2
ACAD_VIEW_EDGE_ID
 70
     0
  0
APPID
  5
8F
330
9
100
AcDbSymbolTableRecord
100
AcDbRegAppTableRecord
  2
GENIUS_GENSCREG_15
 70
     0
  0
APPID
  5
90
330
9
100
AcDbSymbolTableRecord
100
AcDbRegAppTableRecord
  2
GENIUS_GENOBJ-N-SDF_13
 70
     0
  0
APPID
  5
91
330
9
100
AcDbSymbolTableRecord
100
AcDbRegAppTableRecord
  2
GENIUS_GENODEF_13
 70
     0
  0
APPID
  5
92
330
9
100
AcDbSymbolTableRecord
100
AcDbRegAppTableRecord
  2
ACAD_DIMASSOC_CALC_DIMLFAC
 70
     0
  0
APPID
  5
93
330
9
100
AcDbSymbolTableRecord
100
AcDbRegAppTableRecord
  2
ACAD_DIMASSOC_DIMLFAC
 70
     0
  0
APPID
  5
94
330
9
100
AcDbSymbolTableRecord
100
AcDbRegAppTableRecord
  2
ACAD_DIMASSOC_OVERRIDDEN_DIMLFAC
 70
     0
  0
APPID
  5
95
330
9
100
AcDbSymbolTableRecord
100
AcDbRegAppTableRecord
  2
FD_ATT_APPNAME
 70
     0
  0
APPID
  5
96
330
9
100
AcDbSymbolTableRecord
100
AcDbRegAppTableRecord
  2
ACATTRIBSERVICES
 70
     0
  0
ENDTAB
  0
TABLE
  2
DIMSTYLE
  5
A
330
0
100
AcDbSymbolTable
 70
     2
100
AcDbDimStyleTable
 71
     1
340
58
  0
DIMSTYLE
105
58
102
{ACAD_REACTORS
330
155
330
164
330
172
330
17C
330
18A
330
198
330
1A6
102
}
330
A
100
AcDbSymbolTableRecord
100
AcDbDimStyleTableRecord
  2
Standard
 70
     0
  3
in
  4
mm
 41
0.12
 42
0.05
 43
0.339411
 44
0.1
 47
0.01
 48
0.01
 78
    12
 79
     3
 90
     1
140
0.12
141
0.0
147
0.06
176
   256
177
   256
178
   256
179
     2
271
     2
272
     2
284
    12
285
    12
286
    12
340
55
  0
DIMSTYLE
105
59
330
A
100
AcDbSymbolTableRecord
100
AcDbDimStyleTableRecord
  2
Annotative
 70
     0
  3
in
 40
0.0
 43
0.339411
 78
    12
 79
     3
140
0.12
179
     2
271
     2
272
     2
284
    12
285
    12
286
    12
340
55
1001
AcadAnnotative
1000
AnnotativeData
1002
{
1070
     1
1070
     1
1002
}
  0
ENDTAB
  0
TABLE
  2
BLOCK_RECORD
  5
1
330
0
100
AcDbSymbolTable
 70
    20
  0
BLOCK_RECORD
  5
70
102
{ACAD_XDICTIONARY
360
B2
102
}
330
1
100
AcDbSymbolTableRecord
100
AcDbBlockTableRecord
  2
*Model_Space
340
73
 70
     0
280
     1
281
     0
  0
BLOCK_RECORD
  5
6C
330
1
100
AcDbSymbolTableRecord
100
AcDbBlockTableRecord
  2
*Paper_Space
340
6F
 70
     0
280
     1
281
     0
  0
BLOCK_RECORD
  5
74
330
1
100
AcDbSymbolTableRecord
100
AcDbBlockTableRecord
  2
*Paper_Space0
340
77
 70
     0
280
     1
281
     0
  0
BLOCK_RECORD
  5
111
102
{ACAD_XDICTIONARY
360
112
102
}
330
1
100
AcDbSymbolTableRecord
100
AcDbBlockTableRecord
  2
Shower
340
0
102
{BLKREFS
331
10F
102
}
 70
     1
280
     1
281
     0
1001
FUSIONTITLEBLOCK
1000
TitleBlock
  0
BLOCK_RECORD
  5
136
330
1
100
AcDbSymbolTableRecord
100
AcDbBlockTableRecord
  2
ANSI_B_SHEET
340
0
310
2800000020000000200000000100080000000000000400000000000000000000000000000000000000000000000080000080000000808000800000008000800080800000C0C0C000C0DCC000F0CAA6000020400000206000002080000020A0000020C0000020E00000400000004020000040400000406000004080000040A0
310
000040C0000040E00000600000006020000060400000606000006080000060A0000060C0000060E00000800000008020000080400000806000008080000080A0000080C0000080E00000A0000000A0200000A0400000A0600000A0800000A0A00000A0C00000A0E00000C0000000C0200000C0400000C0600000C0800000C0
310
A00000C0C00000C0E00000E0000000E0200000E0400000E0600000E0800000E0A00000E0C00000E0E00040000000400020004000400040006000400080004000A0004000C0004000E00040200000402020004020400040206000402080004020A0004020C0004020E000404000004040200040404000404060004040800040
310
40A0004040C0004040E00040600000406020004060400040606000406080004060A0004060C0004060E00040800000408020004080400040806000408080004080A0004080C0004080E00040A0000040A0200040A0400040A0600040A0800040A0A00040A0C00040A0E00040C0000040C0200040C0400040C0600040C08000
310
40C0A00040C0C00040C0E00040E0000040E0200040E0400040E0600040E0800040E0A00040E0C00040E0E00080000000800020008000400080006000800080008000A0008000C0008000E00080200000802020008020400080206000802080008020A0008020C0008020E00080400000804020008040400080406000804080
310
008040A0008040C0008040E00080600000806020008060400080606000806080008060A0008060C0008060E00080800000808020008080400080806000808080008080A0008080C0008080E00080A0000080A0200080A0400080A0600080A0800080A0A00080A0C00080A0E00080C0000080C0200080C0400080C0600080C0
310
800080C0A00080C0C00080C0E00080E0000080E0200080E0400080E0600080E0800080E0A00080E0C00080E0E000C0000000C0002000C0004000C0006000C0008000C000A000C000C000C000E000C0200000C0202000C0204000C0206000C0208000C020A000C020C000C020E000C0400000C0402000C0404000C0406000C0
310
408000C040A000C040C000C040E000C0600000C0602000C0604000C0606000C0608000C060A000C060C000C060E000C0800000C0802000C0804000C0806000C0808000C080A000C080C000C080E000C0A00000C0A02000C0A04000C0A06000C0A08000C0A0A000C0A0C000C0A0E000C0C00000C0C02000C0C04000C0C06000
310
C0C08000C0C0A000F0FBFF00A4A0A000808080000000FF0000FF000000FFFF00FF000000FF00FF00FFFF0000FFFFFF0049494949494949494949494949494949494949494949494949494949494949494949494949494949494949494949494949494949494949494949494949494949494949494949494949494949494949
310
494949494949494949494949494949494949494949494949494949494949494949494949494949494949494949494949494949494949494949494949494949494949494949494949494949494949494949494949494949494949494949494949494949494949494949494949494949494949FFFF4949494949494949494949
310
494949494949494949494949494949FFFF4949FFFFFFFFFFFFFFFFFFFFFFFFFFFFFFFFFFFFFFFFFFFFFFFFFFFFFFFFFFFF494949FF4949494949494949494949494949494949494949494949494949FF49494949FF4949494949494949494949494949494949494949494949494949FF49494949FF49494949494949494949
310
49494949494949494949494949494949FF49494949FF4949494949494949494949494949494949494949494949494949FF49494949FF4949494949494949494949494949494949494949494949494949FF49494949FF4949494949494949494949494949494949494949494949494949FF49494949FF494949494949494949
310
4949494949494949494949494949494949FF49494949FF4949494949494949494949494949494949494949494949494949FF49494949FF4949494949494949494949494949494949494949494949494949FF49494949FF4949494949494949494949494949494949494949494949494949FF49494949FF4949494949494949
310
494949494949494949494949494949494949FF49494949FF4949494949494949494949494949494949494949494949494949FF49494949FF4949494949494949494949494949494949494949494949494949FF49494949FF4949494949494949494949494949494949494949494949494949FF49494949FF49494949494949
310
49494949494949494949494949494949494949FF49494949FF4949494949494949494949494949494949494949494949494949FF494949FFFFFFFFFFFFFFFFFFFFFFFFFFFFFFFFFFFFFFFFFFFFFFFFFFFFFFFFFFFF4949FFFF4949494949494949494949494949494949494949494949494949FFFF49494949494949494949
310
49494949494949494949494949494949494949494949494949494949494949494949494949494949494949494949494949494949494949494949494949494949494949494949494949494949494949494949494949494949494949494949494949494949494949494949494949494949494949494949494949494949494949
310
4949494949494949494949494949494949494949494949494949494949494949494949494949494949494949494949494949494949494949
102
{BLKREFS
331
134
102
}
 70
     1
280
     1
281
     0
  0
BLOCK_RECORD
  5
157
330
1
100
AcDbSymbolTableRecord
100
AcDbBlockTableRecord
  2
*D6
340
0
 70
     0
280
     1
281
     0
  0
BLOCK_RECORD
  5
165
330
1
100
AcDbSymbolTableRecord
100
AcDbBlockTableRecord
  2
*D7
340
0
 70
     0
280
     1
281
     0
  0
BLOCK_RECORD
  5
173
330
1
100
AcDbSymbolTableRecord
100
AcDbBlockTableRecord
  2
*D8
340
0
 70
     0
280
     1
281
     0
  0
BLOCK_RECORD
  5
17D
330
1
100
AcDbSymbolTableRecord
100
AcDbBlockTableRecord
  2
*D9
340
0
 70
     0
280
     1
281
     0
  0
BLOCK_RECORD
  5
18B
330
1
100
AcDbSymbolTableRecord
100
AcDbBlockTableRecord
  2
*D10
340
0
 70
     0
280
     1
281
     0
  0
BLOCK_RECORD
  5
199
330
1
100
AcDbSymbolTableRecord
100
AcDbBlockTableRecord
  2
*D11
340
0
 70
     0
280
     1
281
     0
  0
BLOCK_RECORD
  5
1A7
330
1
100
AcDbSymbolTableRecord
100
AcDbBlockTableRecord
  2
*D12
340
0
 70
     0
280
     1
281
     0
  0
BLOCK_RECORD
  5
1B1
330
1
100
AcDbSymbolTableRecord
100
AcDbBlockTableRecord
  2
*D13
340
0
 70
     0
280
     1
281
     0
  0
BLOCK_RECORD
  5
1BE
330
1
100
AcDbSymbolTableRecord
100
AcDbBlockTableRecord
  2
*D14
340
0
 70
     0
280
     1
281
     0
  0
BLOCK_RECORD
  5
1CB
330
1
100
AcDbSymbolTableRecord
100
AcDbBlockTableRecord
  2
*D15
340
0
 70
     0
280
     1
281
     0
  0
BLOCK_RECORD
  5
1D4
330
1
100
AcDbSymbolTableRecord
100
AcDbBlockTableRecord
  2
*D16
340
0
 70
     0
280
     1
281
     0
  0
BLOCK_RECORD
  5
1E1
330
1
100
AcDbSymbolTableRecord
100
AcDbBlockTableRecord
  2
*D17
340
0
 70
     0
280
     1
281
     0
  0
BLOCK_RECORD
  5
1EE
330
1
100
AcDbSymbolTableRecord
100
AcDbBlockTableRecord
  2
*D18
340
0
 70
     0
280
     1
281
     0
  0
BLOCK_RECORD
  5
1FB
330
1
100
AcDbSymbolTableRecord
100
AcDbBlockTableRecord
  2
*D19
340
0
 70
     0
280
     1
281
     0
  0
ENDTAB
  0
ENDSEC
  0
SECTION
  2
BLOCKS
  0
BLOCK
  5
71
330
70
100
AcDbEntity
  8
0
100
AcDbBlockBegin
  2
*Model_Space
 70
     0
 10
0.0
 20
0.0
 30
0.0
  3
*Model_Space
  1

  0
ENDBLK
  5
72
330
70
100
AcDbEntity
  8
0
100
AcDbBlockEnd
  0
BLOCK
  5
6D
330
6C
100
AcDbEntity
 67
     1
  8
0
100
AcDbBlockBegin
  2
*Paper_Space
 70
     0
 10
0.0
 20
0.0
 30
0.0
  3
*Paper_Space
  1

  0
ENDBLK
  5
6E
330
6C
100
AcDbEntity
 67
     1
  8
0
100
AcDbBlockEnd
  0
BLOCK
  5
75
330
74
100
AcDbEntity
 67
     1
  8
0
100
AcDbBlockBegin
  2
*Paper_Space0
 70
     0
 10
0.0
 20
0.0
 30
0.0
  3
*Paper_Space0
  1

  0
ENDBLK
  5
76
330
74
100
AcDbEntity
 67
     1
  8
0
100
AcDbBlockEnd
  0
BLOCK
  5
114
330
111
100
AcDbEntity
  8
0
100
AcDbBlockBegin
  2
Shower
 70
     2
 10
0.0
 20
0.0
 30
0.0
  3
Shower
  1

  0
LWPOLYLINE
  5
115
330
111
100
AcDbEntity
  8
Titleblock
100
AcDbPolyline
 90
        4
 70
     1
 43
0.0
 10
0.0
 20
0.0
 10
-4.9375
 20
0.0
 10
-4.9375
 20
2.5
 10
0.0
 20
2.5
  0
IMAGE
  5
116
330
111
100
AcDbEntity
  8
Titleblock
  6
Continuous
160
               140
310
8C0000000100000084000000060000000500000000000000008013C000B87FA8928AB03F000000000000000000000000008013C035B4911D6523F03F000000000000000001000000008001C035B4911D6523F03F000000000000000001000000008001C000B87FA8928AB03F000000000000000000000000008013C000B87F
310
A8928AB03F0000000000000000
370
     0
100
AcDbRasterImage
 90
        0
 10
-4.875
 20
0.064614
 30
0.0
 11
0.0028349156118143
 21
0.0
 31
0.0
 12
0.0
 22
0.0028349156118143
 32
0.0
 13
948.0
 23
333.0
340
117
 70
    15
280
     0
281
    50
282
    50
283
     0
290
     0
360
119
 71
     1
 91
        2
 14
-0.5
 24
-0.5
 14
947.5
 24
332.5
  0
LWPOLYLINE
  5
11B
330
111
100
AcDbEntity
  8
Titleblock
  6
Continuous
370
    25
100
AcDbPolyline
 90
        4
 70
     1
 43
0.0
 10
0.0
 20
1.0625
 10
-4.9375
 20
1.061638
 10
-4.9375
 20
0.0
 10
0.0
 20
0.0
  0
LWPOLYLINE
  5
11C
330
111
100
AcDbEntity
  8
Titleblock
  6
Continuous
370
    25
100
AcDbPolyline
 90
        4
 70
     1
 43
0.0
 10
-1.75
 20
2.5
 10
0.0
 20
2.5
 10
0.0
 20
2.5
 10
-1.75
 20
2.5
  0
ATTDEF
  5
11D
330
111
100
AcDbEntity
  8
Titleblock
  6
Continuous
370
    25
100
AcDbText
 10
-3.6875
 20
2.3125
 30
0.0
 40
0.12
  1

100
AcDbAttributeDefinition
280
     0
  3

  2
PROJECT
 70
     0
280
     1
  0
MTEXT
  5
11E
330
111
100
AcDbEntity
  8
Titleblock
  6
Continuous
370
    25
100
AcDbMText
 10
-4.875
 20
1.653875
 30
0.0
 40
0.12
 41
0.6875
 46
0.0
 71
     1
 72
     5
  1
Description:
 73
     1
 44
1.0
1001
ACAD
1000
ACAD_MTEXT_COLUMN_INFO_BEGIN
1070
    75
1070
     2
1070
    79
1070
     0
1070
    76
1070
     1
1070
    78
1070
     0
1070
    48
1040
0.6875
1070
    49
1040
0.6
1070
    50
1070
     1
1040
0.0
1000
ACAD_MTEXT_COLUMN_INFO_END
  0
ATTDEF
  5
11F
330
111
100
AcDbEntity
  8
Titleblock
  6
Continuous
370
    25
100
AcDbText
 10
-1.6875
 20
0.6875
 30
0.0
 40
0.12
  1

100
AcDbAttributeDefinition
280
     0
  3

  2
DRAWN_DATE
 70
     0
280
     1
  0
ATTDEF
  5
120
330
111
100
AcDbEntity
  8
Titleblock
  6
Continuous
370
    25
100
AcDbText
 10
-4.3125
 20
1.8125
 30
0.0
 40
0.3048
  1

100
AcDbAttributeDefinition
280
     0
  3

  2
TITLE_1
 70
     0
280
     1
  0
ATTDEF
  5
121
330
111
100
AcDbEntity
  8
Titleblock
  6
Continuous
370
    25
100
AcDbText
 10
-1.6875
 20
0.91994
 30
0.0
 40
0.12
  1

100
AcDbAttributeDefinition
280
     0
  3

  2
SCALE
 70
     0
280
     1
  0
LWPOLYLINE
  5
122
330
111
100
AcDbEntity
  8
Titleblock
  6
Continuous
370
    25
100
AcDbPolyline
 90
        4
 70
     1
 43
0.0
 10
0.0
 20
1.0625
 10
0.0
 20
1.0625
 10
0.0
 20
0.0
 10
0.0
 20
0.0
  0
LWPOLYLINE
  5
123
330
111
100
AcDbEntity
  8
Titleblock
  6
Continuous
370
    25
100
AcDbPolyline
 90
        4
 70
     1
 43
0.0
 10
0.0
 20
1.0625
 10
0.0
 20
1.0625
 10
0.0
 20
0.0
 10
0.0
 20
0.0
  0
LINE
  5
124
330
111
100
AcDbEntity
  8
Titleblock
  6
Continuous
370
    25
100
AcDbLine
 10
-2.125
 20
1.062165
 30
0.0
 11
-2.125
 21
0.0
 31
0.0
  0
LWPOLYLINE
  5
125
330
111
100
AcDbEntity
  8
Titleblock
  6
Continuous
370
    25
100
AcDbPolyline
 90
        4
 70
     1
 43
0.0
 10
-4.9375
 20
2.5
 10
0.0
 20
2.5
 10
0.0
 20
2.5
 10
-4.9375
 20
2.5
  0
LINE
  5
126
330
111
100
AcDbEntity
  8
Titleblock
  6
Continuous
370
    25
100
AcDbLine
 10
-4.9375
 20
2.25
 30
0.0
 11
0.0
 21
2.25
 31
0.0
  0
LINE
  5
127
330
111
100
AcDbEntity
  8
Titleblock
  6
Continuous
370
    25
100
AcDbLine
 10
-4.9375
 20
1.6875
 30
0.0
 11
0.0
 21
1.6875
 31
0.0
  0
MTEXT
  5
128
330
111
100
AcDbEntity
  8
Titleblock
100
AcDbMText
 10
-4.875
 20
2.467284
 30
0.0
 40
0.12
 41
0.375
 46
0.0
 71
     1
 72
     5
  1
Project:
 73
     1
 44
1.0
1001
ACAD
1000
ACAD_MTEXT_COLUMN_INFO_BEGIN
1070
    75
1070
     2
1070
    79
1070
     0
1070
    76
1070
     1
1070
    78
1070
     0
1070
    48
1040
0.375
1070
    49
1040
0.6
1070
    50
1070
     1
1040
0.0
1000
ACAD_MTEXT_COLUMN_INFO_END
  0
MTEXT
  5
129
330
111
100
AcDbEntity
  8
Titleblock
100
AcDbMText
 10
-2.0625
 20
1.045477
 30
0.0
 40
0.075
 41
0.375
 46
0.0
 71
     1
 72
     5
  1
Scale:
 73
     1
 44
1.0
1001
ACAD
1000
ACAD_MTEXT_COLUMN_INFO_BEGIN
1070
    75
1070
     2
1070
    79
1070
     0
1070
    76
1070
     1
1070
    78
1070
     0
1070
    48
1040
0.375
1070
    49
1040
0.6
1070
    50
1070
     1
1040
0.0
1000
ACAD_MTEXT_COLUMN_INFO_END
  0
MTEXT
  5
12A
330
111
100
AcDbEntity
  8
Titleblock
100
AcDbMText
 10
-2.0625
 20
0.857735
 30
0.0
 40
0.075
 41
0.375
 46
0.0
 71
     1
 72
     5
  1
Date Drawn:
 73
     1
 44
1.0
1001
ACAD
1000
ACAD_MTEXT_COLUMN_INFO_BEGIN
1070
    75
1070
     2
1070
    79
1070
     0
1070
    76
1070
     1
1070
    78
1070
     0
1070
    48
1040
0.375
1070
    49
1040
0.6
1070
    50
1070
     1
1040
0.0
1000
ACAD_MTEXT_COLUMN_INFO_END
  0
LINE
  5
12B
330
111
100
AcDbEntity
  8
Titleblock
100
AcDbLine
 10
-2.125
 20
0.875
 30
0.0
 11
0.0
 21
0.875
 31
0.0
  0
LINE
  5
12C
330
111
100
AcDbEntity
  8
Titleblock
100
AcDbLine
 10
-2.125
 20
0.625
 30
0.0
 11
0.0
 21
0.625
 31
0.0
  0
MTEXT
  5
12D
330
111
100
AcDbEntity
  8
Titleblock
100
AcDbMText
 10
-4.875
 20
2.220603
 30
0.0
 40
0.12
 41
0.625
 46
0.0
 71
     1
 72
     5
  1
Title:
 73
     1
 44
1.0
1001
ACAD
1000
ACAD_MTEXT_COLUMN_INFO_BEGIN
1070
    75
1070
     2
1070
    79
1070
     0
1070
    76
1070
     1
1070
    78
1070
     0
1070
    48
1040
0.625
1070
    49
1040
0.6
1070
    50
1070
     1
1040
0.0
1000
ACAD_MTEXT_COLUMN_INFO_END
  0
ENDBLK
  5
12E
330
111
100
AcDbEntity
  8
0
100
AcDbBlockEnd
  0
BLOCK
  5
137
330
136
100
AcDbEntity
  8
0
100
AcDbBlockBegin
  2
ANSI_B_SHEET
 70
     0
 10
0.0
 20
0.0
 30
0.0
  3
ANSI_B_SHEET
  1

  0
LINE
  5
138
330
136
100
AcDbEntity
  8
Border
100
AcDbLine
 10
0.0
 20
0.0
 30
0.0
 11
0.5
 21
0.0
 31
0.0
  0
LINE
  5
139
330
136
100
AcDbEntity
  8
Border
100
AcDbLine
 10
16.5
 20
0.0
 30
0.0
 11
17.0
 21
0.0
 31
0.0
  0
LINE
  5
13A
330
136
100
AcDbEntity
  8
Border
100
AcDbLine
 10
0.62
 20
0.38
 30
0.0
 11
16.38
 21
0.38
 31
0.0
  0
LINE
  5
13B
330
136
100
AcDbEntity
  8
Border
100
AcDbLine
 10
17.0
 20
0.0
 30
0.0
 11
17.0
 21
0.5
 31
0.0
  0
LINE
  5
13C
330
136
100
AcDbEntity
  8
Border
100
AcDbLine
 10
17.0
 20
10.5
 30
0.0
 11
17.0
 21
11.0
 31
0.0
  0
LINE
  5
13D
330
136
100
AcDbEntity
  8
Border
100
AcDbLine
 10
16.38
 20
0.38
 30
0.0
 11
16.38
 21
10.62
 31
0.0
  0
LINE
  5
13E
330
136
100
AcDbEntity
  8
Border
100
AcDbLine
 10
17.0
 20
11.0
 30
0.0
 11
16.5
 21
11.0
 31
0.0
  0
LINE
  5
13F
330
136
100
AcDbEntity
  8
Border
100
AcDbLine
 10
0.5
 20
11.0
 30
0.0
 11
0.0
 21
11.0
 31
0.0
  0
LINE
  5
140
330
136
100
AcDbEntity
  8
Border
100
AcDbLine
 10
16.38
 20
10.62
 30
0.0
 11
0.62
 21
10.62
 31
0.0
  0
LINE
  5
141
330
136
100
AcDbEntity
  8
Border
100
AcDbLine
 10
0.0
 20
11.0
 30
0.0
 11
0.0
 21
10.5
 31
0.0
  0
LINE
  5
142
330
136
100
AcDbEntity
  8
Border
100
AcDbLine
 10
0.0
 20
0.5
 30
0.0
 11
0.0
 21
0.0
 31
0.0
  0
LINE
  5
143
330
136
100
AcDbEntity
  8
Border
100
AcDbLine
 10
0.62
 20
10.62
 30
0.0
 11
0.62
 21
0.38
 31
0.0
  0
LINE
  5
144
330
136
100
AcDbEntity
  8
Border
100
AcDbLine
 10
8.413397
 20
0.23
 30
0.0
 11
8.586603
 21
0.23
 31
0.0
  0
LINE
  5
145
330
136
100
AcDbEntity
  8
Border
100
AcDbLine
 10
8.5
 20
0.38
 30
0.0
 11
8.5
 21
0.13
 31
0.0
  0
LINE
  5
146
330
136
100
AcDbEntity
  8
Border
100
AcDbLine
 10
8.5
 20
0.38
 30
0.0
 11
8.413397
 21
0.23
 31
0.0
  0
LINE
  5
147
330
136
100
AcDbEntity
  8
Border
100
AcDbLine
 10
8.5
 20
0.38
 30
0.0
 11
8.586603
 21
0.23
 31
0.0
  0
LINE
  5
148
330
136
100
AcDbEntity
  8
Border
100
AcDbLine
 10
0.47
 20
5.586603
 30
0.0
 11
0.47
 21
5.413397
 31
0.0
  0
LINE
  5
149
330
136
100
AcDbEntity
  8
Border
100
AcDbLine
 10
0.62
 20
5.5
 30
0.0
 11
0.37
 21
5.5
 31
0.0
  0
LINE
  5
14A
330
136
100
AcDbEntity
  8
Border
100
AcDbLine
 10
0.62
 20
5.5
 30
0.0
 11
0.47
 21
5.586603
 31
0.0
  0
LINE
  5
14B
330
136
100
AcDbEntity
  8
Border
100
AcDbLine
 10
0.62
 20
5.5
 30
0.0
 11
0.47
 21
5.413397
 31
0.0
  0
LINE
  5
14C
330
136
100
AcDbEntity
  8
Border
100
AcDbLine
 10
16.53
 20
5.586603
 30
0.0
 11
16.53
 21
5.413397
 31
0.0
  0
LINE
  5
14D
330
136
100
AcDbEntity
  8
Border
100
AcDbLine
 10
16.38
 20
5.5
 30
0.0
 11
16.63
 21
5.5
 31
0.0
  0
LINE
  5
14E
330
136
100
AcDbEntity
  8
Border
100
AcDbLine
 10
16.38
 20
5.5
 30
0.0
 11
16.53
 21
5.586603
 31
0.0
  0
LINE
  5
14F
330
136
100
AcDbEntity
  8
Border
100
AcDbLine
 10
16.38
 20
5.5
 30
0.0
 11
16.53
 21
5.413397
 31
0.0
  0
LINE
  5
150
330
136
100
AcDbEntity
  8
Border
100
AcDbLine
 10
8.413397
 20
10.77
 30
0.0
 11
8.586603
 21
10.77
 31
0.0
  0
LINE
  5
151
330
136
100
AcDbEntity
  8
Border
100
AcDbLine
 10
8.5
 20
10.62
 30
0.0
 11
8.5
 21
10.87
 31
0.0
  0
LINE
  5
152
330
136
100
AcDbEntity
  8
Border
100
AcDbLine
 10
8.5
 20
10.62
 30
0.0
 11
8.413397
 21
10.77
 31
0.0
  0
LINE
  5
153
330
136
100
AcDbEntity
  8
Border
100
AcDbLine
 10
8.5
 20
10.62
 30
0.0
 11
8.586603
 21
10.77
 31
0.0
  0
ENDBLK
  5
154
330
136
100
AcDbEntity
  8
0
100
AcDbBlockEnd
  0
BLOCK
  5
158
330
157
100
AcDbEntity
  8
0
100
AcDbBlockBegin
  2
*D6
 70
     1
 10
0.0
 20
0.0
 30
0.0
  3
*D6
  1

  0
LINE
  5
159
330
157
100
AcDbEntity
  8
Dimensions
440
 16777216
370
    -2
100
AcDbLine
 10
15.090833
 20
6.337395
 30
0.0
 11
15.090833
 21
6.726806
 31
0.0
  0
LINE
  5
15A
330
157
100
AcDbEntity
  8
Dimensions
440
 16777216
370
    -2
100
AcDbLine
 10
14.893982
 20
6.298025
 30
0.0
 11
14.893982
 21
6.726806
 31
0.0
  0
LINE
  5
15B
330
157
100
AcDbEntity
  8
Dimensions
440
 16777216
370
    -2
100
AcDbLine
 10
15.210833
 20
6.626806
 30
0.0
 11
15.330833
 21
6.626806
 31
0.0
  0
LINE
  5
15C
330
157
100
AcDbEntity
  8
Dimensions
440
 16777216
370
    -2
100
AcDbLine
 10
14.773982
 20
6.626806
 30
0.0
 11
14.653982
 21
6.626806
 31
0.0
  0
SOLID
  5
15D
330
157
100
AcDbEntity
  8
Dimensions
440
 16777216
100
AcDbTrace
 10
15.210833
 20
6.646806
 30
0.0
 11
15.210833
 21
6.606806
 31
0.0
 12
15.090833
 22
6.626806
 32
0.0
 13
15.090833
 23
6.626806
 33
0.0
  0
SOLID
  5
15E
330
157
100
AcDbEntity
  8
Dimensions
440
 16777216
100
AcDbTrace
 10
14.773982
 20
6.646806
 30
0.0
 11
14.773982
 21
6.606806
 31
0.0
 12
14.893982
 22
6.626806
 32
0.0
 13
14.893982
 23
6.626806
 33
0.0
  0
MTEXT
  5
15F
330
157
100
AcDbEntity
  8
Dimensions
440
 16777216
100
AcDbMText
 10
14.472222
 20
6.626806
 30
0.0
 40
0.12
 41
0.0
 46
0.0
 71
     5
 72
     1
  1
\A1;.2in
 73
     1
 44
1.0
  0
POINT
  5
160
330
157
100
AcDbEntity
  8
Defpoints
 62
     0
440
 16777216
100
AcDbPoint
 10
15.090833
 20
6.287395
 30
0.0
  0
POINT
  5
161
330
157
100
AcDbEntity
  8
Defpoints
 62
     0
440
 16777216
100
AcDbPoint
 10
14.893982
 20
6.248025
 30
0.0
  0
POINT
  5
162
330
157
100
AcDbEntity
  8
Defpoints
 62
     0
440
 16777216
100
AcDbPoint
 10
14.893982
 20
6.626806
 30
0.0
  0
ENDBLK
  5
163
330
157
100
AcDbEntity
  8
0
100
AcDbBlockEnd
  0
BLOCK
  5
166
330
165
100
AcDbEntity
  8
0
100
AcDbBlockBegin
  2
*D7
 70
     1
 10
0.0
 20
0.0
 30
0.0
  3
*D7
  1

  0
LINE
  5
167
330
165
100
AcDbEntity
  8
Dimensions
440
 16777216
370
    -2
100
AcDbLine
 10
12.138077
 20
6.987526
 30
0.0
 11
12.138077
 21
7.889679
 31
0.0
  0
LINE
  5
168
330
165
100
AcDbEntity
  8
Dimensions
440
 16777216
370
    -2
100
AcDbLine
 10
15.090833
 20
6.337395
 30
0.0
 11
15.090833
 21
7.889679
 31
0.0
  0
LINE
  5
169
330
165
100
AcDbEntity
  8
Dimensions
440
 16777216
370
    -2
100
AcDbLine
 10
12.258077
 20
7.789679
 30
0.0
 11
13.334305
 21
7.789679
 31
0.0
  0
LINE
  5
16A
330
165
100
AcDbEntity
  8
Dimensions
440
 16777216
370
    -2
100
AcDbLine
 10
14.970833
 20
7.789679
 30
0.0
 11
13.894605
 21
7.789679
 31
0.0
  0
SOLID
  5
16B
330
165
100
AcDbEntity
  8
Dimensions
440
 16777216
100
AcDbTrace
 10
12.258077
 20
7.809679
 30
0.0
 11
12.258077
 21
7.769679
 31
0.0
 12
12.138077
 22
7.789679
 32
0.0
 13
12.138077
 23
7.789679
 33
0.0
  0
SOLID
  5
16C
330
165
100
AcDbEntity
  8
Dimensions
440
 16777216
100
AcDbTrace
 10
14.970833
 20
7.809679
 30
0.0
 11
14.970833
 21
7.769679
 31
0.0
 12
15.090833
 22
7.789679
 32
0.0
 13
15.090833
 23
7.789679
 33
0.0
  0
MTEXT
  5
16D
330
165
100
AcDbEntity
  8
Dimensions
440
 16777216
100
AcDbMText
 10
13.614455
 20
7.789679
 30
0.0
 40
0.12
 41
0.0
 46
0.0
 71
     5
 72
     1
  1
\A1;2.95in
 73
     1
 44
1.0
  0
POINT
  5
16E
330
165
100
AcDbEntity
  8
Defpoints
 62
     0
440
 16777216
100
AcDbPoint
 10
12.138077
 20
6.937526
 30
0.0
  0
POINT
  5
16F
330
165
100
AcDbEntity
  8
Defpoints
 62
     0
440
 16777216
100
AcDbPoint
 10
15.090833
 20
6.287395
 30
0.0
  0
POINT
  5
170
330
165
100
AcDbEntity
  8
Defpoints
 62
     0
440
 16777216
100
AcDbPoint
 10
15.090833
 20
7.789679
 30
0.0
  0
ENDBLK
  5
171
330
165
100
AcDbEntity
  8
0
100
AcDbBlockEnd
  0
BLOCK
  5
174
330
173
100
AcDbEntity
  8
0
100
AcDbBlockBegin
  2
*D8
 70
     1
 10
0.0
 20
0.0
 30
0.0
  3
*D8
  1

  0
LINE
  5
175
330
173
100
AcDbEntity
  8
Dimensions
440
 16777216
370
    -2
100
AcDbLine
 10
10.953844
 20
7.763542
 30
0.0
 11
11.073183
 21
7.776116
 31
0.0
  0
MTEXT
  5
176
330
173
100
AcDbEntity
  8
Dimensions
440
 16777216
100
AcDbMText
 10
10.656054
 20
7.763542
 30
0.0
 40
0.12
 41
0.0
 46
0.0
 71
     5
 72
     1
  1
\A1;∅1.9in
 73
     1
 44
1.0
  0
SOLID
  5
177
330
173
100
AcDbEntity
  8
Dimensions
440
 16777216
100
AcDbTrace
 10
11.071088
 20
7.796006
 30
0.0
 11
11.075279
 21
7.756226
 31
0.0
 12
11.192523
 22
7.788689
 32
0.0
 13
11.192523
 23
7.788689
 33
0.0
  0
ARC
  5
178
330
173
100
AcDbEntity
  8
Dimensions
440
 16777216
370
    -2
100
AcDbCircle
 10
12.138077
 20
7.888313
 30
0.0
 40
0.9507874015759929
100
AcDbArc
 50
179.98835
 51
235.815639
  0
POINT
  5
179
330
173
100
AcDbEntity
  8
Defpoints
 62
     0
440
 16777216
100
AcDbPoint
 10
11.192523
 20
7.788689
 30
0.0
  0
POINT
  5
17A
330
173
100
AcDbEntity
  8
Defpoints
 62
     0
440
 16777216
100
AcDbPoint
 10
13.08363
 20
7.987936
 30
0.0
  0
ENDBLK
  5
17B
330
173
100
AcDbEntity
  8
0
100
AcDbBlockEnd
  0
BLOCK
  5
17E
330
17D
100
AcDbEntity
  8
0
100
AcDbBlockBegin
  2
*D9
 70
     1
 10
0.0
 20
0.0
 30
0.0
  3
*D9
  1

  0
LINE
  5
17F
330
17D
100
AcDbEntity
  8
Dimensions
440
 16777216
370
    -2
100
AcDbLine
 10
9.829528
 20
6.937526
 30
0.0
 11
10.55835
 21
6.937526
 31
0.0
  0
LINE
  5
180
330
17D
100
AcDbEntity
  8
Dimensions
440
 16777216
370
    -2
100
AcDbLine
 10
8.55
 20
4.830702
 30
0.0
 11
10.55835
 21
4.830702
 31
0.0
  0
LINE
  5
181
330
17D
100
AcDbEntity
  8
Dimensions
440
 16777216
370
    -2
100
AcDbLine
 10
10.45835
 20
6.817526
 30
0.0
 11
10.45835
 21
6.004359
 31
0.0
  0
LINE
  5
182
330
17D
100
AcDbEntity
  8
Dimensions
440
 16777216
370
    -2
100
AcDbLine
 10
10.45835
 20
4.950702
 30
0.0
 11
10.45835
 21
5.763868
 31
0.0
  0
SOLID
  5
183
330
17D
100
AcDbEntity
  8
Dimensions
440
 16777216
100
AcDbTrace
 10
10.43835
 20
6.817526
 30
0.0
 11
10.47835
 21
6.817526
 31
0.0
 12
10.45835
 22
6.937526
 32
0.0
 13
10.45835
 23
6.937526
 33
0.0
  0
SOLID
  5
184
330
17D
100
AcDbEntity
  8
Dimensions
440
 16777216
100
AcDbTrace
 10
10.43835
 20
4.950702
 30
0.0
 11
10.47835
 21
4.950702
 31
0.0
 12
10.45835
 22
4.830702
 32
0.0
 13
10.45835
 23
4.830702
 33
0.0
  0
MTEXT
  5
185
330
17D
100
AcDbEntity
  8
Dimensions
440
 16777216
100
AcDbMText
 10
10.45835
 20
5.884114
 30
0.0
 40
0.12
 41
0.0
 46
0.0
 71
     5
 72
     1
  1
\A1;2.11in
 73
     1
 44
1.0
  0
POINT
  5
186
330
17D
100
AcDbEntity
  8
Defpoints
 62
     0
440
 16777216
100
AcDbPoint
 10
9.779528
 20
6.937526
 30
0.0
  0
POINT
  5
187
330
17D
100
AcDbEntity
  8
Defpoints
 62
     0
440
 16777216
100
AcDbPoint
 10
8.5
 20
4.830702
 30
0.0
  0
POINT
  5
188
330
17D
100
AcDbEntity
  8
Defpoints
 62
     0
440
 16777216
100
AcDbPoint
 10
10.45835
 20
4.830702
 30
0.0
  0
ENDBLK
  5
189
330
17D
100
AcDbEntity
  8
0
100
AcDbBlockEnd
  0
BLOCK
  5
18C
330
18B
100
AcDbEntity
  8
0
100
AcDbBlockBegin
  2
*D10
 70
     1
 10
0.0
 20
0.0
 30
0.0
  3
*D10
  1

  0
LINE
  5
18D
330
18B
100
AcDbEntity
  8
Dimensions
440
 16777216
370
    -2
100
AcDbLine
 10
7.220472
 20
6.987526
 30
0.0
 11
7.220472
 21
7.597119
 31
0.0
  0
LINE
  5
18E
330
18B
100
AcDbEntity
  8
Dimensions
440
 16777216
370
    -2
100
AcDbLine
 10
9.779528
 20
6.987526
 30
0.0
 11
9.779528
 21
7.597119
 31
0.0
  0
LINE
  5
18F
330
18B
100
AcDbEntity
  8
Dimensions
440
 16777216
370
    -2
100
AcDbLine
 10
7.340472
 20
7.497119
 30
0.0
 11
8.21985
 21
7.497119
 31
0.0
  0
LINE
  5
190
330
18B
100
AcDbEntity
  8
Dimensions
440
 16777216
370
    -2
100
AcDbLine
 10
9.659528
 20
7.497119
 30
0.0
 11
8.78015
 21
7.497119
 31
0.0
  0
SOLID
  5
191
330
18B
100
AcDbEntity
  8
Dimensions
440
 16777216
100
AcDbTrace
 10
7.340472
 20
7.517119
 30
0.0
 11
7.340472
 21
7.477119
 31
0.0
 12
7.220472
 22
7.497119
 32
0.0
 13
7.220472
 23
7.497119
 33
0.0
  0
SOLID
  5
192
330
18B
100
AcDbEntity
  8
Dimensions
440
 16777216
100
AcDbTrace
 10
9.659528
 20
7.517119
 30
0.0
 11
9.659528
 21
7.477119
 31
0.0
 12
9.779528
 22
7.497119
 32
0.0
 13
9.779528
 23
7.497119
 33
0.0
  0
MTEXT
  5
193
330
18B
100
AcDbEntity
  8
Dimensions
440
 16777216
100
AcDbMText
 10
8.5
 20
7.497119
 30
0.0
 40
0.12
 41
0.0
 46
0.0
 71
     5
 72
     1
  1
\A1;2.56in
 73
     1
 44
1.0
  0
POINT
  5
194
330
18B
100
AcDbEntity
  8
Defpoints
 62
     0
440
 16777216
100
AcDbPoint
 10
7.220472
 20
6.937526
 30
0.0
  0
POINT
  5
195
330
18B
100
AcDbEntity
  8
Defpoints
 62
     0
440
 16777216
100
AcDbPoint
 10
9.779528
 20
6.937526
 30
0.0
  0
POINT
  5
196
330
18B
100
AcDbEntity
  8
Defpoints
 62
     0
440
 16777216
100
AcDbPoint
 10
9.779528
 20
7.497119
 30
0.0
  0
ENDBLK
  5
197
330
18B
100
AcDbEntity
  8
0
100
AcDbBlockEnd
  0
BLOCK
  5
19A
330
199
100
AcDbEntity
  8
0
100
AcDbBlockBegin
  2
*D11
 70
     1
 10
0.0
 20
0.0
 30
0.0
  3
*D11
  1

  0
LINE
  5
19B
330
199
100
AcDbEntity
  8
Dimensions
440
 16777216
370
    -2
100
AcDbLine
 10
8.224409
 20
5.746844
 30
0.0
 11
8.224409
 21
5.796844
 31
0.0
  0
LINE
  5
19C
330
199
100
AcDbEntity
  8
Dimensions
440
 16777216
370
    -2
100
AcDbLine
 10
8.775591
 20
5.746844
 30
0.0
 11
8.775591
 21
5.796844
 31
0.0
  0
LINE
  5
19D
330
199
100
AcDbEntity
  8
Dimensions
440
 16777216
370
    -2
100
AcDbLine
 10
8.104409
 20
5.696844
 30
0.0
 11
7.984409
 21
5.696844
 31
0.0
  0
LINE
  5
19E
330
199
100
AcDbEntity
  8
Dimensions
440
 16777216
370
    -2
100
AcDbLine
 10
8.895591
 20
5.696844
 30
0.0
 11
9.015591
 21
5.696844
 31
0.0
  0
SOLID
  5
19F
330
199
100
AcDbEntity
  8
Dimensions
440
 16777216
100
AcDbTrace
 10
8.104409
 20
5.716844
 30
0.0
 11
8.104409
 21
5.676844
 31
0.0
 12
8.224409
 22
5.696844
 32
0.0
 13
8.224409
 23
5.696844
 33
0.0
  0
SOLID
  5
1A0
330
199
100
AcDbEntity
  8
Dimensions
440
 16777216
100
AcDbTrace
 10
8.895591
 20
5.716844
 30
0.0
 11
8.895591
 21
5.676844
 31
0.0
 12
8.775591
 22
5.696844
 32
0.0
 13
8.775591
 23
5.696844
 33
0.0
  0
MTEXT
  5
1A1
330
199
100
AcDbEntity
  8
Dimensions
440
 16777216
100
AcDbMText
 10
8.5
 20
5.696844
 30
0.0
 40
0.12
 41
0.0
 46
0.0
 71
     5
 72
     1
  1
\A1;.55in
 73
     1
 44
1.0
  0
POINT
  5
1A2
330
199
100
AcDbEntity
  8
Defpoints
 62
     0
440
 16777216
100
AcDbPoint
 10
8.224409
 20
5.696844
 30
0.0
  0
POINT
  5
1A3
330
199
100
AcDbEntity
  8
Defpoints
 62
     0
440
 16777216
100
AcDbPoint
 10
8.775591
 20
5.696844
 30
0.0
  0
POINT
  5
1A4
330
199
100
AcDbEntity
  8
Defpoints
 62
     0
440
 16777216
100
AcDbPoint
 10
8.775591
 20
5.696844
 30
0.0
  0
ENDBLK
  5
1A5
330
199
100
AcDbEntity
  8
0
100
AcDbBlockEnd
  0
BLOCK
  5
1A8
330
1A7
100
AcDbEntity
  8
0
100
AcDbBlockBegin
  2
*D12
 70
     1
 10
0.0
 20
0.0
 30
0.0
  3
*D12
  1

  0
LINE
  5
1A9
330
1A7
100
AcDbEntity
  8
Dimensions
440
 16777216
370
    -2
100
AcDbLine
 10
9.466416
 20
6.298169
 30
0.0
 11
9.346416
 21
6.298169
 31
0.0
  0
LINE
  5
1AA
330
1A7
100
AcDbEntity
  8
Dimensions
440
 16777216
370
    -2
100
AcDbLine
 10
9.346416
 20
6.298169
 30
0.0
 11
9.253346
 21
6.167112
 31
0.0
  0
MTEXT
  5
1AB
330
1A7
100
AcDbEntity
  8
Dimensions
440
 16777216
100
AcDbMText
 10
9.810823
 20
6.298169
 30
0.0
 40
0.12
 41
0.0
 46
0.0
 71
     5
 72
     1
  1
\A1;∅2.36in
 73
     1
 44
1.0
  0
SOLID
  5
1AC
330
1A7
100
AcDbEntity
  8
Dimensions
440
 16777216
100
AcDbTrace
 10
9.237039
 20
6.178692
 30
0.0
 11
9.269652
 21
6.155532
 31
0.0
 12
9.183865
 22
6.069273
 32
0.0
 13
9.183865
 23
6.069273
 33
0.0
  0
POINT
  5
1AD
330
1A7
100
AcDbEntity
  8
Defpoints
 62
     0
440
 16777216
100
AcDbPoint
 10
9.183865
 20
6.069273
 30
0.0
  0
POINT
  5
1AE
330
1A7
100
AcDbEntity
  8
Defpoints
 62
     0
440
 16777216
100
AcDbPoint
 10
7.816135
 20
4.143312
 30
0.0
  0
ENDBLK
  5
1AF
330
1A7
100
AcDbEntity
  8
0
100
AcDbBlockEnd
  0
BLOCK
  5
1B2
330
1B1
100
AcDbEntity
  8
0
100
AcDbBlockBegin
  2
*D13
 70
     1
 10
0.0
 20
0.0
 30
0.0
  3
*D13
  1

  0
LINE
  5
353
330
1B1
100
AcDbEntity
  8
Dimensions
440
 16777216
370
    -2
100
AcDbLine
 10
15.090833
 20
6.337395
 30
0.0
 11
15.090833
 21
6.726806
 31
0.0
  0
LINE
  5
354
330
1B1
100
AcDbEntity
  8
Dimensions
440
 16777216
370
    -2
100
AcDbLine
 10
14.893982
 20
6.298025
 30
0.0
 11
14.893982
 21
6.726806
 31
0.0
  0
LINE
  5
355
330
1B1
100
AcDbEntity
  8
Dimensions
440
 16777216
370
    -2
100
AcDbLine
 10
15.210833
 20
6.626806
 30
0.0
 11
15.330833
 21
6.626806
 31
0.0
  0
LINE
  5
356
330
1B1
100
AcDbEntity
  8
Dimensions
440
 16777216
370
    -2
100
AcDbLine
 10
14.773982
 20
6.626806
 30
0.0
 11
14.653982
 21
6.626806
 31
0.0
  0
SOLID
  5
357
330
1B1
100
AcDbEntity
  8
Dimensions
440
 16777216
100
AcDbTrace
 10
15.210833
 20
6.646806
 30
0.0
 11
15.210833
 21
6.606806
 31
0.0
 12
15.090833
 22
6.626806
 32
0.0
 13
15.090833
 23
6.626806
 33
0.0
  0
SOLID
  5
358
330
1B1
100
AcDbEntity
  8
Dimensions
440
 16777216
100
AcDbTrace
 10
14.773982
 20
6.646806
 30
0.0
 11
14.773982
 21
6.606806
 31
0.0
 12
14.893982
 22
6.626806
 32
0.0
 13
14.893982
 23
6.626806
 33
0.0
  0
MTEXT
  5
359
330
1B1
100
AcDbEntity
  8
Dimensions
440
 16777216
100
AcDbMText
 10
14.472222
 20
6.626806
 30
0.0
 40
0.12
 41
0.0
 46
0.0
 71
     5
 72
     1
  1
\A1;.2in
 73
     1
 44
1.0
  0
POINT
  5
35A
330
1B1
100
AcDbEntity
  8
Defpoints
 62
     0
440
 16777216
100
AcDbPoint
 10
15.090833
 20
6.287395
 30
0.0
  0
POINT
  5
35B
330
1B1
100
AcDbEntity
  8
Defpoints
 62
     0
440
 16777216
100
AcDbPoint
 10
14.893982
 20
6.248025
 30
0.0
  0
POINT
  5
35C
330
1B1
100
AcDbEntity
  8
Defpoints
 62
     0
440
 16777216
100
AcDbPoint
 10
14.893982
 20
6.626806
 30
0.0
  0
ENDBLK
  5
1B3
330
1B1
100
AcDbEntity
  8
0
100
AcDbBlockEnd
  0
BLOCK
  5
1BF
330
1BE
100
AcDbEntity
  8
0
100
AcDbBlockBegin
  2
*D14
 70
     1
 10
0.0
 20
0.0
 30
0.0
  3
*D14
  1

  0
LINE
  5
35D
330
1BE
100
AcDbEntity
  8
Dimensions
440
 16777216
370
    -2
100
AcDbLine
 10
12.138077
 20
6.987526
 30
0.0
 11
12.138077
 21
7.889679
 31
0.0
  0
LINE
  5
35E
330
1BE
100
AcDbEntity
  8
Dimensions
440
 16777216
370
    -2
100
AcDbLine
 10
15.090833
 20
6.337395
 30
0.0
 11
15.090833
 21
7.889679
 31
0.0
  0
LINE
  5
35F
330
1BE
100
AcDbEntity
  8
Dimensions
440
 16777216
370
    -2
100
AcDbLine
 10
12.258077
 20
7.789679
 30
0.0
 11
13.334305
 21
7.789679
 31
0.0
  0
LINE
  5
360
330
1BE
100
AcDbEntity
  8
Dimensions
440
 16777216
370
    -2
100
AcDbLine
 10
14.970833
 20
7.789679
 30
0.0
 11
13.894605
 21
7.789679
 31
0.0
  0
SOLID
  5
361
330
1BE
100
AcDbEntity
  8
Dimensions
440
 16777216
100
AcDbTrace
 10
12.258077
 20
7.809679
 30
0.0
 11
12.258077
 21
7.769679
 31
0.0
 12
12.138077
 22
7.789679
 32
0.0
 13
12.138077
 23
7.789679
 33
0.0
  0
SOLID
  5
362
330
1BE
100
AcDbEntity
  8
Dimensions
440
 16777216
100
AcDbTrace
 10
14.970833
 20
7.809679
 30
0.0
 11
14.970833
 21
7.769679
 31
0.0
 12
15.090833
 22
7.789679
 32
0.0
 13
15.090833
 23
7.789679
 33
0.0
  0
MTEXT
  5
363
330
1BE
100
AcDbEntity
  8
Dimensions
440
 16777216
100
AcDbMText
 10
13.614455
 20
7.789679
 30
0.0
 40
0.12
 41
0.0
 46
0.0
 71
     5
 72
     1
  1
\A1;2.95in
 73
     1
 44
1.0
  0
POINT
  5
364
330
1BE
100
AcDbEntity
  8
Defpoints
 62
     0
440
 16777216
100
AcDbPoint
 10
12.138077
 20
6.937526
 30
0.0
  0
POINT
  5
365
330
1BE
100
AcDbEntity
  8
Defpoints
 62
     0
440
 16777216
100
AcDbPoint
 10
15.090833
 20
6.287395
 30
0.0
  0
POINT
  5
366
330
1BE
100
AcDbEntity
  8
Defpoints
 62
     0
440
 16777216
100
AcDbPoint
 10
15.090833
 20
7.789679
 30
0.0
  0
ENDBLK
  5
1C0
330
1BE
100
AcDbEntity
  8
0
100
AcDbBlockEnd
  0
BLOCK
  5
1CC
330
1CB
100
AcDbEntity
  8
0
100
AcDbBlockBegin
  2
*D15
 70
     1
 10
0.0
 20
0.0
 30
0.0
  3
*D15
  1

  0
LINE
  5
367
330
1CB
100
AcDbEntity
  8
Dimensions
440
 16777216
370
    -2
100
AcDbLine
 10
10.953844
 20
7.763542
 30
0.0
 11
11.073183
 21
7.776116
 31
0.0
  0
MTEXT
  5
368
330
1CB
100
AcDbEntity
  8
Dimensions
440
 16777216
100
AcDbMText
 10
10.656054
 20
7.763542
 30
0.0
 40
0.12
 41
0.0
 46
0.0
 71
     5
 72
     1
  1
\A1;∅1.9in
 73
     1
 44
1.0
  0
SOLID
  5
369
330
1CB
100
AcDbEntity
  8
Dimensions
440
 16777216
100
AcDbTrace
 10
11.071088
 20
7.796006
 30
0.0
 11
11.075279
 21
7.756226
 31
0.0
 12
11.192523
 22
7.788689
 32
0.0
 13
11.192523
 23
7.788689
 33
0.0
  0
ARC
  5
36A
330
1CB
100
AcDbEntity
  8
Dimensions
440
 16777216
370
    -2
100
AcDbCircle
 10
12.138077
 20
7.888313
 30
0.0
 40
0.9507874015759938
100
AcDbArc
 50
179.98835
 51
235.815639
  0
POINT
  5
36B
330
1CB
100
AcDbEntity
  8
Defpoints
 62
     0
440
 16777216
100
AcDbPoint
 10
11.192523
 20
7.788689
 30
0.0
  0
POINT
  5
36C
330
1CB
100
AcDbEntity
  8
Defpoints
 62
     0
440
 16777216
100
AcDbPoint
 10
13.08363
 20
7.987936
 30
0.0
  0
ENDBLK
  5
1CD
330
1CB
100
AcDbEntity
  8
0
100
AcDbBlockEnd
  0
BLOCK
  5
1D5
330
1D4
100
AcDbEntity
  8
0
100
AcDbBlockBegin
  2
*D16
 70
     1
 10
0.0
 20
0.0
 30
0.0
  3
*D16
  1

  0
LINE
  5
36D
330
1D4
100
AcDbEntity
  8
Dimensions
440
 16777216
370
    -2
100
AcDbLine
 10
9.829528
 20
6.937526
 30
0.0
 11
10.55835
 21
6.937526
 31
0.0
  0
LINE
  5
36E
330
1D4
100
AcDbEntity
  8
Dimensions
440
 16777216
370
    -2
100
AcDbLine
 10
8.55
 20
4.830702
 30
0.0
 11
10.55835
 21
4.830702
 31
0.0
  0
LINE
  5
36F
330
1D4
100
AcDbEntity
  8
Dimensions
440
 16777216
370
    -2
100
AcDbLine
 10
10.45835
 20
6.817526
 30
0.0
 11
10.45835
 21
6.004359
 31
0.0
  0
LINE
  5
370
330
1D4
100
AcDbEntity
  8
Dimensions
440
 16777216
370
    -2
100
AcDbLine
 10
10.45835
 20
4.950702
 30
0.0
 11
10.45835
 21
5.763868
 31
0.0
  0
SOLID
  5
371
330
1D4
100
AcDbEntity
  8
Dimensions
440
 16777216
100
AcDbTrace
 10
10.43835
 20
6.817526
 30
0.0
 11
10.47835
 21
6.817526
 31
0.0
 12
10.45835
 22
6.937526
 32
0.0
 13
10.45835
 23
6.937526
 33
0.0
  0
SOLID
  5
372
330
1D4
100
AcDbEntity
  8
Dimensions
440
 16777216
100
AcDbTrace
 10
10.43835
 20
4.950702
 30
0.0
 11
10.47835
 21
4.950702
 31
0.0
 12
10.45835
 22
4.830702
 32
0.0
 13
10.45835
 23
4.830702
 33
0.0
  0
MTEXT
  5
373
330
1D4
100
AcDbEntity
  8
Dimensions
440
 16777216
100
AcDbMText
 10
10.45835
 20
5.884114
 30
0.0
 40
0.12
 41
0.0
 46
0.0
 71
     5
 72
     1
  1
\A1;2.11in
 73
     1
 44
1.0
  0
POINT
  5
374
330
1D4
100
AcDbEntity
  8
Defpoints
 62
     0
440
 16777216
100
AcDbPoint
 10
9.779528
 20
6.937526
 30
0.0
  0
POINT
  5
375
330
1D4
100
AcDbEntity
  8
Defpoints
 62
     0
440
 16777216
100
AcDbPoint
 10
8.5
 20
4.830702
 30
0.0
  0
POINT
  5
376
330
1D4
100
AcDbEntity
  8
Defpoints
 62
     0
440
 16777216
100
AcDbPoint
 10
10.45835
 20
4.830702
 30
0.0
  0
ENDBLK
  5
1D6
330
1D4
100
AcDbEntity
  8
0
100
AcDbBlockEnd
  0
BLOCK
  5
1E2
330
1E1
100
AcDbEntity
  8
0
100
AcDbBlockBegin
  2
*D17
 70
     1
 10
0.0
 20
0.0
 30
0.0
  3
*D17
  1

  0
LINE
  5
377
330
1E1
100
AcDbEntity
  8
Dimensions
440
 16777216
370
    -2
100
AcDbLine
 10
7.220472
 20
6.987526
 30
0.0
 11
7.220472
 21
7.597119
 31
0.0
  0
LINE
  5
378
330
1E1
100
AcDbEntity
  8
Dimensions
440
 16777216
370
    -2
100
AcDbLine
 10
9.779528
 20
6.987526
 30
0.0
 11
9.779528
 21
7.597119
 31
0.0
  0
LINE
  5
379
330
1E1
100
AcDbEntity
  8
Dimensions
440
 16777216
370
    -2
100
AcDbLine
 10
7.340472
 20
7.497119
 30
0.0
 11
8.21985
 21
7.497119
 31
0.0
  0
LINE
  5
37A
330
1E1
100
AcDbEntity
  8
Dimensions
440
 16777216
370
    -2
100
AcDbLine
 10
9.659528
 20
7.497119
 30
0.0
 11
8.78015
 21
7.497119
 31
0.0
  0
SOLID
  5
37B
330
1E1
100
AcDbEntity
  8
Dimensions
440
 16777216
100
AcDbTrace
 10
7.340472
 20
7.517119
 30
0.0
 11
7.340472
 21
7.477119
 31
0.0
 12
7.220472
 22
7.497119
 32
0.0
 13
7.220472
 23
7.497119
 33
0.0
  0
SOLID
  5
37C
330
1E1
100
AcDbEntity
  8
Dimensions
440
 16777216
100
AcDbTrace
 10
9.659528
 20
7.517119
 30
0.0
 11
9.659528
 21
7.477119
 31
0.0
 12
9.779528
 22
7.497119
 32
0.0
 13
9.779528
 23
7.497119
 33
0.0
  0
MTEXT
  5
37D
330
1E1
100
AcDbEntity
  8
Dimensions
440
 16777216
100
AcDbMText
 10
8.5
 20
7.497119
 30
0.0
 40
0.12
 41
0.0
 46
0.0
 71
     5
 72
     1
  1
\A1;2.56in
 73
     1
 44
1.0
  0
POINT
  5
37E
330
1E1
100
AcDbEntity
  8
Defpoints
 62
     0
440
 16777216
100
AcDbPoint
 10
7.220472
 20
6.937526
 30
0.0
  0
POINT
  5
37F
330
1E1
100
AcDbEntity
  8
Defpoints
 62
     0
440
 16777216
100
AcDbPoint
 10
9.779528
 20
6.937526
 30
0.0
  0
POINT
  5
380
330
1E1
100
AcDbEntity
  8
Defpoints
 62
     0
440
 16777216
100
AcDbPoint
 10
9.779528
 20
7.497119
 30
0.0
  0
ENDBLK
  5
1E3
330
1E1
100
AcDbEntity
  8
0
100
AcDbBlockEnd
  0
BLOCK
  5
1EF
330
1EE
100
AcDbEntity
  8
0
100
AcDbBlockBegin
  2
*D18
 70
     1
 10
0.0
 20
0.0
 30
0.0
  3
*D18
  1

  0
LINE
  5
381
330
1EE
100
AcDbEntity
  8
Dimensions
440
 16777216
370
    -2
100
AcDbLine
 10
8.224409
 20
5.746844
 30
0.0
 11
8.224409
 21
5.796844
 31
0.0
  0
LINE
  5
382
330
1EE
100
AcDbEntity
  8
Dimensions
440
 16777216
370
    -2
100
AcDbLine
 10
8.775591
 20
5.746844
 30
0.0
 11
8.775591
 21
5.796844
 31
0.0
  0
LINE
  5
383
330
1EE
100
AcDbEntity
  8
Dimensions
440
 16777216
370
    -2
100
AcDbLine
 10
8.104409
 20
5.696844
 30
0.0
 11
7.984409
 21
5.696844
 31
0.0
  0
LINE
  5
384
330
1EE
100
AcDbEntity
  8
Dimensions
440
 16777216
370
    -2
100
AcDbLine
 10
8.895591
 20
5.696844
 30
0.0
 11
9.015591
 21
5.696844
 31
0.0
  0
SOLID
  5
385
330
1EE
100
AcDbEntity
  8
Dimensions
440
 16777216
100
AcDbTrace
 10
8.104409
 20
5.716844
 30
0.0
 11
8.104409
 21
5.676844
 31
0.0
 12
8.224409
 22
5.696844
 32
0.0
 13
8.224409
 23
5.696844
 33
0.0
  0
SOLID
  5
386
330
1EE
100
AcDbEntity
  8
Dimensions
440
 16777216
100
AcDbTrace
 10
8.895591
 20
5.716844
 30
0.0
 11
8.895591
 21
5.676844
 31
0.0
 12
8.775591
 22
5.696844
 32
0.0
 13
8.775591
 23
5.696844
 33
0.0
  0
MTEXT
  5
387
330
1EE
100
AcDbEntity
  8
Dimensions
440
 16777216
100
AcDbMText
 10
8.5
 20
5.696844
 30
0.0
 40
0.12
 41
0.0
 46
0.0
 71
     5
 72
     1
  1
\A1;.55in
 73
     1
 44
1.0
  0
POINT
  5
388
330
1EE
100
AcDbEntity
  8
Defpoints
 62
     0
440
 16777216
100
AcDbPoint
 10
8.224409
 20
5.696844
 30
0.0
  0
POINT
  5
389
330
1EE
100
AcDbEntity
  8
Defpoints
 62
     0
440
 16777216
100
AcDbPoint
 10
8.775591
 20
5.696844
 30
0.0
  0
POINT
  5
38A
330
1EE
100
AcDbEntity
  8
Defpoints
 62
     0
440
 16777216
100
AcDbPoint
 10
8.775591
 20
5.696844
 30
0.0
  0
ENDBLK
  5
1F0
330
1EE
100
AcDbEntity
  8
0
100
AcDbBlockEnd
  0
BLOCK
  5
1FC
330
1FB
100
AcDbEntity
  8
0
100
AcDbBlockBegin
  2
*D19
 70
     1
 10
0.0
 20
0.0
 30
0.0
  3
*D19
  1

  0
LINE
  5
38B
330
1FB
100
AcDbEntity
  8
Dimensions
440
 16777216
370
    -2
100
AcDbLine
 10
9.466416
 20
6.298169
 30
0.0
 11
9.346416
 21
6.298169
 31
0.0
  0
LINE
  5
38C
330
1FB
100
AcDbEntity
  8
Dimensions
440
 16777216
370
    -2
100
AcDbLine
 10
9.346416
 20
6.298169
 30
0.0
 11
9.253346
 21
6.167112
 31
0.0
  0
MTEXT
  5
38D
330
1FB
100
AcDbEntity
  8
Dimensions
440
 16777216
100
AcDbMText
 10
9.810823
 20
6.298169
 30
0.0
 40
0.12
 41
0.0
 46
0.0
 71
     5
 72
     1
  1
\A1;∅2.36in
 73
     1
 44
1.0
  0
SOLID
  5
38E
330
1FB
100
AcDbEntity
  8
Dimensions
440
 16777216
100
AcDbTrace
 10
9.237039
 20
6.178692
 30
0.0
 11
9.269652
 21
6.155532
 31
0.0
 12
9.183865
 22
6.069273
 32
0.0
 13
9.183865
 23
6.069273
 33
0.0
  0
POINT
  5
38F
330
1FB
100
AcDbEntity
  8
Defpoints
 62
     0
440
 16777216
100
AcDbPoint
 10
9.183865
 20
6.069273
 30
0.0
  0
POINT
  5
390
330
1FB
100
AcDbEntity
  8
Defpoints
 62
     0
440
 16777216
100
AcDbPoint
 10
7.816135
 20
4.143312
 30
0.0
  0
ENDBLK
  5
1FD
330
1FB
100
AcDbEntity
  8
0
100
AcDbBlockEnd
  0
ENDSEC
  0
SECTION
  2
ENTITIES
  0
INSERT
  5
10F
330
70
100
AcDbEntity
  8
Titleblock
100
AcDbBlockReference
 66
     1
  2
Shower
 10
16.38
 20
0.38
 30
0.0
  0
ATTRIB
  5
12F
330
10F
100
AcDbEntity
  8
Titleblock
  6
Continuous
370
    25
100
AcDbText
 10
12.6925
 20
2.6925
 30
0.0
 40
0.12
  1
Railing Products and Mock Ups
100
AcDbAttribute
280
     0
  2
PROJECT
 70
     0
280
     1
1001
FD_ATT_APPNAME
1005
11D
  0
ATTRIB
  5
130
330
10F
100
AcDbEntity
  8
Titleblock
  6
Continuous
370
    25
100
AcDbText
 10
14.6925
 20
1.0675
 30
0.0
 40
0.12
  1
2/11/2020
100
AcDbAttribute
280
     0
  2
DRAWN_DATE
 70
     0
280
     1
1001
FD_ATT_APPNAME
1005
11F
  0
ATTRIB
  5
131
330
10F
100
AcDbEntity
  8
Titleblock
  6
Continuous
370
    25
100
AcDbText
 10
12.0675
 20
2.1925
 30
0.0
 40
0.3048
  1
R13-0111-048-12
100
AcDbAttribute
280
     0
  2
TITLE_1
 70
     0
280
     1
1001
FD_ATT_APPNAME
1005
120
  0
ATTRIB
  5
132
330
10F
100
AcDbEntity
  8
Titleblock
  6
Continuous
370
    25
100
AcDbText
 10
14.6925
 20
1.29994
 30
0.0
 40
0.12
  1
1:1
100
AcDbAttribute
280
     0
  2
SCALE
 70
     0
280
     1
1001
FD_ATT_APPNAME
1005
121
  0
SEQEND
  5
133
330
10F
100
AcDbEntity
  8
Titleblock
  0
INSERT
  5
134
330
70
100
AcDbEntity
  8
Border
100
AcDbBlockReference
  2
ANSI_B_SHEET
 10
0.0
 20
0.0
 30
0.0
  0
DIMENSION
  5
155
330
70
100
AcDbEntity
  8
Dimensions
100
AcDbDimension
280
     0
  2
*D13
 10
14.893982
 20
6.626806
 30
0.0
 11
14.472222
 21
6.626806
 31
0.0
 70
    32
 71
     5
 42
0.19685
 73
     0
 74
     0
 75
     0
  3
Standard
100
AcDbAlignedDimension
 13
15.090833
 23
6.287395
 33
0.0
 14
14.893982
 24
6.248025
 34
0.0
100
AcDbRotatedDimension
1001
ACAD_DIMASSOC_CALC_DIMLFAC
1040
-1.0
1001
ACAD_DIMASSOC_DIMLFAC
1040
-1.0
1001
ACAD_DIMASSOC_OVERRIDDEN_DIMLFAC
1040
0.0
1001
ACAD
1000
DSTYLE
1002
{
1070
   144
1040
1.0
1070
   176
1070
   256
1070
   177
1070
   256
1002
}
  0
DIMENSION
  5
164
330
70
100
AcDbEntity
  8
Dimensions
100
AcDbDimension
280
     0
  2
*D14
 10
15.090833
 20
7.789679
 30
0.0
 11
13.614455
 21
7.789679
 31
0.0
 70
   160
 71
     5
 42
2.952756
 73
     0
 74
     0
 75
     0
  3
Standard
100
AcDbAlignedDimension
 13
12.138077
 23
6.937526
 33
0.0
 14
15.090833
 24
6.287395
 34
0.0
100
AcDbRotatedDimension
1001
ACAD_DIMASSOC_CALC_DIMLFAC
1040
-1.0
1001
ACAD_DIMASSOC_DIMLFAC
1040
-1.0
1001
ACAD_DIMASSOC_OVERRIDDEN_DIMLFAC
1040
0.0
1001
ACAD
1000
DSTYLE
1002
{
1070
   144
1040
1.0
1002
}
  0
DIMENSION
  5
172
330
70
100
AcDbEntity
  8
Dimensions
100
AcDbDimension
280
     0
  2
*D15
 10
13.08363
 20
7.987936
 30
0.0
 11
10.656054
 21
7.763542
 31
0.0
 70
    35
 71
     5
 42
1.901575
 73
     0
 74
     0
 75
     0
  3
Standard
100
AcDbDiametricDimension
 15
11.192523
 25
7.788689
 35
0.0
 40
0.0
1001
ACAD_DIMASSOC_CALC_DIMLFAC
1040
-1.0
1001
ACAD_DIMASSOC_DIMLFAC
1040
-1.0
1001
ACAD_DIMASSOC_OVERRIDDEN_DIMLFAC
1040
0.0
1001
ACAD_DSTYLE_DIMRADIAL_EXTENSION
1070
   387
1070
     1
1070
   388
1040
4.168347
1070
   390
1040
4.712389
1001
ACAD
1000
DSTYLE
1002
{
1070
   144
1040
1.0
1070
   288
1070
     1
1002
}
  0
DIMENSION
  5
17C
330
70
100
AcDbEntity
  8
Dimensions
100
AcDbDimension
280
     0
  2
*D16
 10
10.45835
 20
4.830702
 30
0.0
 11
10.45835
 21
5.884114
 31
0.0
 70
    32
 71
     5
 42
2.106823
 73
     0
 74
     0
 75
     0
  3
Standard
100
AcDbAlignedDimension
 13
9.779528
 23
6.937526
 33
0.0
 14
8.5
 24
4.830702
 34
0.0
 50
90.0
100
AcDbRotatedDimension
1001
ACAD_DIMASSOC_CALC_DIMLFAC
1040
-1.0
1001
ACAD_DIMASSOC_DIMLFAC
1040
-1.0
1001
ACAD_DIMASSOC_OVERRIDDEN_DIMLFAC
1040
0.0
1001
ACAD
1000
DSTYLE
1002
{
1070
   177
1070
   256
1070
   176
1070
   256
1070
   144
1040
1.0
1002
}
  0
DIMENSION
  5
18A
330
70
100
AcDbEntity
  8
Dimensions
100
AcDbDimension
280
     0
  2
*D17
 10
9.779528
 20
7.497119
 30
0.0
 11
8.5
 21
7.497119
 31
0.0
 70
    32
 71
     5
 42
2.559055
 73
     0
 74
     0
 75
     0
  3
Standard
100
AcDbAlignedDimension
 13
7.220472
 23
6.937526
 33
0.0
 14
9.779528
 24
6.937526
 34
0.0
100
AcDbRotatedDimension
1001
ACAD_DIMASSOC_CALC_DIMLFAC
1040
-1.0
1001
ACAD_DIMASSOC_DIMLFAC
1040
-1.0
1001
ACAD_DIMASSOC_OVERRIDDEN_DIMLFAC
1040
0.0
1001
ACAD
1000
DSTYLE
1002
{
1070
   177
1070
   256
1070
   176
1070
   256
1070
   144
1040
1.0
1002
}
  0
DIMENSION
  5
198
330
70
100
AcDbEntity
  8
Dimensions
100
AcDbDimension
280
     0
  2
*D18
 10
8.775591
 20
5.696844
 30
0.0
 11
8.5
 21
5.696844
 31
0.0
 70
    32
 71
     5
 42
0.551181
 73
     0
 74
     0
 75
     0
  3
Standard
100
AcDbAlignedDimension
 13
8.224409
 23
5.696844
 33
0.0
 14
8.775591
 24
5.696844
 34
0.0
100
AcDbRotatedDimension
1001
ACAD_DIMASSOC_CALC_DIMLFAC
1040
-1.0
1001
ACAD_DIMASSOC_DIMLFAC
1040
-1.0
1001
ACAD_DIMASSOC_OVERRIDDEN_DIMLFAC
1040
0.0
1001
ACAD
1000
DSTYLE
1002
{
1070
   177
1070
   256
1070
   176
1070
   256
1070
   144
1040
1.0
1002
}
  0
DIMENSION
  5
1A6
330
70
100
AcDbEntity
  8
Dimensions
100
AcDbDimension
280
     0
  2
*D19
 10
7.816135
 20
4.143312
 30
0.0
 11
9.810823
 21
6.298169
 31
0.0
 70
   163
 71
     5
 42
2.362205
 73
     0
 74
     0
 75
     0
  3
Standard
100
AcDbDiametricDimension
 15
9.183865
 25
6.069273
 35
0.0
 40
0.0
1001
ACAD_DIMASSOC_CALC_DIMLFAC
1040
-1.0
1001
ACAD_DIMASSOC_DIMLFAC
1040
-1.0
1001
ACAD_DIMASSOC_OVERRIDDEN_DIMLFAC
1040
0.0
1001
ACAD_DSTYLE_DIMRADIAL_EXTENSION
1070
   387
1070
     1
1070
   388
1040
0.0
1070
   390
1040
0.0
1001
ACAD
1000
DSTYLE
1002
{
1070
   144
1040
1.0
1070
   176
1070
   256
1070
   177
1070
   256
1002
}
  0
ARC
  5
2BF
330
70
100
AcDbEntity
  8
Visible
100
AcDbCircle
 10
8.5
 20
5.106293
 30
0.639755
 40
0.2755905511810979
100
AcDbArc
 50
180.0
 51
0.0
  0
SPLINE
  5
2C0
330
70
100
AcDbEntity
  8
Visible
100
AcDbSpline
 70
     0
 71
     3
 72
    22
 73
    18
 74
     0
 42
0.000000001
 43
0.0000000001
 40
0.0
 40
0.0
 40
0.0
 40
0.0
 40
1.325521305173905
 40
1.325521305173905
 40
2.65104261034781
 40
2.65104261034781
 40
3.976563915521716
 40
3.976563915521716
 40
5.302085220695621
 40
5.302085220695621
 40
6.627360719724135
 40
6.627360719724135
 40
7.952636218752649
 40
7.952636218752649
 40
9.277911717781163
 40
9.277911717781163
 40
10.60318721680967
 40
10.60318721680967
 40
10.60318721687926
 40
10.60318721687926
 10
8.499999999998181
 20
6.896356861183753
 30
1.505896642103834
 10
8.517395292716173
 20
6.896356861183753
 30
1.505896642103834
 10
8.535355825517399
 20
6.89588677128893
 30
1.504223112635372
 10
8.571027015213985
 20
6.893976727822046
 30
1.497206320042096
 10
8.588738119304252
 20
6.89253843533955
 30
1.491864878365959
 10
8.622660707675095
 20
6.888944113044842
 30
1.477776913177876
 10
8.638900833610023
 20
6.88678889238857
 30
1.469019200749244
 10
8.668912795272262
 20
6.882187446417608
 30
1.448814347035295
 10
8.682684318171595
 20
6.87974593478497
 30
1.437365667890844
 10
8.707057316880309
 20
6.875047609740269
 30
1.412992669182131
 10
8.718505736351289
 20
6.872623667527494
 30
1.399222204050602
 10
8.73871159216469
 20
6.868085923247926
 30
1.369209603713898
 10
8.747470462823912
 20
6.865976433911475
 30
1.352967782266205
 10
8.761559716136616
 20
6.862474850306888
 30
1.319041855818795
 10
8.766901290980968
 20
6.861082826407507
 30
1.301329160800378
 10
8.773917601129141
 20
6.859237500885634
 30
1.265657517678846
 10
8.775590551178538
 20
6.85878537119303
 30
1.247698157838385
 10
8.775590551178538
 20
6.85878537119303
 30
1.230306090921658
1001
ACAD_VIEW_EDGE_ID
1071
        3
1071
       -1
1071
        2
1071
        0
  0
SPLINE
  5
2C1
330
70
100
AcDbEntity
  8
Visible
100
AcDbSpline
 70
     0
 71
     3
 72
    22
 73
    18
 74
     0
 42
0.000000001
 43
0.0000000001
 40
31.80956165042911
 40
31.80956165042911
 40
31.80956165078471
 40
31.80956165078471
 40
33.13483714945761
 40
33.13483714945761
 40
34.46011264848612
 40
34.46011264848612
 40
35.78538814751463
 40
35.78538814751463
 40
37.11066364654313
 40
37.11066364654313
 40
38.43618495171703
 40
38.43618495171703
 40
39.76170625689093
 40
39.76170625689093
 40
41.08722756206483
 40
41.08722756206483
 40
42.41274886723873
 40
42.41274886723873
 40
42.41274886723873
 40
42.41274886723873
 10
8.224409448817823
 20
6.85878537119303
 30
1.230306090930753
 10
8.224409448817823
 20
6.858785371193272
 30
1.24769815784748
 10
8.22608239886722
 20
6.859237500885882
 30
1.265657517682484
 10
8.233098709015393
 20
6.861082826407507
 30
1.301329160800378
 10
8.238440283859745
 20
6.862474850306888
 30
1.319041855818795
 10
8.252529537172449
 20
6.865976433911475
 30
1.352967782266205
 10
8.261288407831671
 20
6.868085923247926
 30
1.369209603713898
 10
8.281494263645072
 20
6.872623667527494
 30
1.399222204050602
 10
8.292942683116052
 20
6.875047609740269
 30
1.412992669182131
 10
8.317315681824766
 20
6.87974593478497
 30
1.437365667890844
 10
8.331087204724099
 20
6.882187446417608
 30
1.448814347035295
 10
8.361099166386338
 20
6.88678889238857
 30
1.469019200749244
 10
8.377339292321266
 20
6.888944113044842
 30
1.477776913177876
 10
8.411261880692109
 20
6.892538435339548
 30
1.491864878365959
 10
8.428972984782376
 20
6.893976727822046
 30
1.497206320042096
 10
8.464644174478962
 20
6.89588677128893
 30
1.504223112635372
 10
8.482604707280188
 20
6.896356861183753
 30
1.505896642103834
 10
8.499999999998181
 20
6.896356861183753
 30
1.505896642103834
1001
ACAD_VIEW_EDGE_ID
1071
        3
1071
       -1
1071
        2
1071
        0
  0
SPLINE
  5
2C2
330
70
100
AcDbEntity
  8
Visible
100
AcDbSpline
 70
     0
 71
     3
 72
    22
 73
    18
 74
     0
 42
0.000000001
 43
0.0000000001
 40
-19.25172365735405
 40
-19.25172365735405
 40
-19.25172365735405
 40
-19.25172365735405
 40
-16.84910956985001
 40
-16.84910956985001
 40
-14.44649548234598
 40
-14.44649548234598
 40
-12.04388139484194
 40
-12.04388139484194
 40
-9.641267307337912
 40
-9.641267307337912
 40
-7.230950480503437
 40
-7.230950480503437
 40
-4.820633653668963
 40
-4.820633653668963
 40
-2.410316826834488
 40
-2.410316826834488
 40
0.0
 40
0.0
 40
0.0
 40
0.0
 10
7.220472440943922
 20
6.937525528673345
 30
1.230306090921658
 10
7.220472440943922
 20
6.937525528673345
 30
1.261836459523692
 10
7.223551661223609
 20
6.939131516211027
 30
1.294257045568883
 10
7.236305907927089
 20
6.945639507789684
 30
1.358375993480876
 10
7.245976487834923
 20
6.950537580181226
 30
1.390075638744747
 10
7.271286549952492
 20
6.962871008352525
 30
1.450547239572188
 10
7.28694628584526
 20
6.970309332021069
 30
1.479377494759319
 10
7.322867925249738
 20
6.98640344183329
 30
1.532508746917301
 10
7.343132602974947
 20
6.995047203057498
 30
1.556811510026818
 10
7.386161871245349
 20
7.011969969728667
 30
1.59984077829722
 10
7.410498991308486
 20
7.020879947099953
 30
1.620115526835434
 10
7.463616946628462
 20
7.037920262598152
 30
1.656009846461529
 10
7.492399164333619
 20
7.046034854403784
 30
1.671634845137305
 10
7.552769413034184
 20
7.059765975526056
 30
1.696903792542798
 10
7.584416770840107
 20
7.065375350974949
 30
1.706567906585405
 10
7.648514219450589
 20
7.07289738658677
 30
1.71933478932442
 10
7.680966970774534
 20
7.074796674345785
 30
1.722432075173855
 10
7.7125984251943
 20
7.074796674345785
 30
1.722432075173855
1001
ACAD_VIEW_EDGE_ID
1071
        8
1071
       -1
1071
        2
1071
        0
  0
SPLINE
  5
2C3
330
70
100
AcDbEntity
  8
Visible
100
AcDbSpline
 70
     0
 71
     3
 72
    22
 73
    18
 74
     0
 42
0.000000001
 43
0.0000000001
 40
0.0
 40
0.0
 40
0.0
 40
0.0
 40
2.400397080865061
 40
2.400397080865061
 40
4.800794161730122
 40
4.800794161730122
 40
7.201191242595183
 40
7.201191242595183
 40
9.601588323460244
 40
9.601588323460244
 40
11.99665036820567
 40
11.99665036820567
 40
14.3917124129511
 40
14.3917124129511
 40
16.78677445769653
 40
16.78677445769653
 40
19.18183650244196
 40
19.18183650244196
 40
19.18183650244196
 40
19.18183650244196
 10
7.7125984251943
 20
6.984023700809899
 30
1.722432075173855
 10
7.681097151167705
 20
6.984023700809899
 30
1.722432075173855
 10
7.648727099727693
 20
6.982329803393962
 30
1.719359647177043
 10
7.584710846083908
 20
6.975580158618715
 30
1.706643885374433
 10
7.55306255333744
 20
6.970534891716721
 30
1.697005515796263
 10
7.492640382672107
 20
6.958126771895386
 30
1.671756602154346
 10
7.463808786005756
 20
6.950769682959512
 30
1.656125992822126
 10
7.410590300039984
 20
6.935265206671375
 30
1.620190645488037
 10
7.386202273888557
 20
6.927132680363018
 30
1.599881180942247
 10
7.343071319151931
 20
6.911642509925522
 30
1.556750226205622
 10
7.322768528318192
 20
6.903712610294535
 30
1.532385798722316
 10
7.286813617753068
 20
6.88893154972888
 30
1.479157042645965
 10
7.27115869103909
 20
6.882092038801383
 30
1.450291375709639
 10
7.245881434651892
 20
6.870749080540518
 30
1.38979847462906
 10
7.236238942687123
 20
6.866243483628494
 30
1.358114351995027
 10
7.223532337542565
 20
6.860259801646731
 30
1.29408437944221
 10
7.220472440943922
 20
6.85878537119303
 30
1.261737351351257
 10
7.220472440943922
 20
6.85878537119303
 30
1.230306090921658
1001
ACAD_VIEW_EDGE_ID
1071
       11
1071
       -1
1071
        2
1071
        0
  0
LINE
  5
2C4
330
70
100
AcDbEntity
  8
Visible
100
AcDbLine
 10
7.712598
 20
7.074797
 30
1.722432
 11
9.287402
 21
7.074797
 31
1.722432
210
0.0
220
1.0
230
0.0
  0
LINE
  5
2C5
330
70
100
AcDbEntity
  8
Visible
100
AcDbLine
 10
9.287402
 20
6.984024
 30
1.722432
 11
7.712598
 21
6.984024
 31
1.722432
210
0.0
220
1.0
230
0.0
  0
SPLINE
  5
2C6
330
70
100
AcDbEntity
  8
Visible
100
AcDbSpline
 70
     0
 71
     3
 72
    22
 73
    18
 74
     0
 42
0.000000001
 43
0.0000000001
 40
0.0
 40
0.0
 40
0.0
 40
0.0
 40
2.410316826834503
 40
2.410316826834503
 40
4.820633653669006
 40
4.820633653669006
 40
7.23095048050351
 40
7.23095048050351
 40
9.641267307338013
 40
9.641267307338013
 40
12.04388139484204
 40
12.04388139484204
 40
14.44649548234607
 40
14.44649548234607
 40
16.8491095698501
 40
16.8491095698501
 40
19.25172365735413
 40
19.25172365735413
 40
19.25172365735413
 40
19.25172365735413
 10
9.287401574802061
 20
7.074796674345785
 30
1.722432075173855
 10
9.319033029221827
 20
7.074796674345785
 30
1.722432075173855
 10
9.351485780545772
 20
7.07289738658677
 30
1.71933478932442
 10
9.415583229156254
 20
7.065375350974949
 30
1.706567906585405
 10
9.447230586962177
 20
7.059765975526056
 30
1.696903792542798
 10
9.507600835662742
 20
7.046034854403784
 30
1.671634845137305
 10
9.536383053367899
 20
7.037920262598152
 30
1.656009846461529
 10
9.589501008687875
 20
7.020879947099953
 30
1.620115526835434
 10
9.613838128751012
 20
7.011969969728667
 30
1.59984077829722
 10
9.656867397021414
 20
6.995047203057497
 30
1.556811510026818
 10
9.677132074746623
 20
6.986403441833289
 30
1.532508746917301
 10
9.713053714149282
 20
6.970309332021068
 30
1.479377494759319
 10
9.728713450043869
 20
6.962871008352525
 30
1.450547239572188
 10
9.754023512161438
 20
6.950537580181226
 30
1.390075638744747
 10
9.763694092069272
 20
6.945639507789683
 30
1.358375993480876
 10
9.776448338772752
 20
6.939131516211027
 30
1.294257045568883
 10
9.779527559052439
 20
6.937525528673345
 30
1.261836459523692
 10
9.779527559052439
 20
6.937525528673345
 30
1.230306090921658
1001
ACAD_VIEW_EDGE_ID
1071
       17
1071
       -1
1071
        2
1071
        0
  0
SPLINE
  5
2C7
330
70
100
AcDbEntity
  8
Visible
100
AcDbSpline
 70
     0
 71
     3
 72
    22
 73
    18
 74
     0
 42
0.000000001
 43
0.0000000001
 40
-19.18183650244169
 40
-19.18183650244169
 40
-19.18183650244169
 40
-19.18183650244169
 40
-16.78677445769625
 40
-16.78677445769625
 40
-14.39171241295081
 40
-14.39171241295081
 40
-11.99665036820536
 40
-11.99665036820536
 40
-9.601588323459921
 40
-9.601588323459921
 40
-7.201191242594944
 40
-7.201191242594944
 40
-4.800794161729967
 40
-4.800794161729967
 40
-2.400397080864976
 40
-2.400397080864976
 40
0.0
 40
0.0
 40
0.0
 40
0.0
 10
9.779527559052439
 20
6.85878537119303
 30
1.230306090921658
 10
9.779527559052439
 20
6.85878537119303
 30
1.261737351351257
 10
9.776467662453796
 20
6.860259801646732
 30
1.29408437944221
 10
9.763761057309238
 20
6.866243483628496
 30
1.358114351995027
 10
9.754118565344469
 20
6.870749080540519
 30
1.38979847462906
 10
9.728841308957271
 20
6.882092038801384
 30
1.450291375709639
 10
9.713186382243293
 20
6.888931549728883
 30
1.479157042645965
 10
9.677231471678169
 20
6.903712610294538
 30
1.532385798722316
 10
9.65692868084443
 20
6.911642509925526
 30
1.556750226205622
 10
9.613797726107804
 20
6.927132680363021
 30
1.599881180942247
 10
9.589409699956377
 20
6.935265206671378
 30
1.620190645488037
 10
9.536191213990605
 20
6.950769682959514
 30
1.656125992822126
 10
9.507359617324254
 20
6.958126771895389
 30
1.671756602154346
 10
9.446937446658921
 20
6.970534891716722
 30
1.697005515796263
 10
9.415289153912453
 20
6.975580158618715
 30
1.706643885374433
 10
9.351272900268668
 20
6.982329803393962
 30
1.719359647177043
 10
9.318902848828656
 20
6.984023700809899
 30
1.722432075173855
 10
9.287401574802061
 20
6.984023700809899
 30
1.722432075173855
1001
ACAD_VIEW_EDGE_ID
1071
       18
1071
       -1
1071
        2
1071
        0
  0
ARC
  5
2C8
330
70
100
AcDbEntity
  8
Visible
100
AcDbCircle
 10
5.696844
 20
0.639755
 30
8.775591
 40
0.5905511811023623
210
1.0
220
0.0
230
0.0000000000000001
100
AcDbArc
 50
90.0
 51
180.0
  0
ARC
  5
2C9
330
70
100
AcDbEntity
  8
Visible
100
AcDbCircle
 10
-5.696844
 20
0.639755
 30
-8.224409
 40
0.5905511811023623
210
-1.0
220
0.0
230
-0.0000000000000001
100
AcDbArc
 50
0.0
 51
90.0
  0
LINE
  5
2CA
330
70
100
AcDbEntity
  8
Visible
100
AcDbLine
 10
8.224409
 20
5.696844
 30
1.230306
 11
8.224409
 21
6.858785
 31
1.230306
210
0.0
220
1.0
230
0.0
  0
LINE
  5
2CB
330
70
100
AcDbEntity
  8
Visible
100
AcDbLine
 10
8.775591
 20
5.696844
 30
1.230306
 11
8.775591
 21
6.858785
 31
1.230306
210
0.0
220
1.0
230
0.0
  0
LINE
  5
2CC
330
70
100
AcDbEntity
  8
Visible
100
AcDbLine
 10
7.220472
 20
6.858785
 30
1.230306
 11
7.220472
 21
6.937526
 31
1.230306
210
0.0
220
1.0
230
0.0
  0
LINE
  5
2CD
330
70
100
AcDbEntity
  8
Visible
100
AcDbLine
 10
9.779528
 20
6.858785
 30
1.230306
 11
9.779528
 21
6.937526
 31
1.230306
210
0.0
220
1.0
230
0.0
  0
LINE
  5
2CE
330
70
100
AcDbEntity
  8
Visible
100
AcDbLine
 10
7.220472
 20
6.858785
 30
1.230306
 11
8.224409
 21
6.858785
 31
1.230306
210
0.0
220
1.0
230
0.0
  0
LINE
  5
2CF
330
70
100
AcDbEntity
  8
Visible
100
AcDbLine
 10
8.775591
 20
6.858785
 30
1.230306
 11
9.779528
 21
6.858785
 31
1.230306
210
0.0
220
1.0
230
0.0
  0
ARC
  5
2D0
330
70
100
AcDbEntity
  8
Visible
100
AcDbCircle
 10
8.5
 20
5.086608
 30
-1.525599
 40
1.161417322834644
100
AcDbArc
 50
103.726539
 51
76.273461
  0
ARC
  5
2D1
330
70
100
AcDbEntity
  8
Visible
100
AcDbCircle
 10
8.5
 20
5.106293
 30
-1.564969
 40
1.181102362204723
100
AcDbArc
 50
103.493399
 51
76.506601
  0
LINE
  5
2D2
330
70
100
AcDbEntity
  8
Visible
100
AcDbLine
 10
12.630203
 20
7.074797
 30
0.787402
 11
12.630203
 21
6.984024
 31
0.787402
210
0.0
220
1.0
230
0.0
  0
LINE
  5
2D3
330
70
100
AcDbEntity
  8
Visible
100
AcDbLine
 10
11.645951
 20
7.074797
 30
0.787402
 11
11.645951
 21
6.984024
 31
0.787402
210
0.0
220
1.0
230
0.0
  0
SPLINE
  5
2D4
330
70
100
AcDbEntity
  8
Visible
100
AcDbSpline
 70
     0
 71
     3
 72
    22
 73
    18
 74
     0
 42
0.000000001
 43
0.0000000001
 40
19.25172365735413
 40
19.25172365735413
 40
19.25172365735413
 40
19.25172365735413
 40
21.65433774485816
 40
21.65433774485816
 40
24.0569518323622
 40
24.0569518323622
 40
26.45956591986622
 40
26.45956591986622
 40
28.86218000737025
 40
28.86218000737025
 40
31.27249683420476
 40
31.27249683420476
 40
33.68281366103926
 40
33.68281366103926
 40
36.09313048787377
 40
36.09313048787377
 40
38.50344731470827
 40
38.50344731470827
 40
38.50344731470827
 40
38.50344731470827
 10
12.1380766561997
 20
6.937525528673346
 30
1.279527559056077
 10
12.16960702480173
 20
6.937525528673346
 30
1.279527559056077
 10
12.2020276108451
 20
6.939131516211029
 30
1.27644833877639
 10
12.26614655875892
 20
6.945639507789685
 30
1.26369409207291
 10
12.29784620402279
 20
6.950537580181228
 30
1.254023512165076
 10
12.35831780484841
 20
6.962871008352527
 30
1.228713450047507
 10
12.38714806003554
 20
6.97030933202107
 30
1.213053714154739
 10
12.44027931219352
 20
6.98640344183329
 30
1.177132074750261
 10
12.46458207530486
 20
6.995047203057499
 30
1.156867397025052
 10
12.50761134357526
 20
7.011969969728669
 30
1.11383812875465
 10
12.52788609211348
 20
7.020879947099955
 30
1.089501008691513
 10
12.56378041173775
 20
7.037920262598153
 30
1.036383053371537
 10
12.57940541041534
 20
7.046034854403784
 30
1.00760083566638
 10
12.60467435782084
 20
7.059765975526056
 30
0.9472305869658157
 10
12.61433847186163
 20
7.065375350974949
 30
0.9155832291598926
 10
12.62710535460064
 20
7.072897386586772
 30
0.8514857805494102
 10
12.6302026404519
 20
7.074796674345787
 30
0.8190330292254657
 10
12.6302026404519
 20
7.074796674345787
 30
0.7874015748056991
1001
ACAD_VIEW_EDGE_ID
1071
       16
1071
       -1
1071
        2
1071
        0
  0
SPLINE
  5
2D5
330
70
100
AcDbEntity
  8
Visible
100
AcDbSpline
 70
     0
 71
     3
 72
    22
 73
    18
 74
     0
 42
0.000000001
 43
0.0000000001
 40
0.0
 40
0.0
 40
0.0
 40
0.0
 40
2.410316826834503
 40
2.410316826834503
 40
4.820633653669006
 40
4.820633653669006
 40
7.23095048050351
 40
7.23095048050351
 40
9.641267307338013
 40
9.641267307338013
 40
12.04388139484204
 40
12.04388139484204
 40
14.44649548234607
 40
14.44649548234607
 40
16.8491095698501
 40
16.8491095698501
 40
19.25172365735413
 40
19.25172365735413
 40
19.25172365735413
 40
19.25172365735413
 10
11.6459506719475
 20
7.074796674345787
 30
0.7874015748056991
 10
11.6459506719475
 20
7.074796674345787
 30
0.8190330292254657
 10
11.64904795779694
 20
7.072897386586772
 30
0.8514857805494102
 10
11.66181484053595
 20
7.065375350974951
 30
0.9155832291598926
 10
11.67147895457856
 20
7.059765975526058
 30
0.9472305869658157
 10
11.69674790198405
 20
7.046034854403786
 30
1.00760083566638
 10
11.71237290065983
 20
7.037920262598154
 30
1.036383053371537
 10
11.74826722028592
 20
7.020879947099954
 30
1.089501008691513
 10
11.76854196882413
 20
7.011969969728669
 30
1.11383812875465
 10
11.81157123709454
 20
6.995047203057499
 30
1.156867397025052
 10
11.83587400020406
 20
6.98640344183329
 30
1.177132074750261
 10
11.88900525236204
 20
6.97030933202107
 30
1.213053714154739
 10
11.91783550754917
 20
6.962871008352527
 30
1.228713450047507
 10
11.97830710837661
 20
6.950537580181228
 30
1.254023512165076
 10
12.01000675364048
 20
6.945639507789685
 30
1.26369409207291
 10
12.07412570155247
 20
6.939131516211029
 30
1.27644833877639
 10
12.10654628759767
 20
6.937525528673346
 30
1.279527559056077
 10
12.1380766561997
 20
6.937525528673346
 30
1.279527559056077
1001
ACAD_VIEW_EDGE_ID
1071
       17
1071
       -1
1071
        2
1071
        0
  0
SPLINE
  5
2D6
330
70
100
AcDbEntity
  8
Visible
100
AcDbSpline
 70
     0
 71
     3
 72
    22
 73
    18
 74
     0
 42
0.000000001
 43
0.0000000001
 40
-19.18183650244169
 40
-19.18183650244169
 40
-19.18183650244169
 40
-19.18183650244169
 40
-16.78677445769625
 40
-16.78677445769625
 40
-14.39171241295081
 40
-14.39171241295081
 40
-11.99665036820536
 40
-11.99665036820536
 40
-9.601588323459921
 40
-9.601588323459921
 40
-7.201191242594944
 40
-7.201191242594944
 40
-4.800794161729967
 40
-4.800794161729967
 40
-2.400397080864976
 40
-2.400397080864976
 40
0.0
 40
0.0
 40
0.0
 40
0.0
 10
12.1380766561997
 20
6.858785371193031
 30
1.279527559056077
 10
12.1066453957701
 20
6.858785371193031
 30
1.279527559056077
 10
12.07429836767915
 20
6.860259801646733
 30
1.276467662457434
 10
12.01026839512633
 20
6.866243483628498
 30
1.263761057312876
 10
11.9785842724923
 20
6.87074908054052
 30
1.254118565348107
 10
11.91809137141172
 20
6.882092038801386
 30
1.228841308960909
 10
11.88922570447539
 20
6.888931549728884
 30
1.213186382245112
 10
11.83599694839904
 20
6.90371261029454
 30
1.177231471681807
 10
11.81163252091574
 20
6.911642509925528
 30
1.156928680848068
 10
11.76850156617911
 20
6.927132680363023
 30
1.113797726111442
 10
11.74819210163332
 20
6.935265206671379
 30
1.089409699960015
 10
11.71225675429923
 20
6.950769682959516
 30
1.036191213994243
 10
11.69662614496701
 20
6.958126771895391
 30
1.007359617327892
 10
11.67137723132509
 20
6.970534891716724
 30
0.9469374466625595
 10
11.66173886174692
 20
6.975580158618717
 30
0.9152891539160918
 10
11.64902309994431
 20
6.982329803393964
 30
0.8512729002723062
 10
11.6459506719475
 20
6.984023700809901
 30
0.8189028488322946
 10
11.6459506719475
 20
6.984023700809901
 30
0.7874015748056991
1001
ACAD_VIEW_EDGE_ID
1071
       18
1071
       -1
1071
        2
1071
        0
  0
SPLINE
  5
2D7
330
70
100
AcDbEntity
  8
Visible
100
AcDbSpline
 70
     0
 71
     3
 72
    22
 73
    18
 74
     0
 42
0.000000001
 43
0.0000000001
 40
38.36367300488374
 40
38.36367300488374
 40
38.36367300488374
 40
38.36367300488374
 40
40.76407008574881
 40
40.76407008574881
 40
43.1644671666139
 40
43.1644671666139
 40
45.56486424747899
 40
45.56486424747899
 40
47.96526132834407
 40
47.96526132834407
 40
50.3603233730895
 40
50.3603233730895
 40
52.75538541783492
 40
52.75538541783492
 40
55.15044746258034
 40
55.15044746258034
 40
57.54550950732577
 40
57.54550950732577
 40
57.54550950732577
 40
57.54550950732577
 10
12.6302026404519
 20
6.984023700809901
 30
0.7874015748056991
 10
12.6302026404519
 20
6.984023700809901
 30
0.8189028488322946
 10
12.62713021245327
 20
6.982329803393964
 30
0.8512729002723062
 10
12.61441445065065
 20
6.975580158618717
 30
0.9152891539160918
 10
12.6047760810743
 20
6.970534891716722
 30
0.9469374466625595
 10
12.57952716743239
 20
6.958126771895387
 30
1.007359617327892
 10
12.56389655809835
 20
6.950769682959513
 30
1.036191213994243
 10
12.52796121076426
 20
6.935265206671376
 30
1.089409699960015
 10
12.50765174621847
 20
6.927132680363019
 30
1.113797726111442
 10
12.46452079148184
 20
6.911642509925524
 30
1.156928680848068
 10
12.44015636400036
 20
6.903712610294536
 30
1.177231471681807
 10
12.38692760792401
 20
6.888931549728882
 30
1.213186382245112
 10
12.35806194098768
 20
6.882092038801384
 30
1.228841308960909
 10
12.2975690399071
 20
6.87074908054052
 30
1.254118565348107
 10
12.26588491727125
 20
6.866243483628496
 30
1.263761057312876
 10
12.20185494471843
 20
6.860259801646733
 30
1.276467662457434
 10
12.1695079166293
 20
6.858785371193031
 30
1.279527559056077
 10
12.1380766561997
 20
6.858785371193031
 30
1.279527559056077
1001
ACAD_VIEW_EDGE_ID
1071
       19
1071
       -1
1071
        2
1071
        0
  0
LINE
  5
2D8
330
70
100
AcDbEntity
  8
Visible
100
AcDbLine
 10
12.728628
 20
5.381883
 30
0.0
 11
14.893982
 21
5.381883
 31
0.0
210
0.0
220
1.0
230
0.0
  0
LINE
  5
2D9
330
70
100
AcDbEntity
  8
Visible
100
AcDbLine
 10
12.728628
 20
4.830702
 30
0.0
 11
14.893982
 21
4.830702
 31
0.0
210
0.0
220
1.0
230
0.0
  0
ARC
  5
2DA
330
70
100
AcDbEntity
  8
Visible
100
AcDbCircle
 10
-12.728628
 20
5.696844
 30
0.0
 40
0.8661417322834646
210
-0.0000000000002989
220
0.0
230
-1.0
100
AcDbArc
 50
270.0
 51
0.0
  0
ARC
  5
2DB
330
70
100
AcDbEntity
  8
Visible
100
AcDbCircle
 10
12.728628
 20
5.696844
 30
0.0
 40
0.3149606299212598
100
AcDbArc
 50
180.0
 51
270.0
  0
LINE
  5
2DC
330
70
100
AcDbEntity
  8
Visible
100
AcDbLine
 10
11.862486
 20
5.696844
 30
0.0
 11
11.862486
 21
6.896357
 31
0.0
210
0.0
220
1.0
230
0.0
  0
LINE
  5
2DD
330
70
100
AcDbEntity
  8
Visible
100
AcDbLine
 10
12.413667
 20
5.696844
 30
0.0
 11
12.413667
 21
6.896357
 31
0.0
210
0.0
220
1.0
230
0.0
  0
ARC
  5
2DE
330
70
100
AcDbEntity
  8
Visible
100
AcDbCircle
 10
-5.086608
 20
0.0
 30
-14.893982
 40
1.161417322834645
210
-1.0
220
0.0
230
0.0000000000002989
100
AcDbArc
 50
0.0
 51
180.0
  0
SPLINE
  5
2DF
330
70
100
AcDbEntity
  8
Visible
100
AcDbSpline
 70
     0
 71
     3
 72
    71
 73
    67
 74
     0
 42
0.000000001
 43
0.0000000001
 40
133.3566211280887
 40
133.3566211280887
 40
133.3566211280887
 40
133.3566211280887
 40
136.1346651648055
 40
136.1346651648055
 40
138.9127092015223
 40
138.9127092015223
 40
141.6907532382391
 40
141.6907532382391
 40
144.4687972749559
 40
144.4687972749559
 40
147.2468413116727
 40
147.2468413116727
 40
150.0248853483895
 40
150.0248853483895
 40
152.8029293851064
 40
152.8029293851064
 40
155.5809734218232
 40
155.5809734218232
 40
158.3594629611075
 40
158.3594629611075
 40
161.1379525003918
 40
161.1379525003918
 40
163.9164420396761
 40
163.9164420396761
 40
166.6949315789605
 40
166.6949315789605
 40
169.4734211182448
 40
169.4734211182448
 40
172.2519106575291
 40
172.2519106575291
 40
175.0304001968134
 40
175.0304001968134
 40
177.8088897360977
 40
177.8088897360977
 40
177.8088897360977
 40
180.5873687770436
 40
180.5873687770436
 40
183.3658478179895
 40
183.3658478179895
 40
186.1443268589354
 40
186.1443268589354
 40
188.9228058998813
 40
188.9228058998813
 40
191.7012849408272
 40
191.7012849408272
 40
194.4797639817731
 40
194.4797639817731
 40
197.258243022719
 40
197.258243022719
 40
200.036722063665
 40
200.036722063665
 40
202.8147650552239
 40
202.8147650552239
 40
205.5928080467829
 40
205.5928080467829
 40
208.3708510383419
 40
208.3708510383419
 40
211.1488940299008
 40
211.1488940299008
 40
213.9269370214598
 40
213.9269370214598
 40
216.7049800130188
 40
216.7049800130188
 40
219.4830230045778
 40
219.4830230045778
 40
222.2610659961368
 40
222.2610659961368
 40
222.2610659961368
 40
222.2610659961368
 10
14.89398216801055
 20
6.24802502080248
 30
0.0
 10
14.89398216801055
 20
6.24802502080248
 30
0.0364572708222113
 10
14.89401188800911
 20
6.246301335232174
 30
0.0735390688623738
 10
14.89413536810753
 20
6.239138915849359
 30
0.1482198325757054
 10
14.89422912381997
 20
6.233700442079798
 30
0.185818823199952
 10
14.8944824046539
 20
6.219005346828567
 30
0.260817874202985
 10
14.89464193901949
 20
6.209748181755709
 30
0.298221807450318
 10
14.89502587350034
 20
6.187463369685893
 30
0.3721526337521936
 10
14.89525027158561
 20
6.174435820856
 30
0.4086795564071509
 10
14.89576045655485
 20
6.144805615393554
 30
0.4802147148166114
 10
14.89604647127453
 20
6.12818969994657
 30
0.5152549613067095
 10
14.89667477530202
 20
6.091672151205123
 30
0.5832891108511831
 10
14.89701706551204
 20
6.071770427806336
 30
0.6162829655313545
 10
14.89775003189243
 20
6.029131728415392
 30
0.6797048991265911
 10
14.89814074778769
 20
6.006392399205301
 30
0.7101361002369231
 10
14.89896055078861
 20
5.958653566243276
 30
0.7680059772646928
 10
14.89938964059729
 20
5.933653861261154
 30
0.7954444871411397
 10
14.90027402722808
 20
5.88209663121306
 30
0.8470046742622798
 10
14.90074448452105
 20
5.85465539160881
 30
0.872009336895644
 10
14.90173603155381
 20
5.796780069406727
 30
0.9197568951549328
 10
14.90225711776474
 20
5.766346153285303
 30
0.9424999926413875
 10
14.90334230944791
 20
5.702918944346932
 30
0.9851451930317125
 10
14.9039064676781
 20
5.669922530093115
 30
1.005049649482316
 10
14.90506885843388
 20
5.601883522509918
 30
1.041571800666133
 10
14.90566708954975
 20
5.566840977709262
 30
1.058189585852232
 10
14.90688738679091
 20
5.495301552832674
 30
1.087822841996967
 10
14.90750999828742
 20
5.458772676225768
 30
1.10085156680725
 10
14.9087691154109
 20
5.384838331808373
 30
1.123138207089141
 10
14.90940562122341
 20
5.347432834443996
 30
1.132396024506306
 10
14.91068081695812
 20
5.272431047795605
 30
1.147092058552516
 10
14.91131957254401
 20
5.234830888190072
 30
1.152530818313607
 10
14.9125872519744
 20
5.160148166994653
 30
1.15969358051916
 10
14.91321617629546
 20
5.123065580464321
 30
1.161417322835404
 10
14.91383401776875
 20
5.086607697967834
 30
1.161417322835404
 10
14.91445185690827
 20
5.050149953225037
 30
1.161417322835404
 10
14.91507978680784
 20
5.013067487413932
 30
1.159693593506744
 10
14.91634336792776
 20
4.938384973381733
 30
1.152530874773219
 10
14.91697901958105
 20
4.9007849002234
 30
1.147092145456554
 10
14.91824593029014
 20
4.825783254668178
 30
1.132396181601507
 10
14.91887725492415
 20
4.788377811915757
 30
1.12313840389288
 10
14.92012411537689
 20
4.714443549724088
 30
1.10085184561467
 10
14.92073965205964
 20
4.677914700748637
 30
1.087823163079519
 10
14.92194422419379
 20
4.606375310627426
 30
1.058189989676975
 10
14.92253379885187
 20
4.571332772246602
 30
1.041572244681447
 10
14.92367770615237
 20
4.503293763046674
 30
1.005050169540481
 10
14.92423203856015
 20
4.470297340774114
 30
0.985145748949435
 10
14.9252969017034
 20
4.406870108452479
 30
0.9425006166875391
 10
14.92580748546425
 20
4.376436176892767
 30
0.9197575514317577
 10
14.92677787482353
 20
4.318560822133005
 30
0.8720100568698399
 10
14.92723767826283
 20
4.291119565413926
 30
0.8470054257268202
 10
14.92810112183724
 20
4.239562215734877
 30
0.795445217503584
 10
14.92851955996593
 20
4.214562418965604
 30
0.768006651003816
 10
14.92931820764897
 20
4.166823425288908
 30
0.7101366603310453
 10
14.92969842127786
 20
4.144084027155025
 30
0.6797054022172233
 10
14.93041105781594
 20
4.101445210977741
 30
0.6162833585894987
 10
14.9307435207229
 20
4.081543439700093
 30
0.5832894508785103
 10
14.93135333731698
 20
4.045025813366562
 30
0.5152552031995583
 10
14.93163069308684
 20
4.02840986819904
 30
0.480214911616713
 10
14.93212514780498
 20
3.998779617707898
 30
0.4086796741503349
 10
14.93234246840802
 20
3.98575205369802
 30
0.3721527179186523
 10
14.93271414156334
 20
3.963467221277349
 30
0.2982218378892867
 10
14.93286849276955
 20
3.954210051024539
 30
0.260817884498465
 10
14.9331134860422
 20
3.939514950793652
 30
0.185818807061878
 10
14.93320413727088
 20
3.934076477237364
 30
0.1482198102530674
 10
14.93332351983918
 20
3.926914059386516
 30
0.0735390477493638
 10
14.93335224674956
 20
3.925190375133189
 30
0.0364572571070312
 10
14.93335224674956
 20
3.925190375133189
 30
0.0
1001
ACAD_VIEW_EDGE_ID
1071
        2
1071
       -1
1071
        3
1071
        0
  0
ARC
  5
2E0
330
70
100
AcDbEntity
  8
Visible
100
AcDbCircle
 10
5.106293
 20
0.0
 30
15.090833
 40
1.181102362204729
210
1.0
220
0.0
230
-0.0000000000002989
100
AcDbArc
 50
0.0
 51
180.0
  0
ARC
  5
2E1
330
70
100
AcDbEntity
  8
Visible
100
AcDbCircle
 10
-5.106293
 20
0.0
 30
-14.933352
 40
1.181102362204724
210
-1.0
220
0.0
230
0.0000000000002989
100
AcDbArc
 50
0.0
 51
180.0
  0
LINE
  5
2E2
330
70
100
AcDbEntity
  8
Visible
100
AcDbLine
 10
14.933352
 20
3.92519
 30
0.0
 11
14.893982
 21
3.92519
 31
0.0
210
0.0
220
1.0
230
0.0
  0
LINE
  5
2E3
330
70
100
AcDbEntity
  8
Visible
100
AcDbLine
 10
14.893982
 20
6.248025
 30
0.0
 11
14.933352
 21
6.287395
 31
0.0
210
0.0
220
1.0
230
0.0
  0
LINE
  5
2E4
330
70
100
AcDbEntity
  8
Visible
100
AcDbLine
 10
14.933352
 20
6.287395
 30
0.0
 11
15.090833
 21
6.287395
 31
0.0
210
0.0
220
1.0
230
0.0
  0
LINE
  5
2E5
330
70
100
AcDbEntity
  8
Visible
100
AcDbLine
 10
14.933352
 20
3.92519
 30
0.0
 11
15.090833
 21
3.92519
 31
0.0
210
0.0
220
1.0
230
0.0
  0
ARC
  5
2E6
330
70
100
AcDbEntity
  8
Visible Narrow
100
AcDbCircle
 10
6.284686
 20
-0.810525
 30
1.391613
 40
0.2755905511811036
210
0.7071067811864441
220
-0.4071957137923937
230
0.5780931159158093
100
AcDbArc
 50
0.0
 51
180.0
  0
ARC
  5
2E7
330
70
100
AcDbEntity
  8
Visible Narrow
100
AcDbCircle
 10
4.943908
 20
-2.140705
 30
-4.471062
 40
0.2755905511811237
210
0.0
220
-0.8175471248425395
230
-0.5758617009853122
100
AcDbArc
 50
0.0
 51
180.0
  0
LINE
  5
2E8
330
70
100
AcDbEntity
  8
Visible
100
AcDbLine
 10
5.1527
 20
6.535613
 30
0.87841
 11
4.039146
 21
5.89436
 31
1.788793
210
0.0
220
0.8175471248425395
230
0.5758617009853122
  0
SPLINE
  5
2E9
330
70
100
AcDbEntity
  8
Visible
100
AcDbSpline
 70
     0
 71
     3
 72
    22
 73
    18
 74
     0
 42
0.000000001
 43
0.0000000001
 40
-19.25172365735405
 40
-19.25172365735405
 40
-19.25172365735405
 40
-19.25172365735405
 40
-16.84910956985001
 40
-16.84910956985001
 40
-14.44649548234598
 40
-14.44649548234598
 40
-12.04388139484194
 40
-12.04388139484194
 40
-9.641267307337912
 40
-9.641267307337912
 40
-7.230950480503437
 40
-7.230950480503437
 40
-4.820633653668963
 40
-4.820633653668963
 40
-2.410316826834488
 40
-2.410316826834488
 40
0.0
 40
0.0
 40
0.0
 40
0.0
 10
4.039145575000543
 20
5.381350953615765
 30
2.278733451306834
 10
4.061440912451939
 20
5.368511922666584
 30
2.296960940337157
 10
4.086543066234367
 20
5.357877214783911
 30
2.314847808613194
 10
4.140900623439006
 20
5.342282318416437
 30
2.348289091882179
 10
4.170153790197287
 20
5.337316582425046
 30
2.36384455521329
 10
4.230810585767426
 20
5.333082113312229
 30
2.391273547615128
 10
4.262269760154663
 20
5.333800314436302
 30
2.403170779871288
 10
4.325239663662682
 20
5.339950327091173
 30
2.422387519982294
 10
4.356753603297033
 20
5.345372718167709
 30
2.429699520387657
 10
4.417606178064557
 20
5.359207877403605
 30
2.439444693587574
 10
4.449151532873725
 20
5.368146384058491
 30
2.442227179297333
 10
4.512092716097027
 20
5.389091035630372
 30
2.442083179141263
 10
4.543493359933632
 20
5.401082660025167
 30
2.439149964036914
 10
4.604049416235352
 20
5.42660159805564
 30
2.426765370164503
 10
4.633261038120576
 20
5.440139009461745
 30
2.417287232765374
 10
4.687612328049067
 20
5.467190214459151
 30
2.39194503822182
 10
4.71275000040539
 20
5.480696391421588
 30
2.376068572797521
 10
4.735116816324148
 20
5.493576584082802
 30
2.35778264674991
1001
ACAD_VIEW_EDGE_ID
1071
        8
1071
       -1
1071
        2
1071
        0
  0
SPLINE
  5
2EA
330
70
100
AcDbEntity
  8
Visible
100
AcDbSpline
 70
     0
 71
     3
 72
    22
 73
    18
 74
     0
 42
0.000000001
 43
0.0000000001
 40
38.50344731470825
 40
38.50344731470825
 40
38.50344731470825
 40
38.50344731470825
 40
40.91376414154279
 40
40.91376414154279
 40
43.32408096837733
 40
43.32408096837733
 40
45.73439779521186
 40
45.73439779521186
 40
48.1447146220464
 40
48.1447146220464
 40
50.54732870955042
 40
50.54732870955042
 40
52.94994279705445
 40
52.94994279705445
 40
55.35255688455847
 40
55.35255688455847
 40
57.75517097206249
 40
57.75517097206249
 40
57.75517097206249
 40
57.75517097206249
 10
4.039145574998724
 20
5.894359766949492
 30
1.78879335943202
 10
4.016778759079966
 20
5.881479574289187
 30
1.807079285477811
 10
3.996021310379615
 20
5.865450994279854
 30
1.826536790160389
 10
3.959725119169957
 20
5.828002549423217
 30
1.866639878749992
 10
3.944180618430505
 20
5.806594766386297
 30
1.887291531744267
 10
3.9193602502565
 20
5.760497014205611
 30
1.9288917347003
 10
3.910056691461318
 20
5.73578052483208
 30
1.949890358149787
 10
3.897877741863408
 20
5.685603847057791
 30
1.99153487645708
 10
3.895005211410603
 20
5.660153758997694
 30
2.012193775859486
 10
3.895005211409693
 20
5.61127593254605
 30
2.052198450201103
 10
3.897860568969986
 20
5.586061579527267
 30
2.072984969898243
 10
3.910029602849204
 20
5.536641930577388
 30
2.115197852010169
 10
3.919342566354385
 20
5.512444616773791
 30
2.136633763862846
 10
3.944205528811903
 20
5.467431532561022
 30
2.17912120375513
 10
3.959782430308291
 20
5.446581349191546
 30
2.200216433831883
 10
3.996102758847041
 20
5.40995832403405
 30
2.240908595338623
 10
4.016850237548237
 20
5.394189984564945
 30
2.260505962276511
 10
4.039145575000543
 20
5.381350953615765
 30
2.278733451306834
1001
ACAD_VIEW_EDGE_ID
1071
        9
1071
       -1
1071
        2
1071
        0
  0
SPLINE
  5
2EB
330
70
100
AcDbEntity
  8
Visible
100
AcDbSpline
 70
     0
 71
     3
 72
    14
 73
    10
 74
     0
 42
0.000000001
 43
0.0000000001
 40
19.18183650244196
 40
19.18183650244196
 40
19.18183650244196
 40
19.18183650244196
 40
21.57689854718741
 40
21.57689854718741
 40
23.97196059193285
 40
23.97196059193285
 40
26.36702263667829
 40
26.36702263667829
 40
28.76208468142214
 40
28.76208468142214
 40
28.76208468142373
 40
28.76208468142373
 10
4.039145575000543
 20
5.316977164257878
 30
2.233390010283983
 10
4.016920317609288
 20
5.329775838784371
 30
2.215219815003365
 10
3.99621118833063
 20
5.345398803133321
 30
2.195600383614873
 10
3.959920087202658
 20
5.381537550663779
 30
2.154685269593755
 10
3.944334300687001
 20
5.402049108795836
 30
2.133389238890231
 10
3.919433079520854
 20
5.446247752201088
 30
2.090338076544867
 10
3.910091675524268
 20
5.469967969605022
 30
2.068539640236849
 10
3.897877222226338
 20
5.518367389969171
 30
2.025495023179246
 10
3.895005211410603
 20
5.543038756457463
 30
2.004239737254465
 10
3.895005211411512
 20
5.566906885206662
 30
1.983788904453831
1001
ACAD_VIEW_EDGE_ID
1071
       10
1071
       -1
1071
        2
1071
        0
  0
SPLINE
  5
2EC
330
70
100
AcDbEntity
  8
Visible
100
AcDbSpline
 70
     0
 71
     3
 72
    22
 73
    18
 74
     0
 42
0.000000001
 43
0.0000000001
 40
0.0
 40
0.0
 40
0.0
 40
0.0
 40
2.400397080865061
 40
2.400397080865061
 40
4.800794161730122
 40
4.800794161730122
 40
7.201191242595183
 40
7.201191242595183
 40
9.601588323460244
 40
9.601588323460244
 40
11.99665036820567
 40
11.99665036820567
 40
14.3917124129511
 40
14.3917124129511
 40
16.78677445769653
 40
16.78677445769653
 40
19.18183650244196
 40
19.18183650244196
 40
19.18183650244196
 40
19.18183650244196
 10
4.735116816324148
 20
5.419365400555761
 30
2.305509967805846
 10
4.712842051843904
 20
5.406538216792796
 30
2.323720637463338
 10
4.687780434292176
 20
5.393223509139716
 30
2.339681941240996
 10
4.633522705836253
 20
5.366816016067787
 30
2.365451540494177
 10
4.604328626933306
 20
5.353728926242183
 30
2.375269949581706
 10
4.543750022268864
 20
5.32926230405792
 30
2.388458006345899
 10
4.512310494900771
 20
5.317872151690608
 30
2.391852740498507
 10
4.449269214805167
 20
5.298158891707316
 30
2.392915569873366
 10
4.417663316031462
 20
5.289849395402598
 30
2.390590147826515
 10
4.356666934884811
 20
5.277185451098375
 30
2.381669951930234
 10
4.325082441915651
 20
5.272356265489179
 30
2.374755422253656
 10
4.262020066462423
 20
5.267305887774455
 30
2.356257684399679
 10
4.230539252790618
 20
5.267093622075663
 30
2.344682034023207
 10
4.169890592820661
 20
5.27215987873933
 30
2.317792137015203
 10
4.140668263395196
 20
5.277451598471998
 30
2.302455421362537
 10
4.086407308940647
 20
5.293458311697577
 30
2.269339962691446
 10
4.061370832390889
 20
5.304178489731384
 30
2.251560205562782
 10
4.039145575000543
 20
5.316977164257878
 30
2.233390010283983
1001
ACAD_VIEW_EDGE_ID
1071
       11
1071
       -1
1071
        2
1071
        0
  0
LINE
  5
2ED
330
70
100
AcDbEntity
  8
Visible Narrow
100
AcDbLine
 10
4.735117
 20
5.419365
 30
2.30551
 11
4.735117
 21
5.493577
 31
2.357783
210
0.0
220
0.8175471248425395
230
0.5758617009853122
  0
LINE
  5
2EE
330
70
100
AcDbEntity
  8
Visible
100
AcDbLine
 10
4.735117
 20
5.493577
 30
2.357783
 11
5.848671
 21
6.13483
 31
1.4474
210
0.0
220
0.8175471248425395
230
0.5758617009853122
  0
LINE
  5
2EF
330
70
100
AcDbEntity
  8
Visible
100
AcDbLine
 10
5.848671
 20
6.060618
 30
1.395127
 11
4.735117
 21
5.419365
 31
2.30551
210
0.0
220
0.8175471248425395
230
0.5758617009853122
  0
LINE
  5
2F0
330
70
100
AcDbEntity
  8
Visible Narrow
100
AcDbLine
 10
5.848671
 20
6.13483
 30
1.4474
 11
5.848671
 21
6.060618
 31
1.395127
210
0.0
220
0.8175471248425395
230
0.5758617009853122
  0
SPLINE
  5
2F1
330
70
100
AcDbEntity
  8
Visible
100
AcDbSpline
 70
     0
 71
     3
 72
    22
 73
    18
 74
     0
 42
0.000000001
 43
0.0000000001
 40
19.25172365735413
 40
19.25172365735413
 40
19.25172365735413
 40
19.25172365735413
 40
21.65433774485816
 40
21.65433774485816
 40
24.0569518323622
 40
24.0569518323622
 40
26.45956591986622
 40
26.45956591986622
 40
28.86218000737025
 40
28.86218000737025
 40
31.27249683420476
 40
31.27249683420476
 40
33.68281366103926
 40
33.68281366103926
 40
36.09313048787377
 40
36.09313048787377
 40
38.50344731470827
 40
38.50344731470827
 40
38.50344731470827
 40
38.50344731470827
 10
5.848670802445735
 20
6.423387229067884
 30
0.7993613042781363
 10
5.82637546499343
 20
6.436226260017065
 30
0.7811338152478129
 10
5.801273311211002
 20
6.449486908886683
 30
0.765096600402103
 10
5.746915754006363
 20
6.475722984862841
 30
0.7391507233314769
 10
5.717662587248082
 20
6.48869753085637
 30
0.7292364845980046
 10
5.657005791679762
 20
6.513098317449475
 30
0.7160121900542436
 10
5.625546617291615
 20
6.524542476583519
 30
0.7126818492361054
 10
5.562576713784506
 20
6.544707850336635
 30
0.7120010720282153
 10
5.531062774147426
 20
6.553418823534229
 30
0.7146442937082611
 10
5.470210199380812
 20
6.567253982770125
 30
0.7243894669081783
 10
5.438664844571644
 20
6.572884128880104
 30
0.7318688106424816
 10
5.375723661350161
 20
6.579801999189839
 30
0.7516385409398936
 10
5.344323017512647
 20
6.581078497197268
 30
0.7639175213244016
 10
5.283766961210017
 20
6.57801123635545
 30
0.7921165687275789
 10
5.254555339326612
 20
6.573645682489768
 30
0.8080551551011012
 10
5.200204049398121
 20
6.558893714668556
 30
0.8420606540912558
 10
5.175066377039979
 20
6.548493052197045
 30
0.8601245736754208
 10
5.152699561120312
 20
6.535612859535831
 30
0.8784104997212125
1001
ACAD_VIEW_EDGE_ID
1071
       16
1071
       -1
1071
        2
1071
        0
  0
SPLINE
  5
2F2
330
70
100
AcDbEntity
  8
Visible
100
AcDbSpline
 70
     0
 71
     3
 72
    22
 73
    18
 74
     0
 42
0.000000001
 43
0.0000000001
 40
0.0
 40
0.0
 40
0.0
 40
0.0
 40
2.410316826834503
 40
2.410316826834503
 40
4.820633653669006
 40
4.820633653669006
 40
7.23095048050351
 40
7.23095048050351
 40
9.641267307338013
 40
9.641267307338013
 40
12.04388139484204
 40
12.04388139484204
 40
14.44649548234607
 40
14.44649548234607
 40
16.8491095698501
 40
16.8491095698501
 40
19.25172365735413
 40
19.25172365735413
 40
19.25172365735413
 40
19.25172365735413
 10
5.848670802445735
 20
6.134829676670051
 30
1.447399787040922
 10
5.871037618365403
 20
6.147709869330356
 30
1.429113860993311
 10
5.891795067067573
 20
6.160632934846944
 30
1.407468902152686
 10
5.928091258277231
 20
6.185782142528296
 30
1.358702509118302
 10
5.943635759014864
 20
6.198018068024794
 30
1.331590407145995
 10
5.968456127189779
 20
6.221664143016823
 30
1.274175750659196
 10
5.97775968598587
 20
6.233112509989041
 30
1.243831361933189
 10
5.989938635581961
 20
6.255426665880804
 30
1.182561113484553
 10
5.992811166034766
 20
6.266308101176036
 30
1.151640384634447
 10
5.992811166034766
 20
6.287515609154979
 30
1.092145363894815
 10
5.989955808477202
 20
6.29859659790145
 30
1.061403622112266
 10
5.977786774597075
 20
6.321700860441524
 30
1.000654777095405
 10
5.968473811092803
 20
6.333735813987004
 30
0.9706519738065253
 10
5.943610848633466
 20
6.358582580720394
 30
0.9139598360579839
 10
5.928033947137078
 20
6.371423954087731
 30
0.8872233813835919
 10
5.891713618598328
 20
6.397405799637454
 30
0.8390358136766735
 10
5.870966139897132
 20
6.410548198118704
 30
0.8175887933102785
 10
5.848670802445735
 20
6.423387229067884
 30
0.7993613042781363
1001
ACAD_VIEW_EDGE_ID
1071
       17
1071
       -1
1071
        2
1071
        0
  0
SPLINE
  5
2F3
330
70
100
AcDbEntity
  8
Visible
100
AcDbSpline
 70
     0
 71
     3
 72
    14
 73
    10
 74
     0
 42
0.000000001
 43
0.0000000001
 40
-9.601588323463062
 40
-9.601588323463062
 40
-9.601588323459921
 40
-9.601588323459921
 40
-7.201191242594944
 40
-7.201191242594944
 40
-4.800794161729967
 40
-4.800794161729967
 40
-2.400397080864976
 40
-2.400397080864976
 40
0.0
 40
0.0
 40
0.0
 40
0.0
 10
5.992811166034766
 20
6.208159977792092
 30
1.073406044743023
 10
5.992811166035676
 20
6.196916715609404
 30
1.102832551854589
 10
5.989927187467469
 20
6.185364812480656
 30
1.133355073958227
 10
5.977706162940262
 20
6.161737393705152
 30
1.193822725335849
 10
5.968371655279111
 20
6.149647340903356
 30
1.223762686289774
 10
5.943500406720045
 20
6.124906665261732
 30
1.280433911348154
 10
5.927937040794927
 20
6.112219656776687
 30
1.307206822595617
 10
5.891662115135727
 20
6.086492861655642
 30
1.355451934417942
 10
5.870945566925979
 20
6.073445676905066
 30
1.376916438437547
 10
5.848670802445735
 20
6.06061849314301
 30
1.395127108096858
1001
ACAD_VIEW_EDGE_ID
1071
       18
1071
       -1
1071
        2
1071
        0
  0
LINE
  5
2F4
330
70
100
AcDbEntity
  8
Visible
100
AcDbLine
 10
4.388797
 20
4.406898
 30
0.143117
 11
2.85766
 21
5.288621
 31
-1.108659
210
0.0
220
0.8175471248425395
230
0.5758617009853122
  0
LINE
  5
2F5
330
70
100
AcDbEntity
  8
Visible
100
AcDbLine
 10
4.663854
 20
4.884542
 30
0.143117
 11
3.132717
 21
5.766265
 31
-1.108659
210
0.0
220
0.8175471248425395
230
0.5758617009853122
  0
SPLINE
  5
2F6
330
70
100
AcDbEntity
  8
Visible
100
AcDbSpline
 70
     0
 71
     3
 72
    12
 73
     8
 74
     0
 42
0.000000001
 43
0.0000000001
 40
3.141592653589793
 40
3.141592653589793
 40
3.141592653589793
 40
3.141592653589793
 40
3.356293827764549
 40
3.356293827764549
 40
3.56329837944015
 40
3.56329837944015
 40
3.56734166144862
 40
3.56734166144862
 40
3.56734166144862
 40
3.56734166144862
 10
4.668317637540963
 20
4.888053408050836
 30
0.8245863553420349
 10
4.668317637542782
 20
4.870559435464201
 30
0.8002481302701198
 10
4.666610344238574
 20
4.856791302865531
 30
0.7732778894387593
 10
4.662856446934779
 20
4.839049509160759
 30
0.7163471284475236
 10
4.660871265698074
 20
4.834833211436489
 30
0.6865307685566222
 10
4.660794365569086
 20
4.834679307788064
 30
0.6548721313938586
 10
4.660793621707921
 20
4.834677839626237
 30
0.6542651416566514
 10
4.660793621706102
 20
4.834677839626237
 30
0.653657687453233
1001
ACAD_VIEW_EDGE_ID
1071
    -4097
1071
       -1
1071
        2
1071
        0
  0
SPLINE
  5
2F7
330
70
100
AcDbEntity
  8
Visible
100
AcDbSpline
 70
     0
 71
     3
 72
     8
 73
     4
 74
     0
 42
0.000000001
 43
0.0000000001
 40
4.69112379893415
 40
4.69112379893415
 40
4.69112379893415
 40
4.69112379893415
 40
4.712388980384689
 40
4.712388980384689
 40
4.712388980384689
 40
4.712388980384689
 10
4.66825253823215
 20
4.882062936638249
 30
0.1504531139962637
 10
4.666810860174405
 20
4.882857692642573
 30
0.1479824712441768
 10
4.665344153589171
 20
4.883683985575771
 30
0.1455369073701149
 10
4.663854006175893
 20
4.88454210439886
 30
0.143116975283192
1001
ACAD_VIEW_EDGE_ID
1071
    -4097
1071
       -1
1071
        2
1071
        0
  0
SPLINE
  5
2F8
330
70
100
AcDbEntity
  8
Visible
100
AcDbSpline
 70
     0
 71
     3
 72
    18
 73
    14
 74
     0
 42
0.000000001
 43
0.0000000001
 40
3.141592653589793
 40
3.141592653589793
 40
3.141592653589793
 40
3.141592653589793
 40
3.455751918948772
 40
3.455751918948772
 40
3.755395107351618
 40
3.755395107351618
 40
3.98314476795473
 40
3.98314476795473
 40
4.199127755311613
 40
4.199127755311613
 40
4.444794513258998
 40
4.444794513258998
 40
4.712388980384689
 40
4.712388980384689
 40
4.712388980384689
 40
4.712388980384689
 10
5.219498739903497
 20
4.888053408050836
 30
0.8245863553420349
 10
5.219498739904406
 20
4.812533170053029
 30
0.7889737000405149
 10
5.209503370351808
 20
4.736802704192086
 30
0.747705367346498
 10
5.161169278219017
 20
4.592645615587571
 30
0.6599464032569813
 10
5.123384745638827
 20
4.523577458575346
 30
0.6137999105758354
 10
5.026953283348189
 20
4.420871775424529
 30
0.5303601166197041
 10
4.975527728492193
 20
4.383420514051977
 30
0.4936066792743077
 10
4.865717300074789
 20
4.333208924184873
 30
0.4224372309108731
 10
4.808361748286256
 20
4.319310626365222
 30
0.3880011971923523
 10
4.688325831063662
 20
4.310209438172933
 30
0.3165395739051746
 10
4.626105340951721
 20
4.317397657496258
 30
0.2798138632460905
 10
4.504027109866979
 20
4.349000054298812
 30
0.2081004048559407
 10
4.444540548841428
 20
4.37479704778434
 30
0.1735686523115874
 10
4.388796881679877
 20
4.406897690776531
 30
0.143116975281373
1001
ACAD_VIEW_EDGE_ID
1071
    -4098
1071
       -1
1071
        2
1071
        0
  0
LINE
  5
2F9
330
70
100
AcDbEntity
  8
Visible
100
AcDbLine
 10
4.668318
 20
4.888053
 30
0.824586
 11
4.668318
 21
5.383781
 31
1.173766
210
0.0
220
0.8175471248425395
230
0.5758617009853122
  0
LINE
  5
2FA
330
70
100
AcDbEntity
  8
Visible
100
AcDbLine
 10
5.219499
 20
4.888053
 30
0.824586
 11
5.219499
 21
5.698302
 31
1.395307
210
0.0
220
0.8175471248425395
230
0.5758617009853122
  0
LINE
  5
2FB
330
70
100
AcDbEntity
  8
Visible
100
AcDbLine
 10
3.895005
 20
5.566907
 30
1.983789
 11
3.895005
 21
5.635676
 31
2.032228
210
0.0
220
0.8175471248425395
230
0.5758617009853122
  0
LINE
  5
2FC
330
70
100
AcDbEntity
  8
Visible
100
AcDbLine
 10
5.992811
 20
6.20816
 30
1.073406
 11
5.992811
 21
6.276929
 31
1.121845
210
0.0
220
0.8175471248425395
230
0.5758617009853122
  0
ARC
  5
2FD
330
70
100
AcDbEntity
  8
Visible
100
AcDbCircle
 10
6.27074
 20
-0.824418
 30
-0.773741
 40
1.161417322834652
210
0.7071067811864441
220
-0.4071957137923937
230
0.5780931159158093
100
AcDbArc
 50
284.435866
 51
256.980649
  0
SPLINE
  5
2FE
330
70
100
AcDbEntity
  8
Visible
100
AcDbSpline
 70
     0
 71
     3
 72
    56
 73
    52
 74
     0
 42
0.000000001
 43
0.0000000001
 40
66.6203090807469
 40
66.6203090807469
 40
66.6203090807469
 40
66.6203090807469
 40
66.67652019251097
 40
66.67652019251097
 40
69.45499923345685
 40
69.45499923345685
 40
72.23347827440273
 40
72.23347827440273
 40
75.01195731534861
 40
75.01195731534861
 40
77.79043635629449
 40
77.79043635629449
 40
80.56891539724038
 40
80.56891539724038
 40
83.34739443818625
 40
83.34739443818625
 40
86.12587347913214
 40
86.12587347913214
 40
88.90435252007803
 40
88.90435252007803
 40
91.68284205936238
 40
91.68284205936238
 40
94.46133159864675
 40
94.46133159864675
 40
97.23982113793113
 40
97.23982113793113
 40
100.0183106772155
 40
100.0183106772155
 40
102.7968002164998
 40
102.7968002164998
 40
105.5752897557842
 40
105.5752897557842
 40
108.3537792950686
 40
108.3537792950686
 40
111.1322688343529
 40
111.1322688343529
 40
113.9103128710699
 40
113.9103128710699
 40
116.6883569077869
 40
116.6883569077869
 40
119.4664009445038
 40
119.4664009445038
 40
122.2444449812208
 40
122.2444449812208
 40
125.0224890179378
 40
125.0224890179378
 40
127.8005330546547
 40
127.8005330546547
 40
130.5785770913717
 40
130.5785770913717
 40
133.3566211280887
 40
133.3566211280887
 40
133.3566211280887
 40
133.3566211280887
 10
2.391765050046228
 20
4.518612419331475
 30
-1.139484832749076
 10
2.391401434629256
 20
4.518821805238076
 30
-1.138877491363018
 10
2.391038302836091
 20
4.519031727609217
 30
-1.138270354185806
 10
2.37275023596801
 20
4.529644939259014
 30
-1.10766324198812
 10
2.355394421854794
 20
4.541710451175276
 30
-1.077140058883742
 10
2.322318013562903
 20
4.569188567541459
 30
-1.015648385329768
 10
2.306597275134731
 20
4.584600954574852
 30
-0.9846798753169423
 10
2.277195584877586
 20
4.618657183217692
 30
-0.9228861139836226
 10
2.263513006306379
 20
4.637302596846893
 30
-0.8920576738582894
 10
2.238496863919931
 20
4.677590266589504
 30
-0.8311021691351925
 10
2.227163235983494
 20
4.699232446281712
 30
-0.8009750803412316
 10
2.207061179247898
 20
4.74516227118147
 30
-0.7419511970529129
 10
2.198283759640685
 20
4.769470459052172
 30
-0.7130280027431582
 10
2.183406446633921
 20
4.820332495295588
 30
-0.6568475853946439
 10
2.177306623167237
 20
4.846886407383863
 30
-0.6295904015169072
 10
2.167810848623116
 20
4.901703772964538
 30
-0.5771717984371208
 10
2.164414559835745
 20
4.929970142774436
 30
-0.5520077985293029
 10
2.160243239625811
 20
4.987595464213882
 30
-0.5041298130272481
 10
2.15946839241958
 20
5.01695454196124
 30
-0.4814159631787334
 10
2.160342150559768
 20
5.076063339517531
 30
-0.4387123075903219
 10
2.162005737092909
 20
5.106825906712401
 30
-0.417990772981284
 10
2.167966959542423
 20
5.170283003139957
 30
-0.3783917608889169
 10
2.172264411856372
 20
5.202977446644581
 30
-0.359514118392326
 10
2.183557776738848
 20
5.269759849512411
 30
-0.3240819561924582
 10
2.190554119789408
 20
5.303851167469474
 30
-0.3075254837422108
 10
2.207203484519664
 20
5.372858295477271
 30
-0.2771053927881439
 10
2.216856436994089
 20
5.407774089686427
 30
-0.2632417004733725
 10
2.238673193816862
 20
5.477830575889129
 30
-0.2384702215204015
 10
2.250846755689122
 20
5.513002601392145
 30
-0.2275513559907267
 10
2.27749375084029
 20
5.583026039306787
 30
-0.2088115314363677
 10
2.291967247082607
 20
5.617877449448315
 30
-0.2009906534567563
 10
2.32288930386228
 20
5.686655239163883
 30
-0.18849090796175
 10
2.339339565913246
 20
5.720585107529586
 30
-0.1838115729951823
 10
2.373803317774286
 20
5.786939758161679
 30
-0.1775127197270194
 10
2.391816947824804
 20
5.81936448795659
 30
-0.1758934160206991
 10
2.428900861561555
 20
5.882149921901145
 30
-0.1754989132350602
 10
2.448606230274958
 20
5.913586478914112
 30
-0.1767165004039271
 10
2.490106101008746
 20
5.975845770160049
 30
-0.1822057899098581
 10
2.511900487532398
 20
6.006668600198281
 30
-0.1864772788139817
 10
2.557264852352159
 20
6.067054425043352
 30
-0.1981633452451206
 10
2.580837066462732
 20
6.096620598887966
 30
-0.2055783496016375
 10
2.629388752995578
 20
6.15392278724812
 30
-0.2235161471326137
 10
2.654368191851131
 20
6.181658855360183
 30
-0.2340388599350263
 10
2.705311942706498
 20
6.234804009402068
 30
-0.2580350076204922
 10
2.731299050819939
 20
6.260236876896669
 30
-0.2715191807346855
 10
2.783847522111568
 20
6.308403740044013
 30
-0.3012031628095428
 10
2.810408904785686
 20
6.331137668320479
 30
-0.3174030465834221
 10
2.863620338929718
 20
6.373587758430403
 30
-0.3521507192181161
 10
2.890273135463826
 20
6.393305937924196
 30
-0.3707004285734001
 10
2.943167723525289
 20
6.429520959616638
 30
-0.4096769179632247
 10
2.969409529590007
 20
6.446017601165294
 30
-0.4301038647063252
 10
2.995188713011953
 20
6.460862845580777
 30
-0.4511795619928308
1001
ACAD_VIEW_EDGE_ID
1071
        1
1071
       -1
1071
        3
1071
        0
  0
SPLINE
  5
2FF
330
70
100
AcDbEntity
  8
Visible
100
AcDbSpline
 70
     0
 71
     3
 72
    22
 73
    18
 74
     0
 42
0.000000001
 43
0.0000000001
 40
133.3566211280887
 40
133.3566211280887
 40
133.3566211280887
 40
133.3566211280887
 40
136.1346651648055
 40
136.1346651648055
 40
138.9127092015223
 40
138.9127092015223
 40
141.6907532382391
 40
141.6907532382391
 40
144.4687972749559
 40
144.4687972749559
 40
147.2468413116727
 40
147.2468413116727
 40
150.0248853483895
 40
150.0248853483895
 40
152.8029293851064
 40
152.8029293851064
 40
155.5247902884163
 40
155.5247902884163
 40
155.5247902884163
 40
155.5247902884163
 10
2.995188713011953
 20
6.460862845580777
 30
-0.4511795619928308
 10
3.020967896433899
 20
6.47570808999535
 30
-0.4722552592793364
 10
3.047167672074533
 20
6.489410546891122
 30
-0.4947017768845399
 10
3.099887632905006
 20
6.514014898971254
 30
-0.5420701582825132
 10
3.126407838841328
 20
6.524917015127357
 30
-0.566991884215895
 10
3.179261079792991
 20
6.543545509232899
 30
-0.6189570817532513
 10
3.205596846803996
 20
6.551273023549583
 30
-0.6460031106144016
 10
3.257602352745448
 20
6.563314791576885
 30
-0.7017969320204429
 10
3.283272114042188
 20
6.567629136769028
 30
-0.7305446839709476
 10
3.33349435439602
 20
6.572741602506539
 30
-0.7892565015281435
 10
3.358069307355504
 20
6.573542010756682
 30
-0.8192468392790033
 10
3.405732437812798
 20
6.571646250567937
 30
-0.8799691887434164
 10
3.428820580466049
 20
6.568949989137763
 30
-0.9107012249060062
 10
3.473148374289007
 20
6.56021444333237
 30
-0.9723427248918596
 10
3.4943902050946
 20
6.554174522611901
 30
-1.003255371730119
 10
3.534322776441581
 20
6.539196963269205
 30
-1.064053368016175
 10
3.553056307545443
 20
6.530320176676468
 30
-1.093946870534637
 10
3.570656008569199
 20
6.520185487078379
 30
-1.123361449201183
1001
ACAD_VIEW_EDGE_ID
1071
        2
1071
       -1
1071
        3
1071
        0
  0
ARC
  5
300
330
70
100
AcDbEntity
  8
Visible
100
AcDbCircle
 10
-6.284686
 20
-0.810525
 30
0.970592
 40
1.181102362204724
210
-0.7071067811864441
220
0.4071957137923937
230
-0.5780931159158093
100
AcDbArc
 50
360.0
 51
180.0
  0
ARC
  5
301
330
70
100
AcDbEntity
  8
Visible
100
AcDbCircle
 10
6.284686
 20
-0.810525
 30
-0.813111
 40
1.181102362204739
210
0.7071067811864441
220
-0.4071957137923937
230
0.5780931159158093
100
AcDbArc
 50
330.857857
 51
186.437032
  0
LINE
  5
302
330
70
100
AcDbEntity
  8
Visible
100
AcDbLine
 10
3.570656
 20
6.520185
 30
-1.123361
 11
3.574773
 21
6.517814
 31
-1.119995
210
0.0
220
0.8175471248425395
230
0.5758617009853122
  0
LINE
  5
303
330
70
100
AcDbEntity
  8
Visible
100
AcDbLine
 10
2.391765
 20
4.518612
 30
-1.139485
 11
2.415604
 21
4.504884
 31
-1.119995
210
0.0
220
0.8175471248425395
230
0.5758617009853122
  0
LINE
  5
304
330
70
100
AcDbEntity
  8
Visible
100
AcDbLine
 10
2.377942
 20
4.51995
 30
-1.131419
 11
2.266586
 21
4.584076
 31
-1.222457
210
0.0
220
0.8175471248425395
230
0.5758617009853122
  0
LINE
  5
305
330
70
100
AcDbEntity
  8
Visible
100
AcDbLine
 10
3.556758
 20
6.566998
 30
-1.131419
 11
3.445403
 21
6.631123
 31
-1.222457
210
0.0
220
0.8175471248425395
230
0.5758617009853122
  0
ENDSEC
  0
SECTION
  2
OBJECTS
  0
DICTIONARY
  5
C
330
0
100
AcDbDictionary
281
     1
  3
ACAD_COLOR
350
63
  3
ACAD_DETAILVIEWSTYLE
350
6A
  3
ACAD_GROUP
350
D
  3
ACAD_IMAGE_DICT
350
118
  3
ACAD_IMAGE_VARS
350
11A
  3
ACAD_LAYOUT
350
62
  3
ACAD_MATERIAL
350
10
  3
ACAD_MLEADERSTYLE
350
66
  3
ACAD_MLINESTYLE
350
5F
  3
ACAD_PLOTSETTINGS
350
61
  3
ACAD_PLOTSTYLENAME
350
E
  3
ACAD_SCALELIST
350
42
  3
ACAD_SECTIONVIEWSTYLE
350
68
  3
ACAD_TABLESTYLE
350
64
  3
ACAD_VISUALSTYLE
350
29
  3
ACDB_RECOMPOSE_DATA
350
34E
  3
AcDbVariableDictionary
350
345
  0
DICTIONARY
  5
B2
330
70
100
AcDbDictionary
280
     1
281
     1
  3
ACAD_SORTENTS
360
10E
  0
DICTIONARY
  5
112
330
111
100
AcDbDictionary
280
     1
281
     1
  3
ACAD_SORTENTS
360
2BE
  0
IMAGEDEF_REACTOR
  5
119
330
116
100
AcDbRasterImageDefReactor
 90
        2
330
116
  0
DICTIONARY
  5
63
102
{ACAD_REACTORS
330
C
102
}
330
C
100
AcDbDictionary
281
     1
  0
DICTIONARY
  5
6A
102
{ACAD_REACTORS
330
C
102
}
330
C
100
AcDbDictionary
281
     1
  3
Imperial24
350
6B
  0
DICTIONARY
  5
D
102
{ACAD_REACTORS
330
C
102
}
330
C
100
AcDbDictionary
281
     1
  0
DICTIONARY
  5
118
102
{ACAD_REACTORS
330
C
102
}
330
C
100
AcDbDictionary
281
     1
  3
morse_logo-16 (1)_01-2018(B)_1_1
350
117
  0
RASTERVARIABLES
  5
11A
102
{ACAD_REACTORS
330
C
102
}
330
C
100
AcDbRasterVariables
 90
        0
 70
     0
 71
     1
 72
     5
  0
DICTIONARY
  5
62
102
{ACAD_REACTORS
330
C
102
}
330
C
100
AcDbDictionary
281
     1
  3
Model
350
73
  3
Sheet1
350
6F
  3
Sheet2
350
77
  0
DICTIONARY
  5
10
102
{ACAD_REACTORS
330
C
102
}
330
C
100
AcDbDictionary
281
     1
  3
ByBlock
350
19
  3
ByLayer
350
11
  3
Global
350
21
  0
DICTIONARY
  5
66
102
{ACAD_REACTORS
330
C
102
}
330
C
100
AcDbDictionary
281
     1
  3
Standard
350
67
  0
DICTIONARY
  5
5F
102
{ACAD_REACTORS
330
C
102
}
330
C
100
AcDbDictionary
281
     1
  3
Standard
350
60
  0
DICTIONARY
  5
61
102
{ACAD_REACTORS
330
C
102
}
330
C
100
AcDbDictionary
281
     1
  0
ACDBDICTIONARYWDFLT
  5
E
102
{ACAD_REACTORS
330
C
102
}
330
C
100
AcDbDictionary
281
     1
  3
Normal
350
F
100
AcDbDictionaryWithDefault
340
F
  0
DICTIONARY
  5
42
102
{ACAD_REACTORS
330
C
102
}
330
C
100
AcDbDictionary
281
     1
  3
*A1
350
A2
  3
*A10
350
AB
  3
*A11
350
AC
  3
*A12
350
AD
  3
*A13
350
AE
  3
*A14
350
AF
  3
*A15
350
B0
  3
*A16
350
B1
  3
*A2
350
A3
  3
*A3
350
A4
  3
*A4
350
A5
  3
*A5
350
A6
  3
*A6
350
A7
  3
*A7
350
A8
  3
*A8
350
A9
  3
*A9
350
AA
  3
A0
350
43
  3
A1
350
44
  3
A2
350
45
  3
A3
350
46
  3
A4
350
47
  3
A5
350
48
  3
A6
350
49
  3
A7
350
4A
  3
A8
350
4B
  3
A9
350
4C
  3
B0
350
4D
  3
B1
350
4E
  3
B2
350
4F
  3
B3
350
50
  3
B4
350
51
  3
B5
350
52
  3
B6
350
53
  0
DICTIONARY
  5
68
102
{ACAD_REACTORS
330
C
102
}
330
C
100
AcDbDictionary
281
     1
  3
Imperial24
350
69
  0
DICTIONARY
  5
64
102
{ACAD_REACTORS
330
C
102
}
330
C
100
AcDbDictionary
281
     1
  3
Standard
350
65
  0
DICTIONARY
  5
29
102
{ACAD_REACTORS
330
C
102
}
330
C
100
AcDbDictionary
281
     1
  3
2dWireframe
350
2F
  3
Basic
350
2E
  3
Brighten
350
35
  3
ColorChange
350
39
  3
Conceptual
350
32
  3
Dim
350
34
  3
EdgeColorOff
350
41
  3
Facepattern
350
38
  3
Flat
350
2A
  3
FlatWithEdges
350
2B
  3
Gouraud
350
2C
  3
GouraudWithEdges
350
2D
  3
Hidden
350
31
  3
JitterOff
350
3F
  3
Linepattern
350
37
  3
OverhangOff
350
40
  3
Realistic
350
33
  3
Shaded
350
3E
  3
Shaded with edges
350
3D
  3
Shades of Gray
350
3A
  3
Sketchy
350
3B
  3
Thicken
350
36
  3
Wireframe
350
30
  3
X-Ray
350
3C
  0
XRECORD
  5
34E
102
{ACAD_REACTORS
330
C
102
}
330
C
100
AcDbXrecord
280
     1
 90
        1
330
65
330
11E
330
128
330
129
330
12A
330
12D
  0
DICTIONARY
  5
345
102
{ACAD_REACTORS
330
C
102
}
330
C
100
AcDbDictionary
281
     1
  3
ANNOALLVISIBLE
350
34A
  3
CANNOSCALE
350
34B
  3
CMLEADERSTYLE
350
347
  3
CTABLESTYLE
350
346
  3
CVIEWDETAILSTYLE
350
348
  3
CVIEWSECTIONSTYLE
350
349
  0
SORTENTSTABLE
  5
10E
102
{ACAD_REACTORS
330
B2
102
}
330
B2
100
AcDbSortentsTable
330
70
  0
SORTENTSTABLE
  5
2BE
102
{ACAD_REACTORS
330
112
102
}
330
112
100
AcDbSortentsTable
330
111
  0
ACDBDETAILVIEWSTYLE
  5
6B
102
{ACAD_XDICTIONARY
360
351
102
}
102
{ACAD_REACTORS
330
6A
102
}
330
6A
100
AcDbModelDocViewStyle
 70
     0
  3
Imperial24
290
     0
100
AcDbDetailViewStyle
 70
     0
 71
     0
 90
        3
 71
     1
340
55
 62
   256
 40
0.24
340
0
 62
   256
 40
0.24
300

 40
0.36
280
     3
 71
     2
340
5D
 90
       25
 62
   256
 71
     3
340
55
 62
   256
 40
0.24
 90
        1
 40
0.75
 90
        1
300
%<\AcVar ViewType \f "%tc1">% %<\AcVar ViewDetailId>%\PSCALE %<\AcVar ViewScale \f "%sn">%
 71
     4
340
5D
 90
       25
 62
   256
340
5D
 90
       25
 62
   256
280
     0
  0
IMAGEDEF
  5
117
102
{ACAD_REACTORS
330
118
330
119
330
306
102
}
330
118
100
AcDbRasterImageDef
 90
        0
  1
morse_logo-16 (1)_01-2018(B)_1_1.jpg
 10
948.0
 20
333.0
 11
0.264583
 21
0.264583
280
     1
281
     5
  0
LAYOUT
  5
73
102
{ACAD_REACTORS
330
62
102
}
330
62
100
AcDbPlotSettings
  1

  2
AutoCAD PDF (High Quality Print).pc3
  4
ANSI_full_bleed_B_(17.00_x_11.00_Inches)
  6

 40
0.0
 41
0.0
 42
0.0
 43
0.0
 44
431.799988
 45
279.399994
 46
0.0
 47
0.0
 48
0.0
 49
0.0
140
0.0
141
0.0
142
1.0
143
1.672053
 70
 11952
 72
     0
 73
     0
 74
     0
  7

 75
     0
147
0.598067
 76
     0
 77
     2
 78
   300
148
157.235038
149
95.588736
100
AcDbLayout
  1
Model
 70
     1
 71
     0
 10
0.0
 20
0.0
 11
12.0
 21
9.0
 12
0.0
 22
0.0
 32
0.0
 14
0.0
 24
0.0
 34
0.0
 15
0.0
 25
0.0
 35
0.0
146
0.0
 13
0.0
 23
0.0
 33
0.0
 16
1.0
 26
0.0
 36
0.0
 17
0.0
 27
1.0
 37
0.0
 76
     0
330
70
1001
ACAD_PSEXT
1000
AutoCAD PDF (High Quality Print).pc3
1000
DWG To PDF
1000
File
1000

1070
     0
  0
LAYOUT
  5
6F
102
{ACAD_REACTORS
330
62
102
}
330
62
100
AcDbPlotSettings
  1

  2
None
  4

  6

 40
0.0
 41
0.0
 42
0.0
 43
0.0
 44
0.0
 45
0.0
 46
0.0
 47
0.0
 48
0.0
 49
0.0
140
0.0
141
0.0
142
1.0
143
1.0
 70
   688
 72
     0
 73
     0
 74
     5
  7

 75
    16
147
1.0
 76
     0
 77
     2
 78
   300
148
0.0
149
0.0
100
AcDbLayout
  1
Sheet1
 70
     1
 71
     1
 10
0.0
 20
0.0
 11
12.0
 21
9.0
 12
0.0
 22
0.0
 32
0.0
 14
0.0
 24
0.0
 34
0.0
 15
0.0
 25
0.0
 35
0.0
146
0.0
 13
0.0
 23
0.0
 33
0.0
 16
1.0
 26
0.0
 36
0.0
 17
0.0
 27
1.0
 37
0.0
 76
     0
330
6C
  0
LAYOUT
  5
77
102
{ACAD_REACTORS
330
62
102
}
330
62
100
AcDbPlotSettings
  1

  2
None
  4

  6

 40
0.0
 41
0.0
 42
0.0
 43
0.0
 44
0.0
 45
0.0
 46
0.0
 47
0.0
 48
0.0
 49
0.0
140
0.0
141
0.0
142
1.0
143
1.0
 70
   688
 72
     0
 73
     0
 74
     5
  7

 75
    16
147
1.0
 76
     0
 77
     2
 78
   300
148
0.0
149
0.0
100
AcDbLayout
  1
Sheet2
 70
     1
 71
     2
 10
0.0
 20
0.0
 11
12.0
 21
9.0
 12
0.0
 22
0.0
 32
0.0
 14
0.0
 24
0.0
 34
0.0
 15
0.0
 25
0.0
 35
0.0
146
0.0
 13
0.0
 23
0.0
 33
0.0
 16
1.0
 26
0.0
 36
0.0
 17
0.0
 27
1.0
 37
0.0
 76
     0
330
74
  0
MATERIAL
  5
19
102
{ACAD_XDICTIONARY
360
1A
102
}
102
{ACAD_REACTORS
330
10
102
}
330
10
100
AcDbMaterial
  1
ByBlock
 72
     0
 43
0.020833
 43
0.0
 43
0.0
 43
0.0
 43
0.0
 43
0.020833
 43
0.0
 43
0.0
 43
0.0
 43
0.0
 43
1.0
 43
0.0
 43
0.0
 43
0.0
 43
0.0
 43
1.0
 77
     0
 47
0.020833
 47
0.0
 47
0.0
 47
0.0
 47
0.0
 47
0.020833
 47
0.0
 47
0.0
 47
0.0
 47
0.0
 47
1.0
 47
0.0
 47
0.0
 47
0.0
 47
0.0
 47
1.0
171
     0
 49
0.020833
 49
0.0
 49
0.0
 49
0.0
 49
0.0
 49
0.020833
 49
0.0
 49
0.0
 49
0.0
 49
0.0
 49
1.0
 49
0.0
 49
0.0
 49
0.0
 49
0.0
 49
1.0
175
     0
142
0.020833
142
0.0
142
0.0
142
0.0
142
0.0
142
0.020833
142
0.0
142
0.0
142
0.0
142
0.0
142
1.0
142
0.0
142
0.0
142
0.0
142
0.0
142
1.0
179
     0
144
0.020833
144
0.0
144
0.0
144
0.0
144
0.0
144
0.020833
144
0.0
144
0.0
144
0.0
144
0.0
144
1.0
144
0.0
144
0.0
144
0.0
144
0.0
144
1.0
147
0.020833
147
0.0
147
0.0
147
0.0
147
0.0
147
0.020833
147
0.0
147
0.0
147
0.0
147
0.0
147
1.0
147
0.0
147
0.0
147
0.0
147
0.0
147
1.0
  0
MATERIAL
  5
11
102
{ACAD_XDICTIONARY
360
12
102
}
102
{ACAD_REACTORS
330
10
102
}
330
10
100
AcDbMaterial
  1
ByLayer
 72
     0
 43
0.020833
 43
0.0
 43
0.0
 43
0.0
 43
0.0
 43
0.020833
 43
0.0
 43
0.0
 43
0.0
 43
0.0
 43
1.0
 43
0.0
 43
0.0
 43
0.0
 43
0.0
 43
1.0
 77
     0
 47
0.020833
 47
0.0
 47
0.0
 47
0.0
 47
0.0
 47
0.020833
 47
0.0
 47
0.0
 47
0.0
 47
0.0
 47
1.0
 47
0.0
 47
0.0
 47
0.0
 47
0.0
 47
1.0
171
     0
 49
0.020833
 49
0.0
 49
0.0
 49
0.0
 49
0.0
 49
0.020833
 49
0.0
 49
0.0
 49
0.0
 49
0.0
 49
1.0
 49
0.0
 49
0.0
 49
0.0
 49
0.0
 49
1.0
175
     0
142
0.020833
142
0.0
142
0.0
142
0.0
142
0.0
142
0.020833
142
0.0
142
0.0
142
0.0
142
0.0
142
1.0
142
0.0
142
0.0
142
0.0
142
0.0
142
1.0
179
     0
144
0.020833
144
0.0
144
0.0
144
0.0
144
0.0
144
0.020833
144
0.0
144
0.0
144
0.0
144
0.0
144
1.0
144
0.0
144
0.0
144
0.0
144
0.0
144
1.0
147
0.020833
147
0.0
147
0.0
147
0.0
147
0.0
147
0.020833
147
0.0
147
0.0
147
0.0
147
0.0
147
1.0
147
0.0
147
0.0
147
0.0
147
0.0
147
1.0
  0
MATERIAL
  5
21
102
{ACAD_XDICTIONARY
360
22
102
}
102
{ACAD_REACTORS
330
10
102
}
330
10
100
AcDbMaterial
  1
Global
 72
     0
 43
0.020833
 43
0.0
 43
0.0
 43
0.0
 43
0.0
 43
0.020833
 43
0.0
 43
0.0
 43
0.0
 43
0.0
 43
1.0
 43
0.0
 43
0.0
 43
0.0
 43
0.0
 43
1.0
 77
     0
 47
0.020833
 47
0.0
 47
0.0
 47
0.0
 47
0.0
 47
0.020833
 47
0.0
 47
0.0
 47
0.0
 47
0.0
 47
1.0
 47
0.0
 47
0.0
 47
0.0
 47
0.0
 47
1.0
171
     0
 49
0.020833
 49
0.0
 49
0.0
 49
0.0
 49
0.0
 49
0.020833
 49
0.0
 49
0.0
 49
0.0
 49
0.0
 49
1.0
 49
0.0
 49
0.0
 49
0.0
 49
0.0
 49
1.0
175
     0
142
0.020833
142
0.0
142
0.0
142
0.0
142
0.0
142
0.020833
142
0.0
142
0.0
142
0.0
142
0.0
142
1.0
142
0.0
142
0.0
142
0.0
142
0.0
142
1.0
179
     0
144
0.020833
144
0.0
144
0.0
144
0.0
144
0.0
144
0.020833
144
0.0
144
0.0
144
0.0
144
0.0
144
1.0
144
0.0
144
0.0
144
0.0
144
0.0
144
1.0
147
0.020833
147
0.0
147
0.0
147
0.0
147
0.0
147
0.020833
147
0.0
147
0.0
147
0.0
147
0.0
147
1.0
147
0.0
147
0.0
147
0.0
147
0.0
147
1.0
  0
MLEADERSTYLE
  5
67
102
{ACAD_REACTORS
330
66
102
}
330
66
100
AcDbMLeaderStyle
179
     2
170
     2
171
     1
172
     0
 90
        2
 40
0.0
 41
0.0
173
     1
 91
-1056964608
340
5B
 92
       -2
290
     1
 42
0.09
291
     1
 43
0.36
  3
Standard
 44
0.18
300

342
55
174
     1
178
     6
175
     1
176
     0
 93
-1056964608
 45
0.18
292
     0
297
     0
 46
0.18
 94
-1056964608
 47
1.0
 49
1.0
140
1.0
293
     1
141
0.0
294
     1
177
     0
142
1.0
295
     0
296
     0
143
0.125
271
     0
272
     9
273
     9
298
     1
  0
MLINESTYLE
  5
60
102
{ACAD_REACTORS
330
5F
102
}
330
5F
100
AcDbMlineStyle
  2
STANDARD
 70
     0
  3

 62
   256
 51
90.0
 52
90.0
 71
     0
  0
ACDBPLACEHOLDER
  5
F
102
{ACAD_REACTORS
330
E
102
}
330
E
  0
SCALE
  5
A2
102
{ACAD_REACTORS
330
42
102
}
330
42
100
AcDbScale
 70
     0
300
1:2
140
1.0
141
2.0
290
     0
  0
SCALE
  5
AB
102
{ACAD_REACTORS
330
42
102
}
330
42
100
AcDbScale
 70
     0
300
1:50
140
1.0
141
50.0
290
     0
  0
SCALE
  5
AC
102
{ACAD_REACTORS
330
42
102
}
330
42
100
AcDbScale
 70
     0
300
1:100
140
1.0
141
100.0
290
     0
  0
SCALE
  5
AD
102
{ACAD_REACTORS
330
42
102
}
330
42
100
AcDbScale
 70
     0
300
2:1
140
2.0
141
1.0
290
     0
  0
SCALE
  5
AE
102
{ACAD_REACTORS
330
42
102
}
330
42
100
AcDbScale
 70
     0
300
4:1
140
4.0
141
1.0
290
     0
  0
SCALE
  5
AF
102
{ACAD_REACTORS
330
42
102
}
330
42
100
AcDbScale
 70
     0
300
8:1
140
8.0
141
1.0
290
     0
  0
SCALE
  5
B0
102
{ACAD_REACTORS
330
42
102
}
330
42
100
AcDbScale
 70
     0
300
10:1
140
10.0
141
1.0
290
     0
  0
SCALE
  5
B1
102
{ACAD_REACTORS
330
42
102
}
330
42
100
AcDbScale
 70
     0
300
100:1
140
100.0
141
1.0
290
     0
  0
SCALE
  5
A3
102
{ACAD_REACTORS
330
42
102
}
330
42
100
AcDbScale
 70
     0
300
1:4
140
1.0
141
4.0
290
     0
  0
SCALE
  5
A4
102
{ACAD_REACTORS
330
42
102
}
330
42
100
AcDbScale
 70
     0
300
1:5
140
1.0
141
5.0
290
     0
  0
SCALE
  5
A5
102
{ACAD_REACTORS
330
42
102
}
330
42
100
AcDbScale
 70
     0
300
1:8
140
1.0
141
8.0
290
     0
  0
SCALE
  5
A6
102
{ACAD_REACTORS
330
42
102
}
330
42
100
AcDbScale
 70
     0
300
1:10
140
1.0
141
10.0
290
     0
  0
SCALE
  5
A7
102
{ACAD_REACTORS
330
42
102
}
330
42
100
AcDbScale
 70
     0
300
1:16
140
1.0
141
16.0
290
     0
  0
SCALE
  5
A8
102
{ACAD_REACTORS
330
42
102
}
330
42
100
AcDbScale
 70
     0
300
1:20
140
1.0
141
20.0
290
     0
  0
SCALE
  5
A9
102
{ACAD_REACTORS
330
42
102
}
330
42
100
AcDbScale
 70
     0
300
1:30
140
1.0
141
30.0
290
     0
  0
SCALE
  5
AA
102
{ACAD_REACTORS
330
42
102
}
330
42
100
AcDbScale
 70
     0
300
1:40
140
1.0
141
40.0
290
     0
  0
SCALE
  5
43
102
{ACAD_REACTORS
330
42
102
}
330
42
100
AcDbScale
 70
     0
300
1:1
140
1.0
141
1.0
290
     1
  0
SCALE
  5
44
102
{ACAD_REACTORS
330
42
102
}
330
42
100
AcDbScale
 70
     0
300
1/128" = 1'-0"
140
0.007813
141
12.0
290
     0
  0
SCALE
  5
45
102
{ACAD_REACTORS
330
42
102
}
330
42
100
AcDbScale
 70
     0
300
1/64" = 1'-0"
140
0.015625
141
12.0
290
     0
  0
SCALE
  5
46
102
{ACAD_REACTORS
330
42
102
}
330
42
100
AcDbScale
 70
     0
300
1/32" = 1'-0"
140
0.03125
141
12.0
290
     0
  0
SCALE
  5
47
102
{ACAD_REACTORS
330
42
102
}
330
42
100
AcDbScale
 70
     0
300
1/16" = 1'-0"
140
0.0625
141
12.0
290
     0
  0
SCALE
  5
48
102
{ACAD_REACTORS
330
42
102
}
330
42
100
AcDbScale
 70
     0
300
3/32" = 1'-0"
140
0.09375
141
12.0
290
     0
  0
SCALE
  5
49
102
{ACAD_REACTORS
330
42
102
}
330
42
100
AcDbScale
 70
     0
300
1/8" = 1'-0"
140
0.125
141
12.0
290
     0
  0
SCALE
  5
4A
102
{ACAD_REACTORS
330
42
102
}
330
42
100
AcDbScale
 70
     0
300
3/16" = 1'-0"
140
0.1875
141
12.0
290
     0
  0
SCALE
  5
4B
102
{ACAD_REACTORS
330
42
102
}
330
42
100
AcDbScale
 70
     0
300
1/4" = 1'-0"
140
0.25
141
12.0
290
     0
  0
SCALE
  5
4C
102
{ACAD_REACTORS
330
42
102
}
330
42
100
AcDbScale
 70
     0
300
3/8" = 1'-0"
140
0.375
141
12.0
290
     0
  0
SCALE
  5
4D
102
{ACAD_REACTORS
330
42
102
}
330
42
100
AcDbScale
 70
     0
300
1/2" = 1'-0"
140
0.5
141
12.0
290
     0
  0
SCALE
  5
4E
102
{ACAD_REACTORS
330
42
102
}
330
42
100
AcDbScale
 70
     0
300
3/4" = 1'-0"
140
0.75
141
12.0
290
     0
  0
SCALE
  5
4F
102
{ACAD_REACTORS
330
42
102
}
330
42
100
AcDbScale
 70
     0
300
1" = 1'-0"
140
1.0
141
12.0
290
     0
  0
SCALE
  5
50
102
{ACAD_REACTORS
330
42
102
}
330
42
100
AcDbScale
 70
     0
300
1-1/2" = 1'-0"
140
1.5
141
12.0
290
     0
  0
SCALE
  5
51
102
{ACAD_REACTORS
330
42
102
}
330
42
100
AcDbScale
 70
     0
300
3" = 1'-0"
140
3.0
141
12.0
290
     0
  0
SCALE
  5
52
102
{ACAD_REACTORS
330
42
102
}
330
42
100
AcDbScale
 70
     0
300
6" = 1'-0"
140
6.0
141
12.0
290
     0
  0
SCALE
  5
53
102
{ACAD_REACTORS
330
42
102
}
330
42
100
AcDbScale
 70
     0
300
1'-0" = 1'-0"
140
12.0
141
12.0
290
     0
  0
ACDBSECTIONVIEWSTYLE
  5
69
102
{ACAD_XDICTIONARY
360
34F
102
}
102
{ACAD_REACTORS
330
68
102
}
330
68
100
AcDbModelDocViewStyle
 70
     0
  3
Imperial24
290
     0
100
AcDbSectionViewStyle
 70
     0
 71
     0
 90
       78
 71
     1
340
55
 62
   256
 40
0.24
340
0
340
0
 62
   256
 40
0.24
300
I, O, Q, S, X, Z
 40
0.48
 90
        3
 40
0.18
 90
        1
 71
     2
340
5D
 90
       25
 62
   256
340
5D
 90
       50
 62
   256
 40
0.24
 40
0.0
 40
0.24
 71
     3
340
55
 62
   256
 40
0.24
 90
        1
 40
0.75
 90
        1
300
%<\AcVar ViewType \f "%tc1">% %<\AcVar ViewSectionStartId>%-%<\AcVar ViewSectionEndId>%\PSCALE %<\AcVar ViewScale \f "%sn">%
 71
     4
 62
   256
 62
   257
300
ANSI31
 40
1.0
 90
        0
290
     0
290
     0
 90
        6
 40
0.0
 40
1.570796
 40
0.261799
 40
1.308997
 40
-0.261799
 40
1.832596
  0
TABLESTYLE
  5
65
102
{ACAD_XDICTIONARY
360
34C
102
}
102
{ACAD_REACTORS
330
64
102
}
330
64
100
AcDbTableStyle
280
     0
  3
Standard
 70
     0
 71
     0
 40
0.06
 41
0.06
280
     0
281
     0
  7
Standard
140
0.18
170
     2
 62
     0
 63
     7
283
     0
 90
      512
 91
        0
  1

274
    -2
284
     1
 64
     0
275
    -2
285
     1
 65
     0
276
    -2
286
     1
 66
     0
277
    -2
287
     1
 67
     0
278
    -2
288
     1
 68
     0
279
    -2
289
     1
 69
     0
  7
Standard
140
0.25
170
     5
 62
     0
 63
     7
283
     0
 90
      512
 91
        0
  1

274
    -2
284
     1
 64
     0
275
    -2
285
     1
 65
     0
276
    -2
286
     1
 66
     0
277
    -2
287
     1
 67
     0
278
    -2
288
     1
 68
     0
279
    -2
289
     1
 69
     0
  7
Standard
140
0.18
170
     5
 62
     0
 63
     7
283
     0
 90
      512
 91
        0
  1

274
    -2
284
     1
 64
     0
275
    -2
285
     1
 65
     0
276
    -2
286
     1
 66
     0
277
    -2
287
     1
 67
     0
278
    -2
288
     1
 68
     0
279
    -2
289
     1
 69
     0
  0
VISUALSTYLE
  5
2F
102
{ACAD_REACTORS
330
29
102
}
330
29
100
AcDbVisualStyle
  2
2dWireframe
 70
     4
177
     3
291
     0
 70
    58
 90
        0
176
     1
 90
        2
176
     1
 90
        0
176
     1
 90
        0
176
     1
 40
0.6
176
     1
 40
30.0
176
     1
 62
     7
420
 16777215
176
     1
 90
        1
176
     1
 90
        4
176
     1
 62
     7
176
     1
 62
   257
176
     1
 90
        1
176
     1
 90
        1
176
     1
 40
1.0
176
     1
 90
        0
176
     1
 62
   257
176
     1
 40
1.0
176
     1
 90
        1
176
     1
 90
        6
176
     1
 90
        2
176
     1
 62
     7
176
     1
 90
        5
176
     1
 90
        0
176
     1
 90
        0
176
     1
290
     0
176
     1
 90
        1
176
     1
 40
0.0
176
     1
 90
        0
176
     1
290
     1
176
     1
290
     1
176
     1
290
     0
176
     1
290
     0
176
     1
290
     0
176
     1
290
     0
176
     1
290
     0
176
     1
290
     0
176
     1
290
     0
176
     1
 90
       50
176
     1
 40
0.0
176
     1
 40
1.0
176
     1
 90
        0
176
     1
 62
    18
420
        0
176
     1
 90
       50
176
     1
 90
        3
176
     1
 62
     5
420
      255
176
     1
290
     0
176
     1
 90
       50
176
     1
 90
       50
176
     1
 90
       50
176
     1
290
     0
176
     1
 90
       50
176
     1
 62
   256
176
     0
 40
1.0
176
     0
 90
        2
176
     1
  1
strokes_ogs.tif
176
     1
290
     0
176
     1
 40
1.0
176
     1
 40
1.0
176
     1
1001
ACAD
1000
AcDbSavedByObjectVersion
1070
     0
  0
VISUALSTYLE
  5
2E
102
{ACAD_REACTORS
330
29
102
}
330
29
100
AcDbVisualStyle
  2
Basic
 70
     7
177
     3
291
     1
 70
    58
 90
        1
176
     1
 90
        0
176
     1
 90
        1
176
     1
 90
        0
176
     1
 40
0.6
176
     1
 40
30.0
176
     1
 62
     7
420
 16777215
176
     1
 90
        0
176
     1
 90
        4
176
     1
 62
     7
176
     1
 62
   257
176
     1
 90
        1
176
     1
 90
        1
176
     1
 40
1.0
176
     1
 90
        8
176
     1
 62
     7
176
     1
 40
1.0
176
     1
 90
        1
176
     1
 90
        6
176
     1
 90
        2
176
     1
 62
     7
176
     1
 90
        5
176
     1
 90
        0
176
     1
 90
        0
176
     1
290
     0
176
     1
 90
        1
176
     1
 40
0.0
176
     1
 90
        0
176
     1
290
     0
176
     1
290
     1
176
     1
290
     1
176
     1
290
     0
176
     1
290
     0
176
     1
290
     0
176
     1
290
     0
176
     1
290
     0
176
     1
290
     0
176
     1
 90
       50
176
     1
 40
0.0
176
     1
 40
1.0
176
     1
 90
        0
176
     1
 62
    18
420
        0
176
     1
 90
       50
176
     1
 90
        3
176
     1
 62
     5
420
      255
176
     1
290
     0
176
     1
 90
       50
176
     1
 90
       50
176
     1
 90
       50
176
     1
290
     0
176
     1
 90
       50
176
     1
 62
   256
176
     0
 40
1.0
176
     0
 90
        2
176
     1
  1
strokes_ogs.tif
176
     1
290
     0
176
     1
 40
1.0
176
     1
 40
1.0
176
     1
1001
ACAD
1000
AcDbSavedByObjectVersion
1070
     0
  0
VISUALSTYLE
  5
35
102
{ACAD_REACTORS
330
29
102
}
330
29
100
AcDbVisualStyle
  2
Brighten
 70
    12
177
     3
291
     1
 70
    58
 90
        2
176
     1
 90
        2
176
     1
 90
        0
176
     1
 90
        0
176
     1
 40
0.6
176
     1
 40
30.0
176
     1
 62
     7
420
 16777215
176
     1
 90
        1
176
     1
 90
        4
176
     1
 62
     7
176
     1
 62
   257
176
     1
 90
        1
176
     1
 90
        1
176
     1
 40
1.0
176
     1
 90
        8
176
     1
 62
     7
176
     1
 40
1.0
176
     1
 90
        1
176
     1
 90
        6
176
     1
 90
        2
176
     1
 62
     7
176
     1
 90
        5
176
     1
 90
        0
176
     1
 90
        0
176
     1
290
     0
176
     1
 90
        1
176
     1
 40
50.0
176
     1
 90
        0
176
     1
290
     0
176
     1
290
     1
176
     1
290
     1
176
     1
290
     0
176
     1
290
     0
176
     1
290
     0
176
     1
290
     0
176
     1
290
     0
176
     1
290
     0
176
     1
 90
       50
176
     1
 40
0.0
176
     1
 40
1.0
176
     1
 90
        0
176
     1
 62
    18
420
        0
176
     1
 90
       50
176
     1
 90
        3
176
     1
 62
     5
420
      255
176
     1
290
     0
176
     1
 90
       50
176
     1
 90
       50
176
     1
 90
       50
176
     1
290
     0
176
     1
 90
       50
176
     1
 62
   256
176
     0
 40
1.0
176
     0
 90
        2
176
     1
  1
strokes_ogs.tif
176
     1
290
     0
176
     1
 40
1.0
176
     1
 40
1.0
176
     1
1001
ACAD
1000
AcDbSavedByObjectVersion
1070
     0
  0
VISUALSTYLE
  5
39
102
{ACAD_REACTORS
330
29
102
}
330
29
100
AcDbVisualStyle
  2
ColorChange
 70
    16
177
     3
291
     1
 70
    58
 90
        2
176
     1
 90
        2
176
     1
 90
        3
176
     1
 90
        0
176
     1
 40
0.6
176
     1
 40
30.0
176
     1
 62
     8
420
  8421504
176
     1
 90
        1
176
     1
 90
        4
176
     1
 62
     7
176
     1
 62
   257
176
     1
 90
        1
176
     1
 90
        1
176
     1
 40
1.0
176
     1
 90
        8
176
     1
 62
     8
420
  8421504
176
     1
 40
1.0
176
     1
 90
        1
176
     1
 90
        6
176
     1
 90
        2
176
     1
 62
     7
176
     1
 90
        5
176
     1
 90
        0
176
     1
 90
        0
176
     1
290
     0
176
     1
 90
        1
176
     1
 40
0.0
176
     1
 90
        0
176
     1
290
     0
176
     1
290
     1
176
     1
290
     1
176
     1
290
     0
176
     1
290
     0
176
     1
290
     0
176
     1
290
     0
176
     1
290
     0
176
     1
290
     0
176
     1
 90
       50
176
     1
 40
0.0
176
     1
 40
1.0
176
     1
 90
        0
176
     1
 62
    18
420
        0
176
     1
 90
       50
176
     1
 90
        3
176
     1
 62
     5
420
      255
176
     1
290
     0
176
     1
 90
       50
176
     1
 90
       50
176
     1
 90
       50
176
     1
290
     0
176
     1
 90
       50
176
     1
 62
   256
176
     0
 40
1.0
176
     0
 90
        2
176
     1
  1
strokes_ogs.tif
176
     1
290
     0
176
     1
 40
1.0
176
     1
 40
1.0
176
     1
1001
ACAD
1000
AcDbSavedByObjectVersion
1070
     0
  0
VISUALSTYLE
  5
32
102
{ACAD_REACTORS
330
29
102
}
330
29
100
AcDbVisualStyle
  2
Conceptual
 70
     9
177
     3
291
     0
 70
    58
 90
        3
176
     1
 90
        2
176
     1
 90
        0
176
     1
 90
        0
176
     1
 40
0.6
176
     1
 40
30.0
176
     1
 62
     7
420
 16777215
176
     1
 90
        2
176
     1
 90
        2
176
     1
 62
     7
176
     1
 62
   257
176
     1
 90
        1
176
     1
 90
        1
176
     1
 40
179.0
176
     1
 90
        8
176
     1
 62
     7
176
     1
 40
1.0
176
     1
 90
        1
176
     1
 90
        6
176
     1
 90
        2
176
     1
 62
     7
176
     1
 90
        3
176
     1
 90
        0
176
     1
 90
        0
176
     1
290
     0
176
     1
 90
        1
176
     1
 40
0.0
176
     1
 90
        0
176
     1
290
     0
176
     1
290
     1
176
     1
290
     1
176
     1
290
     0
176
     1
290
     0
176
     1
290
     0
176
     1
290
     0
176
     1
290
     0
176
     1
290
     0
176
     1
 90
       50
176
     1
 40
0.0
176
     1
 40
1.0
176
     1
 90
        0
176
     1
 62
    18
420
        0
176
     1
 90
       50
176
     1
 90
        3
176
     1
 62
     5
420
      255
176
     1
290
     0
176
     1
 90
       50
176
     1
 90
       50
176
     1
 90
       50
176
     1
290
     0
176
     1
 90
       50
176
     1
 62
   256
176
     0
 40
1.0
176
     0
 90
        2
176
     1
  1
strokes_ogs.tif
176
     1
290
     0
176
     1
 40
1.0
176
     1
 40
1.0
176
     1
1001
ACAD
1000
AcDbSavedByObjectVersion
1070
     0
  0
VISUALSTYLE
  5
34
102
{ACAD_REACTORS
330
29
102
}
330
29
100
AcDbVisualStyle
  2
Dim
 70
    11
177
     3
291
     1
 70
    58
 90
        2
176
     1
 90
        2
176
     1
 90
        0
176
     1
 90
        0
176
     1
 40
0.6
176
     1
 40
30.0
176
     1
 62
     7
420
 16777215
176
     1
 90
        1
176
     1
 90
        4
176
     1
 62
     7
176
     1
 62
   257
176
     1
 90
        1
176
     1
 90
        1
176
     1
 40
1.0
176
     1
 90
        8
176
     1
 62
     7
176
     1
 40
1.0
176
     1
 90
        1
176
     1
 90
        6
176
     1
 90
        2
176
     1
 62
     7
176
     1
 90
        5
176
     1
 90
        0
176
     1
 90
        0
176
     1
290
     0
176
     1
 90
        1
176
     1
 40
-50.0
176
     1
 90
        0
176
     1
290
     0
176
     1
290
     1
176
     1
290
     1
176
     1
290
     0
176
     1
290
     0
176
     1
290
     0
176
     1
290
     0
176
     1
290
     0
176
     1
290
     0
176
     1
 90
       50
176
     1
 40
0.0
176
     1
 40
1.0
176
     1
 90
        0
176
     1
 62
    18
420
        0
176
     1
 90
       50
176
     1
 90
        3
176
     1
 62
     5
420
      255
176
     1
290
     0
176
     1
 90
       50
176
     1
 90
       50
176
     1
 90
       50
176
     1
290
     0
176
     1
 90
       50
176
     1
 62
   256
176
     0
 40
1.0
176
     0
 90
        2
176
     1
  1
strokes_ogs.tif
176
     1
290
     0
176
     1
 40
1.0
176
     1
 40
1.0
176
     1
1001
ACAD
1000
AcDbSavedByObjectVersion
1070
     0
  0
VISUALSTYLE
  5
41
102
{ACAD_REACTORS
330
29
102
}
330
29
100
AcDbVisualStyle
  2
EdgeColorOff
 70
    22
177
     3
291
     1
 70
    58
 90
        2
176
     0
 90
        2
176
     0
 90
        0
176
     0
 90
        0
176
     0
 40
0.6
176
     0
 40
30.0
176
     0
 62
     7
420
 16777215
176
     0
 90
        1
176
     0
 90
        4
176
     0
 62
     7
176
     0
 62
   257
176
     0
 90
        1
176
     0
 90
        1
176
     0
 40
1.0
176
     0
 90
        8
176
     2
 62
     7
176
     0
 40
1.0
176
     0
 90
        1
176
     0
 90
        6
176
     0
 90
        2
176
     0
 62
     7
176
     0
 90
        5
176
     0
 90
        0
176
     0
 90
        0
176
     0
290
     0
176
     0
 90
        1
176
     0
 40
0.0
176
     0
 90
        0
176
     0
290
     0
176
     0
290
     1
176
     0
290
     1
176
     0
290
     0
176
     0
290
     0
176
     0
290
     0
176
     0
290
     0
176
     0
290
     0
176
     0
290
     0
176
     0
 90
       50
176
     0
 40
0.0
176
     0
 40
1.0
176
     0
 90
        0
176
     0
 62
    18
420
        0
176
     0
 90
       50
176
     0
 90
        3
176
     0
 62
     5
420
      255
176
     0
290
     0
176
     0
 90
       50
176
     0
 90
       50
176
     0
 90
       50
176
     0
290
     0
176
     0
 90
       50
176
     0
 62
   256
176
     0
 40
1.0
176
     0
 90
        2
176
     0
  1
strokes_ogs.tif
176
     0
290
     0
176
     0
 40
1.0
176
     0
 40
1.0
176
     0
1001
ACAD
1000
AcDbSavedByObjectVersion
1070
     0
  0
VISUALSTYLE
  5
38
102
{ACAD_REACTORS
330
29
102
}
330
29
100
AcDbVisualStyle
  2
Facepattern
 70
    15
177
     3
291
     1
 70
    58
 90
        2
176
     1
 90
        2
176
     1
 90
        0
176
     1
 90
        0
176
     1
 40
0.6
176
     1
 40
30.0
176
     1
 62
     7
420
 16777215
176
     1
 90
        1
176
     1
 90
        4
176
     1
 62
     7
176
     1
 62
   257
176
     1
 90
        1
176
     1
 90
        1
176
     1
 40
1.0
176
     1
 90
        8
176
     1
 62
     7
176
     1
 40
1.0
176
     1
 90
        1
176
     1
 90
        6
176
     1
 90
        2
176
     1
 62
     7
176
     1
 90
        5
176
     1
 90
        0
176
     1
 90
        0
176
     1
290
     0
176
     1
 90
        1
176
     1
 40
0.0
176
     1
 90
        0
176
     1
290
     0
176
     1
290
     1
176
     1
290
     1
176
     1
290
     0
176
     1
290
     0
176
     1
290
     0
176
     1
290
     0
176
     1
290
     0
176
     1
290
     0
176
     1
 90
       50
176
     1
 40
0.0
176
     1
 40
1.0
176
     1
 90
        0
176
     1
 62
    18
420
        0
176
     1
 90
       50
176
     1
 90
        3
176
     1
 62
     5
420
      255
176
     1
290
     0
176
     1
 90
       50
176
     1
 90
       50
176
     1
 90
       50
176
     1
290
     0
176
     1
 90
       50
176
     1
 62
   256
176
     0
 40
1.0
176
     0
 90
        2
176
     1
  1
strokes_ogs.tif
176
     1
290
     0
176
     1
 40
1.0
176
     1
 40
1.0
176
     1
1001
ACAD
1000
AcDbSavedByObjectVersion
1070
     0
  0
VISUALSTYLE
  5
2A
102
{ACAD_REACTORS
330
29
102
}
330
29
100
AcDbVisualStyle
  2
Flat
 70
     0
177
     3
291
     1
 70
    58
 90
        2
176
     1
 90
        1
176
     1
 90
        1
176
     1
 90
        2
176
     1
 40
0.6
176
     1
 40
30.0
176
     1
 62
     7
420
 16777215
176
     1
 90
        0
176
     1
 90
        0
176
     1
 62
     7
176
     1
 62
   257
176
     1
 90
        1
176
     1
 90
        1
176
     1
 40
1.0
176
     1
 90
        8
176
     1
 62
     7
176
     1
 40
1.0
176
     1
 90
        1
176
     1
 90
        6
176
     1
 90
        2
176
     1
 62
     7
176
     1
 90
        5
176
     1
 90
        0
176
     1
 90
        0
176
     1
290
     0
176
     1
 90
       13
176
     1
 40
0.0
176
     1
 90
        0
176
     1
290
     0
176
     1
290
     1
176
     1
290
     1
176
     1
290
     0
176
     1
290
     0
176
     1
290
     0
176
     1
290
     0
176
     1
290
     0
176
     1
290
     0
176
     1
 90
       50
176
     1
 40
0.0
176
     1
 40
1.0
176
     1
 90
        0
176
     1
 62
    18
420
        0
176
     1
 90
       50
176
     1
 90
        3
176
     1
 62
     5
420
      255
176
     1
290
     0
176
     1
 90
       50
176
     1
 90
       50
176
     1
 90
       50
176
     1
290
     0
176
     1
 90
       50
176
     1
 62
   256
176
     0
 40
1.0
176
     0
 90
        2
176
     1
  1
strokes_ogs.tif
176
     1
290
     0
176
     1
 40
1.0
176
     1
 40
1.0
176
     1
1001
ACAD
1000
AcDbSavedByObjectVersion
1070
     0
  0
VISUALSTYLE
  5
2B
102
{ACAD_REACTORS
330
29
102
}
330
29
100
AcDbVisualStyle
  2
FlatWithEdges
 70
     1
177
     3
291
     1
 70
    58
 90
        2
176
     1
 90
        1
176
     1
 90
        1
176
     1
 90
        2
176
     1
 40
0.6
176
     1
 40
30.0
176
     1
 62
     7
420
 16777215
176
     1
 90
        1
176
     1
 90
        0
176
     1
 62
     7
176
     1
 62
   257
176
     1
 90
        1
176
     1
 90
        1
176
     1
 40
1.0
176
     1
 90
        0
176
     1
 62
   257
176
     1
 40
1.0
176
     1
 90
        1
176
     1
 90
        6
176
     1
 90
        2
176
     1
 62
     7
176
     1
 90
        5
176
     1
 90
        0
176
     1
 90
        0
176
     1
290
     0
176
     1
 90
       13
176
     1
 40
0.0
176
     1
 90
        0
176
     1
290
     0
176
     1
290
     1
176
     1
290
     1
176
     1
290
     0
176
     1
290
     0
176
     1
290
     0
176
     1
290
     0
176
     1
290
     0
176
     1
290
     0
176
     1
 90
       50
176
     1
 40
0.0
176
     1
 40
1.0
176
     1
 90
        0
176
     1
 62
    18
420
        0
176
     1
 90
       50
176
     1
 90
        3
176
     1
 62
     5
420
      255
176
     1
290
     0
176
     1
 90
       50
176
     1
 90
       50
176
     1
 90
       50
176
     1
290
     0
176
     1
 90
       50
176
     1
 62
   256
176
     0
 40
1.0
176
     0
 90
        2
176
     1
  1
strokes_ogs.tif
176
     1
290
     0
176
     1
 40
1.0
176
     1
 40
1.0
176
     1
1001
ACAD
1000
AcDbSavedByObjectVersion
1070
     0
  0
VISUALSTYLE
  5
2C
102
{ACAD_REACTORS
330
29
102
}
330
29
100
AcDbVisualStyle
  2
Gouraud
 70
     2
177
     3
291
     1
 70
    58
 90
        2
176
     1
 90
        2
176
     1
 90
        1
176
     1
 90
        2
176
     1
 40
0.6
176
     1
 40
30.0
176
     1
 62
     7
420
 16777215
176
     1
 90
        0
176
     1
 90
        0
176
     1
 62
     7
176
     1
 62
   257
176
     1
 90
        1
176
     1
 90
        1
176
     1
 40
1.0
176
     1
 90
        0
176
     1
 62
     7
176
     1
 40
1.0
176
     1
 90
        1
176
     1
 90
        6
176
     1
 90
        2
176
     1
 62
     7
176
     1
 90
        5
176
     1
 90
        0
176
     1
 90
        0
176
     1
290
     0
176
     1
 90
       13
176
     1
 40
0.0
176
     1
 90
        0
176
     1
290
     0
176
     1
290
     1
176
     1
290
     1
176
     1
290
     0
176
     1
290
     0
176
     1
290
     0
176
     1
290
     0
176
     1
290
     0
176
     1
290
     0
176
     1
 90
       50
176
     1
 40
0.0
176
     1
 40
1.0
176
     1
 90
        0
176
     1
 62
    18
420
        0
176
     1
 90
       50
176
     1
 90
        3
176
     1
 62
     5
420
      255
176
     1
290
     0
176
     1
 90
       50
176
     1
 90
       50
176
     1
 90
       50
176
     1
290
     0
176
     1
 90
       50
176
     1
 62
   256
176
     0
 40
1.0
176
     0
 90
        2
176
     1
  1
strokes_ogs.tif
176
     1
290
     0
176
     1
 40
1.0
176
     1
 40
1.0
176
     1
1001
ACAD
1000
AcDbSavedByObjectVersion
1070
     0
  0
VISUALSTYLE
  5
2D
102
{ACAD_REACTORS
330
29
102
}
330
29
100
AcDbVisualStyle
  2
GouraudWithEdges
 70
     3
177
     3
291
     1
 70
    58
 90
        2
176
     1
 90
        2
176
     1
 90
        1
176
     1
 90
        2
176
     1
 40
0.6
176
     1
 40
30.0
176
     1
 62
     7
420
 16777215
176
     1
 90
        1
176
     1
 90
        0
176
     1
 62
     7
176
     1
 62
   257
176
     1
 90
        1
176
     1
 90
        1
176
     1
 40
1.0
176
     1
 90
        0
176
     1
 62
   257
176
     1
 40
1.0
176
     1
 90
        1
176
     1
 90
        6
176
     1
 90
        2
176
     1
 62
     7
176
     1
 90
        5
176
     1
 90
        0
176
     1
 90
        0
176
     1
290
     0
176
     1
 90
       13
176
     1
 40
0.0
176
     1
 90
        0
176
     1
290
     0
176
     1
290
     1
176
     1
290
     1
176
     1
290
     0
176
     1
290
     0
176
     1
290
     0
176
     1
290
     0
176
     1
290
     0
176
     1
290
     0
176
     1
 90
       50
176
     1
 40
0.0
176
     1
 40
1.0
176
     1
 90
        0
176
     1
 62
    18
420
        0
176
     1
 90
       50
176
     1
 90
        3
176
     1
 62
     5
420
      255
176
     1
290
     0
176
     1
 90
       50
176
     1
 90
       50
176
     1
 90
       50
176
     1
290
     0
176
     1
 90
       50
176
     1
 62
   256
176
     0
 40
1.0
176
     0
 90
        2
176
     1
  1
strokes_ogs.tif
176
     1
290
     0
176
     1
 40
1.0
176
     1
 40
1.0
176
     1
1001
ACAD
1000
AcDbSavedByObjectVersion
1070
     0
  0
VISUALSTYLE
  5
31
102
{ACAD_REACTORS
330
29
102
}
330
29
100
AcDbVisualStyle
  2
Hidden
 70
     6
177
     3
291
     0
 70
    58
 90
        1
176
     1
 90
        2
176
     1
 90
        2
176
     1
 90
        0
176
     1
 40
0.6
176
     1
 40
30.0
176
     1
 62
     7
420
 16777215
176
     1
 90
        2
176
     1
 90
        2
176
     1
 62
     7
176
     1
 62
   257
176
     1
 90
        2
176
     1
 90
        1
176
     1
 40
40.0
176
     1
 90
        0
176
     1
 62
   257
176
     1
 40
1.0
176
     1
 90
        1
176
     1
 90
        6
176
     1
 90
        2
176
     1
 62
     7
176
     1
 90
        3
176
     1
 90
        0
176
     1
 90
        0
176
     1
290
     0
176
     1
 90
        1
176
     1
 40
0.0
176
     1
 90
        0
176
     1
290
     0
176
     1
290
     1
176
     1
290
     1
176
     1
290
     0
176
     1
290
     0
176
     1
290
     0
176
     1
290
     0
176
     1
290
     0
176
     1
290
     0
176
     1
 90
       50
176
     1
 40
0.0
176
     1
 40
1.0
176
     1
 90
        0
176
     1
 62
    18
420
        0
176
     1
 90
       50
176
     1
 90
        3
176
     1
 62
     5
420
      255
176
     1
290
     0
176
     1
 90
       50
176
     1
 90
       50
176
     1
 90
       50
176
     1
290
     0
176
     1
 90
       50
176
     1
 62
   256
176
     0
 40
1.0
176
     0
 90
        2
176
     1
  1
strokes_ogs.tif
176
     1
290
     0
176
     1
 40
1.0
176
     1
 40
1.0
176
     1
1001
ACAD
1000
AcDbSavedByObjectVersion
1070
     0
  0
VISUALSTYLE
  5
3F
102
{ACAD_REACTORS
330
29
102
}
330
29
100
AcDbVisualStyle
  2
JitterOff
 70
    20
177
     3
291
     1
 70
    58
 90
        2
176
     0
 90
        2
176
     0
 90
        0
176
     0
 90
        0
176
     0
 40
0.6
176
     0
 40
30.0
176
     0
 62
     7
420
 16777215
176
     0
 90
        1
176
     0
 90
        4
176
     0
 62
     7
176
     0
 62
   257
176
     0
 90
        1
176
     0
 90
        1
176
     0
 40
1.0
176
     0
 90
       10
176
     2
 62
     7
176
     0
 40
1.0
176
     0
 90
        1
176
     0
 90
        6
176
     0
 90
        2
176
     0
 62
     7
176
     0
 90
        5
176
     0
 90
        0
176
     0
 90
        0
176
     0
290
     0
176
     0
 90
        1
176
     0
 40
0.0
176
     0
 90
        0
176
     0
290
     0
176
     0
290
     1
176
     0
290
     1
176
     0
290
     0
176
     0
290
     0
176
     0
290
     0
176
     0
290
     0
176
     0
290
     0
176
     0
290
     0
176
     0
 90
       50
176
     0
 40
0.0
176
     0
 40
1.0
176
     0
 90
        0
176
     0
 62
    18
420
        0
176
     0
 90
       50
176
     0
 90
        3
176
     0
 62
     5
420
      255
176
     0
290
     0
176
     0
 90
       50
176
     0
 90
       50
176
     0
 90
       50
176
     0
290
     0
176
     0
 90
       50
176
     0
 62
   256
176
     0
 40
1.0
176
     0
 90
        2
176
     0
  1
strokes_ogs.tif
176
     0
290
     0
176
     0
 40
1.0
176
     0
 40
1.0
176
     0
1001
ACAD
1000
AcDbSavedByObjectVersion
1070
     0
  0
VISUALSTYLE
  5
37
102
{ACAD_REACTORS
330
29
102
}
330
29
100
AcDbVisualStyle
  2
Linepattern
 70
    14
177
     3
291
     1
 70
    58
 90
        2
176
     1
 90
        2
176
     1
 90
        0
176
     1
 90
        0
176
     1
 40
0.6
176
     1
 40
30.0
176
     1
 62
     7
420
 16777215
176
     1
 90
        1
176
     1
 90
        4
176
     1
 62
     7
176
     1
 62
   257
176
     1
 90
        7
176
     1
 90
        7
176
     1
 40
1.0
176
     1
 90
        8
176
     1
 62
     7
176
     1
 40
1.0
176
     1
 90
        1
176
     1
 90
        6
176
     1
 90
        2
176
     1
 62
     7
176
     1
 90
        5
176
     1
 90
        0
176
     1
 90
        0
176
     1
290
     0
176
     1
 90
        1
176
     1
 40
0.0
176
     1
 90
        0
176
     1
290
     0
176
     1
290
     1
176
     1
290
     1
176
     1
290
     0
176
     1
290
     0
176
     1
290
     0
176
     1
290
     0
176
     1
290
     0
176
     1
290
     0
176
     1
 90
       50
176
     1
 40
0.0
176
     1
 40
1.0
176
     1
 90
        0
176
     1
 62
    18
420
        0
176
     1
 90
       50
176
     1
 90
        3
176
     1
 62
     5
420
      255
176
     1
290
     0
176
     1
 90
       50
176
     1
 90
       50
176
     1
 90
       50
176
     1
290
     0
176
     1
 90
       50
176
     1
 62
   256
176
     0
 40
1.0
176
     0
 90
        2
176
     1
  1
strokes_ogs.tif
176
     1
290
     0
176
     1
 40
1.0
176
     1
 40
1.0
176
     1
1001
ACAD
1000
AcDbSavedByObjectVersion
1070
     0
  0
VISUALSTYLE
  5
40
102
{ACAD_REACTORS
330
29
102
}
330
29
100
AcDbVisualStyle
  2
OverhangOff
 70
    21
177
     3
291
     1
 70
    58
 90
        2
176
     0
 90
        2
176
     0
 90
        0
176
     0
 90
        0
176
     0
 40
0.6
176
     0
 40
30.0
176
     0
 62
     7
420
 16777215
176
     0
 90
        1
176
     0
 90
        4
176
     0
 62
     7
176
     0
 62
   257
176
     0
 90
        1
176
     0
 90
        1
176
     0
 40
1.0
176
     0
 90
        9
176
     2
 62
     7
176
     0
 40
1.0
176
     0
 90
        1
176
     0
 90
        6
176
     0
 90
        2
176
     0
 62
     7
176
     0
 90
        5
176
     0
 90
        0
176
     0
 90
        0
176
     0
290
     0
176
     0
 90
        1
176
     0
 40
0.0
176
     0
 90
        0
176
     0
290
     0
176
     0
290
     1
176
     0
290
     1
176
     0
290
     0
176
     0
290
     0
176
     0
290
     0
176
     0
290
     0
176
     0
290
     0
176
     0
290
     0
176
     0
 90
       50
176
     0
 40
0.0
176
     0
 40
1.0
176
     0
 90
        0
176
     0
 62
    18
420
        0
176
     0
 90
       50
176
     0
 90
        3
176
     0
 62
     5
420
      255
176
     0
290
     0
176
     0
 90
       50
176
     0
 90
       50
176
     0
 90
       50
176
     0
290
     0
176
     0
 90
       50
176
     0
 62
   256
176
     0
 40
1.0
176
     0
 90
        2
176
     0
  1
strokes_ogs.tif
176
     0
290
     0
176
     0
 40
1.0
176
     0
 40
1.0
176
     0
1001
ACAD
1000
AcDbSavedByObjectVersion
1070
     0
  0
VISUALSTYLE
  5
33
102
{ACAD_REACTORS
330
29
102
}
330
29
100
AcDbVisualStyle
  2
Realistic
 70
     8
177
     3
291
     0
 70
    58
 90
        2
176
     1
 90
        3
176
     1
 90
        0
176
     1
 90
        2
176
     1
 40
0.6
176
     1
 40
30.0
176
     1
 62
     7
420
 16777215
176
     1
 90
        0
176
     1
 90
        0
176
     1
 62
     7
176
     1
 62
   257
176
     1
 90
        1
176
     1
 90
        1
176
     1
 40
1.0
176
     1
 90
        8
176
     1
 62
   257
176
     1
 40
1.0
176
     1
 90
        1
176
     1
 90
        6
176
     1
 90
        2
176
     1
 62
     7
176
     1
 90
        3
176
     1
 90
        0
176
     1
 90
        0
176
     1
290
     0
176
     1
 90
       13
176
     1
 40
0.0
176
     1
 90
        0
176
     1
290
     0
176
     1
290
     1
176
     1
290
     1
176
     1
290
     0
176
     1
290
     0
176
     1
290
     0
176
     1
290
     0
176
     1
290
     0
176
     1
290
     0
176
     1
 90
       50
176
     1
 40
0.0
176
     1
 40
1.0
176
     1
 90
        0
176
     1
 62
    18
420
        0
176
     1
 90
       50
176
     1
 90
        3
176
     1
 62
     5
420
      255
176
     1
290
     0
176
     1
 90
       50
176
     1
 90
       50
176
     1
 90
       50
176
     1
290
     0
176
     1
 90
       50
176
     1
 62
   256
176
     0
 40
1.0
176
     0
 90
        2
176
     1
  1
strokes_ogs.tif
176
     1
290
     0
176
     1
 40
1.0
176
     1
 40
1.0
176
     1
1001
ACAD
1000
AcDbSavedByObjectVersion
1070
     0
  0
VISUALSTYLE
  5
3E
102
{ACAD_REACTORS
330
29
102
}
330
29
100
AcDbVisualStyle
  2
Shaded
 70
    27
177
     3
291
     0
 70
    58
 90
        2
176
     1
 90
        2
176
     1
 90
        1
176
     1
 90
        2
176
     1
 40
0.6
176
     1
 40
30.0
176
     1
 62
     7
420
 16777215
176
     1
 90
        0
176
     1
 90
        4
176
     1
 62
     7
176
     1
 62
   257
176
     1
 90
        1
176
     1
 90
        1
176
     1
 40
1.0
176
     1
 90
        8
176
     1
 62
   257
176
     1
 40
1.0
176
     1
 90
        1
176
     1
 90
        6
176
     1
 90
        2
176
     1
 62
     8
420
  7895160
176
     1
 90
        3
176
     1
 90
        0
176
     1
 90
        0
176
     1
290
     0
176
     1
 90
        5
176
     1
 40
0.0
176
     1
 90
        0
176
     1
290
     0
176
     1
290
     1
176
     1
290
     1
176
     1
290
     0
176
     1
290
     0
176
     1
290
     0
176
     1
290
     0
176
     1
290
     0
176
     1
290
     0
176
     1
 90
       50
176
     1
 40
0.0
176
     1
 40
1.0
176
     1
 90
        0
176
     1
 62
    18
420
        0
176
     1
 90
       50
176
     1
 90
        3
176
     1
 62
     5
420
      255
176
     1
290
     0
176
     1
 90
       50
176
     1
 90
       50
176
     1
 90
       50
176
     1
290
     0
176
     1
 90
       50
176
     1
 62
   256
176
     0
 40
1.0
176
     0
 90
        2
176
     1
  1
strokes_ogs.tif
176
     1
290
     0
176
     1
 40
1.0
176
     1
 40
1.0
176
     1
1001
ACAD
1000
AcDbSavedByObjectVersion
1070
     0
  0
VISUALSTYLE
  5
3D
102
{ACAD_REACTORS
330
29
102
}
330
29
100
AcDbVisualStyle
  2
Shaded with edges
 70
    26
177
     3
291
     0
 70
    58
 90
        2
176
     1
 90
        2
176
     1
 90
        1
176
     1
 90
        2
176
     1
 40
0.6
176
     1
 40
30.0
176
     1
 62
     7
420
 16777215
176
     1
 90
        1
176
     1
 90
        2
176
     1
 62
     7
176
     1
 62
   257
176
     1
 90
        2
176
     1
 90
        1
176
     1
 40
1.0
176
     1
 90
        8
176
     1
 62
   257
176
     1
 40
1.0
176
     1
 90
        1
176
     1
 90
        6
176
     1
 90
        2
176
     1
 62
     7
176
     1
 90
        3
176
     1
 90
        0
176
     1
 90
        0
176
     1
290
     0
176
     1
 90
        5
176
     1
 40
0.0
176
     1
 90
        0
176
     1
290
     0
176
     1
290
     1
176
     1
290
     1
176
     1
290
     0
176
     1
290
     0
176
     1
290
     0
176
     1
290
     0
176
     1
290
     0
176
     1
290
     0
176
     1
 90
       50
176
     1
 40
0.0
176
     1
 40
1.0
176
     1
 90
        0
176
     1
 62
    18
420
        0
176
     1
 90
       50
176
     1
 90
        3
176
     1
 62
     5
420
      255
176
     1
290
     0
176
     1
 90
       50
176
     1
 90
       50
176
     1
 90
       50
176
     1
290
     0
176
     1
 90
       50
176
     1
 62
   256
176
     0
 40
1.0
176
     0
 90
        2
176
     1
  1
strokes_ogs.tif
176
     1
290
     0
176
     1
 40
1.0
176
     1
 40
1.0
176
     1
1001
ACAD
1000
AcDbSavedByObjectVersion
1070
     0
  0
VISUALSTYLE
  5
3A
102
{ACAD_REACTORS
330
29
102
}
330
29
100
AcDbVisualStyle
  2
Shades of Gray
 70
    23
177
     3
291
     0
 70
    58
 90
        2
176
     1
 90
        2
176
     1
 90
        3
176
     1
 90
        0
176
     1
 40
0.6
176
     1
 40
30.0
176
     1
 62
     7
420
 16777215
176
     1
 90
        2
176
     1
 90
        2
176
     1
 62
     7
176
     1
 62
     7
176
     1
 90
        1
176
     1
 90
        1
176
     1
 40
40.0
176
     1
 90
        8
176
     1
 62
     7
176
     1
 40
1.0
176
     1
 90
        1
176
     1
 90
        6
176
     1
 90
        2
176
     1
 62
     7
176
     1
 90
        3
176
     1
 90
        0
176
     1
 90
        0
176
     1
290
     0
176
     1
 90
        1
176
     1
 40
0.0
176
     1
 90
        0
176
     1
290
     0
176
     1
290
     1
176
     1
290
     1
176
     1
290
     0
176
     1
290
     0
176
     1
290
     0
176
     1
290
     0
176
     1
290
     0
176
     1
290
     0
176
     1
 90
       50
176
     1
 40
0.0
176
     1
 40
1.0
176
     1
 90
        0
176
     1
 62
    18
420
        0
176
     1
 90
       50
176
     1
 90
        3
176
     1
 62
     5
420
      255
176
     1
290
     0
176
     1
 90
       50
176
     1
 90
       50
176
     1
 90
       50
176
     1
290
     0
176
     1
 90
       50
176
     1
 62
   256
176
     0
 40
1.0
176
     0
 90
        2
176
     1
  1
strokes_ogs.tif
176
     1
290
     0
176
     1
 40
1.0
176
     1
 40
1.0
176
     1
1001
ACAD
1000
AcDbSavedByObjectVersion
1070
     0
  0
VISUALSTYLE
  5
3B
102
{ACAD_REACTORS
330
29
102
}
330
29
100
AcDbVisualStyle
  2
Sketchy
 70
    24
177
     3
291
     0
 70
    58
 90
        1
176
     1
 90
        2
176
     1
 90
        2
176
     1
 90
        0
176
     1
 40
0.6
176
     1
 40
30.0
176
     1
 62
     7
420
 16777215
176
     1
 90
        2
176
     1
 90
        2
176
     1
 62
     7
176
     1
 62
     7
176
     1
 90
        1
176
     1
 90
        1
176
     1
 40
40.0
176
     1
 90
       11
176
     1
 62
     7
176
     1
 40
1.0
176
     1
 90
        1
176
     1
 90
        6
176
     1
 90
        2
176
     1
 62
     7
176
     1
 90
        6
176
     1
 90
        0
176
     1
 90
        0
176
     1
290
     0
176
     1
 90
        1
176
     1
 40
0.0
176
     1
 90
        0
176
     1
290
     0
176
     1
290
     1
176
     1
290
     1
176
     1
290
     0
176
     1
290
     0
176
     1
290
     0
176
     1
290
     0
176
     1
290
     0
176
     1
290
     0
176
     1
 90
       50
176
     1
 40
0.0
176
     1
 40
1.0
176
     1
 90
        0
176
     1
 62
    18
420
        0
176
     1
 90
       50
176
     1
 90
        3
176
     1
 62
     5
420
      255
176
     1
290
     0
176
     1
 90
       50
176
     1
 90
       50
176
     1
 90
       50
176
     1
290
     0
176
     1
 90
       50
176
     1
 62
   256
176
     0
 40
1.0
176
     0
 90
        2
176
     1
  1
strokes_ogs.tif
176
     1
290
     0
176
     1
 40
1.0
176
     1
 40
1.0
176
     1
1001
ACAD
1000
AcDbSavedByObjectVersion
1070
     0
  0
VISUALSTYLE
  5
36
102
{ACAD_REACTORS
330
29
102
}
330
29
100
AcDbVisualStyle
  2
Thicken
 70
    13
177
     3
291
     1
 70
    58
 90
        2
176
     1
 90
        2
176
     1
 90
        0
176
     1
 90
        0
176
     1
 40
0.6
176
     1
 40
30.0
176
     1
 62
     7
420
 16777215
176
     1
 90
        1
176
     1
 90
        4
176
     1
 62
     7
176
     1
 62
   257
176
     1
 90
        1
176
     1
 90
        1
176
     1
 40
1.0
176
     1
 90
       12
176
     1
 62
     7
176
     1
 40
1.0
176
     1
 90
        1
176
     1
 90
        6
176
     1
 90
        2
176
     1
 62
     7
176
     1
 90
        5
176
     1
 90
        0
176
     1
 90
        0
176
     1
290
     0
176
     1
 90
        1
176
     1
 40
0.0
176
     1
 90
        0
176
     1
290
     0
176
     1
290
     1
176
     1
290
     1
176
     1
290
     0
176
     1
290
     0
176
     1
290
     0
176
     1
290
     0
176
     1
290
     0
176
     1
290
     0
176
     1
 90
       50
176
     1
 40
0.0
176
     1
 40
1.0
176
     1
 90
        0
176
     1
 62
    18
420
        0
176
     1
 90
       50
176
     1
 90
        3
176
     1
 62
     5
420
      255
176
     1
290
     0
176
     1
 90
       50
176
     1
 90
       50
176
     1
 90
       50
176
     1
290
     0
176
     1
 90
       50
176
     1
 62
   256
176
     0
 40
1.0
176
     0
 90
        2
176
     1
  1
strokes_ogs.tif
176
     1
290
     0
176
     1
 40
1.0
176
     1
 40
1.0
176
     1
1001
ACAD
1000
AcDbSavedByObjectVersion
1070
     0
  0
VISUALSTYLE
  5
30
102
{ACAD_REACTORS
330
29
102
}
330
29
100
AcDbVisualStyle
  2
Wireframe
 70
     5
177
     3
291
     0
 70
    58
 90
        0
176
     1
 90
        2
176
     1
 90
        0
176
     1
 90
        0
176
     1
 40
0.6
176
     1
 40
30.0
176
     1
 62
     7
420
 16777215
176
     1
 90
        1
176
     1
 90
        4
176
     1
 62
     7
176
     1
 62
   257
176
     1
 90
        1
176
     1
 90
        1
176
     1
 40
1.0
176
     1
 90
        0
176
     1
 62
   257
176
     1
 40
1.0
176
     1
 90
        1
176
     1
 90
        6
176
     1
 90
        2
176
     1
 62
     7
176
     1
 90
        3
176
     1
 90
        0
176
     1
 90
        0
176
     1
290
     0
176
     1
 90
        1
176
     1
 40
0.0
176
     1
 90
        0
176
     1
290
     0
176
     1
290
     1
176
     1
290
     1
176
     1
290
     0
176
     1
290
     0
176
     1
290
     0
176
     1
290
     0
176
     1
290
     0
176
     1
290
     0
176
     1
 90
       50
176
     1
 40
0.0
176
     1
 40
1.0
176
     1
 90
        0
176
     1
 62
    18
420
        0
176
     1
 90
       50
176
     1
 90
        3
176
     1
 62
     5
420
      255
176
     1
290
     0
176
     1
 90
       50
176
     1
 90
       50
176
     1
 90
       50
176
     1
290
     0
176
     1
 90
       50
176
     1
 62
   256
176
     0
 40
1.0
176
     0
 90
        2
176
     1
  1
strokes_ogs.tif
176
     1
290
     0
176
     1
 40
1.0
176
     1
 40
1.0
176
     1
1001
ACAD
1000
AcDbSavedByObjectVersion
1070
     0
  0
VISUALSTYLE
  5
3C
102
{ACAD_REACTORS
330
29
102
}
330
29
100
AcDbVisualStyle
  2
X-Ray
 70
    25
177
     3
291
     0
 70
    58
 90
        2
176
     1
 90
        2
176
     1
 90
        1
176
     1
 90
        1
176
     1
 40
0.5
176
     1
 40
30.0
176
     1
 62
     7
420
 16777215
176
     1
 90
        1
176
     1
 90
        0
176
     1
 62
     7
176
     1
 62
   257
176
     1
 90
        1
176
     1
 90
        1
176
     1
 40
1.0
176
     1
 90
        8
176
     1
 62
     7
176
     1
 40
1.0
176
     1
 90
        1
176
     1
 90
        6
176
     1
 90
        2
176
     1
 62
     7
176
     1
 90
        3
176
     1
 90
        0
176
     1
 90
        0
176
     1
290
     0
176
     1
 90
       13
176
     1
 40
0.0
176
     1
 90
        0
176
     1
290
     0
176
     1
290
     1
176
     1
290
     1
176
     1
290
     0
176
     1
290
     0
176
     1
290
     0
176
     1
290
     0
176
     1
290
     0
176
     1
290
     0
176
     1
 90
       50
176
     1
 40
0.0
176
     1
 40
1.0
176
     1
 90
        0
176
     1
 62
    18
420
        0
176
     1
 90
       50
176
     1
 90
        3
176
     1
 62
     5
420
      255
176
     1
290
     0
176
     1
 90
       50
176
     1
 90
       50
176
     1
 90
       50
176
     1
290
     0
176
     1
 90
       50
176
     1
 62
   256
176
     0
 40
1.0
176
     0
 90
        2
176
     1
  1
strokes_ogs.tif
176
     1
290
     0
176
     1
 40
1.0
176
     1
 40
1.0
176
     1
1001
ACAD
1000
AcDbSavedByObjectVersion
1070
     0
  0
DICTIONARYVAR
  5
34A
102
{ACAD_REACTORS
330
345
102
}
330
345
100
DictionaryVariables
280
     0
  1
0
  0
DICTIONARYVAR
  5
34B
102
{ACAD_REACTORS
330
345
102
}
330
345
100
DictionaryVariables
280
     0
  1
1:1
  0
DICTIONARYVAR
  5
347
102
{ACAD_REACTORS
330
345
102
}
330
345
100
DictionaryVariables
280
     0
  1
STANDARD
  0
DICTIONARYVAR
  5
346
102
{ACAD_REACTORS
330
345
102
}
330
345
100
DictionaryVariables
280
     0
  1
STANDARD
  0
DICTIONARYVAR
  5
348
102
{ACAD_REACTORS
330
345
102
}
330
345
100
DictionaryVariables
280
     0
  1
Imperial24
  0
DICTIONARYVAR
  5
349
102
{ACAD_REACTORS
330
345
102
}
330
345
100
DictionaryVariables
280
     0
  1
Imperial24
  0
DICTIONARY
  5
351
330
6B
100
AcDbDictionary
280
     1
281
     1
  3
ACAD_XREC_ROUNDTRIP
360
352
  0
DICTIONARY
  5
1A
330
19
100
AcDbDictionary
280
     1
281
     1
  3
BUMPTILE
360
1C
  3
DIFFUSETILE
360
1B
  3
OPACITYTILE
360
1F
  3
REFLECTIONTILE
360
1E
  3
REFRACTIONTILE
360
20
  3
SPECULARTILE
360
1D
  0
DICTIONARY
  5
12
330
11
100
AcDbDictionary
280
     1
281
     1
  3
BUMPTILE
360
14
  3
DIFFUSETILE
360
13
  3
OPACITYTILE
360
17
  3
REFLECTIONTILE
360
16
  3
REFRACTIONTILE
360
18
  3
SPECULARTILE
360
15
  0
DICTIONARY
  5
22
330
21
100
AcDbDictionary
280
     1
281
     1
  3
BUMPTILE
360
24
  3
DIFFUSETILE
360
23
  3
OPACITYTILE
360
27
  3
REFLECTIONTILE
360
26
  3
REFRACTIONTILE
360
28
  3
SPECULARTILE
360
25
  0
DICTIONARY
  5
34F
330
69
100
AcDbDictionary
280
     1
281
     1
  3
ACAD_XREC_ROUNDTRIP
360
350
  0
DICTIONARY
  5
34C
330
65
100
AcDbDictionary
280
     1
281
     1
  3
ACAD_ROUNDTRIP_2008_TABLESTYLE_CELLSTYLEMAP
360
34D
  0
XRECORD
  5
352
102
{ACAD_REACTORS
330
351
102
}
330
351
100
AcDbXrecord
280
     1
102
DISPLAYNAME
  1
Imperial24
102
FLAGS
 90
        0
  0
XRECORD
  5
1C
102
{ACAD_REACTORS
330
1A
102
}
330
1A
100
AcDbXrecord
280
     1
270
     1
271
     1
  0
XRECORD
  5
1B
102
{ACAD_REACTORS
330
1A
102
}
330
1A
100
AcDbXrecord
280
     1
270
     1
271
     1
  0
XRECORD
  5
1F
102
{ACAD_REACTORS
330
1A
102
}
330
1A
100
AcDbXrecord
280
     1
270
     1
271
     1
  0
XRECORD
  5
1E
102
{ACAD_REACTORS
330
1A
102
}
330
1A
100
AcDbXrecord
280
     1
270
     1
271
     1
  0
XRECORD
  5
20
102
{ACAD_REACTORS
330
1A
102
}
330
1A
100
AcDbXrecord
280
     1
270
     1
271
     1
  0
XRECORD
  5
1D
102
{ACAD_REACTORS
330
1A
102
}
330
1A
100
AcDbXrecord
280
     1
270
     1
271
     1
  0
XRECORD
  5
14
102
{ACAD_REACTORS
330
12
102
}
330
12
100
AcDbXrecord
280
     1
270
     1
271
     1
  0
XRECORD
  5
13
102
{ACAD_REACTORS
330
12
102
}
330
12
100
AcDbXrecord
280
     1
270
     1
271
     1
  0
XRECORD
  5
17
102
{ACAD_REACTORS
330
12
102
}
330
12
100
AcDbXrecord
280
     1
270
     1
271
     1
  0
XRECORD
  5
16
102
{ACAD_REACTORS
330
12
102
}
330
12
100
AcDbXrecord
280
     1
270
     1
271
     1
  0
XRECORD
  5
18
102
{ACAD_REACTORS
330
12
102
}
330
12
100
AcDbXrecord
280
     1
270
     1
271
     1
  0
XRECORD
  5
15
102
{ACAD_REACTORS
330
12
102
}
330
12
100
AcDbXrecord
280
     1
270
     1
271
     1
  0
XRECORD
  5
24
102
{ACAD_REACTORS
330
22
102
}
330
22
100
AcDbXrecord
280
     1
270
     1
271
     1
  0
XRECORD
  5
23
102
{ACAD_REACTORS
330
22
102
}
330
22
100
AcDbXrecord
280
     1
270
     1
271
     1
  0
XRECORD
  5
27
102
{ACAD_REACTORS
330
22
102
}
330
22
100
AcDbXrecord
280
     1
270
     1
271
     1
  0
XRECORD
  5
26
102
{ACAD_REACTORS
330
22
102
}
330
22
100
AcDbXrecord
280
     1
270
     1
271
     1
  0
XRECORD
  5
28
102
{ACAD_REACTORS
330
22
102
}
330
22
100
AcDbXrecord
280
     1
270
     1
271
     1
  0
XRECORD
  5
25
102
{ACAD_REACTORS
330
22
102
}
330
22
100
AcDbXrecord
280
     1
270
     1
271
     1
  0
XRECORD
  5
350
102
{ACAD_REACTORS
330
34F
102
}
330
34F
100
AcDbXrecord
280
     1
102
DISPLAYNAME
  1
Imperial24
102
FLAGS
 90
        0
  0
CELLSTYLEMAP
  5
34D
102
{ACAD_REACTORS
330
34C
102
}
330
34C
100
AcDbCellStyleMap
 90
        3
300
CELLSTYLE
  1
TABLEFORMAT_BEGIN
 90
        5
170
     1
 91
        0
 92
    32768
 62
   257
 93
        1
300
CONTENTFORMAT
  1
CONTENTFORMAT_BEGIN
 90
        0
 91
        0
 92
      512
 93
        0
300

 40
0.0
140
1.0
 94
        5
 62
     0
340
55
144
0.25
309
CONTENTFORMAT_END
171
     0
 94
        0
309
TABLEFORMAT_END
  1
CELLSTYLE_BEGIN
 90
        1
 91
        1
300
_TITLE
309
CELLSTYLE_END
300
CELLSTYLE
  1
TABLEFORMAT_BEGIN
 90
        5
170
     1
 91
        0
 92
        0
 62
   257
 93
        1
300
CONTENTFORMAT
  1
CONTENTFORMAT_BEGIN
 90
        0
 91
        0
 92
      512
 93
        0
300

 40
0.0
140
1.0
 94
        5
 62
     0
340
55
144
0.18
309
CONTENTFORMAT_END
171
     0
 94
        0
309
TABLEFORMAT_END
  1
CELLSTYLE_BEGIN
 90
        2
 91
        1
300
_HEADER
309
CELLSTYLE_END
300
CELLSTYLE
  1
TABLEFORMAT_BEGIN
 90
        5
170
     1
 91
        0
 92
        0
 62
   257
 93
        1
300
CONTENTFORMAT
  1
CONTENTFORMAT_BEGIN
 90
        0
 91
        0
 92
      512
 93
        0
300

 40
0.0
140
1.0
 94
        2
 62
     0
340
55
144
0.18
309
CONTENTFORMAT_END
171
     0
 94
        0
309
TABLEFORMAT_END
  1
CELLSTYLE_BEGIN
 90
        3
 91
        2
300
_DATA
309
CELLSTYLE_END
  0
ENDSEC
  0
EOF
