  0
SECTION
  2
HEADER
  9
$ACADVER
  1
AC1027
  9
$ACADMAINTVER
 70
   125
  9
$DWGCODEPAGE
  3
ANSI_1252
  9
$LASTSAVEDBY
  1
Administrator
  9
$REQUIREDVERSIONS
160
                 0
  9
$INSBASE
 10
0.0
 20
0.0
 30
0.0
  9
$EXTMIN
 10
0.0
 20
0.0
 30
-2.261622
  9
$EXTMAX
 10
17.0
 20
11.0
 30
2.787297
  9
$LIMMIN
 10
0.0
 20
0.0
  9
$LIMMAX
 10
17.0
 20
11.0
  9
$ORTHOMODE
 70
     0
  9
$REGENMODE
 70
     1
  9
$FILLMODE
 70
     1
  9
$QTEXTMODE
 70
     0
  9
$MIRRTEXT
 70
     0
  9
$LTSCALE
 40
0.75
  9
$ATTMODE
 70
     1
  9
$TEXTSIZE
 40
0.12
  9
$TRACEWID
 40
0.05
  9
$TEXTSTYLE
  7
Standard
  9
$CLAYER
  8
Titleblock
  9
$CELTYPE
  6
ByLayer
  9
$CECOLOR
 62
   256
  9
$CELTSCALE
 40
1.0
  9
$DISPSILH
 70
     0
  9
$DIMSCALE
 40
1.0
  9
$DIMASZ
 40
0.12
  9
$DIMEXO
 40
0.05
  9
$DIMDLI
 40
0.339411
  9
$DIMRND
 40
0.0
  9
$DIMDLE
 40
0.0
  9
$DIMEXE
 40
0.1
  9
$DIMTP
 40
0.01
  9
$DIMTM
 40
0.01
  9
$DIMTXT
 40
0.12
  9
$DIMCEN
 40
0.0
  9
$DIMTSZ
 40
0.0
  9
$DIMTOL
 70
     0
  9
$DIMLIM
 70
     0
  9
$DIMTIH
 70
     1
  9
$DIMTOH
 70
     1
  9
$DIMSE1
 70
     0
  9
$DIMSE2
 70
     0
  9
$DIMTAD
 70
     0
  9
$DIMZIN
 70
    12
  9
$DIMBLK
  1

  9
$DIMASO
 70
     1
  9
$DIMSHO
 70
     1
  9
$DIMPOST
  1
in
  9
$DIMAPOST
  1
mm
  9
$DIMALT
 70
     0
  9
$DIMALTD
 70
     2
  9
$DIMALTF
 40
25.4
  9
$DIMLFAC
 40
1.0
  9
$DIMTOFL
 70
     0
  9
$DIMTVP
 40
0.0
  9
$DIMTIX
 70
     0
  9
$DIMSOXD
 70
     0
  9
$DIMSAH
 70
     0
  9
$DIMBLK1
  1

  9
$DIMBLK2
  1

  9
$DIMSTYLE
  2
Standard
  9
$DIMCLRD
 70
   256
  9
$DIMCLRE
 70
   256
  9
$DIMCLRT
 70
   256
  9
$DIMTFAC
 40
1.0
  9
$DIMGAP
 40
0.06
  9
$DIMJUST
 70
     0
  9
$DIMSD1
 70
     0
  9
$DIMSD2
 70
     0
  9
$DIMTOLJ
 70
     1
  9
$DIMTZIN
 70
    12
  9
$DIMALTZ
 70
    12
  9
$DIMALTTZ
 70
    12
  9
$DIMUPT
 70
     0
  9
$DIMDEC
 70
     2
  9
$DIMTDEC
 70
     2
  9
$DIMALTU
 70
     2
  9
$DIMALTTD
 70
     2
  9
$DIMTXSTY
  7
Standard
  9
$DIMAUNIT
 70
     0
  9
$DIMADEC
 70
     2
  9
$DIMALTRND
 40
0.0
  9
$DIMAZIN
 70
     3
  9
$DIMDSEP
 70
    46
  9
$DIMATFIT
 70
     3
  9
$DIMFRAC
 70
     0
  9
$DIMLDRBLK
  1

  9
$DIMLUNIT
 70
     2
  9
$DIMLWD
 70
    -2
  9
$DIMLWE
 70
    -2
  9
$DIMTMOVE
 70
     0
  9
$DIMFXL
 40
1.0
  9
$DIMFXLON
 70
     0
  9
$DIMJOGANG
 40
0.785398
  9
$DIMTFILL
 70
     0
  9
$DIMTFILLCLR
 70
     0
  9
$DIMARCSYM
 70
     1
  9
$DIMLTYPE
  6

  9
$DIMLTEX1
  6

  9
$DIMLTEX2
  6

  9
$DIMTXTDIRECTION
 70
     0
  9
$LUNITS
 70
     2
  9
$LUPREC
 70
     4
  9
$SKETCHINC
 40
0.1
  9
$FILLETRAD
 40
0.0
  9
$AUNITS
 70
     0
  9
$AUPREC
 70
     0
  9
$MENU
  1
.
  9
$ELEVATION
 40
0.0
  9
$PELEVATION
 40
0.0
  9
$THICKNESS
 40
0.0
  9
$LIMCHECK
 70
     0
  9
$CHAMFERA
 40
0.0
  9
$CHAMFERB
 40
0.0
  9
$CHAMFERC
 40
0.0
  9
$CHAMFERD
 40
0.0
  9
$SKPOLY
 70
     0
  9
$TDCREATE
 40
2458890.571828704
  9
$TDUCREATE
 40
2458890.905162037
  9
$TDUPDATE
 40
2458890.571828704
  9
$TDUUPDATE
 40
2458890.905162037
  9
$TDINDWG
 40
0.0000000000
  9
$TDUSRTIMER
 40
0.0000000000
  9
$USRTIMER
 70
     1
  9
$ANGBASE
 50
0.0
  9
$ANGDIR
 70
     0
  9
$PDMODE
 70
     0
  9
$PDSIZE
 40
0.0
  9
$PLINEWID
 40
0.0
  9
$SPLFRAME
 70
     0
  9
$SPLINETYPE
 70
     6
  9
$SPLINESEGS
 70
     8
  9
$HANDSEED
  5
4EF
  9
$SURFTAB1
 70
     6
  9
$SURFTAB2
 70
     6
  9
$SURFTYPE
 70
     6
  9
$SURFU
 70
     6
  9
$SURFV
 70
     6
  9
$UCSBASE
  2

  9
$UCSNAME
  2

  9
$UCSORG
 10
0.0
 20
0.0
 30
0.0
  9
$UCSXDIR
 10
1.0
 20
0.0
 30
0.0
  9
$UCSYDIR
 10
0.0
 20
1.0
 30
0.0
  9
$UCSORTHOREF
  2

  9
$UCSORTHOVIEW
 70
     0
  9
$UCSORGTOP
 10
0.0
 20
0.0
 30
0.0
  9
$UCSORGBOTTOM
 10
0.0
 20
0.0
 30
0.0
  9
$UCSORGLEFT
 10
0.0
 20
0.0
 30
0.0
  9
$UCSORGRIGHT
 10
0.0
 20
0.0
 30
0.0
  9
$UCSORGFRONT
 10
0.0
 20
0.0
 30
0.0
  9
$UCSORGBACK
 10
0.0
 20
0.0
 30
0.0
  9
$PUCSBASE
  2

  9
$PUCSNAME
  2

  9
$PUCSORG
 10
0.0
 20
0.0
 30
0.0
  9
$PUCSXDIR
 10
1.0
 20
0.0
 30
0.0
  9
$PUCSYDIR
 10
0.0
 20
1.0
 30
0.0
  9
$PUCSORTHOREF
  2

  9
$PUCSORTHOVIEW
 70
     0
  9
$PUCSORGTOP
 10
0.0
 20
0.0
 30
0.0
  9
$PUCSORGBOTTOM
 10
0.0
 20
0.0
 30
0.0
  9
$PUCSORGLEFT
 10
0.0
 20
0.0
 30
0.0
  9
$PUCSORGRIGHT
 10
0.0
 20
0.0
 30
0.0
  9
$PUCSORGFRONT
 10
0.0
 20
0.0
 30
0.0
  9
$PUCSORGBACK
 10
0.0
 20
0.0
 30
0.0
  9
$USERI1
 70
     0
  9
$USERI2
 70
     0
  9
$USERI3
 70
     0
  9
$USERI4
 70
     0
  9
$USERI5
 70
     0
  9
$USERR1
 40
0.0
  9
$USERR2
 40
0.0
  9
$USERR3
 40
0.0
  9
$USERR4
 40
0.0
  9
$USERR5
 40
0.0
  9
$WORLDVIEW
 70
     1
  9
$SHADEDGE
 70
     3
  9
$SHADEDIF
 70
    70
  9
$TILEMODE
 70
     1
  9
$MAXACTVP
 70
    64
  9
$PINSBASE
 10
0.0
 20
0.0
 30
0.0
  9
$PLIMCHECK
 70
     0
  9
$PEXTMIN
 10
1.000000E+20
 20
1.000000E+20
 30
1.000000E+20
  9
$PEXTMAX
 10
-1.000000E+20
 20
-1.000000E+20
 30
-1.000000E+20
  9
$PLIMMIN
 10
0.0
 20
0.0
  9
$PLIMMAX
 10
12.0
 20
9.0
  9
$UNITMODE
 70
     0
  9
$VISRETAIN
 70
     1
  9
$PLINEGEN
 70
     0
  9
$PSLTSCALE
 70
     1
  9
$TREEDEPTH
 70
  3020
  9
$CMLSTYLE
  2
Standard
  9
$CMLJUST
 70
     0
  9
$CMLSCALE
 40
1.0
  9
$PROXYGRAPHICS
 70
     1
  9
$MEASUREMENT
 70
     0
  9
$CELWEIGHT
370
    -1
  9
$ENDCAPS
280
     0
  9
$JOINSTYLE
280
     0
  9
$LWDISPLAY
290
     0
  9
$INSUNITS
 70
     1
  9
$HYPERLINKBASE
  1

  9
$STYLESHEET
  1

  9
$XEDIT
290
     1
  9
$CEPSNTYPE
380
     0
  9
$PSTYLEMODE
290
     1
  9
$FINGERPRINTGUID
  2
{0EE3DE45-19EA-A84F-9989-4CF300559A98}
  9
$VERSIONGUID
  2
{908E1254-23F5-3042-83B8-73CEA18FC5B4}
  9
$EXTNAMES
290
     1
  9
$PSVPSCALE
 40
0.0
  9
$OLESTARTUP
290
     0
  9
$SORTENTS
280
   127
  9
$INDEXCTL
280
     0
  9
$HIDETEXT
280
     1
  9
$XCLIPFRAME
280
     2
  9
$HALOGAP
280
     0
  9
$OBSCOLOR
 70
   257
  9
$OBSLTYPE
280
     0
  9
$INTERSECTIONDISPLAY
280
     0
  9
$INTERSECTIONCOLOR
 70
   257
  9
$DIMASSOC
280
     2
  9
$PROJECTNAME
  1

  9
$CAMERADISPLAY
290
     0
  9
$LENSLENGTH
 40
50.0
  9
$CAMERAHEIGHT
 40
0.0
  9
$STEPSPERSEC
 40
2.0
  9
$STEPSIZE
 40
6.0
  9
$3DDWFPREC
 40
2.0
  9
$PSOLWIDTH
 40
0.25
  9
$PSOLHEIGHT
 40
4.0
  9
$LOFTANG1
 40
1.570796
  9
$LOFTANG2
 40
1.570796
  9
$LOFTMAG1
 40
0.0
  9
$LOFTMAG2
 40
0.0
  9
$LOFTPARAM
 70
     7
  9
$LOFTNORMALS
280
     1
  9
$LATITUDE
 40
37.795
  9
$LONGITUDE
 40
-122.394
  9
$NORTHDIRECTION
 40
0.0
  9
$TIMEZONE
 70
 -8000
  9
$LIGHTGLYPHDISPLAY
280
     1
  9
$TILEMODELIGHTSYNCH
280
     1
  9
$CMATERIAL
347
11
  9
$SOLIDHIST
280
     0
  9
$SHOWHIST
280
     1
  9
$DWFFRAME
280
     2
  9
$DGNFRAME
280
     0
  9
$REALWORLDSCALE
290
     1
  9
$INTERFERECOLOR
 62
     1
  9
$INTERFEREOBJVS
345
33
  9
$INTERFEREVPVS
346
30
  9
$CSHADOW
280
     0
  9
$SHADOWPLANELOCATION
 40
0.0
  0
ENDSEC
  0
SECTION
  2
CLASSES
  0
CLASS
  1
ACDBDICTIONARYWDFLT
  2
AcDbDictionaryWithDefault
  3
ObjectDBX Classes
 90
        0
 91
        1
280
     0
281
     0
  0
CLASS
  1
MATERIAL
  2
AcDbMaterial
  3
ObjectDBX Classes
 90
     1153
 91
        3
280
     0
281
     0
  0
CLASS
  1
VISUALSTYLE
  2
AcDbVisualStyle
  3
ObjectDBX Classes
 90
     4095
 91
       24
280
     0
281
     0
  0
CLASS
  1
SCALE
  2
AcDbScale
  3
ObjectDBX Classes
 90
     1153
 91
       33
280
     0
281
     0
  0
CLASS
  1
TABLESTYLE
  2
AcDbTableStyle
  3
ObjectDBX Classes
 90
     4095
 91
        1
280
     0
281
     0
  0
CLASS
  1
MLEADERSTYLE
  2
AcDbMLeaderStyle
  3
ACDB_MLEADERSTYLE_CLASS
 90
     4095
 91
        1
280
     0
281
     0
  0
CLASS
  1
ACDBSECTIONVIEWSTYLE
  2
AcDbSectionViewStyle
  3
ObjectDBX Classes
 90
     1025
 91
        1
280
     0
281
     0
  0
CLASS
  1
ACDBDETAILVIEWSTYLE
  2
AcDbDetailViewStyle
  3
ObjectDBX Classes
 90
     1025
 91
        1
280
     0
281
     0
  0
CLASS
  1
ACMESCOPE
  2
AcMeScope
  3
AcMeServices
 90
     1024
 91
        1
280
     0
281
     0
  0
CLASS
  1
ACMECOMMANDHISTORY
  2
AcMeCommandHistory
  3
AcMeServices
 90
     1024
 91
        1
280
     0
281
     0
  0
CLASS
  1
ACIMSYSVARMAN
  2
AcImSysVarManager
  3
AcMeServices
 90
     1024
 91
        1
280
     0
281
     0
  0
CLASS
  1
ACIMINTSYSVAR
  2
AcImIntSysVar
  3
AcMeServices
 90
     1024
 91
        1
280
     0
281
     0
  0
CLASS
  1
ACMESTATEMGR
  2
AcMeStateMgr
  3
AcMeServices
 90
     1024
 91
        1
280
     0
281
     0
  0
CLASS
  1
ACGREFMASTER
  2
AcGrefMaster
  3
AcAttribServices
 90
     1024
 91
        1
280
     0
281
     0
  0
CLASS
  1
SORTENTSTABLE
  2
AcDbSortentsTable
  3
ObjectDBX Classes
 90
        0
 91
        6
280
     0
281
     0
  0
CLASS
  1
IMAGE
  2
AcDbRasterImage
  3
ISM
 90
     2175
 91
        1
280
     0
281
     1
  0
CLASS
  1
IMAGEDEF
  2
AcDbRasterImageDef
  3
ISM
 90
        0
 91
        1
280
     0
281
     0
  0
CLASS
  1
IMAGEDEF_REACTOR
  2
AcDbRasterImageDefReactor
  3
ISM
 90
        1
 91
        2
280
     0
281
     0
  0
CLASS
  1
RASTERVARIABLES
  2
AcDbRasterVariables
  3
ISM
 90
        0
 91
        1
280
     0
281
     0
  0
CLASS
  1
DICTIONARYVAR
  2
AcDbDictionaryVar
  3
ObjectDBX Classes
 90
        0
 91
        6
280
     0
281
     0
  0
CLASS
  1
CELLSTYLEMAP
  2
AcDbCellStyleMap
  3
ObjectDBX Classes
 90
     1152
 91
        1
280
     0
281
     0
  0
ENDSEC
  0
SECTION
  2
TABLES
  0
TABLE
  2
VPORT
  5
8
330
0
100
AcDbSymbolTable
 70
     1
1001
ACAD
1000
DbSaveVer
1071
      251
  0
VPORT
  5
57
330
8
100
AcDbSymbolTableRecord
100
AcDbViewportTableRecord
  2
*Active
 70
     0
 10
0.0
 20
0.0
 11
1.0
 21
1.0
 12
8.5
 22
5.5
 13
0.0
 23
0.0
 14
0.5
 24
0.5
 15
0.0
 25
0.0
 16
0.0
 26
0.0
 36
1.0
 17
0.0
 27
0.0
 37
0.0
 40
11.0
 41
1.778429
 42
50.0
 43
0.0
 44
0.0
 50
0.0
 51
0.0
 71
     0
 72
 20000
 73
     1
 74
     0
 75
     0
 76
     0
 77
     0
 78
     0
281
     0
 65
     1
110
0.0
120
0.0
130
0.0
111
1.0
121
0.0
131
0.0
112
0.0
122
1.0
132
0.0
 79
     0
146
0.0
348
2F
 60
     3
 61
     5
292
     1
282
     1
141
0.0
142
0.0
 63
   250
421
  3355443
  0
ENDTAB
  0
TABLE
  2
LTYPE
  5
5
330
0
100
AcDbSymbolTable
 70
    10
  0
LTYPE
  5
5B
330
5
100
AcDbSymbolTableRecord
100
AcDbLinetypeTableRecord
  2
ByBlock
 70
     0
  3

 72
    65
 73
     0
 40
0.0
  0
LTYPE
  5
5C
330
5
100
AcDbSymbolTableRecord
100
AcDbLinetypeTableRecord
  2
ByLayer
 70
     0
  3

 72
    65
 73
     0
 40
0.0
  0
LTYPE
  5
5D
330
5
100
AcDbSymbolTableRecord
100
AcDbLinetypeTableRecord
  2
Continuous
 70
     0
  3
Solid line
 72
    65
 73
     0
 40
0.0
  0
LTYPE
  5
81
330
5
100
AcDbSymbolTableRecord
100
AcDbLinetypeTableRecord
  2
HIDDEN
 70
     0
  3
Hidden __ __ __ __ __ __ __ __ __ __ __ __ __ _
 72
    65
 73
     2
 40
0.375
 49
0.25
 74
     0
 49
-0.125
 74
     0
  0
LTYPE
  5
82
330
5
100
AcDbSymbolTableRecord
100
AcDbLinetypeTableRecord
  2
PHANTOM2
 70
     0
  3
Phantom (.5x) ___ _ _ ___ _ _ ___ _ _ ___ _ _
 72
    65
 73
     6
 40
1.25
 49
0.625
 74
     0
 49
-0.125
 74
     0
 49
0.125
 74
     0
 49
-0.125
 74
     0
 49
0.125
 74
     0
 49
-0.125
 74
     0
  0
LTYPE
  5
83
330
5
100
AcDbSymbolTableRecord
100
AcDbLinetypeTableRecord
  2
CENTER
 70
     0
  3
Center ____ _ ____ _ ____ _ ____ _ ____ _ ____
 72
    65
 73
     4
 40
2.0
 49
1.25
 74
     0
 49
-0.25
 74
     0
 49
0.25
 74
     0
 49
-0.25
 74
     0
  0
LTYPE
  5
9A
330
5
100
AcDbSymbolTableRecord
100
AcDbLinetypeTableRecord
  2
CENTER2
 70
     0
  3
Center (.5x) ___ _ ___ _ ___ _ ___ _ ___ _ ___
 72
    65
 73
     4
 40
1.125
 49
0.75
 74
     0
 49
-0.125
 74
     0
 49
0.125
 74
     0
 49
-0.125
 74
     0
  0
LTYPE
  5
9B
330
5
100
AcDbSymbolTableRecord
100
AcDbLinetypeTableRecord
  2
HIDDEN2
 70
     0
  3
Hidden (.5x) _ _ _ _ _ _ _ _ _ _ _ _ _ _ _ _ _
 72
    65
 73
     2
 40
0.1875
 49
0.125
 74
     0
 49
-0.0625
 74
     0
  0
LTYPE
  5
9C
330
5
100
AcDbSymbolTableRecord
100
AcDbLinetypeTableRecord
  2
Amconstr
 70
     0
  3
_______________________
 72
    65
 73
     2
 40
9999.0
 49
9999.0
 74
     0
 49
0.0
 74
     0
  0
LTYPE
  5
9D
330
5
100
AcDbSymbolTableRecord
100
AcDbLinetypeTableRecord
  2
Amzigzag2
 70
     0
  3
/\/-/\/-/\/-/\/-/\/-/\/
 72
    65
 73
     2
 40
0.4401
 49
0.0001
 74
     4
 75
   136
340
97
 46
0.0016
 50
0.0
 44
0.0
 45
0.0
 49
-0.44
 74
     0
  0
LTYPE
  5
9E
330
5
100
AcDbSymbolTableRecord
100
AcDbLinetypeTableRecord
  2
ACANSTGB
 70
     0
  3
__ . . __ . .
 72
    65
 73
     6
 40
0.354331
 49
0.15748
 74
     0
 49
-0.03937
 74
     0
 49
0.03937
 74
     0
 49
-0.03937
 74
     0
 49
0.03937
 74
     0
 49
-0.03937
 74
     0
  0
LTYPE
  5
9F
330
5
100
AcDbSymbolTableRecord
100
AcDbLinetypeTableRecord
  2
ACANSTGL
 70
     0
  3
_ _ _ _ _
 72
    65
 73
     2
 40
0.11811
 49
0.07874
 74
     0
 49
-0.03937
 74
     0
  0
ENDTAB
  0
TABLE
  2
LAYER
  5
2
330
0
100
AcDbSymbolTable
 70
    10
  0
LAYER
  5
54
330
2
100
AcDbSymbolTableRecord
100
AcDbLayerTableRecord
  2
0
 70
     0
 62
     7
  6
Continuous
370
    -3
390
F
347
21
348
0
1001
AcAecLayerStandard
1000

1000

  0
LAYER
  5
79
330
2
100
AcDbSymbolTableRecord
100
AcDbLayerTableRecord
  2
Defpoints
 70
     0
 62
     7
  6
Continuous
290
     0
370
    -3
390
F
347
21
348
0
1001
AcAecLayerStandard
1000

1000

  0
LAYER
  5
B9
330
2
100
AcDbSymbolTableRecord
100
AcDbLayerTableRecord
  2
Visible
 70
     0
 62
     7
  6
Continuous
370
    50
390
F
347
21
348
0
  0
LAYER
  5
181
330
2
100
AcDbSymbolTableRecord
100
AcDbLayerTableRecord
  2
Visible Narrow
 70
     0
 62
     7
  6
Continuous
370
    35
390
F
347
21
348
0
  0
LAYER
  5
1AA
330
2
100
AcDbSymbolTableRecord
100
AcDbLayerTableRecord
  2
Titleblock
 70
     0
 62
     7
  6
Continuous
370
    -3
390
F
347
21
348
0
1001
AcAecLayerStandard
1000

1000

1001
AcCmTransparency
1071
        0
  0
LAYER
  5
1CF
330
2
100
AcDbSymbolTableRecord
100
AcDbLayerTableRecord
  2
Border
 70
     0
 62
     7
  6
Continuous
370
    -3
390
F
347
21
348
0
1001
AcAecLayerStandard
1000

1000

1001
AcCmTransparency
1071
        0
  0
LAYER
  5
1F0
330
2
100
AcDbSymbolTableRecord
100
AcDbLayerTableRecord
  2
Dimensions
 70
     0
 62
     7
  6
Continuous
370
    25
390
F
347
21
348
0
  0
ENDTAB
  0
TABLE
  2
STYLE
  5
3
330
0
100
AcDbSymbolTable
 70
     4
  0
STYLE
  5
55
330
3
100
AcDbSymbolTableRecord
100
AcDbTextStyleTableRecord
  2
Standard
 70
     0
 40
0.0
 41
1.0
 50
0.0
 71
     0
 42
0.12
  3
arial.ttf
  4

1001
ACAD
1000
Arial
1071
       34
  0
STYLE
  5
5A
330
3
100
AcDbSymbolTableRecord
100
AcDbTextStyleTableRecord
  2
Annotative
 70
     0
 40
0.0
 41
1.0
 50
0.0
 71
     0
 42
0.2
  3
txt
  4

1001
AcadAnnotative
1000
AnnotativeData
1002
{
1070
     1
1070
     1
1002
}
  0
STYLE
  5
97
330
3
100
AcDbSymbolTableRecord
100
AcDbTextStyleTableRecord
  2

 70
     1
 40
0.0
 41
1.0
 50
0.0
 71
     0
 42
0.12
  3
genltshp.shx
  4

  0
STYLE
  5
98
330
3
100
AcDbSymbolTableRecord
100
AcDbTextStyleTableRecord
  2
ACANSGDT
 70
     0
 40
0.0
 41
1.0
 50
0.0
 71
     0
 42
0.12
  3
amgdt.shx
  4

  0
ENDTAB
  0
TABLE
  2
VIEW
  5
6
330
0
100
AcDbSymbolTable
 70
     0
  0
ENDTAB
  0
TABLE
  2
UCS
  5
7
330
0
100
AcDbSymbolTable
 70
     0
  0
ENDTAB
  0
TABLE
  2
APPID
  5
9
330
0
100
AcDbSymbolTable
 70
    24
  0
APPID
  5
56
330
9
100
AcDbSymbolTableRecord
100
AcDbRegAppTableRecord
  2
ACAD
 70
     0
  0
APPID
  5
5E
330
9
100
AcDbSymbolTableRecord
100
AcDbRegAppTableRecord
  2
AcadAnnotative
 70
     0
  0
APPID
  5
78
330
9
100
AcDbSymbolTableRecord
100
AcDbRegAppTableRecord
  2
ACAD_PSEXT
 70
     0
  0
APPID
  5
7A
330
9
100
AcDbSymbolTableRecord
100
AcDbRegAppTableRecord
  2
MCAD_NO_VIS
 70
     0
  0
APPID
  5
7B
330
9
100
AcDbSymbolTableRecord
100
AcDbRegAppTableRecord
  2
ACAD_TEMP_GRAPHIC
 70
     0
  0
APPID
  5
84
330
9
100
AcDbSymbolTableRecord
100
AcDbRegAppTableRecord
  2
ACAD_DSTYLE_DIMJAG
 70
     0
  0
APPID
  5
85
330
9
100
AcDbSymbolTableRecord
100
AcDbRegAppTableRecord
  2
ACAD_DSTYLE_DIMTALN
 70
     0
  0
APPID
  5
86
330
9
100
AcDbSymbolTableRecord
100
AcDbRegAppTableRecord
  2
ACAD_NAV_VCDISPLAY
 70
     0
  0
APPID
  5
87
330
9
100
AcDbSymbolTableRecord
100
AcDbRegAppTableRecord
  2
AcAecLayerStandard
 70
     0
  0
APPID
  5
88
330
9
100
AcDbSymbolTableRecord
100
AcDbRegAppTableRecord
  2
AcCmTransparency
 70
     0
  0
APPID
  5
89
330
9
100
AcDbSymbolTableRecord
100
AcDbRegAppTableRecord
  2
ACAD_DSTYLE_DIMBREAK
 70
     0
  0
APPID
  5
8A
330
9
100
AcDbSymbolTableRecord
100
AcDbRegAppTableRecord
  2
ACAD_DSTYLE_DIMRADIAL_EXTENSION
 70
     0
  0
APPID
  5
8B
330
9
100
AcDbSymbolTableRecord
100
AcDbRegAppTableRecord
  2
FUSIONTITLEBLOCK
 70
     0
  0
APPID
  5
8C
330
9
100
AcDbSymbolTableRecord
100
AcDbRegAppTableRecord
  2
FUSIONCURRENTTITLEBLOCK
 70
     0
  0
APPID
  5
8D
330
9
100
AcDbSymbolTableRecord
100
AcDbRegAppTableRecord
  2
AcSynergy
 70
     0
  0
APPID
  5
8E
330
9
100
AcDbSymbolTableRecord
100
AcDbRegAppTableRecord
  2
ACAD_VIEW_EDGE_ID
 70
     0
  0
APPID
  5
8F
330
9
100
AcDbSymbolTableRecord
100
AcDbRegAppTableRecord
  2
GENIUS_GENSCREG_15
 70
     0
  0
APPID
  5
90
330
9
100
AcDbSymbolTableRecord
100
AcDbRegAppTableRecord
  2
GENIUS_GENOBJ-N-SDF_13
 70
     0
  0
APPID
  5
91
330
9
100
AcDbSymbolTableRecord
100
AcDbRegAppTableRecord
  2
GENIUS_GENODEF_13
 70
     0
  0
APPID
  5
92
330
9
100
AcDbSymbolTableRecord
100
AcDbRegAppTableRecord
  2
ACAD_DIMASSOC_CALC_DIMLFAC
 70
     0
  0
APPID
  5
93
330
9
100
AcDbSymbolTableRecord
100
AcDbRegAppTableRecord
  2
ACAD_DIMASSOC_DIMLFAC
 70
     0
  0
APPID
  5
94
330
9
100
AcDbSymbolTableRecord
100
AcDbRegAppTableRecord
  2
ACAD_DIMASSOC_OVERRIDDEN_DIMLFAC
 70
     0
  0
APPID
  5
95
330
9
100
AcDbSymbolTableRecord
100
AcDbRegAppTableRecord
  2
FD_ATT_APPNAME
 70
     0
  0
APPID
  5
96
330
9
100
AcDbSymbolTableRecord
100
AcDbRegAppTableRecord
  2
ACATTRIBSERVICES
 70
     0
  0
ENDTAB
  0
TABLE
  2
DIMSTYLE
  5
A
330
0
100
AcDbSymbolTable
 70
     2
100
AcDbDimStyleTable
 71
     1
340
58
  0
DIMSTYLE
105
58
102
{ACAD_REACTORS
330
1EF
330
1FE
330
20C
330
216
330
21F
330
22D
330
237
330
245
102
}
330
A
100
AcDbSymbolTableRecord
100
AcDbDimStyleTableRecord
  2
Standard
 70
     0
  3
in
  4
mm
 41
0.12
 42
0.05
 43
0.339411
 44
0.1
 47
0.01
 48
0.01
 78
    12
 79
     3
 90
     1
140
0.12
141
0.0
147
0.06
176
   256
177
   256
178
   256
179
     2
271
     2
272
     2
284
    12
285
    12
286
    12
340
55
  0
DIMSTYLE
105
59
330
A
100
AcDbSymbolTableRecord
100
AcDbDimStyleTableRecord
  2
Annotative
 70
     0
  3
in
 40
0.0
 43
0.339411
 78
    12
 79
     3
140
0.12
179
     2
271
     2
272
     2
284
    12
285
    12
286
    12
340
55
1001
AcadAnnotative
1000
AnnotativeData
1002
{
1070
     1
1070
     1
1002
}
  0
ENDTAB
  0
TABLE
  2
BLOCK_RECORD
  5
1
330
0
100
AcDbSymbolTable
 70
    22
  0
BLOCK_RECORD
  5
70
102
{ACAD_XDICTIONARY
360
B2
102
}
330
1
100
AcDbSymbolTableRecord
100
AcDbBlockTableRecord
  2
*Model_Space
340
73
 70
     0
280
     1
281
     0
  0
BLOCK_RECORD
  5
6C
330
1
100
AcDbSymbolTableRecord
100
AcDbBlockTableRecord
  2
*Paper_Space
340
6F
 70
     0
280
     1
281
     0
  0
BLOCK_RECORD
  5
74
330
1
100
AcDbSymbolTableRecord
100
AcDbBlockTableRecord
  2
*Paper_Space0
340
77
 70
     0
280
     1
281
     0
  0
BLOCK_RECORD
  5
1AB
102
{ACAD_XDICTIONARY
360
1AC
102
}
330
1
100
AcDbSymbolTableRecord
100
AcDbBlockTableRecord
  2
Shower
340
0
102
{BLKREFS
331
1A9
102
}
 70
     1
280
     1
281
     0
1001
FUSIONTITLEBLOCK
1000
TitleBlock
  0
BLOCK_RECORD
  5
1D0
330
1
100
AcDbSymbolTableRecord
100
AcDbBlockTableRecord
  2
ANSI_B_SHEET
340
0
310
2800000020000000200000000100080000000000000400000000000000000000000000000000000000000000000080000080000000808000800000008000800080800000C0C0C000C0DCC000F0CAA6000020400000206000002080000020A0000020C0000020E00000400000004020000040400000406000004080000040A0
310
000040C0000040E00000600000006020000060400000606000006080000060A0000060C0000060E00000800000008020000080400000806000008080000080A0000080C0000080E00000A0000000A0200000A0400000A0600000A0800000A0A00000A0C00000A0E00000C0000000C0200000C0400000C0600000C0800000C0
310
A00000C0C00000C0E00000E0000000E0200000E0400000E0600000E0800000E0A00000E0C00000E0E00040000000400020004000400040006000400080004000A0004000C0004000E00040200000402020004020400040206000402080004020A0004020C0004020E000404000004040200040404000404060004040800040
310
40A0004040C0004040E00040600000406020004060400040606000406080004060A0004060C0004060E00040800000408020004080400040806000408080004080A0004080C0004080E00040A0000040A0200040A0400040A0600040A0800040A0A00040A0C00040A0E00040C0000040C0200040C0400040C0600040C08000
310
40C0A00040C0C00040C0E00040E0000040E0200040E0400040E0600040E0800040E0A00040E0C00040E0E00080000000800020008000400080006000800080008000A0008000C0008000E00080200000802020008020400080206000802080008020A0008020C0008020E00080400000804020008040400080406000804080
310
008040A0008040C0008040E00080600000806020008060400080606000806080008060A0008060C0008060E00080800000808020008080400080806000808080008080A0008080C0008080E00080A0000080A0200080A0400080A0600080A0800080A0A00080A0C00080A0E00080C0000080C0200080C0400080C0600080C0
310
800080C0A00080C0C00080C0E00080E0000080E0200080E0400080E0600080E0800080E0A00080E0C00080E0E000C0000000C0002000C0004000C0006000C0008000C000A000C000C000C000E000C0200000C0202000C0204000C0206000C0208000C020A000C020C000C020E000C0400000C0402000C0404000C0406000C0
310
408000C040A000C040C000C040E000C0600000C0602000C0604000C0606000C0608000C060A000C060C000C060E000C0800000C0802000C0804000C0806000C0808000C080A000C080C000C080E000C0A00000C0A02000C0A04000C0A06000C0A08000C0A0A000C0A0C000C0A0E000C0C00000C0C02000C0C04000C0C06000
310
C0C08000C0C0A000F0FBFF00A4A0A000808080000000FF0000FF000000FFFF00FF000000FF00FF00FFFF0000FFFFFF0049494949494949494949494949494949494949494949494949494949494949494949494949494949494949494949494949494949494949494949494949494949494949494949494949494949494949
310
494949494949494949494949494949494949494949494949494949494949494949494949494949494949494949494949494949494949494949494949494949494949494949494949494949494949494949494949494949494949494949494949494949494949494949494949494949494949FFFF4949494949494949494949
310
494949494949494949494949494949FFFF4949FFFFFFFFFFFFFFFFFFFFFFFFFFFFFFFFFFFFFFFFFFFFFFFFFFFFFFFFFFFF494949FF4949494949494949494949494949494949494949494949494949FF49494949FF4949494949494949494949494949494949494949494949494949FF49494949FF49494949494949494949
310
49494949494949494949494949494949FF49494949FF4949494949494949494949494949494949494949494949494949FF49494949FF4949494949494949494949494949494949494949494949494949FF49494949FF4949494949494949494949494949494949494949494949494949FF49494949FF494949494949494949
310
4949494949494949494949494949494949FF49494949FF4949494949494949494949494949494949494949494949494949FF49494949FF4949494949494949494949494949494949494949494949494949FF49494949FF4949494949494949494949494949494949494949494949494949FF49494949FF4949494949494949
310
494949494949494949494949494949494949FF49494949FF4949494949494949494949494949494949494949494949494949FF49494949FF4949494949494949494949494949494949494949494949494949FF49494949FF4949494949494949494949494949494949494949494949494949FF49494949FF49494949494949
310
49494949494949494949494949494949494949FF49494949FF4949494949494949494949494949494949494949494949494949FF494949FFFFFFFFFFFFFFFFFFFFFFFFFFFFFFFFFFFFFFFFFFFFFFFFFFFFFFFFFFFF4949FFFF4949494949494949494949494949494949494949494949494949FFFF49494949494949494949
310
49494949494949494949494949494949494949494949494949494949494949494949494949494949494949494949494949494949494949494949494949494949494949494949494949494949494949494949494949494949494949494949494949494949494949494949494949494949494949494949494949494949494949
310
4949494949494949494949494949494949494949494949494949494949494949494949494949494949494949494949494949494949494949
102
{BLKREFS
331
1CE
102
}
 70
     1
280
     1
281
     0
  0
BLOCK_RECORD
  5
1F1
330
1
100
AcDbSymbolTableRecord
100
AcDbBlockTableRecord
  2
*D6
340
0
 70
     0
280
     1
281
     0
  0
BLOCK_RECORD
  5
1FF
330
1
100
AcDbSymbolTableRecord
100
AcDbBlockTableRecord
  2
*D7
340
0
 70
     0
280
     1
281
     0
  0
BLOCK_RECORD
  5
20D
330
1
100
AcDbSymbolTableRecord
100
AcDbBlockTableRecord
  2
*D8
340
0
 70
     0
280
     1
281
     0
  0
BLOCK_RECORD
  5
217
330
1
100
AcDbSymbolTableRecord
100
AcDbBlockTableRecord
  2
*D9
340
0
 70
     0
280
     1
281
     0
  0
BLOCK_RECORD
  5
220
330
1
100
AcDbSymbolTableRecord
100
AcDbBlockTableRecord
  2
*D10
340
0
 70
     0
280
     1
281
     0
  0
BLOCK_RECORD
  5
22E
330
1
100
AcDbSymbolTableRecord
100
AcDbBlockTableRecord
  2
*D11
340
0
 70
     0
280
     1
281
     0
  0
BLOCK_RECORD
  5
238
330
1
100
AcDbSymbolTableRecord
100
AcDbBlockTableRecord
  2
*D12
340
0
 70
     0
280
     1
281
     0
  0
BLOCK_RECORD
  5
246
330
1
100
AcDbSymbolTableRecord
100
AcDbBlockTableRecord
  2
*D13
340
0
 70
     0
280
     1
281
     0
  0
BLOCK_RECORD
  5
254
330
1
100
AcDbSymbolTableRecord
100
AcDbBlockTableRecord
  2
*D14
340
0
 70
     0
280
     1
281
     0
  0
BLOCK_RECORD
  5
261
330
1
100
AcDbSymbolTableRecord
100
AcDbBlockTableRecord
  2
*D15
340
0
 70
     0
280
     1
281
     0
  0
BLOCK_RECORD
  5
26E
330
1
100
AcDbSymbolTableRecord
100
AcDbBlockTableRecord
  2
*D16
340
0
 70
     0
280
     1
281
     0
  0
BLOCK_RECORD
  5
277
330
1
100
AcDbSymbolTableRecord
100
AcDbBlockTableRecord
  2
*D17
340
0
 70
     0
280
     1
281
     0
  0
BLOCK_RECORD
  5
27F
330
1
100
AcDbSymbolTableRecord
100
AcDbBlockTableRecord
  2
*D18
340
0
 70
     0
280
     1
281
     0
  0
BLOCK_RECORD
  5
28C
330
1
100
AcDbSymbolTableRecord
100
AcDbBlockTableRecord
  2
*D19
340
0
 70
     0
280
     1
281
     0
  0
BLOCK_RECORD
  5
295
330
1
100
AcDbSymbolTableRecord
100
AcDbBlockTableRecord
  2
*D20
340
0
 70
     0
280
     1
281
     0
  0
BLOCK_RECORD
  5
2A2
330
1
100
AcDbSymbolTableRecord
100
AcDbBlockTableRecord
  2
*D21
340
0
 70
     0
280
     1
281
     0
  0
ENDTAB
  0
ENDSEC
  0
SECTION
  2
BLOCKS
  0
BLOCK
  5
71
330
70
100
AcDbEntity
  8
0
100
AcDbBlockBegin
  2
*Model_Space
 70
     0
 10
0.0
 20
0.0
 30
0.0
  3
*Model_Space
  1

  0
ENDBLK
  5
72
330
70
100
AcDbEntity
  8
0
100
AcDbBlockEnd
  0
BLOCK
  5
6D
330
6C
100
AcDbEntity
 67
     1
  8
0
100
AcDbBlockBegin
  2
*Paper_Space
 70
     0
 10
0.0
 20
0.0
 30
0.0
  3
*Paper_Space
  1

  0
ENDBLK
  5
6E
330
6C
100
AcDbEntity
 67
     1
  8
0
100
AcDbBlockEnd
  0
BLOCK
  5
75
330
74
100
AcDbEntity
 67
     1
  8
0
100
AcDbBlockBegin
  2
*Paper_Space0
 70
     0
 10
0.0
 20
0.0
 30
0.0
  3
*Paper_Space0
  1

  0
ENDBLK
  5
76
330
74
100
AcDbEntity
 67
     1
  8
0
100
AcDbBlockEnd
  0
BLOCK
  5
1AE
330
1AB
100
AcDbEntity
  8
0
100
AcDbBlockBegin
  2
Shower
 70
     2
 10
0.0
 20
0.0
 30
0.0
  3
Shower
  1

  0
LWPOLYLINE
  5
1AF
330
1AB
100
AcDbEntity
  8
Titleblock
100
AcDbPolyline
 90
        4
 70
     1
 43
0.0
 10
0.0
 20
0.0
 10
-4.9375
 20
0.0
 10
-4.9375
 20
2.5
 10
0.0
 20
2.5
  0
IMAGE
  5
1B0
330
1AB
100
AcDbEntity
  8
Titleblock
  6
Continuous
160
               140
310
8C0000000100000084000000060000000500000000000000008013C000B87FA8928AB03F000000000000000000000000008013C035B4911D6523F03F000000000000000001000000008001C035B4911D6523F03F000000000000000001000000008001C000B87FA8928AB03F000000000000000000000000008013C000B87F
310
A8928AB03F0000000000000000
370
     0
100
AcDbRasterImage
 90
        0
 10
-4.875
 20
0.064614
 30
0.0
 11
0.0028349156118143
 21
0.0
 31
0.0
 12
0.0
 22
0.0028349156118143
 32
0.0
 13
948.0
 23
333.0
340
1B1
 70
    15
280
     0
281
    50
282
    50
283
     0
290
     0
360
1B3
 71
     1
 91
        2
 14
-0.5
 24
-0.5
 14
947.5
 24
332.5
  0
LWPOLYLINE
  5
1B5
330
1AB
100
AcDbEntity
  8
Titleblock
  6
Continuous
370
    25
100
AcDbPolyline
 90
        4
 70
     1
 43
0.0
 10
0.0
 20
1.0625
 10
-4.9375
 20
1.061638
 10
-4.9375
 20
0.0
 10
0.0
 20
0.0
  0
LWPOLYLINE
  5
1B6
330
1AB
100
AcDbEntity
  8
Titleblock
  6
Continuous
370
    25
100
AcDbPolyline
 90
        4
 70
     1
 43
0.0
 10
-1.75
 20
2.5
 10
0.0
 20
2.5
 10
0.0
 20
2.5
 10
-1.75
 20
2.5
  0
ATTDEF
  5
1B7
330
1AB
100
AcDbEntity
  8
Titleblock
  6
Continuous
370
    25
100
AcDbText
 10
-3.6875
 20
2.3125
 30
0.0
 40
0.12
  1

100
AcDbAttributeDefinition
280
     0
  3

  2
PROJECT
 70
     0
280
     1
  0
MTEXT
  5
1B8
330
1AB
100
AcDbEntity
  8
Titleblock
  6
Continuous
370
    25
100
AcDbMText
 10
-4.875
 20
1.653875
 30
0.0
 40
0.12
 41
0.6875
 46
0.0
 71
     1
 72
     5
  1
Description:
 73
     1
 44
1.0
1001
ACAD
1000
ACAD_MTEXT_COLUMN_INFO_BEGIN
1070
    75
1070
     2
1070
    79
1070
     0
1070
    76
1070
     1
1070
    78
1070
     0
1070
    48
1040
0.6875
1070
    49
1040
0.6
1070
    50
1070
     1
1040
0.0
1000
ACAD_MTEXT_COLUMN_INFO_END
  0
ATTDEF
  5
1B9
330
1AB
100
AcDbEntity
  8
Titleblock
  6
Continuous
370
    25
100
AcDbText
 10
-1.6875
 20
0.6875
 30
0.0
 40
0.12
  1

100
AcDbAttributeDefinition
280
     0
  3

  2
DRAWN_DATE
 70
     0
280
     1
  0
ATTDEF
  5
1BA
330
1AB
100
AcDbEntity
  8
Titleblock
  6
Continuous
370
    25
100
AcDbText
 10
-4.3125
 20
1.8125
 30
0.0
 40
0.3048
  1

100
AcDbAttributeDefinition
280
     0
  3

  2
TITLE_1
 70
     0
280
     1
  0
ATTDEF
  5
1BB
330
1AB
100
AcDbEntity
  8
Titleblock
  6
Continuous
370
    25
100
AcDbText
 10
-1.6875
 20
0.91994
 30
0.0
 40
0.12
  1

100
AcDbAttributeDefinition
280
     0
  3

  2
SCALE
 70
     0
280
     1
  0
LWPOLYLINE
  5
1BC
330
1AB
100
AcDbEntity
  8
Titleblock
  6
Continuous
370
    25
100
AcDbPolyline
 90
        4
 70
     1
 43
0.0
 10
0.0
 20
1.0625
 10
0.0
 20
1.0625
 10
0.0
 20
0.0
 10
0.0
 20
0.0
  0
LWPOLYLINE
  5
1BD
330
1AB
100
AcDbEntity
  8
Titleblock
  6
Continuous
370
    25
100
AcDbPolyline
 90
        4
 70
     1
 43
0.0
 10
0.0
 20
1.0625
 10
0.0
 20
1.0625
 10
0.0
 20
0.0
 10
0.0
 20
0.0
  0
LINE
  5
1BE
330
1AB
100
AcDbEntity
  8
Titleblock
  6
Continuous
370
    25
100
AcDbLine
 10
-2.125
 20
1.062165
 30
0.0
 11
-2.125
 21
0.0
 31
0.0
  0
LWPOLYLINE
  5
1BF
330
1AB
100
AcDbEntity
  8
Titleblock
  6
Continuous
370
    25
100
AcDbPolyline
 90
        4
 70
     1
 43
0.0
 10
-4.9375
 20
2.5
 10
0.0
 20
2.5
 10
0.0
 20
2.5
 10
-4.9375
 20
2.5
  0
LINE
  5
1C0
330
1AB
100
AcDbEntity
  8
Titleblock
  6
Continuous
370
    25
100
AcDbLine
 10
-4.9375
 20
2.25
 30
0.0
 11
0.0
 21
2.25
 31
0.0
  0
LINE
  5
1C1
330
1AB
100
AcDbEntity
  8
Titleblock
  6
Continuous
370
    25
100
AcDbLine
 10
-4.9375
 20
1.6875
 30
0.0
 11
0.0
 21
1.6875
 31
0.0
  0
MTEXT
  5
1C2
330
1AB
100
AcDbEntity
  8
Titleblock
100
AcDbMText
 10
-4.875
 20
2.467284
 30
0.0
 40
0.12
 41
0.375
 46
0.0
 71
     1
 72
     5
  1
Project:
 73
     1
 44
1.0
1001
ACAD
1000
ACAD_MTEXT_COLUMN_INFO_BEGIN
1070
    75
1070
     2
1070
    79
1070
     0
1070
    76
1070
     1
1070
    78
1070
     0
1070
    48
1040
0.375
1070
    49
1040
0.6
1070
    50
1070
     1
1040
0.0
1000
ACAD_MTEXT_COLUMN_INFO_END
  0
MTEXT
  5
1C3
330
1AB
100
AcDbEntity
  8
Titleblock
100
AcDbMText
 10
-2.0625
 20
1.045477
 30
0.0
 40
0.075
 41
0.375
 46
0.0
 71
     1
 72
     5
  1
Scale:
 73
     1
 44
1.0
1001
ACAD
1000
ACAD_MTEXT_COLUMN_INFO_BEGIN
1070
    75
1070
     2
1070
    79
1070
     0
1070
    76
1070
     1
1070
    78
1070
     0
1070
    48
1040
0.375
1070
    49
1040
0.6
1070
    50
1070
     1
1040
0.0
1000
ACAD_MTEXT_COLUMN_INFO_END
  0
MTEXT
  5
1C4
330
1AB
100
AcDbEntity
  8
Titleblock
100
AcDbMText
 10
-2.0625
 20
0.857735
 30
0.0
 40
0.075
 41
0.375
 46
0.0
 71
     1
 72
     5
  1
Date Drawn:
 73
     1
 44
1.0
1001
ACAD
1000
ACAD_MTEXT_COLUMN_INFO_BEGIN
1070
    75
1070
     2
1070
    79
1070
     0
1070
    76
1070
     1
1070
    78
1070
     0
1070
    48
1040
0.375
1070
    49
1040
0.6
1070
    50
1070
     1
1040
0.0
1000
ACAD_MTEXT_COLUMN_INFO_END
  0
LINE
  5
1C5
330
1AB
100
AcDbEntity
  8
Titleblock
100
AcDbLine
 10
-2.125
 20
0.875
 30
0.0
 11
0.0
 21
0.875
 31
0.0
  0
LINE
  5
1C6
330
1AB
100
AcDbEntity
  8
Titleblock
100
AcDbLine
 10
-2.125
 20
0.625
 30
0.0
 11
0.0
 21
0.625
 31
0.0
  0
MTEXT
  5
1C7
330
1AB
100
AcDbEntity
  8
Titleblock
100
AcDbMText
 10
-4.875
 20
2.220603
 30
0.0
 40
0.12
 41
0.625
 46
0.0
 71
     1
 72
     5
  1
Title:
 73
     1
 44
1.0
1001
ACAD
1000
ACAD_MTEXT_COLUMN_INFO_BEGIN
1070
    75
1070
     2
1070
    79
1070
     0
1070
    76
1070
     1
1070
    78
1070
     0
1070
    48
1040
0.625
1070
    49
1040
0.6
1070
    50
1070
     1
1040
0.0
1000
ACAD_MTEXT_COLUMN_INFO_END
  0
ENDBLK
  5
1C8
330
1AB
100
AcDbEntity
  8
0
100
AcDbBlockEnd
  0
BLOCK
  5
1D1
330
1D0
100
AcDbEntity
  8
0
100
AcDbBlockBegin
  2
ANSI_B_SHEET
 70
     0
 10
0.0
 20
0.0
 30
0.0
  3
ANSI_B_SHEET
  1

  0
LINE
  5
1D2
330
1D0
100
AcDbEntity
  8
Border
100
AcDbLine
 10
0.0
 20
0.0
 30
0.0
 11
0.5
 21
0.0
 31
0.0
  0
LINE
  5
1D3
330
1D0
100
AcDbEntity
  8
Border
100
AcDbLine
 10
16.5
 20
0.0
 30
0.0
 11
17.0
 21
0.0
 31
0.0
  0
LINE
  5
1D4
330
1D0
100
AcDbEntity
  8
Border
100
AcDbLine
 10
0.62
 20
0.38
 30
0.0
 11
16.38
 21
0.38
 31
0.0
  0
LINE
  5
1D5
330
1D0
100
AcDbEntity
  8
Border
100
AcDbLine
 10
17.0
 20
0.0
 30
0.0
 11
17.0
 21
0.5
 31
0.0
  0
LINE
  5
1D6
330
1D0
100
AcDbEntity
  8
Border
100
AcDbLine
 10
17.0
 20
10.5
 30
0.0
 11
17.0
 21
11.0
 31
0.0
  0
LINE
  5
1D7
330
1D0
100
AcDbEntity
  8
Border
100
AcDbLine
 10
16.38
 20
0.38
 30
0.0
 11
16.38
 21
10.62
 31
0.0
  0
LINE
  5
1D8
330
1D0
100
AcDbEntity
  8
Border
100
AcDbLine
 10
17.0
 20
11.0
 30
0.0
 11
16.5
 21
11.0
 31
0.0
  0
LINE
  5
1D9
330
1D0
100
AcDbEntity
  8
Border
100
AcDbLine
 10
0.5
 20
11.0
 30
0.0
 11
0.0
 21
11.0
 31
0.0
  0
LINE
  5
1DA
330
1D0
100
AcDbEntity
  8
Border
100
AcDbLine
 10
16.38
 20
10.62
 30
0.0
 11
0.62
 21
10.62
 31
0.0
  0
LINE
  5
1DB
330
1D0
100
AcDbEntity
  8
Border
100
AcDbLine
 10
0.0
 20
11.0
 30
0.0
 11
0.0
 21
10.5
 31
0.0
  0
LINE
  5
1DC
330
1D0
100
AcDbEntity
  8
Border
100
AcDbLine
 10
0.0
 20
0.5
 30
0.0
 11
0.0
 21
0.0
 31
0.0
  0
LINE
  5
1DD
330
1D0
100
AcDbEntity
  8
Border
100
AcDbLine
 10
0.62
 20
10.62
 30
0.0
 11
0.62
 21
0.38
 31
0.0
  0
LINE
  5
1DE
330
1D0
100
AcDbEntity
  8
Border
100
AcDbLine
 10
8.413397
 20
0.23
 30
0.0
 11
8.586603
 21
0.23
 31
0.0
  0
LINE
  5
1DF
330
1D0
100
AcDbEntity
  8
Border
100
AcDbLine
 10
8.5
 20
0.38
 30
0.0
 11
8.5
 21
0.13
 31
0.0
  0
LINE
  5
1E0
330
1D0
100
AcDbEntity
  8
Border
100
AcDbLine
 10
8.5
 20
0.38
 30
0.0
 11
8.413397
 21
0.23
 31
0.0
  0
LINE
  5
1E1
330
1D0
100
AcDbEntity
  8
Border
100
AcDbLine
 10
8.5
 20
0.38
 30
0.0
 11
8.586603
 21
0.23
 31
0.0
  0
LINE
  5
1E2
330
1D0
100
AcDbEntity
  8
Border
100
AcDbLine
 10
0.47
 20
5.586603
 30
0.0
 11
0.47
 21
5.413397
 31
0.0
  0
LINE
  5
1E3
330
1D0
100
AcDbEntity
  8
Border
100
AcDbLine
 10
0.62
 20
5.5
 30
0.0
 11
0.37
 21
5.5
 31
0.0
  0
LINE
  5
1E4
330
1D0
100
AcDbEntity
  8
Border
100
AcDbLine
 10
0.62
 20
5.5
 30
0.0
 11
0.47
 21
5.586603
 31
0.0
  0
LINE
  5
1E5
330
1D0
100
AcDbEntity
  8
Border
100
AcDbLine
 10
0.62
 20
5.5
 30
0.0
 11
0.47
 21
5.413397
 31
0.0
  0
LINE
  5
1E6
330
1D0
100
AcDbEntity
  8
Border
100
AcDbLine
 10
16.53
 20
5.586603
 30
0.0
 11
16.53
 21
5.413397
 31
0.0
  0
LINE
  5
1E7
330
1D0
100
AcDbEntity
  8
Border
100
AcDbLine
 10
16.38
 20
5.5
 30
0.0
 11
16.63
 21
5.5
 31
0.0
  0
LINE
  5
1E8
330
1D0
100
AcDbEntity
  8
Border
100
AcDbLine
 10
16.38
 20
5.5
 30
0.0
 11
16.53
 21
5.586603
 31
0.0
  0
LINE
  5
1E9
330
1D0
100
AcDbEntity
  8
Border
100
AcDbLine
 10
16.38
 20
5.5
 30
0.0
 11
16.53
 21
5.413397
 31
0.0
  0
LINE
  5
1EA
330
1D0
100
AcDbEntity
  8
Border
100
AcDbLine
 10
8.413397
 20
10.77
 30
0.0
 11
8.586603
 21
10.77
 31
0.0
  0
LINE
  5
1EB
330
1D0
100
AcDbEntity
  8
Border
100
AcDbLine
 10
8.5
 20
10.62
 30
0.0
 11
8.5
 21
10.87
 31
0.0
  0
LINE
  5
1EC
330
1D0
100
AcDbEntity
  8
Border
100
AcDbLine
 10
8.5
 20
10.62
 30
0.0
 11
8.413397
 21
10.77
 31
0.0
  0
LINE
  5
1ED
330
1D0
100
AcDbEntity
  8
Border
100
AcDbLine
 10
8.5
 20
10.62
 30
0.0
 11
8.586603
 21
10.77
 31
0.0
  0
ENDBLK
  5
1EE
330
1D0
100
AcDbEntity
  8
0
100
AcDbBlockEnd
  0
BLOCK
  5
1F2
330
1F1
100
AcDbEntity
  8
0
100
AcDbBlockBegin
  2
*D6
 70
     1
 10
0.0
 20
0.0
 30
0.0
  3
*D6
  1

  0
LINE
  5
1F3
330
1F1
100
AcDbEntity
  8
Dimensions
440
 16777216
370
    -2
100
AcDbLine
 10
9.779527
 20
7.351704
 30
0.0
 11
9.779521
 21
8.080527
 31
0.0
  0
LINE
  5
1F4
330
1F1
100
AcDbEntity
  8
Dimensions
440
 16777216
370
    -2
100
AcDbLine
 10
7.220484
 20
7.351682
 30
0.0
 11
7.220478
 21
8.080504
 31
0.0
  0
LINE
  5
1F5
330
1F1
100
AcDbEntity
  8
Dimensions
440
 16777216
370
    -2
100
AcDbLine
 10
9.659522
 20
7.980525
 30
0.0
 11
8.78015
 21
7.980518
 31
0.0
  0
LINE
  5
1F6
330
1F1
100
AcDbEntity
  8
Dimensions
440
 16777216
370
    -2
100
AcDbLine
 10
7.340478
 20
7.980505
 30
0.0
 11
8.21985
 21
7.980513
 31
0.0
  0
SOLID
  5
1F7
330
1F1
100
AcDbEntity
  8
Dimensions
440
 16777216
100
AcDbTrace
 10
9.659521
 20
8.000525
 30
0.0
 11
9.659522
 21
7.960525
 31
0.0
 12
9.779522
 22
7.980527
 32
0.0
 13
9.779522
 23
7.980527
 33
0.0
  0
SOLID
  5
1F8
330
1F1
100
AcDbEntity
  8
Dimensions
440
 16777216
100
AcDbTrace
 10
7.340478
 20
8.000505
 30
0.0
 11
7.340479
 21
7.960505
 31
0.0
 12
7.220478
 22
7.980504
 32
0.0
 13
7.220478
 23
7.980504
 33
0.0
  0
MTEXT
  5
1F9
330
1F1
100
AcDbEntity
  8
Dimensions
440
 16777216
100
AcDbMText
 10
8.5
 20
7.980515
 30
0.0
 40
0.12
 41
0.0
 46
0.0
 71
     5
 72
     1
  1
\A1;2.56in
 73
     1
 44
1.0
  0
POINT
  5
1FA
330
1F1
100
AcDbEntity
  8
Defpoints
 62
     0
440
 16777216
100
AcDbPoint
 10
9.779528
 20
7.301704
 30
0.0
  0
POINT
  5
1FB
330
1F1
100
AcDbEntity
  8
Defpoints
 62
     0
440
 16777216
100
AcDbPoint
 10
7.220484
 20
7.301682
 30
0.0
  0
POINT
  5
1FC
330
1F1
100
AcDbEntity
  8
Defpoints
 62
     0
440
 16777216
100
AcDbPoint
 10
7.220478
 20
7.980504
 30
0.0
  0
ENDBLK
  5
1FD
330
1F1
100
AcDbEntity
  8
0
100
AcDbBlockEnd
  0
BLOCK
  5
200
330
1FF
100
AcDbEntity
  8
0
100
AcDbBlockBegin
  2
*D7
 70
     1
 10
0.0
 20
0.0
 30
0.0
  3
*D7
  1

  0
LINE
  5
201
330
1FF
100
AcDbEntity
  8
Dimensions
440
 16777216
370
    -2
100
AcDbLine
 10
8.775591
 20
3.471949
 30
0.0
 11
8.775591
 21
2.743126
 31
0.0
  0
LINE
  5
202
330
1FF
100
AcDbEntity
  8
Dimensions
440
 16777216
370
    -2
100
AcDbLine
 10
8.224409
 20
3.471949
 30
0.0
 11
8.224409
 21
2.743126
 31
0.0
  0
LINE
  5
203
330
1FF
100
AcDbEntity
  8
Dimensions
440
 16777216
370
    -2
100
AcDbLine
 10
8.895591
 20
2.843126
 30
0.0
 11
9.015591
 21
2.843126
 31
0.0
  0
LINE
  5
204
330
1FF
100
AcDbEntity
  8
Dimensions
440
 16777216
370
    -2
100
AcDbLine
 10
8.104409
 20
2.843126
 30
0.0
 11
7.984409
 21
2.843126
 31
0.0
  0
SOLID
  5
205
330
1FF
100
AcDbEntity
  8
Dimensions
440
 16777216
100
AcDbTrace
 10
8.895591
 20
2.863126
 30
0.0
 11
8.895591
 21
2.823126
 31
0.0
 12
8.775591
 22
2.843126
 32
0.0
 13
8.775591
 23
2.843126
 33
0.0
  0
SOLID
  5
206
330
1FF
100
AcDbEntity
  8
Dimensions
440
 16777216
100
AcDbTrace
 10
8.104409
 20
2.863126
 30
0.0
 11
8.104409
 21
2.823126
 31
0.0
 12
8.224409
 22
2.843126
 32
0.0
 13
8.224409
 23
2.843126
 33
0.0
  0
MTEXT
  5
207
330
1FF
100
AcDbEntity
  8
Dimensions
440
 16777216
100
AcDbMText
 10
8.5
 20
2.843126
 30
0.0
 40
0.12
 41
0.0
 46
0.0
 71
     5
 72
     1
  1
\A1;.55in
 73
     1
 44
1.0
  0
POINT
  5
208
330
1FF
100
AcDbEntity
  8
Defpoints
 62
     0
440
 16777216
100
AcDbPoint
 10
8.775591
 20
3.521949
 30
0.0
  0
POINT
  5
209
330
1FF
100
AcDbEntity
  8
Defpoints
 62
     0
440
 16777216
100
AcDbPoint
 10
8.224409
 20
3.521949
 30
0.0
  0
POINT
  5
20A
330
1FF
100
AcDbEntity
  8
Defpoints
 62
     0
440
 16777216
100
AcDbPoint
 10
8.224409
 20
2.843126
 30
0.0
  0
ENDBLK
  5
20B
330
1FF
100
AcDbEntity
  8
0
100
AcDbBlockEnd
  0
BLOCK
  5
20E
330
20D
100
AcDbEntity
  8
0
100
AcDbBlockBegin
  2
*D8
 70
     1
 10
0.0
 20
0.0
 30
0.0
  3
*D8
  1

  0
LINE
  5
20F
330
20D
100
AcDbEntity
  8
Dimensions
440
 16777216
370
    -2
100
AcDbLine
 10
9.725859
 20
5.272229
 30
0.0
 11
9.605859
 21
5.272229
 31
0.0
  0
LINE
  5
210
330
20D
100
AcDbEntity
  8
Dimensions
440
 16777216
370
    -2
100
AcDbLine
 10
9.605859
 20
5.272229
 30
0.0
 11
9.37111
 21
5.089351
 31
0.0
  0
MTEXT
  5
211
330
20D
100
AcDbEntity
  8
Dimensions
440
 16777216
100
AcDbMText
 10
10.070265
 20
5.272229
 30
0.0
 40
0.12
 41
0.0
 46
0.0
 71
     5
 72
     1
  1
\A1;∅1.97in
 73
     1
 44
1.0
  0
SOLID
  5
212
330
20D
100
AcDbEntity
  8
Dimensions
440
 16777216
100
AcDbTrace
 10
9.358819
 20
5.105128
 30
0.0
 11
9.383402
 21
5.073573
 31
0.0
 12
9.276446
 22
5.015603
 32
0.0
 13
9.276446
 23
5.015603
 33
0.0
  0
POINT
  5
213
330
20D
100
AcDbEntity
  8
Defpoints
 62
     0
440
 16777216
100
AcDbPoint
 10
9.276446
 20
5.015603
 30
0.0
  0
POINT
  5
214
330
20D
100
AcDbEntity
  8
Defpoints
 62
     0
440
 16777216
100
AcDbPoint
 10
7.723554
 20
3.805837
 30
0.0
  0
ENDBLK
  5
215
330
20D
100
AcDbEntity
  8
0
100
AcDbBlockEnd
  0
BLOCK
  5
218
330
217
100
AcDbEntity
  8
0
100
AcDbBlockBegin
  2
*D9
 70
     1
 10
0.0
 20
0.0
 30
0.0
  3
*D9
  1

  0
LINE
  5
219
330
217
100
AcDbEntity
  8
Dimensions
440
 16777216
370
    -2
100
AcDbLine
 10
9.659246
 20
4.605226
 30
0.0
 11
9.103687
 21
4.512011
 31
0.0
  0
MTEXT
  5
21A
330
217
100
AcDbEntity
  8
Dimensions
440
 16777216
100
AcDbMText
 10
9.957036
 20
4.605226
 30
0.0
 40
0.12
 41
0.0
 46
0.0
 71
     5
 72
     1
  1
\A1;∅.98in
 73
     1
 44
1.0
  0
SOLID
  5
21B
330
217
100
AcDbEntity
  8
Dimensions
440
 16777216
100
AcDbTrace
 10
9.100378
 20
4.531735
 30
0.0
 11
9.106997
 21
4.492286
 31
0.0
 12
8.985342
 22
4.492154
 32
0.0
 13
8.985342
 23
4.492154
 33
0.0
  0
POINT
  5
21C
330
217
100
AcDbEntity
  8
Defpoints
 62
     0
440
 16777216
100
AcDbPoint
 10
8.985342
 20
4.492154
 30
0.0
  0
POINT
  5
21D
330
217
100
AcDbEntity
  8
Defpoints
 62
     0
440
 16777216
100
AcDbPoint
 10
8.014658
 20
4.329287
 30
0.0
  0
ENDBLK
  5
21E
330
217
100
AcDbEntity
  8
0
100
AcDbBlockEnd
  0
BLOCK
  5
221
330
220
100
AcDbEntity
  8
0
100
AcDbBlockBegin
  2
*D10
 70
     1
 10
0.0
 20
0.0
 30
0.0
  3
*D10
  1

  0
LINE
  5
222
330
220
100
AcDbEntity
  8
Dimensions
440
 16777216
370
    -2
100
AcDbLine
 10
15.076791
 20
5.444972
 30
0.0
 11
15.076791
 21
5.834383
 31
0.0
  0
LINE
  5
223
330
220
100
AcDbEntity
  8
Dimensions
440
 16777216
370
    -2
100
AcDbLine
 10
14.879941
 20
5.444972
 30
0.0
 11
14.879941
 21
5.834383
 31
0.0
  0
LINE
  5
224
330
220
100
AcDbEntity
  8
Dimensions
440
 16777216
370
    -2
100
AcDbLine
 10
15.196791
 20
5.734383
 30
0.0
 11
15.316791
 21
5.734383
 31
0.0
  0
LINE
  5
225
330
220
100
AcDbEntity
  8
Dimensions
440
 16777216
370
    -2
100
AcDbLine
 10
14.759941
 20
5.734383
 30
0.0
 11
14.639941
 21
5.734383
 31
0.0
  0
SOLID
  5
226
330
220
100
AcDbEntity
  8
Dimensions
440
 16777216
100
AcDbTrace
 10
15.196791
 20
5.754383
 30
0.0
 11
15.196791
 21
5.714383
 31
0.0
 12
15.076791
 22
5.734383
 32
0.0
 13
15.076791
 23
5.734383
 33
0.0
  0
SOLID
  5
227
330
220
100
AcDbEntity
  8
Dimensions
440
 16777216
100
AcDbTrace
 10
14.759941
 20
5.754383
 30
0.0
 11
14.759941
 21
5.714383
 31
0.0
 12
14.879941
 22
5.734383
 32
0.0
 13
14.879941
 23
5.734383
 33
0.0
  0
MTEXT
  5
228
330
220
100
AcDbEntity
  8
Dimensions
440
 16777216
100
AcDbMText
 10
14.458181
 20
5.734383
 30
0.0
 40
0.12
 41
0.0
 46
0.0
 71
     5
 72
     1
  1
\A1;.2in
 73
     1
 44
1.0
  0
POINT
  5
229
330
220
100
AcDbEntity
  8
Defpoints
 62
     0
440
 16777216
100
AcDbPoint
 10
15.076791
 20
5.394972
 30
0.0
  0
POINT
  5
22A
330
220
100
AcDbEntity
  8
Defpoints
 62
     0
440
 16777216
100
AcDbPoint
 10
14.879941
 20
5.394972
 30
0.0
  0
POINT
  5
22B
330
220
100
AcDbEntity
  8
Defpoints
 62
     0
440
 16777216
100
AcDbPoint
 10
14.879941
 20
5.734383
 30
0.0
  0
ENDBLK
  5
22C
330
220
100
AcDbEntity
  8
0
100
AcDbBlockEnd
  0
BLOCK
  5
22F
330
22E
100
AcDbEntity
  8
0
100
AcDbBlockBegin
  2
*D11
 70
     1
 10
0.0
 20
0.0
 30
0.0
  3
*D11
  1

  0
LINE
  5
230
330
22E
100
AcDbEntity
  8
Dimensions
440
 16777216
370
    -2
100
AcDbLine
 10
10.969181
 20
8.401955
 30
0.0
 11
11.088208
 21
8.370426
 31
0.0
  0
MTEXT
  5
231
330
22E
100
AcDbEntity
  8
Dimensions
440
 16777216
100
AcDbMText
 10
10.671391
 20
8.401955
 30
0.0
 40
0.12
 41
0.0
 46
0.0
 71
     5
 72
     1
  1
\A1;∅1.5in
 73
     1
 44
1.0
  0
SOLID
  5
232
330
22E
100
AcDbEntity
  8
Dimensions
440
 16777216
100
AcDbTrace
 10
11.093329
 20
8.38976
 30
0.0
 11
11.083087
 21
8.351093
 31
0.0
 12
11.204207
 22
8.339699
 32
0.0
 13
11.204207
 23
8.339699
 33
0.0
  0
ARC
  5
233
330
22E
100
AcDbEntity
  8
Dimensions
440
 16777216
370
    -2
100
AcDbCircle
 10
11.927301
 20
8.148161
 30
0.0
 40
0.7480314960642254
100
AcDbArc
 50
157.504229
 51
226.649033
  0
POINT
  5
234
330
22E
100
AcDbEntity
  8
Defpoints
 62
     0
440
 16777216
100
AcDbPoint
 10
11.204207
 20
8.339699
 30
0.0
  0
POINT
  5
235
330
22E
100
AcDbEntity
  8
Defpoints
 62
     0
440
 16777216
100
AcDbPoint
 10
12.650394
 20
7.956622
 30
0.0
  0
ENDBLK
  5
236
330
22E
100
AcDbEntity
  8
0
100
AcDbBlockEnd
  0
BLOCK
  5
239
330
238
100
AcDbEntity
  8
0
100
AcDbBlockBegin
  2
*D12
 70
     1
 10
0.0
 20
0.0
 30
0.0
  3
*D12
  1

  0
LINE
  5
23A
330
238
100
AcDbEntity
  8
Dimensions
440
 16777216
370
    -2
100
AcDbLine
 10
11.927301
 20
7.450129
 30
0.0
 11
11.927301
 21
8.178952
 31
0.0
  0
LINE
  5
23B
330
238
100
AcDbEntity
  8
Dimensions
440
 16777216
370
    -2
100
AcDbLine
 10
15.076791
 20
5.444972
 30
0.0
 11
15.076791
 21
8.178952
 31
0.0
  0
LINE
  5
23C
330
238
100
AcDbEntity
  8
Dimensions
440
 16777216
370
    -2
100
AcDbLine
 10
12.047301
 20
8.078952
 30
0.0
 11
13.22296
 21
8.078952
 31
0.0
  0
LINE
  5
23D
330
238
100
AcDbEntity
  8
Dimensions
440
 16777216
370
    -2
100
AcDbLine
 10
14.956791
 20
8.078952
 30
0.0
 11
13.781132
 21
8.078952
 31
0.0
  0
SOLID
  5
23E
330
238
100
AcDbEntity
  8
Dimensions
440
 16777216
100
AcDbTrace
 10
12.047301
 20
8.098952
 30
0.0
 11
12.047301
 21
8.058952
 31
0.0
 12
11.927301
 22
8.078952
 32
0.0
 13
11.927301
 23
8.078952
 33
0.0
  0
SOLID
  5
23F
330
238
100
AcDbEntity
  8
Dimensions
440
 16777216
100
AcDbTrace
 10
14.956791
 20
8.098952
 30
0.0
 11
14.956791
 21
8.058952
 31
0.0
 12
15.076791
 22
8.078952
 32
0.0
 13
15.076791
 23
8.078952
 33
0.0
  0
MTEXT
  5
240
330
238
100
AcDbEntity
  8
Dimensions
440
 16777216
100
AcDbMText
 10
13.502046
 20
8.078952
 30
0.0
 40
0.12
 41
0.0
 46
0.0
 71
     5
 72
     1
  1
\A1;3.15in
 73
     1
 44
1.0
  0
POINT
  5
241
330
238
100
AcDbEntity
  8
Defpoints
 62
     0
440
 16777216
100
AcDbPoint
 10
11.927301
 20
7.400129
 30
0.0
  0
POINT
  5
242
330
238
100
AcDbEntity
  8
Defpoints
 62
     0
440
 16777216
100
AcDbPoint
 10
15.076791
 20
5.394972
 30
0.0
  0
POINT
  5
243
330
238
100
AcDbEntity
  8
Defpoints
 62
     0
440
 16777216
100
AcDbPoint
 10
15.076791
 20
8.078952
 30
0.0
  0
ENDBLK
  5
244
330
238
100
AcDbEntity
  8
0
100
AcDbBlockEnd
  0
BLOCK
  5
247
330
246
100
AcDbEntity
  8
0
100
AcDbBlockBegin
  2
*D13
 70
     1
 10
0.0
 20
0.0
 30
0.0
  3
*D13
  1

  0
LINE
  5
248
330
246
100
AcDbEntity
  8
Dimensions
440
 16777216
370
    -2
100
AcDbLine
 10
15.076791
 20
3.376468
 30
0.0
 11
15.076791
 21
2.987057
 31
0.0
  0
LINE
  5
249
330
246
100
AcDbEntity
  8
Dimensions
440
 16777216
370
    -2
100
AcDbLine
 10
11.454744
 20
4.36072
 30
0.0
 11
11.454744
 21
2.987057
 31
0.0
  0
LINE
  5
24A
330
246
100
AcDbEntity
  8
Dimensions
440
 16777216
370
    -2
100
AcDbLine
 10
14.956791
 20
3.087057
 30
0.0
 11
13.544854
 21
3.087057
 31
0.0
  0
LINE
  5
24B
330
246
100
AcDbEntity
  8
Dimensions
440
 16777216
370
    -2
100
AcDbLine
 10
11.574744
 20
3.087057
 30
0.0
 11
12.986682
 21
3.087057
 31
0.0
  0
SOLID
  5
24C
330
246
100
AcDbEntity
  8
Dimensions
440
 16777216
100
AcDbTrace
 10
14.956791
 20
3.107057
 30
0.0
 11
14.956791
 21
3.067057
 31
0.0
 12
15.076791
 22
3.087057
 32
0.0
 13
15.076791
 23
3.087057
 33
0.0
  0
SOLID
  5
24D
330
246
100
AcDbEntity
  8
Dimensions
440
 16777216
100
AcDbTrace
 10
11.574744
 20
3.107057
 30
0.0
 11
11.574744
 21
3.067057
 31
0.0
 12
11.454744
 22
3.087057
 32
0.0
 13
11.454744
 23
3.087057
 33
0.0
  0
MTEXT
  5
24E
330
246
100
AcDbEntity
  8
Dimensions
440
 16777216
100
AcDbMText
 10
13.265768
 20
3.087057
 30
0.0
 40
0.12
 41
0.0
 46
0.0
 71
     5
 72
     1
  1
\A1;3.62in
 73
     1
 44
1.0
  0
POINT
  5
24F
330
246
100
AcDbEntity
  8
Defpoints
 62
     0
440
 16777216
100
AcDbPoint
 10
15.076791
 20
3.426468
 30
0.0
  0
POINT
  5
250
330
246
100
AcDbEntity
  8
Defpoints
 62
     0
440
 16777216
100
AcDbPoint
 10
11.454744
 20
4.41072
 30
0.0
  0
POINT
  5
251
330
246
100
AcDbEntity
  8
Defpoints
 62
     0
440
 16777216
100
AcDbPoint
 10
11.454744
 20
3.087057
 30
0.0
  0
ENDBLK
  5
252
330
246
100
AcDbEntity
  8
0
100
AcDbBlockEnd
  0
BLOCK
  5
255
330
254
100
AcDbEntity
  8
0
100
AcDbBlockBegin
  2
*D14
 70
     1
 10
0.0
 20
0.0
 30
0.0
  3
*D14
  1

  0
LINE
  5
4AC
330
254
100
AcDbEntity
  8
Dimensions
440
 16777216
370
    -2
100
AcDbLine
 10
9.779527
 20
7.351704
 30
0.0
 11
9.779521
 21
8.080527
 31
0.0
  0
LINE
  5
4AD
330
254
100
AcDbEntity
  8
Dimensions
440
 16777216
370
    -2
100
AcDbLine
 10
7.220484
 20
7.351682
 30
0.0
 11
7.220478
 21
8.080504
 31
0.0
  0
LINE
  5
4AE
330
254
100
AcDbEntity
  8
Dimensions
440
 16777216
370
    -2
100
AcDbLine
 10
9.659522
 20
7.980525
 30
0.0
 11
8.78015
 21
7.980518
 31
0.0
  0
LINE
  5
4AF
330
254
100
AcDbEntity
  8
Dimensions
440
 16777216
370
    -2
100
AcDbLine
 10
7.340478
 20
7.980505
 30
0.0
 11
8.21985
 21
7.980513
 31
0.0
  0
SOLID
  5
4B0
330
254
100
AcDbEntity
  8
Dimensions
440
 16777216
100
AcDbTrace
 10
9.659521
 20
8.000525
 30
0.0
 11
9.659522
 21
7.960525
 31
0.0
 12
9.779522
 22
7.980527
 32
0.0
 13
9.779522
 23
7.980527
 33
0.0
  0
SOLID
  5
4B1
330
254
100
AcDbEntity
  8
Dimensions
440
 16777216
100
AcDbTrace
 10
7.340478
 20
8.000505
 30
0.0
 11
7.340479
 21
7.960505
 31
0.0
 12
7.220478
 22
7.980504
 32
0.0
 13
7.220478
 23
7.980504
 33
0.0
  0
MTEXT
  5
4B2
330
254
100
AcDbEntity
  8
Dimensions
440
 16777216
100
AcDbMText
 10
8.5
 20
7.980515
 30
0.0
 40
0.12
 41
0.0
 46
0.0
 71
     5
 72
     1
  1
\A1;2.56in
 73
     1
 44
1.0
  0
POINT
  5
4B3
330
254
100
AcDbEntity
  8
Defpoints
 62
     0
440
 16777216
100
AcDbPoint
 10
9.779528
 20
7.301704
 30
0.0
  0
POINT
  5
4B4
330
254
100
AcDbEntity
  8
Defpoints
 62
     0
440
 16777216
100
AcDbPoint
 10
7.220484
 20
7.301682
 30
0.0
  0
POINT
  5
4B5
330
254
100
AcDbEntity
  8
Defpoints
 62
     0
440
 16777216
100
AcDbPoint
 10
7.220478
 20
7.980504
 30
0.0
  0
ENDBLK
  5
256
330
254
100
AcDbEntity
  8
0
100
AcDbBlockEnd
  0
BLOCK
  5
262
330
261
100
AcDbEntity
  8
0
100
AcDbBlockBegin
  2
*D15
 70
     1
 10
0.0
 20
0.0
 30
0.0
  3
*D15
  1

  0
LINE
  5
4B6
330
261
100
AcDbEntity
  8
Dimensions
440
 16777216
370
    -2
100
AcDbLine
 10
8.775591
 20
3.471949
 30
0.0
 11
8.775591
 21
2.743126
 31
0.0
  0
LINE
  5
4B7
330
261
100
AcDbEntity
  8
Dimensions
440
 16777216
370
    -2
100
AcDbLine
 10
8.224409
 20
3.471949
 30
0.0
 11
8.224409
 21
2.743126
 31
0.0
  0
LINE
  5
4B8
330
261
100
AcDbEntity
  8
Dimensions
440
 16777216
370
    -2
100
AcDbLine
 10
8.895591
 20
2.843126
 30
0.0
 11
9.015591
 21
2.843126
 31
0.0
  0
LINE
  5
4B9
330
261
100
AcDbEntity
  8
Dimensions
440
 16777216
370
    -2
100
AcDbLine
 10
8.104409
 20
2.843126
 30
0.0
 11
7.984409
 21
2.843126
 31
0.0
  0
SOLID
  5
4BA
330
261
100
AcDbEntity
  8
Dimensions
440
 16777216
100
AcDbTrace
 10
8.895591
 20
2.863126
 30
0.0
 11
8.895591
 21
2.823126
 31
0.0
 12
8.775591
 22
2.843126
 32
0.0
 13
8.775591
 23
2.843126
 33
0.0
  0
SOLID
  5
4BB
330
261
100
AcDbEntity
  8
Dimensions
440
 16777216
100
AcDbTrace
 10
8.104409
 20
2.863126
 30
0.0
 11
8.104409
 21
2.823126
 31
0.0
 12
8.224409
 22
2.843126
 32
0.0
 13
8.224409
 23
2.843126
 33
0.0
  0
MTEXT
  5
4BC
330
261
100
AcDbEntity
  8
Dimensions
440
 16777216
100
AcDbMText
 10
8.5
 20
2.843126
 30
0.0
 40
0.12
 41
0.0
 46
0.0
 71
     5
 72
     1
  1
\A1;.55in
 73
     1
 44
1.0
  0
POINT
  5
4BD
330
261
100
AcDbEntity
  8
Defpoints
 62
     0
440
 16777216
100
AcDbPoint
 10
8.775591
 20
3.521949
 30
0.0
  0
POINT
  5
4BE
330
261
100
AcDbEntity
  8
Defpoints
 62
     0
440
 16777216
100
AcDbPoint
 10
8.224409
 20
3.521949
 30
0.0
  0
POINT
  5
4BF
330
261
100
AcDbEntity
  8
Defpoints
 62
     0
440
 16777216
100
AcDbPoint
 10
8.224409
 20
2.843126
 30
0.0
  0
ENDBLK
  5
263
330
261
100
AcDbEntity
  8
0
100
AcDbBlockEnd
  0
BLOCK
  5
26F
330
26E
100
AcDbEntity
  8
0
100
AcDbBlockBegin
  2
*D16
 70
     1
 10
0.0
 20
0.0
 30
0.0
  3
*D16
  1

  0
LINE
  5
4C0
330
26E
100
AcDbEntity
  8
Dimensions
440
 16777216
370
    -2
100
AcDbLine
 10
9.725859
 20
5.272229
 30
0.0
 11
9.605859
 21
5.272229
 31
0.0
  0
LINE
  5
4C1
330
26E
100
AcDbEntity
  8
Dimensions
440
 16777216
370
    -2
100
AcDbLine
 10
9.605859
 20
5.272229
 30
0.0
 11
9.37111
 21
5.089351
 31
0.0
  0
MTEXT
  5
4C2
330
26E
100
AcDbEntity
  8
Dimensions
440
 16777216
100
AcDbMText
 10
10.070265
 20
5.272229
 30
0.0
 40
0.12
 41
0.0
 46
0.0
 71
     5
 72
     1
  1
\A1;∅1.97in
 73
     1
 44
1.0
  0
SOLID
  5
4C3
330
26E
100
AcDbEntity
  8
Dimensions
440
 16777216
100
AcDbTrace
 10
9.358819
 20
5.105128
 30
0.0
 11
9.383402
 21
5.073573
 31
0.0
 12
9.276446
 22
5.015603
 32
0.0
 13
9.276446
 23
5.015603
 33
0.0
  0
POINT
  5
4C4
330
26E
100
AcDbEntity
  8
Defpoints
 62
     0
440
 16777216
100
AcDbPoint
 10
9.276446
 20
5.015603
 30
0.0
  0
POINT
  5
4C5
330
26E
100
AcDbEntity
  8
Defpoints
 62
     0
440
 16777216
100
AcDbPoint
 10
7.723554
 20
3.805837
 30
0.0
  0
ENDBLK
  5
270
330
26E
100
AcDbEntity
  8
0
100
AcDbBlockEnd
  0
BLOCK
  5
278
330
277
100
AcDbEntity
  8
0
100
AcDbBlockBegin
  2
*D17
 70
     1
 10
0.0
 20
0.0
 30
0.0
  3
*D17
  1

  0
LINE
  5
4C6
330
277
100
AcDbEntity
  8
Dimensions
440
 16777216
370
    -2
100
AcDbLine
 10
9.659246
 20
4.605226
 30
0.0
 11
9.103687
 21
4.512011
 31
0.0
  0
MTEXT
  5
4C7
330
277
100
AcDbEntity
  8
Dimensions
440
 16777216
100
AcDbMText
 10
9.957036
 20
4.605226
 30
0.0
 40
0.12
 41
0.0
 46
0.0
 71
     5
 72
     1
  1
\A1;∅.98in
 73
     1
 44
1.0
  0
SOLID
  5
4C8
330
277
100
AcDbEntity
  8
Dimensions
440
 16777216
100
AcDbTrace
 10
9.100378
 20
4.531735
 30
0.0
 11
9.106997
 21
4.492286
 31
0.0
 12
8.985342
 22
4.492154
 32
0.0
 13
8.985342
 23
4.492154
 33
0.0
  0
POINT
  5
4C9
330
277
100
AcDbEntity
  8
Defpoints
 62
     0
440
 16777216
100
AcDbPoint
 10
8.985342
 20
4.492154
 30
0.0
  0
POINT
  5
4CA
330
277
100
AcDbEntity
  8
Defpoints
 62
     0
440
 16777216
100
AcDbPoint
 10
8.014658
 20
4.329287
 30
0.0
  0
ENDBLK
  5
279
330
277
100
AcDbEntity
  8
0
100
AcDbBlockEnd
  0
BLOCK
  5
280
330
27F
100
AcDbEntity
  8
0
100
AcDbBlockBegin
  2
*D18
 70
     1
 10
0.0
 20
0.0
 30
0.0
  3
*D18
  1

  0
LINE
  5
4CB
330
27F
100
AcDbEntity
  8
Dimensions
440
 16777216
370
    -2
100
AcDbLine
 10
15.076791
 20
5.444972
 30
0.0
 11
15.076791
 21
5.834383
 31
0.0
  0
LINE
  5
4CC
330
27F
100
AcDbEntity
  8
Dimensions
440
 16777216
370
    -2
100
AcDbLine
 10
14.879941
 20
5.444972
 30
0.0
 11
14.879941
 21
5.834383
 31
0.0
  0
LINE
  5
4CD
330
27F
100
AcDbEntity
  8
Dimensions
440
 16777216
370
    -2
100
AcDbLine
 10
15.196791
 20
5.734383
 30
0.0
 11
15.316791
 21
5.734383
 31
0.0
  0
LINE
  5
4CE
330
27F
100
AcDbEntity
  8
Dimensions
440
 16777216
370
    -2
100
AcDbLine
 10
14.759941
 20
5.734383
 30
0.0
 11
14.639941
 21
5.734383
 31
0.0
  0
SOLID
  5
4CF
330
27F
100
AcDbEntity
  8
Dimensions
440
 16777216
100
AcDbTrace
 10
15.196791
 20
5.754383
 30
0.0
 11
15.196791
 21
5.714383
 31
0.0
 12
15.076791
 22
5.734383
 32
0.0
 13
15.076791
 23
5.734383
 33
0.0
  0
SOLID
  5
4D0
330
27F
100
AcDbEntity
  8
Dimensions
440
 16777216
100
AcDbTrace
 10
14.759941
 20
5.754383
 30
0.0
 11
14.759941
 21
5.714383
 31
0.0
 12
14.879941
 22
5.734383
 32
0.0
 13
14.879941
 23
5.734383
 33
0.0
  0
MTEXT
  5
4D1
330
27F
100
AcDbEntity
  8
Dimensions
440
 16777216
100
AcDbMText
 10
14.458181
 20
5.734383
 30
0.0
 40
0.12
 41
0.0
 46
0.0
 71
     5
 72
     1
  1
\A1;.2in
 73
     1
 44
1.0
  0
POINT
  5
4D2
330
27F
100
AcDbEntity
  8
Defpoints
 62
     0
440
 16777216
100
AcDbPoint
 10
15.076791
 20
5.394972
 30
0.0
  0
POINT
  5
4D3
330
27F
100
AcDbEntity
  8
Defpoints
 62
     0
440
 16777216
100
AcDbPoint
 10
14.879941
 20
5.394972
 30
0.0
  0
POINT
  5
4D4
330
27F
100
AcDbEntity
  8
Defpoints
 62
     0
440
 16777216
100
AcDbPoint
 10
14.879941
 20
5.734383
 30
0.0
  0
ENDBLK
  5
281
330
27F
100
AcDbEntity
  8
0
100
AcDbBlockEnd
  0
BLOCK
  5
28D
330
28C
100
AcDbEntity
  8
0
100
AcDbBlockBegin
  2
*D19
 70
     1
 10
0.0
 20
0.0
 30
0.0
  3
*D19
  1

  0
LINE
  5
4D5
330
28C
100
AcDbEntity
  8
Dimensions
440
 16777216
370
    -2
100
AcDbLine
 10
10.969181
 20
8.401955
 30
0.0
 11
11.088208
 21
8.370426
 31
0.0
  0
MTEXT
  5
4D6
330
28C
100
AcDbEntity
  8
Dimensions
440
 16777216
100
AcDbMText
 10
10.671391
 20
8.401955
 30
0.0
 40
0.12
 41
0.0
 46
0.0
 71
     5
 72
     1
  1
\A1;∅1.5in
 73
     1
 44
1.0
  0
SOLID
  5
4D7
330
28C
100
AcDbEntity
  8
Dimensions
440
 16777216
100
AcDbTrace
 10
11.093329
 20
8.38976
 30
0.0
 11
11.083087
 21
8.351093
 31
0.0
 12
11.204207
 22
8.339699
 32
0.0
 13
11.204207
 23
8.339699
 33
0.0
  0
ARC
  5
4D8
330
28C
100
AcDbEntity
  8
Dimensions
440
 16777216
370
    -2
100
AcDbCircle
 10
11.927301
 20
8.148161
 30
0.0
 40
0.7480314960642263
100
AcDbArc
 50
157.504229
 51
226.649033
  0
POINT
  5
4D9
330
28C
100
AcDbEntity
  8
Defpoints
 62
     0
440
 16777216
100
AcDbPoint
 10
11.204207
 20
8.339699
 30
0.0
  0
POINT
  5
4DA
330
28C
100
AcDbEntity
  8
Defpoints
 62
     0
440
 16777216
100
AcDbPoint
 10
12.650394
 20
7.956622
 30
0.0
  0
ENDBLK
  5
28E
330
28C
100
AcDbEntity
  8
0
100
AcDbBlockEnd
  0
BLOCK
  5
296
330
295
100
AcDbEntity
  8
0
100
AcDbBlockBegin
  2
*D20
 70
     1
 10
0.0
 20
0.0
 30
0.0
  3
*D20
  1

  0
LINE
  5
4DB
330
295
100
AcDbEntity
  8
Dimensions
440
 16777216
370
    -2
100
AcDbLine
 10
11.927301
 20
7.450129
 30
0.0
 11
11.927301
 21
8.178952
 31
0.0
  0
LINE
  5
4DC
330
295
100
AcDbEntity
  8
Dimensions
440
 16777216
370
    -2
100
AcDbLine
 10
15.076791
 20
5.444972
 30
0.0
 11
15.076791
 21
8.178952
 31
0.0
  0
LINE
  5
4DD
330
295
100
AcDbEntity
  8
Dimensions
440
 16777216
370
    -2
100
AcDbLine
 10
12.047301
 20
8.078952
 30
0.0
 11
13.22296
 21
8.078952
 31
0.0
  0
LINE
  5
4DE
330
295
100
AcDbEntity
  8
Dimensions
440
 16777216
370
    -2
100
AcDbLine
 10
14.956791
 20
8.078952
 30
0.0
 11
13.781132
 21
8.078952
 31
0.0
  0
SOLID
  5
4DF
330
295
100
AcDbEntity
  8
Dimensions
440
 16777216
100
AcDbTrace
 10
12.047301
 20
8.098952
 30
0.0
 11
12.047301
 21
8.058952
 31
0.0
 12
11.927301
 22
8.078952
 32
0.0
 13
11.927301
 23
8.078952
 33
0.0
  0
SOLID
  5
4E0
330
295
100
AcDbEntity
  8
Dimensions
440
 16777216
100
AcDbTrace
 10
14.956791
 20
8.098952
 30
0.0
 11
14.956791
 21
8.058952
 31
0.0
 12
15.076791
 22
8.078952
 32
0.0
 13
15.076791
 23
8.078952
 33
0.0
  0
MTEXT
  5
4E1
330
295
100
AcDbEntity
  8
Dimensions
440
 16777216
100
AcDbMText
 10
13.502046
 20
8.078952
 30
0.0
 40
0.12
 41
0.0
 46
0.0
 71
     5
 72
     1
  1
\A1;3.15in
 73
     1
 44
1.0
  0
POINT
  5
4E2
330
295
100
AcDbEntity
  8
Defpoints
 62
     0
440
 16777216
100
AcDbPoint
 10
11.927301
 20
7.400129
 30
0.0
  0
POINT
  5
4E3
330
295
100
AcDbEntity
  8
Defpoints
 62
     0
440
 16777216
100
AcDbPoint
 10
15.076791
 20
5.394972
 30
0.0
  0
POINT
  5
4E4
330
295
100
AcDbEntity
  8
Defpoints
 62
     0
440
 16777216
100
AcDbPoint
 10
15.076791
 20
8.078952
 30
0.0
  0
ENDBLK
  5
297
330
295
100
AcDbEntity
  8
0
100
AcDbBlockEnd
  0
BLOCK
  5
2A3
330
2A2
100
AcDbEntity
  8
0
100
AcDbBlockBegin
  2
*D21
 70
     1
 10
0.0
 20
0.0
 30
0.0
  3
*D21
  1

  0
LINE
  5
4E5
330
2A2
100
AcDbEntity
  8
Dimensions
440
 16777216
370
    -2
100
AcDbLine
 10
15.076791
 20
3.376468
 30
0.0
 11
15.076791
 21
2.987057
 31
0.0
  0
LINE
  5
4E6
330
2A2
100
AcDbEntity
  8
Dimensions
440
 16777216
370
    -2
100
AcDbLine
 10
11.454744
 20
4.36072
 30
0.0
 11
11.454744
 21
2.987057
 31
0.0
  0
LINE
  5
4E7
330
2A2
100
AcDbEntity
  8
Dimensions
440
 16777216
370
    -2
100
AcDbLine
 10
14.956791
 20
3.087057
 30
0.0
 11
13.544854
 21
3.087057
 31
0.0
  0
LINE
  5
4E8
330
2A2
100
AcDbEntity
  8
Dimensions
440
 16777216
370
    -2
100
AcDbLine
 10
11.574744
 20
3.087057
 30
0.0
 11
12.986682
 21
3.087057
 31
0.0
  0
SOLID
  5
4E9
330
2A2
100
AcDbEntity
  8
Dimensions
440
 16777216
100
AcDbTrace
 10
14.956791
 20
3.107057
 30
0.0
 11
14.956791
 21
3.067057
 31
0.0
 12
15.076791
 22
3.087057
 32
0.0
 13
15.076791
 23
3.087057
 33
0.0
  0
SOLID
  5
4EA
330
2A2
100
AcDbEntity
  8
Dimensions
440
 16777216
100
AcDbTrace
 10
11.574744
 20
3.107057
 30
0.0
 11
11.574744
 21
3.067057
 31
0.0
 12
11.454744
 22
3.087057
 32
0.0
 13
11.454744
 23
3.087057
 33
0.0
  0
MTEXT
  5
4EB
330
2A2
100
AcDbEntity
  8
Dimensions
440
 16777216
100
AcDbMText
 10
13.265768
 20
3.087057
 30
0.0
 40
0.12
 41
0.0
 46
0.0
 71
     5
 72
     1
  1
\A1;3.62in
 73
     1
 44
1.0
  0
POINT
  5
4EC
330
2A2
100
AcDbEntity
  8
Defpoints
 62
     0
440
 16777216
100
AcDbPoint
 10
15.076791
 20
3.426468
 30
0.0
  0
POINT
  5
4ED
330
2A2
100
AcDbEntity
  8
Defpoints
 62
     0
440
 16777216
100
AcDbPoint
 10
11.454744
 20
4.41072
 30
0.0
  0
POINT
  5
4EE
330
2A2
100
AcDbEntity
  8
Defpoints
 62
     0
440
 16777216
100
AcDbPoint
 10
11.454744
 20
3.087057
 30
0.0
  0
ENDBLK
  5
2A4
330
2A2
100
AcDbEntity
  8
0
100
AcDbBlockEnd
  0
ENDSEC
  0
SECTION
  2
ENTITIES
  0
INSERT
  5
1A9
330
70
100
AcDbEntity
  8
Titleblock
100
AcDbBlockReference
 66
     1
  2
Shower
 10
16.38
 20
0.38
 30
0.0
  0
ATTRIB
  5
1C9
330
1A9
100
AcDbEntity
  8
Titleblock
  6
Continuous
370
    25
100
AcDbText
 10
12.6925
 20
2.6925
 30
0.0
 40
0.12
  1
Railing Products and Mock Ups
100
AcDbAttribute
280
     0
  2
PROJECT
 70
     0
280
     1
1001
FD_ATT_APPNAME
1005
1B7
  0
ATTRIB
  5
1CA
330
1A9
100
AcDbEntity
  8
Titleblock
  6
Continuous
370
    25
100
AcDbText
 10
14.6925
 20
1.0675
 30
0.0
 40
0.12
  1
2/10/2020
100
AcDbAttribute
280
     0
  2
DRAWN_DATE
 70
     0
280
     1
1001
FD_ATT_APPNAME
1005
1B9
  0
ATTRIB
  5
1CB
330
1A9
100
AcDbEntity
  8
Titleblock
  6
Continuous
370
    25
100
AcDbText
 10
12.0675
 20
2.1925
 30
0.0
 40
0.3048
  1
R13-0145-038-12
100
AcDbAttribute
280
     0
  2
TITLE_1
 70
     0
280
     1
1001
FD_ATT_APPNAME
1005
1BA
  0
ATTRIB
  5
1CC
330
1A9
100
AcDbEntity
  8
Titleblock
  6
Continuous
370
    25
100
AcDbText
 10
14.6925
 20
1.29994
 30
0.0
 40
0.12
  1
1:1
100
AcDbAttribute
280
     0
  2
SCALE
 70
     0
280
     1
1001
FD_ATT_APPNAME
1005
1BB
  0
SEQEND
  5
1CD
330
1A9
100
AcDbEntity
  8
Titleblock
  0
INSERT
  5
1CE
330
70
100
AcDbEntity
  8
Border
100
AcDbBlockReference
  2
ANSI_B_SHEET
 10
0.0
 20
0.0
 30
0.0
  0
DIMENSION
  5
1EF
330
70
100
AcDbEntity
  8
Dimensions
100
AcDbDimension
280
     0
  2
*D14
 10
7.220478
 20
7.980504
 30
0.0
 11
8.5
 21
7.980515
 31
0.0
 70
    33
 71
     5
 42
2.559043
 73
     0
 74
     0
 75
     0
  3
Standard
100
AcDbAlignedDimension
 13
9.779528
 23
7.301704
 33
0.0
 14
7.220484
 24
7.301682
 34
0.0
1001
ACAD_DIMASSOC_CALC_DIMLFAC
1040
-1.0
1001
ACAD_DIMASSOC_DIMLFAC
1040
-1.0
1001
ACAD_DIMASSOC_OVERRIDDEN_DIMLFAC
1040
0.0
1001
ACAD
1000
DSTYLE
1002
{
1070
   144
1040
1.0
1070
   176
1070
   256
1070
   177
1070
   256
1002
}
  0
DIMENSION
  5
1FE
330
70
100
AcDbEntity
  8
Dimensions
100
AcDbDimension
280
     0
  2
*D15
 10
8.224409
 20
2.843126
 30
0.0
 11
8.5
 21
2.843126
 31
0.0
 70
    33
 71
     5
 42
0.551181
 73
     0
 74
     0
 75
     0
  3
Standard
100
AcDbAlignedDimension
 13
8.775591
 23
3.521949
 33
0.0
 14
8.224409
 24
3.521949
 34
0.0
1001
ACAD_DIMASSOC_CALC_DIMLFAC
1040
-1.0
1001
ACAD_DIMASSOC_DIMLFAC
1040
-1.0
1001
ACAD_DIMASSOC_OVERRIDDEN_DIMLFAC
1040
0.0
1001
ACAD
1000
DSTYLE
1002
{
1070
   144
1040
1.0
1070
   176
1070
   256
1070
   177
1070
   256
1002
}
  0
DIMENSION
  5
20C
330
70
100
AcDbEntity
  8
Dimensions
100
AcDbDimension
280
     0
  2
*D16
 10
7.723554
 20
3.805837
 30
0.0
 11
10.070265
 21
5.272229
 31
0.0
 70
   163
 71
     5
 42
1.968504
 73
     0
 74
     0
 75
     0
  3
Standard
100
AcDbDiametricDimension
 15
9.276446
 25
5.015603
 35
0.0
 40
0.0
1001
ACAD_DIMASSOC_CALC_DIMLFAC
1040
-1.0
1001
ACAD_DIMASSOC_DIMLFAC
1040
-1.0
1001
ACAD_DIMASSOC_OVERRIDDEN_DIMLFAC
1040
0.0
1001
ACAD_DSTYLE_DIMRADIAL_EXTENSION
1070
   387
1070
     1
1070
   388
1040
0.0
1070
   390
1040
0.0
1001
ACAD
1000
DSTYLE
1002
{
1070
   144
1040
1.0
1070
   176
1070
   256
1070
   177
1070
   256
1002
}
  0
DIMENSION
  5
216
330
70
100
AcDbEntity
  8
Dimensions
100
AcDbDimension
280
     0
  2
*D17
 10
8.014658
 20
4.329287
 30
0.0
 11
9.659246
 21
4.605226
 31
0.0
 70
   163
 71
     5
 42
0.984252
 73
     0
 74
     0
 75
     0
  3
Standard
100
AcDbDiametricDimension
 15
8.985342
 25
4.492154
 35
0.0
 40
0.0
1001
ACAD_DIMASSOC_CALC_DIMLFAC
1040
-1.0
1001
ACAD_DIMASSOC_DIMLFAC
1040
-1.0
1001
ACAD_DIMASSOC_OVERRIDDEN_DIMLFAC
1040
0.0
1001
ACAD_DSTYLE_DIMRADIAL_EXTENSION
1070
   387
1070
     1
1070
   388
1040
0.0
1070
   390
1040
0.0
1001
ACAD
1000
DSTYLE
1002
{
1070
   144
1040
1.0
1070
   176
1070
   256
1070
   177
1070
   256
1002
}
  0
DIMENSION
  5
21F
330
70
100
AcDbEntity
  8
Dimensions
100
AcDbDimension
280
     0
  2
*D18
 10
14.879941
 20
5.734383
 30
0.0
 11
14.458181
 21
5.734383
 31
0.0
 70
    33
 71
     5
 42
0.19685
 73
     0
 74
     0
 75
     0
  3
Standard
100
AcDbAlignedDimension
 13
15.076791
 23
5.394972
 33
0.0
 14
14.879941
 24
5.394972
 34
0.0
1001
ACAD_DIMASSOC_CALC_DIMLFAC
1040
-1.0
1001
ACAD_DIMASSOC_DIMLFAC
1040
-1.0
1001
ACAD_DIMASSOC_OVERRIDDEN_DIMLFAC
1040
0.0
1001
ACAD
1000
DSTYLE
1002
{
1070
   144
1040
1.0
1070
   176
1070
   256
1070
   177
1070
   256
1002
}
  0
DIMENSION
  5
22D
330
70
100
AcDbEntity
  8
Dimensions
100
AcDbDimension
280
     0
  2
*D19
 10
12.650394
 20
7.956622
 30
0.0
 11
10.969181
 21
8.401955
 31
0.0
 70
   163
 71
     5
 42
1.496063
 73
     0
 74
     0
 75
     0
  3
Standard
100
AcDbDiametricDimension
 15
11.204207
 25
8.339699
 35
0.0
 40
0.0
1001
ACAD_DIMASSOC_CALC_DIMLFAC
1040
-1.0
1001
ACAD_DIMASSOC_DIMLFAC
1040
-1.0
1001
ACAD_DIMASSOC_OVERRIDDEN_DIMLFAC
1040
0.0
1001
ACAD_DSTYLE_DIMRADIAL_EXTENSION
1070
   387
1070
     1
1070
   388
1040
4.022614
1070
   390
1040
4.712389
1001
ACAD
1000
DSTYLE
1002
{
1070
   144
1040
1.0
1070
   288
1070
     1
1002
}
  0
DIMENSION
  5
237
330
70
100
AcDbEntity
  8
Dimensions
100
AcDbDimension
280
     0
  2
*D20
 10
15.076791
 20
8.078952
 30
0.0
 11
13.502046
 21
8.078952
 31
0.0
 70
    32
 71
     5
 42
3.149491
 73
     0
 74
     0
 75
     0
  3
Standard
100
AcDbAlignedDimension
 13
11.927301
 23
7.400129
 33
0.0
 14
15.076791
 24
5.394972
 34
0.0
100
AcDbRotatedDimension
1001
ACAD_DIMASSOC_CALC_DIMLFAC
1040
-1.0
1001
ACAD_DIMASSOC_DIMLFAC
1040
-1.0
1001
ACAD_DIMASSOC_OVERRIDDEN_DIMLFAC
1040
0.0
1001
ACAD
1000
DSTYLE
1002
{
1070
   177
1070
   256
1070
   176
1070
   256
1070
   144
1040
1.0
1002
}
  0
DIMENSION
  5
245
330
70
100
AcDbEntity
  8
Dimensions
100
AcDbDimension
280
     0
  2
*D21
 10
11.454744
 20
3.087057
 30
0.0
 11
13.265768
 21
3.087057
 31
0.0
 70
    32
 71
     5
 42
3.622047
 73
     0
 74
     0
 75
     0
  3
Standard
100
AcDbAlignedDimension
 13
15.076791
 23
3.426468
 33
0.0
 14
11.454744
 24
4.41072
 34
0.0
100
AcDbRotatedDimension
1001
ACAD_DIMASSOC_CALC_DIMLFAC
1040
-1.0
1001
ACAD_DIMASSOC_DIMLFAC
1040
-1.0
1001
ACAD_DIMASSOC_OVERRIDDEN_DIMLFAC
1040
0.0
1001
ACAD
1000
DSTYLE
1002
{
1070
   177
1070
   256
1070
   176
1070
   256
1070
   144
1040
1.0
1002
}
  0
CIRCLE
  5
379
330
70
100
AcDbEntity
  8
Visible
100
AcDbCircle
 10
8.5
 20
4.41072
 30
1.722324
 40
0.4921259842519685
  0
ARC
  5
37A
330
70
100
AcDbEntity
  8
Visible
100
AcDbCircle
 10
8.5
 20
4.41072
 30
-1.624003
 40
0.984251968503937
100
AcDbArc
 50
106.260205
 51
73.739795
  0
SPLINE
  5
37B
330
70
100
AcDbEntity
  8
Visible
100
AcDbSpline
 70
     3
 71
     3
 72
    46
 73
    42
 74
     0
 42
0.000000001
 43
0.0000000001
 40
0.0
 40
0.0
 40
0.0
 40
0.0
 40
0.1176160583361983
 40
0.1176160583361983
 40
0.2352321166723966
 40
0.2352321166723966
 40
0.4704642333447932
 40
0.4704642333447932
 40
0.6974993473189302
 40
0.6974993473189302
 40
0.9245344612930672
 40
0.9245344612930672
 40
1.151569575267204
 40
1.151569575267204
 40
1.378604689241342
 40
1.378604689241342
 40
1.613836805913738
 40
1.613836805913738
 40
1.731452864249937
 40
1.731452864249937
 40
1.849068922586135
 40
1.849068922586135
 40
1.966684980922334
 40
1.966684980922334
 40
2.084301039258532
 40
2.084301039258532
 40
2.31953315593093
 40
2.31953315593093
 40
2.546568269905066
 40
2.546568269905066
 40
2.773603383879203
 40
2.773603383879203
 40
3.000638497853339
 40
3.000638497853339
 40
3.227673611827476
 40
3.227673611827476
 40
3.462905728499873
 40
3.462905728499873
 40
3.580521786836072
 40
3.580521786836072
 40
3.698137845172271
 40
3.698137845172271
 40
3.698137845172271
 40
3.698137845172271
 10
8.275590551178538
 20
6.902112599883881
 30
1.48872341792412
 10
8.275590551178538
 20
6.917547778143226
 30
1.48872341792412
 10
8.277188224361452
 20
6.932782650590917
 30
1.491019653423791
 10
8.283272430098804
 20
6.962236638211672
 30
1.499060702819406
 10
8.287758095681056
 20
6.976467981729769
 30
1.504761315434734
 10
8.30501243956678
 20
7.017014486454915
 30
1.524282184436742
 10
8.321778614286813
 20
7.041254100217468
 30
1.540314899246368
 10
8.360177602153271
 20
7.079653088082833
 30
1.567357025320234
 10
8.384423339068234
 20
7.096779146309
 30
1.580613937556336
 10
8.439406160750877
 20
7.120244258086603
 30
1.599160627716628
 10
8.470205365618312
 20
7.12652204870278
 30
1.604343499389869
 10
8.529794634378049
 20
7.12652204870278
 30
1.604343499389869
 10
8.560593839245484
 20
7.120244258086604
 30
1.599160627716628
 10
8.615576660928127
 20
7.096779146309
 30
1.580613937556336
 10
8.63982239784309
 20
7.079653088082833
 30
1.567357025320234
 10
8.678221385709548
 20
7.041254100217468
 30
1.540314899246368
 10
8.694987560429581
 20
7.017014486454915
 30
1.524282184436742
 10
8.712241904315305
 20
6.976467981729769
 30
1.504761315434734
 10
8.716727569897557
 20
6.962236638211672
 30
1.499060702819406
 10
8.722811775634909
 20
6.932782650590917
 30
1.491019653423791
 10
8.724409448817823
 20
6.917547778143226
 30
1.48872341792412
 10
8.724409448817823
 20
6.886677421624538
 30
1.48872341792412
 10
8.722811775634909
 20
6.871442549176846
 30
1.491019653423791
 10
8.716727569897557
 20
6.841988561556091
 30
1.499060702819406
 10
8.712241904315305
 20
6.827757218037993
 30
1.504761315434734
 10
8.694987560429581
 20
6.787210713312848
 30
1.524282184436742
 10
8.678221385709548
 20
6.762971099550297
 30
1.540314899246368
 10
8.63982239784309
 20
6.724572111684931
 30
1.567357025320234
 10
8.615576660928127
 20
6.707446053458764
 30
1.580613937556336
 10
8.560593839245484
 20
6.683980941681161
 30
1.599160627716628
 10
8.529794634378049
 20
6.677703151064984
 30
1.604343499389869
 10
8.470205365618312
 20
6.677703151064984
 30
1.604343499389869
 10
8.439406160750877
 20
6.683980941681161
 30
1.599160627716628
 10
8.384423339068234
 20
6.707446053458763
 30
1.580613937556336
 10
8.360177602153271
 20
6.724572111684931
 30
1.567357025320234
 10
8.321778614286813
 20
6.762971099550297
 30
1.540314899246368
 10
8.30501243956678
 20
6.787210713312848
 30
1.524282184436742
 10
8.287758095681056
 20
6.827757218037993
 30
1.504761315434734
 10
8.283272430098804
 20
6.841988561556092
 30
1.499060702819406
 10
8.277188224361452
 20
6.871442549176847
 30
1.491019653423791
 10
8.275590551178538
 20
6.886677421624538
 30
1.48872341792412
 10
8.275590551178538
 20
6.902112599883881
 30
1.48872341792412
1001
ACAD_VIEW_EDGE_ID
1071
        2
1071
       -1
1071
        3
1071
        0
  0
LINE
  5
37C
330
70
100
AcDbEntity
  8
Visible
100
AcDbLine
 10
8.764103
 20
6.708561
 30
1.407493
 11
8.764103
 21
7.073723
 31
1.407493
210
0.0
220
1.0
230
0.0
  0
LINE
  5
37D
330
70
100
AcDbEntity
  8
Visible
100
AcDbLine
 10
8.235897
 20
7.073723
 30
1.407493
 11
8.235897
 21
6.708561
 31
1.407493
210
0.0
220
1.0
230
0.0
  0
SPLINE
  5
37E
330
70
100
AcDbEntity
  8
Visible
100
AcDbSpline
 70
     0
 71
     3
 72
     8
 73
     4
 74
     0
 42
0.000000001
 43
0.0000000001
 40
0.0
 40
0.0
 40
0.0
 40
0.0
 40
0.2012950771902999
 40
0.2012950771902999
 40
0.2012950771902999
 40
0.2012950771902999
 10
8.775590551178538
 20
6.719379197185344
 30
1.328752948207693
 10
8.775590551178538
 20
6.719379197185344
 30
1.355169625005146
 10
8.771697473603126
 20
6.715431375053568
 30
1.382018846899882
 10
8.764102517025094
 20
6.708561478344682
 30
1.407493105689354
1001
ACAD_VIEW_EDGE_ID
1071
       10
1071
       -1
1071
        3
1071
        0
  0
SPLINE
  5
37F
330
70
100
AcDbEntity
  8
Visible
100
AcDbSpline
 70
     0
 71
     3
 72
     8
 73
     4
 74
     0
 42
0.000000001
 43
0.0000000001
 40
2.008562787254438
 40
2.008562787254438
 40
2.008562787254438
 40
2.008562787254438
 40
2.209857864444705
 40
2.209857864444705
 40
2.209857864444705
 40
2.209857864444705
 10
8.235897482971267
 20
6.708561478344707
 30
1.407493105689354
 10
8.228302526393235
 20
6.71543137505359
 30
1.382018846899882
 10
8.224409448817823
 20
6.719379197185345
 30
1.355169625005146
 10
8.224409448817823
 20
6.719379197185345
 30
1.328752948207693
1001
ACAD_VIEW_EDGE_ID
1071
       14
1071
       -1
1071
        3
1071
        0
  0
SPLINE
  5
380
330
70
100
AcDbEntity
  8
Visible
100
AcDbSpline
 70
     0
 71
     3
 72
    14
 73
    10
 74
     0
 42
0.000000001
 43
0.0000000001
 40
-1.161707484134181
 40
-1.161707484134181
 40
-1.161707484134181
 40
-1.161707484134181
 40
-0.8798978209865015
 40
-0.8798978209865015
 40
-0.5980881578388218
 40
-0.5980881578388218
 40
-0.2990440789194109
 40
-0.2990440789194109
 40
-0.2126327301455481
 40
-0.2126327301455481
 40
-0.2126327301455481
 40
-0.2126327301455481
 10
8.499999999998181
 20
7.217073229805141
 30
1.604343499389869
 10
8.463017104571918
 20
7.217073229805141
 30
1.604343499389869
 10
8.425002529298581
 20
7.210119232792281
 30
1.596472757250012
 10
8.357520799687335
 20
7.185295184712374
 30
1.567495877348846
 10
8.32797505772578
 20
7.167543130417454
 30
1.546471901077893
 10
8.280883810482919
 20
7.130455875659805
 30
1.499380653836851
 10
8.260467324182172
 20
7.107980376608306
 30
1.46964677165306
 10
8.242414750253374
 20
7.083486716222353
 30
1.427274965233664
 10
8.2388841463071
 20
7.078319172403571
 30
1.417510679064434
 10
8.235897482967629
 20
7.073722794507069
 30
1.407493105683897
1001
ACAD_VIEW_EDGE_ID
1071
       20
1071
       -1
1071
        3
1071
        0
  0
SPLINE
  5
381
330
70
100
AcDbEntity
  8
Visible
100
AcDbSpline
 70
     0
 71
     3
 72
    14
 73
    10
 74
     0
 42
0.000000001
 43
0.0000000001
 40
2.53604769841391
 40
2.53604769841391
 40
2.53604769841391
 40
2.53604769841391
 40
2.622459047187773
 40
2.622459047187773
 40
2.921503126107184
 40
2.921503126107184
 40
3.203312789254864
 40
3.203312789254864
 40
3.485122452402544
 40
3.485122452402544
 40
3.485122452402544
 40
3.485122452402544
 10
8.764102517028732
 20
7.073722794507069
 30
1.407493105683897
 10
8.761115853689261
 20
7.078319172403571
 30
1.417510679064434
 10
8.757585249742987
 20
7.083486716222353
 30
1.427274965233664
 10
8.739532675814189
 20
7.107980376608306
 30
1.46964677165306
 10
8.719116189513442
 20
7.130455875659805
 30
1.499380653836851
 10
8.672024942270581
 20
7.167543130417454
 30
1.546471901077893
 10
8.642479200309026
 20
7.185295184712374
 30
1.567495877348846
 10
8.57499747069778
 20
7.210119232792281
 30
1.596472757250012
 10
8.536982895424443
 20
7.217073229805141
 30
1.604343499389869
 10
8.499999999998181
 20
7.217073229805141
 30
1.604343499389869
1001
ACAD_VIEW_EDGE_ID
1071
       21
1071
       -1
1071
        3
1071
        0
  0
ARC
  5
382
330
70
100
AcDbEntity
  8
Visible
100
AcDbCircle
 10
-8.5
 20
1.328753
 30
3.521949
 40
0.2755905511811029
210
0.0
220
1.0
230
0.0
100
AcDbArc
 50
0.0
 51
180.0
  0
LINE
  5
383
330
70
100
AcDbEntity
  8
Visible
100
AcDbLine
 10
8.224409
 20
3.521949
 30
1.328753
 11
8.224409
 21
4.002998
 31
1.328753
210
0.0
220
1.0
230
0.0
  0
LINE
  5
384
330
70
100
AcDbEntity
  8
Visible
100
AcDbLine
 10
8.224409
 20
4.818443
 30
1.328753
 11
8.224409
 21
6.719379
 31
1.328753
210
0.0
220
1.0
230
0.0
  0
LINE
  5
385
330
70
100
AcDbEntity
  8
Visible
100
AcDbLine
 10
8.775591
 20
3.521949
 30
1.328753
 11
8.775591
 21
4.002998
 31
1.328753
210
0.0
220
1.0
230
0.0
  0
LINE
  5
386
330
70
100
AcDbEntity
  8
Visible
100
AcDbLine
 10
8.775591
 20
4.818443
 30
1.328753
 11
8.775591
 21
6.719379
 31
1.328753
210
0.0
220
1.0
230
0.0
  0
ARC
  5
387
330
70
100
AcDbEntity
  8
Visible
100
AcDbCircle
 10
-8.5
 20
3.929672
 30
-1.328753
 40
0.4921259842519688
210
0.0000000000000001
220
0.0
230
-1.0
100
AcDbArc
 50
235.944202
 51
304.055798
  0
SPLINE
  5
388
330
70
100
AcDbEntity
  8
Visible
100
AcDbSpline
210
1.0
220
0.0
230
0.0
 70
    12
 71
     2
 72
     6
 73
     3
 74
     0
 42
0.000000001
 43
0.0000000001
 40
0.1355501852963379
 40
0.1355501852963379
 40
0.1355501852963379
 40
0.453233872459803
 40
0.453233872459803
 40
0.453233872459803
 10
8.580354456182249
 20
6.948687002213445
 30
1.592112487747726
 41
1.232050807568715
 10
8.580354456182249
 20
6.903226351095913
 30
1.569382162188048
 41
1.422649730812052
 10
8.580354456182249
 20
6.857765699978379
 30
1.592112487747726
 41
1.232050807568715
1001
ACAD_VIEW_EDGE_ID
1071
        0
1071
       -1
1071
        4
1071
        0
  0
ARC
  5
389
330
70
100
AcDbEntity
  8
Visible
100
AcDbCircle
 10
8.501614
 20
6.903226
 30
1.592112
 40
0.0909213022345877
100
AcDbArc
 50
330.0
 51
30.0
  0
CIRCLE
  5
38A
330
70
100
AcDbEntity
  8
Visible
100
AcDbCircle
 10
8.501614
 20
6.903226
 30
1.481679
 40
0.2066929133858268
  0
CIRCLE
  5
38B
330
70
100
AcDbEntity
  8
Visible
100
AcDbCircle
 10
8.501614
 20
6.903226
 30
1.592112
 40
0.1181102362204725
  0
ARC
  5
38C
330
70
100
AcDbEntity
  8
Visible
100
AcDbCircle
 10
8.501614
 20
6.903226
 30
1.592112
 40
0.0909213022345878
100
AcDbArc
 50
150.0
 51
210.0
  0
ARC
  5
38D
330
70
100
AcDbEntity
  8
Visible
100
AcDbCircle
 10
8.501614
 20
6.903226
 30
1.592112
 40
0.0909213022345859
100
AcDbArc
 50
90.0
 51
150.0
  0
ARC
  5
38E
330
70
100
AcDbEntity
  8
Visible
100
AcDbCircle
 10
8.501614
 20
6.903226
 30
1.592112
 40
0.0909213022345862
100
AcDbArc
 50
30.0
 51
90.0
  0
ARC
  5
38F
330
70
100
AcDbEntity
  8
Visible
100
AcDbCircle
 10
8.501614
 20
6.903226
 30
1.592112
 40
0.0909213022345863
100
AcDbArc
 50
270.0
 51
330.0
  0
ARC
  5
390
330
70
100
AcDbEntity
  8
Visible
100
AcDbCircle
 10
8.501614
 20
6.903226
 30
1.592112
 40
0.0909213022345862
100
AcDbArc
 50
210.0
 51
270.0
  0
SPLINE
  5
391
330
70
100
AcDbEntity
  8
Visible
100
AcDbSpline
210
0.5000000000042025
220
0.8660254037820122
230
-0.0000000000199724
 70
    12
 71
     2
 72
     6
 73
     3
 74
     0
 42
0.000000001
 43
0.0000000001
 40
-0.45323387245921
 40
-0.45323387245921
 40
-0.45323387245921
 40
-0.1355501852959807
 40
-0.1355501852959807
 40
-0.1355501852959807
 10
8.580354456182249
 20
6.948687002213087
 30
1.592112487747726
 41
1.232050807568012
 10
8.540984377441418
 20
6.971417327771852
 30
1.569382162188048
 41
1.422649730811242
 10
8.501614298702406
 20
6.994147653330617
 30
1.592112487747726
 41
1.232050807568012
1001
ACAD_VIEW_EDGE_ID
1071
       23
1071
       -1
1071
        4
1071
        0
  0
SPLINE
  5
392
330
70
100
AcDbEntity
  8
Visible
100
AcDbSpline
210
-0.4999999999955324
220
0.8660254037870181
230
-0.000000000000017
 70
    12
 71
     2
 72
     6
 73
     3
 74
     0
 42
0.000000001
 43
0.0000000001
 40
-0.4532338724592102
 40
-0.4532338724592102
 40
-0.4532338724592102
 40
-0.1355501852959811
 40
-0.1355501852959811
 40
-0.1355501852959811
 10
8.501614298702406
 20
6.994147653330617
 30
1.592112487747726
 41
1.232050807568011
 10
8.462244219961576
 20
6.971417327771852
 30
1.569382162188048
 41
1.422649730811238
 10
8.422874141220745
 20
6.948687002213088
 30
1.592112487747726
 41
1.232050807568011
1001
ACAD_VIEW_EDGE_ID
1071
       24
1071
       -1
1071
        4
1071
        0
  0
SPLINE
  5
393
330
70
100
AcDbEntity
  8
Visible
100
AcDbSpline
210
1.0
220
0.0
230
0.0
 70
    12
 71
     2
 72
     6
 73
     3
 74
     0
 42
0.000000001
 43
0.0000000001
 40
-0.4532338724592097
 40
-0.4532338724592097
 40
-0.4532338724592097
 40
-0.1355501852959807
 40
-0.1355501852959807
 40
-0.1355501852959807
 10
8.422874141220745
 20
6.948687002213445
 30
1.592112487747726
 41
1.232050807568013
 10
8.422874141220745
 20
6.903226351095911
 30
1.569382162188048
 41
1.422649730811242
 10
8.422874141220745
 20
6.857765699978382
 30
1.592112487747726
 41
1.232050807568012
1001
ACAD_VIEW_EDGE_ID
1071
       25
1071
       -1
1071
        4
1071
        0
  0
SPLINE
  5
394
330
70
100
AcDbEntity
  8
Visible
100
AcDbSpline
210
0.4999999999955616
220
0.8660254037870011
230
-0.0000000000000508
 70
    12
 71
     2
 72
     6
 73
     3
 74
     0
 42
0.000000001
 43
0.0000000001
 40
-0.45323387245921
 40
-0.45323387245921
 40
-0.45323387245921
 40
-0.1355501852959808
 40
-0.1355501852959808
 40
-0.1355501852959808
 10
8.422874141220745
 20
6.857765699978739
 30
1.592112487747726
 41
1.232050807568012
 10
8.462244219961576
 20
6.835035374419971
 30
1.569382162188048
 41
1.422649730811241
 10
8.501614298702406
 20
6.812305048861206
 30
1.592112487747726
 41
1.232050807568012
1001
ACAD_VIEW_EDGE_ID
1071
       26
1071
       -1
1071
        4
1071
        0
  0
SPLINE
  5
395
330
70
100
AcDbEntity
  8
Visible
100
AcDbSpline
210
-0.5000000000042172
220
0.8660254037820036
230
0.0000000000199723
 70
    12
 71
     2
 72
     6
 73
     3
 74
     0
 42
0.000000001
 43
0.0000000001
 40
-0.4532338724592098
 40
-0.4532338724592098
 40
-0.4532338724592098
 40
-0.1355501852959808
 40
-0.1355501852959808
 40
-0.1355501852959808
 10
8.501614298702406
 20
6.812305048861206
 30
1.592112487747726
 41
1.232050807568012
 10
8.540984377441418
 20
6.83503537441997
 30
1.569382162188048
 41
1.422649730811241
 10
8.580354456182249
 20
6.857765699978737
 30
1.592112487747726
 41
1.232050807568012
1001
ACAD_VIEW_EDGE_ID
1071
       27
1071
       -1
1071
        4
1071
        0
  0
SPLINE
  5
396
330
70
100
AcDbEntity
  8
Visible
100
AcDbSpline
 70
     1
 71
     3
 72
    38
 73
    34
 74
     0
 42
0.000000001
 43
0.0000000001
 40
0.0
 40
0.0
 40
0.0
 40
0.0
 40
0.1054838284653477
 40
0.1054838284653477
 40
0.2109676569306954
 40
0.2109676569306954
 40
0.3167758624501248
 40
0.3167758624501248
 40
0.4225840679695543
 40
0.4225840679695543
 40
0.5292062853356539
 40
0.5292062853356539
 40
0.6358285027017536
 40
0.6358285027017536
 40
0.7418578570909686
 40
0.7418578570909686
 40
0.8478872114801838
 40
0.8478872114801838
 40
0.9534983864974076
 40
0.9534983864974076
 40
1.059109561514631
 40
1.059109561514631
 40
1.166149557102843
 40
1.166149557102843
 40
1.273189552691055
 40
1.273189552691055
 40
1.379002637297842
 40
1.379002637297842
 40
1.48481572190463
 40
1.48481572190463
 40
1.590294672585504
 40
1.590294672585504
 40
1.695773623266378
 40
1.695773623266378
 40
1.695773623266378
 40
1.695773623266378
 10
9.510026230180301
 20
7.30170784671495
 30
1.331308049937433
 10
9.49618320807167
 20
7.30170784671495
 30
1.331308049937433
 10
9.481417743545534
 20
7.301702865252616
 30
1.334074979560682
 10
9.454257308922024
 20
7.301837411249637
 30
1.345326177621245
 10
9.441862449180916
 20
7.301994676585636
 30
1.353810493352284
 10
9.422262362928449
 20
7.302735782486108
 30
1.373410579604751
 10
9.413770432729506
 20
7.303373415377382
 30
1.385839235063031
 10
9.402534948498214
 20
7.305458933209468
 30
1.413016147433154
 10
9.39979000970743
 20
7.306924610881052
 30
1.427762463503313
 10
9.39979000970743
 20
7.310326714194983
 30
1.455432104577994
 10
9.402570875645324
 20
7.312494530464315
 30
1.470199236622647
 10
9.413822470032755
 20
7.317109762051964
 30
1.497334921152287
 10
9.42229145638521
 20
7.319540353237497
 30
1.509707054672617
 10
9.441809031797674
 20
7.323655064227661
 30
1.529224630086901
 10
9.454158515514791
 20
7.325616439818032
 30
1.537705100545281
 10
9.481308216181787
 20
7.328307452964734
 30
1.548984402263158
 10
9.496111616743291
 20
7.329016425370639
 30
1.551780490883174
 10
9.523885964434157
 20
7.329016425370638
 30
1.551780490883174
 10
9.538635034667095
 20
7.32831306724992
 30
1.549006205148543
 10
9.565702177398634
 20
7.325640600029915
 30
1.537808077408044
 10
9.578023391080932
 20
7.323691872614157
 30
1.529386973514192
 10
9.59759896991818
 20
7.319583997737186
 30
1.50992620566285
 10
9.606127357739751
 20
7.317144501541561
 30
1.497525604880138
 10
9.617459971756034
 20
7.312510674224327
 30
1.47030757743596
 10
9.620262450653171
 20
7.31033340497239
 30
1.455486521328566
 10
9.620262450653171
 20
7.306924532741777
 30
1.427761827988433
 10
9.617517260401655
 20
7.305458809302388
 30
1.413014873167412
 10
9.606280821328255
 20
7.303373268706527
 30
1.38583698331422
 10
9.597788187857076
 20
7.302735655807435
 30
1.373407989305633
 10
9.578187420182075
 20
7.301994632934546
 30
1.353808581117846
 10
9.565792896875791
 20
7.301837392330147
 30
1.345324967674969
 10
9.538633437703538
 20
7.301702866668195
 30
1.334074725720711
 10
9.523868612159276
 20
7.30170784671495
 30
1.331308049937433
 10
9.510026230180301
 20
7.30170784671495
 30
1.331308049937433
1001
ACAD_VIEW_EDGE_ID
1071
        0
1071
       -1
1071
        5
1071
        0
  0
SPLINE
  5
397
330
70
100
AcDbEntity
  8
Visible
100
AcDbSpline
 70
     0
 71
     3
 72
    10
 73
     6
 74
     0
 42
0.000000001
 43
0.0000000001
 40
0.7876292891518966
 40
0.7876292891518966
 40
0.7876292891518966
 40
0.7876292891518966
 40
0.8475837638844783
 40
0.8475837638844783
 40
0.9075382386170563
 40
0.9075382386170563
 40
0.9075382386170563
 40
0.9075382386170563
 10
7.468654111771684
 20
7.301701622908804
 30
1.328609630816572
 10
7.476731160882991
 20
7.301701077603686
 30
1.330414201864186
 10
7.484897180434927
 20
7.30170784671495
 30
1.331308049937433
 10
7.500633263041891
 20
7.30170784671495
 30
1.331308049937433
 10
7.508799282595646
 20
7.301701077603686
 30
1.330414201864186
 10
7.516876331705134
 20
7.301701622908806
 30
1.328609630816572
1001
ACAD_VIEW_EDGE_ID
1071
        2
1071
       -1
1071
        5
1071
        0
  0
ELLIPSE
  5
398
330
70
100
AcDbEntity
  8
Visible
100
AcDbEllipse
 10
8.5
 20
6.888318
 30
1.328638
 11
-0.0000000000242221
 21
-0.2755905511407422
 31
0.2755905511407422
210
-0.0000000000000002
220
0.7071067811865474
230
0.7071067811865474
 40
0.7071067812881923
 41
-1.57079632675095
 42
-1.281044625272133
1001
ACAD_VIEW_EDGE_ID
1071
        7
1071
       -1
1071
        5
1071
        0
  0
ELLIPSE
  5
399
330
70
100
AcDbEntity
  8
Visible
100
AcDbEllipse
 10
8.5
 20
6.888318
 30
1.328638
 11
0.0000000000242234
 21
-0.275590551140742
 31
0.275590551140742
210
-0.0000000000000002
220
0.7071067811865474
230
0.7071067811865474
 40
0.7071067812881928
 41
1.281044625272129
 42
1.570796326750945
1001
ACAD_VIEW_EDGE_ID
1071
       11
1071
       -1
1071
        5
1071
        0
  0
LINE
  5
39A
330
70
100
AcDbEntity
  8
Visible
100
AcDbLine
 10
8.764103
 20
7.093836
 30
1.407378
 11
8.764103
 21
7.073723
 31
1.407378
210
0.0
220
1.0
230
0.0
  0
LINE
  5
39B
330
70
100
AcDbEntity
  8
Visible
100
AcDbLine
 10
8.235897
 20
7.073723
 30
1.407378
 11
8.235897
 21
7.093836
 31
1.407378
210
0.0
220
1.0
230
0.0
  0
SPLINE
  5
39C
330
70
100
AcDbEntity
  8
Visible
100
AcDbSpline
 70
     0
 71
     3
 72
    14
 73
    10
 74
     0
 42
0.000000001
 43
0.0000000001
 40
1.1387484406999
 40
1.1387484406999
 40
1.1387484406999
 40
1.1387484406999
 40
1.417990799010673
 40
1.417990799010673
 40
1.697233157321445
 40
1.697233157321445
 40
1.987365019360623
 40
1.987365019360623
 40
2.070208965220916
 40
2.070208965220916
 40
2.070208965220916
 40
2.070208965220916
 10
8.499999999998181
 20
7.222963835062618
 30
1.604228072937985
 10
8.536645978778324
 20
7.222963835062618
 30
1.604228072937985
 10
8.574496659857686
 20
7.216511376516065
 30
1.59649558611818
 10
8.642012995484037
 20
7.193429356593582
 30
1.567656342589543
 10
8.671755431003475
 20
7.176929236796697
 30
1.546625985893115
 10
8.718889929783472
 20
7.143166686245019
 30
1.499491487113118
 10
8.739454808093796
 20
7.123088087017448
 30
1.469740162800007
 10
8.757599242855576
 20
7.102020046779343
 30
1.42711921992668
 10
8.761123980433694
 20
7.097663605124647
 30
1.41736799467435
 10
8.764102517025094
 20
7.093836010434872
 30
1.40737767923747
1001
ACAD_VIEW_EDGE_ID
1071
       20
1071
       -1
1071
        5
1071
        0
  0
SPLINE
  5
39D
330
70
100
AcDbEntity
  8
Visible
100
AcDbSpline
 70
     0
 71
     3
 72
    14
 73
    10
 74
     0
 42
0.000000001
 43
0.0000000001
 40
0.2072879161788841
 40
0.2072879161788841
 40
0.2072879161788841
 40
0.2072879161788841
 40
0.2901318620391773
 40
0.2901318620391773
 40
0.5802637240783547
 40
0.5802637240783547
 40
0.8595060823891273
 40
0.8595060823891273
 40
1.1387484406999
 40
1.1387484406999
 40
1.1387484406999
 40
1.1387484406999
 10
8.235897482971267
 20
7.093836010434872
 30
1.40737767923747
 10
8.238876019562667
 20
7.097663605124647
 30
1.41736799467435
 10
8.242400757140785
 20
7.102020046779344
 30
1.42711921992668
 10
8.260545191902565
 20
7.123088087017448
 30
1.469740162800007
 10
8.281110070212889
 20
7.143166686245019
 30
1.499491487113118
 10
8.328244568992886
 20
7.176929236796697
 30
1.546625985893115
 10
8.357987004512324
 20
7.193429356593582
 30
1.567656342589543
 10
8.425503340138675
 20
7.216511376516065
 30
1.59649558611818
 10
8.463354021218037
 20
7.222963835062618
 30
1.604228072937985
 10
8.499999999998181
 20
7.222963835062618
 30
1.604228072937985
1001
ACAD_VIEW_EDGE_ID
1071
       21
1071
       -1
1071
        5
1071
        0
  0
SPLINE
  5
39E
330
70
100
AcDbEntity
  8
Visible
100
AcDbSpline
 70
     0
 71
     3
 72
    14
 73
    10
 74
     0
 42
0.000000001
 43
0.0000000001
 40
0.0
 40
0.0
 40
0.0
 40
0.0
 40
0.2654666869753293
 40
0.2654666869753293
 40
0.5309333739506586
 40
0.5309333739506586
 40
0.7963232942024937
 40
0.7963232942024937
 40
1.061713214454328
 40
1.061713214454328
 40
1.061713214457209
 40
1.061713214457209
 10
8.499999999998181
 20
7.343702643165981
 30
1.604228072937985
 10
8.534838147894333
 20
7.343702643165981
 30
1.604228072937985
 10
8.571842226505395
 20
7.341425603745634
 30
1.597222172871624
 10
8.639672458590212
 20
7.333360988789388
 30
1.569034349271532
 10
8.670518676557549
 20
7.327706686897046
 30
1.547862740339041
 10
8.719218176187496
 20
7.317213837966523
 30
1.499163240709094
 10
8.74039524028376
 20
7.311671106773209
 30
1.468314157762506
 10
8.76858708927466
 20
7.303865295709796
 30
1.400473523186519
 10
8.775590551178538
 20
7.301703992542933
 30
1.363465595281013
 10
8.775590551178538
 20
7.301703992542933
 30
1.328637521755808
1001
ACAD_VIEW_EDGE_ID
1071
       22
1071
       -1
1071
        5
1071
        0
  0
SPLINE
  5
39F
330
70
100
AcDbEntity
  8
Visible
100
AcDbSpline
 70
     0
 71
     3
 72
    14
 73
    10
 74
     0
 42
0.000000001
 43
0.0000000001
 40
3.185139643362986
 40
3.185139643362986
 40
3.185139643379669
 40
3.185139643379669
 40
3.450529563614821
 40
3.450529563614821
 40
3.715919483866656
 40
3.715919483866656
 40
3.981386170841986
 40
3.981386170841986
 40
4.246852857817315
 40
4.246852857817315
 40
4.246852857817315
 40
4.246852857817315
 10
8.224409448817823
 20
7.301703992542933
 30
1.328637521761265
 10
8.224409448817823
 20
7.301703992543204
 30
1.363465595284651
 10
8.23141291072352
 20
7.303865295710041
 30
1.400473523188338
 10
8.259604759712601
 20
7.311671106773209
 30
1.468314157762506
 10
8.280781823808865
 20
7.317213837966523
 30
1.499163240709094
 10
8.329481323438812
 20
7.327706686897046
 30
1.547862740339041
 10
8.360327541406149
 20
7.333360988789388
 30
1.569034349271532
 10
8.428157773490966
 20
7.341425603745634
 30
1.597222172871624
 10
8.465161852102028
 20
7.343702643165981
 30
1.604228072937985
 10
8.499999999998181
 20
7.343702643165981
 30
1.604228072937985
1001
ACAD_VIEW_EDGE_ID
1071
       22
1071
       -1
1071
        5
1071
        0
  0
SPLINE
  5
3A0
330
70
100
AcDbEntity
  8
Visible
100
AcDbSpline
 70
     0
 71
     3
 72
    22
 73
    18
 74
     0
 42
0.000000001
 43
0.0000000001
 40
0.3437529438379148
 40
0.3437529438379148
 40
0.3437529438379148
 40
0.3437529438379148
 40
0.3513109660372399
 40
0.3513109660372399
 40
0.3588689882365649
 40
0.3588689882365649
 40
0.3739850326352148
 40
0.3739850326352148
 40
0.4042171214325149
 40
0.4042171214325149
 40
0.464681299027115
 40
0.464681299027115
 40
0.5856096542163152
 40
0.5856096542163152
 40
0.6474638112548118
 40
0.6474638112548118
 40
0.6483697357685667
 40
0.6483697357685667
 40
0.6483697357685667
 40
0.6483697357685667
 10
7.712597583686147
 20
7.563673545623489
 30
1.820762664499852
 10
7.711605717255224
 20
7.563673545623489
 30
1.820762664499852
 10
7.710635899820772
 20
7.563848929115288
 30
1.820759732911028
 10
7.708672608685446
 20
7.564111959237227
 30
1.820747992302131
 10
7.707686681031191
 20
7.564253150290233
 30
1.820739157821662
 10
7.704709119050676
 20
7.564660555071288
 30
1.820703449822758
 10
7.702701556792817
 20
7.564947162058365
 30
1.82066732943349
 10
7.696623495892708
 20
7.565794636674198
 30
1.820520042190764
 10
7.692488312186469
 20
7.56636678864112
 30
1.820369426957768
 10
7.679955663534201
 20
7.568056815999528
 30
1.819750178679896
 10
7.671388863667743
 20
7.569158240351985
 30
1.819109303556615
 10
7.645788363379324
 20
7.572052742011788
 30
1.816508381056337
 10
7.628728844567376
 20
7.573481611081515
 30
1.813823087781202
 10
7.6052365971791
 20
7.57333207530271
 30
1.808977675606001
 10
7.595764961961322
 20
7.572831148968926
 30
1.806759428529403
 10
7.587957300360358
 20
7.571186248870249
 30
1.804717314924346
 10
7.587843720870296
 20
7.571162005386215
 30
1.804687565147105
 10
7.587729353817849
 20
7.571137256284762
 30
1.804657564705848
1001
ACAD_VIEW_EDGE_ID
1071
       23
1071
       -1
1071
        5
1071
        0
  0
SPLINE
  5
3A1
330
70
100
AcDbEntity
  8
Visible
100
AcDbSpline
 70
     0
 71
     3
 72
    16
 73
    12
 74
     0
 42
0.000000001
 43
0.0000000001
 40
0.3166829533326489
 40
0.3166829533326489
 40
0.3166829533326489
 40
0.3166829533326489
 40
0.4922883918078198
 40
0.4922883918078198
 40
0.9845767836156394
 40
0.9845767836156394
 40
1.47181069110683
 40
1.47181069110683
 40
1.715427644852425
 40
1.715427644852425
 40
1.959044598598021
 40
1.959044598598021
 40
1.959044598598021
 40
1.959044598598021
 10
7.587729353817849
 20
7.571137256284762
 30
1.804657564705848
 10
7.565054972017605
 20
7.566230505925045
 30
1.798709685072026
 10
7.542838544051846
 20
7.560138209753564
 30
1.791141292527754
 10
7.461342399092245
 20
7.533947869623614
 30
1.756782013018892
 10
7.407433995420433
 20
7.508503332529903
 30
1.719443984742611
 10
7.322230782261613
 20
7.463726563070114
 30
1.634240771585609
 10
7.284599868671648
 20
7.440946036616348
 30
1.580232763139065
 10
7.246404966470436
 20
7.416996439915184
 30
1.489651091544146
 10
7.236607010985608
 20
7.410660358729399
 30
1.457877241009555
 10
7.223638114310233
 20
7.402224314634828
 30
1.393356666119871
 10
7.220472440943922
 20
7.400129189393326
 30
1.360608250593941
 10
7.220472440943922
 20
7.400129189393326
 30
1.328637521755808
1001
ACAD_VIEW_EDGE_ID
1071
       24
1071
       -1
1071
        5
1071
        0
  0
SPLINE
  5
3A2
330
70
100
AcDbEntity
  8
Visible
100
AcDbSpline
 70
     0
 71
     3
 72
    14
 73
    10
 74
     0
 42
0.000000001
 43
0.0000000001
 40
5.783789440326742
 40
5.783789440326742
 40
5.783789440326742
 40
5.783789440326742
 40
6.024342796720238
 40
6.024342796720238
 40
6.264896153113734
 40
6.264896153113734
 40
6.746002865900726
 40
6.746002865900726
 40
6.850303376631917
 40
6.850303376631917
 40
6.850303376631917
 40
6.850303376631917
 10
7.220472440943922
 20
7.301703992542933
 30
1.328637521755808
 10
7.220472440943922
 20
7.301703992542933
 30
1.360206203697089
 10
7.223559149659195
 20
7.303358163478174
 30
1.392655234010817
 10
7.236331884849278
 20
7.310057613853235
 30
1.456808663378978
 10
7.246013380396107
 20
7.315098863354722
 30
1.488514385215239
 10
7.283997714301222
 20
7.334141177666837
 30
1.579209638244719
 10
7.321700444412272
 20
7.352221125796548
 30
1.633710433734449
 10
7.373915598842359
 20
7.37341665620901
 30
1.685925588164536
 10
7.38373305378991
 20
7.377275631532935
 30
1.694994839101127
 10
7.394027245321922
 20
7.381153175872976
 30
1.703737635905781
1001
ACAD_VIEW_EDGE_ID
1071
       30
1071
       -1
1071
        5
1071
        0
  0
SPLINE
  5
3A3
330
70
100
AcDbEntity
  8
Visible
100
AcDbSpline
 70
     0
 71
     3
 72
    24
 73
    20
 74
     0
 42
0.000000001
 43
0.0000000001
 40
5.389073406529078
 40
5.389073406529078
 40
5.389073406529078
 40
5.389073406529078
 40
5.527564862621652
 40
5.527564862621652
 40
5.841899878117944
 40
5.841899878117944
 40
6.156234893614236
 40
6.156234893614236
 40
6.313402401362382
 40
6.313402401362382
 40
6.391986155236455
 40
6.391986155236455
 40
6.431278032173492
 40
6.431278032173492
 40
6.45092397064201
 40
6.45092397064201
 40
6.460746939876269
 40
6.460746939876269
 40
6.470569909110528
 40
6.470569909110528
 40
6.470569909110528
 40
6.470569909110528
 10
7.394027245321922
 20
7.381153175872976
 30
1.703737635905781
 10
7.406956051298038
 20
7.386023108424455
 30
1.714717995384489
 10
7.42018567728337
 20
7.391692492588836
 30
1.72480544922655
 10
7.46416684460928
 20
7.412119309837291
 30
1.755067702304586
 10
7.495836743082691
 20
7.429239489516464
 30
1.771771423193058
 10
7.559106358541612
 20
7.465538268059724
 30
1.79745868077407
 10
7.59218376966055
 20
7.485641874283806
 30
1.80684332756391
 10
7.638666033548361
 20
7.514442699990469
 30
1.81543266650442
 10
7.654239735244118
 20
7.524195320073831
 30
1.817511718922105
 10
7.676220693969298
 20
7.537974108653656
 30
1.819471486476686
 10
7.683511492597972
 20
7.542553340542073
 30
1.819953047273884
 10
7.694084894657862
 20
7.549121326593404
 30
1.820426990792839
 10
7.697575770023831
 20
7.551285924014995
 30
1.820545860013226
 10
7.702837542026827
 20
7.554422326126906
 30
1.82066899991878
 10
7.70458039783989
 20
7.555451275351842
 30
1.820700772243071
 10
7.707324287619485
 20
7.556897602471254
 30
1.820735253633756
 10
7.708251369153003
 20
7.557365548522714
 30
1.820744485648901
 10
7.710248273113393
 20
7.558167596708029
 30
1.820758069377916
 10
7.711308480111256
 20
7.558525430404866
 30
1.820762664499852
 10
7.712597583686147
 20
7.558525430404866
 30
1.820762664499852
1001
ACAD_VIEW_EDGE_ID
1071
       31
1071
       -1
1071
        5
1071
        0
  0
SPLINE
  5
3A4
330
70
100
AcDbEntity
  8
Visible
100
AcDbSpline
 70
     0
 71
     3
 72
    16
 73
    12
 74
     0
 42
0.000000001
 43
0.0000000001
 40
5.87713379579406
 40
5.87713379579406
 40
5.87713379579406
 40
5.87713379579406
 40
6.120750749539656
 40
6.120750749539656
 40
6.364367703285251
 40
6.364367703285251
 40
6.851601610776441
 40
6.851601610776441
 40
7.343890002584261
 40
7.343890002584261
 40
7.519495441059433
 40
7.519495441059433
 40
7.519495441059433
 40
7.519495441059433
 10
9.779527559052439
 20
7.400129189393326
 30
1.328637521755808
 10
9.779527559052439
 20
7.400129189393326
 30
1.360608250593941
 10
9.776361885686128
 20
7.402224314634828
 30
1.393356666119871
 10
9.763392989010753
 20
7.410660358729399
 30
1.457877241009555
 10
9.753595033525925
 20
7.416996439915184
 30
1.489651091544146
 10
9.715400131324713
 20
7.440946036616348
 30
1.580232763139065
 10
9.677769217734748
 20
7.463726563070114
 30
1.634240771585609
 10
9.592566004575928
 20
7.508503332529903
 30
1.719443984742611
 10
9.538657600904116
 20
7.533947869623614
 30
1.756782013018892
 10
9.457161455944515
 20
7.560138209753564
 30
1.791141292527754
 10
9.434945027978756
 20
7.566230505925045
 30
1.798709685072026
 10
9.412270646178512
 20
7.571137256284762
 30
1.804657564705848
1001
ACAD_VIEW_EDGE_ID
1071
       37
1071
       -1
1071
        5
1071
        0
  0
SPLINE
  5
3A5
330
70
100
AcDbEntity
  8
Visible
100
AcDbSpline
 70
     0
 71
     3
 72
    22
 73
    18
 74
     0
 42
0.000000001
 43
0.0000000001
 40
0.0391361519072636
 40
0.0391361519072636
 40
0.0391361519072636
 40
0.0391361519072636
 40
0.0400420764210185
 40
0.0400420764210185
 40
0.1018962334595151
 40
0.1018962334595151
 40
0.222824588648715
 40
0.222824588648715
 40
0.2832887662433149
 40
0.2832887662433149
 40
0.3135208550406149
 40
0.3135208550406149
 40
0.3286368994392649
 40
0.3286368994392649
 40
0.3361949216385899
 40
0.3361949216385899
 40
0.3437529438379149
 40
0.3437529438379149
 40
0.3437529438379149
 40
0.3437529438379149
 10
9.412270646178512
 20
7.571137256284762
 30
1.804657564705848
 10
9.412156279126065
 20
7.571162005386215
 30
1.804687565147105
 10
9.412042699636003
 20
7.571186248870249
 30
1.804717314924346
 10
9.404235038035039
 20
7.572831148968926
 30
1.806759428529403
 10
9.394763402817261
 20
7.57333207530271
 30
1.808977675606001
 10
9.371271155428985
 20
7.573481611081515
 30
1.813823087781202
 10
9.354211636617037
 20
7.572052742011788
 30
1.816508381056337
 10
9.328611136328618
 20
7.569158240351985
 30
1.819109303556615
 10
9.32004433646216
 20
7.568056815999528
 30
1.819750178679896
 10
9.307511687809892
 20
7.56636678864112
 30
1.820369426957768
 10
9.303376504103653
 20
7.565794636674198
 30
1.820520042190764
 10
9.297298443203544
 20
7.564947162058365
 30
1.82066732943349
 10
9.295290880945685
 20
7.564660555071288
 30
1.820703449822758
 10
9.29231331896517
 20
7.564253150290233
 30
1.820739157821662
 10
9.291327391310915
 20
7.564111959237227
 30
1.820747992302131
 10
9.289364100175589
 20
7.563848929115288
 30
1.820759732911028
 10
9.288394282741137
 20
7.563673545623489
 30
1.820762664499852
 10
9.287402416310214
 20
7.563673545623489
 30
1.820762664499852
1001
ACAD_VIEW_EDGE_ID
1071
       38
1071
       -1
1071
        5
1071
        0
  0
SPLINE
  5
3A6
330
70
100
AcDbEntity
  8
Visible
100
AcDbSpline
 70
     0
 71
     3
 72
    24
 73
    20
 74
     0
 42
0.000000001
 43
0.0000000001
 40
6.470569909110528
 40
6.470569909110528
 40
6.470569909110528
 40
6.470569909110528
 40
6.480392878344787
 40
6.480392878344787
 40
6.490215847579046
 40
6.490215847579046
 40
6.509861786047564
 40
6.509861786047564
 40
6.5491536629846
 40
6.5491536629846
 40
6.627737416858674
 40
6.627737416858674
 40
6.78490492460682
 40
6.78490492460682
 40
7.099239940103112
 40
7.099239940103112
 40
7.413574955599404
 40
7.413574955599404
 40
7.552066411691978
 40
7.552066411691978
 40
7.552066411691978
 40
7.552066411691978
 10
9.287402416310214
 20
7.558525430404866
 30
1.820762664499852
 10
9.288691519885105
 20
7.558525430404866
 30
1.820762664499852
 10
9.289751726882968
 20
7.558167596708029
 30
1.820758069377916
 10
9.291748630843358
 20
7.557365548522714
 30
1.820744485648901
 10
9.292675712376876
 20
7.556897602471254
 30
1.820735253633756
 10
9.295419602156471
 20
7.555451275351842
 30
1.820700772243071
 10
9.297162457969534
 20
7.554422326126906
 30
1.82066899991878
 10
9.30242422997253
 20
7.551285924014995
 30
1.820545860013226
 10
9.305915105338499
 20
7.549121326593404
 30
1.820426990792839
 10
9.316488507398389
 20
7.542553340542073
 30
1.819953047273884
 10
9.323779306027063
 20
7.537974108653656
 30
1.819471486476686
 10
9.345760264752243
 20
7.524195320073831
 30
1.817511718922105
 10
9.361333966448
 20
7.514442699990469
 30
1.81543266650442
 10
9.407816230335811
 20
7.485641874283806
 30
1.80684332756391
 10
9.440893641454749
 20
7.465538268059724
 30
1.79745868077407
 10
9.50416325691367
 20
7.429239489516464
 30
1.771771423193058
 10
9.535833155387081
 20
7.412119309837291
 30
1.755067702304586
 10
9.579814322712991
 20
7.391692492588836
 30
1.72480544922655
 10
9.593043948698323
 20
7.386023108424455
 30
1.714717995384489
 10
9.605972754674439
 20
7.381153175872976
 30
1.703737635905781
1001
ACAD_VIEW_EDGE_ID
1071
       40
1071
       -1
1071
        5
1071
        0
  0
SPLINE
  5
3A7
330
70
100
AcDbEntity
  8
Visible
100
AcDbSpline
 70
     0
 71
     3
 72
    14
 73
    10
 74
     0
 42
0.000000001
 43
0.0000000001
 40
0.8614158771370725
 40
0.8614158771370725
 40
0.8614158771370725
 40
0.8614158771370725
 40
0.9657163878682641
 40
0.9657163878682641
 40
1.446823100655255
 40
1.446823100655255
 40
1.687376457048751
 40
1.687376457048751
 40
1.927929813442247
 40
1.927929813442247
 40
1.927929813442247
 40
1.927929813442247
 10
9.605972754674439
 20
7.381153175872976
 30
1.703737635905781
 10
9.616266946206451
 20
7.377275631532935
 30
1.694994839101127
 10
9.626084401154002
 20
7.37341665620901
 30
1.685925588164536
 10
9.678299555584089
 20
7.352221125796548
 30
1.633710433734449
 10
9.71600228569514
 20
7.334141177666837
 30
1.579209638244719
 10
9.753986619600254
 20
7.315098863354722
 30
1.488514385215239
 10
9.763668115147083
 20
7.310057613853235
 30
1.456808663378978
 10
9.776440850337166
 20
7.303358163478174
 30
1.392655234010817
 10
9.779527559052439
 20
7.301703992542933
 30
1.360206203697089
 10
9.779527559052439
 20
7.301703992542933
 30
1.328637521755808
1001
ACAD_VIEW_EDGE_ID
1071
       41
1071
       -1
1071
        5
1071
        0
  0
LINE
  5
3A8
330
70
100
AcDbEntity
  8
Visible
100
AcDbLine
 10
9.287402
 20
7.563674
 30
1.820763
 11
7.712598
 21
7.563674
 31
1.820763
210
0.0
220
1.0
230
0.0
  0
LINE
  5
3A9
330
70
100
AcDbEntity
  8
Visible
100
AcDbLine
 10
7.712598
 20
7.558525
 30
1.820763
 11
9.287402
 21
7.558525
 31
1.820763
210
0.0
220
1.0
230
0.0
  0
LINE
  5
3AA
330
70
100
AcDbEntity
  8
Visible
100
AcDbLine
 10
8.775591
 20
7.301704
 30
1.328638
 11
8.775591
 21
6.888318
 31
1.328638
210
0.0
220
1.0
230
0.0
  0
LINE
  5
3AB
330
70
100
AcDbEntity
  8
Visible
100
AcDbLine
 10
8.224409
 20
7.301704
 30
1.328638
 11
8.224409
 21
6.888318
 31
1.328638
210
0.0
220
1.0
230
0.0
  0
LINE
  5
3AC
330
70
100
AcDbEntity
  8
Visible
100
AcDbLine
 10
7.220472
 20
7.400129
 30
1.328638
 11
7.220472
 21
7.301704
 31
1.328638
210
0.0
220
1.0
230
0.0
  0
LINE
  5
3AD
330
70
100
AcDbEntity
  8
Visible
100
AcDbLine
 10
9.779528
 20
7.400129
 30
1.328638
 11
9.779528
 21
7.301704
 31
1.328638
210
0.0
220
1.0
230
0.0
  0
LINE
  5
3AE
330
70
100
AcDbEntity
  8
Visible
100
AcDbLine
 10
9.38533
 20
7.573387
 30
1.810921
 11
7.61467
 21
7.573387
 31
1.810921
210
0.0
220
1.0
230
0.0
  0
LINE
  5
3AF
330
70
100
AcDbEntity
  8
Visible
100
AcDbLine
 10
9.779528
 20
7.301704
 30
1.328638
 11
8.775591
 21
7.301704
 31
1.328638
210
0.0
220
1.0
230
0.0
  0
LINE
  5
3B0
330
70
100
AcDbEntity
  8
Visible
100
AcDbLine
 10
8.224409
 20
7.301704
 30
1.328638
 11
7.516883
 21
7.301704
 31
1.328638
210
0.0
220
1.0
230
0.0
  0
LINE
  5
3B1
330
70
100
AcDbEntity
  8
Visible
100
AcDbLine
 10
7.468648
 20
7.301704
 30
1.328638
 11
7.220472
 21
7.301704
 31
1.328638
210
0.0
220
1.0
230
0.0
  0
SPLINE
  5
3B2
330
70
100
AcDbEntity
  8
Visible
100
AcDbSpline
 70
     0
 71
     3
 72
    14
 73
    10
 74
     0
 42
0.000000001
 43
0.0000000001
 40
0.0
 40
0.0
 40
0.0
 40
0.0
 40
0.2713517595321002
 40
0.2713517595321002
 40
0.5427035190642005
 40
0.5427035190642005
 40
0.8128009797305541
 40
0.8128009797305541
 40
1.08289844038899
 40
1.08289844038899
 40
1.082898440396907
 40
1.082898440396907
 10
11.92718515319757
 20
4.002997530163544
 30
0.2755905511839956
 10
11.96279562032759
 20
4.002997530163544
 30
0.2755905511839956
 10
12.00000180178722
 20
3.997836824412738
 30
0.2683072379313671
 10
12.06753956574175
 20
3.980755430520836
 30
0.2399827445624396
 10
12.09797154129774
 20
3.96920743236871
 30
0.2189575070442515
 10
12.14603132692718
 20
3.948482670003283
 30
0.1708977214166225
 10
12.16713596308909
 20
3.937783602080259
 30
0.1404319974808459
 10
12.19552779475634
 20
3.922764871565358
 30
0.0727307919896703
 10
12.20277570437793
 20
3.918594285620638
 30
0.0354458609854191
 10
12.20277570437793
 20
3.918594285620394
 30
0.000000000005457
1001
ACAD_VIEW_EDGE_ID
1071
        6
1071
       -1
1071
        2
1071
        0
  0
SPLINE
  5
3B3
330
70
100
AcDbEntity
  8
Visible
100
AcDbSpline
 70
     0
 71
     3
 72
    14
 73
    10
 74
     0
 42
0.000000001
 43
0.0000000001
 40
3.248695321190719
 40
3.248695321190719
 40
3.2486953211961
 40
3.2486953211961
 40
3.518792781857073
 40
3.518792781857073
 40
3.788890242523427
 40
3.788890242523427
 40
4.060242002055527
 40
4.060242002055527
 40
4.331593761587627
 40
4.331593761587627
 40
4.331593761587627
 40
4.331593761587627
 10
11.65159460201539
 20
3.918594285620394
 30
0.000000000005457
 10
11.65159460201539
 20
3.918594285620561
 30
0.0354458609854191
 10
11.65884251163697
 20
3.922764871565287
 30
0.0727307919878513
 10
11.68723434330422
 20
3.937783602080259
 30
0.1404319974808459
 10
11.70833897946613
 20
3.948482670003283
 30
0.1708977214166225
 10
11.75639876509558
 20
3.96920743236871
 30
0.2189575070442515
 10
11.78683074065157
 20
3.980755430520836
 30
0.2399827445624396
 10
11.8543685046061
 20
3.997836824412738
 30
0.2683072379313671
 10
11.89157468606572
 20
4.002997530163544
 30
0.2755905511839956
 10
11.92718515319757
 20
4.002997530163544
 30
0.2755905511839956
1001
ACAD_VIEW_EDGE_ID
1071
        6
1071
       -1
1071
        2
1071
        0
  0
SPLINE
  5
3B4
330
70
100
AcDbEntity
  8
Visible
100
AcDbSpline
 70
     0
 71
     3
 72
    14
 73
    10
 74
     0
 42
0.000000001
 43
0.0000000001
 40
0.0
 40
0.0
 40
0.0
 40
0.0
 40
0.2713517595320999
 40
0.2713517595320999
 40
0.5427035190641999
 40
0.5427035190641999
 40
0.8128009797305534
 40
0.8128009797305534
 40
1.08289844038899
 40
1.08289844038899
 40
1.082898440396907
 40
1.082898440396907
 10
11.92718515319757
 20
4.818443009581181
 30
0.2755905511839956
 10
11.89157468606572
 20
4.818443009581181
 30
0.2755905511839956
 10
11.8543685046061
 20
4.823603715331987
 30
0.2683072379313671
 10
11.78683074065157
 20
4.840685109223889
 30
0.2399827445624396
 10
11.75639876509558
 20
4.852233107376015
 30
0.2189575070442515
 10
11.70833897946613
 20
4.872957869741442
 30
0.1708977214166225
 10
11.68723434330422
 20
4.883656937664467
 30
0.1404319974808459
 10
11.65884251163697
 20
4.898675668179367
 30
0.0727307919896703
 10
11.65159460201539
 20
4.902846254124087
 30
0.0354458609854191
 10
11.65159460201539
 20
4.902846254124331
 30
0.000000000005457
1001
ACAD_VIEW_EDGE_ID
1071
        7
1071
       -1
1071
        2
1071
        0
  0
SPLINE
  5
3B5
330
70
100
AcDbEntity
  8
Visible
100
AcDbSpline
 70
     0
 71
     3
 72
    14
 73
    10
 74
     0
 42
0.000000001
 43
0.0000000001
 40
3.248695321190719
 40
3.248695321190719
 40
3.2486953211961
 40
3.2486953211961
 40
3.518792781857072
 40
3.518792781857072
 40
3.788890242523426
 40
3.788890242523426
 40
4.060242002055526
 40
4.060242002055526
 40
4.331593761587626
 40
4.331593761587626
 40
4.331593761587626
 40
4.331593761587626
 10
12.20277570437793
 20
4.902846254124331
 30
0.000000000005457
 10
12.20277570437793
 20
4.902846254124165
 30
0.0354458609854191
 10
12.19552779475634
 20
4.898675668179438
 30
0.0727307919878513
 10
12.16713596308909
 20
4.883656937664467
 30
0.1404319974808459
 10
12.14603132692718
 20
4.872957869741442
 30
0.1708977214166225
 10
12.09797154129774
 20
4.852233107376016
 30
0.2189575070442515
 10
12.06753956574175
 20
4.840685109223889
 30
0.2399827445624396
 10
12.00000180178722
 20
4.823603715331987
 30
0.2683072379313671
 10
11.96279562032759
 20
4.818443009581181
 30
0.2755905511839956
 10
11.92718515319757
 20
4.818443009581181
 30
0.2755905511839956
1001
ACAD_VIEW_EDGE_ID
1071
        7
1071
       -1
1071
        2
1071
        0
  0
ARC
  5
3B6
330
70
100
AcDbEntity
  8
Visible
100
AcDbCircle
 10
-4.41072
 20
0.0
 30
-11.533614
 40
0.4921259842519685
210
-1.0
220
0.0
230
0.0000000000002969
100
AcDbArc
 50
0.0
 51
180.0
  0
ARC
  5
3B7
330
70
100
AcDbEntity
  8
Visible
100
AcDbCircle
 10
-4.41072
 20
0.0
 30
-15.076791
 40
0.9842519685039372
210
-1.0
220
-0.0000000000000004
230
0.0000000000002971
100
AcDbArc
 50
0.0
 51
180.0
  0
ARC
  5
3B8
330
70
100
AcDbEntity
  8
Visible
100
AcDbCircle
 10
-4.41072
 20
0.0
 30
-14.879941
 40
0.9842519685039372
210
-1.0
220
-0.0000000000000004
230
0.0000000000002971
100
AcDbArc
 50
0.0
 51
180.0
  0
ARC
  5
3B9
330
70
100
AcDbEntity
  8
Visible
100
AcDbCircle
 10
-13.029547
 20
4.41072
 30
0.0
 40
1.574803149606299
210
-0.0000000000002969
220
0.0
230
-1.0
100
AcDbArc
 50
341.790043
 51
18.209957
  0
LINE
  5
3BA
330
70
100
AcDbEntity
  8
Visible
100
AcDbLine
 10
15.076791
 20
3.426468
 30
0.0
 11
14.879941
 21
3.426468
 31
0.0
210
0.0
220
1.0
230
0.0
  0
LINE
  5
3BB
330
70
100
AcDbEntity
  8
Visible
100
AcDbLine
 10
15.076791
 20
5.394972
 30
0.0
 11
14.879941
 21
5.394972
 31
0.0
210
0.0
220
1.0
230
0.0
  0
LINE
  5
3BC
330
70
100
AcDbEntity
  8
Visible
100
AcDbLine
 10
14.879941
 20
3.918594
 30
0.0
 11
12.202776
 21
3.918594
 31
0.0
210
0.0
220
1.0
230
0.0
  0
LINE
  5
3BD
330
70
100
AcDbEntity
  8
Visible
100
AcDbLine
 10
11.651595
 20
3.918594
 30
0.0
 11
11.533614
 21
3.918594
 31
0.0
210
0.0
220
1.0
230
0.0
  0
LINE
  5
3BE
330
70
100
AcDbEntity
  8
Visible
100
AcDbLine
 10
14.879941
 20
4.902846
 30
0.0
 11
12.202776
 21
4.902846
 31
0.0
210
0.0
220
1.0
230
0.0
  0
LINE
  5
3BF
330
70
100
AcDbEntity
  8
Visible
100
AcDbLine
 10
11.651595
 20
4.902846
 30
0.0
 11
11.533614
 21
4.902846
 31
0.0
210
0.0
220
1.0
230
0.0
  0
SPLINE
  5
3C0
330
70
100
AcDbEntity
  8
Visible
100
AcDbSpline
 70
     0
 71
     3
 72
    22
 73
    18
 74
     0
 42
0.000000001
 43
0.0000000001
 40
0.383068110297415
 40
0.383068110297415
 40
0.3830681102986
 40
0.3830681102986
 40
0.4788044676161455
 40
0.4788044676161455
 40
0.5745408249336909
 40
0.5745408249336909
 40
0.6703385227654453
 40
0.6703385227654453
 40
0.7661362205971998
 40
0.7661362205971998
 40
0.8619339184289543
 40
0.8619339184289543
 40
0.957731616260709
 40
0.957731616260709
 40
1.053467973578254
 40
1.053467973578254
 40
1.149204330889048
 40
1.149204330889048
 40
1.149204330895799
 40
1.149204330895799
 10
12.20277570437793
 20
6.802998426655536
 30
0.000000000003638
 10
12.20277570437793
 20
6.802998426655536
 30
0.0125638264235022
 10
12.20183301015459
 20
6.805532181421513
 30
0.0258902802543162
 10
12.19842997572959
 20
6.815682944145962
 30
0.0502792023562506
 10
12.19601202611557
 20
6.823294024810394
 30
0.0613500329327508
 10
12.19141718893297
 20
6.840768163205378
 30
0.0788241713289608
 10
12.18892695704744
 20
6.851836805028979
 30
0.0864309667376802
 10
12.18535501617407
 20
6.87621746168813
 30
0.09657850378062
 10
12.18433595052374
 20
6.889540723528009
 30
0.0991141732320102
 10
12.18433595052374
 20
6.914684476239756
 30
0.0991141732320102
 10
12.18535501617407
 20
6.928007738079634
 30
0.09657850378062
 10
12.18892695704744
 20
6.952388394738786
 30
0.0864309667376802
 10
12.19141718893297
 20
6.963457036562386
 30
0.0788241713289608
 10
12.19601202611557
 20
6.980931174957371
 30
0.0613500329327508
 10
12.19842997572959
 20
6.988542255621802
 30
0.0502792023562506
 10
12.20183301015459
 20
6.998693018345893
 30
0.0258902802561352
 10
12.20277570437793
 20
7.001226773111872
 30
0.0125638264253212
 10
12.20277570437793
 20
7.001226773112229
 30
0.000000000005457
1001
ACAD_VIEW_EDGE_ID
1071
        0
1071
       -1
1071
        3
1071
        0
  0
SPLINE
  5
3C1
330
70
100
AcDbEntity
  8
Visible
100
AcDbSpline
 70
     0
 71
     3
 72
    26
 73
    22
 74
     0
 42
0.000000001
 43
0.0000000001
 40
0.9245344612930672
 40
0.9245344612930672
 40
0.9245344612982339
 40
0.9245344612982339
 40
1.151569575267204
 40
1.151569575267204
 40
1.378604689241342
 40
1.378604689241342
 40
1.613836805913738
 40
1.613836805913738
 40
1.731452864249937
 40
1.731452864249937
 40
1.849068922586135
 40
1.849068922586135
 40
1.966684980922334
 40
1.966684980922334
 40
2.084301039258532
 40
2.084301039258532
 40
2.31953315593093
 40
2.31953315593093
 40
2.546568269905066
 40
2.546568269905066
 40
2.773603383877288
 40
2.773603383877288
 40
2.773603383879203
 40
2.773603383879203
 10
11.65159460201539
 20
7.12652204870278
 30
0.000000000005457
 10
11.65159460201539
 20
7.126522048702494
 30
0.0297946343853255
 10
11.65677747368863
 20
7.120244258086335
 30
0.0605938392527605
 10
11.67532416384893
 20
7.096779146309
 30
0.1155766609335842
 10
11.68858107608503
 20
7.079653088082833
 30
0.1398223978485475
 10
11.71562320215889
 20
7.041254100217468
 30
0.1782213857150054
 10
11.73165591696852
 20
7.017014486454915
 30
0.1949875604350382
 10
11.75117678597053
 20
6.976467981729769
 30
0.2122419043207628
 10
11.75687739858585
 20
6.962236638211672
 30
0.2167275699030142
 10
11.76491844798147
 20
6.932782650590917
 30
0.2228117756403662
 10
11.76721468348114
 20
6.917547778143226
 30
0.2244094488232804
 10
11.76721468348114
 20
6.886677421624538
 30
0.2244094488232804
 10
11.76491844798147
 20
6.871442549176846
 30
0.2228117756403662
 10
11.75687739858585
 20
6.841988561556091
 30
0.2167275699030142
 10
11.75117678597053
 20
6.827757218037993
 30
0.2122419043207628
 10
11.73165591696852
 20
6.787210713312848
 30
0.1949875604350382
 10
11.71562320215889
 20
6.762971099550297
 30
0.1782213857150054
 10
11.68858107608503
 20
6.724572111684931
 30
0.1398223978485475
 10
11.67532416384893
 20
6.707446053458764
 30
0.1155766609335842
 10
11.65677747368863
 20
6.68398094168126
 30
0.0605938392527605
 10
11.65159460201539
 20
6.67770315106509
 30
0.0297946343835065
 10
11.65159460201539
 20
6.677703151064984
 30
0.000000000003638
1001
ACAD_VIEW_EDGE_ID
1071
        2
1071
       -1
1071
        3
1071
        0
  0
LINE
  5
3C2
330
70
100
AcDbEntity
  8
Visible
100
AcDbLine
 10
11.848445
 20
6.708561
 30
0.264103
 11
11.848445
 21
7.073723
 31
0.264103
210
0.0
220
1.0
230
0.0
  0
ARC
  5
3C3
330
70
100
AcDbEntity
  8
Visible
100
AcDbCircle
 10
-6.902113
 20
0.0
 30
-11.848445
 40
0.3149606299212378
210
-1.0
220
0.0
230
0.0000000000002969
100
AcDbArc
 50
123.015259
 51
127.507287
  0
SPLINE
  5
3C4
330
70
100
AcDbEntity
  8
Visible
100
AcDbSpline
 70
     0
 71
     3
 72
     8
 73
     4
 74
     0
 42
0.000000001
 43
0.0000000001
 40
0.0
 40
0.0
 40
0.0
 40
0.0
 40
0.2012950771902999
 40
0.2012950771902999
 40
0.2012950771902999
 40
0.2012950771902999
 10
11.92718515319757
 20
6.719379197185344
 30
0.2755905511839956
 10
11.90076847640011
 20
6.719379197185344
 30
0.2755905511839956
 10
11.87391925450538
 20
6.715431375053568
 30
0.2716974736085831
 10
11.84844499571591
 20
6.708561478344682
 30
0.2641025170305511
1001
ACAD_VIEW_EDGE_ID
1071
       10
1071
       -1
1071
        3
1071
        0
  0
SPLINE
  5
3C5
330
70
100
AcDbEntity
  8
Visible
100
AcDbSpline
 70
     0
 71
     3
 72
     8
 73
     4
 74
     0
 42
0.000000001
 43
0.0000000001
 40
-0.201295068634291
 40
-0.201295068634291
 40
-0.201295068634291
 40
-0.201295068634291
 40
0.0
 40
0.0
 40
0.0
 40
0.0
 10
12.00592531067741
 20
6.708561478344682
 30
0.2641025170305511
 10
11.98045105367237
 20
6.715431374572379
 30
0.2716974730756192
 10
11.95360182887089
 20
6.719379197185344
 30
0.2755905511839956
 10
11.92718515319757
 20
6.719379197185344
 30
0.2755905511839956
1001
ACAD_VIEW_EDGE_ID
1071
       11
1071
       -1
1071
        3
1071
        0
  0
LINE
  5
3C6
330
70
100
AcDbEntity
  8
Visible
100
AcDbLine
 10
12.005925
 20
6.809578
 30
0.264103
 11
12.005925
 21
6.708561
 31
0.264103
210
0.0
220
1.0
230
0.0
  0
SPLINE
  5
3C7
330
70
100
AcDbEntity
  8
Visible
100
AcDbSpline
 70
     0
 71
     3
 72
    14
 73
    10
 74
     0
 42
0.000000001
 43
0.0000000001
 40
1.161707484134181
 40
1.161707484134181
 40
1.161707484134181
 40
1.161707484134181
 40
1.443517147281861
 40
1.443517147281861
 40
1.725326810429541
 40
1.725326810429541
 40
2.024370889348952
 40
2.024370889348952
 40
2.110450316988275
 40
2.110450316988275
 40
2.110450316988275
 40
2.110450316988275
 10
12.20277570437793
 20
7.217073229805142
 30
0.000000000003638
 10
12.20277570437793
 20
7.217073229805142
 30
0.036982895429901
 10
12.19490496223807
 20
7.21011923279228
 30
0.0749974707032379
 10
12.1659280823369
 20
7.185295184712373
 30
0.142479200314483
 10
12.14490410606595
 20
7.167543130417453
 30
0.1720249422760389
 10
12.09781285882491
 20
7.130455875659805
 30
0.2191161895188998
 10
12.06807897664112
 20
7.107980376608306
 30
0.2395326758196461
 10
12.02574365718465
 20
7.08350780806063
 30
0.2575697044194385
 10
12.01601789279993
 20
7.078358876058723
 30
0.26108872273835
 10
12.00604073722024
 20
7.073775786254154
 30
0.2640680760669056
1001
ACAD_VIEW_EDGE_ID
1071
       18
1071
       -1
1071
        3
1071
        0
  0
SPLINE
  5
3C8
330
70
100
AcDbEntity
  8
Visible
100
AcDbSpline
 70
     0
 71
     3
 72
    14
 73
    10
 74
     0
 42
0.000000001
 43
0.0000000001
 40
2.53604769841391
 40
2.53604769841391
 40
2.53604769841391
 40
2.53604769841391
 40
2.622459047187773
 40
2.622459047187773
 40
2.921503126107184
 40
2.921503126107184
 40
3.203312789254864
 40
3.203312789254864
 40
3.485122452402544
 40
3.485122452402544
 40
3.485122452402544
 40
3.485122452402544
 10
11.84844499572136
 20
7.073722794507069
 30
0.2641025170341891
 10
11.83842742234083
 20
7.078319172403571
 30
0.2611158536947187
 10
11.8286631361716
 20
7.083486716222353
 30
0.2575852497484448
 10
11.7862913297522
 20
7.107980376608306
 30
0.2395326758196461
 10
11.75655744756841
 20
7.130455875659805
 30
0.2191161895188998
 10
11.70946620032737
 20
7.167543130417454
 30
0.1720249422760389
 10
11.68844222405641
 20
7.185295184712374
 30
0.142479200314483
 10
11.65946534415525
 20
7.210119232792281
 30
0.0749974707032379
 10
11.65159460201539
 20
7.217073229805141
 30
0.036982895429901
 10
11.65159460201539
 20
7.217073229805141
 30
0.000000000003638
1001
ACAD_VIEW_EDGE_ID
1071
       21
1071
       -1
1071
        3
1071
        0
  0
ARC
  5
3C9
330
70
100
AcDbEntity
  8
Visible
100
AcDbCircle
 10
-11.927185
 20
0.0
 30
3.521949
 40
0.2755905511811028
210
0.0
220
1.0
230
0.0
100
AcDbArc
 50
0.0
 51
180.0
  0
LINE
  5
3CA
330
70
100
AcDbEntity
  8
Visible
100
AcDbLine
 10
12.202776
 20
7.217073
 30
0.0
 11
12.195708
 21
7.217073
 31
0.0
210
0.0
220
1.0
230
0.0
  0
LINE
  5
3CB
330
70
100
AcDbEntity
  8
Visible
100
AcDbLine
 10
11.658894
 20
7.217073
 30
0.0
 11
11.651595
 21
7.217073
 31
0.0
210
0.0
220
1.0
230
0.0
  0
LINE
  5
3CC
330
70
100
AcDbEntity
  8
Visible
100
AcDbLine
 10
11.651595
 20
3.521949
 30
0.0
 11
11.651595
 21
3.918594
 31
0.0
210
0.0
220
1.0
230
0.0
  0
LINE
  5
3CD
330
70
100
AcDbEntity
  8
Visible
100
AcDbLine
 10
11.651595
 20
4.902846
 30
0.0
 11
11.651595
 21
6.677703
 31
0.0
210
0.0
220
1.0
230
0.0
  0
LINE
  5
3CE
330
70
100
AcDbEntity
  8
Visible
100
AcDbLine
 10
11.651595
 20
7.126522
 30
0.0
 11
11.651595
 21
7.217073
 31
0.0
210
0.0
220
1.0
230
0.0
  0
LINE
  5
3CF
330
70
100
AcDbEntity
  8
Visible
100
AcDbLine
 10
12.202776
 20
3.521949
 30
0.0
 11
12.202776
 21
3.918594
 31
0.0
210
0.0
220
1.0
230
0.0
  0
LINE
  5
3D0
330
70
100
AcDbEntity
  8
Visible
100
AcDbLine
 10
12.202776
 20
4.902846
 30
0.0
 11
12.202776
 21
6.802998
 31
0.0
210
0.0
220
1.0
230
0.0
  0
LINE
  5
3D1
330
70
100
AcDbEntity
  8
Visible
100
AcDbLine
 10
12.202776
 20
7.001227
 30
0.0
 11
12.202776
 21
7.217073
 31
0.0
210
0.0
220
1.0
230
0.0
  0
ARC
  5
3D2
330
70
100
AcDbEntity
  8
Visible
100
AcDbCircle
 10
-11.927185
 20
3.929672
 30
0.0
 40
0.4921259842519688
210
-0.0000000000002969
220
0.0
230
-1.0
100
AcDbArc
 50
235.944202
 51
304.055798
  0
ARC
  5
3D3
330
70
100
AcDbEntity
  8
Visible
100
AcDbCircle
 10
-6.903226
 20
0.001614
 30
-11.663826
 40
0.1181102362204724
210
-1.0
220
0.0
230
0.0000000000002969
100
AcDbArc
 50
0.0
 51
180.0
  0
ARC
  5
3D4
330
70
100
AcDbEntity
  8
Visible
100
AcDbCircle
 10
6.903226
 20
0.001614
 30
12.187448
 40
0.0885826771653542
210
1.0
220
0.0
230
-0.0000000000002969
100
AcDbArc
 50
63.870778
 51
117.74538
  0
SPLINE
  5
3D5
330
70
100
AcDbEntity
  8
Visible
100
AcDbSpline
 70
     0
 71
     3
 72
     8
 73
     4
 74
     0
 42
0.000000001
 43
0.0000000001
 40
-2.627933682852001
 40
-2.627933682852001
 40
-2.627933682852001
 40
-2.627933682852001
 40
-2.622323043127632
 40
-2.622323043127632
 40
-2.622323043127632
 40
-2.622323043127632
 10
11.84856306389338
 20
6.810894950672257
 30
0.0752684367525944
 10
11.84852447307275
 20
6.811354816461582
 30
0.0758449198183371
 10
11.84848596478878
 20
6.811820151149923
 30
0.07641718395098
 10
11.84844754206278
 20
6.812290899086898
 30
0.0769851490222209
1001
ACAD_VIEW_EDGE_ID
1071
       11
1071
       -1
1071
        4
1071
        0
  0
ARC
  5
3D6
330
70
100
AcDbEntity
  8
Visible
100
AcDbCircle
 10
-11.849311
 20
6.903226
 30
-0.001614
 40
0.2198972016140301
210
-0.0000000000002957
220
-0.0000000000000008
230
-1.0
100
AcDbArc
 50
32.487506
 51
47.046499
  0
ARC
  5
3D7
330
70
100
AcDbEntity
  8
Visible
100
AcDbCircle
 10
-11.849311
 20
6.903226
 30
-0.001614
 40
0.21989720161403
210
-0.000000000000301
220
-0.0000000000000045
230
-1.0
100
AcDbArc
 50
312.614609
 51
327.512494
  0
LINE
  5
3D8
330
70
100
AcDbEntity
  8
Visible
100
AcDbLine
 10
11.848445
 20
6.785116
 30
0.001614
 11
11.84856
 21
6.785116
 31
0.001614
210
0.0
220
1.0
230
0.0
  0
LINE
  5
3D9
330
70
100
AcDbEntity
  8
Visible
100
AcDbLine
 10
11.848445
 20
6.995765
 30
0.001614
 11
11.84856
 21
6.995765
 31
0.001614
210
0.0
220
1.0
230
0.0
  0
SPLINE
  5
3DA
330
70
100
AcDbEntity
  8
Visible
100
AcDbSpline
210
-0.1622683166699929
220
-0.0920720637022557
230
0.9824417176050165
 70
     8
 71
     3
 72
     8
 73
     4
 74
     0
 42
0.000000001
 43
0.0000000001
 40
0.0748209650810081
 40
0.0748209650810081
 40
0.0748209650810081
 40
0.0748209650810081
 40
0.075404426899749
 40
0.075404426899749
 40
0.075404426899749
 40
0.075404426899749
 10
11.84844499571591
 20
6.995383676301447
 30
0.0122537507504603
 10
11.84848347078332
 20
6.995317475247027
 30
0.0122539014118957
 10
11.84852194626728
 20
6.995251274434366
 30
0.0122540521660994
 10
11.84856042216779
 20
6.995185073865034
 30
0.0122542030112527
1001
ACAD_VIEW_EDGE_ID
1071
   -16393
1071
       -1
1071
        4
1071
        0
  0
ARC
  5
3DB
330
70
100
AcDbEntity
  8
Visible
100
AcDbCircle
 10
-6.888318
 20
0.0
 30
-11.84856
 40
0.2755905511811052
210
-1.0
220
0.0
230
0.0000000000002969
100
AcDbArc
 50
49.296319
 51
73.39845
  0
ARC
  5
3DC
330
70
100
AcDbEntity
  8
Visible
100
AcDbCircle
 10
6.888318
 20
0.0
 30
12.006041
 40
0.2755905531786266
210
1.0
220
0.0
230
-0.0000000000002969
100
AcDbArc
 50
106.60155
 51
106.626592
  0
ELLIPSE
  5
3DD
330
70
100
AcDbEntity
  8
Visible
100
AcDbEllipse
 10
11.927301
 20
6.888318
 30
0.0
 11
0.2755905511407422
 21
-0.2755905511407422
 31
0.0000000000242223
210
0.7071067811865474
220
0.7071067811865474
230
-0.0000000000002097
 40
0.7071067812881925
 41
-1.570796326750948
 42
-1.281044625272133
1001
ACAD_VIEW_EDGE_ID
1071
       10
1071
       -1
1071
        5
1071
        0
  0
ELLIPSE
  5
3DE
330
70
100
AcDbEntity
  8
Visible
100
AcDbEllipse
 10
11.927301
 20
6.888318
 30
0.0
 11
-0.2755905511407415
 21
-0.2755905511407415
 31
0.0000000000242238
210
-0.7071067811865476
220
0.7071067811865476
230
0.0000000000002098
 40
0.7071067812881945
 41
1.281044625272128
 42
1.570796326750944
1001
ACAD_VIEW_EDGE_ID
1071
       11
1071
       -1
1071
        5
1071
        0
  0
LINE
  5
3DF
330
70
100
AcDbEntity
  8
Visible
100
AcDbLine
 10
11.84856
 20
7.093836
 30
0.264103
 11
11.84856
 21
6.809578
 31
0.264103
210
0.0
220
1.0
230
0.0
  0
SPLINE
  5
3E0
330
70
100
AcDbEntity
  8
Visible
100
AcDbSpline
 70
     0
 71
     3
 72
    14
 73
    10
 74
     0
 42
0.000000001
 43
0.0000000001
 40
2.484784797578684
 40
2.484784797578684
 40
2.484784797578684
 40
2.484784797578684
 40
2.567628743438977
 40
2.567628743438977
 40
2.857760605478155
 40
2.857760605478155
 40
3.137002963788927
 40
3.137002963788927
 40
3.4162453220997
 40
3.4162453220997
 40
3.4162453220997
 40
3.4162453220997
 10
12.00604073712929
 20
7.093836010434872
 30
0.2641025170305511
 10
12.01603105256799
 20
7.097663605124647
 30
0.2611239804391516
 10
12.02578227782032
 20
7.102020046779344
 30
0.2575992428610334
 10
12.06840322069183
 20
7.123088087017448
 30
0.2394548080992536
 10
12.09815454500676
 20
7.143166686245019
 30
0.2188899297889293
 10
12.14528904378676
 20
7.176929236796697
 30
0.1717554310089326
 10
12.16631940048137
 20
7.193429356593582
 30
0.1420129954894946
 10
12.19515864401001
 20
7.216511376516065
 30
0.0744966598631436
 10
12.20289113082981
 20
7.222963835062618
 30
0.0366459787837812
 10
12.20289113082981
 20
7.222963835062618
 30
0.000000000003638
1001
ACAD_VIEW_EDGE_ID
1071
       16
1071
       -1
1071
        5
1071
        0
  0
LINE
  5
3E1
330
70
100
AcDbEntity
  8
Visible
100
AcDbLine
 10
12.006041
 20
6.809578
 30
0.264103
 11
12.006041
 21
7.093836
 31
0.264103
210
0.0
220
1.0
230
0.0
  0
SPLINE
  5
3E2
330
70
100
AcDbEntity
  8
Visible
100
AcDbSpline
 70
     0
 71
     3
 72
    14
 73
    10
 74
     0
 42
0.000000001
 43
0.0000000001
 40
1.1387484406999
 40
1.1387484406999
 40
1.1387484406999
 40
1.1387484406999
 40
1.417990799010673
 40
1.417990799010673
 40
1.697233157321445
 40
1.697233157321445
 40
1.987365019360623
 40
1.987365019360623
 40
2.070208965220916
 40
2.070208965220916
 40
2.070208965220916
 40
2.070208965220916
 10
11.65171002846728
 20
7.222963835062618
 30
0.000000000003638
 10
11.65171002846728
 20
7.222963835062618
 30
0.0366459787837812
 10
11.65944251528708
 20
7.216511376516065
 30
0.0744966598631436
 10
11.68828175881572
 20
7.193429356593582
 30
0.1420129954894946
 10
11.70931211551215
 20
7.176929236796697
 30
0.1717554310089326
 10
11.75644661429214
 20
7.143166686245019
 30
0.2188899297889293
 10
11.78619793860525
 20
7.123088087017448
 30
0.2394548080992536
 10
11.82881888147858
 20
7.102020046779343
 30
0.2575992428610334
 10
11.83857010673091
 20
7.097663605124647
 30
0.2611239804391516
 10
11.84856042216779
 20
7.093836010434872
 30
0.2641025170305511
1001
ACAD_VIEW_EDGE_ID
1071
       20
1071
       -1
1071
        5
1071
        0
  0
SPLINE
  5
3E3
330
70
100
AcDbEntity
  8
Visible
100
AcDbSpline
 70
     0
 71
     3
 72
    24
 73
    20
 74
     0
 42
0.000000001
 43
0.0000000001
 40
5.389073406529077
 40
5.389073406529077
 40
5.389073406529077
 40
5.389073406529077
 40
5.527564862621652
 40
5.527564862621652
 40
5.841899878117944
 40
5.841899878117944
 40
6.156234893614236
 40
6.156234893614236
 40
6.313402401362382
 40
6.313402401362382
 40
6.391986155236455
 40
6.391986155236455
 40
6.431278032173492
 40
6.431278032173492
 40
6.45092397064201
 40
6.45092397064201
 40
6.460746939876269
 40
6.460746939876269
 40
6.470569909110528
 40
6.470569909110528
 40
6.470569909110528
 40
6.470569909110528
 10
12.30240069379761
 20
7.381153175872974
 30
1.105972754679896
 10
12.31338105327813
 20
7.386023108424455
 30
1.09304394870378
 10
12.32346850711838
 20
7.391692492588836
 30
1.079814322718448
 10
12.35373076019823
 20
7.412119309837291
 30
1.035833155392538
 10
12.3704344810867
 20
7.429239489516464
 30
1.004163256919127
 10
12.39612173866589
 20
7.465538268059724
 30
0.9408936414602067
 10
12.40550638545755
 20
7.485641874283806
 30
0.9078162303412682
 10
12.41409572439625
 20
7.514442699990469
 30
0.8613339664534578
 10
12.41617477681393
 20
7.524195320073832
 30
0.8457602647577004
 10
12.41813454436851
 20
7.537974108653656
 30
0.8237793060325202
 10
12.41861610516571
 20
7.542553340542073
 30
0.8164885074038465
 10
12.41909004868466
 20
7.549121326593406
 30
0.8059151053439563
 10
12.41920891790687
 20
7.551285924014995
 30
0.8024242299779871
 10
12.41933205781061
 20
7.554422326126908
 30
0.7971624579749915
 10
12.4193638301349
 20
7.555451275351842
 30
0.7954196021619282
 10
12.4193983115274
 20
7.556897602471254
 30
0.7926757123823336
 10
12.41940754354255
 20
7.557365548522717
 30
0.7917486308488151
 10
12.41942112727156
 20
7.558167596708035
 30
0.7897517268884258
 10
12.41942572239168
 20
7.558525430404866
 30
0.7886915198905627
 10
12.41942572239168
 20
7.558525430404866
 30
0.7874024163156719
1001
ACAD_VIEW_EDGE_ID
1071
       33
1071
       -1
1071
        5
1071
        0
  0
LINE
  5
3E4
330
70
100
AcDbEntity
  8
Visible
100
AcDbLine
 10
12.419426
 20
7.563674
 30
0.787402
 11
12.419426
 21
7.558525
 31
0.787402
210
0.0
220
1.0
230
0.0
  0
SPLINE
  5
3E5
330
70
100
AcDbEntity
  8
Visible
100
AcDbSpline
 70
     0
 71
     3
 72
    22
 73
    18
 74
     0
 42
0.000000001
 43
0.0000000001
 40
0.3437529438379148
 40
0.3437529438379148
 40
0.3437529438379148
 40
0.3437529438379148
 40
0.3513109660372399
 40
0.3513109660372399
 40
0.3588689882365649
 40
0.3588689882365649
 40
0.3739850326352148
 40
0.3739850326352148
 40
0.4042171214325149
 40
0.4042171214325149
 40
0.464681299027115
 40
0.464681299027115
 40
0.5856096542163152
 40
0.5856096542163152
 40
0.6474638112548118
 40
0.6474638112548118
 40
0.6483697357685667
 40
0.6483697357685667
 40
0.6483697357685667
 40
0.6483697357685667
 10
12.41942572239168
 20
7.563673545623489
 30
0.7874024163156719
 10
12.41942572239168
 20
7.563673545623489
 30
0.7883942827465944
 10
12.41942279080285
 20
7.563848929115288
 30
0.7893641001810466
 10
12.41941105019577
 20
7.564111959237227
 30
0.7913273913163721
 10
12.41940221571531
 20
7.564253150290233
 30
0.7923133189706278
 10
12.4193665077164
 20
7.564660555071288
 30
0.7952908809511428
 10
12.41933038732532
 20
7.564947162058365
 30
0.7972984432090016
 10
12.41918310008259
 20
7.565794636674198
 30
0.8033765041091101
 10
12.41903248484959
 20
7.56636678864112
 30
0.8075116878153494
 10
12.41841323657172
 20
7.568056815999528
 30
0.8200443364676175
 10
12.41777236144844
 20
7.569158240351985
 30
0.8286111363340751
 10
12.41517143894998
 20
7.572052742011788
 30
0.8542116366224945
 10
12.41248614567303
 20
7.573481611081515
 30
0.8712711554344423
 10
12.40764073349783
 20
7.57333207530271
 30
0.8947634028227184
 10
12.40542248642305
 20
7.572831148968925
 30
0.9042350380404968
 10
12.40338037281617
 20
7.571186248870249
 30
0.9120426996414607
 10
12.40335062303893
 20
7.571162005386215
 30
0.9121562791315227
 10
12.40332062259767
 20
7.571137256284762
 30
0.9122706461839698
1001
ACAD_VIEW_EDGE_ID
1071
       35
1071
       -1
1071
        5
1071
        0
  0
SPLINE
  5
3E6
330
70
100
AcDbEntity
  8
Visible
100
AcDbSpline
 70
     0
 71
     3
 72
    16
 73
    12
 74
     0
 42
0.000000001
 43
0.0000000001
 40
4.234772150528689
 40
4.234772150528689
 40
4.234772150528689
 40
4.234772150528689
 40
4.41037758900386
 40
4.41037758900386
 40
4.902665980811679
 40
4.902665980811679
 40
5.38989988830287
 40
5.38989988830287
 40
5.633516842048464
 40
5.633516842048464
 40
5.87713379579406
 40
5.87713379579406
 40
5.87713379579406
 40
5.87713379579406
 10
12.40332062259767
 20
7.571137256284762
 30
0.9122706461839698
 10
12.39737274296385
 20
7.566230505925045
 30
0.934945027984213
 10
12.38980435041958
 20
7.560138209753564
 30
0.9571614559499721
 10
12.35544507091072
 20
7.533947869623614
 30
1.038657600909573
 10
12.31810704263444
 20
7.508503332529903
 30
1.092566004581385
 10
12.23290382947743
 20
7.463726563070114
 30
1.177769217740205
 10
12.17889582103089
 20
7.440946036616348
 30
1.21540013133017
 10
12.08831414943597
 20
7.416996439915184
 30
1.253595033531382
 10
12.0565402989032
 20
7.410660358729399
 30
1.26339298901621
 10
11.99201972401169
 20
7.402224314634828
 30
1.276361885691585
 10
11.95927130848758
 20
7.400129189393326
 30
1.279527559057896
 10
11.92730057964945
 20
7.400129189393326
 30
1.279527559057896
1001
ACAD_VIEW_EDGE_ID
1071
       36
1071
       -1
1071
        5
1071
        0
  0
SPLINE
  5
3E7
330
70
100
AcDbEntity
  8
Visible
100
AcDbSpline
 70
     0
 71
     3
 72
    16
 73
    12
 74
     0
 42
0.000000001
 43
0.0000000001
 40
5.87713379579406
 40
5.87713379579406
 40
5.87713379579406
 40
5.87713379579406
 40
6.120750749539656
 40
6.120750749539656
 40
6.364367703285251
 40
6.364367703285251
 40
6.851601610776441
 40
6.851601610776441
 40
7.343890002584261
 40
7.343890002584261
 40
7.519495441059433
 40
7.519495441059433
 40
7.519495441059433
 40
7.519495441059433
 10
11.92730057964945
 20
7.400129189393326
 30
1.279527559057896
 10
11.89532985081132
 20
7.400129189393326
 30
1.279527559057896
 10
11.86258143528539
 20
7.402224314634828
 30
1.276361885691585
 10
11.79806086039571
 20
7.410660358729399
 30
1.26339298901621
 10
11.76628700986111
 20
7.416996439915184
 30
1.253595033531382
 10
11.6757053382662
 20
7.440946036616348
 30
1.21540013133017
 10
11.62169732981965
 20
7.463726563070114
 30
1.177769217740205
 10
11.53649411666265
 20
7.508503332529903
 30
1.092566004581385
 10
11.49915608838637
 20
7.533947869623614
 30
1.038657600909573
 10
11.46479680887751
 20
7.560138209753564
 30
0.9571614559499721
 10
11.45722841633324
 20
7.566230505925045
 30
0.934945027984213
 10
11.45128053669941
 20
7.571137256284762
 30
0.9122706461839698
1001
ACAD_VIEW_EDGE_ID
1071
       37
1071
       -1
1071
        5
1071
        0
  0
SPLINE
  5
3E8
330
70
100
AcDbEntity
  8
Visible
100
AcDbSpline
 70
     0
 71
     3
 72
    22
 73
    18
 74
     0
 42
0.000000001
 43
0.0000000001
 40
0.0391361519072636
 40
0.0391361519072636
 40
0.0391361519072636
 40
0.0391361519072636
 40
0.0400420764210185
 40
0.0400420764210185
 40
0.1018962334595151
 40
0.1018962334595151
 40
0.222824588648715
 40
0.222824588648715
 40
0.2832887662433149
 40
0.2832887662433149
 40
0.3135208550406149
 40
0.3135208550406149
 40
0.3286368994392649
 40
0.3286368994392649
 40
0.3361949216385899
 40
0.3361949216385899
 40
0.3437529438379149
 40
0.3437529438379149
 40
0.3437529438379149
 40
0.3437529438379149
 10
11.45128053669941
 20
7.571137256284762
 30
0.9122706461839698
 10
11.45125053625815
 20
7.571162005386215
 30
0.9121562791315227
 10
11.45122078648092
 20
7.571186248870249
 30
0.9120426996414607
 10
11.44917867287586
 20
7.572831148968926
 30
0.9042350380404968
 10
11.44696042579926
 20
7.57333207530271
 30
0.8947634028227184
 10
11.44211501362406
 20
7.573481611081515
 30
0.8712711554344423
 10
11.43942972034892
 20
7.572052742011788
 30
0.8542116366224945
 10
11.43682879784865
 20
7.569158240351985
 30
0.8286111363340751
 10
11.43618792272536
 20
7.568056815999528
 30
0.8200443364676175
 10
11.43556867444749
 20
7.56636678864112
 30
0.8075116878153494
 10
11.4354180592145
 20
7.565794636674198
 30
0.8033765041091101
 10
11.43527077197177
 20
7.564947162058365
 30
0.7972984432090016
 10
11.4352346515825
 20
7.564660555071288
 30
0.7952908809511428
 10
11.4351989435836
 20
7.564253150290233
 30
0.7923133189706278
 10
11.43519010910313
 20
7.564111959237227
 30
0.7913273913163721
 10
11.43517836849423
 20
7.563848929115288
 30
0.7893641001810466
 10
11.43517543690541
 20
7.563673545623489
 30
0.7883942827465944
 10
11.43517543690541
 20
7.563673545623489
 30
0.7874024163156719
1001
ACAD_VIEW_EDGE_ID
1071
       38
1071
       -1
1071
        5
1071
        0
  0
LINE
  5
3E9
330
70
100
AcDbEntity
  8
Visible
100
AcDbLine
 10
11.435175
 20
7.563674
 30
0.787402
 11
11.435175
 21
7.558525
 31
0.787402
210
0.0
220
1.0
230
0.0
  0
SPLINE
  5
3EA
330
70
100
AcDbEntity
  8
Visible
100
AcDbSpline
 70
     0
 71
     3
 72
    24
 73
    20
 74
     0
 42
0.000000001
 43
0.0000000001
 40
6.470569909110528
 40
6.470569909110528
 40
6.470569909110528
 40
6.470569909110528
 40
6.480392878344787
 40
6.480392878344787
 40
6.490215847579046
 40
6.490215847579046
 40
6.509861786047564
 40
6.509861786047564
 40
6.5491536629846
 40
6.5491536629846
 40
6.627737416858674
 40
6.627737416858674
 40
6.78490492460682
 40
6.78490492460682
 40
7.099239940103112
 40
7.099239940103112
 40
7.413574955599404
 40
7.413574955599404
 40
7.552066411691978
 40
7.552066411691978
 40
7.552066411691978
 40
7.552066411691978
 10
11.43517543690541
 20
7.558525430404866
 30
0.7874024163156719
 10
11.43517543690541
 20
7.558525430404866
 30
0.7886915198905627
 10
11.43518003202735
 20
7.558167596708029
 30
0.7897517268884258
 10
11.43519361575636
 20
7.557365548522714
 30
0.7917486308488151
 10
11.4352028477715
 20
7.556897602471254
 30
0.7926757123823336
 10
11.43523732916219
 20
7.555451275351842
 30
0.7954196021619282
 10
11.43526910148648
 20
7.554422326126906
 30
0.7971624579749915
 10
11.43539224139203
 20
7.551285924014995
 30
0.8024242299779871
 10
11.43551111061242
 20
7.549121326593404
 30
0.8059151053439563
 10
11.43598505413138
 20
7.542553340542073
 30
0.8164885074038465
 10
11.43646661492857
 20
7.537974108653656
 30
0.8237793060325202
 10
11.43842638248316
 20
7.524195320073831
 30
0.8457602647577004
 10
11.44050543490084
 20
7.514442699990469
 30
0.8613339664534578
 10
11.44909477384135
 20
7.485641874283806
 30
0.9078162303412682
 10
11.45847942063119
 20
7.465538268059724
 30
0.9408936414602067
 10
11.4841666782122
 20
7.429239489516464
 30
1.004163256919127
 10
11.50087039910067
 20
7.412119309837291
 30
1.035833155392538
 10
11.53113265217871
 20
7.391692492588836
 30
1.079814322718448
 10
11.54122010602077
 20
7.386023108424455
 30
1.09304394870378
 10
11.55220046549948
 20
7.381153175872976
 30
1.105972754679896
1001
ACAD_VIEW_EDGE_ID
1071
       40
1071
       -1
1071
        5
1071
        0
  0
SPLINE
  5
3EB
330
70
100
AcDbEntity
  8
Visible
100
AcDbSpline
 70
     0
 71
     3
 72
    14
 73
    10
 74
     0
 42
0.000000001
 43
0.0000000001
 40
0.8614158771370725
 40
0.8614158771370725
 40
0.8614158771370725
 40
0.8614158771370725
 40
0.9657163878682641
 40
0.9657163878682641
 40
1.446823100655255
 40
1.446823100655255
 40
1.687376457048751
 40
1.687376457048751
 40
1.927929813442247
 40
1.927929813442247
 40
1.927929813442247
 40
1.927929813442247
 10
11.55220046549948
 20
7.381153175872976
 30
1.105972754679896
 10
11.56094326230413
 20
7.377275631532935
 30
1.116266946211908
 10
11.57001251324072
 20
7.37341665620901
 30
1.126084401159459
 10
11.62222766767081
 20
7.352221125796548
 30
1.178299555589546
 10
11.67672846316054
 20
7.334141177666837
 30
1.216002285700596
 10
11.76742371619002
 20
7.315098863354722
 30
1.253986619605711
 10
11.79912943802628
 20
7.310057613853235
 30
1.26366811515254
 10
11.86328286739444
 20
7.303358163478174
 30
1.276440850342623
 10
11.89573189770817
 20
7.301703992542933
 30
1.279527559057896
 10
11.92730057964945
 20
7.301703992542933
 30
1.279527559057896
1001
ACAD_VIEW_EDGE_ID
1071
       41
1071
       -1
1071
        5
1071
        0
  0
SPLINE
  5
3EC
330
70
100
AcDbEntity
  8
Visible
100
AcDbSpline
 70
     0
 71
     3
 72
    14
 73
    10
 74
     0
 42
0.000000001
 43
0.0000000001
 40
1.927929813442247
 40
1.927929813442247
 40
1.927929813442247
 40
1.927929813442247
 40
2.168483169835743
 40
2.168483169835743
 40
2.409036526229239
 40
2.409036526229239
 40
2.89014323901623
 40
2.89014323901623
 40
2.994443749747422
 40
2.994443749747422
 40
2.994443749747422
 40
2.994443749747422
 10
11.92730057964945
 20
7.301703992542933
 30
1.279527559057896
 10
11.95886926159073
 20
7.301703992542933
 30
1.279527559057896
 10
11.99131829190264
 20
7.303358163478174
 30
1.276440850342623
 10
12.0554717212708
 20
7.310057613853235
 30
1.26366811515254
 10
12.08717744310888
 20
7.315098863354722
 30
1.253986619605711
 10
12.17787269613836
 20
7.334141177666837
 30
1.216002285700596
 10
12.23237349162628
 20
7.352221125796548
 30
1.178299555589546
 10
12.28458864605818
 20
7.37341665620901
 30
1.126084401159459
 10
12.29365789699295
 20
7.377275631532935
 30
1.116266946211908
 10
12.30240069379761
 20
7.381153175872974
 30
1.105972754679896
1001
ACAD_VIEW_EDGE_ID
1071
       42
1071
       -1
1071
        5
1071
        0
  0
LINE
  5
3ED
330
70
100
AcDbEntity
  8
Visible
100
AcDbLine
 10
12.202891
 20
7.343703
 30
0.0
 11
12.202891
 21
7.222964
 31
0.0
210
0.0
220
1.0
230
0.0
  0
LINE
  5
3EE
330
70
100
AcDbEntity
  8
Visible
100
AcDbLine
 10
11.65171
 20
7.343703
 30
0.0
 11
11.65171
 21
7.222964
 31
0.0
210
0.0
220
1.0
230
0.0
  0
SPLINE
  5
3EF
330
70
100
AcDbEntity
  8
Visible
100
AcDbSpline
 70
     0
 71
     3
 72
    22
 73
    18
 74
     0
 42
0.000000001
 43
0.0000000001
 40
0.3196412798768675
 40
0.3196412798768675
 40
0.3196412798768675
 40
0.3196412798768675
 40
0.3995504610194669
 40
0.3995504610194669
 40
0.4794596421620663
 40
0.4794596421620663
 40
0.5593711009579005
 40
0.5593711009579005
 40
0.639282559753735
 40
0.639282559753735
 40
0.7191940185495694
 40
0.7191940185495694
 40
0.7991054773454036
 40
0.7991054773454036
 40
0.879014658488003
 40
0.879014658488003
 40
0.9589238396306026
 40
0.9589238396306026
 40
0.9589238396306026
 40
0.9589238396306026
 10
4.565667823678176
 20
4.121684054004617
 30
0.4883750014287216
 10
4.565667823678176
 20
4.113110626013622
 30
0.4823360726913962
 10
4.564444059741526
 20
4.104982366325202
 30
0.4744750970676251
 10
4.559368693829036
 20
4.092208457288506
 30
0.4569609704649338
 10
4.555504746821406
 20
4.087553437630049
 30
0.4473182361198269
 10
4.54631616203087
 20
4.082215451548108
 30
0.4292357124086266
 10
4.540372349477274
 20
4.081172855181648
 30
0.4195830812695931
 10
4.526809747456263
 20
4.083122072358492
 30
0.4020344274103991
 10
4.519175367308798
 20
4.08610723446327
 30
0.3941497211690148
 10
4.504344413396119
 20
4.094647812810762
 30
0.3820247174389806
 10
4.496179253950594
 20
4.100761000450802
 30
0.376992555513425
 10
4.480709922924597
 20
4.115530161619972
 30
0.3708062359819451
 10
4.473418833406776
 20
4.124194231207184
 30
0.3696387109830539
 10
4.46170945988424
 20
4.141566551110372
 30
0.3706361689601181
 10
4.456506717681713
 20
4.1514427298398
 30
0.3728664576101437
 10
4.449544098818386
 20
4.171148853265549
 30
0.380538964369407
 10
4.447798134246931
 20
4.180987265864132
 30
0.3859720469918102
 10
4.447798134246931
 20
4.189560693855128
 30
0.3920109757291357
1001
ACAD_VIEW_EDGE_ID
1071
        3
1071
       -1
1071
        2
1071
        0
  0
SPLINE
  5
3F0
330
70
100
AcDbEntity
  8
Visible
100
AcDbSpline
 70
     0
 71
     3
 72
    23
 73
    19
 74
     0
 42
0.000000001
 43
0.0000000001
 40
0.9589238396306026
 40
0.9589238396306026
 40
0.9589238396306026
 40
0.9589238396306026
 40
1.038833020773202
 40
1.038833020773202
 40
1.118742201915801
 40
1.118742201915801
 40
1.198653660711635
 40
1.198653660711635
 40
1.27856511950747
 40
1.27856511950747
 40
1.27856511950747
 40
1.358476578303304
 40
1.358476578303304
 40
1.438388037099138
 40
1.438388037099138
 40
1.518297218241738
 40
1.518297218241738
 40
1.598206399384337
 40
1.598206399384337
 40
1.598206399384337
 40
1.598206399384337
 10
4.447798134246931
 20
4.189560693855128
 30
0.3920109757291357
 10
4.447798134246931
 20
4.198134121846123
 30
0.3980499044664611
 10
4.449544098818386
 20
4.206563096877289
 30
0.4054839564651048
 10
4.456506717681713
 20
4.22042380260882
 30
0.4214551648456109
 10
4.46170945988424
 20
4.22584978314444
 30
0.4300033710296703
 10
4.473418833406776
 20
4.232639394914258
 30
0.4460250311585697
 10
4.480709922924597
 20
4.23445783648458
 30
0.4545761998906528
 10
4.496179253950594
 20
4.233606631516522
 30
0.4705660129329772
 10
4.504344413396119
 20
4.230927124880508
 30
0.4780167820845236
 10
4.511759890351549
 20
4.226656835707217
 30
0.4840792839495407
 10
4.519175367308798
 20
4.222386546533016
 30
0.4901417858145578
 10
4.526809747456263
 20
4.215967703424212
 30
0.4956078848299513
 10
4.540372349477274
 20
4.200100530046256
 30
0.5033530451783009
 10
4.54631616203087
 20
4.190660615255183
 30
0.5056220325841423
 10
4.555504746821406
 20
4.171836669664116
 30
0.5066854381893791
 10
4.559368693829036
 20
4.161189530057527
 30
0.505549677700401
 10
4.564444059741526
 20
4.140396609936942
 30
0.4994200891633227
 10
4.565667823678176
 20
4.130257481995613
 30
0.4944139301660471
 10
4.565667823678176
 20
4.121684054004617
 30
0.4883750014287216
1001
ACAD_VIEW_EDGE_ID
1071
        4
1071
       -1
1071
        2
1071
        0
  0
SPLINE
  5
3F1
330
70
100
AcDbEntity
  8
Visible
100
AcDbSpline
 70
     0
 71
     3
 72
    22
 73
    18
 74
     0
 42
0.000000001
 43
0.0000000001
 40
0.542703519064093
 40
0.542703519064093
 40
0.5427035190641999
 40
0.5427035190641999
 40
0.8128009797305534
 40
0.8128009797305534
 40
1.082898440396907
 40
1.082898440396907
 40
1.352995901063261
 40
1.352995901063261
 40
1.623093361729615
 40
1.623093361729615
 40
1.894445121261714
 40
1.894445121261714
 40
2.165796880793813
 40
2.165796880793813
 40
2.437148640325912
 40
2.437148640325912
 40
2.708500399857904
 40
2.708500399857904
 40
2.708500399858011
 40
2.708500399858011
 10
5.112169656952482
 20
4.735908716244011
 30
0.4010999095371517
 10
5.112169656953391
 20
4.724836421649342
 30
0.4347720545974881
 10
5.105550368309104
 20
4.712584184277147
 30
0.4707457082095062
 10
5.077754443513094
 20
4.685734031370884
 30
0.5349451431793569
 10
5.056515062006746
 20
4.671010100093553
 30
0.5630909524934396
 10
5.006387044679194
 20
4.642143294768175
 30
0.604072968935725
 10
4.974897571087148
 20
4.626502697858086
 30
0.6190354835016479
 10
4.906949532885755
 20
4.598217569373446
 30
0.633111250201182
 10
4.870483781552047
 20
4.585658782336395
 30
0.6323616471454443
 10
4.802516980911513
 20
4.568715312452695
 30
0.6204270502366854
 10
4.766131236606178
 20
4.563104663175181
 30
0.6083390298736049
 10
4.698346384393425
 20
4.56510729441652
 30
0.5758335875543708
 10
4.666887560990198
 20
4.573072637947007
 30
0.5555635306445766
 10
4.61652675541145
 20
4.602073497110723
 30
0.5143911988398031
 10
4.595368092390253
 20
4.624408548813335
 30
0.4916439810076554
 10
4.567640122845568
 20
4.67740809357565
 30
0.4460631905130868
 10
4.560988554589948
 20
4.707802282869124
 30
0.4229661797307927
 10
4.560988554590857
 20
4.735908716244011
 30
0.4010999095371517
1001
ACAD_VIEW_EDGE_ID
1071
        7
1071
       -1
1071
        2
1071
        0
  0
CIRCLE
  5
3F2
330
70
100
AcDbEntity
  8
Visible
100
AcDbCircle
 10
6.197511
 20
-1.048349
 30
2.116981
 40
0.4921259842519686
210
0.7071067811864422
220
-0.4071957137923948
230
0.5780931159158111
  0
ARC
  5
3F3
330
70
100
AcDbEntity
  8
Visible
100
AcDbCircle
 10
6.197511
 20
-1.048349
 30
-1.426197
 40
0.9842519685039372
210
0.7071067811864424
220
-0.4071957137923947
230
0.5780931159158107
100
AcDbArc
 50
0.0
 51
180.0
  0
ARC
  5
3F4
330
70
100
AcDbEntity
  8
Visible
100
AcDbCircle
 10
6.197511
 20
-1.048349
 30
-1.229347
 40
0.9842519685039372
210
0.7071067811864424
220
-0.4071957137923947
230
0.5780931159158108
100
AcDbArc
 50
300.0
 51
240.0
  0
ARC
  5
3F5
330
70
100
AcDbEntity
  8
Visible
100
AcDbCircle
 10
6.197511
 20
-1.048349
 30
-1.229347
 40
0.4921259842519691
210
0.7071067811864426
220
-0.4071957137923943
230
0.5780931159158108
100
AcDbArc
 50
0.0
 51
180.0
  0
LINE
  5
3F6
330
70
100
AcDbEntity
  8
Visible
100
AcDbLine
 10
3.100645
 20
6.501902
 30
-1.679897
 11
3.239839
 21
6.421746
 31
-1.566099
210
-0.0000000000000001
220
0.8175471248425399
230
0.5758617009853117
  0
LINE
  5
3F7
330
70
100
AcDbEntity
  8
Visible
100
AcDbLine
 10
2.118298
 20
4.79603
 30
-1.679897
 11
2.257492
 21
4.715873
 31
-1.566099
210
-0.0000000000000001
220
0.8175471248425399
230
0.5758617009853117
  0
LINE
  5
3F8
330
70
100
AcDbEntity
  8
Visible
100
AcDbLine
 10
2.994252
 20
5.995278
 30
-1.566099
 11
4.560989
 21
5.093054
 31
-0.285219
210
-0.0000000000000001
220
0.8175471248425399
230
0.5758617009853117
  0
LINE
  5
3F9
330
70
100
AcDbEntity
  8
Visible
100
AcDbLine
 10
5.11217
 20
4.77565
 30
0.165398
 11
5.360463
 21
4.632667
 31
0.368389
210
-0.0000000000000001
220
0.8175471248425399
230
0.5758617009853117
  0
LINE
  5
3FA
330
70
100
AcDbEntity
  8
Visible
100
AcDbLine
 10
2.503079
 20
5.142341
 30
-1.566099
 11
4.869289
 21
3.779731
 31
0.368389
210
-0.0000000000000001
220
0.8175471248425399
230
0.5758617009853117
  0
SPLINE
  5
3FB
330
70
100
AcDbEntity
  8
Visible
100
AcDbSpline
 70
     0
 71
     3
 72
    28
 73
    24
 74
     0
 42
0.000000001
 43
0.0000000001
 40
0.0
 40
0.0
 40
0.0
 40
0.0
 40
0.1176160583361983
 40
0.1176160583361983
 40
0.2352321166723966
 40
0.2352321166723966
 40
0.4704642333447932
 40
0.4704642333447932
 40
0.6974993473189302
 40
0.6974993473189302
 40
0.9245344612930672
 40
0.9245344612930672
 40
1.151569575267204
 40
1.151569575267204
 40
1.378604689241342
 40
1.378604689241342
 40
1.613836805913738
 40
1.613836805913738
 40
1.731452864249937
 40
1.731452864249937
 40
1.849068922586135
 40
1.849068922586135
 40
1.890720444475869
 40
1.890720444475869
 40
1.890720444475869
 40
1.890720444475869
 10
4.791013866674711
 20
6.246772586108818
 30
1.79777326365729
 10
4.791013866674711
 20
6.25939157171615
 30
1.806661791664737
 10
4.793767275908884
 20
6.271562346301834
 30
1.815838805292514
 10
4.803755339599683
 20
6.29484555084582
 30
1.833931466551803
 10
4.810958125987689
 20
6.305985623597734
 30
1.842829104754855
 10
4.836962128399954
 20
6.338211382645567
 30
1.867488546502499
 10
4.860154445602256
 20
6.358327070915947
 30
1.881023203590302
 10
4.90642830103834
 20
6.394344518485922
 30
1.896570386435996
 10
4.932946678565621
 20
6.412820480457412
 30
1.900080063558561
 10
4.984939895006299
 20
6.446840951708509
 30
1.892529245937112
 10
5.010383065329642
 20
6.462404202457037
 30
1.881335759246212
 10
5.052519041356299
 20
6.486668697283676
 30
1.846887613193757
 10
5.070632524266238
 20
6.496188054955382
 30
1.822471483264962
 10
5.096396759946309
 20
6.506945122348042
 30
1.766451919471364
 10
5.104167032393797
 20
6.508214680675337
 30
1.734909655146111
 10
5.112197546380138
 20
6.503469039652372
 30
1.674966091211899
 10
5.112716180856204
 20
6.49700758034578
 30
1.642046613751517
 10
5.111113505577031
 20
6.478833611047775
 30
1.597437937165523
 10
5.110254408291347
 20
6.471346625893602
 30
1.583354034175499
 10
5.108870710870996
 20
6.453018346344833
 30
1.558226898012435
 10
5.108376752719686
 20
6.442148703104066
 30
1.54720267664743
 10
5.108376752719686
 20
6.425060940335242
 30
1.535166443096386
 10
5.10843869948976
 20
6.420413853793434
 30
1.53231550404962
 10
5.108549444303116
 20
6.415612739685457
 30
1.529750579200481
1001
ACAD_VIEW_EDGE_ID
1071
        2
1071
       -1
1071
        3
1071
        0
  0
SPLINE
  5
3FC
330
70
100
AcDbEntity
  8
Visible
100
AcDbSpline
 70
     0
 71
     3
 72
    24
 73
    20
 74
     0
 42
0.000000001
 43
0.0000000001
 40
2.065036206003535
 40
2.065036206003535
 40
2.065036206003535
 40
2.065036206003535
 40
2.084301039258532
 40
2.084301039258532
 40
2.31953315593093
 40
2.31953315593093
 40
2.546568269905066
 40
2.546568269905066
 40
2.773603383879203
 40
2.773603383879203
 40
3.000638497853339
 40
3.000638497853339
 40
3.227673611827476
 40
3.227673611827476
 40
3.462905728499873
 40
3.462905728499873
 40
3.580521786836072
 40
3.580521786836072
 40
3.698137845172271
 40
3.698137845172271
 40
3.698137845172271
 40
3.698137845172271
 10
5.111361236688844
 20
6.349073278150171
 30
1.511578525714867
 10
5.111464008829806
 20
6.34646237794368
 30
1.511375925332686
 10
5.111560227676727
 20
6.343841869223979
 30
1.511218635852856
 10
5.112716180856204
 20
6.309132166335984
 30
1.50971142205708
 10
5.112197546380138
 20
6.275959572563806
 30
1.514713569091327
 10
5.104167032393797
 20
6.217919249334954
 30
1.530432120091063
 10
5.096396759946309
 20
6.188646971681919
 30
1.542249902371622
 10
5.070632524266238
 20
6.139522234954711
 30
1.571244147802644
 10
5.052519041356299
 20
6.119738097945628
 30
1.588429999364961
 10
5.010383065329642
 20
6.095473603118989
 30
1.622878145417416
 10
4.984939895006299
 20
6.090175131707837
 30
1.641301910474794
 10
4.932946678565621
 20
6.094522329791288
 30
1.675878046458819
 10
4.90642830103834
 20
6.10404908714554
 30
1.692092851380948
 10
4.860154445602256
 20
6.130817603827381
 30
1.72077068146973
 10
4.836962128399954
 20
6.150335968635772
 30
1.735153354808062
 10
4.810958125987689
 20
6.184407566307527
 30
1.757192271421445
 10
4.803755339599683
 20
6.196537081508722
 30
1.764685204589113
 10
4.793767275908884
 20
6.221413922752617
 30
1.780515390153595
 10
4.791013866674711
 20
6.234153600500576
 30
1.788884735649844
 10
4.791013866674711
 20
6.246772586108818
 30
1.79777326365729
1001
ACAD_VIEW_EDGE_ID
1071
        2
1071
       -1
1071
        3
1071
        0
  0
ARC
  5
3FD
330
70
100
AcDbEntity
  8
Visible
100
AcDbCircle
 10
-7.962594
 20
0.709921
 30
-1.861205
 40
0.2244094488188952
210
-0.7071067811864423
220
0.4071957137923946
230
-0.5780931159158112
100
AcDbArc
 50
203.138248
 51
214.678722
  0
ARC
  5
3FE
330
70
100
AcDbEntity
  8
Visible
100
AcDbCircle
 10
-7.962594
 20
0.709921
 30
-1.861205
 40
0.2244094488188932
210
-0.7071067811864423
220
0.4071957137923946
230
-0.5780931159158112
100
AcDbArc
 50
321.681035
 51
348.318694
  0
LINE
  5
3FF
330
70
100
AcDbEntity
  8
Visible
100
AcDbLine
 10
4.705508
 20
6.399019
 30
1.869086
 11
4.705508
 21
6.105449
 31
1.662302
210
-0.0000000000000001
220
0.8175471248425399
230
0.5758617009853117
  0
ARC
  5
400
330
70
100
AcDbEntity
  8
Visible
100
AcDbCircle
 10
8.032326
 20
0.779383
 30
1.644669
 40
0.3937007874015657
210
0.7071067811864423
220
-0.4071957137923946
230
0.5780931159158112
100
AcDbArc
 50
182.758792
 51
205.585536
  0
SPLINE
  5
401
330
70
100
AcDbEntity
  8
Visible
100
AcDbSpline
 70
     0
 71
     3
 72
     8
 73
     4
 74
     0
 42
0.000000001
 43
0.0000000001
 40
2.209857864444705
 40
2.209857864444705
 40
2.209857864444705
 40
2.209857864444705
 40
2.411152941634972
 40
2.411152941634972
 40
2.411152941634972
 40
2.411152941634972
 10
4.641707158199914
 20
6.141677982212058
 30
1.629653711201171
 10
4.623027746901152
 20
6.152434739777163
 30
1.61438241219912
 10
4.606795301583496
 20
6.161725341719829
 30
1.59433710093981
 10
4.594152725747243
 20
6.169574520174137
 30
1.571263904781517
1001
ACAD_VIEW_EDGE_ID
1071
       13
1071
       -1
1071
        3
1071
        0
  0
SPLINE
  5
402
330
70
100
AcDbEntity
  8
Visible
100
AcDbSpline
 70
     0
 71
     3
 72
     8
 73
     4
 74
     0
 42
0.000000001
 43
0.0000000001
 40
2.008562787254438
 40
2.008562787254438
 40
2.008562787254438
 40
2.008562787254438
 40
2.209857864444705
 40
2.209857864444705
 40
2.209857864444705
 40
2.209857864444705
 10
4.705508124359675
 20
6.105449210915139
 30
1.662302190754417
 10
4.682124657924668
 20
6.118346050443506
 30
1.65592239963189
 10
4.660386569499586
 20
6.130921224648773
 30
1.644925010203223
 10
4.641707158199914
 20
6.141677982212058
 30
1.629653711201171
1001
ACAD_VIEW_EDGE_ID
1071
       14
1071
       -1
1071
        3
1071
        0
  0
LINE
  5
403
330
70
100
AcDbEntity
  8
Visible
100
AcDbLine
 10
4.594153
 20
6.169575
 30
1.571264
 11
4.594153
 21
6.25216
 31
1.629435
210
-0.0000000000000001
220
0.8175471248425399
230
0.5758617009853117
  0
SPLINE
  5
404
330
70
100
AcDbEntity
  8
Visible
100
AcDbSpline
 70
     0
 71
     3
 72
    14
 73
    10
 74
     0
 42
0.000000001
 43
0.0000000001
 40
-1.161707484134181
 40
-1.161707484134181
 40
-1.161707484134181
 40
-1.161707484134181
 40
-0.8798978209865015
 40
-0.8798978209865015
 40
-0.5980881578388218
 40
-0.5980881578388218
 40
-0.2990440789194109
 40
-0.2990440789194109
 40
-0.2471841509509158
 40
-0.2471841509509158
 40
-0.2471841509509158
 40
-0.2471841509509158
 10
5.031451053342515
 20
6.548566307632427
 30
1.916256643395172
 10
5.005300197199084
 20
6.533507031131193
 30
1.93763620064783
 10
4.972854378098326
 20
6.515547371217508
 30
1.95105760252045
 10
4.904647841209134
 20
6.4795735323205
 30
1.95902177251628
 10
4.868889650524487
 20
6.46159036490917
 30
1.953725418414251
 10
4.802292570005101
 20
6.431269786412485
 30
1.932368288804354
 10
4.766830904370999
 20
6.416689010450681
 30
1.914039187273374
 10
4.727934328669015
 20
6.407474294115672
 30
1.888399984543866
 10
4.722249759809437
 20
6.406322360782723
 30
1.884515080857454
 10
4.716635182568915
 20
6.405425469290094
 30
1.880563387356232
1001
ACAD_VIEW_EDGE_ID
1071
       20
1071
       -1
1071
        3
1071
        0
  0
SPLINE
  5
405
330
70
100
AcDbEntity
  8
Visible
100
AcDbSpline
 70
     0
 71
     3
 72
    12
 73
     8
 74
     0
 42
0.000000001
 43
0.0000000001
 40
2.829283866371282
 40
2.829283866371282
 40
2.829283866371282
 40
2.829283866371282
 40
2.921503126107184
 40
2.921503126107184
 40
3.203312789254864
 40
3.203312789254864
 40
3.485122452402544
 40
3.485122452402544
 40
3.485122452402544
 40
3.485122452402544
 10
5.110285198847031
 20
6.608916388542638
 30
1.681320393243368
 10
5.111543111764967
 20
6.60793318369906
 30
1.693709026028955
 10
5.112169656953391
 20
6.606856841420267
 30
1.706020506957429
 10
5.112169656952482
 20
6.60168600322595
 30
1.754832548627746
 10
5.106143858644736
 20
6.59560737166339
 30
1.794289282794125
 10
5.078916818305423
 20
6.576624668446129
 30
1.864346559475961
 10
5.057601909486856
 20
6.563625584132751
 30
1.894877086142514
 10
5.031451053342515
 20
6.548566307632427
 30
1.916256643395172
1001
ACAD_VIEW_EDGE_ID
1071
       21
1071
       -1
1071
        3
1071
        0
  0
ARC
  5
406
330
70
100
AcDbEntity
  8
Visible
100
AcDbCircle
 10
-4.836579
 20
-2.39931
 30
2.762136
 40
0.2755905511811032
210
-0.0000000000000001
220
0.8175471248425399
230
0.5758617009853117
100
AcDbArc
 50
0.0
 51
180.0
  0
LINE
  5
407
330
70
100
AcDbEntity
  8
Visible
100
AcDbLine
 10
4.560989
 20
3.639847
 30
-0.370941
 11
4.560989
 21
3.95727
 31
-0.147356
210
-0.0000000000000001
220
0.8175471248425399
230
0.5758617009853117
  0
LINE
  5
408
330
70
100
AcDbEntity
  8
Visible
100
AcDbLine
 10
4.560989
 20
4.735909
 30
0.4011
 11
4.560989
 21
6.315795
 31
1.513936
210
-0.0000000000000001
220
0.8175471248425399
230
0.5758617009853117
  0
LINE
  5
409
330
70
100
AcDbEntity
  8
Visible
100
AcDbLine
 10
5.11217
 20
3.639847
 30
-0.370941
 11
5.11217
 21
3.802317
 31
-0.256501
210
-0.0000000000000001
220
0.8175471248425399
230
0.5758617009853117
  0
LINE
  5
40A
330
70
100
AcDbEntity
  8
Visible
100
AcDbLine
 10
5.11217
 20
4.735909
 30
0.4011
 11
5.11217
 21
6.312309
 31
1.511481
210
-0.0000000000000001
220
0.8175471248425399
230
0.5758617009853117
  0
LINE
  5
40B
330
70
100
AcDbEntity
  8
Visible
100
AcDbLine
 10
5.11217
 20
6.494272
 30
1.639651
 11
5.11217
 21
6.605582
 31
1.718055
210
-0.0000000000000001
220
0.8175471248425399
230
0.5758617009853117
  0
SPLINE
  5
40C
330
70
100
AcDbEntity
  8
Visible
100
AcDbSpline
210
-0.7071067811842921
220
-0.4071957137955797
230
0.5780931159161975
 70
    12
 71
     2
 72
     6
 73
     3
 74
     0
 42
0.000000001
 43
0.0000000001
 40
0.1355501852963379
 40
0.1355501852963379
 40
0.1355501852963379
 40
0.453233872459803
 40
0.453233872459803
 40
0.453233872459803
 10
5.079621602936549
 20
6.366848324575585
 30
1.708180272269601
 41
1.232050807568715
 10
5.06354883559461
 20
6.338937791101669
 30
1.668860979660166
 41
1.422649730812052
 10
5.079621602936549
 20
6.292515875345998
 30
1.655822176508081
 41
1.232050807568715
1001
ACAD_VIEW_EDGE_ID
1071
        0
1071
       -1
1071
        4
1071
        0
  0
ARC
  5
40D
330
70
100
AcDbEntity
  8
Visible
100
AcDbCircle
 10
7.964523
 20
0.709563
 30
1.986769
 40
0.0909213022345877
210
0.7071067811864423
220
-0.4071957137923946
230
0.5780931159158112
100
AcDbArc
 50
284.889207
 51
344.889207
  0
ARC
  5
40E
330
70
100
AcDbEntity
  8
Visible
100
AcDbCircle
 10
7.964523
 20
0.709563
 30
1.876336
 40
0.2066929133858274
210
0.7071067811864423
220
-0.4071957137923946
230
0.5780931159158112
100
AcDbArc
 50
124.494161
 51
194.907128
  0
CIRCLE
  5
40F
330
70
100
AcDbEntity
  8
Visible
100
AcDbCircle
 10
7.964523
 20
0.709563
 30
1.986769
 40
0.1181102362204725
210
0.7071067811864424
220
-0.407195713792395
230
0.5780931159158105
  0
ARC
  5
410
330
70
100
AcDbEntity
  8
Visible
100
AcDbCircle
 10
7.964523
 20
0.709563
 30
1.986769
 40
0.0909213022345878
210
0.7071067811864423
220
-0.4071957137923946
230
0.5780931159158112
100
AcDbArc
 50
104.889207
 51
164.889207
  0
ARC
  5
411
330
70
100
AcDbEntity
  8
Visible
100
AcDbCircle
 10
7.964523
 20
0.709563
 30
1.986769
 40
0.0909213022345859
210
0.7071067811864423
220
-0.4071957137923946
230
0.5780931159158112
100
AcDbArc
 50
44.889207
 51
104.889207
  0
ARC
  5
412
330
70
100
AcDbEntity
  8
Visible
100
AcDbCircle
 10
7.964523
 20
0.709563
 30
1.986769
 40
0.0909213022345862
210
0.7071067811864423
220
-0.4071957137923946
230
0.5780931159158112
100
AcDbArc
 50
344.889207
 51
44.889207
  0
ARC
  5
413
330
70
100
AcDbEntity
  8
Visible
100
AcDbCircle
 10
7.964523
 20
0.709563
 30
1.986769
 40
0.0909213022345863
210
0.7071067811864423
220
-0.4071957137923946
230
0.5780931159158112
100
AcDbArc
 50
224.889207
 51
284.889207
  0
ARC
  5
414
330
70
100
AcDbEntity
  8
Visible
100
AcDbCircle
 10
7.964523
 20
0.709563
 30
1.986769
 40
0.0909213022345862
210
0.7071067811864423
220
-0.4071957137923946
230
0.5780931159158112
100
AcDbArc
 50
164.889207
 51
224.889207
  0
SPLINE
  5
415
330
70
100
AcDbEntity
  8
Visible
100
AcDbSpline
210
-0.3535533905733752
220
-0.9116144358143742
230
-0.2096643041361851
 70
    12
 71
     2
 72
     6
 73
     3
 74
     0
 42
0.000000001
 43
0.0000000001
 40
-0.45323387245921
 40
-0.45323387245921
 40
-0.45323387245921
 40
-0.1355501852959807
 40
-0.1355501852959807
 40
-0.1355501852959807
 10
5.079621602936549
 20
6.366848324574675
 30
1.708180272269601
 41
1.232050807568012
 10
5.035709985941047
 20
6.378655800707747
 30
1.730889122974986
 41
1.422649730811242
 10
5.023943903630333
 20
6.371951894560879
 30
1.779878463134082
 41
1.232050807568012
1001
ACAD_VIEW_EDGE_ID
1071
       23
1071
       -1
1071
        4
1071
        0
  0
SPLINE
  5
416
330
70
100
AcDbEntity
  8
Visible
100
AcDbSpline
210
-0.7071067811127624
220
-0.4071957137963162
230
0.578093116003172
 70
    12
 71
     2
 72
     6
 73
     3
 74
     0
 42
0.000000001
 43
0.0000000001
 40
-0.2727687069593521
 40
-0.2727687069593521
 40
-0.2727687069593521
 40
-0.1355501852959807
 40
-0.1355501852959807
 40
-0.1355501852959807
 10
4.959801191725
 20
6.265728984215457
 30
1.762806640968847
 41
1.325584209259389
 10
4.96075193944116
 20
6.250093522640781
 30
1.752956302638267
 41
1.314377044434649
 10
4.968266204323207
 20
6.228390566087
 30
1.746860462479162
 41
1.232050807568012
1001
ACAD_VIEW_EDGE_ID
1071
       25
1071
       -1
1071
        4
1071
        0
  0
SPLINE
  5
417
330
70
100
AcDbEntity
  8
Visible
100
AcDbSpline
210
-0.353553390587473
220
-0.9116144358010432
230
-0.2096643041703754
 70
    12
 71
     2
 72
     6
 73
     3
 74
     0
 42
0.000000001
 43
0.0000000001
 40
-0.45323387245921
 40
-0.45323387245921
 40
-0.45323387245921
 40
-0.1355501852959808
 40
-0.1355501852959808
 40
-0.1355501852959808
 10
4.968266204323207
 20
6.228390566087
 30
1.746860462479162
 41
1.232050807568012
 10
4.980032286634831
 20
6.235094472235687
 30
1.697871122318247
 41
1.422649730811241
 10
5.023943903630333
 20
6.223286996102615
 30
1.675162271612862
 41
1.232050807568012
1001
ACAD_VIEW_EDGE_ID
1071
       26
1071
       -1
1071
        4
1071
        0
  0
SPLINE
  5
418
330
70
100
AcDbEntity
  8
Visible
100
AcDbSpline
210
-0.353553390554578
220
0.5044187219851724
230
0.7877574201099014
 70
    12
 71
     2
 72
     6
 73
     3
 74
     0
 42
0.000000001
 43
0.0000000001
 40
-0.4532338724592098
 40
-0.4532338724592098
 40
-0.4532338724592098
 40
-0.1355501852959808
 40
-0.1355501852959808
 40
-0.1355501852959808
 10
5.023943903630333
 20
6.223286996102615
 30
1.675162271612862
 41
1.232050807568012
 10
5.035709985941047
 20
6.267157126864731
 30
1.652351979333616
 41
1.422649730811241
 10
5.079621602936549
 20
6.292515875345998
 30
1.655822176508081
 41
1.232050807568012
1001
ACAD_VIEW_EDGE_ID
1071
       27
1071
       -1
1071
        4
1071
        0
  0
LINE
  5
419
330
70
100
AcDbEntity
  8
Visible
100
AcDbLine
 10
4.960213
 20
6.261037
 30
1.622387
 11
5.015314
 21
6.329548
 31
1.603248
210
-0.0000000000000001
220
0.8175471248425399
230
0.5758617009853117
  0
LINE
  5
41A
330
70
100
AcDbEntity
  8
Visible
100
AcDbLine
 10
5.015314
 20
6.329548
 30
1.603248
 11
5.015314
 21
6.366309
 31
1.629141
210
-0.0000000000000001
220
0.8175471248425399
230
0.5758617009853117
  0
LINE
  5
41B
330
70
100
AcDbEntity
  8
Visible
100
AcDbLine
 10
5.015314
 20
6.329548
 30
1.603248
 11
5.079622
 21
6.292516
 31
1.655822
210
-0.0000000000000001
220
0.8175471248425399
230
0.5758617009853117
  0
LINE
  5
41C
330
70
100
AcDbEntity
  8
Visible
100
AcDbLine
 10
4.960348
 20
6.259909
 30
1.62317
 11
5.023944
 21
6.223287
 31
1.675162
210
-0.0000000000000001
220
0.8175471248425399
230
0.5758617009853117
  0
LINE
  5
41D
330
70
100
AcDbEntity
  8
Visible
100
AcDbLine
 10
4.83201
 20
6.169632
 30
1.654933
 11
4.84271
 21
6.163471
 31
1.66368
210
-0.0000000000000001
220
0.8175471248425399
230
0.5758617009853117
  0
ARC
  5
41E
330
70
100
AcDbEntity
  8
Visible
100
AcDbCircle
 10
-4.892786
 20
6.373148
 30
-1.620293
 40
0.2198972016140302
210
0.0000000000000012
220
0.0000000000000005
230
-1.0
100
AcDbArc
 50
145.593507
 51
275.209859
  0
SPLINE
  5
41F
330
70
100
AcDbEntity
  8
Visible
100
AcDbSpline
 70
     0
 71
     3
 72
     8
 73
     4
 74
     0
 42
0.000000001
 43
0.0000000001
 40
0.0
 40
0.0
 40
0.0
 40
0.0
 40
0.0082811548928882
 40
0.0082811548928882
 40
0.0082811548928882
 40
0.0082811548928882
 10
5.552582232068652
 20
7.140216311826407
 30
1.223265353559327
 10
5.551813772647528
 20
7.1397737854777
 30
1.223893605349076
 10
5.551053351647987
 20
7.139321974994345
 30
1.224534984450656
 10
5.550301721574123
 20
7.138861308118976
 30
1.225188948494178
1001
ACAD_VIEW_EDGE_ID
1071
        0
1071
       -1
1071
        5
1071
        0
  0
SPLINE
  5
420
330
70
100
AcDbEntity
  8
Visible
100
AcDbSpline
 70
     0
 71
     3
 72
    14
 73
    10
 74
     0
 42
0.000000001
 43
0.0000000001
 40
1.321109731838632
 40
1.321109731838632
 40
1.321109731838632
 40
1.321109731838632
 40
1.379002637297842
 40
1.379002637297842
 40
1.48481572190463
 40
1.48481572190463
 40
1.590294672585504
 40
1.590294672585504
 40
1.695773623266378
 40
1.695773623266378
 40
1.695773623266378
 40
1.695773623266378
 10
5.693756080870024
 20
7.151207793919638
 30
1.21594025345621
 10
5.687282338819295
 20
7.153168727371848
 30
1.211781070012875
 10
5.680214577991955
 20
7.154865910213629
 30
1.208160998103267
 10
5.659202284751608
 20
7.158568381787517
 30
1.200103090786797
 10
5.644408460087015
 20
7.159649972333681
 30
1.197460331008187
 10
5.616689749910528
 20
7.159043597637719
 30
1.19703439022669
 10
5.601926677836581
 20
7.157322540299901
 30
1.199204711452694
 10
5.574766917707074
 20
7.150734394171195
 30
1.208324252229431
 10
5.562370274234035
 20
7.145852870437011
 30
1.215263167830926
 10
5.552582232068652
 20
7.140216311826407
 30
1.223265353559327
1001
ACAD_VIEW_EDGE_ID
1071
        0
1071
       -1
1071
        5
1071
        0
  0
SPLINE
  5
421
330
70
100
AcDbEntity
  8
Visible
100
AcDbSpline
 70
     1
 71
     3
 72
    38
 73
    34
 74
     0
 42
0.000000001
 43
0.0000000001
 40
0.0
 40
0.0
 40
0.0
 40
0.0
 40
0.1054824830402876
 40
0.1054824830402876
 40
0.2109649660805752
 40
0.2109649660805752
 40
0.3169607557325951
 40
0.3169607557325951
 40
0.422956545384615
 40
0.422956545384615
 40
0.5308600294403023
 40
0.5308600294403023
 40
0.6387635134959896
 40
0.6387635134959896
 40
0.7444606852206449
 40
0.7444606852206449
 40
0.8501578569453002
 40
0.8501578569453002
 40
0.9558550286699556
 40
0.9558550286699556
 40
1.061552200394611
 40
1.061552200394611
 40
1.169455684450298
 40
1.169455684450298
 40
1.277359168505985
 40
1.277359168505985
 40
1.383354958158005
 40
1.383354958158005
 40
1.489350747810025
 40
1.489350747810025
 40
1.594833230850313
 40
1.594833230850313
 40
1.7003157138906
 40
1.7003157138906
 40
1.7003157138906
 40
1.7003157138906
 10
5.552582232068652
 20
7.220684294809871
 30
1.279945180504
 10
5.562370602023201
 20
7.226321042182462
 30
1.271942726791166
 10
5.574767681908178
 20
7.231201659584257
 30
1.265003049109509
 10
5.601927352030451
 20
7.237815713245254
 30
1.255902077529754
 10
5.616689874142047
 20
7.239566974315494
 30
1.253753547551241
 10
5.644427759590961
 20
7.240317885775766
 30
1.254280669836589
 10
5.659237502616542
 20
7.239356041770406
 30
1.257019083837803
 10
5.686402157030806
 20
7.234971851999944
 30
1.267733529879478
 10
5.69875647683957
 20
7.231569615433727
 30
1.275719278495671
 10
5.71837810197021
 20
7.223734187408808
 30
1.294200784652275
 10
5.726884557046923
 20
7.218756744784514
 30
1.305982615454922
 10
5.73810722006683
 20
7.207758447388187
 30
1.331645314397974
 10
5.740829336123078
 20
7.201719616006812
 30
1.345515890056049
 10
5.740704145220569
 20
7.19004301735822
 30
1.370999433129327
 10
5.73795103577313
 20
7.183618131800358
 30
1.384348603109174
 10
5.726746287612422
 20
7.170806419200744
 30
1.408351385434798
 10
5.718288082367416
 20
7.164397100596943
 30
1.418989919284285
 10
5.698671497884697
 20
7.153100660889322
 30
1.435027401526895
 10
5.686283114010529
 20
7.147505227223518
 30
1.441431936675144
 10
5.659281933721922
 20
7.138315608878656
 30
1.448664301304233
 10
5.644668512660154
 20
7.134739774636727
 30
1.449513088411549
 10
5.61711040933087
 20
7.13047462438044
 30
1.446661942944047
 10
5.602293028369694
 20
7.129548255938971
 30
1.442679816333111
 10
5.57497906438757
 20
7.131280189392782
 30
1.430172514226796
 10
5.562480543912806
 20
7.133958754447121
 30
1.421654385010697
 10
5.542858918782166
 20
7.14179418247204
 30
1.403172878855912
 10
5.534370975223191
 20
7.147422917041694
 30
1.392026185452778
 10
5.523086723688629
 20
7.160952022626588
 30
1.368328761695011
 10
5.52029405207113
 20
7.168834037813212
 30
1.355765825515845
 10
5.520295525912751
 20
7.184057160980046
 30
1.332560469794771
 10
5.523060534599516
 20
7.192399333607681
 30
1.320379417365984
 10
5.5343097879394
 20
7.207903507945957
 30
1.298079284000777
 10
5.542793862114103
 20
7.215047547438189
 30
1.287947634216834
 10
5.552582232068652
 20
7.220684294809871
 30
1.279945180504
1001
ACAD_VIEW_EDGE_ID
1071
        1
1071
       -1
1071
        5
1071
        0
  0
SPLINE
  5
422
330
70
100
AcDbEntity
  8
Visible
100
AcDbSpline
 70
     0
 71
     3
 72
     8
 73
     4
 74
     0
 42
0.000000001
 43
0.0000000001
 40
0.0
 40
0.0
 40
0.0
 40
0.0
 40
0.0572569972278822
 40
0.0572569972278822
 40
0.0572569972278822
 40
0.0572569972278822
 10
3.970265735520023
 20
6.429826345279252
 30
2.276947740494506
 10
3.964952505727432
 20
6.426766659733402
 30
2.281291556235373
 10
3.960032098323517
 20
6.423104357823831
 30
2.286140839814834
 10
3.95574595720418
 20
6.418981322597574
 30
2.291313803623779
1001
ACAD_VIEW_EDGE_ID
1071
        2
1071
       -1
1071
        5
1071
        0
  0
SPLINE
  5
423
330
70
100
AcDbEntity
  8
Visible
100
AcDbSpline
 70
     0
 71
     3
 72
    16
 73
    12
 74
     0
 42
0.000000001
 43
0.0000000001
 40
1.232295887644235
 40
1.232295887644235
 40
1.232295887644235
 40
1.232295887644235
 40
1.270083583032977
 40
1.270083583032977
 40
1.377014158890401
 40
1.377014158890401
 40
1.483944734747825
 40
1.483944734747825
 40
1.589555783542527
 40
1.589555783542527
 40
1.695166832337228
 40
1.695166832337228
 40
1.695166832337228
 40
1.695166832337228
 10
4.136055900315022
 20
6.405806130575911
 30
2.273957991041243
 10
4.132967757155619
 20
6.408575819395991
 30
2.270908813608912
 10
4.129646067198245
 20
6.411221062686308
 30
2.268102628282576
 10
4.116307837052681
 20
6.420707219866017
 30
2.258469525433611
 10
4.103849439903478
 20
6.427307995733826
 30
2.252725244634348
 10
4.076597123324881
 20
6.437430179643342
 30
2.246115312143956
 10
4.061801929436023
 20
6.440939748985329
 30
2.245236797290999
 10
4.034196151218474
 20
6.444157556946265
 30
2.247595599605119
 10
4.019522926268927
 20
6.444120426787776
 30
2.250942915683481
 10
3.992458014288694
 20
6.439786048675159
 30
2.261617081481745
 10
3.980066035882281
 20
6.435469962915703
 30
2.268935533111289
 10
3.970265735520023
 20
6.429826345279252
 30
2.276947740494506
1001
ACAD_VIEW_EDGE_ID
1071
        2
1071
       -1
1071
        5
1071
        0
  0
SPLINE
  5
424
330
70
100
AcDbEntity
  8
Visible
100
AcDbSpline
 70
     1
 71
     3
 72
    38
 73
    34
 74
     0
 42
0.000000001
 43
0.0000000001
 40
0.0
 40
0.0
 40
0.0
 40
0.0
 40
0.1056959094392847
 40
0.1056959094392847
 40
0.2113918188785695
 40
0.2113918188785695
 40
0.3191236716724363
 40
0.3191236716724363
 40
0.4268555244663032
 40
0.4268555244663032
 40
0.532776265738451
 40
0.532776265738451
 40
0.6386970070105987
 40
0.6386970070105987
 40
0.7441896492765947
 40
0.7441896492765947
 40
0.8496822915425907
 40
0.8496822915425907
 40
0.9551749338085866
 40
0.9551749338085866
 40
1.060667576074582
 40
1.060667576074582
 40
1.16658831734673
 40
1.16658831734673
 40
1.272509058618878
 40
1.272509058618878
 40
1.380240911412744
 40
1.380240911412744
 40
1.487972764206611
 40
1.487972764206611
 40
1.593668673645896
 40
1.593668673645896
 40
1.699364583085181
 40
1.699364583085181
 40
1.699364583085181
 40
1.699364583085181
 10
3.970265735520023
 20
6.515532884868662
 30
2.337317488210828
 10
3.980073910625741
 20
6.521181037268434
 30
2.329298842852949
 10
3.992463973126995
 20
6.525346910705593
 30
2.321885041126733
 10
4.01947655418271
 20
6.529135961918655
 30
2.310845614749268
 10
4.034099692548715
 20
6.52878465057347
 30
2.307230279944633
 10
4.061662469128259
 20
6.524782051687907
 30
2.304268756932287
 10
4.076473979608544
 20
6.520799093234018
 30
2.304795217496575
 10
4.10377686000529
 20
6.509776692962077
 30
2.31075905758189
 10
4.116270090516899
 20
6.502750849048425
 30
2.316213031450388
 10
4.135890179119905
 20
6.488156143395826
 30
2.329931575908631
 10
4.144377402931149
 20
6.479642921949562
 30
2.339048847834419
 10
4.155658987322476
 20
6.462049104988182
 30
2.359878695850056
 10
4.158450031879419
 20
6.452950829462679
 30
2.3715781286337
 10
4.15845143503784
 20
6.436344685023868
 30
2.393804135535901
 10
4.155686730225078
 20
6.427732693400685
 30
2.405797927183812
 10
4.144437260570975
 20
6.412020079897956
 30
2.427955513061533
 10
4.1359526062678
 20
6.404901548830821
 30
2.43810665804267
 10
4.116373980885236
 20
6.393626968314492
 30
2.454113106934528
 10
4.103975652080316
 20
6.388719789208153
 30
2.461034784750154
 10
4.076812489113671
 20
6.382312038750569
 30
2.470281336229163
 10
4.062047683090804
 20
6.380829456446008
 30
2.472618745763611
 10
4.034314032470228
 20
6.381465661689617
 30
2.473065158039389
 10
4.01950984641362
 20
6.383646029116789
 30
2.471187034549075
 10
3.992348858697277
 20
6.392095505869292
 30
2.463339347066721
 10
3.97999262106341
 20
6.398380710434139
 30
2.457385176267052
 10
3.960372532460405
 20
6.412975416086737
 30
2.44366663180881
 10
3.951867737379779
 20
6.422298047212279
 30
2.434951924020424
 10
3.940644638894718
 20
6.442580178047137
 30
2.415842104466719
 10
3.937920599344487
 20
6.453523848071199
 30
2.405433566797
 10
3.93803684056811
 20
6.473465733231023
 30
2.385766188386696
 10
3.940790240391742
 20
6.483823527414642
 30
2.375175384353497
 10
3.951997461162954
 20
6.502043796293037
 30
2.354968321635169
 10
3.960457560413396
 20
6.50988473246798
 30
2.345336133568707
 10
3.970265735520023
 20
6.515532884868662
 30
2.337317488210828
1001
ACAD_VIEW_EDGE_ID
1071
        3
1071
       -1
1071
        5
1071
        0
  0
ARC
  5
425
330
70
100
AcDbEntity
  8
Visible
100
AcDbCircle
 10
7.952821
 20
0.700186
 30
1.802034
 40
0.2755905512453007
210
0.7071067811864423
220
-0.4071957137923946
230
0.5780931159158112
100
AcDbArc
 50
151.490756
 51
151.574542
  0
ELLIPSE
  5
426
330
70
100
AcDbEntity
  8
Visible
100
AcDbEllipse
 10
4.836497
 20
6.39206
 30
1.567555
 11
0.1948719474936961
 21
-0.3375275538838012
 31
0.0006149568928763
210
0.4999999999999253
220
0.2901622654230262
230
0.8159692762136646
 40
0.7071067813660257
 41
-1.57079632672365
 42
-1.281044625209684
1001
ACAD_VIEW_EDGE_ID
1071
        7
1071
       -1
1071
        5
1071
        0
  0
ELLIPSE
  5
427
330
70
100
AcDbEntity
  8
Visible
100
AcDbEllipse
 10
4.836497
 20
6.39206
 30
1.567555
 11
0.1948719475615751
 21
0.1130889715436837
 31
0.3180190439790653
210
-0.4999999999999255
220
0.8660239664084237
230
-0.001577848628997
 40
0.7071067812685959
 41
4.422637278876694
 42
4.712388980350224
1001
ACAD_VIEW_EDGE_ID
1071
        8
1071
       -1
1071
        5
1071
        0
  0
ARC
  5
428
330
70
100
AcDbEntity
  8
Visible
100
AcDbCircle
 10
-7.952821
 20
0.700186
 30
-1.644554
 40
0.2755905518207636
210
-0.7071067811864423
220
0.4071957137923946
230
-0.5780931159158112
100
AcDbArc
 50
28.484201
 51
28.509244
  0
LINE
  5
429
330
70
100
AcDbEntity
  8
Visible
100
AcDbLine
 10
4.705427
 20
6.188082
 30
1.720407
 11
4.705427
 21
6.398972
 31
1.868953
210
-0.0000000000000001
220
0.8175471248425399
230
0.5758617009853117
  0
LINE
  5
42A
330
70
100
AcDbEntity
  8
Visible
100
AcDbLine
 10
4.594071
 20
6.334846
 30
1.687578
 11
4.594071
 21
6.252207
 31
1.629369
210
-0.0000000000000001
220
0.8175471248425399
230
0.5758617009853117
  0
SPLINE
  5
42B
330
70
100
AcDbEntity
  8
Visible
100
AcDbSpline
 70
     0
 71
     3
 72
    10
 73
     6
 74
     0
 42
0.000000001
 43
0.0000000001
 40
1.1387484406999
 40
1.1387484406999
 40
1.1387484406999
 40
1.1387484406999
 40
1.417990799010673
 40
1.417990799010673
 40
1.697233157321445
 40
1.697233157321445
 40
1.697233157321561
 40
1.697233157321561
 10
5.031369434514908
 20
6.553429156180754
 30
1.919582090122275
 10
5.057282054613915
 20
6.568351241668096
 30
1.898397302062221
 10
5.078578834012568
 20
6.581637323323775
 30
1.868330262745075
 10
5.105927668111598
 20
6.602002263132817
 30
1.799335714500557
 10
5.112088038125784
 20
6.609187101000316
 30
1.760482525791303
 10
5.112088038124874
 20
6.614475709915495
 30
1.724220170979606
1001
ACAD_VIEW_EDGE_ID
1071
       20
1071
       -1
1071
        5
1071
        0
  0
SPLINE
  5
42C
330
70
100
AcDbEntity
  8
Visible
100
AcDbSpline
 70
     0
 71
     3
 72
    12
 73
     8
 74
     0
 42
0.000000001
 43
0.0000000001
 40
0.3547032678831512
 40
0.3547032678831512
 40
0.3547032678831512
 40
0.3547032678831512
 40
0.5802637240783547
 40
0.5802637240783547
 40
0.8595060823891273
 40
0.8595060823891273
 40
1.1387484406999
 40
1.1387484406999
 40
1.1387484406999
 40
1.1387484406999
 10
4.756123196094358
 20
6.428140204078772
 30
1.915385887377851
 10
4.782708946719957
 20
6.434744490325101
 30
1.92991359676489
 10
4.810090487535398
 20
6.444838806826737
 30
1.941826166050304
 10
4.869189178186297
 20
6.469310950348699
 30
1.959063790362051
 10
4.905090963861675
 20
6.486348097004338
 30
1.96352918462253
 10
4.973224647287588
 20
6.520967882150216
 30
1.954462275192781
 10
5.005456814416811
 20
6.538507070693412
 30
1.940766878178692
 10
5.031369434514908
 20
6.553429156180754
 30
1.919582090122275
1001
ACAD_VIEW_EDGE_ID
1071
       21
1071
       -1
1071
        5
1071
        0
  0
SPLINE
  5
42D
330
70
100
AcDbEntity
  8
Visible
100
AcDbSpline
 70
     0
 71
     3
 72
    22
 73
    18
 74
     0
 42
0.000000001
 43
0.0000000001
 40
0.3437529438379148
 40
0.3437529438379148
 40
0.3437529438379148
 40
0.3437529438379148
 40
0.3513109660372399
 40
0.3513109660372399
 40
0.3588689882365649
 40
0.3588689882365649
 40
0.3739850326352148
 40
0.3739850326352148
 40
0.4042171214325149
 40
0.4042171214325149
 40
0.464681299027115
 40
0.464681299027115
 40
0.5856096542163152
 40
0.5856096542163152
 40
0.6474638112548118
 40
0.6474638112548118
 40
0.6483697357685667
 40
0.6483697357685667
 40
0.6483697357685667
 40
0.6483697357685667
 10
4.627704924473527
 20
6.423176553931625
 30
2.696152836653709
 10
4.627003568993949
 20
6.42277267017198
 30
2.696726227808539
 10
4.626315731563317
 20
6.422522342669253
 30
2.697386174495477
 10
4.624919173224861
 20
6.421942719180151
 30
2.698665821391841
 10
4.624215770172576
 20
6.421660281367621
 30
2.699311978749392
 10
4.622085066536691
 20
6.420795443641509
 30
2.70124725309688
 10
4.620639964677956
 20
6.420226995682241
 30
2.702551976055474
 10
4.616237978791013
 20
6.418504860504981
 30
2.70646854365259
 10
4.613207461298679
 20
6.417350122495918
 30
2.709101475662464
 10
4.603907665793394
 20
6.413880713935213
 30
2.716961752435963
 10
4.597396856369322
 20
6.411553777664266
 30
2.722177943067435
 10
4.57745543907631
 20
6.404554839678894
 30
2.737140673303656
 10
4.563493748557356
 20
6.399869884451618
 30
2.746273145108716
 10
4.543455997317232
 20
6.392154720530925
 30
2.756966640250539
 10
4.535190002275066
 20
6.388791641086754
 30
2.760871309710637
 10
4.52822515943344
 20
6.385099151308168
 30
2.763257098347821
 10
4.528123810337
 20
6.385045196017017
 30
2.763291598832438
 10
4.528021727102804
 20
6.384990608738007
 30
2.76332611853104
1001
ACAD_VIEW_EDGE_ID
1071
       23
1071
       -1
1071
        5
1071
        0
  0
SPLINE
  5
42E
330
70
100
AcDbEntity
  8
Visible
100
AcDbSpline
 70
     0
 71
     3
 72
    16
 73
    12
 74
     0
 42
0.000000001
 43
0.0000000001
 40
0.3166829533326489
 40
0.3166829533326489
 40
0.3166829533326489
 40
0.3166829533326489
 40
0.4922883918078198
 40
0.4922883918078198
 40
0.9845767836156394
 40
0.9845767836156394
 40
1.47181069110683
 40
1.47181069110683
 40
1.715427644852425
 40
1.715427644852425
 40
1.959044598598021
 40
1.959044598598021
 40
1.959044598598021
 40
1.959044598598021
 10
4.528021727102804
 20
6.384990608738007
 30
2.76332611853104
 10
4.507782731950009
 20
6.374168149100114
 30
2.770169984678432
 10
4.486721683390805
 20
6.363222792642773
 30
2.775129593079327
 10
4.404799527112026
 20
6.322617025796716
 30
2.787297076687536
 10
4.340278556322027
 20
6.295067531817039
 30
2.782223762220382
 10
4.219783016716882
 20
6.258460412685053
 30
2.756438535596316
 10
4.154984513524049
 20
6.24650494161051
 30
2.733852617086085
 10
4.063925724934869
 20
6.248256685642445
 30
2.689776530842209
 10
4.034530018991881
 20
6.252025130957008
 30
2.673423710706629
 10
3.979736688178399
 20
6.266119889770379
 30
2.638764045716015
 10
3.954341592382569
 20
6.276452991963196
 30
2.620455963739004
 10
3.931734873221921
 20
6.289471335712732
 30
2.601973905486374
1001
ACAD_VIEW_EDGE_ID
1071
       24
1071
       -1
1071
        5
1071
        0
  0
SPLINE
  5
42F
330
70
100
AcDbEntity
  8
Visible
100
AcDbSpline
 70
     0
 71
     3
 72
    16
 73
    12
 74
     0
 42
0.000000001
 43
0.0000000001
 40
1.959044598598021
 40
1.959044598598021
 40
1.959044598598021
 40
1.959044598598021
 40
2.202661552343616
 40
2.202661552343616
 40
2.446278506089211
 40
2.446278506089211
 40
2.933512413580402
 40
2.933512413580402
 40
3.425800805388221
 40
3.425800805388221
 40
3.601406243863392
 40
3.601406243863392
 40
3.601406243863392
 40
3.601406243863392
 10
3.931734873221921
 20
6.289471335712732
 30
2.601973905486374
 10
3.909128154061272
 20
6.302489679462269
 30
2.583491847233744
 10
3.888209996474778
 20
6.318826606139737
 30
2.563936662067135
 10
3.851757455226015
 20
6.357276850420021
 30
2.52399852669987
 10
3.83621815081542
 20
6.379384756602121
 30
2.503614858314904
 10
3.799175110932901
 20
6.451401949413593
 30
2.442961663007736
 10
3.787594756103225
 20
6.507341079587604
 30
2.403104265738875
 10
3.787594756104135
 20
6.613336965117923
 30
2.330378710405057
 10
3.799311780913648
 20
6.671294229248815
 30
2.292282310656446
 10
3.832642578117792
 20
6.739881898784915
 30
2.240389101143591
 10
3.84300030329532
 20
6.756990889251028
 30
2.226679021483505
 10
3.854827726402526
 20
6.772657251073724
 30
2.212958298796365
1001
ACAD_VIEW_EDGE_ID
1071
       25
1071
       -1
1071
        5
1071
        0
  0
SPLINE
  5
430
330
70
100
AcDbEntity
  8
Visible
100
AcDbSpline
 70
     0
 71
     3
 72
    12
 73
     8
 74
     0
 42
0.000000001
 43
0.0000000001
 40
0.0391361519072631
 40
0.0391361519072631
 40
0.0391361519072631
 40
0.0391361519072631
 40
0.0400420764210185
 40
0.0400420764210185
 40
0.1018962334595151
 40
0.1018962334595151
 40
0.2144080631594809
 40
0.2144080631594809
 40
0.2144080631594809
 40
0.2144080631594809
 10
3.854827726402526
 20
6.772657251073724
 30
2.212958298796365
 10
3.854887382605647
 20
6.772736270455425
 30
2.212889093003468
 10
3.85494665916476
 20
6.772814453709543
 30
2.212820196235043
 10
3.859023517247714
 20
6.778170023303573
 30
2.208073343961586
 10
3.864152437191386
 20
6.783339624150357
 30
2.201603967774644
 10
3.876730601531471
 20
6.794463889616963
 30
2.18605863617995
 10
3.886094002631488
 20
6.800912051334307
 30
2.174767446345867
 10
3.896090260147411
 20
6.806670116780878
 30
2.163595724263359
1001
ACAD_VIEW_EDGE_ID
1071
       26
1071
       -1
1071
        5
1071
        0
  0
SPLINE
  5
431
330
70
100
AcDbEntity
  8
Visible
100
AcDbSpline
 70
     0
 71
     3
 72
    12
 73
     8
 74
     0
 42
0.000000001
 43
0.0000000001
 40
4.821576014752759
 40
4.821576014752759
 40
4.821576014752952
 40
4.821576014752952
 40
5.302682727539751
 40
5.302682727539751
 40
5.543236083933246
 40
5.543236083933246
 40
5.783789440326742
 40
5.783789440326742
 40
5.783789440326742
 40
5.783789440326742
 10
3.787594756105044
 20
6.464936482795565
 30
2.2999223661227
 10
3.787594756105044
 20
6.415748227341282
 30
2.339505724283299
 10
3.799472782043175
 20
6.363422137309498
 30
2.382396398012133
 10
3.836745030398469
 20
6.295456371741238
 30
2.445819441863932
 10
3.852318510159329
 20
6.274482215180796
 30
2.466842044810618
 10
3.888650147435236
 20
6.237681094302388
 30
2.507454574088114
 10
3.909412444147982
 20
6.221858730991698
 30
2.527044966498579
 10
3.931734873221921
 20
6.209004099015146
 30
2.545294604207811
1001
ACAD_VIEW_EDGE_ID
1071
       29
1071
       -1
1071
        5
1071
        0
  0
SPLINE
  5
432
330
70
100
AcDbEntity
  8
Visible
100
AcDbSpline
 70
     0
 71
     3
 72
    14
 73
    10
 74
     0
 42
0.000000001
 43
0.0000000001
 40
5.783789440326742
 40
5.783789440326742
 40
5.783789440326742
 40
5.783789440326742
 40
6.024342796720238
 40
6.024342796720238
 40
6.264896153113734
 40
6.264896153113734
 40
6.746002865900726
 40
6.746002865900726
 40
6.850303376631917
 40
6.850303376631917
 40
6.850303376631917
 40
6.850303376631917
 10
3.931734873221921
 20
6.209004099015146
 30
2.545294604207811
 10
3.954057302295859
 20
6.196149467038594
 30
2.563544241915224
 10
3.979184864337093
 20
6.185545618228388
 30
2.581470971588714
 10
4.033579876946441
 20
6.170100736179847
 30
2.615031754072333
 10
4.062845059012851
 20
6.165254024671412
 30
2.63066687018545
 10
4.153835267534213
 20
6.159358353649622
 30
2.672104429177124
 10
4.2190330057364
 20
6.167299463038034
 30
2.692226824814497
 10
4.29287638529231
 20
6.184627807986544
 30
2.704432519010879
 10
4.306231303097683
 20
6.18808736763367
 30
2.706222223519944
 10
4.319692486644179
 20
6.191889164144413
 30
2.707558302186953
1001
ACAD_VIEW_EDGE_ID
1071
       30
1071
       -1
1071
        5
1071
        0
  0
SPLINE
  5
433
330
70
100
AcDbEntity
  8
Visible
100
AcDbSpline
 70
     0
 71
     3
 72
    24
 73
    20
 74
     0
 42
0.000000001
 43
0.0000000001
 40
5.389073406529078
 40
5.389073406529078
 40
5.389073406529078
 40
5.389073406529078
 40
5.527564862621652
 40
5.527564862621652
 40
5.841899878117944
 40
5.841899878117944
 40
6.156234893614236
 40
6.156234893614236
 40
6.313402401362382
 40
6.313402401362382
 40
6.391986155236455
 40
6.391986155236455
 40
6.431278032173492
 40
6.431278032173492
 40
6.45092397064201
 40
6.45092397064201
 40
6.460746939876269
 40
6.460746939876269
 40
6.470569909110528
 40
6.470569909110528
 40
6.470569909110528
 40
6.470569909110528
 10
4.319692486644179
 20
6.191889164144413
 30
2.707558302186953
 10
4.336598819670052
 20
6.196663962561615
 30
2.709236326321843
 10
4.353086484932554
 20
6.202578430314133
 30
2.710684639447208
 10
4.405584510958669
 20
6.224864599104876
 30
2.714516851287044
 10
4.439789825239949
 20
6.244955316141385
 30
2.715723862844242
 10
4.502691833399603
 20
6.289934653218551
 30
2.714900836832384
 10
4.532717042489729
 20
6.316017890767398
 30
2.71278110975254
 10
4.571658546301386
 20
6.354993759638091
 30
2.70746076317846
 10
4.584140928441137
 20
6.368461949493394
 30
2.705275759721189
 10
4.601069578340593
 20
6.387879301710199
 30
2.701636323561615
 10
4.606565466396113
 20
6.394395732032535
 30
2.700336954310841
 10
4.614377119369145
 20
6.403877826375719
 30
2.698280778473417
 10
4.616929594244447
 20
6.407020553222537
 30
2.697577953687869
 10
4.620737301971439
 20
6.411677138717095
 30
2.696413479701732
 10
4.621992153561131
 20
6.413215099059925
 30
2.696016846566635
 10
4.623956758656185
 20
6.415500799120309
 30
2.695283440622006
 10
4.624618832315626
 20
6.416257111460254
 30
2.695022310344938
 10
4.626040461794127
 20
6.41772042314551
 30
2.694337635406554
 10
4.626793390593683
 20
6.418442809685984
 30
2.693933456168451
 10
4.627704924473527
 20
6.418967727136077
 30
2.693188234266926
1001
ACAD_VIEW_EDGE_ID
1071
       31
1071
       -1
1071
        5
1071
        0
  0
LINE
  5
434
330
70
100
AcDbEntity
  8
Visible Narrow
100
AcDbLine
 10
4.627705
 20
6.423177
 30
2.696153
 11
4.627705
 21
6.418968
 31
2.693188
210
-0.0000000000000001
220
0.8175471248425399
230
0.5758617009853117
  0
SPLINE
  5
435
330
70
100
AcDbEntity
  8
Visible
100
AcDbSpline
 70
     0
 71
     3
 72
    12
 73
     8
 74
     0
 42
0.000000001
 43
0.0000000001
 40
0.4730978245163417
 40
0.4730978245163417
 40
0.4730978245163417
 40
0.4730978245163417
 40
0.5856096542163152
 40
0.5856096542163152
 40
0.6474638112548118
 40
0.6474638112548118
 40
0.6483697357685667
 40
0.6483697357685667
 40
0.6483697357685667
 40
0.6483697357685667
 10
5.0850303092001
 20
7.491335155797059
 30
1.191581205550392
 10
5.097479567832942
 20
7.498502603459201
 30
1.184402660441264
 10
5.110423896992778
 20
7.504900609234937
 30
1.177456229539529
 10
5.129538976572711
 20
7.512027269122881
 30
1.167090840686796
 10
5.137804971613058
 20
7.514571286802492
 30
1.162609242644975
 10
5.144769814455593
 20
7.515574209885016
 30
1.158328984070976
 10
5.144871163552033
 20
7.51558852479502
 30
1.158266561797063
 10
5.144973246786229
 20
7.515602644960381
 30
1.158203537977897
1001
ACAD_VIEW_EDGE_ID
1071
       35
1071
       -1
1071
        5
1071
        0
  0
SPLINE
  5
436
330
70
100
AcDbEntity
  8
Visible
100
AcDbSpline
 70
     0
 71
     3
 72
    16
 73
    12
 74
     0
 42
0.000000001
 43
0.0000000001
 40
4.234772150528689
 40
4.234772150528689
 40
4.234772150528689
 40
4.234772150528689
 40
4.41037758900386
 40
4.41037758900386
 40
4.902665980811679
 40
4.902665980811679
 40
5.38989988830287
 40
5.38989988830287
 40
5.633516842048464
 40
5.633516842048464
 40
5.87713379579406
 40
5.87713379579406
 40
5.87713379579406
 40
5.87713379579406
 10
5.144973246786229
 20
7.515602644960381
 30
1.158203537977897
 10
5.165212241939024
 20
7.518402105301902
 30
1.145708452613689
 10
5.186273290498228
 20
7.519385983321626
 30
1.13373220413996
 10
5.268195446777007
 20
7.517168075622976
 30
1.091400692901515
 10
5.332716417566097
 20
7.503113353315711
 30
1.067168938545364
 10
5.453211957172151
 20
7.466506234184635
 30
1.04138371191766
 10
5.518010460364984
 20
7.441213397451065
 30
1.037732765002147
 10
5.609069248954164
 20
7.400301805570052
 30
1.054225540259722
 10
5.638464954895334
 20
7.386173270342624
 30
1.063280947410021
 10
5.693258285711544
 20
7.358284784339957
 30
1.088224622999405
 10
5.718653381505554
 20
7.344525954914388
 30
1.104119700206865
 10
5.741260100666203
 20
7.331507611163942
 30
1.122601758459495
1001
ACAD_VIEW_EDGE_ID
1071
       36
1071
       -1
1071
        5
1071
        0
  0
SPLINE
  5
437
330
70
100
AcDbEntity
  8
Visible
100
AcDbSpline
 70
     0
 71
     3
 72
    16
 73
    12
 74
     0
 42
0.000000001
 43
0.0000000001
 40
5.87713379579406
 40
5.87713379579406
 40
5.87713379579406
 40
5.87713379579406
 40
6.120750749539656
 40
6.120750749539656
 40
6.364367703285251
 40
6.364367703285251
 40
6.851601610776441
 40
6.851601610776441
 40
7.343890002584261
 40
7.343890002584261
 40
7.519495441059433
 40
7.519495441059433
 40
7.519495441059433
 40
7.519495441059433
 10
5.741260100666203
 20
7.331507611163942
 30
1.122601758459495
 10
5.763866819826852
 20
7.318489267414406
 30
1.141083816712125
 10
5.784784977415164
 20
7.3055780679706
 30
1.163052006650104
 10
5.8212375186612
 20
7.280921550878701
 30
1.212706131418599
 10
5.836776823073614
 20
7.269173734610376
 30
1.240387212785208
 10
5.873819862956133
 20
7.236316389647981
 30
1.328623719080496
 10
5.885400217785808
 20
7.217625567282084
 30
1.394717981773283
 10
5.885400217783989
 20
7.184843920014827
 30
1.51901399036069
 10
5.873683192975385
 20
7.168490872170877
 30
1.586415458932606
 10
5.840352395771241
 20
7.142726877179484
 30
1.668472696073877
 10
5.829994670593714
 20
7.135579365150988
 30
1.689199415806797
 10
5.818167247486507
 20
7.127936002624664
 30
1.708571357712571
1001
ACAD_VIEW_EDGE_ID
1071
       37
1071
       -1
1071
        5
1071
        0
  0
SPLINE
  5
438
330
70
100
AcDbEntity
  8
Visible
100
AcDbSpline
 70
     0
 71
     3
 72
    22
 73
    18
 74
     0
 42
0.000000001
 43
0.0000000001
 40
0.0391361519072636
 40
0.0391361519072636
 40
0.0391361519072636
 40
0.0391361519072636
 40
0.0400420764210185
 40
0.0400420764210185
 40
0.1018962334595151
 40
0.1018962334595151
 40
0.222824588648715
 40
0.222824588648715
 40
0.2832887662433149
 40
0.2832887662433149
 40
0.3135208550406149
 40
0.3135208550406149
 40
0.3286368994392649
 40
0.3286368994392649
 40
0.3361949216385899
 40
0.3361949216385899
 40
0.3437529438379149
 40
0.3437529438379149
 40
0.3437529438379149
 40
0.3437529438379149
 10
5.818167247486507
 20
7.127936002624664
 30
1.708571357712571
 10
5.818107591283387
 20
7.127897450356613
 30
1.708669067626033
 10
5.818048314724273
 20
7.127858907483641
 30
1.708765886183755
 10
5.81397145664041
 20
7.125192904584764
 30
1.715407208392207
 10
5.808842536698556
 20
7.120842365503449
 30
1.72245351316269
 10
5.795657233072142
 20
7.109425644536713
 30
1.738921431006019
 10
5.785493120720183
 20
7.100217473885095
 30
1.749512939975829
 10
5.769229963301676
 20
7.086367583892752
 30
1.76414915569876
 10
5.763625488168053
 20
7.081717791790651
 30
1.768837781124602
 10
5.755201441976987
 20
7.074980718723963
 30
1.775467580171607
 10
5.752383926589481
 20
7.072767798571476
 30
1.777615690629318
 10
5.748190236318714
 20
7.069540013054393
 30
1.780726493361726
 10
5.746796216404526
 20
7.06847351952183
 30
1.781742886243591
 10
5.744716011505169
 20
7.066913456294969
 30
1.783250228063479
 10
5.744025102296199
 20
7.066392963077305
 30
1.783743986687113
 10
5.742645147684833
 20
7.065373699097108
 30
1.784734269969703
 10
5.74196145614669
 20
7.064834215594601
 30
1.7851956128452
 10
5.741260100667113
 20
7.064430331834955
 30
1.785769004001849
1001
ACAD_VIEW_EDGE_ID
1071
       38
1071
       -1
1071
        5
1071
        0
  0
LINE
  5
439
330
70
100
AcDbEntity
  8
Visible Narrow
100
AcDbLine
 10
5.74126
 20
7.06443
 30
1.785769
 11
5.74126
 21
7.060222
 31
1.782804
210
-0.0000000000000001
220
0.8175471248425399
230
0.5758617009853117
  0
SPLINE
  5
43A
330
70
100
AcDbEntity
  8
Visible
100
AcDbSpline
 70
     0
 71
     3
 72
    24
 73
    20
 74
     0
 42
0.000000001
 43
0.0000000001
 40
6.470569909110528
 40
6.470569909110528
 40
6.470569909110528
 40
6.470569909110528
 40
6.480392878344787
 40
6.480392878344787
 40
6.490215847579046
 40
6.490215847579046
 40
6.509861786047564
 40
6.509861786047564
 40
6.5491536629846
 40
6.5491536629846
 40
6.627737416858674
 40
6.627737416858674
 40
6.78490492460682
 40
6.78490492460682
 40
7.099239940103112
 40
7.099239940103112
 40
7.413574955599404
 40
7.413574955599404
 40
7.552066411691978
 40
7.552066411691978
 40
7.552066411691978
 40
7.552066411691978
 10
5.741260100667113
 20
7.060221505039407
 30
1.782804401615067
 10
5.742171634546957
 20
7.06074642249041
 30
1.782059179711723
 10
5.742918064862259
 20
7.060887459439982
 30
1.781237562216119
 10
5.744320484047329
 20
7.061050409221934
 30
1.779613444290589
 10
5.744969501666582
 20
7.061049104135236
 30
1.778802695664126
 10
5.746885342711629
 20
7.060998004390057
 30
1.776363654022134
 10
5.748095261448633
 20
7.06087941088117
 30
1.774745221262492
 10
5.751728823051871
 20
7.060507967400553
 30
1.769826106901746
 10
5.754113191463056
 20
7.060208179525034
 30
1.766492829652634
 10
5.761254587083294
 20
7.059336973181416
 30
1.756324183605102
 10
5.766069445328775
 20
7.05875810676116
 30
1.749194031863225
 10
5.780226565373504
 20
7.057241858899942
 30
1.727419386181281
 10
5.789768723387987
 20
7.05645675820233
 30
1.711598290161418
 10
5.816563067575679
 20
7.055335646577077
 30
1.663176483201823
 10
5.833316381898748
 20
7.056190369089563
 30
1.627052562962489
 10
5.859891122006865
 20
7.062737264469433
 30
1.554724130688555
 10
5.870473807665711
 20
7.068438241260992
 30
1.51690081855304
 10
5.880174544960845
 20
7.081969958115223
 30
1.46221818658887
 10
5.882396396191233
 20
7.086829584356564
 30
1.445473962048708
 10
5.883774155922673
 20
7.092583894694143
 30
1.428847830447921
1001
ACAD_VIEW_EDGE_ID
1071
       40
1071
       -1
1071
        5
1071
        0
  0
SPLINE
  5
43B
330
70
100
AcDbEntity
  8
Visible
100
AcDbSpline
 70
     0
 71
     3
 72
     8
 73
     4
 74
     0
 42
0.000000001
 43
0.0000000001
 40
0.8614158771370725
 40
0.8614158771370725
 40
0.8614158771370725
 40
0.8614158771370725
 40
0.9657163878682641
 40
0.9657163878682641
 40
0.9657163878684585
 40
0.9657163878684585
 10
5.883774155922673
 20
7.092583894694143
 30
1.428847830447921
 10
5.884871157653742
 20
7.097165599521758
 30
1.415609749265058
 10
5.885400217783989
 20
7.101701291025165
 30
1.40246923851555
 10
5.885400217783989
 20
7.106190260698895
 30
1.38953853347084
1001
ACAD_VIEW_EDGE_ID
1071
       41
1071
       -1
1071
        5
1071
        0
  0
LINE
  5
43C
330
70
100
AcDbEntity
  8
Visible
100
AcDbLine
 10
5.74126
 20
7.06443
 30
1.785769
 11
4.627705
 21
6.423177
 31
2.696153
210
-0.0000000000000001
220
0.8175471248425399
230
0.5758617009853117
  0
LINE
  5
43D
330
70
100
AcDbEntity
  8
Visible
100
AcDbLine
 10
4.627705
 20
6.418968
 30
2.693188
 11
5.74126
 21
7.060222
 31
1.782804
210
-0.0000000000000001
220
0.8175471248425399
230
0.5758617009853117
  0
LINE
  5
43E
330
70
100
AcDbEntity
  8
Visible Narrow
100
AcDbLine
 10
5.818167
 20
7.127936
 30
1.708571
 11
4.528022
 21
6.384991
 31
2.763326
210
-0.0000000000000001
220
0.8175471248425399
230
0.5758617009853117
  0
LINE
  5
43F
330
70
100
AcDbEntity
  8
Visible Narrow
100
AcDbLine
 10
5.144973
 20
7.515603
 30
1.158204
 11
3.854828
 21
6.772657
 31
2.212958
210
-0.0000000000000001
220
0.8175471248425399
230
0.5758617009853117
  0
LINE
  5
440
330
70
100
AcDbEntity
  8
Visible
100
AcDbLine
 10
4.705508
 20
6.149472
 30
1.572902
 11
4.643373
 21
6.185253
 31
1.522103
210
-0.0000000000000001
220
0.8175471248425399
230
0.5758617009853117
  0
LINE
  5
441
330
70
100
AcDbEntity
  8
Visible
100
AcDbLine
 10
5.112088
 20
6.633153
 30
1.737376
 11
5.112088
 21
6.614476
 31
1.72422
210
-0.0000000000000001
220
0.8175471248425399
230
0.5758617009853117
  0
LINE
  5
442
330
70
100
AcDbEntity
  8
Visible
100
AcDbLine
 10
3.787595
 20
6.560066
 30
2.366929
 11
3.787595
 21
6.464936
 31
2.299922
210
-0.0000000000000001
220
0.8175471248425399
230
0.5758617009853117
  0
LINE
  5
443
330
70
100
AcDbEntity
  8
Visible
100
AcDbLine
 10
5.8854
 20
7.201319
 30
1.456545
 11
5.8854
 21
7.10619
 31
1.389539
210
-0.0000000000000001
220
0.8175471248425399
230
0.5758617009853117
  0
LINE
  5
444
330
70
100
AcDbEntity
  8
Visible
100
AcDbLine
 10
5.08503
 20
7.491335
 30
1.191581
 11
3.89609
 21
6.80667
 31
2.163595
210
-0.0000000000000001
220
0.8175471248425399
230
0.5758617009853117
  0
LINE
  5
445
330
70
100
AcDbEntity
  8
Visible
100
AcDbLine
 10
5.864086
 20
7.066199
 30
1.536606
 11
4.422984
 21
6.236324
 31
2.714775
210
-0.0000000000000001
220
0.8175471248425399
230
0.5758617009853117
  0
ARC
  5
446
330
70
100
AcDbEntity
  8
Visible Narrow
100
AcDbCircle
 10
-1.351298
 20
3.819876
 30
-4.637483
 40
0.0649529931351184
210
-0.7071067811866531
220
-0.4071957137922733
230
0.5780931159156388
100
AcDbArc
 50
84.916694
 51
49.257178
  0
ARC
  5
447
330
70
100
AcDbEntity
  8
Visible Narrow
100
AcDbCircle
 10
1.351298
 20
3.819876
 30
4.635502
 40
0.0712377686839734
210
0.7071067811866531
220
0.4071957137922733
230
-0.5780931159156388
100
AcDbArc
 50
150.767864
 51
74.738961
  0
ARC
  5
448
330
70
100
AcDbEntity
  8
Visible
100
AcDbCircle
 10
-1.351298
 20
3.819876
 30
-4.697017
 40
0.0492125984252024
210
-0.7071067811866531
220
-0.4071957137922733
230
0.5780931159156388
100
AcDbArc
 50
315.110793
 51
317.853136
  0
ARC
  5
449
330
70
100
AcDbEntity
  8
Visible
100
AcDbCircle
 10
-1.351298
 20
3.819876
 30
-4.697017
 40
0.0492125984252007
210
-0.7071067811866531
220
-0.4071957137922733
230
0.5780931159156388
100
AcDbArc
 50
224.08169
 51
255.110793
  0
ARC
  5
44A
330
70
100
AcDbEntity
  8
Visible
100
AcDbCircle
 10
-1.351298
 20
3.819876
 30
-4.697017
 40
0.0492125984251985
210
-0.7071067811866531
220
-0.4071957137922733
230
0.5780931159156388
100
AcDbArc
 50
255.110793
 51
315.110793
  0
SPLINE
  5
44B
330
70
100
AcDbEntity
  8
Visible
100
AcDbSpline
210
-0.0000000000786838
220
0.8175471248050746
230
0.5758617010385009
 70
    12
 71
     2
 72
     6
 73
     3
 74
     0
 42
0.000000001
 43
0.0000000001
 40
-0.4364335524759582
 40
-0.4364335524759582
 40
-0.4364335524759582
 40
-0.1816138839659444
 40
-0.1816138839659444
 40
-0.1816138839659444
 10
4.542597214153738
 20
4.192342065472075
 30
0.4774856727635778
 41
1.606888365329756
 10
4.5295401755101
 20
4.207962244840018
 30
0.4553098053474969
 41
1.855474860566004
 10
4.502415295802074
 20
4.215481293323136
 30
0.4446350609432557
 41
1.606888365336845
1001
ACAD_VIEW_EDGE_ID
1071
        9
1071
       -1
1071
        6
1071
        0
  0
SPLINE
  5
44C
330
70
100
AcDbEntity
  8
Visible
100
AcDbSpline
210
-0.6123724351425805
220
-0.0561317298263498
230
-0.7885741750680451
 70
    12
 71
     2
 72
     6
 73
     3
 74
     0
 42
0.000000001
 43
0.0000000001
 40
-0.4364335524759576
 40
-0.4364335524759576
 40
-0.4364335524759576
 40
-0.336329305746722
 40
-0.336329305746722
 40
-0.336329305746722
 10
4.562688173329569
 20
4.140538833197751
 30
0.4655713280335476
 41
1.606888365329757
 10
4.561400345486526
 20
4.153347233328531
 30
0.4656596806817106
 41
1.704543950544943
 10
4.558255846149131
 20
4.163348739391039
 30
0.4673896420772508
 41
1.725472814829282
1001
ACAD_VIEW_EDGE_ID
1071
       10
1071
       -1
1071
        6
1071
        0
  0
SPLINE
  5
44D
330
70
100
AcDbEntity
  8
Visible
100
AcDbSpline
210
-0.6123724356948191
220
-0.0561317300062798
230
-0.788574174626393
 70
    12
 71
     2
 72
     6
 73
     3
 74
     0
 42
0.000000001
 43
0.0000000001
 40
-0.2960651913519921
 40
-0.2960651913519921
 40
-0.2960651913519921
 40
-0.181613883965944
 40
-0.181613883965944
 40
-0.181613883965944
 10
4.555426890163198
 20
4.171037346761295
 30
0.4690392013435485
 41
1.729895873701728
 10
4.550879607219848
 20
4.181745733667412
 30
0.471808186835915
 41
1.718540066101752
 10
4.542597214153738
 20
4.192342065472075
 30
0.4774856727635779
 41
1.606888365336844
1001
ACAD_VIEW_EDGE_ID
1071
       10
1071
       -1
1071
        6
1071
        0
  0
SPLINE
  5
44E
330
70
100
AcDbEntity
  8
Visible
100
AcDbSpline
210
-0.6123724356994434
220
0.7614153948750559
230
-0.2127124736417538
 70
    12
 71
     2
 72
     6
 73
     3
 74
     0
 42
0.000000001
 43
0.0000000001
 40
-0.4364335524758947
 40
-0.4364335524758947
 40
-0.4364335524758947
 40
-0.1816138839659439
 40
-0.1816138839659439
 40
-0.1816138839659439
 10
4.542597214153738
 20
4.111874828775398
 30
0.4208063714850142
 41
1.606888365329876
 10
4.559676614274303
 20
4.130257396429442
 30
0.4374382882524515
 41
1.855474860565937
 10
4.562688173329569
 20
4.140538833197751
 30
0.4655713280335477
 41
1.60688836533684
1001
ACAD_VIEW_EDGE_ID
1071
       11
1071
       -1
1071
        6
1071
        0
  0
SPLINE
  5
44F
330
70
100
AcDbEntity
  8
Visible
100
AcDbSpline
210
0.000000000014279
220
0.8175471248372964
230
0.5758617009927559
 70
    12
 71
     2
 72
     6
 73
     3
 74
     0
 42
0.000000001
 43
0.0000000001
 40
0.1816138839658646
 40
0.1816138839658646
 40
0.1816138839658646
 40
0.4364335524759569
 40
0.4364335524759569
 40
0.4364335524759569
 10
4.542597214153738
 20
4.111874828775398
 30
0.420806371485014
 41
1.606888365336688
 10
4.529540175508281
 20
4.127495008144251
 30
0.3986305040671141
 41
1.855474860566078
 10
4.502415295800255
 20
4.135014056628278
 30
0.3879557596646918
 41
1.606888365329757
1001
ACAD_VIEW_EDGE_ID
1071
       12
1071
       -1
1071
        6
1071
        0
  0
SPLINE
  5
450
330
70
100
AcDbEntity
  8
Visible
100
AcDbSpline
210
-0.6123724355991351
220
-0.0561317298879159
230
-0.7885741747091223
 70
    12
 71
     2
 72
     6
 73
     3
 74
     0
 42
0.000000001
 43
0.0000000001
 40
-0.4364335524759574
 40
-0.4364335524759574
 40
-0.4364335524759574
 40
-0.1816138839659437
 40
-0.1816138839659437
 40
-0.1816138839659437
 10
4.482324336624423
 20
4.186817288902602
 30
0.3998701043947221
 41
1.606888365329759
 10
4.499403736744988
 20
4.164966238206943
 30
0.3881623705237871
 41
1.855474860566005
 10
4.502415295800255
 20
4.135014056628278
 30
0.3879557596646919
 41
1.606888365336844
1001
ACAD_VIEW_EDGE_ID
1071
       13
1071
       -1
1071
        6
1071
        0
  0
SPLINE
  5
451
330
70
100
AcDbEntity
  8
Visible
100
AcDbSpline
210
-0.6123724356299127
220
0.7614153949114303
230
-0.2127124737117208
 70
    12
 71
     2
 72
     6
 73
     3
 74
     0
 42
0.000000001
 43
0.0000000001
 40
-0.4364335524759579
 40
-0.4364335524759579
 40
-0.4364335524759579
 40
-0.1816138839659441
 40
-0.1816138839659441
 40
-0.1816138839659441
 10
4.502415295800255
 20
4.215481293325865
 30
0.4446350609432557
 41
1.606888365329759
 10
4.499403736744988
 20
4.205199856555736
 30
0.4165020211621595
 41
1.855474860566006
 10
4.482324336624423
 20
4.186817288902602
 30
0.3998701043947221
 41
1.606888365336846
1001
ACAD_VIEW_EDGE_ID
1071
       14
1071
       -1
1071
        6
1071
        0
  0
ARC
  5
452
330
70
100
AcDbEntity
  8
Visible
100
AcDbCircle
 10
-1.351298
 20
3.819876
 30
-4.635502
 40
0.0787401574803147
210
-0.7071067811866531
220
-0.4071957137922733
230
0.5780931159156388
100
AcDbArc
 50
150.817314
 51
6.01473
  0
LINE
  5
453
330
70
100
AcDbEntity
  8
Visible
100
AcDbLine
 10
4.520592
 20
4.20902
 30
0.369178
 11
4.520397
 21
4.208742
 31
0.368744
210
-0.0000000000000001
220
0.8175471248425399
230
0.5758617009853117
  0
LINE
  5
454
330
70
100
AcDbEntity
  8
Visible
100
AcDbLine
 10
4.520397
 20
4.208742
 30
0.368744
 11
4.530443
 21
4.18284
 31
0.362786
210
-0.0000000000000001
220
0.8175471248425399
230
0.5758617009853117
  0
LINE
  5
455
330
70
100
AcDbEntity
  8
Visible
100
AcDbLine
 10
4.530443
 20
4.18284
 30
0.362786
 11
4.540488
 21
4.156939
 31
0.356829
210
-0.0000000000000001
220
0.8175471248425399
230
0.5758617009853117
  0
LINE
  5
456
330
70
100
AcDbEntity
  8
Visible
100
AcDbLine
 10
4.540488
 20
4.156939
 30
0.356829
 11
4.560579
 21
4.145369
 31
0.373255
210
-0.0000000000000001
220
0.8175471248425399
230
0.5758617009853117
  0
LINE
  5
457
330
70
100
AcDbEntity
  8
Visible
100
AcDbLine
 10
4.560579
 20
4.145369
 30
0.373255
 11
4.562251
 21
4.144407
 31
0.374621
210
-0.0000000000000001
220
0.8175471248425399
230
0.5758617009853117
  0
LINE
  5
458
330
70
100
AcDbEntity
  8
Visible
100
AcDbLine
 10
4.520397
 20
4.208742
 30
0.368744
 11
4.482324
 21
4.186817
 31
0.39987
210
-0.0000000000000001
220
0.8175471248425399
230
0.5758617009853117
  0
LINE
  5
459
330
70
100
AcDbEntity
  8
Visible
100
AcDbLine
 10
4.540488
 20
4.156939
 30
0.356829
 11
4.502415
 21
4.135014
 31
0.387956
210
-0.0000000000000001
220
0.8175471248425399
230
0.5758617009853117
  0
ENDSEC
  0
SECTION
  2
OBJECTS
  0
DICTIONARY
  5
C
330
0
100
AcDbDictionary
281
     1
  3
ACAD_COLOR
350
63
  3
ACAD_DETAILVIEWSTYLE
350
6A
  3
ACAD_GROUP
350
D
  3
ACAD_IMAGE_DICT
350
1B2
  3
ACAD_IMAGE_VARS
350
1B4
  3
ACAD_LAYOUT
350
62
  3
ACAD_MATERIAL
350
10
  3
ACAD_MLEADERSTYLE
350
66
  3
ACAD_MLINESTYLE
350
5F
  3
ACAD_PLOTSETTINGS
350
61
  3
ACAD_PLOTSTYLENAME
350
E
  3
ACAD_SCALELIST
350
42
  3
ACAD_SECTIONVIEWSTYLE
350
68
  3
ACAD_TABLESTYLE
350
64
  3
ACAD_VISUALSTYLE
350
29
  3
ACDB_RECOMPOSE_DATA
350
4A7
  3
AcDbVariableDictionary
350
49E
  0
DICTIONARY
  5
B2
330
70
100
AcDbDictionary
280
     1
281
     1
  3
ACAD_SORTENTS
360
1A8
  0
DICTIONARY
  5
1AC
330
1AB
100
AcDbDictionary
280
     1
281
     1
  3
ACAD_SORTENTS
360
378
  0
IMAGEDEF_REACTOR
  5
1B3
330
1B0
100
AcDbRasterImageDefReactor
 90
        2
330
1B0
  0
DICTIONARY
  5
63
102
{ACAD_REACTORS
330
C
102
}
330
C
100
AcDbDictionary
281
     1
  0
DICTIONARY
  5
6A
102
{ACAD_REACTORS
330
C
102
}
330
C
100
AcDbDictionary
281
     1
  3
Imperial24
350
6B
  0
DICTIONARY
  5
D
102
{ACAD_REACTORS
330
C
102
}
330
C
100
AcDbDictionary
281
     1
  0
DICTIONARY
  5
1B2
102
{ACAD_REACTORS
330
C
102
}
330
C
100
AcDbDictionary
281
     1
  3
morse_logo-16 (1)_01-2018(B)_1_1
350
1B1
  0
RASTERVARIABLES
  5
1B4
102
{ACAD_REACTORS
330
C
102
}
330
C
100
AcDbRasterVariables
 90
        0
 70
     0
 71
     1
 72
     5
  0
DICTIONARY
  5
62
102
{ACAD_REACTORS
330
C
102
}
330
C
100
AcDbDictionary
281
     1
  3
Model
350
73
  3
Sheet1
350
6F
  3
Sheet2
350
77
  0
DICTIONARY
  5
10
102
{ACAD_REACTORS
330
C
102
}
330
C
100
AcDbDictionary
281
     1
  3
ByBlock
350
19
  3
ByLayer
350
11
  3
Global
350
21
  0
DICTIONARY
  5
66
102
{ACAD_REACTORS
330
C
102
}
330
C
100
AcDbDictionary
281
     1
  3
Standard
350
67
  0
DICTIONARY
  5
5F
102
{ACAD_REACTORS
330
C
102
}
330
C
100
AcDbDictionary
281
     1
  3
Standard
350
60
  0
DICTIONARY
  5
61
102
{ACAD_REACTORS
330
C
102
}
330
C
100
AcDbDictionary
281
     1
  0
ACDBDICTIONARYWDFLT
  5
E
102
{ACAD_REACTORS
330
C
102
}
330
C
100
AcDbDictionary
281
     1
  3
Normal
350
F
100
AcDbDictionaryWithDefault
340
F
  0
DICTIONARY
  5
42
102
{ACAD_REACTORS
330
C
102
}
330
C
100
AcDbDictionary
281
     1
  3
*A1
350
A2
  3
*A10
350
AB
  3
*A11
350
AC
  3
*A12
350
AD
  3
*A13
350
AE
  3
*A14
350
AF
  3
*A15
350
B0
  3
*A16
350
B1
  3
*A2
350
A3
  3
*A3
350
A4
  3
*A4
350
A5
  3
*A5
350
A6
  3
*A6
350
A7
  3
*A7
350
A8
  3
*A8
350
A9
  3
*A9
350
AA
  3
A0
350
43
  3
A1
350
44
  3
A2
350
45
  3
A3
350
46
  3
A4
350
47
  3
A5
350
48
  3
A6
350
49
  3
A7
350
4A
  3
A8
350
4B
  3
A9
350
4C
  3
B0
350
4D
  3
B1
350
4E
  3
B2
350
4F
  3
B3
350
50
  3
B4
350
51
  3
B5
350
52
  3
B6
350
53
  0
DICTIONARY
  5
68
102
{ACAD_REACTORS
330
C
102
}
330
C
100
AcDbDictionary
281
     1
  3
Imperial24
350
69
  0
DICTIONARY
  5
64
102
{ACAD_REACTORS
330
C
102
}
330
C
100
AcDbDictionary
281
     1
  3
Standard
350
65
  0
DICTIONARY
  5
29
102
{ACAD_REACTORS
330
C
102
}
330
C
100
AcDbDictionary
281
     1
  3
2dWireframe
350
2F
  3
Basic
350
2E
  3
Brighten
350
35
  3
ColorChange
350
39
  3
Conceptual
350
32
  3
Dim
350
34
  3
EdgeColorOff
350
41
  3
Facepattern
350
38
  3
Flat
350
2A
  3
FlatWithEdges
350
2B
  3
Gouraud
350
2C
  3
GouraudWithEdges
350
2D
  3
Hidden
350
31
  3
JitterOff
350
3F
  3
Linepattern
350
37
  3
OverhangOff
350
40
  3
Realistic
350
33
  3
Shaded
350
3E
  3
Shaded with edges
350
3D
  3
Shades of Gray
350
3A
  3
Sketchy
350
3B
  3
Thicken
350
36
  3
Wireframe
350
30
  3
X-Ray
350
3C
  0
XRECORD
  5
4A7
102
{ACAD_REACTORS
330
C
102
}
330
C
100
AcDbXrecord
280
     1
 90
        1
330
65
330
1B8
330
1C2
330
1C3
330
1C4
330
1C7
  0
DICTIONARY
  5
49E
102
{ACAD_REACTORS
330
C
102
}
330
C
100
AcDbDictionary
281
     1
  3
ANNOALLVISIBLE
350
4A3
  3
CANNOSCALE
350
4A4
  3
CMLEADERSTYLE
350
4A0
  3
CTABLESTYLE
350
49F
  3
CVIEWDETAILSTYLE
350
4A1
  3
CVIEWSECTIONSTYLE
350
4A2
  0
SORTENTSTABLE
  5
1A8
102
{ACAD_REACTORS
330
B2
102
}
330
B2
100
AcDbSortentsTable
330
70
  0
SORTENTSTABLE
  5
378
102
{ACAD_REACTORS
330
1AC
102
}
330
1AC
100
AcDbSortentsTable
330
1AB
  0
ACDBDETAILVIEWSTYLE
  5
6B
102
{ACAD_XDICTIONARY
360
4AA
102
}
102
{ACAD_REACTORS
330
6A
102
}
330
6A
100
AcDbModelDocViewStyle
 70
     0
  3
Imperial24
290
     0
100
AcDbDetailViewStyle
 70
     0
 71
     0
 90
        3
 71
     1
340
55
 62
   256
 40
0.24
340
0
 62
   256
 40
0.24
300

 40
0.36
280
     3
 71
     2
340
5D
 90
       25
 62
   256
 71
     3
340
55
 62
   256
 40
0.24
 90
        1
 40
0.75
 90
        1
300
%<\AcVar ViewType \f "%tc1">% %<\AcVar ViewDetailId>%\PSCALE %<\AcVar ViewScale \f "%sn">%
 71
     4
340
5D
 90
       25
 62
   256
340
5D
 90
       25
 62
   256
280
     0
  0
IMAGEDEF
  5
1B1
102
{ACAD_REACTORS
330
1B2
330
1B3
330
45A
102
}
330
1B2
100
AcDbRasterImageDef
 90
        0
  1
morse_logo-16 (1)_01-2018(B)_1_1.jpg
 10
948.0
 20
333.0
 11
0.264583
 21
0.264583
280
     1
281
     5
  0
LAYOUT
  5
73
102
{ACAD_REACTORS
330
62
102
}
330
62
100
AcDbPlotSettings
  1

  2
AutoCAD PDF (High Quality Print).pc3
  4
ANSI_full_bleed_B_(17.00_x_11.00_Inches)
  6

 40
0.0
 41
0.0
 42
0.0
 43
0.0
 44
431.799988
 45
279.399994
 46
0.0
 47
0.0
 48
0.0
 49
0.0
140
0.0
141
0.0
142
1.0
143
1.564872
 70
 11952
 72
     0
 73
     0
 74
     0
  7

 75
     0
147
0.63903
 76
     0
 77
     2
 78
   300
148
79.040535
149
50.10735
100
AcDbLayout
  1
Model
 70
     1
 71
     0
 10
0.0
 20
0.0
 11
12.0
 21
9.0
 12
0.0
 22
0.0
 32
0.0
 14
0.0
 24
0.0
 34
0.0
 15
0.0
 25
0.0
 35
0.0
146
0.0
 13
0.0
 23
0.0
 33
0.0
 16
1.0
 26
0.0
 36
0.0
 17
0.0
 27
1.0
 37
0.0
 76
     0
330
70
1001
ACAD_PSEXT
1000
AutoCAD PDF (High Quality Print).pc3
1000
DWG To PDF
1000
File
1000

1070
     0
  0
LAYOUT
  5
6F
102
{ACAD_REACTORS
330
62
102
}
330
62
100
AcDbPlotSettings
  1

  2
None
  4

  6

 40
0.0
 41
0.0
 42
0.0
 43
0.0
 44
0.0
 45
0.0
 46
0.0
 47
0.0
 48
0.0
 49
0.0
140
0.0
141
0.0
142
1.0
143
1.0
 70
   688
 72
     0
 73
     0
 74
     5
  7

 75
    16
147
1.0
 76
     0
 77
     2
 78
   300
148
0.0
149
0.0
100
AcDbLayout
  1
Sheet1
 70
     1
 71
     1
 10
0.0
 20
0.0
 11
12.0
 21
9.0
 12
0.0
 22
0.0
 32
0.0
 14
0.0
 24
0.0
 34
0.0
 15
0.0
 25
0.0
 35
0.0
146
0.0
 13
0.0
 23
0.0
 33
0.0
 16
1.0
 26
0.0
 36
0.0
 17
0.0
 27
1.0
 37
0.0
 76
     0
330
6C
  0
LAYOUT
  5
77
102
{ACAD_REACTORS
330
62
102
}
330
62
100
AcDbPlotSettings
  1

  2
None
  4

  6

 40
0.0
 41
0.0
 42
0.0
 43
0.0
 44
0.0
 45
0.0
 46
0.0
 47
0.0
 48
0.0
 49
0.0
140
0.0
141
0.0
142
1.0
143
1.0
 70
   688
 72
     0
 73
     0
 74
     5
  7

 75
    16
147
1.0
 76
     0
 77
     2
 78
   300
148
0.0
149
0.0
100
AcDbLayout
  1
Sheet2
 70
     1
 71
     2
 10
0.0
 20
0.0
 11
12.0
 21
9.0
 12
0.0
 22
0.0
 32
0.0
 14
0.0
 24
0.0
 34
0.0
 15
0.0
 25
0.0
 35
0.0
146
0.0
 13
0.0
 23
0.0
 33
0.0
 16
1.0
 26
0.0
 36
0.0
 17
0.0
 27
1.0
 37
0.0
 76
     0
330
74
  0
MATERIAL
  5
19
102
{ACAD_XDICTIONARY
360
1A
102
}
102
{ACAD_REACTORS
330
10
102
}
330
10
100
AcDbMaterial
  1
ByBlock
 72
     0
 43
0.020833
 43
0.0
 43
0.0
 43
0.0
 43
0.0
 43
0.020833
 43
0.0
 43
0.0
 43
0.0
 43
0.0
 43
1.0
 43
0.0
 43
0.0
 43
0.0
 43
0.0
 43
1.0
 77
     0
 47
0.020833
 47
0.0
 47
0.0
 47
0.0
 47
0.0
 47
0.020833
 47
0.0
 47
0.0
 47
0.0
 47
0.0
 47
1.0
 47
0.0
 47
0.0
 47
0.0
 47
0.0
 47
1.0
171
     0
 49
0.020833
 49
0.0
 49
0.0
 49
0.0
 49
0.0
 49
0.020833
 49
0.0
 49
0.0
 49
0.0
 49
0.0
 49
1.0
 49
0.0
 49
0.0
 49
0.0
 49
0.0
 49
1.0
175
     0
142
0.020833
142
0.0
142
0.0
142
0.0
142
0.0
142
0.020833
142
0.0
142
0.0
142
0.0
142
0.0
142
1.0
142
0.0
142
0.0
142
0.0
142
0.0
142
1.0
179
     0
144
0.020833
144
0.0
144
0.0
144
0.0
144
0.0
144
0.020833
144
0.0
144
0.0
144
0.0
144
0.0
144
1.0
144
0.0
144
0.0
144
0.0
144
0.0
144
1.0
147
0.020833
147
0.0
147
0.0
147
0.0
147
0.0
147
0.020833
147
0.0
147
0.0
147
0.0
147
0.0
147
1.0
147
0.0
147
0.0
147
0.0
147
0.0
147
1.0
  0
MATERIAL
  5
11
102
{ACAD_XDICTIONARY
360
12
102
}
102
{ACAD_REACTORS
330
10
102
}
330
10
100
AcDbMaterial
  1
ByLayer
 72
     0
 43
0.020833
 43
0.0
 43
0.0
 43
0.0
 43
0.0
 43
0.020833
 43
0.0
 43
0.0
 43
0.0
 43
0.0
 43
1.0
 43
0.0
 43
0.0
 43
0.0
 43
0.0
 43
1.0
 77
     0
 47
0.020833
 47
0.0
 47
0.0
 47
0.0
 47
0.0
 47
0.020833
 47
0.0
 47
0.0
 47
0.0
 47
0.0
 47
1.0
 47
0.0
 47
0.0
 47
0.0
 47
0.0
 47
1.0
171
     0
 49
0.020833
 49
0.0
 49
0.0
 49
0.0
 49
0.0
 49
0.020833
 49
0.0
 49
0.0
 49
0.0
 49
0.0
 49
1.0
 49
0.0
 49
0.0
 49
0.0
 49
0.0
 49
1.0
175
     0
142
0.020833
142
0.0
142
0.0
142
0.0
142
0.0
142
0.020833
142
0.0
142
0.0
142
0.0
142
0.0
142
1.0
142
0.0
142
0.0
142
0.0
142
0.0
142
1.0
179
     0
144
0.020833
144
0.0
144
0.0
144
0.0
144
0.0
144
0.020833
144
0.0
144
0.0
144
0.0
144
0.0
144
1.0
144
0.0
144
0.0
144
0.0
144
0.0
144
1.0
147
0.020833
147
0.0
147
0.0
147
0.0
147
0.0
147
0.020833
147
0.0
147
0.0
147
0.0
147
0.0
147
1.0
147
0.0
147
0.0
147
0.0
147
0.0
147
1.0
  0
MATERIAL
  5
21
102
{ACAD_XDICTIONARY
360
22
102
}
102
{ACAD_REACTORS
330
10
102
}
330
10
100
AcDbMaterial
  1
Global
 72
     0
 43
0.020833
 43
0.0
 43
0.0
 43
0.0
 43
0.0
 43
0.020833
 43
0.0
 43
0.0
 43
0.0
 43
0.0
 43
1.0
 43
0.0
 43
0.0
 43
0.0
 43
0.0
 43
1.0
 77
     0
 47
0.020833
 47
0.0
 47
0.0
 47
0.0
 47
0.0
 47
0.020833
 47
0.0
 47
0.0
 47
0.0
 47
0.0
 47
1.0
 47
0.0
 47
0.0
 47
0.0
 47
0.0
 47
1.0
171
     0
 49
0.020833
 49
0.0
 49
0.0
 49
0.0
 49
0.0
 49
0.020833
 49
0.0
 49
0.0
 49
0.0
 49
0.0
 49
1.0
 49
0.0
 49
0.0
 49
0.0
 49
0.0
 49
1.0
175
     0
142
0.020833
142
0.0
142
0.0
142
0.0
142
0.0
142
0.020833
142
0.0
142
0.0
142
0.0
142
0.0
142
1.0
142
0.0
142
0.0
142
0.0
142
0.0
142
1.0
179
     0
144
0.020833
144
0.0
144
0.0
144
0.0
144
0.0
144
0.020833
144
0.0
144
0.0
144
0.0
144
0.0
144
1.0
144
0.0
144
0.0
144
0.0
144
0.0
144
1.0
147
0.020833
147
0.0
147
0.0
147
0.0
147
0.0
147
0.020833
147
0.0
147
0.0
147
0.0
147
0.0
147
1.0
147
0.0
147
0.0
147
0.0
147
0.0
147
1.0
  0
MLEADERSTYLE
  5
67
102
{ACAD_REACTORS
330
66
102
}
330
66
100
AcDbMLeaderStyle
179
     2
170
     2
171
     1
172
     0
 90
        2
 40
0.0
 41
0.0
173
     1
 91
-1056964608
340
5B
 92
       -2
290
     1
 42
0.09
291
     1
 43
0.36
  3
Standard
 44
0.18
300

342
55
174
     1
178
     6
175
     1
176
     0
 93
-1056964608
 45
0.18
292
     0
297
     0
 46
0.18
 94
-1056964608
 47
1.0
 49
1.0
140
1.0
293
     1
141
0.0
294
     1
177
     0
142
1.0
295
     0
296
     0
143
0.125
271
     0
272
     9
273
     9
298
     1
  0
MLINESTYLE
  5
60
102
{ACAD_REACTORS
330
5F
102
}
330
5F
100
AcDbMlineStyle
  2
STANDARD
 70
     0
  3

 62
   256
 51
90.0
 52
90.0
 71
     0
  0
ACDBPLACEHOLDER
  5
F
102
{ACAD_REACTORS
330
E
102
}
330
E
  0
SCALE
  5
A2
102
{ACAD_REACTORS
330
42
102
}
330
42
100
AcDbScale
 70
     0
300
1:2
140
1.0
141
2.0
290
     0
  0
SCALE
  5
AB
102
{ACAD_REACTORS
330
42
102
}
330
42
100
AcDbScale
 70
     0
300
1:50
140
1.0
141
50.0
290
     0
  0
SCALE
  5
AC
102
{ACAD_REACTORS
330
42
102
}
330
42
100
AcDbScale
 70
     0
300
1:100
140
1.0
141
100.0
290
     0
  0
SCALE
  5
AD
102
{ACAD_REACTORS
330
42
102
}
330
42
100
AcDbScale
 70
     0
300
2:1
140
2.0
141
1.0
290
     0
  0
SCALE
  5
AE
102
{ACAD_REACTORS
330
42
102
}
330
42
100
AcDbScale
 70
     0
300
4:1
140
4.0
141
1.0
290
     0
  0
SCALE
  5
AF
102
{ACAD_REACTORS
330
42
102
}
330
42
100
AcDbScale
 70
     0
300
8:1
140
8.0
141
1.0
290
     0
  0
SCALE
  5
B0
102
{ACAD_REACTORS
330
42
102
}
330
42
100
AcDbScale
 70
     0
300
10:1
140
10.0
141
1.0
290
     0
  0
SCALE
  5
B1
102
{ACAD_REACTORS
330
42
102
}
330
42
100
AcDbScale
 70
     0
300
100:1
140
100.0
141
1.0
290
     0
  0
SCALE
  5
A3
102
{ACAD_REACTORS
330
42
102
}
330
42
100
AcDbScale
 70
     0
300
1:4
140
1.0
141
4.0
290
     0
  0
SCALE
  5
A4
102
{ACAD_REACTORS
330
42
102
}
330
42
100
AcDbScale
 70
     0
300
1:5
140
1.0
141
5.0
290
     0
  0
SCALE
  5
A5
102
{ACAD_REACTORS
330
42
102
}
330
42
100
AcDbScale
 70
     0
300
1:8
140
1.0
141
8.0
290
     0
  0
SCALE
  5
A6
102
{ACAD_REACTORS
330
42
102
}
330
42
100
AcDbScale
 70
     0
300
1:10
140
1.0
141
10.0
290
     0
  0
SCALE
  5
A7
102
{ACAD_REACTORS
330
42
102
}
330
42
100
AcDbScale
 70
     0
300
1:16
140
1.0
141
16.0
290
     0
  0
SCALE
  5
A8
102
{ACAD_REACTORS
330
42
102
}
330
42
100
AcDbScale
 70
     0
300
1:20
140
1.0
141
20.0
290
     0
  0
SCALE
  5
A9
102
{ACAD_REACTORS
330
42
102
}
330
42
100
AcDbScale
 70
     0
300
1:30
140
1.0
141
30.0
290
     0
  0
SCALE
  5
AA
102
{ACAD_REACTORS
330
42
102
}
330
42
100
AcDbScale
 70
     0
300
1:40
140
1.0
141
40.0
290
     0
  0
SCALE
  5
43
102
{ACAD_REACTORS
330
42
102
}
330
42
100
AcDbScale
 70
     0
300
1:1
140
1.0
141
1.0
290
     1
  0
SCALE
  5
44
102
{ACAD_REACTORS
330
42
102
}
330
42
100
AcDbScale
 70
     0
300
1/128" = 1'-0"
140
0.007813
141
12.0
290
     0
  0
SCALE
  5
45
102
{ACAD_REACTORS
330
42
102
}
330
42
100
AcDbScale
 70
     0
300
1/64" = 1'-0"
140
0.015625
141
12.0
290
     0
  0
SCALE
  5
46
102
{ACAD_REACTORS
330
42
102
}
330
42
100
AcDbScale
 70
     0
300
1/32" = 1'-0"
140
0.03125
141
12.0
290
     0
  0
SCALE
  5
47
102
{ACAD_REACTORS
330
42
102
}
330
42
100
AcDbScale
 70
     0
300
1/16" = 1'-0"
140
0.0625
141
12.0
290
     0
  0
SCALE
  5
48
102
{ACAD_REACTORS
330
42
102
}
330
42
100
AcDbScale
 70
     0
300
3/32" = 1'-0"
140
0.09375
141
12.0
290
     0
  0
SCALE
  5
49
102
{ACAD_REACTORS
330
42
102
}
330
42
100
AcDbScale
 70
     0
300
1/8" = 1'-0"
140
0.125
141
12.0
290
     0
  0
SCALE
  5
4A
102
{ACAD_REACTORS
330
42
102
}
330
42
100
AcDbScale
 70
     0
300
3/16" = 1'-0"
140
0.1875
141
12.0
290
     0
  0
SCALE
  5
4B
102
{ACAD_REACTORS
330
42
102
}
330
42
100
AcDbScale
 70
     0
300
1/4" = 1'-0"
140
0.25
141
12.0
290
     0
  0
SCALE
  5
4C
102
{ACAD_REACTORS
330
42
102
}
330
42
100
AcDbScale
 70
     0
300
3/8" = 1'-0"
140
0.375
141
12.0
290
     0
  0
SCALE
  5
4D
102
{ACAD_REACTORS
330
42
102
}
330
42
100
AcDbScale
 70
     0
300
1/2" = 1'-0"
140
0.5
141
12.0
290
     0
  0
SCALE
  5
4E
102
{ACAD_REACTORS
330
42
102
}
330
42
100
AcDbScale
 70
     0
300
3/4" = 1'-0"
140
0.75
141
12.0
290
     0
  0
SCALE
  5
4F
102
{ACAD_REACTORS
330
42
102
}
330
42
100
AcDbScale
 70
     0
300
1" = 1'-0"
140
1.0
141
12.0
290
     0
  0
SCALE
  5
50
102
{ACAD_REACTORS
330
42
102
}
330
42
100
AcDbScale
 70
     0
300
1-1/2" = 1'-0"
140
1.5
141
12.0
290
     0
  0
SCALE
  5
51
102
{ACAD_REACTORS
330
42
102
}
330
42
100
AcDbScale
 70
     0
300
3" = 1'-0"
140
3.0
141
12.0
290
     0
  0
SCALE
  5
52
102
{ACAD_REACTORS
330
42
102
}
330
42
100
AcDbScale
 70
     0
300
6" = 1'-0"
140
6.0
141
12.0
290
     0
  0
SCALE
  5
53
102
{ACAD_REACTORS
330
42
102
}
330
42
100
AcDbScale
 70
     0
300
1'-0" = 1'-0"
140
12.0
141
12.0
290
     0
  0
ACDBSECTIONVIEWSTYLE
  5
69
102
{ACAD_XDICTIONARY
360
4A8
102
}
102
{ACAD_REACTORS
330
68
102
}
330
68
100
AcDbModelDocViewStyle
 70
     0
  3
Imperial24
290
     0
100
AcDbSectionViewStyle
 70
     0
 71
     0
 90
       78
 71
     1
340
55
 62
   256
 40
0.24
340
0
340
0
 62
   256
 40
0.24
300
I, O, Q, S, X, Z
 40
0.48
 90
        3
 40
0.18
 90
        1
 71
     2
340
5D
 90
       25
 62
   256
340
5D
 90
       50
 62
   256
 40
0.24
 40
0.0
 40
0.24
 71
     3
340
55
 62
   256
 40
0.24
 90
        1
 40
0.75
 90
        1
300
%<\AcVar ViewType \f "%tc1">% %<\AcVar ViewSectionStartId>%-%<\AcVar ViewSectionEndId>%\PSCALE %<\AcVar ViewScale \f "%sn">%
 71
     4
 62
   256
 62
   257
300
ANSI31
 40
1.0
 90
        0
290
     0
290
     0
 90
        6
 40
0.0
 40
1.570796
 40
0.261799
 40
1.308997
 40
-0.261799
 40
1.832596
  0
TABLESTYLE
  5
65
102
{ACAD_XDICTIONARY
360
4A5
102
}
102
{ACAD_REACTORS
330
64
102
}
330
64
100
AcDbTableStyle
280
     0
  3
Standard
 70
     0
 71
     0
 40
0.06
 41
0.06
280
     0
281
     0
  7
Standard
140
0.18
170
     2
 62
     0
 63
     7
283
     0
 90
      512
 91
        0
  1

274
    -2
284
     1
 64
     0
275
    -2
285
     1
 65
     0
276
    -2
286
     1
 66
     0
277
    -2
287
     1
 67
     0
278
    -2
288
     1
 68
     0
279
    -2
289
     1
 69
     0
  7
Standard
140
0.25
170
     5
 62
     0
 63
     7
283
     0
 90
      512
 91
        0
  1

274
    -2
284
     1
 64
     0
275
    -2
285
     1
 65
     0
276
    -2
286
     1
 66
     0
277
    -2
287
     1
 67
     0
278
    -2
288
     1
 68
     0
279
    -2
289
     1
 69
     0
  7
Standard
140
0.18
170
     5
 62
     0
 63
     7
283
     0
 90
      512
 91
        0
  1

274
    -2
284
     1
 64
     0
275
    -2
285
     1
 65
     0
276
    -2
286
     1
 66
     0
277
    -2
287
     1
 67
     0
278
    -2
288
     1
 68
     0
279
    -2
289
     1
 69
     0
  0
VISUALSTYLE
  5
2F
102
{ACAD_REACTORS
330
29
102
}
330
29
100
AcDbVisualStyle
  2
2dWireframe
 70
     4
177
     3
291
     0
 70
    58
 90
        0
176
     1
 90
        2
176
     1
 90
        0
176
     1
 90
        0
176
     1
 40
0.6
176
     1
 40
30.0
176
     1
 62
     7
420
 16777215
176
     1
 90
        1
176
     1
 90
        4
176
     1
 62
     7
176
     1
 62
   257
176
     1
 90
        1
176
     1
 90
        1
176
     1
 40
1.0
176
     1
 90
        0
176
     1
 62
   257
176
     1
 40
1.0
176
     1
 90
        1
176
     1
 90
        6
176
     1
 90
        2
176
     1
 62
     7
176
     1
 90
        5
176
     1
 90
        0
176
     1
 90
        0
176
     1
290
     0
176
     1
 90
        1
176
     1
 40
0.0
176
     1
 90
        0
176
     1
290
     1
176
     1
290
     1
176
     1
290
     0
176
     1
290
     0
176
     1
290
     0
176
     1
290
     0
176
     1
290
     0
176
     1
290
     0
176
     1
290
     0
176
     1
 90
       50
176
     1
 40
0.0
176
     1
 40
1.0
176
     1
 90
        0
176
     1
 62
    18
420
        0
176
     1
 90
       50
176
     1
 90
        3
176
     1
 62
     5
420
      255
176
     1
290
     0
176
     1
 90
       50
176
     1
 90
       50
176
     1
 90
       50
176
     1
290
     0
176
     1
 90
       50
176
     1
 62
   256
176
     0
 40
1.0
176
     0
 90
        2
176
     1
  1
strokes_ogs.tif
176
     1
290
     0
176
     1
 40
1.0
176
     1
 40
1.0
176
     1
1001
ACAD
1000
AcDbSavedByObjectVersion
1070
     0
  0
VISUALSTYLE
  5
2E
102
{ACAD_REACTORS
330
29
102
}
330
29
100
AcDbVisualStyle
  2
Basic
 70
     7
177
     3
291
     1
 70
    58
 90
        1
176
     1
 90
        0
176
     1
 90
        1
176
     1
 90
        0
176
     1
 40
0.6
176
     1
 40
30.0
176
     1
 62
     7
420
 16777215
176
     1
 90
        0
176
     1
 90
        4
176
     1
 62
     7
176
     1
 62
   257
176
     1
 90
        1
176
     1
 90
        1
176
     1
 40
1.0
176
     1
 90
        8
176
     1
 62
     7
176
     1
 40
1.0
176
     1
 90
        1
176
     1
 90
        6
176
     1
 90
        2
176
     1
 62
     7
176
     1
 90
        5
176
     1
 90
        0
176
     1
 90
        0
176
     1
290
     0
176
     1
 90
        1
176
     1
 40
0.0
176
     1
 90
        0
176
     1
290
     0
176
     1
290
     1
176
     1
290
     1
176
     1
290
     0
176
     1
290
     0
176
     1
290
     0
176
     1
290
     0
176
     1
290
     0
176
     1
290
     0
176
     1
 90
       50
176
     1
 40
0.0
176
     1
 40
1.0
176
     1
 90
        0
176
     1
 62
    18
420
        0
176
     1
 90
       50
176
     1
 90
        3
176
     1
 62
     5
420
      255
176
     1
290
     0
176
     1
 90
       50
176
     1
 90
       50
176
     1
 90
       50
176
     1
290
     0
176
     1
 90
       50
176
     1
 62
   256
176
     0
 40
1.0
176
     0
 90
        2
176
     1
  1
strokes_ogs.tif
176
     1
290
     0
176
     1
 40
1.0
176
     1
 40
1.0
176
     1
1001
ACAD
1000
AcDbSavedByObjectVersion
1070
     0
  0
VISUALSTYLE
  5
35
102
{ACAD_REACTORS
330
29
102
}
330
29
100
AcDbVisualStyle
  2
Brighten
 70
    12
177
     3
291
     1
 70
    58
 90
        2
176
     1
 90
        2
176
     1
 90
        0
176
     1
 90
        0
176
     1
 40
0.6
176
     1
 40
30.0
176
     1
 62
     7
420
 16777215
176
     1
 90
        1
176
     1
 90
        4
176
     1
 62
     7
176
     1
 62
   257
176
     1
 90
        1
176
     1
 90
        1
176
     1
 40
1.0
176
     1
 90
        8
176
     1
 62
     7
176
     1
 40
1.0
176
     1
 90
        1
176
     1
 90
        6
176
     1
 90
        2
176
     1
 62
     7
176
     1
 90
        5
176
     1
 90
        0
176
     1
 90
        0
176
     1
290
     0
176
     1
 90
        1
176
     1
 40
50.0
176
     1
 90
        0
176
     1
290
     0
176
     1
290
     1
176
     1
290
     1
176
     1
290
     0
176
     1
290
     0
176
     1
290
     0
176
     1
290
     0
176
     1
290
     0
176
     1
290
     0
176
     1
 90
       50
176
     1
 40
0.0
176
     1
 40
1.0
176
     1
 90
        0
176
     1
 62
    18
420
        0
176
     1
 90
       50
176
     1
 90
        3
176
     1
 62
     5
420
      255
176
     1
290
     0
176
     1
 90
       50
176
     1
 90
       50
176
     1
 90
       50
176
     1
290
     0
176
     1
 90
       50
176
     1
 62
   256
176
     0
 40
1.0
176
     0
 90
        2
176
     1
  1
strokes_ogs.tif
176
     1
290
     0
176
     1
 40
1.0
176
     1
 40
1.0
176
     1
1001
ACAD
1000
AcDbSavedByObjectVersion
1070
     0
  0
VISUALSTYLE
  5
39
102
{ACAD_REACTORS
330
29
102
}
330
29
100
AcDbVisualStyle
  2
ColorChange
 70
    16
177
     3
291
     1
 70
    58
 90
        2
176
     1
 90
        2
176
     1
 90
        3
176
     1
 90
        0
176
     1
 40
0.6
176
     1
 40
30.0
176
     1
 62
     8
420
  8421504
176
     1
 90
        1
176
     1
 90
        4
176
     1
 62
     7
176
     1
 62
   257
176
     1
 90
        1
176
     1
 90
        1
176
     1
 40
1.0
176
     1
 90
        8
176
     1
 62
     8
420
  8421504
176
     1
 40
1.0
176
     1
 90
        1
176
     1
 90
        6
176
     1
 90
        2
176
     1
 62
     7
176
     1
 90
        5
176
     1
 90
        0
176
     1
 90
        0
176
     1
290
     0
176
     1
 90
        1
176
     1
 40
0.0
176
     1
 90
        0
176
     1
290
     0
176
     1
290
     1
176
     1
290
     1
176
     1
290
     0
176
     1
290
     0
176
     1
290
     0
176
     1
290
     0
176
     1
290
     0
176
     1
290
     0
176
     1
 90
       50
176
     1
 40
0.0
176
     1
 40
1.0
176
     1
 90
        0
176
     1
 62
    18
420
        0
176
     1
 90
       50
176
     1
 90
        3
176
     1
 62
     5
420
      255
176
     1
290
     0
176
     1
 90
       50
176
     1
 90
       50
176
     1
 90
       50
176
     1
290
     0
176
     1
 90
       50
176
     1
 62
   256
176
     0
 40
1.0
176
     0
 90
        2
176
     1
  1
strokes_ogs.tif
176
     1
290
     0
176
     1
 40
1.0
176
     1
 40
1.0
176
     1
1001
ACAD
1000
AcDbSavedByObjectVersion
1070
     0
  0
VISUALSTYLE
  5
32
102
{ACAD_REACTORS
330
29
102
}
330
29
100
AcDbVisualStyle
  2
Conceptual
 70
     9
177
     3
291
     0
 70
    58
 90
        3
176
     1
 90
        2
176
     1
 90
        0
176
     1
 90
        0
176
     1
 40
0.6
176
     1
 40
30.0
176
     1
 62
     7
420
 16777215
176
     1
 90
        2
176
     1
 90
        2
176
     1
 62
     7
176
     1
 62
   257
176
     1
 90
        1
176
     1
 90
        1
176
     1
 40
179.0
176
     1
 90
        8
176
     1
 62
     7
176
     1
 40
1.0
176
     1
 90
        1
176
     1
 90
        6
176
     1
 90
        2
176
     1
 62
     7
176
     1
 90
        3
176
     1
 90
        0
176
     1
 90
        0
176
     1
290
     0
176
     1
 90
        1
176
     1
 40
0.0
176
     1
 90
        0
176
     1
290
     0
176
     1
290
     1
176
     1
290
     1
176
     1
290
     0
176
     1
290
     0
176
     1
290
     0
176
     1
290
     0
176
     1
290
     0
176
     1
290
     0
176
     1
 90
       50
176
     1
 40
0.0
176
     1
 40
1.0
176
     1
 90
        0
176
     1
 62
    18
420
        0
176
     1
 90
       50
176
     1
 90
        3
176
     1
 62
     5
420
      255
176
     1
290
     0
176
     1
 90
       50
176
     1
 90
       50
176
     1
 90
       50
176
     1
290
     0
176
     1
 90
       50
176
     1
 62
   256
176
     0
 40
1.0
176
     0
 90
        2
176
     1
  1
strokes_ogs.tif
176
     1
290
     0
176
     1
 40
1.0
176
     1
 40
1.0
176
     1
1001
ACAD
1000
AcDbSavedByObjectVersion
1070
     0
  0
VISUALSTYLE
  5
34
102
{ACAD_REACTORS
330
29
102
}
330
29
100
AcDbVisualStyle
  2
Dim
 70
    11
177
     3
291
     1
 70
    58
 90
        2
176
     1
 90
        2
176
     1
 90
        0
176
     1
 90
        0
176
     1
 40
0.6
176
     1
 40
30.0
176
     1
 62
     7
420
 16777215
176
     1
 90
        1
176
     1
 90
        4
176
     1
 62
     7
176
     1
 62
   257
176
     1
 90
        1
176
     1
 90
        1
176
     1
 40
1.0
176
     1
 90
        8
176
     1
 62
     7
176
     1
 40
1.0
176
     1
 90
        1
176
     1
 90
        6
176
     1
 90
        2
176
     1
 62
     7
176
     1
 90
        5
176
     1
 90
        0
176
     1
 90
        0
176
     1
290
     0
176
     1
 90
        1
176
     1
 40
-50.0
176
     1
 90
        0
176
     1
290
     0
176
     1
290
     1
176
     1
290
     1
176
     1
290
     0
176
     1
290
     0
176
     1
290
     0
176
     1
290
     0
176
     1
290
     0
176
     1
290
     0
176
     1
 90
       50
176
     1
 40
0.0
176
     1
 40
1.0
176
     1
 90
        0
176
     1
 62
    18
420
        0
176
     1
 90
       50
176
     1
 90
        3
176
     1
 62
     5
420
      255
176
     1
290
     0
176
     1
 90
       50
176
     1
 90
       50
176
     1
 90
       50
176
     1
290
     0
176
     1
 90
       50
176
     1
 62
   256
176
     0
 40
1.0
176
     0
 90
        2
176
     1
  1
strokes_ogs.tif
176
     1
290
     0
176
     1
 40
1.0
176
     1
 40
1.0
176
     1
1001
ACAD
1000
AcDbSavedByObjectVersion
1070
     0
  0
VISUALSTYLE
  5
41
102
{ACAD_REACTORS
330
29
102
}
330
29
100
AcDbVisualStyle
  2
EdgeColorOff
 70
    22
177
     3
291
     1
 70
    58
 90
        2
176
     0
 90
        2
176
     0
 90
        0
176
     0
 90
        0
176
     0
 40
0.6
176
     0
 40
30.0
176
     0
 62
     7
420
 16777215
176
     0
 90
        1
176
     0
 90
        4
176
     0
 62
     7
176
     0
 62
   257
176
     0
 90
        1
176
     0
 90
        1
176
     0
 40
1.0
176
     0
 90
        8
176
     2
 62
     7
176
     0
 40
1.0
176
     0
 90
        1
176
     0
 90
        6
176
     0
 90
        2
176
     0
 62
     7
176
     0
 90
        5
176
     0
 90
        0
176
     0
 90
        0
176
     0
290
     0
176
     0
 90
        1
176
     0
 40
0.0
176
     0
 90
        0
176
     0
290
     0
176
     0
290
     1
176
     0
290
     1
176
     0
290
     0
176
     0
290
     0
176
     0
290
     0
176
     0
290
     0
176
     0
290
     0
176
     0
290
     0
176
     0
 90
       50
176
     0
 40
0.0
176
     0
 40
1.0
176
     0
 90
        0
176
     0
 62
    18
420
        0
176
     0
 90
       50
176
     0
 90
        3
176
     0
 62
     5
420
      255
176
     0
290
     0
176
     0
 90
       50
176
     0
 90
       50
176
     0
 90
       50
176
     0
290
     0
176
     0
 90
       50
176
     0
 62
   256
176
     0
 40
1.0
176
     0
 90
        2
176
     0
  1
strokes_ogs.tif
176
     0
290
     0
176
     0
 40
1.0
176
     0
 40
1.0
176
     0
1001
ACAD
1000
AcDbSavedByObjectVersion
1070
     0
  0
VISUALSTYLE
  5
38
102
{ACAD_REACTORS
330
29
102
}
330
29
100
AcDbVisualStyle
  2
Facepattern
 70
    15
177
     3
291
     1
 70
    58
 90
        2
176
     1
 90
        2
176
     1
 90
        0
176
     1
 90
        0
176
     1
 40
0.6
176
     1
 40
30.0
176
     1
 62
     7
420
 16777215
176
     1
 90
        1
176
     1
 90
        4
176
     1
 62
     7
176
     1
 62
   257
176
     1
 90
        1
176
     1
 90
        1
176
     1
 40
1.0
176
     1
 90
        8
176
     1
 62
     7
176
     1
 40
1.0
176
     1
 90
        1
176
     1
 90
        6
176
     1
 90
        2
176
     1
 62
     7
176
     1
 90
        5
176
     1
 90
        0
176
     1
 90
        0
176
     1
290
     0
176
     1
 90
        1
176
     1
 40
0.0
176
     1
 90
        0
176
     1
290
     0
176
     1
290
     1
176
     1
290
     1
176
     1
290
     0
176
     1
290
     0
176
     1
290
     0
176
     1
290
     0
176
     1
290
     0
176
     1
290
     0
176
     1
 90
       50
176
     1
 40
0.0
176
     1
 40
1.0
176
     1
 90
        0
176
     1
 62
    18
420
        0
176
     1
 90
       50
176
     1
 90
        3
176
     1
 62
     5
420
      255
176
     1
290
     0
176
     1
 90
       50
176
     1
 90
       50
176
     1
 90
       50
176
     1
290
     0
176
     1
 90
       50
176
     1
 62
   256
176
     0
 40
1.0
176
     0
 90
        2
176
     1
  1
strokes_ogs.tif
176
     1
290
     0
176
     1
 40
1.0
176
     1
 40
1.0
176
     1
1001
ACAD
1000
AcDbSavedByObjectVersion
1070
     0
  0
VISUALSTYLE
  5
2A
102
{ACAD_REACTORS
330
29
102
}
330
29
100
AcDbVisualStyle
  2
Flat
 70
     0
177
     3
291
     1
 70
    58
 90
        2
176
     1
 90
        1
176
     1
 90
        1
176
     1
 90
        2
176
     1
 40
0.6
176
     1
 40
30.0
176
     1
 62
     7
420
 16777215
176
     1
 90
        0
176
     1
 90
        0
176
     1
 62
     7
176
     1
 62
   257
176
     1
 90
        1
176
     1
 90
        1
176
     1
 40
1.0
176
     1
 90
        8
176
     1
 62
     7
176
     1
 40
1.0
176
     1
 90
        1
176
     1
 90
        6
176
     1
 90
        2
176
     1
 62
     7
176
     1
 90
        5
176
     1
 90
        0
176
     1
 90
        0
176
     1
290
     0
176
     1
 90
       13
176
     1
 40
0.0
176
     1
 90
        0
176
     1
290
     0
176
     1
290
     1
176
     1
290
     1
176
     1
290
     0
176
     1
290
     0
176
     1
290
     0
176
     1
290
     0
176
     1
290
     0
176
     1
290
     0
176
     1
 90
       50
176
     1
 40
0.0
176
     1
 40
1.0
176
     1
 90
        0
176
     1
 62
    18
420
        0
176
     1
 90
       50
176
     1
 90
        3
176
     1
 62
     5
420
      255
176
     1
290
     0
176
     1
 90
       50
176
     1
 90
       50
176
     1
 90
       50
176
     1
290
     0
176
     1
 90
       50
176
     1
 62
   256
176
     0
 40
1.0
176
     0
 90
        2
176
     1
  1
strokes_ogs.tif
176
     1
290
     0
176
     1
 40
1.0
176
     1
 40
1.0
176
     1
1001
ACAD
1000
AcDbSavedByObjectVersion
1070
     0
  0
VISUALSTYLE
  5
2B
102
{ACAD_REACTORS
330
29
102
}
330
29
100
AcDbVisualStyle
  2
FlatWithEdges
 70
     1
177
     3
291
     1
 70
    58
 90
        2
176
     1
 90
        1
176
     1
 90
        1
176
     1
 90
        2
176
     1
 40
0.6
176
     1
 40
30.0
176
     1
 62
     7
420
 16777215
176
     1
 90
        1
176
     1
 90
        0
176
     1
 62
     7
176
     1
 62
   257
176
     1
 90
        1
176
     1
 90
        1
176
     1
 40
1.0
176
     1
 90
        0
176
     1
 62
   257
176
     1
 40
1.0
176
     1
 90
        1
176
     1
 90
        6
176
     1
 90
        2
176
     1
 62
     7
176
     1
 90
        5
176
     1
 90
        0
176
     1
 90
        0
176
     1
290
     0
176
     1
 90
       13
176
     1
 40
0.0
176
     1
 90
        0
176
     1
290
     0
176
     1
290
     1
176
     1
290
     1
176
     1
290
     0
176
     1
290
     0
176
     1
290
     0
176
     1
290
     0
176
     1
290
     0
176
     1
290
     0
176
     1
 90
       50
176
     1
 40
0.0
176
     1
 40
1.0
176
     1
 90
        0
176
     1
 62
    18
420
        0
176
     1
 90
       50
176
     1
 90
        3
176
     1
 62
     5
420
      255
176
     1
290
     0
176
     1
 90
       50
176
     1
 90
       50
176
     1
 90
       50
176
     1
290
     0
176
     1
 90
       50
176
     1
 62
   256
176
     0
 40
1.0
176
     0
 90
        2
176
     1
  1
strokes_ogs.tif
176
     1
290
     0
176
     1
 40
1.0
176
     1
 40
1.0
176
     1
1001
ACAD
1000
AcDbSavedByObjectVersion
1070
     0
  0
VISUALSTYLE
  5
2C
102
{ACAD_REACTORS
330
29
102
}
330
29
100
AcDbVisualStyle
  2
Gouraud
 70
     2
177
     3
291
     1
 70
    58
 90
        2
176
     1
 90
        2
176
     1
 90
        1
176
     1
 90
        2
176
     1
 40
0.6
176
     1
 40
30.0
176
     1
 62
     7
420
 16777215
176
     1
 90
        0
176
     1
 90
        0
176
     1
 62
     7
176
     1
 62
   257
176
     1
 90
        1
176
     1
 90
        1
176
     1
 40
1.0
176
     1
 90
        0
176
     1
 62
     7
176
     1
 40
1.0
176
     1
 90
        1
176
     1
 90
        6
176
     1
 90
        2
176
     1
 62
     7
176
     1
 90
        5
176
     1
 90
        0
176
     1
 90
        0
176
     1
290
     0
176
     1
 90
       13
176
     1
 40
0.0
176
     1
 90
        0
176
     1
290
     0
176
     1
290
     1
176
     1
290
     1
176
     1
290
     0
176
     1
290
     0
176
     1
290
     0
176
     1
290
     0
176
     1
290
     0
176
     1
290
     0
176
     1
 90
       50
176
     1
 40
0.0
176
     1
 40
1.0
176
     1
 90
        0
176
     1
 62
    18
420
        0
176
     1
 90
       50
176
     1
 90
        3
176
     1
 62
     5
420
      255
176
     1
290
     0
176
     1
 90
       50
176
     1
 90
       50
176
     1
 90
       50
176
     1
290
     0
176
     1
 90
       50
176
     1
 62
   256
176
     0
 40
1.0
176
     0
 90
        2
176
     1
  1
strokes_ogs.tif
176
     1
290
     0
176
     1
 40
1.0
176
     1
 40
1.0
176
     1
1001
ACAD
1000
AcDbSavedByObjectVersion
1070
     0
  0
VISUALSTYLE
  5
2D
102
{ACAD_REACTORS
330
29
102
}
330
29
100
AcDbVisualStyle
  2
GouraudWithEdges
 70
     3
177
     3
291
     1
 70
    58
 90
        2
176
     1
 90
        2
176
     1
 90
        1
176
     1
 90
        2
176
     1
 40
0.6
176
     1
 40
30.0
176
     1
 62
     7
420
 16777215
176
     1
 90
        1
176
     1
 90
        0
176
     1
 62
     7
176
     1
 62
   257
176
     1
 90
        1
176
     1
 90
        1
176
     1
 40
1.0
176
     1
 90
        0
176
     1
 62
   257
176
     1
 40
1.0
176
     1
 90
        1
176
     1
 90
        6
176
     1
 90
        2
176
     1
 62
     7
176
     1
 90
        5
176
     1
 90
        0
176
     1
 90
        0
176
     1
290
     0
176
     1
 90
       13
176
     1
 40
0.0
176
     1
 90
        0
176
     1
290
     0
176
     1
290
     1
176
     1
290
     1
176
     1
290
     0
176
     1
290
     0
176
     1
290
     0
176
     1
290
     0
176
     1
290
     0
176
     1
290
     0
176
     1
 90
       50
176
     1
 40
0.0
176
     1
 40
1.0
176
     1
 90
        0
176
     1
 62
    18
420
        0
176
     1
 90
       50
176
     1
 90
        3
176
     1
 62
     5
420
      255
176
     1
290
     0
176
     1
 90
       50
176
     1
 90
       50
176
     1
 90
       50
176
     1
290
     0
176
     1
 90
       50
176
     1
 62
   256
176
     0
 40
1.0
176
     0
 90
        2
176
     1
  1
strokes_ogs.tif
176
     1
290
     0
176
     1
 40
1.0
176
     1
 40
1.0
176
     1
1001
ACAD
1000
AcDbSavedByObjectVersion
1070
     0
  0
VISUALSTYLE
  5
31
102
{ACAD_REACTORS
330
29
102
}
330
29
100
AcDbVisualStyle
  2
Hidden
 70
     6
177
     3
291
     0
 70
    58
 90
        1
176
     1
 90
        2
176
     1
 90
        2
176
     1
 90
        0
176
     1
 40
0.6
176
     1
 40
30.0
176
     1
 62
     7
420
 16777215
176
     1
 90
        2
176
     1
 90
        2
176
     1
 62
     7
176
     1
 62
   257
176
     1
 90
        2
176
     1
 90
        1
176
     1
 40
40.0
176
     1
 90
        0
176
     1
 62
   257
176
     1
 40
1.0
176
     1
 90
        1
176
     1
 90
        6
176
     1
 90
        2
176
     1
 62
     7
176
     1
 90
        3
176
     1
 90
        0
176
     1
 90
        0
176
     1
290
     0
176
     1
 90
        1
176
     1
 40
0.0
176
     1
 90
        0
176
     1
290
     0
176
     1
290
     1
176
     1
290
     1
176
     1
290
     0
176
     1
290
     0
176
     1
290
     0
176
     1
290
     0
176
     1
290
     0
176
     1
290
     0
176
     1
 90
       50
176
     1
 40
0.0
176
     1
 40
1.0
176
     1
 90
        0
176
     1
 62
    18
420
        0
176
     1
 90
       50
176
     1
 90
        3
176
     1
 62
     5
420
      255
176
     1
290
     0
176
     1
 90
       50
176
     1
 90
       50
176
     1
 90
       50
176
     1
290
     0
176
     1
 90
       50
176
     1
 62
   256
176
     0
 40
1.0
176
     0
 90
        2
176
     1
  1
strokes_ogs.tif
176
     1
290
     0
176
     1
 40
1.0
176
     1
 40
1.0
176
     1
1001
ACAD
1000
AcDbSavedByObjectVersion
1070
     0
  0
VISUALSTYLE
  5
3F
102
{ACAD_REACTORS
330
29
102
}
330
29
100
AcDbVisualStyle
  2
JitterOff
 70
    20
177
     3
291
     1
 70
    58
 90
        2
176
     0
 90
        2
176
     0
 90
        0
176
     0
 90
        0
176
     0
 40
0.6
176
     0
 40
30.0
176
     0
 62
     7
420
 16777215
176
     0
 90
        1
176
     0
 90
        4
176
     0
 62
     7
176
     0
 62
   257
176
     0
 90
        1
176
     0
 90
        1
176
     0
 40
1.0
176
     0
 90
       10
176
     2
 62
     7
176
     0
 40
1.0
176
     0
 90
        1
176
     0
 90
        6
176
     0
 90
        2
176
     0
 62
     7
176
     0
 90
        5
176
     0
 90
        0
176
     0
 90
        0
176
     0
290
     0
176
     0
 90
        1
176
     0
 40
0.0
176
     0
 90
        0
176
     0
290
     0
176
     0
290
     1
176
     0
290
     1
176
     0
290
     0
176
     0
290
     0
176
     0
290
     0
176
     0
290
     0
176
     0
290
     0
176
     0
290
     0
176
     0
 90
       50
176
     0
 40
0.0
176
     0
 40
1.0
176
     0
 90
        0
176
     0
 62
    18
420
        0
176
     0
 90
       50
176
     0
 90
        3
176
     0
 62
     5
420
      255
176
     0
290
     0
176
     0
 90
       50
176
     0
 90
       50
176
     0
 90
       50
176
     0
290
     0
176
     0
 90
       50
176
     0
 62
   256
176
     0
 40
1.0
176
     0
 90
        2
176
     0
  1
strokes_ogs.tif
176
     0
290
     0
176
     0
 40
1.0
176
     0
 40
1.0
176
     0
1001
ACAD
1000
AcDbSavedByObjectVersion
1070
     0
  0
VISUALSTYLE
  5
37
102
{ACAD_REACTORS
330
29
102
}
330
29
100
AcDbVisualStyle
  2
Linepattern
 70
    14
177
     3
291
     1
 70
    58
 90
        2
176
     1
 90
        2
176
     1
 90
        0
176
     1
 90
        0
176
     1
 40
0.6
176
     1
 40
30.0
176
     1
 62
     7
420
 16777215
176
     1
 90
        1
176
     1
 90
        4
176
     1
 62
     7
176
     1
 62
   257
176
     1
 90
        7
176
     1
 90
        7
176
     1
 40
1.0
176
     1
 90
        8
176
     1
 62
     7
176
     1
 40
1.0
176
     1
 90
        1
176
     1
 90
        6
176
     1
 90
        2
176
     1
 62
     7
176
     1
 90
        5
176
     1
 90
        0
176
     1
 90
        0
176
     1
290
     0
176
     1
 90
        1
176
     1
 40
0.0
176
     1
 90
        0
176
     1
290
     0
176
     1
290
     1
176
     1
290
     1
176
     1
290
     0
176
     1
290
     0
176
     1
290
     0
176
     1
290
     0
176
     1
290
     0
176
     1
290
     0
176
     1
 90
       50
176
     1
 40
0.0
176
     1
 40
1.0
176
     1
 90
        0
176
     1
 62
    18
420
        0
176
     1
 90
       50
176
     1
 90
        3
176
     1
 62
     5
420
      255
176
     1
290
     0
176
     1
 90
       50
176
     1
 90
       50
176
     1
 90
       50
176
     1
290
     0
176
     1
 90
       50
176
     1
 62
   256
176
     0
 40
1.0
176
     0
 90
        2
176
     1
  1
strokes_ogs.tif
176
     1
290
     0
176
     1
 40
1.0
176
     1
 40
1.0
176
     1
1001
ACAD
1000
AcDbSavedByObjectVersion
1070
     0
  0
VISUALSTYLE
  5
40
102
{ACAD_REACTORS
330
29
102
}
330
29
100
AcDbVisualStyle
  2
OverhangOff
 70
    21
177
     3
291
     1
 70
    58
 90
        2
176
     0
 90
        2
176
     0
 90
        0
176
     0
 90
        0
176
     0
 40
0.6
176
     0
 40
30.0
176
     0
 62
     7
420
 16777215
176
     0
 90
        1
176
     0
 90
        4
176
     0
 62
     7
176
     0
 62
   257
176
     0
 90
        1
176
     0
 90
        1
176
     0
 40
1.0
176
     0
 90
        9
176
     2
 62
     7
176
     0
 40
1.0
176
     0
 90
        1
176
     0
 90
        6
176
     0
 90
        2
176
     0
 62
     7
176
     0
 90
        5
176
     0
 90
        0
176
     0
 90
        0
176
     0
290
     0
176
     0
 90
        1
176
     0
 40
0.0
176
     0
 90
        0
176
     0
290
     0
176
     0
290
     1
176
     0
290
     1
176
     0
290
     0
176
     0
290
     0
176
     0
290
     0
176
     0
290
     0
176
     0
290
     0
176
     0
290
     0
176
     0
 90
       50
176
     0
 40
0.0
176
     0
 40
1.0
176
     0
 90
        0
176
     0
 62
    18
420
        0
176
     0
 90
       50
176
     0
 90
        3
176
     0
 62
     5
420
      255
176
     0
290
     0
176
     0
 90
       50
176
     0
 90
       50
176
     0
 90
       50
176
     0
290
     0
176
     0
 90
       50
176
     0
 62
   256
176
     0
 40
1.0
176
     0
 90
        2
176
     0
  1
strokes_ogs.tif
176
     0
290
     0
176
     0
 40
1.0
176
     0
 40
1.0
176
     0
1001
ACAD
1000
AcDbSavedByObjectVersion
1070
     0
  0
VISUALSTYLE
  5
33
102
{ACAD_REACTORS
330
29
102
}
330
29
100
AcDbVisualStyle
  2
Realistic
 70
     8
177
     3
291
     0
 70
    58
 90
        2
176
     1
 90
        3
176
     1
 90
        0
176
     1
 90
        2
176
     1
 40
0.6
176
     1
 40
30.0
176
     1
 62
     7
420
 16777215
176
     1
 90
        0
176
     1
 90
        0
176
     1
 62
     7
176
     1
 62
   257
176
     1
 90
        1
176
     1
 90
        1
176
     1
 40
1.0
176
     1
 90
        8
176
     1
 62
   257
176
     1
 40
1.0
176
     1
 90
        1
176
     1
 90
        6
176
     1
 90
        2
176
     1
 62
     7
176
     1
 90
        3
176
     1
 90
        0
176
     1
 90
        0
176
     1
290
     0
176
     1
 90
       13
176
     1
 40
0.0
176
     1
 90
        0
176
     1
290
     0
176
     1
290
     1
176
     1
290
     1
176
     1
290
     0
176
     1
290
     0
176
     1
290
     0
176
     1
290
     0
176
     1
290
     0
176
     1
290
     0
176
     1
 90
       50
176
     1
 40
0.0
176
     1
 40
1.0
176
     1
 90
        0
176
     1
 62
    18
420
        0
176
     1
 90
       50
176
     1
 90
        3
176
     1
 62
     5
420
      255
176
     1
290
     0
176
     1
 90
       50
176
     1
 90
       50
176
     1
 90
       50
176
     1
290
     0
176
     1
 90
       50
176
     1
 62
   256
176
     0
 40
1.0
176
     0
 90
        2
176
     1
  1
strokes_ogs.tif
176
     1
290
     0
176
     1
 40
1.0
176
     1
 40
1.0
176
     1
1001
ACAD
1000
AcDbSavedByObjectVersion
1070
     0
  0
VISUALSTYLE
  5
3E
102
{ACAD_REACTORS
330
29
102
}
330
29
100
AcDbVisualStyle
  2
Shaded
 70
    27
177
     3
291
     0
 70
    58
 90
        2
176
     1
 90
        2
176
     1
 90
        1
176
     1
 90
        2
176
     1
 40
0.6
176
     1
 40
30.0
176
     1
 62
     7
420
 16777215
176
     1
 90
        0
176
     1
 90
        4
176
     1
 62
     7
176
     1
 62
   257
176
     1
 90
        1
176
     1
 90
        1
176
     1
 40
1.0
176
     1
 90
        8
176
     1
 62
   257
176
     1
 40
1.0
176
     1
 90
        1
176
     1
 90
        6
176
     1
 90
        2
176
     1
 62
     8
420
  7895160
176
     1
 90
        3
176
     1
 90
        0
176
     1
 90
        0
176
     1
290
     0
176
     1
 90
        5
176
     1
 40
0.0
176
     1
 90
        0
176
     1
290
     0
176
     1
290
     1
176
     1
290
     1
176
     1
290
     0
176
     1
290
     0
176
     1
290
     0
176
     1
290
     0
176
     1
290
     0
176
     1
290
     0
176
     1
 90
       50
176
     1
 40
0.0
176
     1
 40
1.0
176
     1
 90
        0
176
     1
 62
    18
420
        0
176
     1
 90
       50
176
     1
 90
        3
176
     1
 62
     5
420
      255
176
     1
290
     0
176
     1
 90
       50
176
     1
 90
       50
176
     1
 90
       50
176
     1
290
     0
176
     1
 90
       50
176
     1
 62
   256
176
     0
 40
1.0
176
     0
 90
        2
176
     1
  1
strokes_ogs.tif
176
     1
290
     0
176
     1
 40
1.0
176
     1
 40
1.0
176
     1
1001
ACAD
1000
AcDbSavedByObjectVersion
1070
     0
  0
VISUALSTYLE
  5
3D
102
{ACAD_REACTORS
330
29
102
}
330
29
100
AcDbVisualStyle
  2
Shaded with edges
 70
    26
177
     3
291
     0
 70
    58
 90
        2
176
     1
 90
        2
176
     1
 90
        1
176
     1
 90
        2
176
     1
 40
0.6
176
     1
 40
30.0
176
     1
 62
     7
420
 16777215
176
     1
 90
        1
176
     1
 90
        2
176
     1
 62
     7
176
     1
 62
   257
176
     1
 90
        2
176
     1
 90
        1
176
     1
 40
1.0
176
     1
 90
        8
176
     1
 62
   257
176
     1
 40
1.0
176
     1
 90
        1
176
     1
 90
        6
176
     1
 90
        2
176
     1
 62
     7
176
     1
 90
        3
176
     1
 90
        0
176
     1
 90
        0
176
     1
290
     0
176
     1
 90
        5
176
     1
 40
0.0
176
     1
 90
        0
176
     1
290
     0
176
     1
290
     1
176
     1
290
     1
176
     1
290
     0
176
     1
290
     0
176
     1
290
     0
176
     1
290
     0
176
     1
290
     0
176
     1
290
     0
176
     1
 90
       50
176
     1
 40
0.0
176
     1
 40
1.0
176
     1
 90
        0
176
     1
 62
    18
420
        0
176
     1
 90
       50
176
     1
 90
        3
176
     1
 62
     5
420
      255
176
     1
290
     0
176
     1
 90
       50
176
     1
 90
       50
176
     1
 90
       50
176
     1
290
     0
176
     1
 90
       50
176
     1
 62
   256
176
     0
 40
1.0
176
     0
 90
        2
176
     1
  1
strokes_ogs.tif
176
     1
290
     0
176
     1
 40
1.0
176
     1
 40
1.0
176
     1
1001
ACAD
1000
AcDbSavedByObjectVersion
1070
     0
  0
VISUALSTYLE
  5
3A
102
{ACAD_REACTORS
330
29
102
}
330
29
100
AcDbVisualStyle
  2
Shades of Gray
 70
    23
177
     3
291
     0
 70
    58
 90
        2
176
     1
 90
        2
176
     1
 90
        3
176
     1
 90
        0
176
     1
 40
0.6
176
     1
 40
30.0
176
     1
 62
     7
420
 16777215
176
     1
 90
        2
176
     1
 90
        2
176
     1
 62
     7
176
     1
 62
     7
176
     1
 90
        1
176
     1
 90
        1
176
     1
 40
40.0
176
     1
 90
        8
176
     1
 62
     7
176
     1
 40
1.0
176
     1
 90
        1
176
     1
 90
        6
176
     1
 90
        2
176
     1
 62
     7
176
     1
 90
        3
176
     1
 90
        0
176
     1
 90
        0
176
     1
290
     0
176
     1
 90
        1
176
     1
 40
0.0
176
     1
 90
        0
176
     1
290
     0
176
     1
290
     1
176
     1
290
     1
176
     1
290
     0
176
     1
290
     0
176
     1
290
     0
176
     1
290
     0
176
     1
290
     0
176
     1
290
     0
176
     1
 90
       50
176
     1
 40
0.0
176
     1
 40
1.0
176
     1
 90
        0
176
     1
 62
    18
420
        0
176
     1
 90
       50
176
     1
 90
        3
176
     1
 62
     5
420
      255
176
     1
290
     0
176
     1
 90
       50
176
     1
 90
       50
176
     1
 90
       50
176
     1
290
     0
176
     1
 90
       50
176
     1
 62
   256
176
     0
 40
1.0
176
     0
 90
        2
176
     1
  1
strokes_ogs.tif
176
     1
290
     0
176
     1
 40
1.0
176
     1
 40
1.0
176
     1
1001
ACAD
1000
AcDbSavedByObjectVersion
1070
     0
  0
VISUALSTYLE
  5
3B
102
{ACAD_REACTORS
330
29
102
}
330
29
100
AcDbVisualStyle
  2
Sketchy
 70
    24
177
     3
291
     0
 70
    58
 90
        1
176
     1
 90
        2
176
     1
 90
        2
176
     1
 90
        0
176
     1
 40
0.6
176
     1
 40
30.0
176
     1
 62
     7
420
 16777215
176
     1
 90
        2
176
     1
 90
        2
176
     1
 62
     7
176
     1
 62
     7
176
     1
 90
        1
176
     1
 90
        1
176
     1
 40
40.0
176
     1
 90
       11
176
     1
 62
     7
176
     1
 40
1.0
176
     1
 90
        1
176
     1
 90
        6
176
     1
 90
        2
176
     1
 62
     7
176
     1
 90
        6
176
     1
 90
        0
176
     1
 90
        0
176
     1
290
     0
176
     1
 90
        1
176
     1
 40
0.0
176
     1
 90
        0
176
     1
290
     0
176
     1
290
     1
176
     1
290
     1
176
     1
290
     0
176
     1
290
     0
176
     1
290
     0
176
     1
290
     0
176
     1
290
     0
176
     1
290
     0
176
     1
 90
       50
176
     1
 40
0.0
176
     1
 40
1.0
176
     1
 90
        0
176
     1
 62
    18
420
        0
176
     1
 90
       50
176
     1
 90
        3
176
     1
 62
     5
420
      255
176
     1
290
     0
176
     1
 90
       50
176
     1
 90
       50
176
     1
 90
       50
176
     1
290
     0
176
     1
 90
       50
176
     1
 62
   256
176
     0
 40
1.0
176
     0
 90
        2
176
     1
  1
strokes_ogs.tif
176
     1
290
     0
176
     1
 40
1.0
176
     1
 40
1.0
176
     1
1001
ACAD
1000
AcDbSavedByObjectVersion
1070
     0
  0
VISUALSTYLE
  5
36
102
{ACAD_REACTORS
330
29
102
}
330
29
100
AcDbVisualStyle
  2
Thicken
 70
    13
177
     3
291
     1
 70
    58
 90
        2
176
     1
 90
        2
176
     1
 90
        0
176
     1
 90
        0
176
     1
 40
0.6
176
     1
 40
30.0
176
     1
 62
     7
420
 16777215
176
     1
 90
        1
176
     1
 90
        4
176
     1
 62
     7
176
     1
 62
   257
176
     1
 90
        1
176
     1
 90
        1
176
     1
 40
1.0
176
     1
 90
       12
176
     1
 62
     7
176
     1
 40
1.0
176
     1
 90
        1
176
     1
 90
        6
176
     1
 90
        2
176
     1
 62
     7
176
     1
 90
        5
176
     1
 90
        0
176
     1
 90
        0
176
     1
290
     0
176
     1
 90
        1
176
     1
 40
0.0
176
     1
 90
        0
176
     1
290
     0
176
     1
290
     1
176
     1
290
     1
176
     1
290
     0
176
     1
290
     0
176
     1
290
     0
176
     1
290
     0
176
     1
290
     0
176
     1
290
     0
176
     1
 90
       50
176
     1
 40
0.0
176
     1
 40
1.0
176
     1
 90
        0
176
     1
 62
    18
420
        0
176
     1
 90
       50
176
     1
 90
        3
176
     1
 62
     5
420
      255
176
     1
290
     0
176
     1
 90
       50
176
     1
 90
       50
176
     1
 90
       50
176
     1
290
     0
176
     1
 90
       50
176
     1
 62
   256
176
     0
 40
1.0
176
     0
 90
        2
176
     1
  1
strokes_ogs.tif
176
     1
290
     0
176
     1
 40
1.0
176
     1
 40
1.0
176
     1
1001
ACAD
1000
AcDbSavedByObjectVersion
1070
     0
  0
VISUALSTYLE
  5
30
102
{ACAD_REACTORS
330
29
102
}
330
29
100
AcDbVisualStyle
  2
Wireframe
 70
     5
177
     3
291
     0
 70
    58
 90
        0
176
     1
 90
        2
176
     1
 90
        0
176
     1
 90
        0
176
     1
 40
0.6
176
     1
 40
30.0
176
     1
 62
     7
420
 16777215
176
     1
 90
        1
176
     1
 90
        4
176
     1
 62
     7
176
     1
 62
   257
176
     1
 90
        1
176
     1
 90
        1
176
     1
 40
1.0
176
     1
 90
        0
176
     1
 62
   257
176
     1
 40
1.0
176
     1
 90
        1
176
     1
 90
        6
176
     1
 90
        2
176
     1
 62
     7
176
     1
 90
        3
176
     1
 90
        0
176
     1
 90
        0
176
     1
290
     0
176
     1
 90
        1
176
     1
 40
0.0
176
     1
 90
        0
176
     1
290
     0
176
     1
290
     1
176
     1
290
     1
176
     1
290
     0
176
     1
290
     0
176
     1
290
     0
176
     1
290
     0
176
     1
290
     0
176
     1
290
     0
176
     1
 90
       50
176
     1
 40
0.0
176
     1
 40
1.0
176
     1
 90
        0
176
     1
 62
    18
420
        0
176
     1
 90
       50
176
     1
 90
        3
176
     1
 62
     5
420
      255
176
     1
290
     0
176
     1
 90
       50
176
     1
 90
       50
176
     1
 90
       50
176
     1
290
     0
176
     1
 90
       50
176
     1
 62
   256
176
     0
 40
1.0
176
     0
 90
        2
176
     1
  1
strokes_ogs.tif
176
     1
290
     0
176
     1
 40
1.0
176
     1
 40
1.0
176
     1
1001
ACAD
1000
AcDbSavedByObjectVersion
1070
     0
  0
VISUALSTYLE
  5
3C
102
{ACAD_REACTORS
330
29
102
}
330
29
100
AcDbVisualStyle
  2
X-Ray
 70
    25
177
     3
291
     0
 70
    58
 90
        2
176
     1
 90
        2
176
     1
 90
        1
176
     1
 90
        1
176
     1
 40
0.5
176
     1
 40
30.0
176
     1
 62
     7
420
 16777215
176
     1
 90
        1
176
     1
 90
        0
176
     1
 62
     7
176
     1
 62
   257
176
     1
 90
        1
176
     1
 90
        1
176
     1
 40
1.0
176
     1
 90
        8
176
     1
 62
     7
176
     1
 40
1.0
176
     1
 90
        1
176
     1
 90
        6
176
     1
 90
        2
176
     1
 62
     7
176
     1
 90
        3
176
     1
 90
        0
176
     1
 90
        0
176
     1
290
     0
176
     1
 90
       13
176
     1
 40
0.0
176
     1
 90
        0
176
     1
290
     0
176
     1
290
     1
176
     1
290
     1
176
     1
290
     0
176
     1
290
     0
176
     1
290
     0
176
     1
290
     0
176
     1
290
     0
176
     1
290
     0
176
     1
 90
       50
176
     1
 40
0.0
176
     1
 40
1.0
176
     1
 90
        0
176
     1
 62
    18
420
        0
176
     1
 90
       50
176
     1
 90
        3
176
     1
 62
     5
420
      255
176
     1
290
     0
176
     1
 90
       50
176
     1
 90
       50
176
     1
 90
       50
176
     1
290
     0
176
     1
 90
       50
176
     1
 62
   256
176
     0
 40
1.0
176
     0
 90
        2
176
     1
  1
strokes_ogs.tif
176
     1
290
     0
176
     1
 40
1.0
176
     1
 40
1.0
176
     1
1001
ACAD
1000
AcDbSavedByObjectVersion
1070
     0
  0
DICTIONARYVAR
  5
4A3
102
{ACAD_REACTORS
330
49E
102
}
330
49E
100
DictionaryVariables
280
     0
  1
0
  0
DICTIONARYVAR
  5
4A4
102
{ACAD_REACTORS
330
49E
102
}
330
49E
100
DictionaryVariables
280
     0
  1
1:1
  0
DICTIONARYVAR
  5
4A0
102
{ACAD_REACTORS
330
49E
102
}
330
49E
100
DictionaryVariables
280
     0
  1
STANDARD
  0
DICTIONARYVAR
  5
49F
102
{ACAD_REACTORS
330
49E
102
}
330
49E
100
DictionaryVariables
280
     0
  1
STANDARD
  0
DICTIONARYVAR
  5
4A1
102
{ACAD_REACTORS
330
49E
102
}
330
49E
100
DictionaryVariables
280
     0
  1
Imperial24
  0
DICTIONARYVAR
  5
4A2
102
{ACAD_REACTORS
330
49E
102
}
330
49E
100
DictionaryVariables
280
     0
  1
Imperial24
  0
DICTIONARY
  5
4AA
330
6B
100
AcDbDictionary
280
     1
281
     1
  3
ACAD_XREC_ROUNDTRIP
360
4AB
  0
DICTIONARY
  5
1A
330
19
100
AcDbDictionary
280
     1
281
     1
  3
BUMPTILE
360
1C
  3
DIFFUSETILE
360
1B
  3
OPACITYTILE
360
1F
  3
REFLECTIONTILE
360
1E
  3
REFRACTIONTILE
360
20
  3
SPECULARTILE
360
1D
  0
DICTIONARY
  5
12
330
11
100
AcDbDictionary
280
     1
281
     1
  3
BUMPTILE
360
14
  3
DIFFUSETILE
360
13
  3
OPACITYTILE
360
17
  3
REFLECTIONTILE
360
16
  3
REFRACTIONTILE
360
18
  3
SPECULARTILE
360
15
  0
DICTIONARY
  5
22
330
21
100
AcDbDictionary
280
     1
281
     1
  3
BUMPTILE
360
24
  3
DIFFUSETILE
360
23
  3
OPACITYTILE
360
27
  3
REFLECTIONTILE
360
26
  3
REFRACTIONTILE
360
28
  3
SPECULARTILE
360
25
  0
DICTIONARY
  5
4A8
330
69
100
AcDbDictionary
280
     1
281
     1
  3
ACAD_XREC_ROUNDTRIP
360
4A9
  0
DICTIONARY
  5
4A5
330
65
100
AcDbDictionary
280
     1
281
     1
  3
ACAD_ROUNDTRIP_2008_TABLESTYLE_CELLSTYLEMAP
360
4A6
  0
XRECORD
  5
4AB
102
{ACAD_REACTORS
330
4AA
102
}
330
4AA
100
AcDbXrecord
280
     1
102
DISPLAYNAME
  1
Imperial24
102
FLAGS
 90
        0
  0
XRECORD
  5
1C
102
{ACAD_REACTORS
330
1A
102
}
330
1A
100
AcDbXrecord
280
     1
270
     1
271
     1
  0
XRECORD
  5
1B
102
{ACAD_REACTORS
330
1A
102
}
330
1A
100
AcDbXrecord
280
     1
270
     1
271
     1
  0
XRECORD
  5
1F
102
{ACAD_REACTORS
330
1A
102
}
330
1A
100
AcDbXrecord
280
     1
270
     1
271
     1
  0
XRECORD
  5
1E
102
{ACAD_REACTORS
330
1A
102
}
330
1A
100
AcDbXrecord
280
     1
270
     1
271
     1
  0
XRECORD
  5
20
102
{ACAD_REACTORS
330
1A
102
}
330
1A
100
AcDbXrecord
280
     1
270
     1
271
     1
  0
XRECORD
  5
1D
102
{ACAD_REACTORS
330
1A
102
}
330
1A
100
AcDbXrecord
280
     1
270
     1
271
     1
  0
XRECORD
  5
14
102
{ACAD_REACTORS
330
12
102
}
330
12
100
AcDbXrecord
280
     1
270
     1
271
     1
  0
XRECORD
  5
13
102
{ACAD_REACTORS
330
12
102
}
330
12
100
AcDbXrecord
280
     1
270
     1
271
     1
  0
XRECORD
  5
17
102
{ACAD_REACTORS
330
12
102
}
330
12
100
AcDbXrecord
280
     1
270
     1
271
     1
  0
XRECORD
  5
16
102
{ACAD_REACTORS
330
12
102
}
330
12
100
AcDbXrecord
280
     1
270
     1
271
     1
  0
XRECORD
  5
18
102
{ACAD_REACTORS
330
12
102
}
330
12
100
AcDbXrecord
280
     1
270
     1
271
     1
  0
XRECORD
  5
15
102
{ACAD_REACTORS
330
12
102
}
330
12
100
AcDbXrecord
280
     1
270
     1
271
     1
  0
XRECORD
  5
24
102
{ACAD_REACTORS
330
22
102
}
330
22
100
AcDbXrecord
280
     1
270
     1
271
     1
  0
XRECORD
  5
23
102
{ACAD_REACTORS
330
22
102
}
330
22
100
AcDbXrecord
280
     1
270
     1
271
     1
  0
XRECORD
  5
27
102
{ACAD_REACTORS
330
22
102
}
330
22
100
AcDbXrecord
280
     1
270
     1
271
     1
  0
XRECORD
  5
26
102
{ACAD_REACTORS
330
22
102
}
330
22
100
AcDbXrecord
280
     1
270
     1
271
     1
  0
XRECORD
  5
28
102
{ACAD_REACTORS
330
22
102
}
330
22
100
AcDbXrecord
280
     1
270
     1
271
     1
  0
XRECORD
  5
25
102
{ACAD_REACTORS
330
22
102
}
330
22
100
AcDbXrecord
280
     1
270
     1
271
     1
  0
XRECORD
  5
4A9
102
{ACAD_REACTORS
330
4A8
102
}
330
4A8
100
AcDbXrecord
280
     1
102
DISPLAYNAME
  1
Imperial24
102
FLAGS
 90
        0
  0
CELLSTYLEMAP
  5
4A6
102
{ACAD_REACTORS
330
4A5
102
}
330
4A5
100
AcDbCellStyleMap
 90
        3
300
CELLSTYLE
  1
TABLEFORMAT_BEGIN
 90
        5
170
     1
 91
        0
 92
    32768
 62
   257
 93
        1
300
CONTENTFORMAT
  1
CONTENTFORMAT_BEGIN
 90
        0
 91
        0
 92
      512
 93
        0
300

 40
0.0
140
1.0
 94
        5
 62
     0
340
55
144
0.25
309
CONTENTFORMAT_END
171
     0
 94
        0
309
TABLEFORMAT_END
  1
CELLSTYLE_BEGIN
 90
        1
 91
        1
300
_TITLE
309
CELLSTYLE_END
300
CELLSTYLE
  1
TABLEFORMAT_BEGIN
 90
        5
170
     1
 91
        0
 92
        0
 62
   257
 93
        1
300
CONTENTFORMAT
  1
CONTENTFORMAT_BEGIN
 90
        0
 91
        0
 92
      512
 93
        0
300

 40
0.0
140
1.0
 94
        5
 62
     0
340
55
144
0.18
309
CONTENTFORMAT_END
171
     0
 94
        0
309
TABLEFORMAT_END
  1
CELLSTYLE_BEGIN
 90
        2
 91
        1
300
_HEADER
309
CELLSTYLE_END
300
CELLSTYLE
  1
TABLEFORMAT_BEGIN
 90
        5
170
     1
 91
        0
 92
        0
 62
   257
 93
        1
300
CONTENTFORMAT
  1
CONTENTFORMAT_BEGIN
 90
        0
 91
        0
 92
      512
 93
        0
300

 40
0.0
140
1.0
 94
        2
 62
     0
340
55
144
0.18
309
CONTENTFORMAT_END
171
     0
 94
        0
309
TABLEFORMAT_END
  1
CELLSTYLE_BEGIN
 90
        3
 91
        2
300
_DATA
309
CELLSTYLE_END
  0
ENDSEC
  0
EOF
