  0
SECTION
  2
HEADER
  9
$ACADVER
  1
AC1027
  9
$ACADMAINTVER
 70
   125
  9
$DWGCODEPAGE
  3
ANSI_1252
  9
$LASTSAVEDBY
  1
Administrator
  9
$REQUIREDVERSIONS
160
                 0
  9
$INSBASE
 10
0.0
 20
0.0
 30
0.0
  9
$EXTMIN
 10
0.0
 20
0.0
 30
-1.643422
  9
$EXTMAX
 10
17.0
 20
11.0
 30
2.524665
  9
$LIMMIN
 10
0.0
 20
0.0
  9
$LIMMAX
 10
17.0
 20
11.0
  9
$ORTHOMODE
 70
     0
  9
$REGENMODE
 70
     1
  9
$FILLMODE
 70
     1
  9
$QTEXTMODE
 70
     0
  9
$MIRRTEXT
 70
     0
  9
$LTSCALE
 40
0.75
  9
$ATTMODE
 70
     1
  9
$TEXTSIZE
 40
0.12
  9
$TRACEWID
 40
0.05
  9
$TEXTSTYLE
  7
Standard
  9
$CLAYER
  8
Titleblock
  9
$CELTYPE
  6
ByLayer
  9
$CECOLOR
 62
   256
  9
$CELTSCALE
 40
1.0
  9
$DISPSILH
 70
     0
  9
$DIMSCALE
 40
1.0
  9
$DIMASZ
 40
0.12
  9
$DIMEXO
 40
0.05
  9
$DIMDLI
 40
0.339411
  9
$DIMRND
 40
0.0
  9
$DIMDLE
 40
0.0
  9
$DIMEXE
 40
0.1
  9
$DIMTP
 40
0.01
  9
$DIMTM
 40
0.01
  9
$DIMTXT
 40
0.12
  9
$DIMCEN
 40
0.0
  9
$DIMTSZ
 40
0.0
  9
$DIMTOL
 70
     0
  9
$DIMLIM
 70
     0
  9
$DIMTIH
 70
     1
  9
$DIMTOH
 70
     1
  9
$DIMSE1
 70
     0
  9
$DIMSE2
 70
     0
  9
$DIMTAD
 70
     0
  9
$DIMZIN
 70
    12
  9
$DIMBLK
  1

  9
$DIMASO
 70
     1
  9
$DIMSHO
 70
     1
  9
$DIMPOST
  1
in
  9
$DIMAPOST
  1
mm
  9
$DIMALT
 70
     0
  9
$DIMALTD
 70
     2
  9
$DIMALTF
 40
25.4
  9
$DIMLFAC
 40
1.0
  9
$DIMTOFL
 70
     0
  9
$DIMTVP
 40
0.0
  9
$DIMTIX
 70
     0
  9
$DIMSOXD
 70
     0
  9
$DIMSAH
 70
     0
  9
$DIMBLK1
  1

  9
$DIMBLK2
  1

  9
$DIMSTYLE
  2
Standard
  9
$DIMCLRD
 70
   256
  9
$DIMCLRE
 70
   256
  9
$DIMCLRT
 70
   256
  9
$DIMTFAC
 40
1.0
  9
$DIMGAP
 40
0.06
  9
$DIMJUST
 70
     0
  9
$DIMSD1
 70
     0
  9
$DIMSD2
 70
     0
  9
$DIMTOLJ
 70
     1
  9
$DIMTZIN
 70
    12
  9
$DIMALTZ
 70
    12
  9
$DIMALTTZ
 70
    12
  9
$DIMUPT
 70
     0
  9
$DIMDEC
 70
     2
  9
$DIMTDEC
 70
     2
  9
$DIMALTU
 70
     2
  9
$DIMALTTD
 70
     2
  9
$DIMTXSTY
  7
Standard
  9
$DIMAUNIT
 70
     0
  9
$DIMADEC
 70
     2
  9
$DIMALTRND
 40
0.0
  9
$DIMAZIN
 70
     3
  9
$DIMDSEP
 70
    46
  9
$DIMATFIT
 70
     3
  9
$DIMFRAC
 70
     0
  9
$DIMLDRBLK
  1

  9
$DIMLUNIT
 70
     2
  9
$DIMLWD
 70
    -2
  9
$DIMLWE
 70
    -2
  9
$DIMTMOVE
 70
     0
  9
$DIMFXL
 40
1.0
  9
$DIMFXLON
 70
     0
  9
$DIMJOGANG
 40
0.785398
  9
$DIMTFILL
 70
     0
  9
$DIMTFILLCLR
 70
     0
  9
$DIMARCSYM
 70
     1
  9
$DIMLTYPE
  6

  9
$DIMLTEX1
  6

  9
$DIMLTEX2
  6

  9
$DIMTXTDIRECTION
 70
     0
  9
$LUNITS
 70
     2
  9
$LUPREC
 70
     4
  9
$SKETCHINC
 40
0.1
  9
$FILLETRAD
 40
0.0
  9
$AUNITS
 70
     0
  9
$AUPREC
 70
     0
  9
$MENU
  1
.
  9
$ELEVATION
 40
0.0
  9
$PELEVATION
 40
0.0
  9
$THICKNESS
 40
0.0
  9
$LIMCHECK
 70
     0
  9
$CHAMFERA
 40
0.0
  9
$CHAMFERB
 40
0.0
  9
$CHAMFERC
 40
0.0
  9
$CHAMFERD
 40
0.0
  9
$SKPOLY
 70
     0
  9
$TDCREATE
 40
2458890.570185185
  9
$TDUCREATE
 40
2458890.903518518
  9
$TDUPDATE
 40
2458890.570185185
  9
$TDUUPDATE
 40
2458890.903518518
  9
$TDINDWG
 40
0.0000000000
  9
$TDUSRTIMER
 40
0.0000000000
  9
$USRTIMER
 70
     1
  9
$ANGBASE
 50
0.0
  9
$ANGDIR
 70
     0
  9
$PDMODE
 70
     0
  9
$PDSIZE
 40
0.0
  9
$PLINEWID
 40
0.0
  9
$SPLFRAME
 70
     0
  9
$SPLINETYPE
 70
     6
  9
$SPLINESEGS
 70
     8
  9
$HANDSEED
  5
4E0
  9
$SURFTAB1
 70
     6
  9
$SURFTAB2
 70
     6
  9
$SURFTYPE
 70
     6
  9
$SURFU
 70
     6
  9
$SURFV
 70
     6
  9
$UCSBASE
  2

  9
$UCSNAME
  2

  9
$UCSORG
 10
0.0
 20
0.0
 30
0.0
  9
$UCSXDIR
 10
1.0
 20
0.0
 30
0.0
  9
$UCSYDIR
 10
0.0
 20
1.0
 30
0.0
  9
$UCSORTHOREF
  2

  9
$UCSORTHOVIEW
 70
     0
  9
$UCSORGTOP
 10
0.0
 20
0.0
 30
0.0
  9
$UCSORGBOTTOM
 10
0.0
 20
0.0
 30
0.0
  9
$UCSORGLEFT
 10
0.0
 20
0.0
 30
0.0
  9
$UCSORGRIGHT
 10
0.0
 20
0.0
 30
0.0
  9
$UCSORGFRONT
 10
0.0
 20
0.0
 30
0.0
  9
$UCSORGBACK
 10
0.0
 20
0.0
 30
0.0
  9
$PUCSBASE
  2

  9
$PUCSNAME
  2

  9
$PUCSORG
 10
0.0
 20
0.0
 30
0.0
  9
$PUCSXDIR
 10
1.0
 20
0.0
 30
0.0
  9
$PUCSYDIR
 10
0.0
 20
1.0
 30
0.0
  9
$PUCSORTHOREF
  2

  9
$PUCSORTHOVIEW
 70
     0
  9
$PUCSORGTOP
 10
0.0
 20
0.0
 30
0.0
  9
$PUCSORGBOTTOM
 10
0.0
 20
0.0
 30
0.0
  9
$PUCSORGLEFT
 10
0.0
 20
0.0
 30
0.0
  9
$PUCSORGRIGHT
 10
0.0
 20
0.0
 30
0.0
  9
$PUCSORGFRONT
 10
0.0
 20
0.0
 30
0.0
  9
$PUCSORGBACK
 10
0.0
 20
0.0
 30
0.0
  9
$USERI1
 70
     0
  9
$USERI2
 70
     0
  9
$USERI3
 70
     0
  9
$USERI4
 70
     0
  9
$USERI5
 70
     0
  9
$USERR1
 40
0.0
  9
$USERR2
 40
0.0
  9
$USERR3
 40
0.0
  9
$USERR4
 40
0.0
  9
$USERR5
 40
0.0
  9
$WORLDVIEW
 70
     1
  9
$SHADEDGE
 70
     3
  9
$SHADEDIF
 70
    70
  9
$TILEMODE
 70
     1
  9
$MAXACTVP
 70
    64
  9
$PINSBASE
 10
0.0
 20
0.0
 30
0.0
  9
$PLIMCHECK
 70
     0
  9
$PEXTMIN
 10
1.000000E+20
 20
1.000000E+20
 30
1.000000E+20
  9
$PEXTMAX
 10
-1.000000E+20
 20
-1.000000E+20
 30
-1.000000E+20
  9
$PLIMMIN
 10
0.0
 20
0.0
  9
$PLIMMAX
 10
12.0
 20
9.0
  9
$UNITMODE
 70
     0
  9
$VISRETAIN
 70
     1
  9
$PLINEGEN
 70
     0
  9
$PSLTSCALE
 70
     1
  9
$TREEDEPTH
 70
  3020
  9
$CMLSTYLE
  2
Standard
  9
$CMLJUST
 70
     0
  9
$CMLSCALE
 40
1.0
  9
$PROXYGRAPHICS
 70
     1
  9
$MEASUREMENT
 70
     0
  9
$CELWEIGHT
370
    -1
  9
$ENDCAPS
280
     0
  9
$JOINSTYLE
280
     0
  9
$LWDISPLAY
290
     0
  9
$INSUNITS
 70
     1
  9
$HYPERLINKBASE
  1

  9
$STYLESHEET
  1

  9
$XEDIT
290
     1
  9
$CEPSNTYPE
380
     0
  9
$PSTYLEMODE
290
     1
  9
$FINGERPRINTGUID
  2
{F737D0AF-F0B5-FA45-9884-BEBDE909C828}
  9
$VERSIONGUID
  2
{8DB887F7-C9AF-DF48-9CB4-F268F7081F8E}
  9
$EXTNAMES
290
     1
  9
$PSVPSCALE
 40
0.0
  9
$OLESTARTUP
290
     0
  9
$SORTENTS
280
   127
  9
$INDEXCTL
280
     0
  9
$HIDETEXT
280
     1
  9
$XCLIPFRAME
280
     2
  9
$HALOGAP
280
     0
  9
$OBSCOLOR
 70
   257
  9
$OBSLTYPE
280
     0
  9
$INTERSECTIONDISPLAY
280
     0
  9
$INTERSECTIONCOLOR
 70
   257
  9
$DIMASSOC
280
     2
  9
$PROJECTNAME
  1

  9
$CAMERADISPLAY
290
     0
  9
$LENSLENGTH
 40
50.0
  9
$CAMERAHEIGHT
 40
0.0
  9
$STEPSPERSEC
 40
2.0
  9
$STEPSIZE
 40
6.0
  9
$3DDWFPREC
 40
2.0
  9
$PSOLWIDTH
 40
0.25
  9
$PSOLHEIGHT
 40
4.0
  9
$LOFTANG1
 40
1.570796
  9
$LOFTANG2
 40
1.570796
  9
$LOFTMAG1
 40
0.0
  9
$LOFTMAG2
 40
0.0
  9
$LOFTPARAM
 70
     7
  9
$LOFTNORMALS
280
     1
  9
$LATITUDE
 40
37.795
  9
$LONGITUDE
 40
-122.394
  9
$NORTHDIRECTION
 40
0.0
  9
$TIMEZONE
 70
 -8000
  9
$LIGHTGLYPHDISPLAY
280
     1
  9
$TILEMODELIGHTSYNCH
280
     1
  9
$CMATERIAL
347
11
  9
$SOLIDHIST
280
     0
  9
$SHOWHIST
280
     1
  9
$DWFFRAME
280
     2
  9
$DGNFRAME
280
     0
  9
$REALWORLDSCALE
290
     1
  9
$INTERFERECOLOR
 62
     1
  9
$INTERFEREOBJVS
345
33
  9
$INTERFEREVPVS
346
30
  9
$CSHADOW
280
     0
  9
$SHADOWPLANELOCATION
 40
0.0
  0
ENDSEC
  0
SECTION
  2
CLASSES
  0
CLASS
  1
ACDBDICTIONARYWDFLT
  2
AcDbDictionaryWithDefault
  3
ObjectDBX Classes
 90
        0
 91
        1
280
     0
281
     0
  0
CLASS
  1
MATERIAL
  2
AcDbMaterial
  3
ObjectDBX Classes
 90
     1153
 91
        3
280
     0
281
     0
  0
CLASS
  1
VISUALSTYLE
  2
AcDbVisualStyle
  3
ObjectDBX Classes
 90
     4095
 91
       24
280
     0
281
     0
  0
CLASS
  1
SCALE
  2
AcDbScale
  3
ObjectDBX Classes
 90
     1153
 91
       33
280
     0
281
     0
  0
CLASS
  1
TABLESTYLE
  2
AcDbTableStyle
  3
ObjectDBX Classes
 90
     4095
 91
        1
280
     0
281
     0
  0
CLASS
  1
MLEADERSTYLE
  2
AcDbMLeaderStyle
  3
ACDB_MLEADERSTYLE_CLASS
 90
     4095
 91
        1
280
     0
281
     0
  0
CLASS
  1
ACDBSECTIONVIEWSTYLE
  2
AcDbSectionViewStyle
  3
ObjectDBX Classes
 90
     1025
 91
        1
280
     0
281
     0
  0
CLASS
  1
ACDBDETAILVIEWSTYLE
  2
AcDbDetailViewStyle
  3
ObjectDBX Classes
 90
     1025
 91
        1
280
     0
281
     0
  0
CLASS
  1
ACMESCOPE
  2
AcMeScope
  3
AcMeServices
 90
     1024
 91
        1
280
     0
281
     0
  0
CLASS
  1
ACMECOMMANDHISTORY
  2
AcMeCommandHistory
  3
AcMeServices
 90
     1024
 91
        1
280
     0
281
     0
  0
CLASS
  1
ACIMSYSVARMAN
  2
AcImSysVarManager
  3
AcMeServices
 90
     1024
 91
        1
280
     0
281
     0
  0
CLASS
  1
ACIMINTSYSVAR
  2
AcImIntSysVar
  3
AcMeServices
 90
     1024
 91
        1
280
     0
281
     0
  0
CLASS
  1
ACMESTATEMGR
  2
AcMeStateMgr
  3
AcMeServices
 90
     1024
 91
        1
280
     0
281
     0
  0
CLASS
  1
ACGREFMASTER
  2
AcGrefMaster
  3
AcAttribServices
 90
     1024
 91
        1
280
     0
281
     0
  0
CLASS
  1
SORTENTSTABLE
  2
AcDbSortentsTable
  3
ObjectDBX Classes
 90
        0
 91
        6
280
     0
281
     0
  0
CLASS
  1
IMAGE
  2
AcDbRasterImage
  3
ISM
 90
     2175
 91
        1
280
     0
281
     1
  0
CLASS
  1
IMAGEDEF
  2
AcDbRasterImageDef
  3
ISM
 90
        0
 91
        1
280
     0
281
     0
  0
CLASS
  1
IMAGEDEF_REACTOR
  2
AcDbRasterImageDefReactor
  3
ISM
 90
        1
 91
        2
280
     0
281
     0
  0
CLASS
  1
RASTERVARIABLES
  2
AcDbRasterVariables
  3
ISM
 90
        0
 91
        1
280
     0
281
     0
  0
CLASS
  1
DICTIONARYVAR
  2
AcDbDictionaryVar
  3
ObjectDBX Classes
 90
        0
 91
        6
280
     0
281
     0
  0
CLASS
  1
CELLSTYLEMAP
  2
AcDbCellStyleMap
  3
ObjectDBX Classes
 90
     1152
 91
        1
280
     0
281
     0
  0
ENDSEC
  0
SECTION
  2
TABLES
  0
TABLE
  2
VPORT
  5
8
330
0
100
AcDbSymbolTable
 70
     1
1001
ACAD
1000
DbSaveVer
1071
      251
  0
VPORT
  5
57
330
8
100
AcDbSymbolTableRecord
100
AcDbViewportTableRecord
  2
*Active
 70
     0
 10
0.0
 20
0.0
 11
1.0
 21
1.0
 12
8.5
 22
5.5
 13
0.0
 23
0.0
 14
0.5
 24
0.5
 15
0.0
 25
0.0
 16
0.0
 26
0.0
 36
1.0
 17
0.0
 27
0.0
 37
0.0
 40
11.0
 41
1.778429
 42
50.0
 43
0.0
 44
0.0
 50
0.0
 51
0.0
 71
     0
 72
 20000
 73
     1
 74
     0
 75
     0
 76
     0
 77
     0
 78
     0
281
     0
 65
     1
110
0.0
120
0.0
130
0.0
111
1.0
121
0.0
131
0.0
112
0.0
122
1.0
132
0.0
 79
     0
146
0.0
348
2F
 60
     3
 61
     5
292
     1
282
     1
141
0.0
142
0.0
 63
   250
421
  3355443
  0
ENDTAB
  0
TABLE
  2
LTYPE
  5
5
330
0
100
AcDbSymbolTable
 70
    10
  0
LTYPE
  5
5B
330
5
100
AcDbSymbolTableRecord
100
AcDbLinetypeTableRecord
  2
ByBlock
 70
     0
  3

 72
    65
 73
     0
 40
0.0
  0
LTYPE
  5
5C
330
5
100
AcDbSymbolTableRecord
100
AcDbLinetypeTableRecord
  2
ByLayer
 70
     0
  3

 72
    65
 73
     0
 40
0.0
  0
LTYPE
  5
5D
330
5
100
AcDbSymbolTableRecord
100
AcDbLinetypeTableRecord
  2
Continuous
 70
     0
  3
Solid line
 72
    65
 73
     0
 40
0.0
  0
LTYPE
  5
81
330
5
100
AcDbSymbolTableRecord
100
AcDbLinetypeTableRecord
  2
HIDDEN
 70
     0
  3
Hidden __ __ __ __ __ __ __ __ __ __ __ __ __ _
 72
    65
 73
     2
 40
0.375
 49
0.25
 74
     0
 49
-0.125
 74
     0
  0
LTYPE
  5
82
330
5
100
AcDbSymbolTableRecord
100
AcDbLinetypeTableRecord
  2
PHANTOM2
 70
     0
  3
Phantom (.5x) ___ _ _ ___ _ _ ___ _ _ ___ _ _
 72
    65
 73
     6
 40
1.25
 49
0.625
 74
     0
 49
-0.125
 74
     0
 49
0.125
 74
     0
 49
-0.125
 74
     0
 49
0.125
 74
     0
 49
-0.125
 74
     0
  0
LTYPE
  5
83
330
5
100
AcDbSymbolTableRecord
100
AcDbLinetypeTableRecord
  2
CENTER
 70
     0
  3
Center ____ _ ____ _ ____ _ ____ _ ____ _ ____
 72
    65
 73
     4
 40
2.0
 49
1.25
 74
     0
 49
-0.25
 74
     0
 49
0.25
 74
     0
 49
-0.25
 74
     0
  0
LTYPE
  5
9A
330
5
100
AcDbSymbolTableRecord
100
AcDbLinetypeTableRecord
  2
CENTER2
 70
     0
  3
Center (.5x) ___ _ ___ _ ___ _ ___ _ ___ _ ___
 72
    65
 73
     4
 40
1.125
 49
0.75
 74
     0
 49
-0.125
 74
     0
 49
0.125
 74
     0
 49
-0.125
 74
     0
  0
LTYPE
  5
9B
330
5
100
AcDbSymbolTableRecord
100
AcDbLinetypeTableRecord
  2
HIDDEN2
 70
     0
  3
Hidden (.5x) _ _ _ _ _ _ _ _ _ _ _ _ _ _ _ _ _
 72
    65
 73
     2
 40
0.1875
 49
0.125
 74
     0
 49
-0.0625
 74
     0
  0
LTYPE
  5
9C
330
5
100
AcDbSymbolTableRecord
100
AcDbLinetypeTableRecord
  2
Amconstr
 70
     0
  3
_______________________
 72
    65
 73
     2
 40
9999.0
 49
9999.0
 74
     0
 49
0.0
 74
     0
  0
LTYPE
  5
9D
330
5
100
AcDbSymbolTableRecord
100
AcDbLinetypeTableRecord
  2
Amzigzag2
 70
     0
  3
/\/-/\/-/\/-/\/-/\/-/\/
 72
    65
 73
     2
 40
0.4401
 49
0.0001
 74
     4
 75
   136
340
97
 46
0.0016
 50
0.0
 44
0.0
 45
0.0
 49
-0.44
 74
     0
  0
LTYPE
  5
9E
330
5
100
AcDbSymbolTableRecord
100
AcDbLinetypeTableRecord
  2
ACANSTGB
 70
     0
  3
__ . . __ . .
 72
    65
 73
     6
 40
0.354331
 49
0.15748
 74
     0
 49
-0.03937
 74
     0
 49
0.03937
 74
     0
 49
-0.03937
 74
     0
 49
0.03937
 74
     0
 49
-0.03937
 74
     0
  0
LTYPE
  5
9F
330
5
100
AcDbSymbolTableRecord
100
AcDbLinetypeTableRecord
  2
ACANSTGL
 70
     0
  3
_ _ _ _ _
 72
    65
 73
     2
 40
0.11811
 49
0.07874
 74
     0
 49
-0.03937
 74
     0
  0
ENDTAB
  0
TABLE
  2
LAYER
  5
2
330
0
100
AcDbSymbolTable
 70
    10
  0
LAYER
  5
54
330
2
100
AcDbSymbolTableRecord
100
AcDbLayerTableRecord
  2
0
 70
     0
 62
     7
  6
Continuous
370
    -3
390
F
347
21
348
0
1001
AcAecLayerStandard
1000

1000

  0
LAYER
  5
79
330
2
100
AcDbSymbolTableRecord
100
AcDbLayerTableRecord
  2
Defpoints
 70
     0
 62
     7
  6
Continuous
290
     0
370
    -3
390
F
347
21
348
0
1001
AcAecLayerStandard
1000

1000

  0
LAYER
  5
B9
330
2
100
AcDbSymbolTableRecord
100
AcDbLayerTableRecord
  2
Visible
 70
     0
 62
     7
  6
Continuous
370
    50
390
F
347
21
348
0
  0
LAYER
  5
18A
330
2
100
AcDbSymbolTableRecord
100
AcDbLayerTableRecord
  2
Visible Narrow
 70
     0
 62
     7
  6
Continuous
370
    35
390
F
347
21
348
0
  0
LAYER
  5
19F
330
2
100
AcDbSymbolTableRecord
100
AcDbLayerTableRecord
  2
Titleblock
 70
     0
 62
     7
  6
Continuous
370
    -3
390
F
347
21
348
0
1001
AcAecLayerStandard
1000

1000

1001
AcCmTransparency
1071
        0
  0
LAYER
  5
1C4
330
2
100
AcDbSymbolTableRecord
100
AcDbLayerTableRecord
  2
Border
 70
     0
 62
     7
  6
Continuous
370
    -3
390
F
347
21
348
0
1001
AcAecLayerStandard
1000

1000

1001
AcCmTransparency
1071
        0
  0
LAYER
  5
1E5
330
2
100
AcDbSymbolTableRecord
100
AcDbLayerTableRecord
  2
Dimensions
 70
     0
 62
     7
  6
Continuous
370
    25
390
F
347
21
348
0
  0
ENDTAB
  0
TABLE
  2
STYLE
  5
3
330
0
100
AcDbSymbolTable
 70
     4
  0
STYLE
  5
55
330
3
100
AcDbSymbolTableRecord
100
AcDbTextStyleTableRecord
  2
Standard
 70
     0
 40
0.0
 41
1.0
 50
0.0
 71
     0
 42
0.12
  3
arial.ttf
  4

1001
ACAD
1000
Arial
1071
       34
  0
STYLE
  5
5A
330
3
100
AcDbSymbolTableRecord
100
AcDbTextStyleTableRecord
  2
Annotative
 70
     0
 40
0.0
 41
1.0
 50
0.0
 71
     0
 42
0.2
  3
txt
  4

1001
AcadAnnotative
1000
AnnotativeData
1002
{
1070
     1
1070
     1
1002
}
  0
STYLE
  5
97
330
3
100
AcDbSymbolTableRecord
100
AcDbTextStyleTableRecord
  2

 70
     1
 40
0.0
 41
1.0
 50
0.0
 71
     0
 42
0.12
  3
genltshp.shx
  4

  0
STYLE
  5
98
330
3
100
AcDbSymbolTableRecord
100
AcDbTextStyleTableRecord
  2
ACANSGDT
 70
     0
 40
0.0
 41
1.0
 50
0.0
 71
     0
 42
0.12
  3
amgdt.shx
  4

  0
ENDTAB
  0
TABLE
  2
VIEW
  5
6
330
0
100
AcDbSymbolTable
 70
     0
  0
ENDTAB
  0
TABLE
  2
UCS
  5
7
330
0
100
AcDbSymbolTable
 70
     0
  0
ENDTAB
  0
TABLE
  2
APPID
  5
9
330
0
100
AcDbSymbolTable
 70
    24
  0
APPID
  5
56
330
9
100
AcDbSymbolTableRecord
100
AcDbRegAppTableRecord
  2
ACAD
 70
     0
  0
APPID
  5
5E
330
9
100
AcDbSymbolTableRecord
100
AcDbRegAppTableRecord
  2
AcadAnnotative
 70
     0
  0
APPID
  5
78
330
9
100
AcDbSymbolTableRecord
100
AcDbRegAppTableRecord
  2
ACAD_PSEXT
 70
     0
  0
APPID
  5
7A
330
9
100
AcDbSymbolTableRecord
100
AcDbRegAppTableRecord
  2
MCAD_NO_VIS
 70
     0
  0
APPID
  5
7B
330
9
100
AcDbSymbolTableRecord
100
AcDbRegAppTableRecord
  2
ACAD_TEMP_GRAPHIC
 70
     0
  0
APPID
  5
84
330
9
100
AcDbSymbolTableRecord
100
AcDbRegAppTableRecord
  2
ACAD_DSTYLE_DIMJAG
 70
     0
  0
APPID
  5
85
330
9
100
AcDbSymbolTableRecord
100
AcDbRegAppTableRecord
  2
ACAD_DSTYLE_DIMTALN
 70
     0
  0
APPID
  5
86
330
9
100
AcDbSymbolTableRecord
100
AcDbRegAppTableRecord
  2
ACAD_NAV_VCDISPLAY
 70
     0
  0
APPID
  5
87
330
9
100
AcDbSymbolTableRecord
100
AcDbRegAppTableRecord
  2
AcAecLayerStandard
 70
     0
  0
APPID
  5
88
330
9
100
AcDbSymbolTableRecord
100
AcDbRegAppTableRecord
  2
AcCmTransparency
 70
     0
  0
APPID
  5
89
330
9
100
AcDbSymbolTableRecord
100
AcDbRegAppTableRecord
  2
ACAD_DSTYLE_DIMBREAK
 70
     0
  0
APPID
  5
8A
330
9
100
AcDbSymbolTableRecord
100
AcDbRegAppTableRecord
  2
ACAD_DSTYLE_DIMRADIAL_EXTENSION
 70
     0
  0
APPID
  5
8B
330
9
100
AcDbSymbolTableRecord
100
AcDbRegAppTableRecord
  2
FUSIONTITLEBLOCK
 70
     0
  0
APPID
  5
8C
330
9
100
AcDbSymbolTableRecord
100
AcDbRegAppTableRecord
  2
FUSIONCURRENTTITLEBLOCK
 70
     0
  0
APPID
  5
8D
330
9
100
AcDbSymbolTableRecord
100
AcDbRegAppTableRecord
  2
AcSynergy
 70
     0
  0
APPID
  5
8E
330
9
100
AcDbSymbolTableRecord
100
AcDbRegAppTableRecord
  2
ACAD_VIEW_EDGE_ID
 70
     0
  0
APPID
  5
8F
330
9
100
AcDbSymbolTableRecord
100
AcDbRegAppTableRecord
  2
GENIUS_GENSCREG_15
 70
     0
  0
APPID
  5
90
330
9
100
AcDbSymbolTableRecord
100
AcDbRegAppTableRecord
  2
GENIUS_GENOBJ-N-SDF_13
 70
     0
  0
APPID
  5
91
330
9
100
AcDbSymbolTableRecord
100
AcDbRegAppTableRecord
  2
GENIUS_GENODEF_13
 70
     0
  0
APPID
  5
92
330
9
100
AcDbSymbolTableRecord
100
AcDbRegAppTableRecord
  2
ACAD_DIMASSOC_CALC_DIMLFAC
 70
     0
  0
APPID
  5
93
330
9
100
AcDbSymbolTableRecord
100
AcDbRegAppTableRecord
  2
ACAD_DIMASSOC_DIMLFAC
 70
     0
  0
APPID
  5
94
330
9
100
AcDbSymbolTableRecord
100
AcDbRegAppTableRecord
  2
ACAD_DIMASSOC_OVERRIDDEN_DIMLFAC
 70
     0
  0
APPID
  5
95
330
9
100
AcDbSymbolTableRecord
100
AcDbRegAppTableRecord
  2
FD_ATT_APPNAME
 70
     0
  0
APPID
  5
96
330
9
100
AcDbSymbolTableRecord
100
AcDbRegAppTableRecord
  2
ACATTRIBSERVICES
 70
     0
  0
ENDTAB
  0
TABLE
  2
DIMSTYLE
  5
A
330
0
100
AcDbSymbolTable
 70
     2
100
AcDbDimStyleTable
 71
     1
340
58
  0
DIMSTYLE
105
58
102
{ACAD_REACTORS
330
1E4
330
1EF
330
1F8
330
206
330
214
330
222
330
22D
330
23B
102
}
330
A
100
AcDbSymbolTableRecord
100
AcDbDimStyleTableRecord
  2
Standard
 70
     0
  3
in
  4
mm
 41
0.12
 42
0.05
 43
0.339411
 44
0.1
 47
0.01
 48
0.01
 78
    12
 79
     3
 90
     1
140
0.12
141
0.0
147
0.06
176
   256
177
   256
178
   256
179
     2
271
     2
272
     2
284
    12
285
    12
286
    12
340
55
  0
DIMSTYLE
105
59
330
A
100
AcDbSymbolTableRecord
100
AcDbDimStyleTableRecord
  2
Annotative
 70
     0
  3
in
 40
0.0
 43
0.339411
 78
    12
 79
     3
140
0.12
179
     2
271
     2
272
     2
284
    12
285
    12
286
    12
340
55
1001
AcadAnnotative
1000
AnnotativeData
1002
{
1070
     1
1070
     1
1002
}
  0
ENDTAB
  0
TABLE
  2
BLOCK_RECORD
  5
1
330
0
100
AcDbSymbolTable
 70
    22
  0
BLOCK_RECORD
  5
70
102
{ACAD_XDICTIONARY
360
B2
102
}
330
1
100
AcDbSymbolTableRecord
100
AcDbBlockTableRecord
  2
*Model_Space
340
73
 70
     0
280
     1
281
     0
  0
BLOCK_RECORD
  5
6C
330
1
100
AcDbSymbolTableRecord
100
AcDbBlockTableRecord
  2
*Paper_Space
340
6F
 70
     0
280
     1
281
     0
  0
BLOCK_RECORD
  5
74
330
1
100
AcDbSymbolTableRecord
100
AcDbBlockTableRecord
  2
*Paper_Space0
340
77
 70
     0
280
     1
281
     0
  0
BLOCK_RECORD
  5
1A0
102
{ACAD_XDICTIONARY
360
1A1
102
}
330
1
100
AcDbSymbolTableRecord
100
AcDbBlockTableRecord
  2
Shower
340
0
102
{BLKREFS
331
19E
102
}
 70
     1
280
     1
281
     0
1001
FUSIONTITLEBLOCK
1000
TitleBlock
  0
BLOCK_RECORD
  5
1C5
330
1
100
AcDbSymbolTableRecord
100
AcDbBlockTableRecord
  2
ANSI_B_SHEET
340
0
310
2800000020000000200000000100080000000000000400000000000000000000000000000000000000000000000080000080000000808000800000008000800080800000C0C0C000C0DCC000F0CAA6000020400000206000002080000020A0000020C0000020E00000400000004020000040400000406000004080000040A0
310
000040C0000040E00000600000006020000060400000606000006080000060A0000060C0000060E00000800000008020000080400000806000008080000080A0000080C0000080E00000A0000000A0200000A0400000A0600000A0800000A0A00000A0C00000A0E00000C0000000C0200000C0400000C0600000C0800000C0
310
A00000C0C00000C0E00000E0000000E0200000E0400000E0600000E0800000E0A00000E0C00000E0E00040000000400020004000400040006000400080004000A0004000C0004000E00040200000402020004020400040206000402080004020A0004020C0004020E000404000004040200040404000404060004040800040
310
40A0004040C0004040E00040600000406020004060400040606000406080004060A0004060C0004060E00040800000408020004080400040806000408080004080A0004080C0004080E00040A0000040A0200040A0400040A0600040A0800040A0A00040A0C00040A0E00040C0000040C0200040C0400040C0600040C08000
310
40C0A00040C0C00040C0E00040E0000040E0200040E0400040E0600040E0800040E0A00040E0C00040E0E00080000000800020008000400080006000800080008000A0008000C0008000E00080200000802020008020400080206000802080008020A0008020C0008020E00080400000804020008040400080406000804080
310
008040A0008040C0008040E00080600000806020008060400080606000806080008060A0008060C0008060E00080800000808020008080400080806000808080008080A0008080C0008080E00080A0000080A0200080A0400080A0600080A0800080A0A00080A0C00080A0E00080C0000080C0200080C0400080C0600080C0
310
800080C0A00080C0C00080C0E00080E0000080E0200080E0400080E0600080E0800080E0A00080E0C00080E0E000C0000000C0002000C0004000C0006000C0008000C000A000C000C000C000E000C0200000C0202000C0204000C0206000C0208000C020A000C020C000C020E000C0400000C0402000C0404000C0406000C0
310
408000C040A000C040C000C040E000C0600000C0602000C0604000C0606000C0608000C060A000C060C000C060E000C0800000C0802000C0804000C0806000C0808000C080A000C080C000C080E000C0A00000C0A02000C0A04000C0A06000C0A08000C0A0A000C0A0C000C0A0E000C0C00000C0C02000C0C04000C0C06000
310
C0C08000C0C0A000F0FBFF00A4A0A000808080000000FF0000FF000000FFFF00FF000000FF00FF00FFFF0000FFFFFF0049494949494949494949494949494949494949494949494949494949494949494949494949494949494949494949494949494949494949494949494949494949494949494949494949494949494949
310
494949494949494949494949494949494949494949494949494949494949494949494949494949494949494949494949494949494949494949494949494949494949494949494949494949494949494949494949494949494949494949494949494949494949494949494949494949494949FFFF4949494949494949494949
310
494949494949494949494949494949FFFF4949FFFFFFFFFFFFFFFFFFFFFFFFFFFFFFFFFFFFFFFFFFFFFFFFFFFFFFFFFFFF494949FF4949494949494949494949494949494949494949494949494949FF49494949FF4949494949494949494949494949494949494949494949494949FF49494949FF49494949494949494949
310
49494949494949494949494949494949FF49494949FF4949494949494949494949494949494949494949494949494949FF49494949FF4949494949494949494949494949494949494949494949494949FF49494949FF4949494949494949494949494949494949494949494949494949FF49494949FF494949494949494949
310
4949494949494949494949494949494949FF49494949FF4949494949494949494949494949494949494949494949494949FF49494949FF4949494949494949494949494949494949494949494949494949FF49494949FF4949494949494949494949494949494949494949494949494949FF49494949FF4949494949494949
310
494949494949494949494949494949494949FF49494949FF4949494949494949494949494949494949494949494949494949FF49494949FF4949494949494949494949494949494949494949494949494949FF49494949FF4949494949494949494949494949494949494949494949494949FF49494949FF49494949494949
310
49494949494949494949494949494949494949FF49494949FF4949494949494949494949494949494949494949494949494949FF494949FFFFFFFFFFFFFFFFFFFFFFFFFFFFFFFFFFFFFFFFFFFFFFFFFFFFFFFFFFFF4949FFFF4949494949494949494949494949494949494949494949494949FFFF49494949494949494949
310
49494949494949494949494949494949494949494949494949494949494949494949494949494949494949494949494949494949494949494949494949494949494949494949494949494949494949494949494949494949494949494949494949494949494949494949494949494949494949494949494949494949494949
310
4949494949494949494949494949494949494949494949494949494949494949494949494949494949494949494949494949494949494949
102
{BLKREFS
331
1C3
102
}
 70
     1
280
     1
281
     0
  0
BLOCK_RECORD
  5
1E6
330
1
100
AcDbSymbolTableRecord
100
AcDbBlockTableRecord
  2
*D6
340
0
 70
     0
280
     1
281
     0
  0
BLOCK_RECORD
  5
1F0
330
1
100
AcDbSymbolTableRecord
100
AcDbBlockTableRecord
  2
*D7
340
0
 70
     0
280
     1
281
     0
  0
BLOCK_RECORD
  5
1F9
330
1
100
AcDbSymbolTableRecord
100
AcDbBlockTableRecord
  2
*D8
340
0
 70
     0
280
     1
281
     0
  0
BLOCK_RECORD
  5
207
330
1
100
AcDbSymbolTableRecord
100
AcDbBlockTableRecord
  2
*D9
340
0
 70
     0
280
     1
281
     0
  0
BLOCK_RECORD
  5
215
330
1
100
AcDbSymbolTableRecord
100
AcDbBlockTableRecord
  2
*D10
340
0
 70
     0
280
     1
281
     0
  0
BLOCK_RECORD
  5
223
330
1
100
AcDbSymbolTableRecord
100
AcDbBlockTableRecord
  2
*D11
340
0
 70
     0
280
     1
281
     0
  0
BLOCK_RECORD
  5
22E
330
1
100
AcDbSymbolTableRecord
100
AcDbBlockTableRecord
  2
*D12
340
0
 70
     0
280
     1
281
     0
  0
BLOCK_RECORD
  5
23C
330
1
100
AcDbSymbolTableRecord
100
AcDbBlockTableRecord
  2
*D13
340
0
 70
     0
280
     1
281
     0
  0
BLOCK_RECORD
  5
24A
330
1
100
AcDbSymbolTableRecord
100
AcDbBlockTableRecord
  2
*D14
340
0
 70
     0
280
     1
281
     0
  0
BLOCK_RECORD
  5
253
330
1
100
AcDbSymbolTableRecord
100
AcDbBlockTableRecord
  2
*D15
340
0
 70
     0
280
     1
281
     0
  0
BLOCK_RECORD
  5
25B
330
1
100
AcDbSymbolTableRecord
100
AcDbBlockTableRecord
  2
*D16
340
0
 70
     0
280
     1
281
     0
  0
BLOCK_RECORD
  5
268
330
1
100
AcDbSymbolTableRecord
100
AcDbBlockTableRecord
  2
*D17
340
0
 70
     0
280
     1
281
     0
  0
BLOCK_RECORD
  5
275
330
1
100
AcDbSymbolTableRecord
100
AcDbBlockTableRecord
  2
*D18
340
0
 70
     0
280
     1
281
     0
  0
BLOCK_RECORD
  5
282
330
1
100
AcDbSymbolTableRecord
100
AcDbBlockTableRecord
  2
*D19
340
0
 70
     0
280
     1
281
     0
  0
BLOCK_RECORD
  5
28C
330
1
100
AcDbSymbolTableRecord
100
AcDbBlockTableRecord
  2
*D20
340
0
 70
     0
280
     1
281
     0
  0
BLOCK_RECORD
  5
299
330
1
100
AcDbSymbolTableRecord
100
AcDbBlockTableRecord
  2
*D21
340
0
 70
     0
280
     1
281
     0
  0
ENDTAB
  0
ENDSEC
  0
SECTION
  2
BLOCKS
  0
BLOCK
  5
71
330
70
100
AcDbEntity
  8
0
100
AcDbBlockBegin
  2
*Model_Space
 70
     0
 10
0.0
 20
0.0
 30
0.0
  3
*Model_Space
  1

  0
ENDBLK
  5
72
330
70
100
AcDbEntity
  8
0
100
AcDbBlockEnd
  0
BLOCK
  5
6D
330
6C
100
AcDbEntity
 67
     1
  8
0
100
AcDbBlockBegin
  2
*Paper_Space
 70
     0
 10
0.0
 20
0.0
 30
0.0
  3
*Paper_Space
  1

  0
ENDBLK
  5
6E
330
6C
100
AcDbEntity
 67
     1
  8
0
100
AcDbBlockEnd
  0
BLOCK
  5
75
330
74
100
AcDbEntity
 67
     1
  8
0
100
AcDbBlockBegin
  2
*Paper_Space0
 70
     0
 10
0.0
 20
0.0
 30
0.0
  3
*Paper_Space0
  1

  0
ENDBLK
  5
76
330
74
100
AcDbEntity
 67
     1
  8
0
100
AcDbBlockEnd
  0
BLOCK
  5
1A3
330
1A0
100
AcDbEntity
  8
0
100
AcDbBlockBegin
  2
Shower
 70
     2
 10
0.0
 20
0.0
 30
0.0
  3
Shower
  1

  0
LWPOLYLINE
  5
1A4
330
1A0
100
AcDbEntity
  8
Titleblock
100
AcDbPolyline
 90
        4
 70
     1
 43
0.0
 10
0.0
 20
0.0
 10
-4.9375
 20
0.0
 10
-4.9375
 20
2.5
 10
0.0
 20
2.5
  0
IMAGE
  5
1A5
330
1A0
100
AcDbEntity
  8
Titleblock
  6
Continuous
160
               140
310
8C0000000100000084000000060000000500000000000000008013C000B87FA8928AB03F000000000000000000000000008013C035B4911D6523F03F000000000000000001000000008001C035B4911D6523F03F000000000000000001000000008001C000B87FA8928AB03F000000000000000000000000008013C000B87F
310
A8928AB03F0000000000000000
370
     0
100
AcDbRasterImage
 90
        0
 10
-4.875
 20
0.064614
 30
0.0
 11
0.0028349156118143
 21
0.0
 31
0.0
 12
0.0
 22
0.0028349156118143
 32
0.0
 13
948.0
 23
333.0
340
1A6
 70
    15
280
     0
281
    50
282
    50
283
     0
290
     0
360
1A8
 71
     1
 91
        2
 14
-0.5
 24
-0.5
 14
947.5
 24
332.5
  0
LWPOLYLINE
  5
1AA
330
1A0
100
AcDbEntity
  8
Titleblock
  6
Continuous
370
    25
100
AcDbPolyline
 90
        4
 70
     1
 43
0.0
 10
0.0
 20
1.0625
 10
-4.9375
 20
1.061638
 10
-4.9375
 20
0.0
 10
0.0
 20
0.0
  0
LWPOLYLINE
  5
1AB
330
1A0
100
AcDbEntity
  8
Titleblock
  6
Continuous
370
    25
100
AcDbPolyline
 90
        4
 70
     1
 43
0.0
 10
-1.75
 20
2.5
 10
0.0
 20
2.5
 10
0.0
 20
2.5
 10
-1.75
 20
2.5
  0
ATTDEF
  5
1AC
330
1A0
100
AcDbEntity
  8
Titleblock
  6
Continuous
370
    25
100
AcDbText
 10
-3.6875
 20
2.3125
 30
0.0
 40
0.12
  1

100
AcDbAttributeDefinition
280
     0
  3

  2
PROJECT
 70
     0
280
     1
  0
MTEXT
  5
1AD
330
1A0
100
AcDbEntity
  8
Titleblock
  6
Continuous
370
    25
100
AcDbMText
 10
-4.875
 20
1.653875
 30
0.0
 40
0.12
 41
0.6875
 46
0.0
 71
     1
 72
     5
  1
Description:
 73
     1
 44
1.0
1001
ACAD
1000
ACAD_MTEXT_COLUMN_INFO_BEGIN
1070
    75
1070
     2
1070
    79
1070
     0
1070
    76
1070
     1
1070
    78
1070
     0
1070
    48
1040
0.6875
1070
    49
1040
0.6
1070
    50
1070
     1
1040
0.0
1000
ACAD_MTEXT_COLUMN_INFO_END
  0
ATTDEF
  5
1AE
330
1A0
100
AcDbEntity
  8
Titleblock
  6
Continuous
370
    25
100
AcDbText
 10
-1.6875
 20
0.6875
 30
0.0
 40
0.12
  1

100
AcDbAttributeDefinition
280
     0
  3

  2
DRAWN_DATE
 70
     0
280
     1
  0
ATTDEF
  5
1AF
330
1A0
100
AcDbEntity
  8
Titleblock
  6
Continuous
370
    25
100
AcDbText
 10
-4.3125
 20
1.8125
 30
0.0
 40
0.3048
  1

100
AcDbAttributeDefinition
280
     0
  3

  2
TITLE_1
 70
     0
280
     1
  0
ATTDEF
  5
1B0
330
1A0
100
AcDbEntity
  8
Titleblock
  6
Continuous
370
    25
100
AcDbText
 10
-1.6875
 20
0.91994
 30
0.0
 40
0.12
  1

100
AcDbAttributeDefinition
280
     0
  3

  2
SCALE
 70
     0
280
     1
  0
LWPOLYLINE
  5
1B1
330
1A0
100
AcDbEntity
  8
Titleblock
  6
Continuous
370
    25
100
AcDbPolyline
 90
        4
 70
     1
 43
0.0
 10
0.0
 20
1.0625
 10
0.0
 20
1.0625
 10
0.0
 20
0.0
 10
0.0
 20
0.0
  0
LWPOLYLINE
  5
1B2
330
1A0
100
AcDbEntity
  8
Titleblock
  6
Continuous
370
    25
100
AcDbPolyline
 90
        4
 70
     1
 43
0.0
 10
0.0
 20
1.0625
 10
0.0
 20
1.0625
 10
0.0
 20
0.0
 10
0.0
 20
0.0
  0
LINE
  5
1B3
330
1A0
100
AcDbEntity
  8
Titleblock
  6
Continuous
370
    25
100
AcDbLine
 10
-2.125
 20
1.062165
 30
0.0
 11
-2.125
 21
0.0
 31
0.0
  0
LWPOLYLINE
  5
1B4
330
1A0
100
AcDbEntity
  8
Titleblock
  6
Continuous
370
    25
100
AcDbPolyline
 90
        4
 70
     1
 43
0.0
 10
-4.9375
 20
2.5
 10
0.0
 20
2.5
 10
0.0
 20
2.5
 10
-4.9375
 20
2.5
  0
LINE
  5
1B5
330
1A0
100
AcDbEntity
  8
Titleblock
  6
Continuous
370
    25
100
AcDbLine
 10
-4.9375
 20
2.25
 30
0.0
 11
0.0
 21
2.25
 31
0.0
  0
LINE
  5
1B6
330
1A0
100
AcDbEntity
  8
Titleblock
  6
Continuous
370
    25
100
AcDbLine
 10
-4.9375
 20
1.6875
 30
0.0
 11
0.0
 21
1.6875
 31
0.0
  0
MTEXT
  5
1B7
330
1A0
100
AcDbEntity
  8
Titleblock
100
AcDbMText
 10
-4.875
 20
2.467284
 30
0.0
 40
0.12
 41
0.375
 46
0.0
 71
     1
 72
     5
  1
Project:
 73
     1
 44
1.0
1001
ACAD
1000
ACAD_MTEXT_COLUMN_INFO_BEGIN
1070
    75
1070
     2
1070
    79
1070
     0
1070
    76
1070
     1
1070
    78
1070
     0
1070
    48
1040
0.375
1070
    49
1040
0.6
1070
    50
1070
     1
1040
0.0
1000
ACAD_MTEXT_COLUMN_INFO_END
  0
MTEXT
  5
1B8
330
1A0
100
AcDbEntity
  8
Titleblock
100
AcDbMText
 10
-2.0625
 20
1.045477
 30
0.0
 40
0.075
 41
0.375
 46
0.0
 71
     1
 72
     5
  1
Scale:
 73
     1
 44
1.0
1001
ACAD
1000
ACAD_MTEXT_COLUMN_INFO_BEGIN
1070
    75
1070
     2
1070
    79
1070
     0
1070
    76
1070
     1
1070
    78
1070
     0
1070
    48
1040
0.375
1070
    49
1040
0.6
1070
    50
1070
     1
1040
0.0
1000
ACAD_MTEXT_COLUMN_INFO_END
  0
MTEXT
  5
1B9
330
1A0
100
AcDbEntity
  8
Titleblock
100
AcDbMText
 10
-2.0625
 20
0.857735
 30
0.0
 40
0.075
 41
0.375
 46
0.0
 71
     1
 72
     5
  1
Date Drawn:
 73
     1
 44
1.0
1001
ACAD
1000
ACAD_MTEXT_COLUMN_INFO_BEGIN
1070
    75
1070
     2
1070
    79
1070
     0
1070
    76
1070
     1
1070
    78
1070
     0
1070
    48
1040
0.375
1070
    49
1040
0.6
1070
    50
1070
     1
1040
0.0
1000
ACAD_MTEXT_COLUMN_INFO_END
  0
LINE
  5
1BA
330
1A0
100
AcDbEntity
  8
Titleblock
100
AcDbLine
 10
-2.125
 20
0.875
 30
0.0
 11
0.0
 21
0.875
 31
0.0
  0
LINE
  5
1BB
330
1A0
100
AcDbEntity
  8
Titleblock
100
AcDbLine
 10
-2.125
 20
0.625
 30
0.0
 11
0.0
 21
0.625
 31
0.0
  0
MTEXT
  5
1BC
330
1A0
100
AcDbEntity
  8
Titleblock
100
AcDbMText
 10
-4.875
 20
2.220603
 30
0.0
 40
0.12
 41
0.625
 46
0.0
 71
     1
 72
     5
  1
Title:
 73
     1
 44
1.0
1001
ACAD
1000
ACAD_MTEXT_COLUMN_INFO_BEGIN
1070
    75
1070
     2
1070
    79
1070
     0
1070
    76
1070
     1
1070
    78
1070
     0
1070
    48
1040
0.625
1070
    49
1040
0.6
1070
    50
1070
     1
1040
0.0
1000
ACAD_MTEXT_COLUMN_INFO_END
  0
ENDBLK
  5
1BD
330
1A0
100
AcDbEntity
  8
0
100
AcDbBlockEnd
  0
BLOCK
  5
1C6
330
1C5
100
AcDbEntity
  8
0
100
AcDbBlockBegin
  2
ANSI_B_SHEET
 70
     0
 10
0.0
 20
0.0
 30
0.0
  3
ANSI_B_SHEET
  1

  0
LINE
  5
1C7
330
1C5
100
AcDbEntity
  8
Border
100
AcDbLine
 10
0.0
 20
0.0
 30
0.0
 11
0.5
 21
0.0
 31
0.0
  0
LINE
  5
1C8
330
1C5
100
AcDbEntity
  8
Border
100
AcDbLine
 10
16.5
 20
0.0
 30
0.0
 11
17.0
 21
0.0
 31
0.0
  0
LINE
  5
1C9
330
1C5
100
AcDbEntity
  8
Border
100
AcDbLine
 10
0.62
 20
0.38
 30
0.0
 11
16.38
 21
0.38
 31
0.0
  0
LINE
  5
1CA
330
1C5
100
AcDbEntity
  8
Border
100
AcDbLine
 10
17.0
 20
0.0
 30
0.0
 11
17.0
 21
0.5
 31
0.0
  0
LINE
  5
1CB
330
1C5
100
AcDbEntity
  8
Border
100
AcDbLine
 10
17.0
 20
10.5
 30
0.0
 11
17.0
 21
11.0
 31
0.0
  0
LINE
  5
1CC
330
1C5
100
AcDbEntity
  8
Border
100
AcDbLine
 10
16.38
 20
0.38
 30
0.0
 11
16.38
 21
10.62
 31
0.0
  0
LINE
  5
1CD
330
1C5
100
AcDbEntity
  8
Border
100
AcDbLine
 10
17.0
 20
11.0
 30
0.0
 11
16.5
 21
11.0
 31
0.0
  0
LINE
  5
1CE
330
1C5
100
AcDbEntity
  8
Border
100
AcDbLine
 10
0.5
 20
11.0
 30
0.0
 11
0.0
 21
11.0
 31
0.0
  0
LINE
  5
1CF
330
1C5
100
AcDbEntity
  8
Border
100
AcDbLine
 10
16.38
 20
10.62
 30
0.0
 11
0.62
 21
10.62
 31
0.0
  0
LINE
  5
1D0
330
1C5
100
AcDbEntity
  8
Border
100
AcDbLine
 10
0.0
 20
11.0
 30
0.0
 11
0.0
 21
10.5
 31
0.0
  0
LINE
  5
1D1
330
1C5
100
AcDbEntity
  8
Border
100
AcDbLine
 10
0.0
 20
0.5
 30
0.0
 11
0.0
 21
0.0
 31
0.0
  0
LINE
  5
1D2
330
1C5
100
AcDbEntity
  8
Border
100
AcDbLine
 10
0.62
 20
10.62
 30
0.0
 11
0.62
 21
0.38
 31
0.0
  0
LINE
  5
1D3
330
1C5
100
AcDbEntity
  8
Border
100
AcDbLine
 10
8.413397
 20
0.23
 30
0.0
 11
8.586603
 21
0.23
 31
0.0
  0
LINE
  5
1D4
330
1C5
100
AcDbEntity
  8
Border
100
AcDbLine
 10
8.5
 20
0.38
 30
0.0
 11
8.5
 21
0.13
 31
0.0
  0
LINE
  5
1D5
330
1C5
100
AcDbEntity
  8
Border
100
AcDbLine
 10
8.5
 20
0.38
 30
0.0
 11
8.413397
 21
0.23
 31
0.0
  0
LINE
  5
1D6
330
1C5
100
AcDbEntity
  8
Border
100
AcDbLine
 10
8.5
 20
0.38
 30
0.0
 11
8.586603
 21
0.23
 31
0.0
  0
LINE
  5
1D7
330
1C5
100
AcDbEntity
  8
Border
100
AcDbLine
 10
0.47
 20
5.586603
 30
0.0
 11
0.47
 21
5.413397
 31
0.0
  0
LINE
  5
1D8
330
1C5
100
AcDbEntity
  8
Border
100
AcDbLine
 10
0.62
 20
5.5
 30
0.0
 11
0.37
 21
5.5
 31
0.0
  0
LINE
  5
1D9
330
1C5
100
AcDbEntity
  8
Border
100
AcDbLine
 10
0.62
 20
5.5
 30
0.0
 11
0.47
 21
5.586603
 31
0.0
  0
LINE
  5
1DA
330
1C5
100
AcDbEntity
  8
Border
100
AcDbLine
 10
0.62
 20
5.5
 30
0.0
 11
0.47
 21
5.413397
 31
0.0
  0
LINE
  5
1DB
330
1C5
100
AcDbEntity
  8
Border
100
AcDbLine
 10
16.53
 20
5.586603
 30
0.0
 11
16.53
 21
5.413397
 31
0.0
  0
LINE
  5
1DC
330
1C5
100
AcDbEntity
  8
Border
100
AcDbLine
 10
16.38
 20
5.5
 30
0.0
 11
16.63
 21
5.5
 31
0.0
  0
LINE
  5
1DD
330
1C5
100
AcDbEntity
  8
Border
100
AcDbLine
 10
16.38
 20
5.5
 30
0.0
 11
16.53
 21
5.586603
 31
0.0
  0
LINE
  5
1DE
330
1C5
100
AcDbEntity
  8
Border
100
AcDbLine
 10
16.38
 20
5.5
 30
0.0
 11
16.53
 21
5.413397
 31
0.0
  0
LINE
  5
1DF
330
1C5
100
AcDbEntity
  8
Border
100
AcDbLine
 10
8.413397
 20
10.77
 30
0.0
 11
8.586603
 21
10.77
 31
0.0
  0
LINE
  5
1E0
330
1C5
100
AcDbEntity
  8
Border
100
AcDbLine
 10
8.5
 20
10.62
 30
0.0
 11
8.5
 21
10.87
 31
0.0
  0
LINE
  5
1E1
330
1C5
100
AcDbEntity
  8
Border
100
AcDbLine
 10
8.5
 20
10.62
 30
0.0
 11
8.413397
 21
10.77
 31
0.0
  0
LINE
  5
1E2
330
1C5
100
AcDbEntity
  8
Border
100
AcDbLine
 10
8.5
 20
10.62
 30
0.0
 11
8.586603
 21
10.77
 31
0.0
  0
ENDBLK
  5
1E3
330
1C5
100
AcDbEntity
  8
0
100
AcDbBlockEnd
  0
BLOCK
  5
1E7
330
1E6
100
AcDbEntity
  8
0
100
AcDbBlockBegin
  2
*D6
 70
     1
 10
0.0
 20
0.0
 30
0.0
  3
*D6
  1

  0
LINE
  5
1E8
330
1E6
100
AcDbEntity
  8
Dimensions
440
 16777216
370
    -2
100
AcDbLine
 10
9.763118
 20
5.909643
 30
0.0
 11
9.643118
 21
5.909643
 31
0.0
  0
LINE
  5
1E9
330
1E6
100
AcDbEntity
  8
Dimensions
440
 16777216
370
    -2
100
AcDbLine
 10
9.643118
 20
5.909643
 30
0.0
 11
9.352622
 21
5.670562
 31
0.0
  0
MTEXT
  5
1EA
330
1E6
100
AcDbEntity
  8
Dimensions
440
 16777216
100
AcDbMText
 10
10.107525
 20
5.909643
 30
0.0
 40
0.12
 41
0.0
 46
0.0
 71
     5
 72
     1
  1
\A1;∅1.97in
 73
     1
 44
1.0
  0
SOLID
  5
1EB
330
1E6
100
AcDbEntity
  8
Dimensions
440
 16777216
100
AcDbTrace
 10
9.339913
 20
5.686004
 30
0.0
 11
9.365332
 21
5.655119
 31
0.0
 12
9.259967
 22
5.594305
 32
0.0
 13
9.259967
 23
5.594305
 33
0.0
  0
POINT
  5
1EC
330
1E6
100
AcDbEntity
  8
Defpoints
 62
     0
440
 16777216
100
AcDbPoint
 10
9.259967
 20
5.594305
 30
0.0
  0
POINT
  5
1ED
330
1E6
100
AcDbEntity
  8
Defpoints
 62
     0
440
 16777216
100
AcDbPoint
 10
7.740033
 20
4.343383
 30
0.0
  0
ENDBLK
  5
1EE
330
1E6
100
AcDbEntity
  8
0
100
AcDbBlockEnd
  0
BLOCK
  5
1F1
330
1F0
100
AcDbEntity
  8
0
100
AcDbBlockBegin
  2
*D7
 70
     1
 10
0.0
 20
0.0
 30
0.0
  3
*D7
  1

  0
LINE
  5
1F2
330
1F0
100
AcDbEntity
  8
Dimensions
440
 16777216
370
    -2
100
AcDbLine
 10
9.823259
 20
5.266404
 30
0.0
 11
9.097213
 21
5.103139
 31
0.0
  0
MTEXT
  5
1F3
330
1F0
100
AcDbEntity
  8
Dimensions
440
 16777216
100
AcDbMText
 10
10.121049
 20
5.266404
 30
0.0
 40
0.12
 41
0.0
 46
0.0
 71
     5
 72
     1
  1
\A1;∅.98in
 73
     1
 44
1.0
  0
SOLID
  5
1F4
330
1F0
100
AcDbEntity
  8
Dimensions
440
 16777216
100
AcDbTrace
 10
9.092825
 20
5.122651
 30
0.0
 11
9.101601
 21
5.083626
 31
0.0
 12
8.980136
 22
5.076812
 32
0.0
 13
8.980136
 23
5.076812
 33
0.0
  0
POINT
  5
1F5
330
1F0
100
AcDbEntity
  8
Defpoints
 62
     0
440
 16777216
100
AcDbPoint
 10
8.980136
 20
5.076812
 30
0.0
  0
POINT
  5
1F6
330
1F0
100
AcDbEntity
  8
Defpoints
 62
     0
440
 16777216
100
AcDbPoint
 10
8.019864
 20
4.860876
 30
0.0
  0
ENDBLK
  5
1F7
330
1F0
100
AcDbEntity
  8
0
100
AcDbBlockEnd
  0
BLOCK
  5
1FA
330
1F9
100
AcDbEntity
  8
0
100
AcDbBlockBegin
  2
*D8
 70
     1
 10
0.0
 20
0.0
 30
0.0
  3
*D8
  1

  0
LINE
  5
1FB
330
1F9
100
AcDbEntity
  8
Dimensions
440
 16777216
370
    -2
100
AcDbLine
 10
8.224409
 20
3.46641
 30
0.0
 11
8.224409
 21
3.076999
 31
0.0
  0
LINE
  5
1FC
330
1F9
100
AcDbEntity
  8
Dimensions
440
 16777216
370
    -2
100
AcDbLine
 10
8.775591
 20
3.46641
 30
0.0
 11
8.775591
 21
3.076999
 31
0.0
  0
LINE
  5
1FD
330
1F9
100
AcDbEntity
  8
Dimensions
440
 16777216
370
    -2
100
AcDbLine
 10
8.104409
 20
3.176999
 30
0.0
 11
7.984409
 21
3.176999
 31
0.0
  0
LINE
  5
1FE
330
1F9
100
AcDbEntity
  8
Dimensions
440
 16777216
370
    -2
100
AcDbLine
 10
8.895591
 20
3.176999
 30
0.0
 11
9.015591
 21
3.176999
 31
0.0
  0
SOLID
  5
1FF
330
1F9
100
AcDbEntity
  8
Dimensions
440
 16777216
100
AcDbTrace
 10
8.104409
 20
3.196999
 30
0.0
 11
8.104409
 21
3.156999
 31
0.0
 12
8.224409
 22
3.176999
 32
0.0
 13
8.224409
 23
3.176999
 33
0.0
  0
SOLID
  5
200
330
1F9
100
AcDbEntity
  8
Dimensions
440
 16777216
100
AcDbTrace
 10
8.895591
 20
3.196999
 30
0.0
 11
8.895591
 21
3.156999
 31
0.0
 12
8.775591
 22
3.176999
 32
0.0
 13
8.775591
 23
3.176999
 33
0.0
  0
MTEXT
  5
201
330
1F9
100
AcDbEntity
  8
Dimensions
440
 16777216
100
AcDbMText
 10
8.5
 20
3.176999
 30
0.0
 40
0.12
 41
0.0
 46
0.0
 71
     5
 72
     1
  1
\A1;.55in
 73
     1
 44
1.0
  0
POINT
  5
202
330
1F9
100
AcDbEntity
  8
Defpoints
 62
     0
440
 16777216
100
AcDbPoint
 10
8.224409
 20
3.51641
 30
0.0
  0
POINT
  5
203
330
1F9
100
AcDbEntity
  8
Defpoints
 62
     0
440
 16777216
100
AcDbPoint
 10
8.775591
 20
3.51641
 30
0.0
  0
POINT
  5
204
330
1F9
100
AcDbEntity
  8
Defpoints
 62
     0
440
 16777216
100
AcDbPoint
 10
8.775591
 20
3.176999
 30
0.0
  0
ENDBLK
  5
205
330
1F9
100
AcDbEntity
  8
0
100
AcDbBlockEnd
  0
BLOCK
  5
208
330
207
100
AcDbEntity
  8
0
100
AcDbBlockBegin
  2
*D9
 70
     1
 10
0.0
 20
0.0
 30
0.0
  3
*D9
  1

  0
LINE
  5
209
330
207
100
AcDbEntity
  8
Dimensions
440
 16777216
370
    -2
100
AcDbLine
 10
7.220472
 20
7.346165
 30
0.0
 11
7.220472
 21
8.074988
 31
0.0
  0
LINE
  5
20A
330
207
100
AcDbEntity
  8
Dimensions
440
 16777216
370
    -2
100
AcDbLine
 10
9.779474
 20
7.346165
 30
0.0
 11
9.779474
 21
8.074988
 31
0.0
  0
LINE
  5
20B
330
207
100
AcDbEntity
  8
Dimensions
440
 16777216
370
    -2
100
AcDbLine
 10
7.340472
 20
7.974988
 30
0.0
 11
8.219823
 21
7.974988
 31
0.0
  0
LINE
  5
20C
330
207
100
AcDbEntity
  8
Dimensions
440
 16777216
370
    -2
100
AcDbLine
 10
9.659474
 20
7.974988
 30
0.0
 11
8.780123
 21
7.974988
 31
0.0
  0
SOLID
  5
20D
330
207
100
AcDbEntity
  8
Dimensions
440
 16777216
100
AcDbTrace
 10
7.340472
 20
7.994988
 30
0.0
 11
7.340472
 21
7.954988
 31
0.0
 12
7.220472
 22
7.974988
 32
0.0
 13
7.220472
 23
7.974988
 33
0.0
  0
SOLID
  5
20E
330
207
100
AcDbEntity
  8
Dimensions
440
 16777216
100
AcDbTrace
 10
9.659474
 20
7.994988
 30
0.0
 11
9.659474
 21
7.954988
 31
0.0
 12
9.779474
 22
7.974988
 32
0.0
 13
9.779474
 23
7.974988
 33
0.0
  0
MTEXT
  5
20F
330
207
100
AcDbEntity
  8
Dimensions
440
 16777216
100
AcDbMText
 10
8.499973
 20
7.974988
 30
0.0
 40
0.12
 41
0.0
 46
0.0
 71
     5
 72
     1
  1
\A1;2.56in
 73
     1
 44
1.0
  0
POINT
  5
210
330
207
100
AcDbEntity
  8
Defpoints
 62
     0
440
 16777216
100
AcDbPoint
 10
7.220472
 20
7.296165
 30
0.0
  0
POINT
  5
211
330
207
100
AcDbEntity
  8
Defpoints
 62
     0
440
 16777216
100
AcDbPoint
 10
9.779474
 20
7.296165
 30
0.0
  0
POINT
  5
212
330
207
100
AcDbEntity
  8
Defpoints
 62
     0
440
 16777216
100
AcDbPoint
 10
9.779474
 20
7.974988
 30
0.0
  0
ENDBLK
  5
213
330
207
100
AcDbEntity
  8
0
100
AcDbBlockEnd
  0
BLOCK
  5
216
330
215
100
AcDbEntity
  8
0
100
AcDbBlockBegin
  2
*D10
 70
     1
 10
0.0
 20
0.0
 30
0.0
  3
*D10
  1

  0
LINE
  5
217
330
215
100
AcDbEntity
  8
Dimensions
440
 16777216
370
    -2
100
AcDbLine
 10
14.642105
 20
6.003096
 30
0.0
 11
14.642105
 21
8.173413
 31
0.0
  0
LINE
  5
218
330
215
100
AcDbEntity
  8
Dimensions
440
 16777216
370
    -2
100
AcDbLine
 10
12.390195
 20
7.444591
 30
0.0
 11
12.390195
 21
8.173413
 31
0.0
  0
LINE
  5
219
330
215
100
AcDbEntity
  8
Dimensions
440
 16777216
370
    -2
100
AcDbLine
 10
14.522105
 20
8.073413
 30
0.0
 11
13.7963
 21
8.073413
 31
0.0
  0
LINE
  5
21A
330
215
100
AcDbEntity
  8
Dimensions
440
 16777216
370
    -2
100
AcDbLine
 10
12.510195
 20
8.073413
 30
0.0
 11
13.236
 21
8.073413
 31
0.0
  0
SOLID
  5
21B
330
215
100
AcDbEntity
  8
Dimensions
440
 16777216
100
AcDbTrace
 10
14.522105
 20
8.093413
 30
0.0
 11
14.522105
 21
8.053413
 31
0.0
 12
14.642105
 22
8.073413
 32
0.0
 13
14.642105
 23
8.073413
 33
0.0
  0
SOLID
  5
21C
330
215
100
AcDbEntity
  8
Dimensions
440
 16777216
100
AcDbTrace
 10
12.510195
 20
8.093413
 30
0.0
 11
12.510195
 21
8.053413
 31
0.0
 12
12.390195
 22
8.073413
 32
0.0
 13
12.390195
 23
8.073413
 33
0.0
  0
MTEXT
  5
21D
330
215
100
AcDbEntity
  8
Dimensions
440
 16777216
100
AcDbMText
 10
13.51615
 20
8.073413
 30
0.0
 40
0.12
 41
0.0
 46
0.0
 71
     5
 72
     1
  1
\A1;2.25in
 73
     1
 44
1.0
  0
POINT
  5
21E
330
215
100
AcDbEntity
  8
Defpoints
 62
     0
440
 16777216
100
AcDbPoint
 10
14.642105
 20
5.953096
 30
0.0
  0
POINT
  5
21F
330
215
100
AcDbEntity
  8
Defpoints
 62
     0
440
 16777216
100
AcDbPoint
 10
12.390195
 20
7.394591
 30
0.0
  0
POINT
  5
220
330
215
100
AcDbEntity
  8
Defpoints
 62
     0
440
 16777216
100
AcDbPoint
 10
12.390195
 20
8.073413
 30
0.0
  0
ENDBLK
  5
221
330
215
100
AcDbEntity
  8
0
100
AcDbBlockEnd
  0
BLOCK
  5
224
330
223
100
AcDbEntity
  8
0
100
AcDbBlockBegin
  2
*D11
 70
     1
 10
0.0
 20
0.0
 30
0.0
  3
*D11
  1

  0
LINE
  5
225
330
223
100
AcDbEntity
  8
Dimensions
440
 16777216
370
    -2
100
AcDbLine
 10
11.2813
 20
8.540276
 30
0.0
 11
11.4013
 21
8.540276
 31
0.0
  0
LINE
  5
226
330
223
100
AcDbEntity
  8
Dimensions
440
 16777216
370
    -2
100
AcDbLine
 10
11.4013
 20
8.540276
 30
0.0
 11
11.584838
 21
8.466471
 31
0.0
  0
MTEXT
  5
227
330
223
100
AcDbEntity
  8
Dimensions
440
 16777216
100
AcDbMText
 10
10.98351
 20
8.540276
 30
0.0
 40
0.12
 41
0.0
 46
0.0
 71
     5
 72
     1
  1
\A1;∅1.5in
 73
     1
 44
1.0
  0
SOLID
  5
228
330
223
100
AcDbEntity
  8
Dimensions
440
 16777216
100
AcDbTrace
 10
11.592299
 20
8.485027
 30
0.0
 11
11.577376
 21
8.447916
 31
0.0
 12
11.696173
 22
8.421701
 32
0.0
 13
11.696173
 23
8.421701
 33
0.0
  0
ARC
  5
229
330
223
100
AcDbEntity
  8
Dimensions
440
 16777216
370
    -2
100
AcDbCircle
 10
12.390195
 20
8.142622
 30
0.0
 40
0.748031496064213
100
AcDbArc
 50
150.434463
 51
226.649033
  0
POINT
  5
22A
330
223
100
AcDbEntity
  8
Defpoints
 62
     0
440
 16777216
100
AcDbPoint
 10
11.696173
 20
8.421701
 30
0.0
  0
POINT
  5
22B
330
223
100
AcDbEntity
  8
Defpoints
 62
     0
440
 16777216
100
AcDbPoint
 10
13.084216
 20
7.863543
 30
0.0
  0
ENDBLK
  5
22C
330
223
100
AcDbEntity
  8
0
100
AcDbBlockEnd
  0
BLOCK
  5
22F
330
22E
100
AcDbEntity
  8
0
100
AcDbBlockBegin
  2
*D12
 70
     1
 10
0.0
 20
0.0
 30
0.0
  3
*D12
  1

  0
LINE
  5
230
330
22E
100
AcDbEntity
  8
Dimensions
440
 16777216
370
    -2
100
AcDbLine
 10
14.642105
 20
6.003096
 30
0.0
 11
14.642105
 21
6.392507
 31
0.0
  0
LINE
  5
231
330
22E
100
AcDbEntity
  8
Dimensions
440
 16777216
370
    -2
100
AcDbLine
 10
14.445254
 20
5.963726
 30
0.0
 11
14.445254
 21
6.392507
 31
0.0
  0
LINE
  5
232
330
22E
100
AcDbEntity
  8
Dimensions
440
 16777216
370
    -2
100
AcDbLine
 10
14.762105
 20
6.292507
 30
0.0
 11
14.882105
 21
6.292507
 31
0.0
  0
LINE
  5
233
330
22E
100
AcDbEntity
  8
Dimensions
440
 16777216
370
    -2
100
AcDbLine
 10
14.325254
 20
6.292507
 30
0.0
 11
14.205254
 21
6.292507
 31
0.0
  0
SOLID
  5
234
330
22E
100
AcDbEntity
  8
Dimensions
440
 16777216
100
AcDbTrace
 10
14.762105
 20
6.312507
 30
0.0
 11
14.762105
 21
6.272507
 31
0.0
 12
14.642105
 22
6.292507
 32
0.0
 13
14.642105
 23
6.292507
 33
0.0
  0
SOLID
  5
235
330
22E
100
AcDbEntity
  8
Dimensions
440
 16777216
100
AcDbTrace
 10
14.325254
 20
6.312507
 30
0.0
 11
14.325254
 21
6.272507
 31
0.0
 12
14.445254
 22
6.292507
 32
0.0
 13
14.445254
 23
6.292507
 33
0.0
  0
MTEXT
  5
236
330
22E
100
AcDbEntity
  8
Dimensions
440
 16777216
100
AcDbMText
 10
14.023494
 20
6.292507
 30
0.0
 40
0.12
 41
0.0
 46
0.0
 71
     5
 72
     1
  1
\A1;.2in
 73
     1
 44
1.0
  0
POINT
  5
237
330
22E
100
AcDbEntity
  8
Defpoints
 62
     0
440
 16777216
100
AcDbPoint
 10
14.642105
 20
5.953096
 30
0.0
  0
POINT
  5
238
330
22E
100
AcDbEntity
  8
Defpoints
 62
     0
440
 16777216
100
AcDbPoint
 10
14.445254
 20
5.913726
 30
0.0
  0
POINT
  5
239
330
22E
100
AcDbEntity
  8
Defpoints
 62
     0
440
 16777216
100
AcDbPoint
 10
14.445254
 20
6.292507
 30
0.0
  0
ENDBLK
  5
23A
330
22E
100
AcDbEntity
  8
0
100
AcDbBlockEnd
  0
BLOCK
  5
23D
330
23C
100
AcDbEntity
  8
0
100
AcDbBlockBegin
  2
*D13
 70
     1
 10
0.0
 20
0.0
 30
0.0
  3
*D13
  1

  0
LINE
  5
23E
330
23C
100
AcDbEntity
  8
Dimensions
440
 16777216
370
    -2
100
AcDbLine
 10
14.642105
 20
5.903096
 30
0.0
 11
14.642105
 21
3.161291
 31
0.0
  0
LINE
  5
23F
330
23C
100
AcDbEntity
  8
Dimensions
440
 16777216
370
    -2
100
AcDbLine
 10
11.919664
 20
4.918844
 30
0.0
 11
11.919664
 21
3.161291
 31
0.0
  0
LINE
  5
240
330
23C
100
AcDbEntity
  8
Dimensions
440
 16777216
370
    -2
100
AcDbLine
 10
14.522105
 20
3.261291
 30
0.0
 11
13.561034
 21
3.261291
 31
0.0
  0
LINE
  5
241
330
23C
100
AcDbEntity
  8
Dimensions
440
 16777216
370
    -2
100
AcDbLine
 10
12.039664
 20
3.261291
 30
0.0
 11
13.000734
 21
3.261291
 31
0.0
  0
SOLID
  5
242
330
23C
100
AcDbEntity
  8
Dimensions
440
 16777216
100
AcDbTrace
 10
14.522105
 20
3.281291
 30
0.0
 11
14.522105
 21
3.241291
 31
0.0
 12
14.642105
 22
3.261291
 32
0.0
 13
14.642105
 23
3.261291
 33
0.0
  0
SOLID
  5
243
330
23C
100
AcDbEntity
  8
Dimensions
440
 16777216
100
AcDbTrace
 10
12.039664
 20
3.281291
 30
0.0
 11
12.039664
 21
3.241291
 31
0.0
 12
11.919664
 22
3.261291
 32
0.0
 13
11.919664
 23
3.261291
 33
0.0
  0
MTEXT
  5
244
330
23C
100
AcDbEntity
  8
Dimensions
440
 16777216
100
AcDbMText
 10
13.280884
 20
3.261291
 30
0.0
 40
0.12
 41
0.0
 46
0.0
 71
     5
 72
     1
  1
\A1;2.72in
 73
     1
 44
1.0
  0
POINT
  5
245
330
23C
100
AcDbEntity
  8
Defpoints
 62
     0
440
 16777216
100
AcDbPoint
 10
14.642105
 20
5.953096
 30
0.0
  0
POINT
  5
246
330
23C
100
AcDbEntity
  8
Defpoints
 62
     0
440
 16777216
100
AcDbPoint
 10
11.919664
 20
4.968844
 30
0.0
  0
POINT
  5
247
330
23C
100
AcDbEntity
  8
Defpoints
 62
     0
440
 16777216
100
AcDbPoint
 10
11.919664
 20
3.261291
 30
0.0
  0
ENDBLK
  5
248
330
23C
100
AcDbEntity
  8
0
100
AcDbBlockEnd
  0
BLOCK
  5
24B
330
24A
100
AcDbEntity
  8
0
100
AcDbBlockBegin
  2
*D14
 70
     1
 10
0.0
 20
0.0
 30
0.0
  3
*D14
  1

  0
LINE
  5
49C
330
24A
100
AcDbEntity
  8
Dimensions
440
 16777216
370
    -2
100
AcDbLine
 10
9.763118
 20
5.909643
 30
0.0
 11
9.643118
 21
5.909643
 31
0.0
  0
LINE
  5
49D
330
24A
100
AcDbEntity
  8
Dimensions
440
 16777216
370
    -2
100
AcDbLine
 10
9.643118
 20
5.909643
 30
0.0
 11
9.352622
 21
5.670562
 31
0.0
  0
MTEXT
  5
49E
330
24A
100
AcDbEntity
  8
Dimensions
440
 16777216
100
AcDbMText
 10
10.107525
 20
5.909643
 30
0.0
 40
0.12
 41
0.0
 46
0.0
 71
     5
 72
     1
  1
\A1;∅1.97in
 73
     1
 44
1.0
  0
SOLID
  5
49F
330
24A
100
AcDbEntity
  8
Dimensions
440
 16777216
100
AcDbTrace
 10
9.339913
 20
5.686004
 30
0.0
 11
9.365332
 21
5.655119
 31
0.0
 12
9.259967
 22
5.594305
 32
0.0
 13
9.259967
 23
5.594305
 33
0.0
  0
POINT
  5
4A0
330
24A
100
AcDbEntity
  8
Defpoints
 62
     0
440
 16777216
100
AcDbPoint
 10
9.259967
 20
5.594305
 30
0.0
  0
POINT
  5
4A1
330
24A
100
AcDbEntity
  8
Defpoints
 62
     0
440
 16777216
100
AcDbPoint
 10
7.740033
 20
4.343383
 30
0.0
  0
ENDBLK
  5
24C
330
24A
100
AcDbEntity
  8
0
100
AcDbBlockEnd
  0
BLOCK
  5
254
330
253
100
AcDbEntity
  8
0
100
AcDbBlockBegin
  2
*D15
 70
     1
 10
0.0
 20
0.0
 30
0.0
  3
*D15
  1

  0
LINE
  5
4A2
330
253
100
AcDbEntity
  8
Dimensions
440
 16777216
370
    -2
100
AcDbLine
 10
9.823259
 20
5.266404
 30
0.0
 11
9.097213
 21
5.103139
 31
0.0
  0
MTEXT
  5
4A3
330
253
100
AcDbEntity
  8
Dimensions
440
 16777216
100
AcDbMText
 10
10.121049
 20
5.266404
 30
0.0
 40
0.12
 41
0.0
 46
0.0
 71
     5
 72
     1
  1
\A1;∅.98in
 73
     1
 44
1.0
  0
SOLID
  5
4A4
330
253
100
AcDbEntity
  8
Dimensions
440
 16777216
100
AcDbTrace
 10
9.092825
 20
5.122651
 30
0.0
 11
9.101601
 21
5.083626
 31
0.0
 12
8.980136
 22
5.076812
 32
0.0
 13
8.980136
 23
5.076812
 33
0.0
  0
POINT
  5
4A5
330
253
100
AcDbEntity
  8
Defpoints
 62
     0
440
 16777216
100
AcDbPoint
 10
8.980136
 20
5.076812
 30
0.0
  0
POINT
  5
4A6
330
253
100
AcDbEntity
  8
Defpoints
 62
     0
440
 16777216
100
AcDbPoint
 10
8.019864
 20
4.860876
 30
0.0
  0
ENDBLK
  5
255
330
253
100
AcDbEntity
  8
0
100
AcDbBlockEnd
  0
BLOCK
  5
25C
330
25B
100
AcDbEntity
  8
0
100
AcDbBlockBegin
  2
*D16
 70
     1
 10
0.0
 20
0.0
 30
0.0
  3
*D16
  1

  0
LINE
  5
4A7
330
25B
100
AcDbEntity
  8
Dimensions
440
 16777216
370
    -2
100
AcDbLine
 10
8.224409
 20
3.46641
 30
0.0
 11
8.224409
 21
3.076999
 31
0.0
  0
LINE
  5
4A8
330
25B
100
AcDbEntity
  8
Dimensions
440
 16777216
370
    -2
100
AcDbLine
 10
8.775591
 20
3.46641
 30
0.0
 11
8.775591
 21
3.076999
 31
0.0
  0
LINE
  5
4A9
330
25B
100
AcDbEntity
  8
Dimensions
440
 16777216
370
    -2
100
AcDbLine
 10
8.104409
 20
3.176999
 30
0.0
 11
7.984409
 21
3.176999
 31
0.0
  0
LINE
  5
4AA
330
25B
100
AcDbEntity
  8
Dimensions
440
 16777216
370
    -2
100
AcDbLine
 10
8.895591
 20
3.176999
 30
0.0
 11
9.015591
 21
3.176999
 31
0.0
  0
SOLID
  5
4AB
330
25B
100
AcDbEntity
  8
Dimensions
440
 16777216
100
AcDbTrace
 10
8.104409
 20
3.196999
 30
0.0
 11
8.104409
 21
3.156999
 31
0.0
 12
8.224409
 22
3.176999
 32
0.0
 13
8.224409
 23
3.176999
 33
0.0
  0
SOLID
  5
4AC
330
25B
100
AcDbEntity
  8
Dimensions
440
 16777216
100
AcDbTrace
 10
8.895591
 20
3.196999
 30
0.0
 11
8.895591
 21
3.156999
 31
0.0
 12
8.775591
 22
3.176999
 32
0.0
 13
8.775591
 23
3.176999
 33
0.0
  0
MTEXT
  5
4AD
330
25B
100
AcDbEntity
  8
Dimensions
440
 16777216
100
AcDbMText
 10
8.5
 20
3.176999
 30
0.0
 40
0.12
 41
0.0
 46
0.0
 71
     5
 72
     1
  1
\A1;.55in
 73
     1
 44
1.0
  0
POINT
  5
4AE
330
25B
100
AcDbEntity
  8
Defpoints
 62
     0
440
 16777216
100
AcDbPoint
 10
8.224409
 20
3.51641
 30
0.0
  0
POINT
  5
4AF
330
25B
100
AcDbEntity
  8
Defpoints
 62
     0
440
 16777216
100
AcDbPoint
 10
8.775591
 20
3.51641
 30
0.0
  0
POINT
  5
4B0
330
25B
100
AcDbEntity
  8
Defpoints
 62
     0
440
 16777216
100
AcDbPoint
 10
8.775591
 20
3.176999
 30
0.0
  0
ENDBLK
  5
25D
330
25B
100
AcDbEntity
  8
0
100
AcDbBlockEnd
  0
BLOCK
  5
269
330
268
100
AcDbEntity
  8
0
100
AcDbBlockBegin
  2
*D17
 70
     1
 10
0.0
 20
0.0
 30
0.0
  3
*D17
  1

  0
LINE
  5
4B1
330
268
100
AcDbEntity
  8
Dimensions
440
 16777216
370
    -2
100
AcDbLine
 10
7.220472
 20
7.346165
 30
0.0
 11
7.220472
 21
8.074988
 31
0.0
  0
LINE
  5
4B2
330
268
100
AcDbEntity
  8
Dimensions
440
 16777216
370
    -2
100
AcDbLine
 10
9.779474
 20
7.346165
 30
0.0
 11
9.779474
 21
8.074988
 31
0.0
  0
LINE
  5
4B3
330
268
100
AcDbEntity
  8
Dimensions
440
 16777216
370
    -2
100
AcDbLine
 10
7.340472
 20
7.974988
 30
0.0
 11
8.219823
 21
7.974988
 31
0.0
  0
LINE
  5
4B4
330
268
100
AcDbEntity
  8
Dimensions
440
 16777216
370
    -2
100
AcDbLine
 10
9.659474
 20
7.974988
 30
0.0
 11
8.780123
 21
7.974988
 31
0.0
  0
SOLID
  5
4B5
330
268
100
AcDbEntity
  8
Dimensions
440
 16777216
100
AcDbTrace
 10
7.340472
 20
7.994988
 30
0.0
 11
7.340472
 21
7.954988
 31
0.0
 12
7.220472
 22
7.974988
 32
0.0
 13
7.220472
 23
7.974988
 33
0.0
  0
SOLID
  5
4B6
330
268
100
AcDbEntity
  8
Dimensions
440
 16777216
100
AcDbTrace
 10
9.659474
 20
7.994988
 30
0.0
 11
9.659474
 21
7.954988
 31
0.0
 12
9.779474
 22
7.974988
 32
0.0
 13
9.779474
 23
7.974988
 33
0.0
  0
MTEXT
  5
4B7
330
268
100
AcDbEntity
  8
Dimensions
440
 16777216
100
AcDbMText
 10
8.499973
 20
7.974988
 30
0.0
 40
0.12
 41
0.0
 46
0.0
 71
     5
 72
     1
  1
\A1;2.56in
 73
     1
 44
1.0
  0
POINT
  5
4B8
330
268
100
AcDbEntity
  8
Defpoints
 62
     0
440
 16777216
100
AcDbPoint
 10
7.220472
 20
7.296165
 30
0.0
  0
POINT
  5
4B9
330
268
100
AcDbEntity
  8
Defpoints
 62
     0
440
 16777216
100
AcDbPoint
 10
9.779474
 20
7.296165
 30
0.0
  0
POINT
  5
4BA
330
268
100
AcDbEntity
  8
Defpoints
 62
     0
440
 16777216
100
AcDbPoint
 10
9.779474
 20
7.974988
 30
0.0
  0
ENDBLK
  5
26A
330
268
100
AcDbEntity
  8
0
100
AcDbBlockEnd
  0
BLOCK
  5
276
330
275
100
AcDbEntity
  8
0
100
AcDbBlockBegin
  2
*D18
 70
     1
 10
0.0
 20
0.0
 30
0.0
  3
*D18
  1

  0
LINE
  5
4BB
330
275
100
AcDbEntity
  8
Dimensions
440
 16777216
370
    -2
100
AcDbLine
 10
14.642105
 20
6.003096
 30
0.0
 11
14.642105
 21
8.173413
 31
0.0
  0
LINE
  5
4BC
330
275
100
AcDbEntity
  8
Dimensions
440
 16777216
370
    -2
100
AcDbLine
 10
12.390195
 20
7.444591
 30
0.0
 11
12.390195
 21
8.173413
 31
0.0
  0
LINE
  5
4BD
330
275
100
AcDbEntity
  8
Dimensions
440
 16777216
370
    -2
100
AcDbLine
 10
14.522105
 20
8.073413
 30
0.0
 11
13.7963
 21
8.073413
 31
0.0
  0
LINE
  5
4BE
330
275
100
AcDbEntity
  8
Dimensions
440
 16777216
370
    -2
100
AcDbLine
 10
12.510195
 20
8.073413
 30
0.0
 11
13.236
 21
8.073413
 31
0.0
  0
SOLID
  5
4BF
330
275
100
AcDbEntity
  8
Dimensions
440
 16777216
100
AcDbTrace
 10
14.522105
 20
8.093413
 30
0.0
 11
14.522105
 21
8.053413
 31
0.0
 12
14.642105
 22
8.073413
 32
0.0
 13
14.642105
 23
8.073413
 33
0.0
  0
SOLID
  5
4C0
330
275
100
AcDbEntity
  8
Dimensions
440
 16777216
100
AcDbTrace
 10
12.510195
 20
8.093413
 30
0.0
 11
12.510195
 21
8.053413
 31
0.0
 12
12.390195
 22
8.073413
 32
0.0
 13
12.390195
 23
8.073413
 33
0.0
  0
MTEXT
  5
4C1
330
275
100
AcDbEntity
  8
Dimensions
440
 16777216
100
AcDbMText
 10
13.51615
 20
8.073413
 30
0.0
 40
0.12
 41
0.0
 46
0.0
 71
     5
 72
     1
  1
\A1;2.25in
 73
     1
 44
1.0
  0
POINT
  5
4C2
330
275
100
AcDbEntity
  8
Defpoints
 62
     0
440
 16777216
100
AcDbPoint
 10
14.642105
 20
5.953096
 30
0.0
  0
POINT
  5
4C3
330
275
100
AcDbEntity
  8
Defpoints
 62
     0
440
 16777216
100
AcDbPoint
 10
12.390195
 20
7.394591
 30
0.0
  0
POINT
  5
4C4
330
275
100
AcDbEntity
  8
Defpoints
 62
     0
440
 16777216
100
AcDbPoint
 10
12.390195
 20
8.073413
 30
0.0
  0
ENDBLK
  5
277
330
275
100
AcDbEntity
  8
0
100
AcDbBlockEnd
  0
BLOCK
  5
283
330
282
100
AcDbEntity
  8
0
100
AcDbBlockBegin
  2
*D19
 70
     1
 10
0.0
 20
0.0
 30
0.0
  3
*D19
  1

  0
LINE
  5
4C5
330
282
100
AcDbEntity
  8
Dimensions
440
 16777216
370
    -2
100
AcDbLine
 10
11.2813
 20
8.540276
 30
0.0
 11
11.4013
 21
8.540276
 31
0.0
  0
LINE
  5
4C6
330
282
100
AcDbEntity
  8
Dimensions
440
 16777216
370
    -2
100
AcDbLine
 10
11.4013
 20
8.540276
 30
0.0
 11
11.584838
 21
8.466471
 31
0.0
  0
MTEXT
  5
4C7
330
282
100
AcDbEntity
  8
Dimensions
440
 16777216
100
AcDbMText
 10
10.98351
 20
8.540276
 30
0.0
 40
0.12
 41
0.0
 46
0.0
 71
     5
 72
     1
  1
\A1;∅1.5in
 73
     1
 44
1.0
  0
SOLID
  5
4C8
330
282
100
AcDbEntity
  8
Dimensions
440
 16777216
100
AcDbTrace
 10
11.592299
 20
8.485027
 30
0.0
 11
11.577376
 21
8.447916
 31
0.0
 12
11.696173
 22
8.421701
 32
0.0
 13
11.696173
 23
8.421701
 33
0.0
  0
ARC
  5
4C9
330
282
100
AcDbEntity
  8
Dimensions
440
 16777216
370
    -2
100
AcDbCircle
 10
12.390195
 20
8.142622
 30
0.0
 40
0.748031496064213
100
AcDbArc
 50
150.434463
 51
226.649033
  0
POINT
  5
4CA
330
282
100
AcDbEntity
  8
Defpoints
 62
     0
440
 16777216
100
AcDbPoint
 10
11.696173
 20
8.421701
 30
0.0
  0
POINT
  5
4CB
330
282
100
AcDbEntity
  8
Defpoints
 62
     0
440
 16777216
100
AcDbPoint
 10
13.084216
 20
7.863543
 30
0.0
  0
ENDBLK
  5
284
330
282
100
AcDbEntity
  8
0
100
AcDbBlockEnd
  0
BLOCK
  5
28D
330
28C
100
AcDbEntity
  8
0
100
AcDbBlockBegin
  2
*D20
 70
     1
 10
0.0
 20
0.0
 30
0.0
  3
*D20
  1

  0
LINE
  5
4CC
330
28C
100
AcDbEntity
  8
Dimensions
440
 16777216
370
    -2
100
AcDbLine
 10
14.642105
 20
6.003096
 30
0.0
 11
14.642105
 21
6.392507
 31
0.0
  0
LINE
  5
4CD
330
28C
100
AcDbEntity
  8
Dimensions
440
 16777216
370
    -2
100
AcDbLine
 10
14.445254
 20
5.963726
 30
0.0
 11
14.445254
 21
6.392507
 31
0.0
  0
LINE
  5
4CE
330
28C
100
AcDbEntity
  8
Dimensions
440
 16777216
370
    -2
100
AcDbLine
 10
14.762105
 20
6.292507
 30
0.0
 11
14.882105
 21
6.292507
 31
0.0
  0
LINE
  5
4CF
330
28C
100
AcDbEntity
  8
Dimensions
440
 16777216
370
    -2
100
AcDbLine
 10
14.325254
 20
6.292507
 30
0.0
 11
14.205254
 21
6.292507
 31
0.0
  0
SOLID
  5
4D0
330
28C
100
AcDbEntity
  8
Dimensions
440
 16777216
100
AcDbTrace
 10
14.762105
 20
6.312507
 30
0.0
 11
14.762105
 21
6.272507
 31
0.0
 12
14.642105
 22
6.292507
 32
0.0
 13
14.642105
 23
6.292507
 33
0.0
  0
SOLID
  5
4D1
330
28C
100
AcDbEntity
  8
Dimensions
440
 16777216
100
AcDbTrace
 10
14.325254
 20
6.312507
 30
0.0
 11
14.325254
 21
6.272507
 31
0.0
 12
14.445254
 22
6.292507
 32
0.0
 13
14.445254
 23
6.292507
 33
0.0
  0
MTEXT
  5
4D2
330
28C
100
AcDbEntity
  8
Dimensions
440
 16777216
100
AcDbMText
 10
14.023494
 20
6.292507
 30
0.0
 40
0.12
 41
0.0
 46
0.0
 71
     5
 72
     1
  1
\A1;.2in
 73
     1
 44
1.0
  0
POINT
  5
4D3
330
28C
100
AcDbEntity
  8
Defpoints
 62
     0
440
 16777216
100
AcDbPoint
 10
14.642105
 20
5.953096
 30
0.0
  0
POINT
  5
4D4
330
28C
100
AcDbEntity
  8
Defpoints
 62
     0
440
 16777216
100
AcDbPoint
 10
14.445254
 20
5.913726
 30
0.0
  0
POINT
  5
4D5
330
28C
100
AcDbEntity
  8
Defpoints
 62
     0
440
 16777216
100
AcDbPoint
 10
14.445254
 20
6.292507
 30
0.0
  0
ENDBLK
  5
28E
330
28C
100
AcDbEntity
  8
0
100
AcDbBlockEnd
  0
BLOCK
  5
29A
330
299
100
AcDbEntity
  8
0
100
AcDbBlockBegin
  2
*D21
 70
     1
 10
0.0
 20
0.0
 30
0.0
  3
*D21
  1

  0
LINE
  5
4D6
330
299
100
AcDbEntity
  8
Dimensions
440
 16777216
370
    -2
100
AcDbLine
 10
14.642105
 20
5.903096
 30
0.0
 11
14.642105
 21
3.161291
 31
0.0
  0
LINE
  5
4D7
330
299
100
AcDbEntity
  8
Dimensions
440
 16777216
370
    -2
100
AcDbLine
 10
11.919664
 20
4.918844
 30
0.0
 11
11.919664
 21
3.161291
 31
0.0
  0
LINE
  5
4D8
330
299
100
AcDbEntity
  8
Dimensions
440
 16777216
370
    -2
100
AcDbLine
 10
14.522105
 20
3.261291
 30
0.0
 11
13.561034
 21
3.261291
 31
0.0
  0
LINE
  5
4D9
330
299
100
AcDbEntity
  8
Dimensions
440
 16777216
370
    -2
100
AcDbLine
 10
12.039664
 20
3.261291
 30
0.0
 11
13.000734
 21
3.261291
 31
0.0
  0
SOLID
  5
4DA
330
299
100
AcDbEntity
  8
Dimensions
440
 16777216
100
AcDbTrace
 10
14.522105
 20
3.281291
 30
0.0
 11
14.522105
 21
3.241291
 31
0.0
 12
14.642105
 22
3.261291
 32
0.0
 13
14.642105
 23
3.261291
 33
0.0
  0
SOLID
  5
4DB
330
299
100
AcDbEntity
  8
Dimensions
440
 16777216
100
AcDbTrace
 10
12.039664
 20
3.281291
 30
0.0
 11
12.039664
 21
3.241291
 31
0.0
 12
11.919664
 22
3.261291
 32
0.0
 13
11.919664
 23
3.261291
 33
0.0
  0
MTEXT
  5
4DC
330
299
100
AcDbEntity
  8
Dimensions
440
 16777216
100
AcDbMText
 10
13.280884
 20
3.261291
 30
0.0
 40
0.12
 41
0.0
 46
0.0
 71
     5
 72
     1
  1
\A1;2.72in
 73
     1
 44
1.0
  0
POINT
  5
4DD
330
299
100
AcDbEntity
  8
Defpoints
 62
     0
440
 16777216
100
AcDbPoint
 10
14.642105
 20
5.953096
 30
0.0
  0
POINT
  5
4DE
330
299
100
AcDbEntity
  8
Defpoints
 62
     0
440
 16777216
100
AcDbPoint
 10
11.919664
 20
4.968844
 30
0.0
  0
POINT
  5
4DF
330
299
100
AcDbEntity
  8
Defpoints
 62
     0
440
 16777216
100
AcDbPoint
 10
11.919664
 20
3.261291
 30
0.0
  0
ENDBLK
  5
29B
330
299
100
AcDbEntity
  8
0
100
AcDbBlockEnd
  0
ENDSEC
  0
SECTION
  2
ENTITIES
  0
INSERT
  5
19E
330
70
100
AcDbEntity
  8
Titleblock
100
AcDbBlockReference
 66
     1
  2
Shower
 10
16.38
 20
0.38
 30
0.0
  0
ATTRIB
  5
1BE
330
19E
100
AcDbEntity
  8
Titleblock
  6
Continuous
370
    25
100
AcDbText
 10
12.6925
 20
2.6925
 30
0.0
 40
0.12
  1
Railing Products and Mock Ups
100
AcDbAttribute
280
     0
  2
PROJECT
 70
     0
280
     1
1001
FD_ATT_APPNAME
1005
1AC
  0
ATTRIB
  5
1BF
330
19E
100
AcDbEntity
  8
Titleblock
  6
Continuous
370
    25
100
AcDbText
 10
14.6925
 20
1.0675
 30
0.0
 40
0.12
  1
2/10/2020
100
AcDbAttribute
280
     0
  2
DRAWN_DATE
 70
     0
280
     1
1001
FD_ATT_APPNAME
1005
1AE
  0
ATTRIB
  5
1C0
330
19E
100
AcDbEntity
  8
Titleblock
  6
Continuous
370
    25
100
AcDbText
 10
12.0675
 20
2.1925
 30
0.0
 40
0.3048
  1
R13-0146-038-12
100
AcDbAttribute
280
     0
  2
TITLE_1
 70
     0
280
     1
1001
FD_ATT_APPNAME
1005
1AF
  0
ATTRIB
  5
1C1
330
19E
100
AcDbEntity
  8
Titleblock
  6
Continuous
370
    25
100
AcDbText
 10
14.6925
 20
1.29994
 30
0.0
 40
0.12
  1
1:1
100
AcDbAttribute
280
     0
  2
SCALE
 70
     0
280
     1
1001
FD_ATT_APPNAME
1005
1B0
  0
SEQEND
  5
1C2
330
19E
100
AcDbEntity
  8
Titleblock
  0
INSERT
  5
1C3
330
70
100
AcDbEntity
  8
Border
100
AcDbBlockReference
  2
ANSI_B_SHEET
 10
0.0
 20
0.0
 30
0.0
  0
DIMENSION
  5
1E4
330
70
100
AcDbEntity
  8
Dimensions
100
AcDbDimension
280
     0
  2
*D14
 10
7.740033
 20
4.343383
 30
0.0
 11
10.107525
 21
5.909643
 31
0.0
 70
   163
 71
     5
 42
1.968504
 73
     0
 74
     0
 75
     0
  3
Standard
100
AcDbDiametricDimension
 15
9.259967
 25
5.594305
 35
0.0
 40
0.0
1001
ACAD_DIMASSOC_CALC_DIMLFAC
1040
-1.0
1001
ACAD_DIMASSOC_DIMLFAC
1040
-1.0
1001
ACAD_DIMASSOC_OVERRIDDEN_DIMLFAC
1040
0.0
1001
ACAD_DSTYLE_DIMRADIAL_EXTENSION
1070
   387
1070
     1
1070
   388
1040
0.0
1070
   390
1040
0.0
1001
ACAD
1000
DSTYLE
1002
{
1070
   144
1040
1.0
1070
   288
1070
     1
1002
}
  0
DIMENSION
  5
1EF
330
70
100
AcDbEntity
  8
Dimensions
100
AcDbDimension
280
     0
  2
*D15
 10
8.019864
 20
4.860876
 30
0.0
 11
9.823259
 21
5.266404
 31
0.0
 70
   163
 71
     5
 42
0.984252
 73
     0
 74
     0
 75
     0
  3
Standard
100
AcDbDiametricDimension
 15
8.980136
 25
5.076812
 35
0.0
 40
0.0
1001
ACAD_DIMASSOC_CALC_DIMLFAC
1040
-1.0
1001
ACAD_DIMASSOC_DIMLFAC
1040
-1.0
1001
ACAD_DIMASSOC_OVERRIDDEN_DIMLFAC
1040
0.0
1001
ACAD_DSTYLE_DIMRADIAL_EXTENSION
1070
   387
1070
     1
1070
   388
1040
0.0
1070
   390
1040
0.0
1001
ACAD
1000
DSTYLE
1002
{
1070
   144
1040
1.0
1070
   288
1070
     1
1002
}
  0
DIMENSION
  5
1F8
330
70
100
AcDbEntity
  8
Dimensions
100
AcDbDimension
280
     0
  2
*D16
 10
8.775591
 20
3.176999
 30
0.0
 11
8.5
 21
3.176999
 31
0.0
 70
    33
 71
     5
 42
0.551181
 73
     0
 74
     0
 75
     0
  3
Standard
100
AcDbAlignedDimension
 13
8.224409
 23
3.51641
 33
0.0
 14
8.775591
 24
3.51641
 34
0.0
1001
ACAD_DIMASSOC_CALC_DIMLFAC
1040
-1.0
1001
ACAD_DIMASSOC_DIMLFAC
1040
-1.0
1001
ACAD_DIMASSOC_OVERRIDDEN_DIMLFAC
1040
0.0
1001
ACAD
1000
DSTYLE
1002
{
1070
   144
1040
1.0
1070
   176
1070
   256
1070
   177
1070
   256
1002
}
  0
DIMENSION
  5
206
330
70
100
AcDbEntity
  8
Dimensions
100
AcDbDimension
280
     0
  2
*D17
 10
9.779474
 20
7.974988
 30
0.0
 11
8.499973
 21
7.974988
 31
0.0
 70
    33
 71
     5
 42
2.559002
 73
     0
 74
     0
 75
     0
  3
Standard
100
AcDbAlignedDimension
 13
7.220472
 23
7.296165
 33
0.0
 14
9.779474
 24
7.296165
 34
0.0
1001
ACAD_DIMASSOC_CALC_DIMLFAC
1040
-1.0
1001
ACAD_DIMASSOC_DIMLFAC
1040
-1.0
1001
ACAD_DIMASSOC_OVERRIDDEN_DIMLFAC
1040
0.0
1001
ACAD
1000
DSTYLE
1002
{
1070
   144
1040
1.0
1070
   176
1070
   256
1070
   177
1070
   256
1002
}
  0
DIMENSION
  5
214
330
70
100
AcDbEntity
  8
Dimensions
100
AcDbDimension
280
     0
  2
*D18
 10
12.390195
 20
8.073413
 30
0.0
 11
13.51615
 21
8.073413
 31
0.0
 70
    32
 71
     5
 42
2.25191
 73
     0
 74
     0
 75
     0
  3
Standard
100
AcDbAlignedDimension
 13
14.642105
 23
5.953096
 33
0.0
 14
12.390195
 24
7.394591
 34
0.0
100
AcDbRotatedDimension
1001
ACAD_DIMASSOC_CALC_DIMLFAC
1040
-1.0
1001
ACAD_DIMASSOC_DIMLFAC
1040
-1.0
1001
ACAD_DIMASSOC_OVERRIDDEN_DIMLFAC
1040
0.0
1001
ACAD
1000
DSTYLE
1002
{
1070
   144
1040
1.0
1070
   176
1070
   256
1070
   177
1070
   256
1002
}
  0
DIMENSION
  5
222
330
70
100
AcDbEntity
  8
Dimensions
100
AcDbDimension
280
     0
  2
*D19
 10
13.084216
 20
7.863543
 30
0.0
 11
10.98351
 21
8.540276
 31
0.0
 70
   163
 71
     5
 42
1.496063
 73
     0
 74
     0
 75
     0
  3
Standard
100
AcDbDiametricDimension
 15
11.696173
 25
8.421701
 35
0.0
 40
0.0
1001
ACAD_DIMASSOC_CALC_DIMLFAC
1040
-1.0
1001
ACAD_DIMASSOC_DIMLFAC
1040
-1.0
1001
ACAD_DIMASSOC_OVERRIDDEN_DIMLFAC
1040
0.0
1001
ACAD_DSTYLE_DIMRADIAL_EXTENSION
1070
   387
1070
     1
1070
   388
1040
4.022614
1070
   390
1040
4.712389
1001
ACAD
1000
DSTYLE
1002
{
1070
   144
1040
1.0
1070
   288
1070
     1
1002
}
  0
DIMENSION
  5
22D
330
70
100
AcDbEntity
  8
Dimensions
100
AcDbDimension
280
     0
  2
*D20
 10
14.445254
 20
6.292507
 30
0.0
 11
14.023494
 21
6.292507
 31
0.0
 70
    32
 71
     5
 42
0.19685
 73
     0
 74
     0
 75
     0
  3
Standard
100
AcDbAlignedDimension
 13
14.642105
 23
5.953096
 33
0.0
 14
14.445254
 24
5.913726
 34
0.0
 50
180.0
100
AcDbRotatedDimension
1001
ACAD_DIMASSOC_CALC_DIMLFAC
1040
-1.0
1001
ACAD_DIMASSOC_DIMLFAC
1040
-1.0
1001
ACAD_DIMASSOC_OVERRIDDEN_DIMLFAC
1040
0.0
1001
ACAD
1000
DSTYLE
1002
{
1070
   144
1040
1.0
1070
   176
1070
   256
1070
   177
1070
   256
1002
}
  0
DIMENSION
  5
23B
330
70
100
AcDbEntity
  8
Dimensions
100
AcDbDimension
280
     0
  2
*D21
 10
11.919664
 20
3.261291
 30
0.0
 11
13.280884
 21
3.261291
 31
0.0
 70
    32
 71
     5
 42
2.722441
 73
     0
 74
     0
 75
     0
  3
Standard
100
AcDbAlignedDimension
 13
14.642105
 23
5.953096
 33
0.0
 14
11.919664
 24
4.968844
 34
0.0
100
AcDbRotatedDimension
1001
ACAD_DIMASSOC_CALC_DIMLFAC
1040
-1.0
1001
ACAD_DIMASSOC_DIMLFAC
1040
-1.0
1001
ACAD_DIMASSOC_OVERRIDDEN_DIMLFAC
1040
0.0
1001
ACAD
1000
DSTYLE
1002
{
1070
   177
1070
   256
1070
   176
1070
   256
1070
   144
1040
1.0
1002
}
  0
CIRCLE
  5
373
330
70
100
AcDbEntity
  8
Visible
100
AcDbCircle
 10
8.5
 20
4.968844
 30
1.271508
 40
0.4921259842519686
  0
ARC
  5
374
330
70
100
AcDbEntity
  8
Visible
100
AcDbCircle
 10
-8.5
 20
4.968844
 30
1.175212
 40
0.9448818897637792
210
0.0000000000000001
220
-0.0000000000000001
230
-1.0
100
AcDbArc
 50
286.957763
 51
73.042237
  0
ARC
  5
375
330
70
100
AcDbEntity
  8
Visible
100
AcDbCircle
 10
-8.5
 20
4.968844
 30
1.175212
 40
0.9448818897637798
210
0.0000000000000001
220
-0.0000000000000001
230
-1.0
100
AcDbArc
 50
106.957763
 51
253.042237
  0
ARC
  5
376
330
70
100
AcDbEntity
  8
Visible
100
AcDbCircle
 10
8.5
 20
4.968844
 30
-1.214582
 40
0.9842519685039372
100
AcDbArc
 50
106.260205
 51
253.739795
  0
ARC
  5
377
330
70
100
AcDbEntity
  8
Visible
100
AcDbCircle
 10
8.5
 20
4.968844
 30
-1.214582
 40
0.984251968503937
100
AcDbArc
 50
286.260205
 51
73.739795
  0
SPLINE
  5
378
330
70
100
AcDbEntity
  8
Visible
100
AcDbSpline
 70
     3
 71
     3
 72
    46
 73
    42
 74
     0
 42
0.000000001
 43
0.0000000001
 40
0.0
 40
0.0
 40
0.0
 40
0.0
 40
0.1176160583361983
 40
0.1176160583361983
 40
0.2352321166723966
 40
0.2352321166723966
 40
0.4704642333447932
 40
0.4704642333447932
 40
0.6974993473189302
 40
0.6974993473189302
 40
0.9245344612930672
 40
0.9245344612930672
 40
1.151569575267204
 40
1.151569575267204
 40
1.378604689241342
 40
1.378604689241342
 40
1.613836805913738
 40
1.613836805913738
 40
1.731452864249937
 40
1.731452864249937
 40
1.849068922586135
 40
1.849068922586135
 40
1.966684980922334
 40
1.966684980922334
 40
2.084301039258532
 40
2.084301039258532
 40
2.31953315593093
 40
2.31953315593093
 40
2.546568269905066
 40
2.546568269905066
 40
2.773603383879203
 40
2.773603383879203
 40
3.000638497853339
 40
3.000638497853339
 40
3.227673611827476
 40
3.227673611827476
 40
3.462905728499873
 40
3.462905728499873
 40
3.580521786836072
 40
3.580521786836072
 40
3.698137845172271
 40
3.698137845172271
 40
3.698137845172271
 40
3.698137845172271
 10
8.275590551178538
 20
6.896573915193085
 30
1.039932860274348
 10
8.275590551178538
 20
6.912009093452429
 30
1.039932860274348
 10
8.277188224361452
 20
6.92724396590012
 30
1.042229095774018
 10
8.283272430098804
 20
6.956697953520874
 30
1.050270145169633
 10
8.287758095681056
 20
6.970929297038972
 30
1.055970757784962
 10
8.30501243956678
 20
7.011475801764117
 30
1.07549162678697
 10
8.321778614286813
 20
7.03571541552667
 30
1.091524341596596
 10
8.360177602153271
 20
7.074114403392036
 30
1.118566467668642
 10
8.384423339068234
 20
7.091240461618203
 30
1.131823379904744
 10
8.439406160750877
 20
7.114705573395806
 30
1.150370070066855
 10
8.470205365618312
 20
7.120983364011983
 30
1.155552941740097
 10
8.529794634378049
 20
7.120983364011983
 30
1.155552941740097
 10
8.560593839245484
 20
7.114705573395806
 30
1.150370070066855
 10
8.615576660928127
 20
7.091240461618203
 30
1.131823379904744
 10
8.63982239784309
 20
7.074114403392036
 30
1.118566467668642
 10
8.678221385709548
 20
7.03571541552667
 30
1.091524341596596
 10
8.694987560429581
 20
7.011475801764117
 30
1.07549162678697
 10
8.712241904315305
 20
6.970929297038972
 30
1.055970757784962
 10
8.716727569897557
 20
6.956697953520874
 30
1.050270145169633
 10
8.722811775634909
 20
6.92724396590012
 30
1.042229095774018
 10
8.724409448817823
 20
6.912009093452429
 30
1.039932860274348
 10
8.724409448817823
 20
6.881138736933741
 30
1.039932860274348
 10
8.722811775634909
 20
6.865903864486049
 30
1.042229095774018
 10
8.716727569897557
 20
6.836449876865294
 30
1.050270145169633
 10
8.712241904315305
 20
6.822218533347196
 30
1.055970757784962
 10
8.694987560429581
 20
6.781672028622051
 30
1.07549162678697
 10
8.678221385709548
 20
6.7574324148595
 30
1.091524341596596
 10
8.63982239784309
 20
6.719033426994133
 30
1.118566467668642
 10
8.615576660928127
 20
6.701907368767967
 30
1.131823379904744
 10
8.560593839245484
 20
6.678442256990364
 30
1.150370070066855
 10
8.529794634378049
 20
6.672164466374187
 30
1.155552941740097
 10
8.470205365618312
 20
6.672164466374187
 30
1.155552941740097
 10
8.439406160750877
 20
6.678442256990364
 30
1.150370070066855
 10
8.384423339068234
 20
6.701907368767966
 30
1.131823379904744
 10
8.360177602153271
 20
6.719033426994133
 30
1.118566467668642
 10
8.321778614286813
 20
6.757432414859499
 30
1.091524341596596
 10
8.30501243956678
 20
6.781672028622051
 30
1.07549162678697
 10
8.287758095681056
 20
6.822218533347196
 30
1.055970757784962
 10
8.283272430098804
 20
6.836449876865295
 30
1.050270145169633
 10
8.277188224361452
 20
6.86590386448605
 30
1.042229095774018
 10
8.275590551178538
 20
6.881138736933741
 30
1.039932860274348
 10
8.275590551178538
 20
6.896573915193085
 30
1.039932860274348
1001
ACAD_VIEW_EDGE_ID
1071
        2
1071
       -1
1071
        4
1071
        0
  0
LINE
  5
379
330
70
100
AcDbEntity
  8
Visible
100
AcDbLine
 10
8.764103
 20
6.703023
 30
0.958703
 11
8.764103
 21
7.068184
 31
0.958703
210
0.0
220
1.0
230
0.0
  0
LINE
  5
37A
330
70
100
AcDbEntity
  8
Visible
100
AcDbLine
 10
8.235897
 20
7.068184
 30
0.958703
 11
8.235897
 21
6.703023
 31
0.958703
210
0.0
220
1.0
230
0.0
  0
SPLINE
  5
37B
330
70
100
AcDbEntity
  8
Visible
100
AcDbSpline
 70
     0
 71
     3
 72
     8
 73
     4
 74
     0
 42
0.000000001
 43
0.0000000001
 40
0.0
 40
0.0
 40
0.0
 40
0.0
 40
0.2012950771902999
 40
0.2012950771902999
 40
0.2012950771902999
 40
0.2012950771902999
 10
8.775590551178538
 20
6.713840512494547
 30
0.879962390557921
 10
8.775590551178538
 20
6.713840512494547
 30
0.9063790673553739
 10
8.771697473603126
 20
6.709892690362771
 30
0.9332282892501098
 10
8.764102517025094
 20
6.703022793653885
 30
0.9587025480395823
1001
ACAD_VIEW_EDGE_ID
1071
       10
1071
       -1
1071
        4
1071
        0
  0
SPLINE
  5
37C
330
70
100
AcDbEntity
  8
Visible
100
AcDbSpline
 70
     0
 71
     3
 72
     8
 73
     4
 74
     0
 42
0.000000001
 43
0.0000000001
 40
2.008562787254438
 40
2.008562787254438
 40
2.008562787254438
 40
2.008562787254438
 40
2.209857864444705
 40
2.209857864444705
 40
2.209857864444705
 40
2.209857864444705
 10
8.235897482971267
 20
6.70302279365391
 30
0.9587025480395823
 10
8.228302526393235
 20
6.709892690362793
 30
0.9332282892501098
 10
8.224409448817823
 20
6.713840512494547
 30
0.9063790673553739
 10
8.224409448817823
 20
6.713840512494547
 30
0.879962390557921
1001
ACAD_VIEW_EDGE_ID
1071
       14
1071
       -1
1071
        4
1071
        0
  0
SPLINE
  5
37D
330
70
100
AcDbEntity
  8
Visible
100
AcDbSpline
 70
     0
 71
     3
 72
    14
 73
    10
 74
     0
 42
0.000000001
 43
0.0000000001
 40
-1.161707484134181
 40
-1.161707484134181
 40
-1.161707484134181
 40
-1.161707484134181
 40
-0.8798978209865015
 40
-0.8798978209865015
 40
-0.5980881578388218
 40
-0.5980881578388218
 40
-0.2990440789194109
 40
-0.2990440789194109
 40
-0.2126327301455481
 40
-0.2126327301455481
 40
-0.2126327301455481
 40
-0.2126327301455481
 10
8.499999999998181
 20
7.211534545114345
 30
1.155552941740097
 10
8.463017104571918
 20
7.211534545114345
 30
1.155552941740097
 10
8.425002529298581
 20
7.204580548101484
 30
1.147682199600239
 10
8.357520799687335
 20
7.179756500021577
 30
1.118705319699074
 10
8.32797505772578
 20
7.162004445726656
 30
1.097681343428121
 10
8.280883810482919
 20
7.124917190969008
 30
1.050590096187079
 10
8.260467324182172
 20
7.102441691917509
 30
1.020856214003288
 10
8.242414750253374
 20
7.077948031531556
 30
0.9784844075838918
 10
8.2388841463071
 20
7.072780487712774
 30
0.9687201214128435
 10
8.235897482967629
 20
7.068184109816272
 30
0.9587025480341253
1001
ACAD_VIEW_EDGE_ID
1071
       20
1071
       -1
1071
        4
1071
        0
  0
SPLINE
  5
37E
330
70
100
AcDbEntity
  8
Visible
100
AcDbSpline
 70
     0
 71
     3
 72
    14
 73
    10
 74
     0
 42
0.000000001
 43
0.0000000001
 40
2.53604769841391
 40
2.53604769841391
 40
2.53604769841391
 40
2.53604769841391
 40
2.622459047187773
 40
2.622459047187773
 40
2.921503126107184
 40
2.921503126107184
 40
3.203312789254864
 40
3.203312789254864
 40
3.485122452402544
 40
3.485122452402544
 40
3.485122452402544
 40
3.485122452402544
 10
8.764102517028732
 20
7.068184109816272
 30
0.9587025480341253
 10
8.761115853689261
 20
7.072780487712774
 30
0.9687201214128435
 10
8.757585249742987
 20
7.077948031531555
 30
0.9784844075838918
 10
8.739532675814189
 20
7.102441691917509
 30
1.020856214003288
 10
8.719116189513442
 20
7.124917190969008
 30
1.050590096187079
 10
8.672024942270581
 20
7.162004445726656
 30
1.097681343428121
 10
8.642479200309026
 20
7.179756500021577
 30
1.118705319699074
 10
8.57499747069778
 20
7.204580548101484
 30
1.147682199600239
 10
8.536982895424443
 20
7.211534545114345
 30
1.155552941740097
 10
8.499999999998181
 20
7.211534545114345
 30
1.155552941740097
1001
ACAD_VIEW_EDGE_ID
1071
       21
1071
       -1
1071
        4
1071
        0
  0
ARC
  5
37F
330
70
100
AcDbEntity
  8
Visible
100
AcDbCircle
 10
-8.5
 20
0.879962
 30
3.51641
 40
0.275590551181103
210
0.0
220
1.0
230
0.0
100
AcDbArc
 50
0.0
 51
180.0
  0
LINE
  5
380
330
70
100
AcDbEntity
  8
Visible
100
AcDbLine
 10
8.224409
 20
3.51641
 30
0.879962
 11
8.224409
 21
4.561121
 31
0.879962
210
0.0
220
1.0
230
0.0
  0
LINE
  5
381
330
70
100
AcDbEntity
  8
Visible
100
AcDbLine
 10
8.224409
 20
5.376567
 30
0.879962
 11
8.224409
 21
6.713841
 31
0.879962
210
0.0
220
1.0
230
0.0
  0
LINE
  5
382
330
70
100
AcDbEntity
  8
Visible
100
AcDbLine
 10
8.775591
 20
3.51641
 30
0.879962
 11
8.775591
 21
4.561121
 31
0.879962
210
0.0
220
1.0
230
0.0
  0
LINE
  5
383
330
70
100
AcDbEntity
  8
Visible
100
AcDbLine
 10
8.775591
 20
5.376567
 30
0.879962
 11
8.775591
 21
6.713841
 31
0.879962
210
0.0
220
1.0
230
0.0
  0
ARC
  5
384
330
70
100
AcDbEntity
  8
Visible
100
AcDbCircle
 10
-8.5
 20
3.924133
 30
-0.879962
 40
0.4921259842519688
210
0.0000000000000001
220
0.0
230
-1.0
100
AcDbArc
 50
235.944202
 51
304.055798
  0
SPLINE
  5
385
330
70
100
AcDbEntity
  8
Visible
100
AcDbSpline
210
1.0
220
0.0
230
0.0
 70
    12
 71
     2
 72
     6
 73
     3
 74
     0
 42
0.000000001
 43
0.0000000001
 40
0.1355501852963379
 40
0.1355501852963379
 40
0.1355501852963379
 40
0.453233872459803
 40
0.453233872459803
 40
0.453233872459803
 10
8.580354456182249
 20
6.943148317522647
 30
1.143321930097954
 41
1.232050807568715
 10
8.580354456182249
 20
6.897687666405115
 30
1.120591604538276
 41
1.422649730812052
 10
8.580354456182249
 20
6.852227015287583
 30
1.143321930097954
 41
1.232050807568715
1001
ACAD_VIEW_EDGE_ID
1071
        0
1071
       -1
1071
        5
1071
        0
  0
ARC
  5
386
330
70
100
AcDbEntity
  8
Visible
100
AcDbCircle
 10
8.501614
 20
6.897688
 30
1.143322
 40
0.0909213022345869
100
AcDbArc
 50
330.0
 51
30.0
  0
CIRCLE
  5
387
330
70
100
AcDbEntity
  8
Visible
100
AcDbCircle
 10
8.501614
 20
6.897688
 30
1.032889
 40
0.2066929133858268
  0
CIRCLE
  5
388
330
70
100
AcDbEntity
  8
Visible
100
AcDbCircle
 10
8.501614
 20
6.897688
 30
1.143322
 40
0.1181102362204725
  0
ARC
  5
389
330
70
100
AcDbEntity
  8
Visible
100
AcDbCircle
 10
8.501614
 20
6.897688
 30
1.143322
 40
0.0909213022345869
100
AcDbArc
 50
150.0
 51
210.0
  0
ARC
  5
38A
330
70
100
AcDbEntity
  8
Visible
100
AcDbCircle
 10
8.501614
 20
6.897688
 30
1.143322
 40
0.0909213022345869
100
AcDbArc
 50
90.0
 51
150.0
  0
ARC
  5
38B
330
70
100
AcDbEntity
  8
Visible
100
AcDbCircle
 10
8.501614
 20
6.897688
 30
1.143322
 40
0.0909213022345865
100
AcDbArc
 50
30.0
 51
90.0
  0
ARC
  5
38C
330
70
100
AcDbEntity
  8
Visible
100
AcDbCircle
 10
8.501614
 20
6.897688
 30
1.143322
 40
0.0909213022345865
100
AcDbArc
 50
270.0
 51
330.0
  0
ARC
  5
38D
330
70
100
AcDbEntity
  8
Visible
100
AcDbCircle
 10
8.501614
 20
6.897688
 30
1.143322
 40
0.0909213022345867
100
AcDbArc
 50
210.0
 51
270.0
  0
SPLINE
  5
38E
330
70
100
AcDbEntity
  8
Visible
100
AcDbSpline
210
0.5000000000042099
220
0.8660254037820079
230
-0.000000000020057
 70
    12
 71
     2
 72
     6
 73
     3
 74
     0
 42
0.000000001
 43
0.0000000001
 40
-0.45323387245921
 40
-0.45323387245921
 40
-0.45323387245921
 40
-0.1355501852959807
 40
-0.1355501852959807
 40
-0.1355501852959807
 10
8.580354456182249
 20
6.94314831752229
 30
1.143321930097954
 41
1.232050807568012
 10
8.540984377441418
 20
6.965878643081054
 30
1.120591604538276
 41
1.422649730811242
 10
8.501614298702406
 20
6.98860896863982
 30
1.143321930097954
 41
1.232050807568012
1001
ACAD_VIEW_EDGE_ID
1071
       23
1071
       -1
1071
        5
1071
        0
  0
SPLINE
  5
38F
330
70
100
AcDbEntity
  8
Visible
100
AcDbSpline
210
-0.4999999999955616
220
0.8660254037870011
230
-0.0000000000000169
 70
    12
 71
     2
 72
     6
 73
     3
 74
     0
 42
0.000000001
 43
0.0000000001
 40
-0.4532338724592102
 40
-0.4532338724592102
 40
-0.4532338724592102
 40
-0.1355501852959811
 40
-0.1355501852959811
 40
-0.1355501852959811
 10
8.501614298702406
 20
6.988608968639821
 30
1.143321930097954
 41
1.232050807568011
 10
8.462244219961576
 20
6.965878643081055
 30
1.120591604538276
 41
1.422649730811238
 10
8.422874141220745
 20
6.943148317522289
 30
1.143321930097954
 41
1.232050807568011
1001
ACAD_VIEW_EDGE_ID
1071
       24
1071
       -1
1071
        5
1071
        0
  0
SPLINE
  5
390
330
70
100
AcDbEntity
  8
Visible
100
AcDbSpline
210
1.0
220
0.0
230
0.0
 70
    12
 71
     2
 72
     6
 73
     3
 74
     0
 42
0.000000001
 43
0.0000000001
 40
-0.4532338724592097
 40
-0.4532338724592097
 40
-0.4532338724592097
 40
-0.1355501852959807
 40
-0.1355501852959807
 40
-0.1355501852959807
 10
8.422874141220745
 20
6.943148317522646
 30
1.143321930097954
 41
1.232050807568013
 10
8.422874141220745
 20
6.897687666405115
 30
1.120591604538276
 41
1.422649730811242
 10
8.422874141220745
 20
6.852227015287583
 30
1.143321930097954
 41
1.232050807568012
1001
ACAD_VIEW_EDGE_ID
1071
       25
1071
       -1
1071
        5
1071
        0
  0
SPLINE
  5
391
330
70
100
AcDbEntity
  8
Visible
100
AcDbSpline
210
0.4999999999955544
220
0.8660254037870055
230
0.0000000000000339
 70
    12
 71
     2
 72
     6
 73
     3
 74
     0
 42
0.000000001
 43
0.0000000001
 40
-0.45323387245921
 40
-0.45323387245921
 40
-0.45323387245921
 40
-0.1355501852959808
 40
-0.1355501852959808
 40
-0.1355501852959808
 10
8.422874141220745
 20
6.85222701528794
 30
1.143321930097954
 41
1.232050807568012
 10
8.462244219961576
 20
6.829496689729175
 30
1.120591604538276
 41
1.422649730811241
 10
8.501614298702406
 20
6.806766364170409
 30
1.143321930097954
 41
1.232050807568012
1001
ACAD_VIEW_EDGE_ID
1071
       26
1071
       -1
1071
        5
1071
        0
  0
SPLINE
  5
392
330
70
100
AcDbEntity
  8
Visible
100
AcDbSpline
210
-0.5000000000042172
220
0.8660254037820036
230
0.0000000000200062
 70
    12
 71
     2
 72
     6
 73
     3
 74
     0
 42
0.000000001
 43
0.0000000001
 40
-0.4532338724592098
 40
-0.4532338724592098
 40
-0.4532338724592098
 40
-0.1355501852959808
 40
-0.1355501852959808
 40
-0.1355501852959808
 10
8.501614298702406
 20
6.806766364170409
 30
1.143321930097954
 41
1.232050807568012
 10
8.540984377441418
 20
6.829496689729174
 30
1.120591604538276
 41
1.422649730811241
 10
8.580354456182249
 20
6.85222701528794
 30
1.143321930097954
 41
1.232050807568012
1001
ACAD_VIEW_EDGE_ID
1071
       27
1071
       -1
1071
        5
1071
        0
  0
SPLINE
  5
393
330
70
100
AcDbEntity
  8
Visible
100
AcDbSpline
 70
     1
 71
     3
 72
    38
 73
    34
 74
     0
 42
0.000000001
 43
0.0000000001
 40
0.0
 40
0.0
 40
0.0
 40
0.0
 40
0.1054838284653477
 40
0.1054838284653477
 40
0.2109676569306954
 40
0.2109676569306954
 40
0.3167758624501248
 40
0.3167758624501248
 40
0.4225840679695543
 40
0.4225840679695543
 40
0.5292062853356539
 40
0.5292062853356539
 40
0.6358285027017536
 40
0.6358285027017536
 40
0.7418578570909686
 40
0.7418578570909686
 40
0.8478872114801838
 40
0.8478872114801838
 40
0.9534983864974076
 40
0.9534983864974076
 40
1.059109561514631
 40
1.059109561514631
 40
1.166149557102843
 40
1.166149557102843
 40
1.273189552691055
 40
1.273189552691055
 40
1.379002637297842
 40
1.379002637297842
 40
1.48481572190463
 40
1.48481572190463
 40
1.590294672585504
 40
1.590294672585504
 40
1.695773623266378
 40
1.695773623266378
 40
1.695773623266378
 40
1.695773623266378
 10
9.510026230180301
 20
7.296169162024153
 30
0.8825174922876612
 10
9.49618320807167
 20
7.296169162024153
 30
0.8825174922876612
 10
9.481417743545534
 20
7.296164180561819
 30
0.8852844219109101
 10
9.454257308922024
 20
7.29629872655884
 30
0.8965356199714733
 10
9.441862449180916
 20
7.296455991894839
 30
0.9050199357025121
 10
9.422262362928449
 20
7.297197097795311
 30
0.9246200219549791
 10
9.413770432729506
 20
7.297834730686584
 30
0.9370486774132587
 10
9.402534948498214
 20
7.299920248518671
 30
0.964225589783382
 10
9.39979000970743
 20
7.301385926190254
 30
0.9789719058535411
 10
9.39979000970743
 20
7.304788029504187
 30
1.006641546928221
 10
9.402570875645324
 20
7.306955845773517
 30
1.021408678972875
 10
9.413822470032755
 20
7.311571077361167
 30
1.048544363502514
 10
9.42229145638521
 20
7.3140016685467
 30
1.060916497022844
 10
9.441809031797674
 20
7.318116379536864
 30
1.080434072435309
 10
9.454158515514791
 20
7.320077755127235
 30
1.088914542895508
 10
9.481308216181787
 20
7.322768768273937
 30
1.100193844613386
 10
9.496111616743291
 20
7.323477740679842
 30
1.102989933233402
 10
9.523885964434157
 20
7.323477740679841
 30
1.102989933233402
 10
9.538635034667095
 20
7.322774382559123
 30
1.100215647498771
 10
9.565702177398634
 20
7.320101915339118
 30
1.089017519758272
 10
9.578023391080932
 20
7.31815318792336
 30
1.08059641586442
 10
9.59759896991818
 20
7.31404531304639
 30
1.061135648013078
 10
9.606127357739751
 20
7.311605816850764
 30
1.048735047228547
 10
9.617459971756034
 20
7.30697198953353
 30
1.021517019786188
 10
9.620262450653171
 20
7.304794720281593
 30
1.006695963678794
 10
9.620262450653171
 20
7.30138584805098
 30
0.9789712703386612
 10
9.617517260401655
 20
7.299920124611591
 30
0.9642243155176402
 10
9.606280821328255
 20
7.29783458401573
 30
0.9370464256644481
 10
9.597788187857076
 20
7.297196971116638
 30
0.9246174316558608
 10
9.578187420182075
 20
7.296455948243749
 30
0.9050180234680738
 10
9.565792896875791
 20
7.296298707639349
 30
0.8965344100251968
 10
9.538633437703538
 20
7.296164181977398
 30
0.8852841680709389
 10
9.523868612159276
 20
7.296169162024153
 30
0.8825174922876612
 10
9.510026230180301
 20
7.296169162024153
 30
0.8825174922876612
1001
ACAD_VIEW_EDGE_ID
1071
        0
1071
       -1
1071
        6
1071
        0
  0
SPLINE
  5
394
330
70
100
AcDbEntity
  8
Visible
100
AcDbSpline
 70
     0
 71
     3
 72
    10
 73
     6
 74
     0
 42
0.000000001
 43
0.0000000001
 40
0.7876292891518983
 40
0.7876292891518983
 40
0.7876292891518983
 40
0.7876292891518983
 40
0.8475837638844783
 40
0.8475837638844783
 40
0.9075382386170549
 40
0.9075382386170549
 40
0.9075382386170549
 40
0.9075382386170549
 10
7.468654111771684
 20
7.296162938218008
 30
0.879819073164981
 10
7.476731160882991
 20
7.296162392912889
 30
0.8816236442144145
 10
7.484897180434927
 20
7.296169162024153
 30
0.8825174922876612
 10
7.500633263041891
 20
7.296169162024153
 30
0.8825174922876612
 10
7.508799282595646
 20
7.296162392912889
 30
0.8816236442144145
 10
7.516876331705134
 20
7.296162938218008
 30
0.879819073164981
1001
ACAD_VIEW_EDGE_ID
1071
        2
1071
       -1
1071
        6
1071
        0
  0
ELLIPSE
  5
395
330
70
100
AcDbEntity
  8
Visible
100
AcDbEllipse
 10
8.5
 20
6.882779
 30
0.879847
 11
-0.000000000024223
 21
-0.2755905511407393
 31
0.2755905511407393
210
-0.0000000000000002
220
0.7071067811865475
230
0.7071067811865475
 40
0.7071067812882
 41
-1.570796326750949
 42
-1.28104462527213
1001
ACAD_VIEW_EDGE_ID
1071
        7
1071
       -1
1071
        6
1071
        0
  0
ELLIPSE
  5
396
330
70
100
AcDbEntity
  8
Visible
100
AcDbEllipse
 10
8.5
 20
6.882779
 30
0.879847
 11
0.0000000000242222
 21
-0.2755905511407422
 31
0.2755905511407422
210
-0.0000000000000002
220
0.7071067811865476
230
0.7071067811865476
 40
0.7071067812881921
 41
1.281044625272133
 42
1.570796326750949
1001
ACAD_VIEW_EDGE_ID
1071
       11
1071
       -1
1071
        6
1071
        0
  0
LINE
  5
397
330
70
100
AcDbEntity
  8
Visible
100
AcDbLine
 10
8.764103
 20
7.088297
 30
0.958587
 11
8.764103
 21
7.068184
 31
0.958587
210
0.0
220
1.0
230
0.0
  0
LINE
  5
398
330
70
100
AcDbEntity
  8
Visible
100
AcDbLine
 10
8.235897
 20
7.068184
 30
0.958587
 11
8.235897
 21
7.088297
 31
0.958587
210
0.0
220
1.0
230
0.0
  0
SPLINE
  5
399
330
70
100
AcDbEntity
  8
Visible
100
AcDbSpline
 70
     0
 71
     3
 72
    14
 73
    10
 74
     0
 42
0.000000001
 43
0.0000000001
 40
1.1387484406999
 40
1.1387484406999
 40
1.1387484406999
 40
1.1387484406999
 40
1.417990799010673
 40
1.417990799010673
 40
1.697233157321445
 40
1.697233157321445
 40
1.987365019360623
 40
1.987365019360623
 40
2.070208965220916
 40
2.070208965220916
 40
2.070208965220916
 40
2.070208965220916
 10
8.499999999998181
 20
7.217425150371821
 30
1.155437515288213
 10
8.536645978778324
 20
7.217425150371821
 30
1.155437515288213
 10
8.574496659857686
 20
7.210972691825268
 30
1.147705028468408
 10
8.642012995484037
 20
7.187890671902785
 30
1.118865784939771
 10
8.671755431003475
 20
7.171390552105899
 30
1.097835428243342
 10
8.718889929783472
 20
7.137628001554222
 30
1.050700929463346
 10
8.739454808093796
 20
7.117549402326651
 30
1.020949605150235
 10
8.757599242855576
 20
7.096481362088546
 30
0.9783286622769082
 10
8.761123980433694
 20
7.09212492043385
 30
0.9685774370245781
 10
8.764102517025094
 20
7.088297325744076
 30
0.9585871215876977
1001
ACAD_VIEW_EDGE_ID
1071
       20
1071
       -1
1071
        6
1071
        0
  0
SPLINE
  5
39A
330
70
100
AcDbEntity
  8
Visible
100
AcDbSpline
 70
     0
 71
     3
 72
    14
 73
    10
 74
     0
 42
0.000000001
 43
0.0000000001
 40
0.2072879161788841
 40
0.2072879161788841
 40
0.2072879161788841
 40
0.2072879161788841
 40
0.2901318620391773
 40
0.2901318620391773
 40
0.5802637240783547
 40
0.5802637240783547
 40
0.8595060823891273
 40
0.8595060823891273
 40
1.1387484406999
 40
1.1387484406999
 40
1.1387484406999
 40
1.1387484406999
 10
8.235897482971267
 20
7.088297325744076
 30
0.9585871215876977
 10
8.238876019562667
 20
7.09212492043385
 30
0.9685774370245781
 10
8.242400757140785
 20
7.096481362088547
 30
0.9783286622769082
 10
8.260545191902565
 20
7.117549402326651
 30
1.020949605150235
 10
8.281110070212889
 20
7.137628001554222
 30
1.050700929463346
 10
8.328244568992886
 20
7.171390552105899
 30
1.097835428243342
 10
8.357987004512324
 20
7.187890671902785
 30
1.118865784939771
 10
8.425503340138675
 20
7.210972691825268
 30
1.147705028468408
 10
8.463354021218037
 20
7.217425150371821
 30
1.155437515288213
 10
8.499999999998181
 20
7.217425150371821
 30
1.155437515288213
1001
ACAD_VIEW_EDGE_ID
1071
       21
1071
       -1
1071
        6
1071
        0
  0
SPLINE
  5
39B
330
70
100
AcDbEntity
  8
Visible
100
AcDbSpline
 70
     0
 71
     3
 72
    14
 73
    10
 74
     0
 42
0.000000001
 43
0.0000000001
 40
0.0
 40
0.0
 40
0.0
 40
0.0
 40
0.2654666869753293
 40
0.2654666869753293
 40
0.5309333739506586
 40
0.5309333739506586
 40
0.7963232942024937
 40
0.7963232942024937
 40
1.061713214454328
 40
1.061713214454328
 40
1.061713214457208
 40
1.061713214457208
 10
8.499999999998181
 20
7.338163958475184
 30
1.155437515288213
 10
8.534838147894333
 20
7.338163958475184
 30
1.155437515288213
 10
8.571842226505395
 20
7.335886919054837
 30
1.148431615221852
 10
8.639672458590212
 20
7.327822304098591
 30
1.12024379162176
 10
8.670518676557549
 20
7.322168002206249
 30
1.099072182689269
 10
8.719218176187496
 20
7.311675153275726
 30
1.050372683059322
 10
8.74039524028376
 20
7.306132422082411
 30
1.019523600112734
 10
8.76858708927466
 20
7.298326611018999
 30
0.9516829655367473
 10
8.775590551178538
 20
7.296165307852136
 30
0.9146750376312411
 10
8.775590551178538
 20
7.296165307852136
 30
0.8798469641060364
1001
ACAD_VIEW_EDGE_ID
1071
       22
1071
       -1
1071
        6
1071
        0
  0
SPLINE
  5
39C
330
70
100
AcDbEntity
  8
Visible
100
AcDbSpline
 70
     0
 71
     3
 72
    14
 73
    10
 74
     0
 42
0.000000001
 43
0.0000000001
 40
3.185139643362986
 40
3.185139643362986
 40
3.185139643379669
 40
3.185139643379669
 40
3.450529563614821
 40
3.450529563614821
 40
3.715919483866656
 40
3.715919483866656
 40
3.981386170841986
 40
3.981386170841986
 40
4.246852857817315
 40
4.246852857817315
 40
4.246852857817315
 40
4.246852857817315
 10
8.224409448817823
 20
7.296165307852136
 30
0.8798469641114934
 10
8.224409448817823
 20
7.296165307852407
 30
0.9146750376348791
 10
8.23141291072352
 20
7.298326611019244
 30
0.9516829655385663
 10
8.259604759712601
 20
7.306132422082412
 30
1.019523600112734
 10
8.280781823808865
 20
7.311675153275726
 30
1.050372683059322
 10
8.329481323438812
 20
7.322168002206249
 30
1.099072182689269
 10
8.360327541406149
 20
7.327822304098591
 30
1.12024379162176
 10
8.428157773490966
 20
7.335886919054837
 30
1.148431615221852
 10
8.465161852102028
 20
7.338163958475184
 30
1.155437515288213
 10
8.499999999998181
 20
7.338163958475184
 30
1.155437515288213
1001
ACAD_VIEW_EDGE_ID
1071
       22
1071
       -1
1071
        6
1071
        0
  0
SPLINE
  5
39D
330
70
100
AcDbEntity
  8
Visible
100
AcDbSpline
 70
     0
 71
     3
 72
    22
 73
    18
 74
     0
 42
0.000000001
 43
0.0000000001
 40
0.3437529438379148
 40
0.3437529438379148
 40
0.3437529438379148
 40
0.3437529438379148
 40
0.3513109660372399
 40
0.3513109660372399
 40
0.3588689882365649
 40
0.3588689882365649
 40
0.3739850326352148
 40
0.3739850326352148
 40
0.4042171214325149
 40
0.4042171214325149
 40
0.464681299027115
 40
0.464681299027115
 40
0.5856096542163152
 40
0.5856096542163152
 40
0.6474638112548118
 40
0.6474638112548118
 40
0.6483697357685667
 40
0.6483697357685667
 40
0.6483697357685667
 40
0.6483697357685667
 10
7.712597583686147
 20
7.558134860932692
 30
1.37197210685008
 10
7.711605717255224
 20
7.558134860932692
 30
1.37197210685008
 10
7.710635899820772
 20
7.558310244424491
 30
1.371969175261256
 10
7.708672608685446
 20
7.55857327454643
 30
1.371957434652358
 10
7.707686681031191
 20
7.558714465599436
 30
1.37194860017189
 10
7.704709119050676
 20
7.55912187038049
 30
1.371912892172986
 10
7.702701556792817
 20
7.559408477367568
 30
1.371876771783718
 10
7.696623495892708
 20
7.560255951983402
 30
1.371729484540992
 10
7.692488312186469
 20
7.560828103950322
 30
1.371578869307995
 10
7.679955663534201
 20
7.562518131308731
 30
1.370959621030124
 10
7.671388863667743
 20
7.563619555661188
 30
1.370318745906843
 10
7.645788363379324
 20
7.566514057320991
 30
1.367717823406565
 10
7.628728844567376
 20
7.567942926390718
 30
1.365032530131429
 10
7.6052365971791
 20
7.567793390611914
 30
1.360187117956229
 10
7.595764961961322
 20
7.567292464278128
 30
1.357968870879631
 10
7.587957300360358
 20
7.565647564179451
 30
1.355926757274573
 10
7.587843720870296
 20
7.565623320695417
 30
1.355897007497333
 10
7.587729353817849
 20
7.565598571593965
 30
1.355867007056076
1001
ACAD_VIEW_EDGE_ID
1071
       23
1071
       -1
1071
        6
1071
        0
  0
SPLINE
  5
39E
330
70
100
AcDbEntity
  8
Visible
100
AcDbSpline
 70
     0
 71
     3
 72
    16
 73
    12
 74
     0
 42
0.000000001
 43
0.0000000001
 40
0.3166829533326489
 40
0.3166829533326489
 40
0.3166829533326489
 40
0.3166829533326489
 40
0.4922883918078198
 40
0.4922883918078198
 40
0.9845767836156394
 40
0.9845767836156394
 40
1.47181069110683
 40
1.47181069110683
 40
1.715427644852425
 40
1.715427644852425
 40
1.959044598598021
 40
1.959044598598021
 40
1.959044598598021
 40
1.959044598598021
 10
7.587729353817849
 20
7.565598571593965
 30
1.355867007056076
 10
7.565054972017605
 20
7.560691821234248
 30
1.349919127422253
 10
7.542838544051846
 20
7.554599525062766
 30
1.342350734877982
 10
7.461342399092245
 20
7.528409184932817
 30
1.307991455369119
 10
7.407433995420433
 20
7.502964647839106
 30
1.270653427092838
 10
7.322230782261613
 20
7.458187878379317
 30
1.185450213934018
 10
7.284599868671648
 20
7.435407351925551
 30
1.131442205489292
 10
7.246404966470436
 20
7.411457755224387
 30
1.040860533894374
 10
7.236607010985608
 20
7.405121674038602
 30
1.009086683359782
 10
7.223638114310233
 20
7.39668562994403
 30
0.9445661084700986
 10
7.220472440943922
 20
7.394590504702529
 30
0.9118176929441688
 10
7.220472440943922
 20
7.394590504702529
 30
0.8798469641060364
1001
ACAD_VIEW_EDGE_ID
1071
       24
1071
       -1
1071
        6
1071
        0
  0
SPLINE
  5
39F
330
70
100
AcDbEntity
  8
Visible
100
AcDbSpline
 70
     0
 71
     3
 72
    14
 73
    10
 74
     0
 42
0.000000001
 43
0.0000000001
 40
5.783789440326742
 40
5.783789440326742
 40
5.783789440326742
 40
5.783789440326742
 40
6.024342796720238
 40
6.024342796720238
 40
6.264896153113734
 40
6.264896153113734
 40
6.746002865900726
 40
6.746002865900726
 40
6.850303376631917
 40
6.850303376631917
 40
6.850303376631917
 40
6.850303376631917
 10
7.220472440943922
 20
7.296165307852136
 30
0.8798469641060364
 10
7.220472440943922
 20
7.296165307852136
 30
0.9114156460473168
 10
7.223559149659195
 20
7.297819478787377
 30
0.9438646763610449
 10
7.236331884849278
 20
7.304518929162438
 30
1.008018105729206
 10
7.246013380396107
 20
7.309560178663925
 30
1.039723827565467
 10
7.283997714301222
 20
7.32860249297604
 30
1.130419080594947
 10
7.321700444412272
 20
7.34668244110575
 30
1.184919876084677
 10
7.373915598842359
 20
7.367877971518213
 30
1.237135030514764
 10
7.38373305378991
 20
7.371736946842138
 30
1.246204281451355
 10
7.394027245321922
 20
7.375614491182178
 30
1.254947078256009
1001
ACAD_VIEW_EDGE_ID
1071
       30
1071
       -1
1071
        6
1071
        0
  0
SPLINE
  5
3A0
330
70
100
AcDbEntity
  8
Visible
100
AcDbSpline
 70
     0
 71
     3
 72
    24
 73
    20
 74
     0
 42
0.000000001
 43
0.0000000001
 40
5.389073406529078
 40
5.389073406529078
 40
5.389073406529078
 40
5.389073406529078
 40
5.527564862621652
 40
5.527564862621652
 40
5.841899878117944
 40
5.841899878117944
 40
6.156234893614236
 40
6.156234893614236
 40
6.313402401362382
 40
6.313402401362382
 40
6.391986155236455
 40
6.391986155236455
 40
6.431278032173492
 40
6.431278032173492
 40
6.45092397064201
 40
6.45092397064201
 40
6.460746939876269
 40
6.460746939876269
 40
6.470569909110528
 40
6.470569909110528
 40
6.470569909110528
 40
6.470569909110528
 10
7.394027245321922
 20
7.375614491182178
 30
1.254947078256009
 10
7.406956051298038
 20
7.380484423733658
 30
1.265927437734717
 10
7.42018567728337
 20
7.386153807898039
 30
1.276014891574959
 10
7.46416684460928
 20
7.406580625146494
 30
1.306277144654814
 10
7.495836743082691
 20
7.423700804825667
 30
1.322980865543286
 10
7.559106358541612
 20
7.459999583368927
 30
1.348668123124298
 10
7.59218376966055
 20
7.480103189593009
 30
1.358052769914138
 10
7.638666033548361
 20
7.508904015299672
 30
1.366642108854648
 10
7.654239735244118
 20
7.518656635383033
 30
1.368721161270514
 10
7.676220693969298
 20
7.532435423962859
 30
1.370680928825095
 10
7.683511492597972
 20
7.537014655851276
 30
1.371162489622292
 10
7.694084894657862
 20
7.543582641902607
 30
1.371636433143066
 10
7.697575770023831
 20
7.545747239324198
 30
1.371755302363453
 10
7.702837542026827
 20
7.548883641436109
 30
1.371878442269007
 10
7.70458039783989
 20
7.549912590661045
 30
1.37191021459148
 10
7.707324287619485
 20
7.551358917780456
 30
1.371944695983984
 10
7.708251369153003
 20
7.551826863831917
 30
1.371953927999129
 10
7.710248273113393
 20
7.552628912017232
 30
1.371967511728144
 10
7.711308480111256
 20
7.552986745714069
 30
1.37197210685008
 10
7.712597583686147
 20
7.552986745714069
 30
1.37197210685008
1001
ACAD_VIEW_EDGE_ID
1071
       31
1071
       -1
1071
        6
1071
        0
  0
SPLINE
  5
3A1
330
70
100
AcDbEntity
  8
Visible
100
AcDbSpline
 70
     0
 71
     3
 72
    16
 73
    12
 74
     0
 42
0.000000001
 43
0.0000000001
 40
5.87713379579406
 40
5.87713379579406
 40
5.87713379579406
 40
5.87713379579406
 40
6.120750749539656
 40
6.120750749539656
 40
6.364367703285251
 40
6.364367703285251
 40
6.851601610776441
 40
6.851601610776441
 40
7.343890002584261
 40
7.343890002584261
 40
7.519495441059433
 40
7.519495441059433
 40
7.519495441059433
 40
7.519495441059433
 10
9.779527559052439
 20
7.394590504702529
 30
0.8798469641060364
 10
9.779527559052439
 20
7.394590504702529
 30
0.9118176929441688
 10
9.776361885686128
 20
7.39668562994403
 30
0.9445661084700986
 10
9.763392989010753
 20
7.405121674038602
 30
1.009086683359782
 10
9.753595033525925
 20
7.411457755224387
 30
1.040860533894374
 10
9.715400131324713
 20
7.435407351925551
 30
1.131442205489292
 10
9.677769217734748
 20
7.458187878379317
 30
1.185450213934018
 10
9.592566004575928
 20
7.502964647839106
 30
1.270653427092838
 10
9.538657600904116
 20
7.528409184932817
 30
1.307991455369119
 10
9.457161455944515
 20
7.554599525062767
 30
1.342350734877982
 10
9.434945027978756
 20
7.560691821234248
 30
1.349919127422253
 10
9.412270646178512
 20
7.565598571593965
 30
1.355867007056076
1001
ACAD_VIEW_EDGE_ID
1071
       37
1071
       -1
1071
        6
1071
        0
  0
SPLINE
  5
3A2
330
70
100
AcDbEntity
  8
Visible
100
AcDbSpline
 70
     0
 71
     3
 72
    22
 73
    18
 74
     0
 42
0.000000001
 43
0.0000000001
 40
0.0391361519072636
 40
0.0391361519072636
 40
0.0391361519072636
 40
0.0391361519072636
 40
0.0400420764210185
 40
0.0400420764210185
 40
0.1018962334595151
 40
0.1018962334595151
 40
0.222824588648715
 40
0.222824588648715
 40
0.2832887662433149
 40
0.2832887662433149
 40
0.3135208550406149
 40
0.3135208550406149
 40
0.3286368994392649
 40
0.3286368994392649
 40
0.3361949216385899
 40
0.3361949216385899
 40
0.3437529438379149
 40
0.3437529438379149
 40
0.3437529438379149
 40
0.3437529438379149
 10
9.412270646178512
 20
7.565598571593965
 30
1.355867007056076
 10
9.412156279126065
 20
7.565623320695417
 30
1.355897007497333
 10
9.412042699636003
 20
7.565647564179451
 30
1.355926757274573
 10
9.404235038035039
 20
7.567292464278128
 30
1.357968870879631
 10
9.394763402817261
 20
7.567793390611914
 30
1.360187117956229
 10
9.371271155428985
 20
7.567942926390718
 30
1.365032530131429
 10
9.354211636617037
 20
7.566514057320991
 30
1.367717823406565
 10
9.328611136328618
 20
7.563619555661188
 30
1.370318745906843
 10
9.32004433646216
 20
7.562518131308731
 30
1.370959621030124
 10
9.307511687809892
 20
7.560828103950322
 30
1.371578869307995
 10
9.303376504103653
 20
7.560255951983402
 30
1.371729484540992
 10
9.297298443203544
 20
7.559408477367568
 30
1.371876771783718
 10
9.295290880945685
 20
7.55912187038049
 30
1.371912892172986
 10
9.29231331896517
 20
7.558714465599436
 30
1.37194860017189
 10
9.291327391310915
 20
7.55857327454643
 30
1.371957434652358
 10
9.289364100175589
 20
7.558310244424491
 30
1.371969175261256
 10
9.288394282741137
 20
7.558134860932692
 30
1.37197210685008
 10
9.287402416310214
 20
7.558134860932692
 30
1.37197210685008
1001
ACAD_VIEW_EDGE_ID
1071
       38
1071
       -1
1071
        6
1071
        0
  0
SPLINE
  5
3A3
330
70
100
AcDbEntity
  8
Visible
100
AcDbSpline
 70
     0
 71
     3
 72
    24
 73
    20
 74
     0
 42
0.000000001
 43
0.0000000001
 40
6.470569909110528
 40
6.470569909110528
 40
6.470569909110528
 40
6.470569909110528
 40
6.480392878344787
 40
6.480392878344787
 40
6.490215847579046
 40
6.490215847579046
 40
6.509861786047564
 40
6.509861786047564
 40
6.5491536629846
 40
6.5491536629846
 40
6.627737416858674
 40
6.627737416858674
 40
6.78490492460682
 40
6.78490492460682
 40
7.099239940103112
 40
7.099239940103112
 40
7.413574955599404
 40
7.413574955599404
 40
7.552066411691978
 40
7.552066411691978
 40
7.552066411691978
 40
7.552066411691978
 10
9.287402416310214
 20
7.552986745714069
 30
1.37197210685008
 10
9.288691519885105
 20
7.552986745714069
 30
1.37197210685008
 10
9.289751726882968
 20
7.552628912017232
 30
1.371967511728144
 10
9.291748630843358
 20
7.551826863831917
 30
1.371953927999129
 10
9.292675712376876
 20
7.551358917780456
 30
1.371944695983984
 10
9.295419602156471
 20
7.549912590661045
 30
1.37191021459148
 10
9.297162457969534
 20
7.548883641436109
 30
1.371878442269007
 10
9.30242422997253
 20
7.545747239324198
 30
1.371755302363453
 10
9.305915105338499
 20
7.543582641902607
 30
1.371636433143066
 10
9.316488507398389
 20
7.537014655851276
 30
1.371162489622292
 10
9.323779306027063
 20
7.532435423962859
 30
1.370680928825095
 10
9.345760264752243
 20
7.518656635383033
 30
1.368721161270514
 10
9.361333966448
 20
7.508904015299672
 30
1.366642108854648
 10
9.407816230335811
 20
7.480103189593009
 30
1.358052769914138
 10
9.440893641454749
 20
7.459999583368927
 30
1.348668123124298
 10
9.50416325691367
 20
7.423700804825667
 30
1.322980865543286
 10
9.535833155387081
 20
7.406580625146494
 30
1.306277144654814
 10
9.579814322712991
 20
7.386153807898039
 30
1.276014891574959
 10
9.593043948698323
 20
7.380484423733658
 30
1.265927437734717
 10
9.605972754674439
 20
7.375614491182178
 30
1.254947078256009
1001
ACAD_VIEW_EDGE_ID
1071
       40
1071
       -1
1071
        6
1071
        0
  0
SPLINE
  5
3A4
330
70
100
AcDbEntity
  8
Visible
100
AcDbSpline
 70
     0
 71
     3
 72
    14
 73
    10
 74
     0
 42
0.000000001
 43
0.0000000001
 40
0.8614158771370725
 40
0.8614158771370725
 40
0.8614158771370725
 40
0.8614158771370725
 40
0.9657163878682641
 40
0.9657163878682641
 40
1.446823100655255
 40
1.446823100655255
 40
1.687376457048751
 40
1.687376457048751
 40
1.927929813442247
 40
1.927929813442247
 40
1.927929813442247
 40
1.927929813442247
 10
9.605972754674439
 20
7.375614491182178
 30
1.254947078256009
 10
9.616266946206451
 20
7.371736946842138
 30
1.246204281451355
 10
9.626084401154002
 20
7.367877971518213
 30
1.237135030514764
 10
9.678299555584089
 20
7.34668244110575
 30
1.184919876084677
 10
9.71600228569514
 20
7.32860249297604
 30
1.130419080594947
 10
9.753986619600254
 20
7.309560178663925
 30
1.039723827565467
 10
9.763668115147083
 20
7.304518929162438
 30
1.008018105729206
 10
9.776440850337166
 20
7.297819478787377
 30
0.9438646763610449
 10
9.779527559052439
 20
7.296165307852136
 30
0.9114156460473168
 10
9.779527559052439
 20
7.296165307852136
 30
0.8798469641060364
1001
ACAD_VIEW_EDGE_ID
1071
       41
1071
       -1
1071
        6
1071
        0
  0
LINE
  5
3A5
330
70
100
AcDbEntity
  8
Visible
100
AcDbLine
 10
9.287402
 20
7.558135
 30
1.371972
 11
7.712598
 21
7.558135
 31
1.371972
210
0.0
220
1.0
230
0.0
  0
LINE
  5
3A6
330
70
100
AcDbEntity
  8
Visible
100
AcDbLine
 10
7.712598
 20
7.552987
 30
1.371972
 11
9.287402
 21
7.552987
 31
1.371972
210
0.0
220
1.0
230
0.0
  0
LINE
  5
3A7
330
70
100
AcDbEntity
  8
Visible
100
AcDbLine
 10
8.775591
 20
7.296165
 30
0.879847
 11
8.775591
 21
6.882779
 31
0.879847
210
0.0
220
1.0
230
0.0
  0
LINE
  5
3A8
330
70
100
AcDbEntity
  8
Visible
100
AcDbLine
 10
8.224409
 20
7.296165
 30
0.879847
 11
8.224409
 21
6.882779
 31
0.879847
210
0.0
220
1.0
230
0.0
  0
LINE
  5
3A9
330
70
100
AcDbEntity
  8
Visible
100
AcDbLine
 10
7.220472
 20
7.394591
 30
0.879847
 11
7.220472
 21
7.296165
 31
0.879847
210
0.0
220
1.0
230
0.0
  0
LINE
  5
3AA
330
70
100
AcDbEntity
  8
Visible
100
AcDbLine
 10
9.779528
 20
7.394591
 30
0.879847
 11
9.779528
 21
7.296165
 31
0.879847
210
0.0
220
1.0
230
0.0
  0
LINE
  5
3AB
330
70
100
AcDbEntity
  8
Visible
100
AcDbLine
 10
9.38533
 20
7.567849
 30
1.36213
 11
7.61467
 21
7.567849
 31
1.36213
210
0.0
220
1.0
230
0.0
  0
LINE
  5
3AC
330
70
100
AcDbEntity
  8
Visible
100
AcDbLine
 10
9.779528
 20
7.296165
 30
0.879847
 11
8.775591
 21
7.296165
 31
0.879847
210
0.0
220
1.0
230
0.0
  0
LINE
  5
3AD
330
70
100
AcDbEntity
  8
Visible
100
AcDbLine
 10
8.224409
 20
7.296165
 30
0.879847
 11
7.516883
 21
7.296165
 31
0.879847
210
0.0
220
1.0
230
0.0
  0
LINE
  5
3AE
330
70
100
AcDbEntity
  8
Visible
100
AcDbLine
 10
7.468648
 20
7.296165
 30
0.879847
 11
7.220472
 21
7.296165
 31
0.879847
210
0.0
220
1.0
230
0.0
  0
SPLINE
  5
3AF
330
70
100
AcDbEntity
  8
Visible
100
AcDbSpline
 70
     0
 71
     3
 72
    17
 73
    13
 74
     0
 42
0.000000001
 43
0.0000000001
 40
4.329022860528028
 40
4.329022860528028
 40
4.329022860528028
 40
4.329022860528028
 40
4.331593761587628
 40
4.331593761587628
 40
4.331593761587628
 40
4.602945521119727
 40
4.602945521119727
 40
4.874297280651828
 40
4.874297280651828
 40
5.144394741318182
 40
5.144394741318182
 40
5.414492201984535
 40
5.414492201984535
 40
5.414492201984535
 40
5.414492201984535
 10
12.39109201307838
 20
4.561119925375001
 30
0.2755885901733563
 10
12.39142968386477
 20
4.561120850358665
 30
0.2755898973991862
 10
12.39176721569492
 20
4.561121313607717
 30
0.2755905511821766
 10
12.39210460428512
 20
4.561121313607717
 30
0.2755905511821766
 10
12.42771507141515
 20
4.561121313607717
 30
0.2755905511821766
 10
12.46492125287477
 20
4.555960607856912
 30
0.2683072379295481
 10
12.53245901683113
 20
4.538879213965008
 30
0.2399827445606206
 10
12.56289099238711
 20
4.527331215812883
 30
0.2189575070424325
 10
12.61095077801474
 20
4.506606453447457
 30
0.1708977214148035
 10
12.63205541417846
 20
4.495907385524432
 30
0.1404319974790269
 10
12.66044724584572
 20
4.48088865500931
 30
0.0727307919860323
 10
12.6676951554673
 20
4.476718069064567
 30
0.0354458609817812
 10
12.6676951554673
 20
4.476718069064567
 30
0.000000000001819
1001
ACAD_VIEW_EDGE_ID
1071
        1
1071
       -1
1071
        2
1071
        0
  0
SPLINE
  5
3B0
330
70
100
AcDbEntity
  8
Visible
100
AcDbSpline
 70
     0
 71
     3
 72
     8
 73
     4
 74
     0
 42
0.000000001
 43
0.0000000001
 40
0.0
 40
0.0
 40
0.0
 40
0.0
 40
0.0025709010596294
 40
0.0025709010596294
 40
0.0025709010596294
 40
0.0025709010596294
 10
12.39210460428512
 20
5.376566793025355
 30
0.2755905511821766
 10
12.39176721569492
 20
5.376566793025355
 30
0.2755905511821766
 10
12.39142968386477
 20
5.376567256274407
 30
0.2755898973991862
 10
12.39109201307838
 20
5.376568181258072
 30
0.2755885901733563
1001
ACAD_VIEW_EDGE_ID
1071
        2
1071
       -1
1071
        2
1071
        0
  0
SPLINE
  5
3B1
330
70
100
AcDbEntity
  8
Visible
100
AcDbSpline
 70
     0
 71
     3
 72
    14
 73
    10
 74
     0
 42
0.000000001
 43
0.0000000001
 40
3.248695321190721
 40
3.248695321190721
 40
3.248695321196101
 40
3.248695321196101
 40
3.518792781857075
 40
3.518792781857075
 40
3.788890242523429
 40
3.788890242523429
 40
4.060242002055529
 40
4.060242002055529
 40
4.331593761587629
 40
4.331593761587629
 40
4.331593761587629
 40
4.331593761587629
 10
12.6676951554673
 20
5.460970037568505
 30
0.000000000003638
 10
12.66769515546548
 20
5.460970037568339
 30
0.0354458609836002
 10
12.66044724584572
 20
5.456799451623611
 30
0.0727307919860323
 10
12.63205541417846
 20
5.44178072110864
 30
0.1404319974790269
 10
12.61095077801474
 20
5.431081653185616
 30
0.1708977214148035
 10
12.56289099238711
 20
5.410356890820189
 30
0.2189575070424325
 10
12.53245901683113
 20
5.398808892668062
 30
0.2399827445606206
 10
12.46492125287477
 20
5.38172749877616
 30
0.2683072379295481
 10
12.42771507141515
 20
5.376566793025355
 30
0.2755905511821766
 10
12.39210460428512
 20
5.376566793025355
 30
0.2755905511821766
1001
ACAD_VIEW_EDGE_ID
1071
        2
1071
       -1
1071
        2
1071
        0
  0
ARC
  5
3B2
330
70
100
AcDbEntity
  8
Visible
100
AcDbCircle
 10
-4.968844
 20
0.0
 30
-11.998533
 40
0.4921259842519685
210
-1.0
220
0.0
230
0.0000000000002969
100
AcDbArc
 50
0.0
 51
180.0
  0
ARC
  5
3B3
330
70
100
AcDbEntity
  8
Visible
100
AcDbCircle
 10
-13.494467
 20
4.968844
 30
0.0
 40
1.574803149606299
210
-0.0000000000002969
220
0.0
230
-1.0
100
AcDbArc
 50
341.790043
 51
18.209957
  0
LINE
  5
3B4
330
70
100
AcDbEntity
  8
Visible
100
AcDbLine
 10
14.445254
 20
4.476718
 30
0.0
 11
12.667695
 21
4.476718
 31
0.0
210
0.0
220
1.0
230
0.0
  0
LINE
  5
3B5
330
70
100
AcDbEntity
  8
Visible
100
AcDbLine
 10
12.114489
 20
4.476718
 30
0.0
 11
11.998533
 21
4.476718
 31
0.0
210
0.0
220
1.0
230
0.0
  0
LINE
  5
3B6
330
70
100
AcDbEntity
  8
Visible
100
AcDbLine
 10
14.445254
 20
5.46097
 30
0.0
 11
12.667695
 21
5.46097
 31
0.0
210
0.0
220
1.0
230
0.0
  0
LINE
  5
3B7
330
70
100
AcDbEntity
  8
Visible
100
AcDbLine
 10
12.114489
 20
5.46097
 30
0.0
 11
11.998533
 21
5.46097
 31
0.0
210
0.0
220
1.0
230
0.0
  0
ARC
  5
3B8
330
70
100
AcDbEntity
  8
Visible
100
AcDbCircle
 10
4.968844
 20
0.0
 30
14.445254
 40
0.9448818897637799
210
1.0
220
-0.0000000000000001
230
-0.0000000000002969
100
AcDbArc
 50
0.0
 51
180.0
  0
ARC
  5
3B9
330
70
100
AcDbEntity
  8
Visible
100
AcDbCircle
 10
-4.968844
 20
0.0
 30
-14.484624
 40
0.9842519685039372
210
-1.0
220
0.0000000000000002
230
0.0000000000002969
100
AcDbArc
 50
0.0
 51
180.0
  0
ARC
  5
3BA
330
70
100
AcDbEntity
  8
Visible
100
AcDbCircle
 10
4.968844
 20
0.0
 30
14.642105
 40
0.9842519685039373
210
1.0
220
0.0
230
-0.0000000000002969
100
AcDbArc
 50
0.0
 51
180.0
  0
LINE
  5
3BB
330
70
100
AcDbEntity
  8
Visible
100
AcDbLine
 10
14.445254
 20
5.913726
 30
0.0
 11
14.484624
 21
5.953096
 31
0.0
210
0.0
220
1.0
230
0.0
  0
LINE
  5
3BC
330
70
100
AcDbEntity
  8
Visible
100
AcDbLine
 10
14.445254
 20
4.023962
 30
0.0
 11
14.484624
 21
3.984592
 31
0.0
210
0.0
220
1.0
230
0.0
  0
LINE
  5
3BD
330
70
100
AcDbEntity
  8
Visible
100
AcDbLine
 10
14.642105
 20
3.984592
 30
0.0
 11
14.484624
 21
3.984592
 31
0.0
210
0.0
220
1.0
230
0.0
  0
LINE
  5
3BE
330
70
100
AcDbEntity
  8
Visible
100
AcDbLine
 10
14.642105
 20
5.953096
 30
0.0
 11
14.484624
 21
5.953096
 31
0.0
210
0.0
220
1.0
230
0.0
  0
SPLINE
  5
3BF
330
70
100
AcDbEntity
  8
Visible
100
AcDbSpline
 70
     0
 71
     3
 72
    22
 73
    18
 74
     0
 42
0.000000001
 43
0.0000000001
 40
0.3830681102974151
 40
0.3830681102974151
 40
0.3830681102986
 40
0.3830681102986
 40
0.4788044676161455
 40
0.4788044676161455
 40
0.5745408249336909
 40
0.5745408249336909
 40
0.6703385227654453
 40
0.6703385227654453
 40
0.7661362205971998
 40
0.7661362205971998
 40
0.8619339184289543
 40
0.8619339184289543
 40
0.957731616260709
 40
0.957731616260709
 40
1.053467973578254
 40
1.053467973578254
 40
1.149204330889048
 40
1.149204330889048
 40
1.149204330895799
 40
1.149204330895799
 10
12.66566997155496
 20
6.797459798107773
 30
0.000000000001819
 10
12.66566997155496
 20
6.797459798107773
 30
0.0125638264216832
 10
12.66472727733162
 20
6.79999355287375
 30
0.0258902802524972
 10
12.66132424290663
 20
6.810144315598199
 30
0.0502792023544316
 10
12.6589062932926
 20
6.817755396262631
 30
0.0613500329309318
 10
12.65431145611001
 20
6.835229534657615
 30
0.0788241713271418
 10
12.65182122422447
 20
6.846298176481215
 30
0.0864309667358612
 10
12.6482492833511
 20
6.870678833140368
 30
0.096578503778801
 10
12.64723021770078
 20
6.884002094980246
 30
0.0991141732301912
 10
12.64723021770078
 20
6.909145847691993
 30
0.0991141732301912
 10
12.6482492833511
 20
6.922469109531872
 30
0.096578503778801
 10
12.65182122422447
 20
6.946849766191023
 30
0.0864309667358612
 10
12.65431145611001
 20
6.957918408014625
 30
0.0788241713271418
 10
12.6589062932926
 20
6.975392546409608
 30
0.0613500329309318
 10
12.66132424290663
 20
6.983003627074039
 30
0.0502792023544316
 10
12.66472727733162
 20
6.993154389798131
 30
0.0258902802543162
 10
12.66566997155496
 20
6.995688144564109
 30
0.0125638264235022
 10
12.66566997155496
 20
6.995688144564466
 30
0.000000000003638
1001
ACAD_VIEW_EDGE_ID
1071
        0
1071
       -1
1071
        4
1071
        0
  0
SPLINE
  5
3C0
330
70
100
AcDbEntity
  8
Visible
100
AcDbSpline
 70
     0
 71
     3
 72
    26
 73
    22
 74
     0
 42
0.000000001
 43
0.0000000001
 40
0.9245344612930672
 40
0.9245344612930672
 40
0.9245344612982339
 40
0.9245344612982339
 40
1.151569575267204
 40
1.151569575267204
 40
1.378604689241342
 40
1.378604689241342
 40
1.613836805913738
 40
1.613836805913738
 40
1.731452864249937
 40
1.731452864249937
 40
1.849068922586135
 40
1.849068922586135
 40
1.966684980922334
 40
1.966684980922334
 40
2.084301039258532
 40
2.084301039258532
 40
2.31953315593093
 40
2.31953315593093
 40
2.546568269905066
 40
2.546568269905066
 40
2.773603383877289
 40
2.773603383877289
 40
2.773603383879203
 40
2.773603383879203
 10
12.11448886919243
 20
7.120983420155017
 30
0.000000000005457
 10
12.11448886919243
 20
7.120983420154731
 30
0.0297946343853255
 10
12.11967174086567
 20
7.114705629538573
 30
0.0605938392527605
 10
12.13821843102778
 20
7.091240517761237
 30
0.1155766609335842
 10
12.15147534326388
 20
7.07411445953507
 30
0.1398223978485475
 10
12.17851746933593
 20
7.035715471669704
 30
0.1782213857150054
 10
12.19455018414555
 20
7.011475857907151
 30
0.1949875604332192
 10
12.21407105314756
 20
6.970929353182007
 30
0.2122419043189438
 10
12.21977166576289
 20
6.956698009663909
 30
0.2167275699011952
 10
12.22781271515851
 20
6.927244022043154
 30
0.2228117756385473
 10
12.23010895065818
 20
6.912009149595463
 30
0.2244094488214614
 10
12.23010895065818
 20
6.881138793076775
 30
0.2244094488214614
 10
12.22781271515851
 20
6.865903920629083
 30
0.2228117756385473
 10
12.21977166576289
 20
6.836449933008328
 30
0.2167275699011952
 10
12.21407105314756
 20
6.822218589490231
 30
0.2122419043189438
 10
12.19455018414555
 20
6.781672084765085
 30
0.1949875604332192
 10
12.17851746933593
 20
6.757432471002534
 30
0.1782213857150054
 10
12.15147534326388
 20
6.719033483137168
 30
0.1398223978485475
 10
12.13821843102778
 20
6.701907424911001
 30
0.1155766609335842
 10
12.11967174086567
 20
6.678442313133497
 30
0.0605938392527605
 10
12.11448886919243
 20
6.672164522517327
 30
0.0297946343835065
 10
12.11448886919243
 20
6.672164522517221
 30
0.000000000003638
1001
ACAD_VIEW_EDGE_ID
1071
        2
1071
       -1
1071
        4
1071
        0
  0
LINE
  5
3C1
330
70
100
AcDbEntity
  8
Visible
100
AcDbLine
 10
12.311339
 20
6.703023
 30
0.264103
 11
12.311339
 21
7.068184
 31
0.264103
210
0.0
220
1.0
230
0.0
  0
ARC
  5
3C2
330
70
100
AcDbEntity
  8
Visible
100
AcDbCircle
 10
-6.896574
 20
0.0
 30
-12.311339
 40
0.3149606299212601
210
-1.0
220
0.0
230
0.0000000000002969
100
AcDbArc
 50
123.015259
 51
127.507287
  0
SPLINE
  5
3C3
330
70
100
AcDbEntity
  8
Visible
100
AcDbSpline
 70
     0
 71
     3
 72
     8
 73
     4
 74
     0
 42
0.000000001
 43
0.0000000001
 40
0.0
 40
0.0
 40
0.0
 40
0.0
 40
0.2012950771902999
 40
0.2012950771902999
 40
0.2012950771902999
 40
0.2012950771902999
 10
12.3900794203746
 20
6.713840568637581
 30
0.2755905511821766
 10
12.36366274357715
 20
6.713840568637581
 30
0.2755905511821766
 10
12.33681352168241
 20
6.709892746505805
 30
0.2716974736067641
 10
12.31133926289294
 20
6.703022849796919
 30
0.2641025170287321
1001
ACAD_VIEW_EDGE_ID
1071
       10
1071
       -1
1071
        4
1071
        0
  0
SPLINE
  5
3C4
330
70
100
AcDbEntity
  8
Visible
100
AcDbSpline
 70
     0
 71
     3
 72
     8
 73
     4
 74
     0
 42
0.000000001
 43
0.0000000001
 40
-0.201295068634291
 40
-0.201295068634291
 40
-0.201295068634291
 40
-0.201295068634291
 40
0.0
 40
0.0
 40
0.0
 40
0.0
 10
12.46881957785445
 20
6.703022849796919
 30
0.2641025170287321
 10
12.4433453208494
 20
6.709892746024616
 30
0.2716974730738002
 10
12.41649609604792
 20
6.713840568637581
 30
0.2755905511821766
 10
12.3900794203746
 20
6.713840568637581
 30
0.2755905511821766
1001
ACAD_VIEW_EDGE_ID
1071
       11
1071
       -1
1071
        4
1071
        0
  0
LINE
  5
3C5
330
70
100
AcDbEntity
  8
Visible
100
AcDbLine
 10
12.46882
 20
6.804039
 30
0.264103
 11
12.46882
 21
6.703023
 31
0.264103
210
0.0
220
1.0
230
0.0
  0
SPLINE
  5
3C6
330
70
100
AcDbEntity
  8
Visible
100
AcDbSpline
 70
     0
 71
     3
 72
    14
 73
    10
 74
     0
 42
0.000000001
 43
0.0000000001
 40
1.161707484134181
 40
1.161707484134181
 40
1.161707484134181
 40
1.161707484134181
 40
1.443517147281861
 40
1.443517147281861
 40
1.725326810429541
 40
1.725326810429541
 40
2.024370889348952
 40
2.024370889348952
 40
2.110450316988275
 40
2.110450316988275
 40
2.110450316988275
 40
2.110450316988275
 10
12.66566997155496
 20
7.211534601257379
 30
0.000000000001819
 10
12.66566997155496
 20
7.211534601257379
 30
0.036982895428082
 10
12.65779922941692
 20
7.204580604244517
 30
0.0749974707014189
 10
12.62882234951394
 20
7.17975655616461
 30
0.142479200312664
 10
12.60779837324298
 20
7.162004501869691
 30
0.1720249422742199
 10
12.56070712600194
 20
7.124917247112042
 30
0.2191161895170808
 10
12.53097324381815
 20
7.102441748060543
 30
0.2395326758178271
 10
12.48863792436168
 20
7.077969179512867
 30
0.2575697044176195
 10
12.47891215997697
 20
7.07282024751096
 30
0.261088722736531
 10
12.46893500439728
 20
7.068237157706391
 30
0.2640680760650866
1001
ACAD_VIEW_EDGE_ID
1071
       18
1071
       -1
1071
        4
1071
        0
  0
SPLINE
  5
3C7
330
70
100
AcDbEntity
  8
Visible
100
AcDbSpline
 70
     0
 71
     3
 72
    14
 73
    10
 74
     0
 42
0.000000001
 43
0.0000000001
 40
2.53604769841391
 40
2.53604769841391
 40
2.53604769841391
 40
2.53604769841391
 40
2.622459047187773
 40
2.622459047187773
 40
2.921503126107184
 40
2.921503126107184
 40
3.203312789254864
 40
3.203312789254864
 40
3.485122452402544
 40
3.485122452402544
 40
3.485122452402544
 40
3.485122452402544
 10
12.3113392628984
 20
7.068184165959306
 30
0.2641025170323701
 10
12.30132168951968
 20
7.072780543855808
 30
0.2611158536928997
 10
12.29155740334863
 20
7.077948087674589
 30
0.2575852497466258
 10
12.24918559692923
 20
7.102441748060543
 30
0.2395326758178271
 10
12.21945171474544
 20
7.124917247112042
 30
0.2191161895170808
 10
12.1723604675044
 20
7.162004501869691
 30
0.1720249422760389
 10
12.15133649123345
 20
7.179756556164611
 30
0.142479200314483
 10
12.12235961133228
 20
7.204580604244518
 30
0.0749974707032379
 10
12.11448886919243
 20
7.211534601257379
 30
0.036982895429901
 10
12.11448886919243
 20
7.211534601257379
 30
0.000000000003638
1001
ACAD_VIEW_EDGE_ID
1071
       21
1071
       -1
1071
        4
1071
        0
  0
ARC
  5
3C8
330
70
100
AcDbEntity
  8
Visible
100
AcDbCircle
 10
-12.390079
 20
0.0
 30
3.51641
 40
0.2755905511811031
210
0.0
220
1.0
230
0.0
100
AcDbArc
 50
0.0
 51
180.0
  0
LINE
  5
3C9
330
70
100
AcDbEntity
  8
Visible
100
AcDbLine
 10
12.66567
 20
7.211535
 30
0.0
 11
12.658602
 21
7.211535
 31
0.0
210
0.0
220
1.0
230
0.0
  0
LINE
  5
3CA
330
70
100
AcDbEntity
  8
Visible
100
AcDbLine
 10
12.121788
 20
7.211535
 30
0.0
 11
12.114489
 21
7.211535
 31
0.0
210
0.0
220
1.0
230
0.0
  0
LINE
  5
3CB
330
70
100
AcDbEntity
  8
Visible
100
AcDbLine
 10
12.114489
 20
3.51641
 30
0.0
 11
12.114489
 21
4.476718
 31
0.0
210
0.0
220
1.0
230
0.0
  0
LINE
  5
3CC
330
70
100
AcDbEntity
  8
Visible
100
AcDbLine
 10
12.114489
 20
5.46097
 30
0.0
 11
12.114489
 21
6.672165
 31
0.0
210
0.0
220
1.0
230
0.0
  0
LINE
  5
3CD
330
70
100
AcDbEntity
  8
Visible
100
AcDbLine
 10
12.114489
 20
7.120983
 30
0.0
 11
12.114489
 21
7.211535
 31
0.0
210
0.0
220
1.0
230
0.0
  0
LINE
  5
3CE
330
70
100
AcDbEntity
  8
Visible
100
AcDbLine
 10
12.66567
 20
3.51641
 30
0.0
 11
12.66567
 21
4.477849
 31
0.0
210
0.0
220
1.0
230
0.0
  0
LINE
  5
3CF
330
70
100
AcDbEntity
  8
Visible
100
AcDbLine
 10
12.66567
 20
5.459839
 30
0.0
 11
12.66567
 21
6.79746
 31
0.0
210
0.0
220
1.0
230
0.0
  0
LINE
  5
3D0
330
70
100
AcDbEntity
  8
Visible
100
AcDbLine
 10
12.66567
 20
6.995688
 30
0.0
 11
12.66567
 21
7.211535
 31
0.0
210
0.0
220
1.0
230
0.0
  0
ARC
  5
3D1
330
70
100
AcDbEntity
  8
Visible
100
AcDbCircle
 10
-12.390079
 20
3.924133
 30
0.0
 40
0.4921259842519688
210
-0.0000000000002969
220
0.0
230
-1.0
100
AcDbArc
 50
235.944202
 51
304.055798
  0
ARC
  5
3D2
330
70
100
AcDbEntity
  8
Visible
100
AcDbCircle
 10
-6.897688
 20
0.001614
 30
-12.12672
 40
0.1181102362204724
210
-1.0
220
0.0
230
0.0000000000002969
100
AcDbArc
 50
0.0
 51
180.0
  0
ARC
  5
3D3
330
70
100
AcDbEntity
  8
Visible
100
AcDbCircle
 10
6.897688
 20
0.001614
 30
12.650342
 40
0.0885826771653544
210
1.0
220
0.0
230
-0.0000000000002969
100
AcDbArc
 50
63.870778
 51
117.74538
  0
SPLINE
  5
3D4
330
70
100
AcDbEntity
  8
Visible
100
AcDbSpline
 70
     0
 71
     3
 72
     8
 73
     4
 74
     0
 42
0.000000001
 43
0.0000000001
 40
-2.627933682851978
 40
-2.627933682851978
 40
-2.627933682851978
 40
-2.627933682851978
 40
-2.622323043127613
 40
-2.622323043127613
 40
-2.622323043127613
 40
-2.622323043127613
 10
12.31145733107041
 20
6.805356322124501
 30
0.0752684367507754
 10
12.31141874024979
 20
6.805816187913825
 30
0.0758449198165181
 10
12.31138023196581
 20
6.806281522602166
 30
0.076417183949161
 10
12.31134180923982
 20
6.806752270539139
 30
0.0769851490204019
1001
ACAD_VIEW_EDGE_ID
1071
       11
1071
       -1
1071
        5
1071
        0
  0
ARC
  5
3D5
330
70
100
AcDbEntity
  8
Visible
100
AcDbCircle
 10
-12.312205
 20
6.897688
 30
-0.001614
 40
0.2198972016140301
210
-0.0000000000002957
220
-0.0000000000000008
230
-1.0
100
AcDbArc
 50
32.487506
 51
47.046499
  0
ARC
  5
3D6
330
70
100
AcDbEntity
  8
Visible
100
AcDbCircle
 10
-12.312205
 20
6.897688
 30
-0.001614
 40
0.2198972016140301
210
-0.000000000000301
220
-0.0000000000000045
230
-1.0
100
AcDbArc
 50
312.614609
 51
327.512494
  0
LINE
  5
3D7
330
70
100
AcDbEntity
  8
Visible
100
AcDbLine
 10
12.311339
 20
6.779577
 30
0.001614
 11
12.311455
 21
6.779577
 31
0.001614
210
0.0
220
1.0
230
0.0
  0
LINE
  5
3D8
330
70
100
AcDbEntity
  8
Visible
100
AcDbLine
 10
12.311339
 20
6.990226
 30
0.001614
 11
12.311455
 21
6.990226
 31
0.001614
210
0.0
220
1.0
230
0.0
  0
SPLINE
  5
3D9
330
70
100
AcDbEntity
  8
Visible
100
AcDbSpline
210
-0.1622681279960611
220
-0.0920719539514113
230
0.9824417590535448
 70
     8
 71
     3
 72
     8
 73
     4
 74
     0
 42
0.000000001
 43
0.0000000001
 40
0.074820965081006
 40
0.074820965081006
 40
0.074820965081006
 40
0.074820965081006
 40
0.0754044268997467
 40
0.0754044268997467
 40
0.0754044268997467
 40
0.0754044268997467
 10
12.31133926289294
 20
6.989845047753685
 30
0.0122537507486413
 10
12.31137773796035
 20
6.989778846699265
 30
0.0122539014100767
 10
12.31141621344432
 20
6.989712645886602
 30
0.0122540521642805
 10
12.31145468934483
 20
6.989646445317271
 30
0.0122542030094337
1001
ACAD_VIEW_EDGE_ID
1071
   -16393
1071
       -1
1071
        5
1071
        0
  0
ARC
  5
3DA
330
70
100
AcDbEntity
  8
Visible
100
AcDbCircle
 10
-6.88278
 20
0.0
 30
-12.311455
 40
0.2755905511811027
210
-1.0
220
0.0
230
0.0000000000002969
100
AcDbArc
 50
49.296319
 51
73.39845
  0
ARC
  5
3DB
330
70
100
AcDbEntity
  8
Visible
100
AcDbCircle
 10
6.88278
 20
0.0
 30
12.468935
 40
0.2755905516243042
210
1.0
220
0.0
230
-0.0000000000002969
100
AcDbArc
 50
106.60155
 51
106.626592
  0
ELLIPSE
  5
3DC
330
70
100
AcDbEntity
  8
Visible
100
AcDbEllipse
 10
12.390195
 20
6.88278
 30
0.0
 11
0.2755905511407422
 21
-0.2755905511407422
 31
0.0000000000242223
210
0.7071067811865474
220
0.7071067811865474
230
-0.0000000000002097
 40
0.7071067812881925
 41
-1.570796326750948
 42
-1.281044625272133
1001
ACAD_VIEW_EDGE_ID
1071
       10
1071
       -1
1071
        6
1071
        0
  0
ELLIPSE
  5
3DD
330
70
100
AcDbEntity
  8
Visible
100
AcDbEllipse
 10
12.390195
 20
6.88278
 30
0.0
 11
-0.2755905511407428
 21
-0.2755905511407428
 31
0.0000000000242218
210
-0.7071067811865475
220
0.7071067811865475
230
0.0000000000002098
 40
0.7071067812881912
 41
1.281044625272135
 42
1.570796326750949
1001
ACAD_VIEW_EDGE_ID
1071
       11
1071
       -1
1071
        6
1071
        0
  0
LINE
  5
3DE
330
70
100
AcDbEntity
  8
Visible
100
AcDbLine
 10
12.311455
 20
7.088297
 30
0.264103
 11
12.311455
 21
6.804039
 31
0.264103
210
0.0
220
1.0
230
0.0
  0
SPLINE
  5
3DF
330
70
100
AcDbEntity
  8
Visible
100
AcDbSpline
 70
     0
 71
     3
 72
    14
 73
    10
 74
     0
 42
0.000000001
 43
0.0000000001
 40
2.484784797578684
 40
2.484784797578684
 40
2.484784797578684
 40
2.484784797578684
 40
2.567628743438977
 40
2.567628743438977
 40
2.857760605478155
 40
2.857760605478155
 40
3.137002963788927
 40
3.137002963788927
 40
3.4162453220997
 40
3.4162453220997
 40
3.4162453220997
 40
3.4162453220997
 10
12.46893500430633
 20
7.08829738188711
 30
0.2641025170287321
 10
12.47892531974503
 20
7.092124976576884
 30
0.2611239804373326
 10
12.48867654499736
 20
7.096481418231581
 30
0.2575992428592144
 10
12.53129748786887
 20
7.117549458469685
 30
0.2394548080974346
 10
12.5610488121838
 20
7.137628057697257
 30
0.2188899297871103
 10
12.60818331096379
 20
7.171390608248933
 30
0.1717554310071137
 10
12.6292136676584
 20
7.187890728045819
 30
0.1420129954876756
 10
12.65805291118704
 20
7.210972747968302
 30
0.0744966598613246
 10
12.66578539800685
 20
7.217425206514854
 30
0.0366459787819622
 10
12.66578539800685
 20
7.217425206514854
 30
0.000000000001819
1001
ACAD_VIEW_EDGE_ID
1071
       16
1071
       -1
1071
        6
1071
        0
  0
LINE
  5
3E0
330
70
100
AcDbEntity
  8
Visible
100
AcDbLine
 10
12.468935
 20
6.804039
 30
0.264103
 11
12.468935
 21
7.088297
 31
0.264103
210
0.0
220
1.0
230
0.0
  0
SPLINE
  5
3E1
330
70
100
AcDbEntity
  8
Visible
100
AcDbSpline
 70
     0
 71
     3
 72
    14
 73
    10
 74
     0
 42
0.000000001
 43
0.0000000001
 40
1.1387484406999
 40
1.1387484406999
 40
1.1387484406999
 40
1.1387484406999
 40
1.417990799010673
 40
1.417990799010673
 40
1.697233157321445
 40
1.697233157321445
 40
1.987365019360623
 40
1.987365019360623
 40
2.070208965220916
 40
2.070208965220916
 40
2.070208965220916
 40
2.070208965220916
 10
12.11460429564431
 20
7.217425206514855
 30
0.000000000003638
 10
12.11460429564431
 20
7.217425206514855
 30
0.0366459787837812
 10
12.12233678246412
 20
7.210972747968302
 30
0.0744966598631436
 10
12.15117602599275
 20
7.187890728045819
 30
0.1420129954894946
 10
12.17220638268918
 20
7.171390608248933
 30
0.1717554310089326
 10
12.21934088146918
 20
7.137628057697257
 30
0.2188899297871103
 10
12.24909220578229
 20
7.117549458469685
 30
0.2394548080974346
 10
12.29171314865562
 20
7.09648141823158
 30
0.2575992428592144
 10
12.30146437390795
 20
7.092124976576884
 30
0.2611239804373326
 10
12.31145468934483
 20
7.08829738188711
 30
0.2641025170287321
1001
ACAD_VIEW_EDGE_ID
1071
       20
1071
       -1
1071
        6
1071
        0
  0
SPLINE
  5
3E2
330
70
100
AcDbEntity
  8
Visible
100
AcDbSpline
 70
     0
 71
     3
 72
    24
 73
    20
 74
     0
 42
0.000000001
 43
0.0000000001
 40
5.389073406529077
 40
5.389073406529077
 40
5.389073406529077
 40
5.389073406529077
 40
5.527564862621652
 40
5.527564862621652
 40
5.841899878117944
 40
5.841899878117944
 40
6.156234893614236
 40
6.156234893614236
 40
6.313402401362382
 40
6.313402401362382
 40
6.391986155236455
 40
6.391986155236455
 40
6.431278032173492
 40
6.431278032173492
 40
6.45092397064201
 40
6.45092397064201
 40
6.460746939876269
 40
6.460746939876269
 40
6.470569909110528
 40
6.470569909110528
 40
6.470569909110528
 40
6.470569909110528
 10
12.76529496097464
 20
7.375614547325211
 30
1.105972754678077
 10
12.77627532045517
 20
7.380484479876693
 30
1.093043948701961
 10
12.78636277429541
 20
7.386153864041073
 30
1.079814322716629
 10
12.81662502737527
 20
7.406580681289528
 30
1.035833155390719
 10
12.83332874826374
 20
7.423700860968701
 30
1.004163256917308
 10
12.85901600584293
 20
7.459999639511961
 30
0.9408936414583877
 10
12.86840065263459
 20
7.480103245736043
 30
0.9078162303394492
 10
12.87698999157328
 20
7.508904071442707
 30
0.8613339664516388
 10
12.87906904399096
 20
7.518656691526069
 30
0.8457602647558815
 10
12.88102881154555
 20
7.532435480105893
 30
0.8237793060307012
 10
12.88151037234274
 20
7.53701471199431
 30
0.8164885074020276
 10
12.8819843158617
 20
7.543582698045642
 30
0.8059151053421373
 10
12.8821031850839
 20
7.545747295467232
 30
0.8024242299761681
 10
12.88222632498764
 20
7.548883697579145
 30
0.7971624579731725
 10
12.88225809731193
 20
7.549912646804079
 30
0.7954196021601092
 10
12.88229257870443
 20
7.55135897392349
 30
0.7926757123805146
 10
12.88230181071958
 20
7.551826919974955
 30
0.7917486308469961
 10
12.8823153944486
 20
7.552628968160271
 30
0.7897517268866068
 10
12.88231998956871
 20
7.552986801857104
 30
0.7886915198887437
 10
12.88231998956871
 20
7.552986801857104
 30
0.7874024163138529
1001
ACAD_VIEW_EDGE_ID
1071
       33
1071
       -1
1071
        6
1071
        0
  0
LINE
  5
3E3
330
70
100
AcDbEntity
  8
Visible
100
AcDbLine
 10
12.88232
 20
7.558135
 30
0.787402
 11
12.88232
 21
7.552987
 31
0.787402
210
0.0
220
1.0
230
0.0
  0
SPLINE
  5
3E4
330
70
100
AcDbEntity
  8
Visible
100
AcDbSpline
 70
     0
 71
     3
 72
    22
 73
    18
 74
     0
 42
0.000000001
 43
0.0000000001
 40
0.3437529438379148
 40
0.3437529438379148
 40
0.3437529438379148
 40
0.3437529438379148
 40
0.3513109660372399
 40
0.3513109660372399
 40
0.3588689882365649
 40
0.3588689882365649
 40
0.3739850326352148
 40
0.3739850326352148
 40
0.4042171214325149
 40
0.4042171214325149
 40
0.464681299027115
 40
0.464681299027115
 40
0.5856096542163152
 40
0.5856096542163152
 40
0.6474638112548118
 40
0.6474638112548118
 40
0.6483697357685667
 40
0.6483697357685667
 40
0.6483697357685667
 40
0.6483697357685667
 10
12.88231998956871
 20
7.558134917075726
 30
0.7874024163138529
 10
12.88231998956871
 20
7.558134917075726
 30
0.7883942827447754
 10
12.88231705797989
 20
7.558310300567526
 30
0.7893641001792276
 10
12.88230531737281
 20
7.558573330689464
 30
0.7913273913145531
 10
12.88229648289234
 20
7.55871452174247
 30
0.7923133189688088
 10
12.88226077489344
 20
7.559121926523524
 30
0.7952908809493238
 10
12.88222465450235
 20
7.559408533510602
 30
0.7972984432071826
 10
12.88207736726144
 20
7.560256008126436
 30
0.8033765041072911
 10
12.88192675202663
 20
7.560828160093357
 30
0.8075116878135304
 10
12.88130750374876
 20
7.562518187451765
 30
0.8200443364657985
 10
12.88066662862547
 20
7.563619611804222
 30
0.8286111363322561
 10
12.87806570612701
 20
7.566514113464025
 30
0.8542116366206755
 10
12.87538041285006
 20
7.567942982533752
 30
0.8712711554326233
 10
12.87053500067486
 20
7.567793446754948
 30
0.8947634028208995
 10
12.86831675360008
 20
7.567292520421162
 30
0.9042350380386778
 10
12.86627463999321
 20
7.565647620322486
 30
0.9120426996396417
 10
12.86624489021596
 20
7.565623376838451
 30
0.9121562791297037
 10
12.86621488977471
 20
7.565598627736999
 30
0.9122706461821508
1001
ACAD_VIEW_EDGE_ID
1071
       35
1071
       -1
1071
        6
1071
        0
  0
SPLINE
  5
3E5
330
70
100
AcDbEntity
  8
Visible
100
AcDbSpline
 70
     0
 71
     3
 72
    16
 73
    12
 74
     0
 42
0.000000001
 43
0.0000000001
 40
4.234772150528689
 40
4.234772150528689
 40
4.234772150528689
 40
4.234772150528689
 40
4.41037758900386
 40
4.41037758900386
 40
4.902665980811679
 40
4.902665980811679
 40
5.38989988830287
 40
5.38989988830287
 40
5.633516842048464
 40
5.633516842048464
 40
5.87713379579406
 40
5.87713379579406
 40
5.87713379579406
 40
5.87713379579406
 10
12.86621488977471
 20
7.565598627736999
 30
0.9122706461821508
 10
12.86026701014089
 20
7.560691877377283
 30
0.934945027982394
 10
12.85269861759843
 20
7.5545995812058
 30
0.9571614559481531
 10
12.81833933808775
 20
7.528409241075851
 30
1.038657600907754
 10
12.78100130981147
 20
7.50296470398214
 30
1.092566004579566
 10
12.69579809665447
 20
7.458187934522351
 30
1.177769217738386
 10
12.64179008820974
 20
7.435407408068585
 30
1.215400131328351
 10
12.55120841661301
 20
7.411457811367421
 30
1.253595033529563
 10
12.51943456608023
 20
7.405121730181637
 30
1.263392989014391
 10
12.45491399118873
 20
7.396685686087065
 30
1.276361885689766
 10
12.42216557566462
 20
7.394590560845563
 30
1.279527559056077
 10
12.39019484682649
 20
7.394590560845563
 30
1.279527559056077
1001
ACAD_VIEW_EDGE_ID
1071
       36
1071
       -1
1071
        6
1071
        0
  0
SPLINE
  5
3E6
330
70
100
AcDbEntity
  8
Visible
100
AcDbSpline
 70
     0
 71
     3
 72
    16
 73
    12
 74
     0
 42
0.000000001
 43
0.0000000001
 40
5.87713379579406
 40
5.87713379579406
 40
5.87713379579406
 40
5.87713379579406
 40
6.120750749539656
 40
6.120750749539656
 40
6.364367703285251
 40
6.364367703285251
 40
6.851601610776441
 40
6.851601610776441
 40
7.343890002584261
 40
7.343890002584261
 40
7.519495441059433
 40
7.519495441059433
 40
7.519495441059433
 40
7.519495441059433
 10
12.39019484682649
 20
7.394590560845563
 30
1.279527559056077
 10
12.35822411798835
 20
7.394590560845563
 30
1.279527559056077
 10
12.32547570246242
 20
7.396685686087065
 30
1.276361885689766
 10
12.26095512757274
 20
7.405121730181637
 30
1.263392989014391
 10
12.22918127703815
 20
7.411457811367421
 30
1.253595033529563
 10
12.13859960544323
 20
7.435407408068585
 30
1.21540013133017
 10
12.08459159699851
 20
7.458187934522351
 30
1.177769217740205
 10
11.99938838383968
 20
7.50296470398214
 30
1.092566004581385
 10
11.9620503555634
 20
7.528409241075851
 30
1.038657600909573
 10
11.92769107605454
 20
7.554599581205802
 30
0.9571614559499721
 10
11.92012268351027
 20
7.560691877377283
 30
0.934945027984213
 10
11.91417480387645
 20
7.565598627736999
 30
0.9122706461839698
1001
ACAD_VIEW_EDGE_ID
1071
       37
1071
       -1
1071
        6
1071
        0
  0
SPLINE
  5
3E7
330
70
100
AcDbEntity
  8
Visible
100
AcDbSpline
 70
     0
 71
     3
 72
    22
 73
    18
 74
     0
 42
0.000000001
 43
0.0000000001
 40
0.0391361519072636
 40
0.0391361519072636
 40
0.0391361519072636
 40
0.0391361519072636
 40
0.0400420764210185
 40
0.0400420764210185
 40
0.1018962334595151
 40
0.1018962334595151
 40
0.222824588648715
 40
0.222824588648715
 40
0.2832887662433149
 40
0.2832887662433149
 40
0.3135208550406149
 40
0.3135208550406149
 40
0.3286368994392649
 40
0.3286368994392649
 40
0.3361949216385899
 40
0.3361949216385899
 40
0.3437529438379149
 40
0.3437529438379149
 40
0.3437529438379149
 40
0.3437529438379149
 10
11.91417480387645
 20
7.565598627736999
 30
0.9122706461839698
 10
11.91414480343519
 20
7.565623376838451
 30
0.9121562791315227
 10
11.91411505365795
 20
7.565647620322486
 30
0.9120426996414607
 10
11.91207294005289
 20
7.567292520421163
 30
0.9042350380404968
 10
11.90985469297629
 20
7.567793446754948
 30
0.8947634028227184
 10
11.90500928080109
 20
7.567942982533752
 30
0.8712711554344423
 10
11.90232398752596
 20
7.566514113464025
 30
0.8542116366224945
 10
11.89972306502568
 20
7.563619611804222
 30
0.8286111363340751
 10
11.8990821899024
 20
7.562518187451765
 30
0.8200443364676175
 10
11.89846294162453
 20
7.560828160093357
 30
0.8075116878153494
 10
11.89831232639153
 20
7.560256008126436
 30
0.8033765041091101
 10
11.8981650391488
 20
7.559408533510602
 30
0.7972984432090016
 10
11.89812891875954
 20
7.559121926523524
 30
0.7952908809511428
 10
11.89809321076063
 20
7.55871452174247
 30
0.7923133189706278
 10
11.89808437628016
 20
7.558573330689464
 30
0.7913273913163721
 10
11.89807263567127
 20
7.558310300567526
 30
0.7893641001810466
 10
11.89806970408244
 20
7.558134917075726
 30
0.7883942827465944
 10
11.89806970408244
 20
7.558134917075726
 30
0.7874024163156719
1001
ACAD_VIEW_EDGE_ID
1071
       38
1071
       -1
1071
        6
1071
        0
  0
LINE
  5
3E8
330
70
100
AcDbEntity
  8
Visible
100
AcDbLine
 10
11.89807
 20
7.558135
 30
0.787402
 11
11.89807
 21
7.552987
 31
0.787402
210
0.0
220
1.0
230
0.0
  0
SPLINE
  5
3E9
330
70
100
AcDbEntity
  8
Visible
100
AcDbSpline
 70
     0
 71
     3
 72
    24
 73
    20
 74
     0
 42
0.000000001
 43
0.0000000001
 40
6.470569909110528
 40
6.470569909110528
 40
6.470569909110528
 40
6.470569909110528
 40
6.480392878344787
 40
6.480392878344787
 40
6.490215847579046
 40
6.490215847579046
 40
6.509861786047564
 40
6.509861786047564
 40
6.5491536629846
 40
6.5491536629846
 40
6.627737416858674
 40
6.627737416858674
 40
6.78490492460682
 40
6.78490492460682
 40
7.099239940103112
 40
7.099239940103112
 40
7.413574955599404
 40
7.413574955599404
 40
7.552066411691978
 40
7.552066411691978
 40
7.552066411691978
 40
7.552066411691978
 10
11.89806970408244
 20
7.552986801857104
 30
0.7874024163156719
 10
11.89806970408244
 20
7.552986801857104
 30
0.7886915198905627
 10
11.89807429920438
 20
7.552628968160266
 30
0.7897517268884258
 10
11.89808788293339
 20
7.551826919974951
 30
0.7917486308488151
 10
11.89809711494854
 20
7.55135897392349
 30
0.7926757123823336
 10
11.89813159634104
 20
7.549912646804079
 30
0.7954196021619282
 10
11.89816336866352
 20
7.548883697579143
 30
0.7971624579749915
 10
11.89828650856907
 20
7.545747295467232
 30
0.8024242299779871
 10
11.89840537778946
 20
7.543582698045641
 30
0.8059151053439563
 10
11.89887932131023
 20
7.53701471199431
 30
0.8164885074038465
 10
11.89936088210743
 20
7.532435480105893
 30
0.8237793060325202
 10
11.90132064966201
 20
7.518656691526067
 30
0.8457602647577004
 10
11.90339970207787
 20
7.508904071442707
 30
0.8613339664534578
 10
11.91198904101838
 20
7.480103245736043
 30
0.9078162303412682
 10
11.92137368780822
 20
7.459999639511961
 30
0.9408936414602067
 10
11.94706094538924
 20
7.423700860968701
 30
1.004163256919127
 10
11.96376466627771
 20
7.406580681289528
 30
1.035833155392538
 10
11.99402691935756
 20
7.386153864041073
 30
1.079814322718448
 10
12.00411437319781
 20
7.380484479876693
 30
1.09304394870378
 10
12.01509473267651
 20
7.375614547325212
 30
1.105972754679896
1001
ACAD_VIEW_EDGE_ID
1071
       40
1071
       -1
1071
        6
1071
        0
  0
SPLINE
  5
3EA
330
70
100
AcDbEntity
  8
Visible
100
AcDbSpline
 70
     0
 71
     3
 72
    14
 73
    10
 74
     0
 42
0.000000001
 43
0.0000000001
 40
0.8614158771370725
 40
0.8614158771370725
 40
0.8614158771370725
 40
0.8614158771370725
 40
0.9657163878682641
 40
0.9657163878682641
 40
1.446823100655255
 40
1.446823100655255
 40
1.687376457048751
 40
1.687376457048751
 40
1.927929813442247
 40
1.927929813442247
 40
1.927929813442247
 40
1.927929813442247
 10
12.01509473267651
 20
7.375614547325212
 30
1.105972754679896
 10
12.02383752948117
 20
7.371737002985172
 30
1.116266946211908
 10
12.03290678041776
 20
7.367878027661247
 30
1.126084401159459
 10
12.08512193484785
 20
7.346682497248784
 30
1.178299555589546
 10
12.13962273033758
 20
7.328602549119074
 30
1.216002285700596
 10
12.23031798336706
 20
7.309560234806959
 30
1.253986619603892
 10
12.26202370520332
 20
7.304518985305472
 30
1.263668115150721
 10
12.32617713457148
 20
7.297819534930411
 30
1.276440850340804
 10
12.35862616488521
 20
7.29616536399517
 30
1.279527559056077
 10
12.39019484682649
 20
7.29616536399517
 30
1.279527559056077
1001
ACAD_VIEW_EDGE_ID
1071
       41
1071
       -1
1071
        6
1071
        0
  0
SPLINE
  5
3EB
330
70
100
AcDbEntity
  8
Visible
100
AcDbSpline
 70
     0
 71
     3
 72
    14
 73
    10
 74
     0
 42
0.000000001
 43
0.0000000001
 40
1.927929813442247
 40
1.927929813442247
 40
1.927929813442247
 40
1.927929813442247
 40
2.168483169835743
 40
2.168483169835743
 40
2.409036526229239
 40
2.409036526229239
 40
2.89014323901623
 40
2.89014323901623
 40
2.994443749747422
 40
2.994443749747422
 40
2.994443749747422
 40
2.994443749747422
 10
12.39019484682649
 20
7.29616536399517
 30
1.279527559056077
 10
12.42176352876777
 20
7.29616536399517
 30
1.279527559056077
 10
12.45421255907968
 20
7.297819534930411
 30
1.276440850340804
 10
12.51836598844784
 20
7.304518985305472
 30
1.263668115150721
 10
12.55007171028592
 20
7.309560234806959
 30
1.253986619603892
 10
12.6407669633154
 20
7.328602549119074
 30
1.216002285698777
 10
12.69526775880331
 20
7.346682497248784
 30
1.178299555587727
 10
12.74748291323521
 20
7.367878027661247
 30
1.12608440115764
 10
12.75655216416999
 20
7.371737002985172
 30
1.116266946210089
 10
12.76529496097464
 20
7.375614547325211
 30
1.105972754678077
1001
ACAD_VIEW_EDGE_ID
1071
       42
1071
       -1
1071
        6
1071
        0
  0
LINE
  5
3EC
330
70
100
AcDbEntity
  8
Visible
100
AcDbLine
 10
12.665785
 20
7.338164
 30
0.0
 11
12.665785
 21
7.217425
 31
0.0
210
0.0
220
1.0
230
0.0
  0
LINE
  5
3ED
330
70
100
AcDbEntity
  8
Visible
100
AcDbLine
 10
12.114604
 20
7.338164
 30
0.0
 11
12.114604
 21
7.217425
 31
0.0
210
0.0
220
1.0
230
0.0
  0
SPLINE
  5
3EE
330
70
100
AcDbEntity
  8
Visible
100
AcDbSpline
 70
     0
 71
     3
 72
    14
 73
    10
 74
     0
 42
0.000000001
 43
0.0000000001
 40
2.163225979734539
 40
2.163225979734539
 40
2.163225979734539
 40
2.163225979734539
 40
2.165796880793814
 40
2.165796880793814
 40
2.437148640325914
 40
2.437148640325914
 40
2.708500399858013
 40
2.708500399858013
 40
2.78177000915834
 40
2.78177000915834
 40
2.78177000915834
 40
2.78177000915834
 10
3.864585174489604
 20
5.048807908699927
 30
0.596351004754979
 10
3.864345480838949
 20
5.048944118282634
 30
0.596156022635114
 10
3.864106347497965
 20
5.049080914851401
 30
0.5959610089867056
 10
3.838687374949643
 20
5.063718727620653
 30
0.5751798010624043
 10
3.817528711927536
 20
5.086053779324174
 30
0.5524325832302566
 10
3.789800742382851
 20
5.139053324086489
 30
0.506851792735688
 10
3.783149174127231
 20
5.169447513381783
 30
0.4837547819515749
 10
3.783149174127231
 20
5.205143163776483
 30
0.455984245369109
 10
3.78363627405821
 20
5.212862609985677
 30
0.4499411853648781
 10
3.784623636753224
 20
5.220596257962824
 30
0.4438009804998729
1001
ACAD_VIEW_EDGE_ID
1071
        2
1071
       -1
1071
        2
1071
        0
  0
CIRCLE
  5
3EF
330
70
100
AcDbEntity
  8
Visible
100
AcDbCircle
 10
6.209398
 20
-0.475898
 30
1.414127
 40
0.4921259842519687
210
0.7071067811864423
220
-0.4071957137923944
230
0.5780931159158113
  0
ARC
  5
3F0
330
70
100
AcDbEntity
  8
Visible
100
AcDbCircle
 10
6.209398
 20
-0.475898
 30
-1.032594
 40
0.4921259842519687
210
0.7071067811864423
220
-0.4071957137923944
230
0.5780931159158113
100
AcDbArc
 50
0.0
 51
180.0
  0
LINE
  5
3F1
330
70
100
AcDbEntity
  8
Visible
100
AcDbLine
 10
2.85253
 20
6.090607
 30
-0.985255
 11
3.784581
 21
5.553875
 31
-0.223259
210
-0.0000000000000001
220
0.8175471248425399
230
0.5758617009853117
  0
LINE
  5
3F2
330
70
100
AcDbEntity
  8
Visible
100
AcDbLine
 10
4.335762
 20
5.236471
 30
0.227357
 11
4.582623
 21
5.094313
 31
0.429178
210
-0.0000000000000001
220
0.8175471248425399
230
0.5758617009853117
  0
LINE
  5
3F3
330
70
100
AcDbEntity
  8
Visible
100
AcDbLine
 10
2.361357
 20
5.237671
 30
-0.985255
 11
4.09145
 21
4.241376
 31
0.429178
210
-0.0000000000000001
220
0.8175471248425399
230
0.5758617009853117
  0
ARC
  5
3F4
330
70
100
AcDbEntity
  8
Visible
100
AcDbCircle
 10
-6.209398
 20
-0.475898
 30
1.032594
 40
0.9448818897637798
210
-0.7071067811864423
220
0.4071957137923945
230
-0.5780931159158112
100
AcDbArc
 50
301.388166
 51
172.342175
  0
ARC
  5
3F5
330
70
100
AcDbEntity
  8
Visible
100
AcDbCircle
 10
-6.209398
 20
-0.475898
 30
1.032594
 40
0.9448818897637817
210
-0.7071067811864431
220
0.407195713792394
230
-0.5780931159158105
100
AcDbArc
 50
215.747868
 51
238.611834
  0
ARC
  5
3F6
330
70
100
AcDbEntity
  8
Visible
100
AcDbCircle
 10
6.209398
 20
-0.475898
 30
-1.071964
 40
0.9842519685039386
210
0.7071067811864423
220
-0.4071957137923946
230
0.5780931159158112
100
AcDbArc
 50
314.889207
 51
321.326432
  0
ARC
  5
3F7
330
70
100
AcDbEntity
  8
Visible
100
AcDbCircle
 10
6.209398
 20
-0.475898
 30
-1.071964
 40
0.9842519685040736
210
0.7071067811864423
220
-0.4071957137923946
230
0.5780931159158112
100
AcDbArc
 50
341.768939
 51
344.281157
  0
ARC
  5
3F8
330
70
100
AcDbEntity
  8
Visible
100
AcDbCircle
 10
6.209398
 20
-0.475898
 30
-1.071964
 40
0.9842519685039372
210
0.7071067811864423
220
-0.4071957137923944
230
0.5780931159158113
100
AcDbArc
 50
6.512143
 51
225.110793
  0
ARC
  5
3F9
330
70
100
AcDbEntity
  8
Visible
100
AcDbCircle
 10
-6.209398
 20
-0.475898
 30
1.229445
 40
0.9842519685039372
210
-0.7071067811864423
220
0.4071957137923944
230
-0.5780931159158113
100
AcDbArc
 50
360.0
 51
180.0
  0
LINE
  5
3FA
330
70
100
AcDbEntity
  8
Visible
100
AcDbLine
 10
2.609528
 20
4.893147
 30
-1.531484
 11
2.581796
 21
4.877054
 31
-1.577003
210
-0.0000000000000001
220
0.8175471248425399
230
0.5758617009853117
  0
LINE
  5
3FB
330
70
100
AcDbEntity
  8
Visible
100
AcDbLine
 10
3.275076
 20
6.048891
 30
-1.531484
 11
3.275076
 21
6.080953
 31
-1.577003
210
-0.0000000000000001
220
0.8175471248425399
230
0.5758617009853117
  0
LINE
  5
3FC
330
70
100
AcDbEntity
  8
Visible
100
AcDbLine
 10
2.958923
 20
6.597232
 30
-1.099052
 11
3.011252
 21
6.567097
 31
-1.056271
210
-0.0000000000000001
220
0.8175471248425399
230
0.5758617009853117
  0
LINE
  5
3FD
330
70
100
AcDbEntity
  8
Visible
100
AcDbLine
 10
1.976576
 20
4.891359
 30
-1.099052
 11
2.087931
 21
4.827234
 31
-1.008014
210
-0.0000000000000001
220
0.8175471248425399
230
0.5758617009853117
  0
SPLINE
  5
3FE
330
70
100
AcDbEntity
  8
Visible
100
AcDbSpline
 70
     0
 71
     3
 72
    28
 73
    24
 74
     0
 42
0.000000001
 43
0.0000000001
 40
0.0
 40
0.0
 40
0.0
 40
0.0
 40
0.1176160583361983
 40
0.1176160583361983
 40
0.2352321166723966
 40
0.2352321166723966
 40
0.4704642333447932
 40
0.4704642333447932
 40
0.6974993473189302
 40
0.6974993473189302
 40
0.9245344612930672
 40
0.9245344612930672
 40
1.151569575267204
 40
1.151569575267204
 40
1.378604689241342
 40
1.378604689241342
 40
1.613836805913738
 40
1.613836805913738
 40
1.731452864249937
 40
1.731452864249937
 40
1.849068922586135
 40
1.849068922586135
 40
1.890720444475869
 40
1.890720444475869
 40
1.890720444475869
 40
1.890720444475869
 10
4.014606507487826
 20
6.246772586106089
 30
1.535141015408953
 10
4.014606507487826
 20
6.259391571713422
 30
1.544029543416399
 10
4.017359916722909
 20
6.271562346298196
 30
1.553206557044177
 10
4.027347980413708
 20
6.294845550844001
 30
1.571299218303465
 10
4.034550766801714
 20
6.305985623595006
 30
1.580196856504699
 10
4.060554769214888
 20
6.338211382642839
 30
1.604856298252343
 10
4.083747086416281
 20
6.358327070913219
 30
1.618390955338327
 10
4.130020941850546
 20
6.394344518483194
 30
1.633938138184021
 10
4.156539319378737
 20
6.412820480455593
 30
1.637447815306586
 10
4.208532535820324
 20
6.44684095170578
 30
1.629896997688774
 10
4.233975706143667
 20
6.462404202454308
 30
1.618703510994237
 10
4.276111682169414
 20
6.486668697281857
 30
1.584255364941782
 10
4.294225165080263
 20
6.496188054953563
 30
1.559839235016625
 10
4.319989400759425
 20
6.506945122346223
 30
1.503819671219389
 10
4.327759673206912
 20
6.508214680672608
 30
1.472277406894136
 10
4.335790187194163
 20
6.503469039648734
 30
1.412333842961743
 10
4.336308821671138
 20
6.497007580343961
 30
1.379414365501361
 10
4.334706146391056
 20
6.478833611045047
 30
1.334805688915366
 10
4.333847049105372
 20
6.471346625890873
 30
1.320721785928981
 10
4.332463351685021
 20
6.453018346342105
 30
1.295594649762279
 10
4.331969393533711
 20
6.442148703101338
 30
1.284570428397273
 10
4.331969393533711
 20
6.425060940333423
 30
1.272534194844411
 10
4.332031340303785
 20
6.420413853791615
 30
1.269683255803101
 10
4.332142085117141
 20
6.415612739682728
 30
1.267118330952143
1001
ACAD_VIEW_EDGE_ID
1071
        2
1071
       -1
1071
        4
1071
        0
  0
SPLINE
  5
3FF
330
70
100
AcDbEntity
  8
Visible
100
AcDbSpline
 70
     0
 71
     3
 72
    24
 73
    20
 74
     0
 42
0.000000001
 43
0.0000000001
 40
2.065036206003531
 40
2.065036206003531
 40
2.065036206003531
 40
2.065036206003531
 40
2.084301039258532
 40
2.084301039258532
 40
2.31953315593093
 40
2.31953315593093
 40
2.546568269905066
 40
2.546568269905066
 40
2.773603383879203
 40
2.773603383879203
 40
3.000638497853339
 40
3.000638497853339
 40
3.227673611827476
 40
3.227673611827476
 40
3.462905728499873
 40
3.462905728499873
 40
3.580521786836072
 40
3.580521786836072
 40
3.698137845172271
 40
3.698137845172271
 40
3.698137845172271
 40
3.698137845172271
 10
4.334953877503778
 20
6.349073278148352
 30
1.248946277462891
 10
4.335056649643831
 20
6.346462377940042
 30
1.248743677082529
 10
4.335152868489842
 20
6.34384186922216
 30
1.248586387604518
 10
4.336308821671138
 20
6.309132166333256
 30
1.247079173806923
 10
4.335790187194163
 20
6.275959572561077
 30
1.252081320842989
 10
4.327759673206912
 20
6.217919249332226
 30
1.267799871837269
 10
4.319989400759425
 20
6.188646971681009
 30
1.279617654121466
 10
4.294225165080263
 20
6.139522234951982
 30
1.308611899552488
 10
4.276111682169414
 20
6.119738097942899
 30
1.325797751114805
 10
4.233975706143667
 20
6.095473603115351
 30
1.36024589716726
 10
4.208532535820324
 20
6.090175131704199
 30
1.378669662224638
 10
4.156539319378737
 20
6.094522329790379
 30
1.413245798208663
 10
4.130020941850546
 20
6.104049087142811
 30
1.429460603127154
 10
4.083747086416281
 20
6.130817603825562
 30
1.458138433219573
 10
4.060554769214888
 20
6.150335968632134
 30
1.472521106557906
 10
4.034550766801714
 20
6.184407566305708
 30
1.494560023169469
 10
4.027347980413708
 20
6.196537081505994
 30
1.502052956338957
 10
4.017359916722909
 20
6.221413922749889
 30
1.517883141905258
 10
4.014606507487826
 20
6.234153600498757
 30
1.526252487401507
 10
4.014606507487826
 20
6.246772586106089
 30
1.535141015408953
1001
ACAD_VIEW_EDGE_ID
1071
        2
1071
       -1
1071
        4
1071
        0
  0
ARC
  5
400
330
70
100
AcDbEntity
  8
Visible
100
AcDbCircle
 10
-7.575142
 20
0.884574
 30
-1.160376
 40
0.2244094488188968
210
-0.7071067811864423
220
0.4071957137923946
230
-0.5780931159158112
100
AcDbArc
 50
203.138248
 51
214.678722
  0
ARC
  5
401
330
70
100
AcDbEntity
  8
Visible
100
AcDbCircle
 10
-7.575142
 20
0.884574
 30
-1.160376
 40
0.2244094488188979
210
-0.7071067811864423
220
0.4071957137923946
230
-0.5780931159158112
100
AcDbArc
 50
321.681035
 51
348.318694
  0
LINE
  5
402
330
70
100
AcDbEntity
  8
Visible
100
AcDbLine
 10
3.929101
 20
6.399019
 30
1.606454
 11
3.929101
 21
6.105449
 31
1.39967
210
-0.0000000000000001
220
0.8175471248425399
230
0.5758617009853117
  0
ARC
  5
403
330
70
100
AcDbEntity
  8
Visible
100
AcDbCircle
 10
7.644873
 20
0.954037
 30
0.94384
 40
0.3937007874015748
210
0.7071067811864423
220
-0.4071957137923946
230
0.5780931159158112
100
AcDbArc
 50
182.758792
 51
205.585536
  0
SPLINE
  5
404
330
70
100
AcDbEntity
  8
Visible
100
AcDbSpline
 70
     0
 71
     3
 72
     8
 73
     4
 74
     0
 42
0.000000001
 43
0.0000000001
 40
2.209857864444705
 40
2.209857864444705
 40
2.209857864444705
 40
2.209857864444705
 40
2.411152941634972
 40
2.411152941634972
 40
2.411152941634972
 40
2.411152941634972
 10
3.865299799014849
 20
6.141677982210239
 30
1.367021462949196
 10
3.846620387716086
 20
6.152434739773525
 30
1.351750163947144
 10
3.830387942397521
 20
6.161725341717101
 30
1.331704852689654
 10
3.817745366561268
 20
6.169574520170499
 30
1.30863165653136
1001
ACAD_VIEW_EDGE_ID
1071
       13
1071
       -1
1071
        4
1071
        0
  0
SPLINE
  5
405
330
70
100
AcDbEntity
  8
Visible
100
AcDbSpline
 70
     0
 71
     3
 72
     8
 73
     4
 74
     0
 42
0.000000001
 43
0.0000000001
 40
2.008562787254438
 40
2.008562787254438
 40
2.008562787254438
 40
2.008562787254438
 40
2.209857864444705
 40
2.209857864444705
 40
2.209857864444705
 40
2.209857864444705
 10
3.9291007651737
 20
6.105449210912411
 30
1.399669942502441
 10
3.905717298738693
 20
6.118346050440777
 30
1.393290151381734
 10
3.883979210314521
 20
6.130921224645135
 30
1.382292761951248
 10
3.865299799014849
 20
6.141677982210239
 30
1.367021462949196
1001
ACAD_VIEW_EDGE_ID
1071
       14
1071
       -1
1071
        4
1071
        0
  0
LINE
  5
406
330
70
100
AcDbEntity
  8
Visible
100
AcDbLine
 10
3.817745
 20
6.169575
 30
1.308632
 11
3.817745
 21
6.25216
 31
1.366803
210
-0.0000000000000001
220
0.8175471248425399
230
0.5758617009853117
  0
SPLINE
  5
407
330
70
100
AcDbEntity
  8
Visible
100
AcDbSpline
 70
     0
 71
     3
 72
    14
 73
    10
 74
     0
 42
0.000000001
 43
0.0000000001
 40
-1.161707484134181
 40
-1.161707484134181
 40
-1.161707484134181
 40
-1.161707484134181
 40
-0.8798978209865015
 40
-0.8798978209865015
 40
-0.5980881578388218
 40
-0.5980881578388218
 40
-0.2990440789194109
 40
-0.2990440789194109
 40
-0.2471841509509144
 40
-0.2471841509509144
 40
-0.2471841509509144
 40
-0.2471841509509144
 10
4.25504369415654
 20
6.548566307629698
 30
1.653624395145016
 10
4.228892838013109
 20
6.533507031127555
 30
1.675003952397673
 10
4.196447018913261
 20
6.515547371214779
 30
1.688425354270293
 10
4.128240482023159
 20
6.479573532317772
 30
1.696389524264304
 10
4.092482291338512
 20
6.461590364905532
 30
1.691093170164094
 10
4.025885210820035
 20
6.431269786409757
 30
1.669736040554198
 10
3.990423545185024
 20
6.416689010447953
 30
1.651406939021399
 10
3.951526969482131
 20
6.407474294112944
 30
1.625767736291891
 10
3.945842400623462
 20
6.406322360780905
 30
1.621882832609117
 10
3.940227823382031
 20
6.405425469288275
 30
1.617931139107895
1001
ACAD_VIEW_EDGE_ID
1071
       20
1071
       -1
1071
        4
1071
        0
  0
SPLINE
  5
408
330
70
100
AcDbEntity
  8
Visible
100
AcDbSpline
 70
     0
 71
     3
 72
    12
 73
     8
 74
     0
 42
0.000000001
 43
0.0000000001
 40
2.829283866371285
 40
2.829283866371285
 40
2.829283866371285
 40
2.829283866371285
 40
2.921503126107184
 40
2.921503126107184
 40
3.203312789254864
 40
3.203312789254864
 40
3.485122452402544
 40
3.485122452402544
 40
3.485122452402544
 40
3.485122452402544
 10
4.333877839661056
 20
6.608916388540819
 30
1.418688144993211
 10
4.335135752578992
 20
6.607933183696331
 30
1.431076777780617
 10
4.335762297768326
 20
6.606856841417538
 30
1.443388258705454
 10
4.335762297766507
 20
6.601686003223221
 30
1.49220030037577
 10
4.329736499458761
 20
6.595607371659752
 30
1.531657034543968
 10
4.302509459120358
 20
6.576624668442491
 30
1.601714311223986
 10
4.281194550300881
 20
6.563625584130022
 30
1.632244837892358
 10
4.25504369415654
 20
6.548566307629698
 30
1.653624395145016
1001
ACAD_VIEW_EDGE_ID
1071
       21
1071
       -1
1071
        4
1071
        0
  0
ARC
  5
409
330
70
100
AcDbEntity
  8
Visible
100
AcDbCircle
 10
-4.060172
 20
-2.614025
 30
2.610896
 40
0.2755905511811033
210
-0.0000000000000001
220
0.8175471248425399
230
0.5758617009853117
100
AcDbArc
 50
0.0
 51
180.0
  0
LINE
  5
40A
330
70
100
AcDbEntity
  8
Visible
100
AcDbLine
 10
3.784581
 20
3.639847
 30
-0.633573
 11
3.784581
 21
4.41809
 31
-0.085396
210
-0.0000000000000001
220
0.8175471248425399
230
0.5758617009853117
  0
LINE
  5
40B
330
70
100
AcDbEntity
  8
Visible
100
AcDbLine
 10
3.784581
 20
5.174371
 30
0.447311
 11
3.784581
 21
6.315795
 31
1.251304
210
-0.0000000000000001
220
0.8175471248425399
230
0.5758617009853117
  0
LINE
  5
40C
330
70
100
AcDbEntity
  8
Visible
100
AcDbLine
 10
4.335762
 20
3.639847
 30
-0.633573
 11
4.335762
 21
4.264777
 31
-0.193387
210
-0.0000000000000001
220
0.8175471248425399
230
0.5758617009853117
  0
LINE
  5
40D
330
70
100
AcDbEntity
  8
Visible
100
AcDbLine
 10
4.335762
 20
5.196729
 30
0.463059
 11
4.335762
 21
6.312309
 31
1.248848
210
-0.0000000000000001
220
0.8175471248425399
230
0.5758617009853117
  0
LINE
  5
40E
330
70
100
AcDbEntity
  8
Visible
100
AcDbLine
 10
4.335762
 20
6.494272
 30
1.377019
 11
4.335762
 21
6.605582
 31
1.455423
210
-0.0000000000000001
220
0.8175471248425399
230
0.5758617009853117
  0
SPLINE
  5
40F
330
70
100
AcDbEntity
  8
Visible
100
AcDbSpline
210
-0.7071067811900658
220
-0.407195713795586
230
0.5780931159091307
 70
    12
 71
     2
 72
     6
 73
     3
 74
     0
 42
0.000000001
 43
0.0000000001
 40
0.1355501852963379
 40
0.1355501852963379
 40
0.1355501852963379
 40
0.453233872459803
 40
0.453233872459803
 40
0.453233872459803
 10
4.303214243749664
 20
6.366848324571947
 30
1.445548024019444
 41
1.232050807568715
 10
4.287141476407725
 20
6.338937791098942
 30
1.40622873141001
 41
1.422649730812052
 10
4.303214243749664
 20
6.292515875343269
 30
1.393189928257925
 41
1.232050807568715
1001
ACAD_VIEW_EDGE_ID
1071
        0
1071
       -1
1071
        5
1071
        0
  0
ARC
  5
410
330
70
100
AcDbEntity
  8
Visible
100
AcDbCircle
 10
7.57707
 20
0.884217
 30
1.28594
 40
0.0909213022345869
210
0.7071067811864423
220
-0.4071957137923946
230
0.5780931159158112
100
AcDbArc
 50
284.889207
 51
344.889207
  0
ARC
  5
411
330
70
100
AcDbEntity
  8
Visible
100
AcDbCircle
 10
7.57707
 20
0.884217
 30
1.175507
 40
0.2066929133858268
210
0.7071067811864423
220
-0.4071957137923946
230
0.5780931159158112
100
AcDbArc
 50
124.494161
 51
194.907128
  0
CIRCLE
  5
412
330
70
100
AcDbEntity
  8
Visible
100
AcDbCircle
 10
7.57707
 20
0.884217
 30
1.28594
 40
0.1181102362204725
210
0.7071067811864424
220
-0.407195713792395
230
0.5780931159158105
  0
ARC
  5
413
330
70
100
AcDbEntity
  8
Visible
100
AcDbCircle
 10
7.57707
 20
0.884217
 30
1.28594
 40
0.0909213022345869
210
0.7071067811864423
220
-0.4071957137923946
230
0.5780931159158112
100
AcDbArc
 50
104.889207
 51
164.889207
  0
ARC
  5
414
330
70
100
AcDbEntity
  8
Visible
100
AcDbCircle
 10
7.57707
 20
0.884217
 30
1.28594
 40
0.090921302234587
210
0.7071067811864423
220
-0.4071957137923946
230
0.5780931159158112
100
AcDbArc
 50
44.889207
 51
104.889207
  0
ARC
  5
415
330
70
100
AcDbEntity
  8
Visible
100
AcDbCircle
 10
7.57707
 20
0.884217
 30
1.28594
 40
0.0909213022345865
210
0.7071067811864423
220
-0.4071957137923946
230
0.5780931159158112
100
AcDbArc
 50
344.889207
 51
44.889207
  0
ARC
  5
416
330
70
100
AcDbEntity
  8
Visible
100
AcDbCircle
 10
7.57707
 20
0.884217
 30
1.28594
 40
0.0909213022345865
210
0.7071067811864423
220
-0.4071957137923946
230
0.5780931159158112
100
AcDbArc
 50
224.889207
 51
284.889207
  0
ARC
  5
417
330
70
100
AcDbEntity
  8
Visible
100
AcDbCircle
 10
7.57707
 20
0.884217
 30
1.28594
 40
0.0909213022345867
210
0.7071067811864423
220
-0.4071957137923946
230
0.5780931159158112
100
AcDbArc
 50
164.889207
 51
224.889207
  0
SPLINE
  5
418
330
70
100
AcDbEntity
  8
Visible
100
AcDbSpline
210
-0.3535533905917543
220
-0.9116144358021351
230
-0.2096643041584079
 70
    12
 71
     2
 72
     6
 73
     3
 74
     0
 42
0.000000001
 43
0.0000000001
 40
-0.45323387245921
 40
-0.45323387245921
 40
-0.45323387245921
 40
-0.1355501852959807
 40
-0.1355501852959807
 40
-0.1355501852959807
 10
4.303214243749664
 20
6.366848324571947
 30
1.445548024019444
 41
1.232050807568012
 10
4.259302626754163
 20
6.378655800705927
 30
1.46825687472301
 41
1.422649730811242
 10
4.247536544444358
 20
6.371951894557241
 30
1.517246214883925
 41
1.232050807568012
1001
ACAD_VIEW_EDGE_ID
1071
       23
1071
       -1
1071
        5
1071
        0
  0
SPLINE
  5
419
330
70
100
AcDbEntity
  8
Visible
100
AcDbSpline
210
-0.7071067810584987
220
-0.4071957138246916
230
0.5780931160495588
 70
    12
 71
     2
 72
     6
 73
     3
 74
     0
 42
0.000000001
 43
0.0000000001
 40
-0.2727687069593494
 40
-0.2727687069593494
 40
-0.2727687069593494
 40
-0.1355501852959807
 40
-0.1355501852959807
 40
-0.1355501852959807
 10
4.183393832539934
 20
6.265728984212728
 30
1.500174392720509
 41
1.325584209259389
 10
4.184344580255185
 20
6.250093522637143
 30
1.490324054388111
 41
1.314377044434647
 10
4.191858845137232
 20
6.228390566085181
 30
1.484228214229005
 41
1.232050807568012
1001
ACAD_VIEW_EDGE_ID
1071
       25
1071
       -1
1071
        5
1071
        0
  0
SPLINE
  5
41A
330
70
100
AcDbEntity
  8
Visible
100
AcDbSpline
210
-0.3535533906025633
220
-0.9116144357963007
230
-0.2096643041655483
 70
    12
 71
     2
 72
     6
 73
     3
 74
     0
 42
0.000000001
 43
0.0000000001
 40
-0.45323387245921
 40
-0.45323387245921
 40
-0.45323387245921
 40
-0.1355501852959808
 40
-0.1355501852959808
 40
-0.1355501852959808
 10
4.191858845137232
 20
6.228390566085181
 30
1.484228214230824
 41
1.232050807568012
 10
4.203624927448856
 20
6.235094472233867
 30
1.43523887406809
 41
1.422649730811241
 10
4.247536544444358
 20
6.223286996099886
 30
1.412530023362705
 41
1.232050807568012
1001
ACAD_VIEW_EDGE_ID
1071
       26
1071
       -1
1071
        5
1071
        0
  0
SPLINE
  5
41B
330
70
100
AcDbEntity
  8
Visible
100
AcDbSpline
210
-0.3535533906139719
220
0.5044187219978774
230
0.7877574200751094
 70
    12
 71
     2
 72
     6
 73
     3
 74
     0
 42
0.000000001
 43
0.0000000001
 40
-0.4532338724592098
 40
-0.4532338724592098
 40
-0.4532338724592098
 40
-0.1355501852959808
 40
-0.1355501852959808
 40
-0.1355501852959808
 10
4.247536544444358
 20
6.223286996099886
 30
1.412530023362705
 41
1.232050807568012
 10
4.259302626754163
 20
6.267157126862913
 30
1.38971973108164
 41
1.422649730811241
 10
4.303214243749664
 20
6.292515875343269
 30
1.393189928259744
 41
1.232050807568012
1001
ACAD_VIEW_EDGE_ID
1071
       27
1071
       -1
1071
        5
1071
        0
  0
LINE
  5
41C
330
70
100
AcDbEntity
  8
Visible
100
AcDbLine
 10
4.183806
 20
6.261037
 30
1.359755
 11
4.238907
 21
6.329548
 31
1.340615
210
-0.0000000000000001
220
0.8175471248425399
230
0.5758617009853117
  0
LINE
  5
41D
330
70
100
AcDbEntity
  8
Visible
100
AcDbLine
 10
4.238907
 20
6.329548
 30
1.340615
 11
4.238907
 21
6.366309
 31
1.366509
210
-0.0000000000000001
220
0.8175471248425399
230
0.5758617009853117
  0
LINE
  5
41E
330
70
100
AcDbEntity
  8
Visible
100
AcDbLine
 10
4.238907
 20
6.329548
 30
1.340615
 11
4.303214
 21
6.292516
 31
1.39319
210
-0.0000000000000001
220
0.8175471248425399
230
0.5758617009853117
  0
LINE
  5
41F
330
70
100
AcDbEntity
  8
Visible
100
AcDbLine
 10
4.183941
 20
6.259909
 30
1.360538
 11
4.247537
 21
6.223287
 31
1.41253
210
-0.0000000000000001
220
0.8175471248425399
230
0.5758617009853117
  0
LINE
  5
420
330
70
100
AcDbEntity
  8
Visible
100
AcDbLine
 10
4.055603
 20
6.169632
 30
1.3923
 11
4.066302
 21
6.163471
 31
1.401048
210
-0.0000000000000001
220
0.8175471248425399
230
0.5758617009853117
  0
ARC
  5
421
330
70
100
AcDbEntity
  8
Visible
100
AcDbCircle
 10
-4.116379
 20
6.373148
 30
-1.35766
 40
0.2198972016140301
210
0.0000000000000006
220
-0.0000000000000001
230
-1.0
100
AcDbArc
 50
145.593507
 51
275.209859
  0
SPLINE
  5
422
330
70
100
AcDbEntity
  8
Visible
100
AcDbSpline
 70
     0
 71
     3
 72
     8
 73
     4
 74
     0
 42
0.000000001
 43
0.0000000001
 40
0.0
 40
0.0
 40
0.0
 40
0.0
 40
0.0082811548928885
 40
0.0082811548928885
 40
0.0082811548928885
 40
0.0082811548928885
 10
4.776174872883586
 20
7.140216311824588
 30
0.9606331053073517
 10
4.775406413462462
 20
7.139773785474972
 30
0.9612613570971006
 10
4.774645992462922
 20
7.139321974991617
 30
0.9619027361986809
 10
4.773894362388148
 20
7.138861308115338
 30
0.962556700244022
1001
ACAD_VIEW_EDGE_ID
1071
        0
1071
       -1
1071
        6
1071
        0
  0
SPLINE
  5
423
330
70
100
AcDbEntity
  8
Visible
100
AcDbSpline
 70
     0
 71
     3
 72
    14
 73
    10
 74
     0
 42
0.000000001
 43
0.0000000001
 40
1.321109731838631
 40
1.321109731838631
 40
1.321109731838631
 40
1.321109731838631
 40
1.379002637297842
 40
1.379002637297842
 40
1.48481572190463
 40
1.48481572190463
 40
1.590294672585504
 40
1.590294672585504
 40
1.695773623266378
 40
1.695773623266378
 40
1.695773623266378
 40
1.695773623266378
 10
4.917348721684959
 20
7.15120779391691
 30
0.953308005206054
 10
4.910874979633319
 20
7.15316872736821
 30
0.9491488217645382
 10
4.903807218806889
 20
7.154865910210901
 30
0.9455287498512916
 10
4.882794925565633
 20
7.158568381784789
 30
0.9374708425348217
 10
4.868001100901039
 20
7.159649972331862
 30
0.934828082758031
 10
4.840282390724553
 20
7.159043597634081
 30
0.934402141976534
 10
4.825519318650606
 20
7.157322540297172
 30
0.9365724632025376
 10
4.798359558521099
 20
7.150734394168466
 30
0.9456920039792748
 10
4.78596291504806
 20
7.145852870435192
 30
0.9526309195789508
 10
4.776174872883586
 20
7.140216311824588
 30
0.9606331053073517
1001
ACAD_VIEW_EDGE_ID
1071
        0
1071
       -1
1071
        6
1071
        0
  0
SPLINE
  5
424
330
70
100
AcDbEntity
  8
Visible
100
AcDbSpline
 70
     1
 71
     3
 72
    38
 73
    34
 74
     0
 42
0.000000001
 43
0.0000000001
 40
0.0
 40
0.0
 40
0.0
 40
0.0
 40
0.1054824830402876
 40
0.1054824830402876
 40
0.2109649660805752
 40
0.2109649660805752
 40
0.3169607557325951
 40
0.3169607557325951
 40
0.422956545384615
 40
0.422956545384615
 40
0.5308600294403023
 40
0.5308600294403023
 40
0.6387635134959896
 40
0.6387635134959896
 40
0.7444606852206449
 40
0.7444606852206449
 40
0.8501578569453002
 40
0.8501578569453002
 40
0.9558550286699556
 40
0.9558550286699556
 40
1.061552200394611
 40
1.061552200394611
 40
1.169455684450298
 40
1.169455684450298
 40
1.277359168505985
 40
1.277359168505985
 40
1.383354958158005
 40
1.383354958158005
 40
1.489350747810025
 40
1.489350747810025
 40
1.594833230850313
 40
1.594833230850313
 40
1.7003157138906
 40
1.7003157138906
 40
1.7003157138906
 40
1.7003157138906
 10
4.776174872883586
 20
7.220684294807142
 30
1.017312932252025
 10
4.785963242837226
 20
7.226321042178824
 30
1.009310478539191
 10
4.798360322722203
 20
7.231201659581529
 30
1.002370800857534
 10
4.825519992845386
 20
7.237815713241616
 30
0.9932698292795976
 10
4.840282514955163
 20
7.239566974312765
 30
0.9911212992992659
 10
4.868020400404077
 20
7.240317885773038
 30
0.9916484215846139
 10
4.882830143431476
 20
7.239356041766768
 30
0.9943868355876475
 10
4.909994797844831
 20
7.234971851996306
 30
1.005101281627503
 10
4.922349117654505
 20
7.231569615430998
 30
1.013087030247334
 10
4.941970742785144
 20
7.22373418740608
 30
1.0315685364003
 10
4.950477197860948
 20
7.218756744782695
 30
1.043350367202947
 10
4.961699860880855
 20
7.207758447384549
 30
1.069013066145998
 10
4.964421976937103
 20
7.201719616004993
 30
1.082883641805892
 10
4.964296786035504
 20
7.190043017356401
 30
1.10836718487917
 10
4.961543676588064
 20
7.183618131798539
 30
1.121716354860836
 10
4.950338928427356
 20
7.170806419198925
 30
1.145719137182823
 10
4.94188072318235
 20
7.164397100594214
 30
1.15635767103231
 10
4.922264138698722
 20
7.153100660885684
 30
1.172395153274919
 10
4.909875754824554
 20
7.14750522722079
 30
1.178799688424987
 10
4.882874574536856
 20
7.138315608875927
 30
1.186032053055896
 10
4.868261153475089
 20
7.134739774634908
 30
1.186880840163212
 10
4.840703050145805
 20
7.130474624378621
 30
1.18402969469389
 10
4.825885669183719
 20
7.129548255936242
 30
1.180047568081135
 10
4.798571705200686
 20
7.131280189390054
 30
1.167540265974821
 10
4.78607318472774
 20
7.133958754444392
 30
1.159022136762359
 10
4.766451559597101
 20
7.141794182468402
 30
1.140540630605755
 10
4.757963616037216
 20
7.147422917038056
 30
1.129393937200802
 10
4.746679364503563
 20
7.16095202262386
 30
1.105696513444854
 10
4.743886692885155
 20
7.168834037811393
 30
1.09313357726387
 10
4.743888166726776
 20
7.184057160977317
 30
1.069928221544614
 10
4.746653175414451
 20
7.192399333604043
 30
1.057747169114009
 10
4.757902428753425
 20
7.207903507942319
 30
1.035447035750621
 10
4.766386502929037
 20
7.215047547434551
 30
1.025315385964859
 10
4.776174872883586
 20
7.220684294807142
 30
1.017312932252025
1001
ACAD_VIEW_EDGE_ID
1071
        1
1071
       -1
1071
        6
1071
        0
  0
SPLINE
  5
425
330
70
100
AcDbEntity
  8
Visible
100
AcDbSpline
 70
     0
 71
     3
 72
     8
 73
     4
 74
     0
 42
0.000000001
 43
0.0000000001
 40
0.0
 40
0.0
 40
0.0
 40
0.0
 40
0.0572569972278837
 40
0.0572569972278837
 40
0.0572569972278837
 40
0.0572569972278837
 10
3.193858376334958
 20
6.429826345276524
 30
2.01431549224435
 10
3.188545146542367
 20
6.426766659729764
 30
2.018659307983398
 10
3.183624739136632
 20
6.423104357820193
 30
2.023508591564677
 10
3.179338598017295
 20
6.418981322593936
 30
2.028681555375442
1001
ACAD_VIEW_EDGE_ID
1071
        2
1071
       -1
1071
        6
1071
        0
  0
SPLINE
  5
426
330
70
100
AcDbEntity
  8
Visible
100
AcDbSpline
 70
     0
 71
     3
 72
    16
 73
    12
 74
     0
 42
0.000000001
 43
0.0000000001
 40
1.232295887644235
 40
1.232295887644235
 40
1.232295887644235
 40
1.232295887644235
 40
1.270083583032977
 40
1.270083583032977
 40
1.377014158890401
 40
1.377014158890401
 40
1.483944734747825
 40
1.483944734747825
 40
1.589555783542527
 40
1.589555783542527
 40
1.695166832337228
 40
1.695166832337228
 40
1.695166832337228
 40
1.695166832337228
 10
3.359648541128137
 20
6.405806130573182
 30
2.011325742789267
 10
3.356560397970554
 20
6.408575819392353
 30
2.008276565356936
 10
3.35323870801227
 20
6.41122106268358
 30
2.00547038003242
 10
3.339900477866706
 20
6.420707219863288
 30
1.995837277183454
 10
3.327442080718412
 20
6.427307995730188
 30
1.990092996384191
 10
3.300189764139815
 20
6.437430179639704
 30
1.983483063895619
 10
3.285394570250048
 20
6.44093974898351
 30
1.982604549042662
 10
3.25778879203159
 20
6.444157556943537
 30
1.984963351354963
 10
3.243115567082952
 20
6.444120426785048
 30
1.988310667433324
 10
3.216050655102719
 20
6.439786048672431
 30
1.998984833231588
 10
3.203658676697216
 20
6.435469962912975
 30
2.006303284859313
 10
3.193858376334958
 20
6.429826345276524
 30
2.01431549224435
1001
ACAD_VIEW_EDGE_ID
1071
        2
1071
       -1
1071
        6
1071
        0
  0
SPLINE
  5
427
330
70
100
AcDbEntity
  8
Visible
100
AcDbSpline
 70
     1
 71
     3
 72
    38
 73
    34
 74
     0
 42
0.000000001
 43
0.0000000001
 40
0.0
 40
0.0
 40
0.0
 40
0.0
 40
0.1056959094392847
 40
0.1056959094392847
 40
0.2113918188785695
 40
0.2113918188785695
 40
0.3191236716724363
 40
0.3191236716724363
 40
0.4268555244663032
 40
0.4268555244663032
 40
0.532776265738451
 40
0.532776265738451
 40
0.6386970070105987
 40
0.6386970070105987
 40
0.7441896492765947
 40
0.7441896492765947
 40
0.8496822915425907
 40
0.8496822915425907
 40
0.9551749338085866
 40
0.9551749338085866
 40
1.060667576074582
 40
1.060667576074582
 40
1.16658831734673
 40
1.16658831734673
 40
1.272509058618878
 40
1.272509058618878
 40
1.380240911412744
 40
1.380240911412744
 40
1.487972764206611
 40
1.487972764206611
 40
1.593668673645896
 40
1.593668673645896
 40
1.699364583085181
 40
1.699364583085181
 40
1.699364583085181
 40
1.699364583085181
 10
3.193858376334958
 20
6.515532884865933
 30
2.074685239962491
 10
3.203666551439766
 20
6.521181037264796
 30
2.066666594604612
 10
3.21605661394193
 20
6.525346910701955
 30
2.059252792876577
 10
3.243069194997644
 20
6.529135961916836
 30
2.048213366499112
 10
3.25769233336274
 20
6.528784650571651
 30
2.044598031696295
 10
3.285255109942283
 20
6.524782051686088
 30
2.041636508682131
 10
3.300066620423478
 20
6.520799093231289
 30
2.0421629692446
 10
3.327369500819315
 20
6.509776692959349
 30
2.048126809331733
 10
3.339862731330015
 20
6.502750849046606
 30
2.053580783198412
 10
3.35948281993393
 20
6.488156143393098
 30
2.067299327658474
 10
3.367970043744264
 20
6.479642921946833
 30
2.076416599586082
 10
3.379251628136501
 20
6.462049104984544
 30
2.097246447598081
 10
3.382042672693444
 20
6.452950829459041
 30
2.108945880383544
 10
3.382044075852775
 20
6.436344685022049
 30
2.131171887283926
 10
3.379279371039103
 20
6.427732693398866
 30
2.143165678931836
 10
3.368029901385
 20
6.412020079894318
 30
2.165323264809558
 10
3.359545247082735
 20
6.404901548828092
 30
2.175474409792514
 10
3.339966621699261
 20
6.393626968311764
 30
2.191480858682552
 10
3.327568292894341
 20
6.388719789204515
 30
2.198402536498178
 10
3.300405129927696
 20
6.382312038747841
 30
2.207649087977188
 10
3.285640323904829
 20
6.380829456444189
 30
2.209986497511636
 10
3.257906673284253
 20
6.381465661685979
 30
2.210432909791052
 10
3.243102487226735
 20
6.383646029113151
 30
2.208554786297099
 10
3.215941499511302
 20
6.392095505866564
 30
2.200707098818384
 10
3.203585261878345
 20
6.39838071043141
 30
2.194752928018715
 10
3.18396517327443
 20
6.412975416084918
 30
2.181034383556834
 10
3.175460378193804
 20
6.422298047208641
 30
2.172319675770268
 10
3.164237279709652
 20
6.442580178044408
 30
2.153209856214743
 10
3.161513240158512
 20
6.453523848068471
 30
2.142801318546844
 10
3.161629481383045
 20
6.473465733229204
 30
2.12313394013654
 10
3.164382881206677
 20
6.483823527412823
 30
2.11254313610334
 10
3.175590101977888
 20
6.502043796289399
 30
2.092336073385013
 10
3.18405020122833
 20
6.509884732465252
 30
2.08270388532037
 10
3.193858376334958
 20
6.515532884865933
 30
2.074685239962491
1001
ACAD_VIEW_EDGE_ID
1071
        3
1071
       -1
1071
        6
1071
        0
  0
ARC
  5
428
330
70
100
AcDbEntity
  8
Visible
100
AcDbCircle
 10
7.565369
 20
0.874839
 30
1.101205
 40
0.2755905511985307
210
0.7071067811864423
220
-0.4071957137923946
230
0.5780931159158112
100
AcDbArc
 50
151.490756
 51
151.574542
  0
ELLIPSE
  5
429
330
70
100
AcDbEntity
  8
Visible
100
AcDbEllipse
 10
4.06009
 20
6.39206
 30
1.304923
 11
0.194871947546844
 21
-0.3375275539298114
 31
0.0006149568766703
210
0.4999999999999254
220
0.2901622654230262
230
0.8159692762136646
 40
0.7071067812455672
 41
-1.570796326774839
 42
-1.281044625312547
1001
ACAD_VIEW_EDGE_ID
1071
        7
1071
       -1
1071
        6
1071
        0
  0
ELLIPSE
  5
42A
330
70
100
AcDbEntity
  8
Visible
100
AcDbEllipse
 10
4.06009
 20
6.39206
 30
1.304923
 11
0.1948719475468219
 21
0.1130889715350885
 31
0.3180190439365984
210
-0.4999999999999253
220
0.8660239664084237
230
-0.0015778486289971
 40
0.7071067813493719
 41
4.422637278825297
 42
4.712388980330961
1001
ACAD_VIEW_EDGE_ID
1071
        8
1071
       -1
1071
        6
1071
        0
  0
ARC
  5
42B
330
70
100
AcDbEntity
  8
Visible
100
AcDbCircle
 10
-7.565369
 20
0.874839
 30
-0.943725
 40
0.2755905518212435
210
-0.7071067811864423
220
0.4071957137923946
230
-0.5780931159158112
100
AcDbArc
 50
28.484201
 51
28.509244
  0
LINE
  5
42C
330
70
100
AcDbEntity
  8
Visible
100
AcDbLine
 10
3.929019
 20
6.188082
 30
1.457775
 11
3.929019
 21
6.398972
 31
1.606321
210
-0.0000000000000001
220
0.8175471248425399
230
0.5758617009853117
  0
LINE
  5
42D
330
70
100
AcDbEntity
  8
Visible
100
AcDbLine
 10
3.817664
 20
6.334846
 30
1.424946
 11
3.817664
 21
6.252207
 31
1.366736
210
-0.0000000000000001
220
0.8175471248425399
230
0.5758617009853117
  0
SPLINE
  5
42E
330
70
100
AcDbEntity
  8
Visible
100
AcDbSpline
 70
     0
 71
     3
 72
    10
 73
     6
 74
     0
 42
0.000000001
 43
0.0000000001
 40
1.1387484406999
 40
1.1387484406999
 40
1.1387484406999
 40
1.1387484406999
 40
1.417990799010673
 40
1.417990799010673
 40
1.697233157321445
 40
1.697233157321445
 40
1.697233157321562
 40
1.697233157321562
 10
4.254962075329842
 20
6.553429156178026
 30
1.656949841872119
 10
4.280874695428849
 20
6.568351241664458
 30
1.635765053812065
 10
4.302171474827503
 20
6.581637323321956
 30
1.605698014494919
 10
4.329520308925623
 20
6.602002263130088
 30
1.536703466248582
 10
4.335680678938899
 20
6.609187100998497
 30
1.497850277541147
 10
4.335680678939809
 20
6.614475709912767
 30
1.461587922729449
1001
ACAD_VIEW_EDGE_ID
1071
       20
1071
       -1
1071
        6
1071
        0
  0
SPLINE
  5
42F
330
70
100
AcDbEntity
  8
Visible
100
AcDbSpline
 70
     0
 71
     3
 72
    12
 73
     8
 74
     0
 42
0.000000001
 43
0.0000000001
 40
0.354703267883156
 40
0.354703267883156
 40
0.354703267883156
 40
0.354703267883156
 40
0.5802637240783547
 40
0.5802637240783547
 40
0.8595060823891273
 40
0.8595060823891273
 40
1.1387484406999
 40
1.1387484406999
 40
1.1387484406999
 40
1.1387484406999
 10
3.979715836908383
 20
6.428140204075134
 30
1.652753639125876
 10
4.006301587534892
 20
6.434744490322373
 30
1.667281348514734
 10
4.033683128349423
 20
6.444838806824918
 30
1.679193917800148
 10
4.092781819000322
 20
6.46931095034688
 30
1.696431542111895
 10
4.128683604676609
 20
6.4863480970007
 30
1.700896936370554
 10
4.196817288102522
 20
6.520967882148397
 30
1.691830026940806
 10
4.229049455231745
 20
6.538507070690684
 30
1.678134629930355
 10
4.254962075329842
 20
6.553429156178026
 30
1.656949841872119
1001
ACAD_VIEW_EDGE_ID
1071
       21
1071
       -1
1071
        6
1071
        0
  0
SPLINE
  5
430
330
70
100
AcDbEntity
  8
Visible
100
AcDbSpline
 70
     0
 71
     3
 72
    22
 73
    18
 74
     0
 42
0.000000001
 43
0.0000000001
 40
0.3437529438379148
 40
0.3437529438379148
 40
0.3437529438379148
 40
0.3437529438379148
 40
0.3513109660372399
 40
0.3513109660372399
 40
0.3588689882365649
 40
0.3588689882365649
 40
0.3739850326352148
 40
0.3739850326352148
 40
0.4042171214325149
 40
0.4042171214325149
 40
0.464681299027115
 40
0.464681299027115
 40
0.5856096542163152
 40
0.5856096542163152
 40
0.6474638112548118
 40
0.6474638112548118
 40
0.6483697357685667
 40
0.6483697357685667
 40
0.6483697357685667
 40
0.6483697357685667
 10
3.851297565287552
 20
6.423176553928897
 30
2.433520588401734
 10
3.850596209808884
 20
6.422772670170161
 30
2.434093979558383
 10
3.849908372377342
 20
6.422522342666525
 30
2.434753926245321
 10
3.848511814037976
 20
6.421942719177422
 30
2.436033573141685
 10
3.847808410987511
 20
6.421660281363983
 30
2.436679730499236
 10
3.845677707351626
 20
6.42079544363969
 30
2.438615004844905
 10
3.844232605492891
 20
6.420226995678603
 30
2.439919727805317
 10
3.839830619605947
 20
6.418504860501343
 30
2.443836295400615
 10
3.836800102112704
 20
6.417350122494099
 30
2.446469227410489
 10
3.827500306608328
 20
6.413880713933394
 30
2.454329504183988
 10
3.820989497184257
 20
6.411553777662447
 30
2.45954569481546
 10
3.801048079891245
 20
6.404554839677075
 30
2.4745084250535
 10
3.787086389371381
 20
6.399869884448889
 30
2.483640896856741
 10
3.767048638130347
 20
6.392154720529106
 30
2.494334391998563
 10
3.758782643089091
 20
6.388791641083116
 30
2.498239061458662
 10
3.751817800247465
 20
6.385099151305439
 30
2.500624850097665
 10
3.751716451151025
 20
6.385045196015198
 30
2.500659350580463
 10
3.751614367916829
 20
6.384990608735279
 30
2.500693870280883
1001
ACAD_VIEW_EDGE_ID
1071
       23
1071
       -1
1071
        6
1071
        0
  0
SPLINE
  5
431
330
70
100
AcDbEntity
  8
Visible
100
AcDbSpline
 70
     0
 71
     3
 72
    16
 73
    12
 74
     0
 42
0.000000001
 43
0.0000000001
 40
0.3166829533326489
 40
0.3166829533326489
 40
0.3166829533326489
 40
0.3166829533326489
 40
0.4922883918078198
 40
0.4922883918078198
 40
0.9845767836156394
 40
0.9845767836156394
 40
1.47181069110683
 40
1.47181069110683
 40
1.715427644852425
 40
1.715427644852425
 40
1.959044598598021
 40
1.959044598598021
 40
1.959044598598021
 40
1.959044598598021
 10
3.751614367916829
 20
6.384990608735279
 30
2.500693870280883
 10
3.731375372764944
 20
6.374168149097386
 30
2.507537736428275
 10
3.710314324205739
 20
6.363222792640044
 30
2.512497344829171
 10
3.628392167926961
 20
6.322617025794897
 30
2.524664828435561
 10
3.563871197136052
 20
6.295067531814311
 30
2.519591513968407
 10
3.443375657529998
 20
6.258460412683234
 30
2.493806287344341
 10
3.378577154338984
 20
6.246504941606872
 30
2.471220368835929
 10
3.287518365749804
 20
6.248256685638807
 30
2.427144282590234
 10
3.258122659806815
 20
6.25202513095428
 30
2.410791462456472
 10
3.203329328992424
 20
6.266119889767651
 30
2.376131797465859
 10
3.177934233196594
 20
6.276452991959558
 30
2.357823715487029
 10
3.155327514035036
 20
6.289471335709095
 30
2.339341657234399
1001
ACAD_VIEW_EDGE_ID
1071
       24
1071
       -1
1071
        6
1071
        0
  0
SPLINE
  5
432
330
70
100
AcDbEntity
  8
Visible
100
AcDbSpline
 70
     0
 71
     3
 72
    16
 73
    12
 74
     0
 42
0.000000001
 43
0.0000000001
 40
1.959044598598021
 40
1.959044598598021
 40
1.959044598598021
 40
1.959044598598021
 40
2.202661552343616
 40
2.202661552343616
 40
2.446278506089211
 40
2.446278506089211
 40
2.933512413580402
 40
2.933512413580402
 40
3.425800805388221
 40
3.425800805388221
 40
3.601406243863392
 40
3.601406243863392
 40
3.601406243863392
 40
3.601406243863392
 10
3.155327514035036
 20
6.289471335709095
 30
2.339341657234399
 10
3.132720794874387
 20
6.30248967945954
 30
2.320859598981769
 10
3.111802637288803
 20
6.318826606137008
 30
2.301304413816978
 10
3.075350096040949
 20
6.357276850418202
 30
2.261366278449713
 10
3.059810791630354
 20
6.379384756598483
 30
2.240982610062928
 10
3.022767751746016
 20
6.451401949410865
 30
2.180329414753941
 10
3.01118739691816
 20
6.507341079584875
 30
2.140472017490537
 10
3.011187396919069
 20
6.613336965114285
 30
2.067746462153081
 10
3.022904421728583
 20
6.671294229246996
 30
2.029650062404471
 10
3.056235218930908
 20
6.739881898782186
 30
1.977756852893435
 10
3.066592944110254
 20
6.756990889248299
 30
1.964046773236987
 10
3.078420367217461
 20
6.772657251071905
 30
1.950326050546209
1001
ACAD_VIEW_EDGE_ID
1071
       25
1071
       -1
1071
        6
1071
        0
  0
SPLINE
  5
433
330
70
100
AcDbEntity
  8
Visible
100
AcDbSpline
 70
     0
 71
     3
 72
    12
 73
     8
 74
     0
 42
0.000000001
 43
0.0000000001
 40
0.0391361519072631
 40
0.0391361519072631
 40
0.0391361519072631
 40
0.0391361519072631
 40
0.0400420764210185
 40
0.0400420764210185
 40
0.1018962334595151
 40
0.1018962334595151
 40
0.2144080631594762
 40
0.2144080631594762
 40
0.2144080631594762
 40
0.2144080631594762
 10
3.078420367217461
 20
6.772657251071905
 30
1.950326050546209
 10
3.078480023420581
 20
6.772736270453606
 30
1.950256844751493
 10
3.078539299977876
 20
6.772814453706814
 30
1.950187947983067
 10
3.082616158062648
 20
6.778170023299935
 30
1.945441095709611
 10
3.087745078004502
 20
6.783339624148538
 30
1.938971719522669
 10
3.100323242345496
 20
6.794463889612416
 30
1.923426387931613
 10
3.109686643446423
 20
6.800912051330669
 30
1.91213519809753
 10
3.119682900961436
 20
6.80667011677724
 30
1.900963476011384
1001
ACAD_VIEW_EDGE_ID
1071
       26
1071
       -1
1071
        6
1071
        0
  0
SPLINE
  5
434
330
70
100
AcDbEntity
  8
Visible
100
AcDbSpline
 70
     0
 71
     3
 72
    12
 73
     8
 74
     0
 42
0.000000001
 43
0.0000000001
 40
4.821576014752759
 40
4.821576014752759
 40
4.821576014752952
 40
4.821576014752952
 40
5.302682727539751
 40
5.302682727539751
 40
5.543236083933246
 40
5.543236083933246
 40
5.783789440326742
 40
5.783789440326742
 40
5.783789440326742
 40
5.783789440326742
 10
3.01118739691816
 20
6.464936482793746
 30
2.037290117870725
 10
3.011187396919069
 20
6.415748227337644
 30
2.076873476033142
 10
3.02306542285811
 20
6.363422137307679
 30
2.119764149760158
 10
3.060337671213403
 20
6.295456371738509
 30
2.183187193617413
 10
3.075911150974263
 20
6.274482215178068
 30
2.204209796560462
 10
3.112242788250171
 20
6.237681094299659
 30
2.244822325836139
 10
3.133005084962007
 20
6.221858730988969
 30
2.264412718248422
 10
3.155327514035036
 20
6.209004099012418
 30
2.282662355957654
1001
ACAD_VIEW_EDGE_ID
1071
       29
1071
       -1
1071
        6
1071
        0
  0
SPLINE
  5
435
330
70
100
AcDbEntity
  8
Visible
100
AcDbSpline
 70
     0
 71
     3
 72
    14
 73
    10
 74
     0
 42
0.000000001
 43
0.0000000001
 40
5.783789440326742
 40
5.783789440326742
 40
5.783789440326742
 40
5.783789440326742
 40
6.024342796720238
 40
6.024342796720238
 40
6.264896153113734
 40
6.264896153113734
 40
6.746002865900726
 40
6.746002865900726
 40
6.850303376631917
 40
6.850303376631917
 40
6.850303376631917
 40
6.850303376631917
 10
3.155327514035036
 20
6.209004099012418
 30
2.282662355957654
 10
3.177649943108974
 20
6.196149467035866
 30
2.300911993665067
 10
3.202777505152027
 20
6.18554561822566
 30
2.318838723336739
 10
3.257172517761375
 20
6.170100736177118
 30
2.352399505820358
 10
3.286437699826876
 20
6.165254024668683
 30
2.368034621935294
 10
3.377427908349147
 20
6.159358353646894
 30
2.409472180925149
 10
3.442625646550425
 20
6.167299463035305
 30
2.429594576567978
 10
3.516469026107245
 20
6.184627807983815
 30
2.44180027076436
 10
3.529823943911708
 20
6.188087367630032
 30
2.443589975267968
 10
3.543285127458204
 20
6.191889164140775
 30
2.444926053936796
1001
ACAD_VIEW_EDGE_ID
1071
       30
1071
       -1
1071
        6
1071
        0
  0
SPLINE
  5
436
330
70
100
AcDbEntity
  8
Visible
100
AcDbSpline
 70
     0
 71
     3
 72
    24
 73
    20
 74
     0
 42
0.000000001
 43
0.0000000001
 40
5.389073406529078
 40
5.389073406529078
 40
5.389073406529078
 40
5.389073406529078
 40
5.527564862621652
 40
5.527564862621652
 40
5.841899878117944
 40
5.841899878117944
 40
6.156234893614236
 40
6.156234893614236
 40
6.313402401362382
 40
6.313402401362382
 40
6.391986155236455
 40
6.391986155236455
 40
6.431278032173492
 40
6.431278032173492
 40
6.45092397064201
 40
6.45092397064201
 40
6.460746939876269
 40
6.460746939876269
 40
6.470569909110528
 40
6.470569909110528
 40
6.470569909110528
 40
6.470569909110528
 10
3.543285127458204
 20
6.191889164140775
 30
2.444926053936796
 10
3.560191460483167
 20
6.196663962558886
 30
2.446604078071686
 10
3.576679125746579
 20
6.202578430311405
 30
2.448052391195233
 10
3.629177151772694
 20
6.224864599101238
 30
2.451884603036887
 10
3.663382466054883
 20
6.244955316139567
 30
2.453091614595905
 10
3.726284474214537
 20
6.289934653214913
 30
2.452268588580409
 10
3.756309683304664
 20
6.316017890764669
 30
2.450148861502384
 10
3.795251187115411
 20
6.354993759636272
 30
2.444828514930122
 10
3.807733569254253
 20
6.368461949490665
 30
2.442643511471032
 10
3.824662219152799
 20
6.387879301707471
 30
2.439004075311459
 10
3.830158107209229
 20
6.394395732031625
 30
2.437704706058866
 10
3.83796976018408
 20
6.40387782637299
 30
2.435648530223261
 10
3.840522235058472
 20
6.407020553219808
 30
2.434945705437712
 10
3.844329942785464
 20
6.411677138714367
 30
2.433781231449756
 10
3.845584794374246
 20
6.413215099058106
 30
2.43338459831466
 10
3.84754939947021
 20
6.41550079911758
 30
2.432651192373668
 10
3.848211473130561
 20
6.416257111456616
 30
2.432390062092963
 10
3.849633102609061
 20
6.417720423140963
 30
2.431705387154579
 10
3.850386031408618
 20
6.418442809683256
 30
2.431301207918295
 10
3.851297565287552
 20
6.418967727133349
 30
2.430555986014951
1001
ACAD_VIEW_EDGE_ID
1071
       31
1071
       -1
1071
        6
1071
        0
  0
LINE
  5
437
330
70
100
AcDbEntity
  8
Visible Narrow
100
AcDbLine
 10
3.851298
 20
6.423177
 30
2.433521
 11
3.851298
 21
6.418968
 31
2.430556
210
-0.0000000000000001
220
0.8175471248425399
230
0.5758617009853117
  0
SPLINE
  5
438
330
70
100
AcDbEntity
  8
Visible
100
AcDbSpline
 70
     0
 71
     3
 72
    12
 73
     8
 74
     0
 42
0.000000001
 43
0.0000000001
 40
0.4730978245163462
 40
0.4730978245163462
 40
0.4730978245163462
 40
0.4730978245163462
 40
0.5856096542163152
 40
0.5856096542163152
 40
0.6474638112548118
 40
0.6474638112548118
 40
0.6483697357685667
 40
0.6483697357685667
 40
0.6483697357685667
 40
0.6483697357685667
 10
4.308622950014125
 20
7.491335155795241
 30
0.9289489572984166
 10
4.321072208647876
 20
7.498502603456472
 30
0.9217704121929273
 10
4.334016537806803
 20
7.504900609231299
 30
0.9148239812893734
 10
4.353131617386736
 20
7.512027269121063
 30
0.9044585924348211
 10
4.361397612427083
 20
7.514571286798854
 30
0.8999769943930004
 10
4.368362455269618
 20
7.515574209883197
 30
0.8956967358208203
 10
4.368463804366967
 20
7.515588524793201
 30
0.8956343135450879
 10
4.368565887600254
 20
7.515602644957652
 30
0.8955712897295597
1001
ACAD_VIEW_EDGE_ID
1071
       35
1071
       -1
1071
        6
1071
        0
  0
SPLINE
  5
439
330
70
100
AcDbEntity
  8
Visible
100
AcDbSpline
 70
     0
 71
     3
 72
    16
 73
    12
 74
     0
 42
0.000000001
 43
0.0000000001
 40
4.234772150528689
 40
4.234772150528689
 40
4.234772150528689
 40
4.234772150528689
 40
4.41037758900386
 40
4.41037758900386
 40
4.902665980811679
 40
4.902665980811679
 40
5.38989988830287
 40
5.38989988830287
 40
5.633516842048464
 40
5.633516842048464
 40
5.87713379579406
 40
5.87713379579406
 40
5.87713379579406
 40
5.87713379579406
 10
4.368565887600254
 20
7.515602644957652
 30
0.8955712897295597
 10
4.388804882753959
 20
7.518402105298264
 30
0.8830762043653521
 10
4.409865931311344
 20
7.519385983318898
 30
0.8710999558898038
 10
4.491788087591942
 20
7.517168075620247
 30
0.8287684446495404
 10
4.556309058381032
 20
7.503113353312983
 30
0.8045366902933892
 10
4.676804597987086
 20
7.466506234182816
 30
0.7787514636675042
 10
4.7416031011781
 20
7.441213397448336
 30
0.7751005167483527
 10
4.832661889769099
 20
7.400301805566414
 30
0.7915932920077467
 10
4.862057595709359
 20
7.386173270340805
 30
0.8006486991616839
 10
4.916850926524659
 20
7.358284784337229
 30
0.8255923747510678
 10
4.942246022319579
 20
7.344525954911659
 30
0.8414874519548902
 10
4.964852741480228
 20
7.331507611161214
 30
0.8599695102075202
1001
ACAD_VIEW_EDGE_ID
1071
       36
1071
       -1
1071
        6
1071
        0
  0
SPLINE
  5
43A
330
70
100
AcDbEntity
  8
Visible
100
AcDbSpline
 70
     0
 71
     3
 72
    16
 73
    12
 74
     0
 42
0.000000001
 43
0.0000000001
 40
5.87713379579406
 40
5.87713379579406
 40
5.87713379579406
 40
5.87713379579406
 40
6.120750749539656
 40
6.120750749539656
 40
6.364367703285251
 40
6.364367703285251
 40
6.851601610776441
 40
6.851601610776441
 40
7.343890002584261
 40
7.343890002584261
 40
7.519495441059433
 40
7.519495441059433
 40
7.519495441059433
 40
7.519495441059433
 10
4.964852741480228
 20
7.331507611161214
 30
0.8599695102075202
 10
4.987459460641787
 20
7.318489267411678
 30
0.8784515684601501
 10
5.00837761822828
 20
7.305578067967871
 30
0.9004197583981294
 10
5.044830159475225
 20
7.280921550876882
 30
0.950073883166624
 10
5.060369463888548
 20
7.269173734605828
 30
0.9777549645332328
 10
5.097412503771067
 20
7.236316389645253
 30
1.06599147083034
 10
5.108992858598924
 20
7.217625567281174
 30
1.132085733521307
 10
5.108992858598014
 20
7.184843920012099
 30
1.256381742108715
 10
5.09727583379032
 20
7.168490872169059
 30
1.323783210682449
 10
5.063945036586176
 20
7.142726877176755
 30
1.405840447825539
 10
5.053587311408648
 20
7.13557936514735
 30
1.426567167558459
 10
5.041759888299623
 20
7.127936002621936
 30
1.445939109462415
1001
ACAD_VIEW_EDGE_ID
1071
       37
1071
       -1
1071
        6
1071
        0
  0
SPLINE
  5
43B
330
70
100
AcDbEntity
  8
Visible
100
AcDbSpline
 70
     0
 71
     3
 72
    22
 73
    18
 74
     0
 42
0.000000001
 43
0.0000000001
 40
0.0391361519072636
 40
0.0391361519072636
 40
0.0391361519072636
 40
0.0391361519072636
 40
0.0400420764210185
 40
0.0400420764210185
 40
0.1018962334595151
 40
0.1018962334595151
 40
0.222824588648715
 40
0.222824588648715
 40
0.2832887662433149
 40
0.2832887662433149
 40
0.3135208550406149
 40
0.3135208550406149
 40
0.3286368994392649
 40
0.3286368994392649
 40
0.3361949216385899
 40
0.3361949216385899
 40
0.3437529438379149
 40
0.3437529438379149
 40
0.3437529438379149
 40
0.3437529438379149
 10
5.041759888299623
 20
7.127936002621936
 30
1.445939109462415
 10
5.041700232097412
 20
7.127897450353884
 30
1.446036819374057
 10
5.041640955539207
 20
7.127858907481822
 30
1.446133637933598
 10
5.037564097453525
 20
7.125192904582036
 30
1.45277496014205
 10
5.032435177512581
 20
7.12084236550163
 30
1.459821264912534
 10
5.019249873886167
 20
7.109425644533985
 30
1.476289182754044
 10
5.009085761534208
 20
7.100217473882366
 30
1.486880691725673
 10
4.992822604116611
 20
7.086367583890933
 30
1.501516907448603
 10
4.987218128982988
 20
7.081717791788832
 30
1.506205532874446
 10
4.978794082791011
 20
7.074980718722144
 30
1.512835331919632
 10
4.975976567403506
 20
7.072767798568747
 30
1.514983442377342
 10
4.971782877132739
 20
7.069540013051664
 30
1.51809424510975
 10
4.970388857219461
 20
7.068473519520011
 30
1.519110637993435
 10
4.968308652319194
 20
7.06691345629224
 30
1.520617979813323
 10
4.967617743110224
 20
7.066392963075486
 30
1.521111738436957
 10
4.966237788498858
 20
7.065373699094379
 30
1.522102021717728
 10
4.965554096961625
 20
7.064834215592782
 30
1.522563364595043
 10
4.964852741482047
 20
7.064430331833136
 30
1.523136755749874
1001
ACAD_VIEW_EDGE_ID
1071
       38
1071
       -1
1071
        6
1071
        0
  0
LINE
  5
43C
330
70
100
AcDbEntity
  8
Visible Narrow
100
AcDbLine
 10
4.964853
 20
7.06443
 30
1.523137
 11
4.964853
 21
7.060222
 31
1.520172
210
-0.0000000000000001
220
0.8175471248425399
230
0.5758617009853117
  0
SPLINE
  5
43D
330
70
100
AcDbEntity
  8
Visible
100
AcDbSpline
 70
     0
 71
     3
 72
    24
 73
    20
 74
     0
 42
0.000000001
 43
0.0000000001
 40
6.470569909110528
 40
6.470569909110528
 40
6.470569909110528
 40
6.470569909110528
 40
6.480392878344787
 40
6.480392878344787
 40
6.490215847579046
 40
6.490215847579046
 40
6.509861786047564
 40
6.509861786047564
 40
6.5491536629846
 40
6.5491536629846
 40
6.627737416858674
 40
6.627737416858674
 40
6.78490492460682
 40
6.78490492460682
 40
7.099239940103112
 40
7.099239940103112
 40
7.413574955599404
 40
7.413574955599404
 40
7.552066411691978
 40
7.552066411691978
 40
7.552066411691978
 40
7.552066411691978
 10
4.964852741482047
 20
7.060221505037588
 30
1.520172153363091
 10
4.965764275360982
 20
7.060746422487682
 30
1.519426931461566
 10
4.966510705677194
 20
7.060887459437253
 30
1.518605313964144
 10
4.967913124862263
 20
7.061050409218296
 30
1.516981196038614
 10
4.968562142479697
 20
7.061049104133417
 30
1.516170447415788
 10
4.970477983523835
 20
7.060998004387329
 30
1.513731405770158
 10
4.971687902263568
 20
7.060879410877532
 30
1.512112973010516
 10
4.975321463864986
 20
7.060507967396915
 30
1.507193858651589
 10
4.97770583227799
 20
7.060208179522305
 30
1.503860581404296
 10
4.984847227896409
 20
7.059336973179597
 30
1.493691935353126
 10
4.98966208614189
 20
7.058758106758432
 30
1.486561783613069
 10
5.00381920618571
 20
7.057241858898123
 30
1.464787137931125
 10
5.013361364201102
 20
7.056456758200511
 30
1.448966041911262
 10
5.040155708390614
 20
7.055335646573439
 30
1.400544234953486
 10
5.056909022712773
 20
7.056190369085925
 30
1.364420314710514
 10
5.083483762821799
 20
7.062737264466704
 30
1.292091882440217
 10
5.094066448479736
 20
7.068438241258263
 30
1.254268570302883
 10
5.10376718577487
 20
7.081969958113404
 30
1.199585938336895
 10
5.105989037005258
 20
7.086829584352926
 30
1.182841713798552
 10
5.107366796736698
 20
7.092583894691415
 30
1.166215582199583
1001
ACAD_VIEW_EDGE_ID
1071
       40
1071
       -1
1071
        6
1071
        0
  0
SPLINE
  5
43E
330
70
100
AcDbEntity
  8
Visible
100
AcDbSpline
 70
     0
 71
     3
 72
     8
 73
     4
 74
     0
 42
0.000000001
 43
0.0000000001
 40
0.8614158771370725
 40
0.8614158771370725
 40
0.8614158771370725
 40
0.8614158771370725
 40
0.9657163878682641
 40
0.9657163878682641
 40
0.9657163878684581
 40
0.9657163878684581
 10
5.107366796736698
 20
7.092583894691415
 30
1.166215582199583
 10
5.108463798468676
 20
7.09716559951903
 30
1.152977501013083
 10
5.108992858598924
 20
7.101701291021527
 30
1.139836990267212
 10
5.108992858598924
 20
7.106190260697076
 30
1.126906285218865
1001
ACAD_VIEW_EDGE_ID
1071
       41
1071
       -1
1071
        6
1071
        0
  0
LINE
  5
43F
330
70
100
AcDbEntity
  8
Visible
100
AcDbLine
 10
4.964853
 20
7.06443
 30
1.523137
 11
3.851298
 21
6.423177
 31
2.433521
210
-0.0000000000000001
220
0.8175471248425399
230
0.5758617009853117
  0
LINE
  5
440
330
70
100
AcDbEntity
  8
Visible
100
AcDbLine
 10
3.851298
 20
6.418968
 30
2.430556
 11
4.964853
 21
7.060222
 31
1.520172
210
-0.0000000000000001
220
0.8175471248425399
230
0.5758617009853117
  0
LINE
  5
441
330
70
100
AcDbEntity
  8
Visible Narrow
100
AcDbLine
 10
5.04176
 20
7.127936
 30
1.445939
 11
3.751614
 21
6.384991
 31
2.500694
210
-0.0000000000000001
220
0.8175471248425399
230
0.5758617009853117
  0
LINE
  5
442
330
70
100
AcDbEntity
  8
Visible Narrow
100
AcDbLine
 10
4.368566
 20
7.515603
 30
0.895571
 11
3.07842
 21
6.772657
 31
1.950326
210
-0.0000000000000001
220
0.8175471248425399
230
0.5758617009853117
  0
LINE
  5
443
330
70
100
AcDbEntity
  8
Visible
100
AcDbLine
 10
3.929101
 20
6.149472
 30
1.310269
 11
3.866965
 21
6.185253
 31
1.259471
210
-0.0000000000000001
220
0.8175471248425399
230
0.5758617009853117
  0
LINE
  5
444
330
70
100
AcDbEntity
  8
Visible
100
AcDbLine
 10
4.335681
 20
6.633153
 30
1.474743
 11
4.335681
 21
6.614476
 31
1.461588
210
-0.0000000000000001
220
0.8175471248425399
230
0.5758617009853117
  0
LINE
  5
445
330
70
100
AcDbEntity
  8
Visible
100
AcDbLine
 10
3.011187
 20
6.560066
 30
2.104297
 11
3.011187
 21
6.464936
 31
2.03729
210
-0.0000000000000001
220
0.8175471248425399
230
0.5758617009853117
  0
LINE
  5
446
330
70
100
AcDbEntity
  8
Visible
100
AcDbLine
 10
5.108993
 20
7.201319
 30
1.193913
 11
5.108993
 21
7.10619
 31
1.126906
210
-0.0000000000000001
220
0.8175471248425399
230
0.5758617009853117
  0
LINE
  5
447
330
70
100
AcDbEntity
  8
Visible
100
AcDbLine
 10
4.308623
 20
7.491335
 30
0.928948
 11
3.119682
 21
6.80667
 31
1.900963
210
-0.0000000000000001
220
0.8175471248425399
230
0.5758617009853117
  0
LINE
  5
448
330
70
100
AcDbEntity
  8
Visible
100
AcDbLine
 10
5.087678
 20
7.066199
 30
1.273974
 11
3.646577
 21
6.236324
 31
2.452142
210
-0.0000000000000001
220
0.8175471248425399
230
0.5758617009853117
  0
ENDSEC
  0
SECTION
  2
OBJECTS
  0
DICTIONARY
  5
C
330
0
100
AcDbDictionary
281
     1
  3
ACAD_COLOR
350
63
  3
ACAD_DETAILVIEWSTYLE
350
6A
  3
ACAD_GROUP
350
D
  3
ACAD_IMAGE_DICT
350
1A7
  3
ACAD_IMAGE_VARS
350
1A9
  3
ACAD_LAYOUT
350
62
  3
ACAD_MATERIAL
350
10
  3
ACAD_MLEADERSTYLE
350
66
  3
ACAD_MLINESTYLE
350
5F
  3
ACAD_PLOTSETTINGS
350
61
  3
ACAD_PLOTSTYLENAME
350
E
  3
ACAD_SCALELIST
350
42
  3
ACAD_SECTIONVIEWSTYLE
350
68
  3
ACAD_TABLESTYLE
350
64
  3
ACAD_VISUALSTYLE
350
29
  3
ACDB_RECOMPOSE_DATA
350
497
  3
AcDbVariableDictionary
350
48E
  0
DICTIONARY
  5
B2
330
70
100
AcDbDictionary
280
     1
281
     1
  3
ACAD_SORTENTS
360
19D
  0
DICTIONARY
  5
1A1
330
1A0
100
AcDbDictionary
280
     1
281
     1
  3
ACAD_SORTENTS
360
372
  0
IMAGEDEF_REACTOR
  5
1A8
330
1A5
100
AcDbRasterImageDefReactor
 90
        2
330
1A5
  0
DICTIONARY
  5
63
102
{ACAD_REACTORS
330
C
102
}
330
C
100
AcDbDictionary
281
     1
  0
DICTIONARY
  5
6A
102
{ACAD_REACTORS
330
C
102
}
330
C
100
AcDbDictionary
281
     1
  3
Imperial24
350
6B
  0
DICTIONARY
  5
D
102
{ACAD_REACTORS
330
C
102
}
330
C
100
AcDbDictionary
281
     1
  0
DICTIONARY
  5
1A7
102
{ACAD_REACTORS
330
C
102
}
330
C
100
AcDbDictionary
281
     1
  3
morse_logo-16 (1)_01-2018(B)_1_1
350
1A6
  0
RASTERVARIABLES
  5
1A9
102
{ACAD_REACTORS
330
C
102
}
330
C
100
AcDbRasterVariables
 90
        0
 70
     0
 71
     1
 72
     5
  0
DICTIONARY
  5
62
102
{ACAD_REACTORS
330
C
102
}
330
C
100
AcDbDictionary
281
     1
  3
Model
350
73
  3
Sheet1
350
6F
  3
Sheet2
350
77
  0
DICTIONARY
  5
10
102
{ACAD_REACTORS
330
C
102
}
330
C
100
AcDbDictionary
281
     1
  3
ByBlock
350
19
  3
ByLayer
350
11
  3
Global
350
21
  0
DICTIONARY
  5
66
102
{ACAD_REACTORS
330
C
102
}
330
C
100
AcDbDictionary
281
     1
  3
Standard
350
67
  0
DICTIONARY
  5
5F
102
{ACAD_REACTORS
330
C
102
}
330
C
100
AcDbDictionary
281
     1
  3
Standard
350
60
  0
DICTIONARY
  5
61
102
{ACAD_REACTORS
330
C
102
}
330
C
100
AcDbDictionary
281
     1
  0
ACDBDICTIONARYWDFLT
  5
E
102
{ACAD_REACTORS
330
C
102
}
330
C
100
AcDbDictionary
281
     1
  3
Normal
350
F
100
AcDbDictionaryWithDefault
340
F
  0
DICTIONARY
  5
42
102
{ACAD_REACTORS
330
C
102
}
330
C
100
AcDbDictionary
281
     1
  3
*A1
350
A2
  3
*A10
350
AB
  3
*A11
350
AC
  3
*A12
350
AD
  3
*A13
350
AE
  3
*A14
350
AF
  3
*A15
350
B0
  3
*A16
350
B1
  3
*A2
350
A3
  3
*A3
350
A4
  3
*A4
350
A5
  3
*A5
350
A6
  3
*A6
350
A7
  3
*A7
350
A8
  3
*A8
350
A9
  3
*A9
350
AA
  3
A0
350
43
  3
A1
350
44
  3
A2
350
45
  3
A3
350
46
  3
A4
350
47
  3
A5
350
48
  3
A6
350
49
  3
A7
350
4A
  3
A8
350
4B
  3
A9
350
4C
  3
B0
350
4D
  3
B1
350
4E
  3
B2
350
4F
  3
B3
350
50
  3
B4
350
51
  3
B5
350
52
  3
B6
350
53
  0
DICTIONARY
  5
68
102
{ACAD_REACTORS
330
C
102
}
330
C
100
AcDbDictionary
281
     1
  3
Imperial24
350
69
  0
DICTIONARY
  5
64
102
{ACAD_REACTORS
330
C
102
}
330
C
100
AcDbDictionary
281
     1
  3
Standard
350
65
  0
DICTIONARY
  5
29
102
{ACAD_REACTORS
330
C
102
}
330
C
100
AcDbDictionary
281
     1
  3
2dWireframe
350
2F
  3
Basic
350
2E
  3
Brighten
350
35
  3
ColorChange
350
39
  3
Conceptual
350
32
  3
Dim
350
34
  3
EdgeColorOff
350
41
  3
Facepattern
350
38
  3
Flat
350
2A
  3
FlatWithEdges
350
2B
  3
Gouraud
350
2C
  3
GouraudWithEdges
350
2D
  3
Hidden
350
31
  3
JitterOff
350
3F
  3
Linepattern
350
37
  3
OverhangOff
350
40
  3
Realistic
350
33
  3
Shaded
350
3E
  3
Shaded with edges
350
3D
  3
Shades of Gray
350
3A
  3
Sketchy
350
3B
  3
Thicken
350
36
  3
Wireframe
350
30
  3
X-Ray
350
3C
  0
XRECORD
  5
497
102
{ACAD_REACTORS
330
C
102
}
330
C
100
AcDbXrecord
280
     1
 90
        1
330
65
330
1AD
330
1B7
330
1B8
330
1B9
330
1BC
  0
DICTIONARY
  5
48E
102
{ACAD_REACTORS
330
C
102
}
330
C
100
AcDbDictionary
281
     1
  3
ANNOALLVISIBLE
350
493
  3
CANNOSCALE
350
494
  3
CMLEADERSTYLE
350
490
  3
CTABLESTYLE
350
48F
  3
CVIEWDETAILSTYLE
350
491
  3
CVIEWSECTIONSTYLE
350
492
  0
SORTENTSTABLE
  5
19D
102
{ACAD_REACTORS
330
B2
102
}
330
B2
100
AcDbSortentsTable
330
70
  0
SORTENTSTABLE
  5
372
102
{ACAD_REACTORS
330
1A1
102
}
330
1A1
100
AcDbSortentsTable
330
1A0
  0
ACDBDETAILVIEWSTYLE
  5
6B
102
{ACAD_XDICTIONARY
360
49A
102
}
102
{ACAD_REACTORS
330
6A
102
}
330
6A
100
AcDbModelDocViewStyle
 70
     0
  3
Imperial24
290
     0
100
AcDbDetailViewStyle
 70
     0
 71
     0
 90
        3
 71
     1
340
55
 62
   256
 40
0.24
340
0
 62
   256
 40
0.24
300

 40
0.36
280
     3
 71
     2
340
5D
 90
       25
 62
   256
 71
     3
340
55
 62
   256
 40
0.24
 90
        1
 40
0.75
 90
        1
300
%<\AcVar ViewType \f "%tc1">% %<\AcVar ViewDetailId>%\PSCALE %<\AcVar ViewScale \f "%sn">%
 71
     4
340
5D
 90
       25
 62
   256
340
5D
 90
       25
 62
   256
280
     0
  0
IMAGEDEF
  5
1A6
102
{ACAD_REACTORS
330
1A7
330
1A8
330
449
102
}
330
1A7
100
AcDbRasterImageDef
 90
        0
  1
morse_logo-16 (1)_01-2018(B)_1_1.jpg
 10
948.0
 20
333.0
 11
0.264583
 21
0.264583
280
     1
281
     5
  0
LAYOUT
  5
73
102
{ACAD_REACTORS
330
62
102
}
330
62
100
AcDbPlotSettings
  1

  2
AutoCAD PDF (High Quality Print).pc3
  4
ANSI_full_bleed_B_(17.00_x_11.00_Inches)
  6

 40
0.0
 41
0.0
 42
0.0
 43
0.0
 44
431.799988
 45
279.399994
 46
0.0
 47
0.0
 48
0.0
 49
0.0
140
0.0
141
0.0
142
1.0
143
1.631471
 70
 11952
 72
     0
 73
     0
 74
     0
  7

 75
     0
147
0.612944
 76
     0
 77
     2
 78
   300
148
96.051671
149
63.693085
100
AcDbLayout
  1
Model
 70
     1
 71
     0
 10
0.0
 20
0.0
 11
12.0
 21
9.0
 12
0.0
 22
0.0
 32
0.0
 14
0.0
 24
0.0
 34
0.0
 15
0.0
 25
0.0
 35
0.0
146
0.0
 13
0.0
 23
0.0
 33
0.0
 16
1.0
 26
0.0
 36
0.0
 17
0.0
 27
1.0
 37
0.0
 76
     0
330
70
1001
ACAD_PSEXT
1000
AutoCAD PDF (High Quality Print).pc3
1000
DWG To PDF
1000
File
1000

1070
     0
  0
LAYOUT
  5
6F
102
{ACAD_REACTORS
330
62
102
}
330
62
100
AcDbPlotSettings
  1

  2
None
  4

  6

 40
0.0
 41
0.0
 42
0.0
 43
0.0
 44
0.0
 45
0.0
 46
0.0
 47
0.0
 48
0.0
 49
0.0
140
0.0
141
0.0
142
1.0
143
1.0
 70
   688
 72
     0
 73
     0
 74
     5
  7

 75
    16
147
1.0
 76
     0
 77
     2
 78
   300
148
0.0
149
0.0
100
AcDbLayout
  1
Sheet1
 70
     1
 71
     1
 10
0.0
 20
0.0
 11
12.0
 21
9.0
 12
0.0
 22
0.0
 32
0.0
 14
0.0
 24
0.0
 34
0.0
 15
0.0
 25
0.0
 35
0.0
146
0.0
 13
0.0
 23
0.0
 33
0.0
 16
1.0
 26
0.0
 36
0.0
 17
0.0
 27
1.0
 37
0.0
 76
     0
330
6C
  0
LAYOUT
  5
77
102
{ACAD_REACTORS
330
62
102
}
330
62
100
AcDbPlotSettings
  1

  2
None
  4

  6

 40
0.0
 41
0.0
 42
0.0
 43
0.0
 44
0.0
 45
0.0
 46
0.0
 47
0.0
 48
0.0
 49
0.0
140
0.0
141
0.0
142
1.0
143
1.0
 70
   688
 72
     0
 73
     0
 74
     5
  7

 75
    16
147
1.0
 76
     0
 77
     2
 78
   300
148
0.0
149
0.0
100
AcDbLayout
  1
Sheet2
 70
     1
 71
     2
 10
0.0
 20
0.0
 11
12.0
 21
9.0
 12
0.0
 22
0.0
 32
0.0
 14
0.0
 24
0.0
 34
0.0
 15
0.0
 25
0.0
 35
0.0
146
0.0
 13
0.0
 23
0.0
 33
0.0
 16
1.0
 26
0.0
 36
0.0
 17
0.0
 27
1.0
 37
0.0
 76
     0
330
74
  0
MATERIAL
  5
19
102
{ACAD_XDICTIONARY
360
1A
102
}
102
{ACAD_REACTORS
330
10
102
}
330
10
100
AcDbMaterial
  1
ByBlock
 72
     0
 43
0.020833
 43
0.0
 43
0.0
 43
0.0
 43
0.0
 43
0.020833
 43
0.0
 43
0.0
 43
0.0
 43
0.0
 43
1.0
 43
0.0
 43
0.0
 43
0.0
 43
0.0
 43
1.0
 77
     0
 47
0.020833
 47
0.0
 47
0.0
 47
0.0
 47
0.0
 47
0.020833
 47
0.0
 47
0.0
 47
0.0
 47
0.0
 47
1.0
 47
0.0
 47
0.0
 47
0.0
 47
0.0
 47
1.0
171
     0
 49
0.020833
 49
0.0
 49
0.0
 49
0.0
 49
0.0
 49
0.020833
 49
0.0
 49
0.0
 49
0.0
 49
0.0
 49
1.0
 49
0.0
 49
0.0
 49
0.0
 49
0.0
 49
1.0
175
     0
142
0.020833
142
0.0
142
0.0
142
0.0
142
0.0
142
0.020833
142
0.0
142
0.0
142
0.0
142
0.0
142
1.0
142
0.0
142
0.0
142
0.0
142
0.0
142
1.0
179
     0
144
0.020833
144
0.0
144
0.0
144
0.0
144
0.0
144
0.020833
144
0.0
144
0.0
144
0.0
144
0.0
144
1.0
144
0.0
144
0.0
144
0.0
144
0.0
144
1.0
147
0.020833
147
0.0
147
0.0
147
0.0
147
0.0
147
0.020833
147
0.0
147
0.0
147
0.0
147
0.0
147
1.0
147
0.0
147
0.0
147
0.0
147
0.0
147
1.0
  0
MATERIAL
  5
11
102
{ACAD_XDICTIONARY
360
12
102
}
102
{ACAD_REACTORS
330
10
102
}
330
10
100
AcDbMaterial
  1
ByLayer
 72
     0
 43
0.020833
 43
0.0
 43
0.0
 43
0.0
 43
0.0
 43
0.020833
 43
0.0
 43
0.0
 43
0.0
 43
0.0
 43
1.0
 43
0.0
 43
0.0
 43
0.0
 43
0.0
 43
1.0
 77
     0
 47
0.020833
 47
0.0
 47
0.0
 47
0.0
 47
0.0
 47
0.020833
 47
0.0
 47
0.0
 47
0.0
 47
0.0
 47
1.0
 47
0.0
 47
0.0
 47
0.0
 47
0.0
 47
1.0
171
     0
 49
0.020833
 49
0.0
 49
0.0
 49
0.0
 49
0.0
 49
0.020833
 49
0.0
 49
0.0
 49
0.0
 49
0.0
 49
1.0
 49
0.0
 49
0.0
 49
0.0
 49
0.0
 49
1.0
175
     0
142
0.020833
142
0.0
142
0.0
142
0.0
142
0.0
142
0.020833
142
0.0
142
0.0
142
0.0
142
0.0
142
1.0
142
0.0
142
0.0
142
0.0
142
0.0
142
1.0
179
     0
144
0.020833
144
0.0
144
0.0
144
0.0
144
0.0
144
0.020833
144
0.0
144
0.0
144
0.0
144
0.0
144
1.0
144
0.0
144
0.0
144
0.0
144
0.0
144
1.0
147
0.020833
147
0.0
147
0.0
147
0.0
147
0.0
147
0.020833
147
0.0
147
0.0
147
0.0
147
0.0
147
1.0
147
0.0
147
0.0
147
0.0
147
0.0
147
1.0
  0
MATERIAL
  5
21
102
{ACAD_XDICTIONARY
360
22
102
}
102
{ACAD_REACTORS
330
10
102
}
330
10
100
AcDbMaterial
  1
Global
 72
     0
 43
0.020833
 43
0.0
 43
0.0
 43
0.0
 43
0.0
 43
0.020833
 43
0.0
 43
0.0
 43
0.0
 43
0.0
 43
1.0
 43
0.0
 43
0.0
 43
0.0
 43
0.0
 43
1.0
 77
     0
 47
0.020833
 47
0.0
 47
0.0
 47
0.0
 47
0.0
 47
0.020833
 47
0.0
 47
0.0
 47
0.0
 47
0.0
 47
1.0
 47
0.0
 47
0.0
 47
0.0
 47
0.0
 47
1.0
171
     0
 49
0.020833
 49
0.0
 49
0.0
 49
0.0
 49
0.0
 49
0.020833
 49
0.0
 49
0.0
 49
0.0
 49
0.0
 49
1.0
 49
0.0
 49
0.0
 49
0.0
 49
0.0
 49
1.0
175
     0
142
0.020833
142
0.0
142
0.0
142
0.0
142
0.0
142
0.020833
142
0.0
142
0.0
142
0.0
142
0.0
142
1.0
142
0.0
142
0.0
142
0.0
142
0.0
142
1.0
179
     0
144
0.020833
144
0.0
144
0.0
144
0.0
144
0.0
144
0.020833
144
0.0
144
0.0
144
0.0
144
0.0
144
1.0
144
0.0
144
0.0
144
0.0
144
0.0
144
1.0
147
0.020833
147
0.0
147
0.0
147
0.0
147
0.0
147
0.020833
147
0.0
147
0.0
147
0.0
147
0.0
147
1.0
147
0.0
147
0.0
147
0.0
147
0.0
147
1.0
  0
MLEADERSTYLE
  5
67
102
{ACAD_REACTORS
330
66
102
}
330
66
100
AcDbMLeaderStyle
179
     2
170
     2
171
     1
172
     0
 90
        2
 40
0.0
 41
0.0
173
     1
 91
-1056964608
340
5B
 92
       -2
290
     1
 42
0.09
291
     1
 43
0.36
  3
Standard
 44
0.18
300

342
55
174
     1
178
     6
175
     1
176
     0
 93
-1056964608
 45
0.18
292
     0
297
     0
 46
0.18
 94
-1056964608
 47
1.0
 49
1.0
140
1.0
293
     1
141
0.0
294
     1
177
     0
142
1.0
295
     0
296
     0
143
0.125
271
     0
272
     9
273
     9
298
     1
  0
MLINESTYLE
  5
60
102
{ACAD_REACTORS
330
5F
102
}
330
5F
100
AcDbMlineStyle
  2
STANDARD
 70
     0
  3

 62
   256
 51
90.0
 52
90.0
 71
     0
  0
ACDBPLACEHOLDER
  5
F
102
{ACAD_REACTORS
330
E
102
}
330
E
  0
SCALE
  5
A2
102
{ACAD_REACTORS
330
42
102
}
330
42
100
AcDbScale
 70
     0
300
1:2
140
1.0
141
2.0
290
     0
  0
SCALE
  5
AB
102
{ACAD_REACTORS
330
42
102
}
330
42
100
AcDbScale
 70
     0
300
1:50
140
1.0
141
50.0
290
     0
  0
SCALE
  5
AC
102
{ACAD_REACTORS
330
42
102
}
330
42
100
AcDbScale
 70
     0
300
1:100
140
1.0
141
100.0
290
     0
  0
SCALE
  5
AD
102
{ACAD_REACTORS
330
42
102
}
330
42
100
AcDbScale
 70
     0
300
2:1
140
2.0
141
1.0
290
     0
  0
SCALE
  5
AE
102
{ACAD_REACTORS
330
42
102
}
330
42
100
AcDbScale
 70
     0
300
4:1
140
4.0
141
1.0
290
     0
  0
SCALE
  5
AF
102
{ACAD_REACTORS
330
42
102
}
330
42
100
AcDbScale
 70
     0
300
8:1
140
8.0
141
1.0
290
     0
  0
SCALE
  5
B0
102
{ACAD_REACTORS
330
42
102
}
330
42
100
AcDbScale
 70
     0
300
10:1
140
10.0
141
1.0
290
     0
  0
SCALE
  5
B1
102
{ACAD_REACTORS
330
42
102
}
330
42
100
AcDbScale
 70
     0
300
100:1
140
100.0
141
1.0
290
     0
  0
SCALE
  5
A3
102
{ACAD_REACTORS
330
42
102
}
330
42
100
AcDbScale
 70
     0
300
1:4
140
1.0
141
4.0
290
     0
  0
SCALE
  5
A4
102
{ACAD_REACTORS
330
42
102
}
330
42
100
AcDbScale
 70
     0
300
1:5
140
1.0
141
5.0
290
     0
  0
SCALE
  5
A5
102
{ACAD_REACTORS
330
42
102
}
330
42
100
AcDbScale
 70
     0
300
1:8
140
1.0
141
8.0
290
     0
  0
SCALE
  5
A6
102
{ACAD_REACTORS
330
42
102
}
330
42
100
AcDbScale
 70
     0
300
1:10
140
1.0
141
10.0
290
     0
  0
SCALE
  5
A7
102
{ACAD_REACTORS
330
42
102
}
330
42
100
AcDbScale
 70
     0
300
1:16
140
1.0
141
16.0
290
     0
  0
SCALE
  5
A8
102
{ACAD_REACTORS
330
42
102
}
330
42
100
AcDbScale
 70
     0
300
1:20
140
1.0
141
20.0
290
     0
  0
SCALE
  5
A9
102
{ACAD_REACTORS
330
42
102
}
330
42
100
AcDbScale
 70
     0
300
1:30
140
1.0
141
30.0
290
     0
  0
SCALE
  5
AA
102
{ACAD_REACTORS
330
42
102
}
330
42
100
AcDbScale
 70
     0
300
1:40
140
1.0
141
40.0
290
     0
  0
SCALE
  5
43
102
{ACAD_REACTORS
330
42
102
}
330
42
100
AcDbScale
 70
     0
300
1:1
140
1.0
141
1.0
290
     1
  0
SCALE
  5
44
102
{ACAD_REACTORS
330
42
102
}
330
42
100
AcDbScale
 70
     0
300
1/128" = 1'-0"
140
0.007813
141
12.0
290
     0
  0
SCALE
  5
45
102
{ACAD_REACTORS
330
42
102
}
330
42
100
AcDbScale
 70
     0
300
1/64" = 1'-0"
140
0.015625
141
12.0
290
     0
  0
SCALE
  5
46
102
{ACAD_REACTORS
330
42
102
}
330
42
100
AcDbScale
 70
     0
300
1/32" = 1'-0"
140
0.03125
141
12.0
290
     0
  0
SCALE
  5
47
102
{ACAD_REACTORS
330
42
102
}
330
42
100
AcDbScale
 70
     0
300
1/16" = 1'-0"
140
0.0625
141
12.0
290
     0
  0
SCALE
  5
48
102
{ACAD_REACTORS
330
42
102
}
330
42
100
AcDbScale
 70
     0
300
3/32" = 1'-0"
140
0.09375
141
12.0
290
     0
  0
SCALE
  5
49
102
{ACAD_REACTORS
330
42
102
}
330
42
100
AcDbScale
 70
     0
300
1/8" = 1'-0"
140
0.125
141
12.0
290
     0
  0
SCALE
  5
4A
102
{ACAD_REACTORS
330
42
102
}
330
42
100
AcDbScale
 70
     0
300
3/16" = 1'-0"
140
0.1875
141
12.0
290
     0
  0
SCALE
  5
4B
102
{ACAD_REACTORS
330
42
102
}
330
42
100
AcDbScale
 70
     0
300
1/4" = 1'-0"
140
0.25
141
12.0
290
     0
  0
SCALE
  5
4C
102
{ACAD_REACTORS
330
42
102
}
330
42
100
AcDbScale
 70
     0
300
3/8" = 1'-0"
140
0.375
141
12.0
290
     0
  0
SCALE
  5
4D
102
{ACAD_REACTORS
330
42
102
}
330
42
100
AcDbScale
 70
     0
300
1/2" = 1'-0"
140
0.5
141
12.0
290
     0
  0
SCALE
  5
4E
102
{ACAD_REACTORS
330
42
102
}
330
42
100
AcDbScale
 70
     0
300
3/4" = 1'-0"
140
0.75
141
12.0
290
     0
  0
SCALE
  5
4F
102
{ACAD_REACTORS
330
42
102
}
330
42
100
AcDbScale
 70
     0
300
1" = 1'-0"
140
1.0
141
12.0
290
     0
  0
SCALE
  5
50
102
{ACAD_REACTORS
330
42
102
}
330
42
100
AcDbScale
 70
     0
300
1-1/2" = 1'-0"
140
1.5
141
12.0
290
     0
  0
SCALE
  5
51
102
{ACAD_REACTORS
330
42
102
}
330
42
100
AcDbScale
 70
     0
300
3" = 1'-0"
140
3.0
141
12.0
290
     0
  0
SCALE
  5
52
102
{ACAD_REACTORS
330
42
102
}
330
42
100
AcDbScale
 70
     0
300
6" = 1'-0"
140
6.0
141
12.0
290
     0
  0
SCALE
  5
53
102
{ACAD_REACTORS
330
42
102
}
330
42
100
AcDbScale
 70
     0
300
1'-0" = 1'-0"
140
12.0
141
12.0
290
     0
  0
ACDBSECTIONVIEWSTYLE
  5
69
102
{ACAD_XDICTIONARY
360
498
102
}
102
{ACAD_REACTORS
330
68
102
}
330
68
100
AcDbModelDocViewStyle
 70
     0
  3
Imperial24
290
     0
100
AcDbSectionViewStyle
 70
     0
 71
     0
 90
       78
 71
     1
340
55
 62
   256
 40
0.24
340
0
340
0
 62
   256
 40
0.24
300
I, O, Q, S, X, Z
 40
0.48
 90
        3
 40
0.18
 90
        1
 71
     2
340
5D
 90
       25
 62
   256
340
5D
 90
       50
 62
   256
 40
0.24
 40
0.0
 40
0.24
 71
     3
340
55
 62
   256
 40
0.24
 90
        1
 40
0.75
 90
        1
300
%<\AcVar ViewType \f "%tc1">% %<\AcVar ViewSectionStartId>%-%<\AcVar ViewSectionEndId>%\PSCALE %<\AcVar ViewScale \f "%sn">%
 71
     4
 62
   256
 62
   257
300
ANSI31
 40
1.0
 90
        0
290
     0
290
     0
 90
        6
 40
0.0
 40
1.570796
 40
0.261799
 40
1.308997
 40
-0.261799
 40
1.832596
  0
TABLESTYLE
  5
65
102
{ACAD_XDICTIONARY
360
495
102
}
102
{ACAD_REACTORS
330
64
102
}
330
64
100
AcDbTableStyle
280
     0
  3
Standard
 70
     0
 71
     0
 40
0.06
 41
0.06
280
     0
281
     0
  7
Standard
140
0.18
170
     2
 62
     0
 63
     7
283
     0
 90
      512
 91
        0
  1

274
    -2
284
     1
 64
     0
275
    -2
285
     1
 65
     0
276
    -2
286
     1
 66
     0
277
    -2
287
     1
 67
     0
278
    -2
288
     1
 68
     0
279
    -2
289
     1
 69
     0
  7
Standard
140
0.25
170
     5
 62
     0
 63
     7
283
     0
 90
      512
 91
        0
  1

274
    -2
284
     1
 64
     0
275
    -2
285
     1
 65
     0
276
    -2
286
     1
 66
     0
277
    -2
287
     1
 67
     0
278
    -2
288
     1
 68
     0
279
    -2
289
     1
 69
     0
  7
Standard
140
0.18
170
     5
 62
     0
 63
     7
283
     0
 90
      512
 91
        0
  1

274
    -2
284
     1
 64
     0
275
    -2
285
     1
 65
     0
276
    -2
286
     1
 66
     0
277
    -2
287
     1
 67
     0
278
    -2
288
     1
 68
     0
279
    -2
289
     1
 69
     0
  0
VISUALSTYLE
  5
2F
102
{ACAD_REACTORS
330
29
102
}
330
29
100
AcDbVisualStyle
  2
2dWireframe
 70
     4
177
     3
291
     0
 70
    58
 90
        0
176
     1
 90
        2
176
     1
 90
        0
176
     1
 90
        0
176
     1
 40
0.6
176
     1
 40
30.0
176
     1
 62
     7
420
 16777215
176
     1
 90
        1
176
     1
 90
        4
176
     1
 62
     7
176
     1
 62
   257
176
     1
 90
        1
176
     1
 90
        1
176
     1
 40
1.0
176
     1
 90
        0
176
     1
 62
   257
176
     1
 40
1.0
176
     1
 90
        1
176
     1
 90
        6
176
     1
 90
        2
176
     1
 62
     7
176
     1
 90
        5
176
     1
 90
        0
176
     1
 90
        0
176
     1
290
     0
176
     1
 90
        1
176
     1
 40
0.0
176
     1
 90
        0
176
     1
290
     1
176
     1
290
     1
176
     1
290
     0
176
     1
290
     0
176
     1
290
     0
176
     1
290
     0
176
     1
290
     0
176
     1
290
     0
176
     1
290
     0
176
     1
 90
       50
176
     1
 40
0.0
176
     1
 40
1.0
176
     1
 90
        0
176
     1
 62
    18
420
        0
176
     1
 90
       50
176
     1
 90
        3
176
     1
 62
     5
420
      255
176
     1
290
     0
176
     1
 90
       50
176
     1
 90
       50
176
     1
 90
       50
176
     1
290
     0
176
     1
 90
       50
176
     1
 62
   256
176
     0
 40
1.0
176
     0
 90
        2
176
     1
  1
strokes_ogs.tif
176
     1
290
     0
176
     1
 40
1.0
176
     1
 40
1.0
176
     1
1001
ACAD
1000
AcDbSavedByObjectVersion
1070
     0
  0
VISUALSTYLE
  5
2E
102
{ACAD_REACTORS
330
29
102
}
330
29
100
AcDbVisualStyle
  2
Basic
 70
     7
177
     3
291
     1
 70
    58
 90
        1
176
     1
 90
        0
176
     1
 90
        1
176
     1
 90
        0
176
     1
 40
0.6
176
     1
 40
30.0
176
     1
 62
     7
420
 16777215
176
     1
 90
        0
176
     1
 90
        4
176
     1
 62
     7
176
     1
 62
   257
176
     1
 90
        1
176
     1
 90
        1
176
     1
 40
1.0
176
     1
 90
        8
176
     1
 62
     7
176
     1
 40
1.0
176
     1
 90
        1
176
     1
 90
        6
176
     1
 90
        2
176
     1
 62
     7
176
     1
 90
        5
176
     1
 90
        0
176
     1
 90
        0
176
     1
290
     0
176
     1
 90
        1
176
     1
 40
0.0
176
     1
 90
        0
176
     1
290
     0
176
     1
290
     1
176
     1
290
     1
176
     1
290
     0
176
     1
290
     0
176
     1
290
     0
176
     1
290
     0
176
     1
290
     0
176
     1
290
     0
176
     1
 90
       50
176
     1
 40
0.0
176
     1
 40
1.0
176
     1
 90
        0
176
     1
 62
    18
420
        0
176
     1
 90
       50
176
     1
 90
        3
176
     1
 62
     5
420
      255
176
     1
290
     0
176
     1
 90
       50
176
     1
 90
       50
176
     1
 90
       50
176
     1
290
     0
176
     1
 90
       50
176
     1
 62
   256
176
     0
 40
1.0
176
     0
 90
        2
176
     1
  1
strokes_ogs.tif
176
     1
290
     0
176
     1
 40
1.0
176
     1
 40
1.0
176
     1
1001
ACAD
1000
AcDbSavedByObjectVersion
1070
     0
  0
VISUALSTYLE
  5
35
102
{ACAD_REACTORS
330
29
102
}
330
29
100
AcDbVisualStyle
  2
Brighten
 70
    12
177
     3
291
     1
 70
    58
 90
        2
176
     1
 90
        2
176
     1
 90
        0
176
     1
 90
        0
176
     1
 40
0.6
176
     1
 40
30.0
176
     1
 62
     7
420
 16777215
176
     1
 90
        1
176
     1
 90
        4
176
     1
 62
     7
176
     1
 62
   257
176
     1
 90
        1
176
     1
 90
        1
176
     1
 40
1.0
176
     1
 90
        8
176
     1
 62
     7
176
     1
 40
1.0
176
     1
 90
        1
176
     1
 90
        6
176
     1
 90
        2
176
     1
 62
     7
176
     1
 90
        5
176
     1
 90
        0
176
     1
 90
        0
176
     1
290
     0
176
     1
 90
        1
176
     1
 40
50.0
176
     1
 90
        0
176
     1
290
     0
176
     1
290
     1
176
     1
290
     1
176
     1
290
     0
176
     1
290
     0
176
     1
290
     0
176
     1
290
     0
176
     1
290
     0
176
     1
290
     0
176
     1
 90
       50
176
     1
 40
0.0
176
     1
 40
1.0
176
     1
 90
        0
176
     1
 62
    18
420
        0
176
     1
 90
       50
176
     1
 90
        3
176
     1
 62
     5
420
      255
176
     1
290
     0
176
     1
 90
       50
176
     1
 90
       50
176
     1
 90
       50
176
     1
290
     0
176
     1
 90
       50
176
     1
 62
   256
176
     0
 40
1.0
176
     0
 90
        2
176
     1
  1
strokes_ogs.tif
176
     1
290
     0
176
     1
 40
1.0
176
     1
 40
1.0
176
     1
1001
ACAD
1000
AcDbSavedByObjectVersion
1070
     0
  0
VISUALSTYLE
  5
39
102
{ACAD_REACTORS
330
29
102
}
330
29
100
AcDbVisualStyle
  2
ColorChange
 70
    16
177
     3
291
     1
 70
    58
 90
        2
176
     1
 90
        2
176
     1
 90
        3
176
     1
 90
        0
176
     1
 40
0.6
176
     1
 40
30.0
176
     1
 62
     8
420
  8421504
176
     1
 90
        1
176
     1
 90
        4
176
     1
 62
     7
176
     1
 62
   257
176
     1
 90
        1
176
     1
 90
        1
176
     1
 40
1.0
176
     1
 90
        8
176
     1
 62
     8
420
  8421504
176
     1
 40
1.0
176
     1
 90
        1
176
     1
 90
        6
176
     1
 90
        2
176
     1
 62
     7
176
     1
 90
        5
176
     1
 90
        0
176
     1
 90
        0
176
     1
290
     0
176
     1
 90
        1
176
     1
 40
0.0
176
     1
 90
        0
176
     1
290
     0
176
     1
290
     1
176
     1
290
     1
176
     1
290
     0
176
     1
290
     0
176
     1
290
     0
176
     1
290
     0
176
     1
290
     0
176
     1
290
     0
176
     1
 90
       50
176
     1
 40
0.0
176
     1
 40
1.0
176
     1
 90
        0
176
     1
 62
    18
420
        0
176
     1
 90
       50
176
     1
 90
        3
176
     1
 62
     5
420
      255
176
     1
290
     0
176
     1
 90
       50
176
     1
 90
       50
176
     1
 90
       50
176
     1
290
     0
176
     1
 90
       50
176
     1
 62
   256
176
     0
 40
1.0
176
     0
 90
        2
176
     1
  1
strokes_ogs.tif
176
     1
290
     0
176
     1
 40
1.0
176
     1
 40
1.0
176
     1
1001
ACAD
1000
AcDbSavedByObjectVersion
1070
     0
  0
VISUALSTYLE
  5
32
102
{ACAD_REACTORS
330
29
102
}
330
29
100
AcDbVisualStyle
  2
Conceptual
 70
     9
177
     3
291
     0
 70
    58
 90
        3
176
     1
 90
        2
176
     1
 90
        0
176
     1
 90
        0
176
     1
 40
0.6
176
     1
 40
30.0
176
     1
 62
     7
420
 16777215
176
     1
 90
        2
176
     1
 90
        2
176
     1
 62
     7
176
     1
 62
   257
176
     1
 90
        1
176
     1
 90
        1
176
     1
 40
179.0
176
     1
 90
        8
176
     1
 62
     7
176
     1
 40
1.0
176
     1
 90
        1
176
     1
 90
        6
176
     1
 90
        2
176
     1
 62
     7
176
     1
 90
        3
176
     1
 90
        0
176
     1
 90
        0
176
     1
290
     0
176
     1
 90
        1
176
     1
 40
0.0
176
     1
 90
        0
176
     1
290
     0
176
     1
290
     1
176
     1
290
     1
176
     1
290
     0
176
     1
290
     0
176
     1
290
     0
176
     1
290
     0
176
     1
290
     0
176
     1
290
     0
176
     1
 90
       50
176
     1
 40
0.0
176
     1
 40
1.0
176
     1
 90
        0
176
     1
 62
    18
420
        0
176
     1
 90
       50
176
     1
 90
        3
176
     1
 62
     5
420
      255
176
     1
290
     0
176
     1
 90
       50
176
     1
 90
       50
176
     1
 90
       50
176
     1
290
     0
176
     1
 90
       50
176
     1
 62
   256
176
     0
 40
1.0
176
     0
 90
        2
176
     1
  1
strokes_ogs.tif
176
     1
290
     0
176
     1
 40
1.0
176
     1
 40
1.0
176
     1
1001
ACAD
1000
AcDbSavedByObjectVersion
1070
     0
  0
VISUALSTYLE
  5
34
102
{ACAD_REACTORS
330
29
102
}
330
29
100
AcDbVisualStyle
  2
Dim
 70
    11
177
     3
291
     1
 70
    58
 90
        2
176
     1
 90
        2
176
     1
 90
        0
176
     1
 90
        0
176
     1
 40
0.6
176
     1
 40
30.0
176
     1
 62
     7
420
 16777215
176
     1
 90
        1
176
     1
 90
        4
176
     1
 62
     7
176
     1
 62
   257
176
     1
 90
        1
176
     1
 90
        1
176
     1
 40
1.0
176
     1
 90
        8
176
     1
 62
     7
176
     1
 40
1.0
176
     1
 90
        1
176
     1
 90
        6
176
     1
 90
        2
176
     1
 62
     7
176
     1
 90
        5
176
     1
 90
        0
176
     1
 90
        0
176
     1
290
     0
176
     1
 90
        1
176
     1
 40
-50.0
176
     1
 90
        0
176
     1
290
     0
176
     1
290
     1
176
     1
290
     1
176
     1
290
     0
176
     1
290
     0
176
     1
290
     0
176
     1
290
     0
176
     1
290
     0
176
     1
290
     0
176
     1
 90
       50
176
     1
 40
0.0
176
     1
 40
1.0
176
     1
 90
        0
176
     1
 62
    18
420
        0
176
     1
 90
       50
176
     1
 90
        3
176
     1
 62
     5
420
      255
176
     1
290
     0
176
     1
 90
       50
176
     1
 90
       50
176
     1
 90
       50
176
     1
290
     0
176
     1
 90
       50
176
     1
 62
   256
176
     0
 40
1.0
176
     0
 90
        2
176
     1
  1
strokes_ogs.tif
176
     1
290
     0
176
     1
 40
1.0
176
     1
 40
1.0
176
     1
1001
ACAD
1000
AcDbSavedByObjectVersion
1070
     0
  0
VISUALSTYLE
  5
41
102
{ACAD_REACTORS
330
29
102
}
330
29
100
AcDbVisualStyle
  2
EdgeColorOff
 70
    22
177
     3
291
     1
 70
    58
 90
        2
176
     0
 90
        2
176
     0
 90
        0
176
     0
 90
        0
176
     0
 40
0.6
176
     0
 40
30.0
176
     0
 62
     7
420
 16777215
176
     0
 90
        1
176
     0
 90
        4
176
     0
 62
     7
176
     0
 62
   257
176
     0
 90
        1
176
     0
 90
        1
176
     0
 40
1.0
176
     0
 90
        8
176
     2
 62
     7
176
     0
 40
1.0
176
     0
 90
        1
176
     0
 90
        6
176
     0
 90
        2
176
     0
 62
     7
176
     0
 90
        5
176
     0
 90
        0
176
     0
 90
        0
176
     0
290
     0
176
     0
 90
        1
176
     0
 40
0.0
176
     0
 90
        0
176
     0
290
     0
176
     0
290
     1
176
     0
290
     1
176
     0
290
     0
176
     0
290
     0
176
     0
290
     0
176
     0
290
     0
176
     0
290
     0
176
     0
290
     0
176
     0
 90
       50
176
     0
 40
0.0
176
     0
 40
1.0
176
     0
 90
        0
176
     0
 62
    18
420
        0
176
     0
 90
       50
176
     0
 90
        3
176
     0
 62
     5
420
      255
176
     0
290
     0
176
     0
 90
       50
176
     0
 90
       50
176
     0
 90
       50
176
     0
290
     0
176
     0
 90
       50
176
     0
 62
   256
176
     0
 40
1.0
176
     0
 90
        2
176
     0
  1
strokes_ogs.tif
176
     0
290
     0
176
     0
 40
1.0
176
     0
 40
1.0
176
     0
1001
ACAD
1000
AcDbSavedByObjectVersion
1070
     0
  0
VISUALSTYLE
  5
38
102
{ACAD_REACTORS
330
29
102
}
330
29
100
AcDbVisualStyle
  2
Facepattern
 70
    15
177
     3
291
     1
 70
    58
 90
        2
176
     1
 90
        2
176
     1
 90
        0
176
     1
 90
        0
176
     1
 40
0.6
176
     1
 40
30.0
176
     1
 62
     7
420
 16777215
176
     1
 90
        1
176
     1
 90
        4
176
     1
 62
     7
176
     1
 62
   257
176
     1
 90
        1
176
     1
 90
        1
176
     1
 40
1.0
176
     1
 90
        8
176
     1
 62
     7
176
     1
 40
1.0
176
     1
 90
        1
176
     1
 90
        6
176
     1
 90
        2
176
     1
 62
     7
176
     1
 90
        5
176
     1
 90
        0
176
     1
 90
        0
176
     1
290
     0
176
     1
 90
        1
176
     1
 40
0.0
176
     1
 90
        0
176
     1
290
     0
176
     1
290
     1
176
     1
290
     1
176
     1
290
     0
176
     1
290
     0
176
     1
290
     0
176
     1
290
     0
176
     1
290
     0
176
     1
290
     0
176
     1
 90
       50
176
     1
 40
0.0
176
     1
 40
1.0
176
     1
 90
        0
176
     1
 62
    18
420
        0
176
     1
 90
       50
176
     1
 90
        3
176
     1
 62
     5
420
      255
176
     1
290
     0
176
     1
 90
       50
176
     1
 90
       50
176
     1
 90
       50
176
     1
290
     0
176
     1
 90
       50
176
     1
 62
   256
176
     0
 40
1.0
176
     0
 90
        2
176
     1
  1
strokes_ogs.tif
176
     1
290
     0
176
     1
 40
1.0
176
     1
 40
1.0
176
     1
1001
ACAD
1000
AcDbSavedByObjectVersion
1070
     0
  0
VISUALSTYLE
  5
2A
102
{ACAD_REACTORS
330
29
102
}
330
29
100
AcDbVisualStyle
  2
Flat
 70
     0
177
     3
291
     1
 70
    58
 90
        2
176
     1
 90
        1
176
     1
 90
        1
176
     1
 90
        2
176
     1
 40
0.6
176
     1
 40
30.0
176
     1
 62
     7
420
 16777215
176
     1
 90
        0
176
     1
 90
        0
176
     1
 62
     7
176
     1
 62
   257
176
     1
 90
        1
176
     1
 90
        1
176
     1
 40
1.0
176
     1
 90
        8
176
     1
 62
     7
176
     1
 40
1.0
176
     1
 90
        1
176
     1
 90
        6
176
     1
 90
        2
176
     1
 62
     7
176
     1
 90
        5
176
     1
 90
        0
176
     1
 90
        0
176
     1
290
     0
176
     1
 90
       13
176
     1
 40
0.0
176
     1
 90
        0
176
     1
290
     0
176
     1
290
     1
176
     1
290
     1
176
     1
290
     0
176
     1
290
     0
176
     1
290
     0
176
     1
290
     0
176
     1
290
     0
176
     1
290
     0
176
     1
 90
       50
176
     1
 40
0.0
176
     1
 40
1.0
176
     1
 90
        0
176
     1
 62
    18
420
        0
176
     1
 90
       50
176
     1
 90
        3
176
     1
 62
     5
420
      255
176
     1
290
     0
176
     1
 90
       50
176
     1
 90
       50
176
     1
 90
       50
176
     1
290
     0
176
     1
 90
       50
176
     1
 62
   256
176
     0
 40
1.0
176
     0
 90
        2
176
     1
  1
strokes_ogs.tif
176
     1
290
     0
176
     1
 40
1.0
176
     1
 40
1.0
176
     1
1001
ACAD
1000
AcDbSavedByObjectVersion
1070
     0
  0
VISUALSTYLE
  5
2B
102
{ACAD_REACTORS
330
29
102
}
330
29
100
AcDbVisualStyle
  2
FlatWithEdges
 70
     1
177
     3
291
     1
 70
    58
 90
        2
176
     1
 90
        1
176
     1
 90
        1
176
     1
 90
        2
176
     1
 40
0.6
176
     1
 40
30.0
176
     1
 62
     7
420
 16777215
176
     1
 90
        1
176
     1
 90
        0
176
     1
 62
     7
176
     1
 62
   257
176
     1
 90
        1
176
     1
 90
        1
176
     1
 40
1.0
176
     1
 90
        0
176
     1
 62
   257
176
     1
 40
1.0
176
     1
 90
        1
176
     1
 90
        6
176
     1
 90
        2
176
     1
 62
     7
176
     1
 90
        5
176
     1
 90
        0
176
     1
 90
        0
176
     1
290
     0
176
     1
 90
       13
176
     1
 40
0.0
176
     1
 90
        0
176
     1
290
     0
176
     1
290
     1
176
     1
290
     1
176
     1
290
     0
176
     1
290
     0
176
     1
290
     0
176
     1
290
     0
176
     1
290
     0
176
     1
290
     0
176
     1
 90
       50
176
     1
 40
0.0
176
     1
 40
1.0
176
     1
 90
        0
176
     1
 62
    18
420
        0
176
     1
 90
       50
176
     1
 90
        3
176
     1
 62
     5
420
      255
176
     1
290
     0
176
     1
 90
       50
176
     1
 90
       50
176
     1
 90
       50
176
     1
290
     0
176
     1
 90
       50
176
     1
 62
   256
176
     0
 40
1.0
176
     0
 90
        2
176
     1
  1
strokes_ogs.tif
176
     1
290
     0
176
     1
 40
1.0
176
     1
 40
1.0
176
     1
1001
ACAD
1000
AcDbSavedByObjectVersion
1070
     0
  0
VISUALSTYLE
  5
2C
102
{ACAD_REACTORS
330
29
102
}
330
29
100
AcDbVisualStyle
  2
Gouraud
 70
     2
177
     3
291
     1
 70
    58
 90
        2
176
     1
 90
        2
176
     1
 90
        1
176
     1
 90
        2
176
     1
 40
0.6
176
     1
 40
30.0
176
     1
 62
     7
420
 16777215
176
     1
 90
        0
176
     1
 90
        0
176
     1
 62
     7
176
     1
 62
   257
176
     1
 90
        1
176
     1
 90
        1
176
     1
 40
1.0
176
     1
 90
        0
176
     1
 62
     7
176
     1
 40
1.0
176
     1
 90
        1
176
     1
 90
        6
176
     1
 90
        2
176
     1
 62
     7
176
     1
 90
        5
176
     1
 90
        0
176
     1
 90
        0
176
     1
290
     0
176
     1
 90
       13
176
     1
 40
0.0
176
     1
 90
        0
176
     1
290
     0
176
     1
290
     1
176
     1
290
     1
176
     1
290
     0
176
     1
290
     0
176
     1
290
     0
176
     1
290
     0
176
     1
290
     0
176
     1
290
     0
176
     1
 90
       50
176
     1
 40
0.0
176
     1
 40
1.0
176
     1
 90
        0
176
     1
 62
    18
420
        0
176
     1
 90
       50
176
     1
 90
        3
176
     1
 62
     5
420
      255
176
     1
290
     0
176
     1
 90
       50
176
     1
 90
       50
176
     1
 90
       50
176
     1
290
     0
176
     1
 90
       50
176
     1
 62
   256
176
     0
 40
1.0
176
     0
 90
        2
176
     1
  1
strokes_ogs.tif
176
     1
290
     0
176
     1
 40
1.0
176
     1
 40
1.0
176
     1
1001
ACAD
1000
AcDbSavedByObjectVersion
1070
     0
  0
VISUALSTYLE
  5
2D
102
{ACAD_REACTORS
330
29
102
}
330
29
100
AcDbVisualStyle
  2
GouraudWithEdges
 70
     3
177
     3
291
     1
 70
    58
 90
        2
176
     1
 90
        2
176
     1
 90
        1
176
     1
 90
        2
176
     1
 40
0.6
176
     1
 40
30.0
176
     1
 62
     7
420
 16777215
176
     1
 90
        1
176
     1
 90
        0
176
     1
 62
     7
176
     1
 62
   257
176
     1
 90
        1
176
     1
 90
        1
176
     1
 40
1.0
176
     1
 90
        0
176
     1
 62
   257
176
     1
 40
1.0
176
     1
 90
        1
176
     1
 90
        6
176
     1
 90
        2
176
     1
 62
     7
176
     1
 90
        5
176
     1
 90
        0
176
     1
 90
        0
176
     1
290
     0
176
     1
 90
       13
176
     1
 40
0.0
176
     1
 90
        0
176
     1
290
     0
176
     1
290
     1
176
     1
290
     1
176
     1
290
     0
176
     1
290
     0
176
     1
290
     0
176
     1
290
     0
176
     1
290
     0
176
     1
290
     0
176
     1
 90
       50
176
     1
 40
0.0
176
     1
 40
1.0
176
     1
 90
        0
176
     1
 62
    18
420
        0
176
     1
 90
       50
176
     1
 90
        3
176
     1
 62
     5
420
      255
176
     1
290
     0
176
     1
 90
       50
176
     1
 90
       50
176
     1
 90
       50
176
     1
290
     0
176
     1
 90
       50
176
     1
 62
   256
176
     0
 40
1.0
176
     0
 90
        2
176
     1
  1
strokes_ogs.tif
176
     1
290
     0
176
     1
 40
1.0
176
     1
 40
1.0
176
     1
1001
ACAD
1000
AcDbSavedByObjectVersion
1070
     0
  0
VISUALSTYLE
  5
31
102
{ACAD_REACTORS
330
29
102
}
330
29
100
AcDbVisualStyle
  2
Hidden
 70
     6
177
     3
291
     0
 70
    58
 90
        1
176
     1
 90
        2
176
     1
 90
        2
176
     1
 90
        0
176
     1
 40
0.6
176
     1
 40
30.0
176
     1
 62
     7
420
 16777215
176
     1
 90
        2
176
     1
 90
        2
176
     1
 62
     7
176
     1
 62
   257
176
     1
 90
        2
176
     1
 90
        1
176
     1
 40
40.0
176
     1
 90
        0
176
     1
 62
   257
176
     1
 40
1.0
176
     1
 90
        1
176
     1
 90
        6
176
     1
 90
        2
176
     1
 62
     7
176
     1
 90
        3
176
     1
 90
        0
176
     1
 90
        0
176
     1
290
     0
176
     1
 90
        1
176
     1
 40
0.0
176
     1
 90
        0
176
     1
290
     0
176
     1
290
     1
176
     1
290
     1
176
     1
290
     0
176
     1
290
     0
176
     1
290
     0
176
     1
290
     0
176
     1
290
     0
176
     1
290
     0
176
     1
 90
       50
176
     1
 40
0.0
176
     1
 40
1.0
176
     1
 90
        0
176
     1
 62
    18
420
        0
176
     1
 90
       50
176
     1
 90
        3
176
     1
 62
     5
420
      255
176
     1
290
     0
176
     1
 90
       50
176
     1
 90
       50
176
     1
 90
       50
176
     1
290
     0
176
     1
 90
       50
176
     1
 62
   256
176
     0
 40
1.0
176
     0
 90
        2
176
     1
  1
strokes_ogs.tif
176
     1
290
     0
176
     1
 40
1.0
176
     1
 40
1.0
176
     1
1001
ACAD
1000
AcDbSavedByObjectVersion
1070
     0
  0
VISUALSTYLE
  5
3F
102
{ACAD_REACTORS
330
29
102
}
330
29
100
AcDbVisualStyle
  2
JitterOff
 70
    20
177
     3
291
     1
 70
    58
 90
        2
176
     0
 90
        2
176
     0
 90
        0
176
     0
 90
        0
176
     0
 40
0.6
176
     0
 40
30.0
176
     0
 62
     7
420
 16777215
176
     0
 90
        1
176
     0
 90
        4
176
     0
 62
     7
176
     0
 62
   257
176
     0
 90
        1
176
     0
 90
        1
176
     0
 40
1.0
176
     0
 90
       10
176
     2
 62
     7
176
     0
 40
1.0
176
     0
 90
        1
176
     0
 90
        6
176
     0
 90
        2
176
     0
 62
     7
176
     0
 90
        5
176
     0
 90
        0
176
     0
 90
        0
176
     0
290
     0
176
     0
 90
        1
176
     0
 40
0.0
176
     0
 90
        0
176
     0
290
     0
176
     0
290
     1
176
     0
290
     1
176
     0
290
     0
176
     0
290
     0
176
     0
290
     0
176
     0
290
     0
176
     0
290
     0
176
     0
290
     0
176
     0
 90
       50
176
     0
 40
0.0
176
     0
 40
1.0
176
     0
 90
        0
176
     0
 62
    18
420
        0
176
     0
 90
       50
176
     0
 90
        3
176
     0
 62
     5
420
      255
176
     0
290
     0
176
     0
 90
       50
176
     0
 90
       50
176
     0
 90
       50
176
     0
290
     0
176
     0
 90
       50
176
     0
 62
   256
176
     0
 40
1.0
176
     0
 90
        2
176
     0
  1
strokes_ogs.tif
176
     0
290
     0
176
     0
 40
1.0
176
     0
 40
1.0
176
     0
1001
ACAD
1000
AcDbSavedByObjectVersion
1070
     0
  0
VISUALSTYLE
  5
37
102
{ACAD_REACTORS
330
29
102
}
330
29
100
AcDbVisualStyle
  2
Linepattern
 70
    14
177
     3
291
     1
 70
    58
 90
        2
176
     1
 90
        2
176
     1
 90
        0
176
     1
 90
        0
176
     1
 40
0.6
176
     1
 40
30.0
176
     1
 62
     7
420
 16777215
176
     1
 90
        1
176
     1
 90
        4
176
     1
 62
     7
176
     1
 62
   257
176
     1
 90
        7
176
     1
 90
        7
176
     1
 40
1.0
176
     1
 90
        8
176
     1
 62
     7
176
     1
 40
1.0
176
     1
 90
        1
176
     1
 90
        6
176
     1
 90
        2
176
     1
 62
     7
176
     1
 90
        5
176
     1
 90
        0
176
     1
 90
        0
176
     1
290
     0
176
     1
 90
        1
176
     1
 40
0.0
176
     1
 90
        0
176
     1
290
     0
176
     1
290
     1
176
     1
290
     1
176
     1
290
     0
176
     1
290
     0
176
     1
290
     0
176
     1
290
     0
176
     1
290
     0
176
     1
290
     0
176
     1
 90
       50
176
     1
 40
0.0
176
     1
 40
1.0
176
     1
 90
        0
176
     1
 62
    18
420
        0
176
     1
 90
       50
176
     1
 90
        3
176
     1
 62
     5
420
      255
176
     1
290
     0
176
     1
 90
       50
176
     1
 90
       50
176
     1
 90
       50
176
     1
290
     0
176
     1
 90
       50
176
     1
 62
   256
176
     0
 40
1.0
176
     0
 90
        2
176
     1
  1
strokes_ogs.tif
176
     1
290
     0
176
     1
 40
1.0
176
     1
 40
1.0
176
     1
1001
ACAD
1000
AcDbSavedByObjectVersion
1070
     0
  0
VISUALSTYLE
  5
40
102
{ACAD_REACTORS
330
29
102
}
330
29
100
AcDbVisualStyle
  2
OverhangOff
 70
    21
177
     3
291
     1
 70
    58
 90
        2
176
     0
 90
        2
176
     0
 90
        0
176
     0
 90
        0
176
     0
 40
0.6
176
     0
 40
30.0
176
     0
 62
     7
420
 16777215
176
     0
 90
        1
176
     0
 90
        4
176
     0
 62
     7
176
     0
 62
   257
176
     0
 90
        1
176
     0
 90
        1
176
     0
 40
1.0
176
     0
 90
        9
176
     2
 62
     7
176
     0
 40
1.0
176
     0
 90
        1
176
     0
 90
        6
176
     0
 90
        2
176
     0
 62
     7
176
     0
 90
        5
176
     0
 90
        0
176
     0
 90
        0
176
     0
290
     0
176
     0
 90
        1
176
     0
 40
0.0
176
     0
 90
        0
176
     0
290
     0
176
     0
290
     1
176
     0
290
     1
176
     0
290
     0
176
     0
290
     0
176
     0
290
     0
176
     0
290
     0
176
     0
290
     0
176
     0
290
     0
176
     0
 90
       50
176
     0
 40
0.0
176
     0
 40
1.0
176
     0
 90
        0
176
     0
 62
    18
420
        0
176
     0
 90
       50
176
     0
 90
        3
176
     0
 62
     5
420
      255
176
     0
290
     0
176
     0
 90
       50
176
     0
 90
       50
176
     0
 90
       50
176
     0
290
     0
176
     0
 90
       50
176
     0
 62
   256
176
     0
 40
1.0
176
     0
 90
        2
176
     0
  1
strokes_ogs.tif
176
     0
290
     0
176
     0
 40
1.0
176
     0
 40
1.0
176
     0
1001
ACAD
1000
AcDbSavedByObjectVersion
1070
     0
  0
VISUALSTYLE
  5
33
102
{ACAD_REACTORS
330
29
102
}
330
29
100
AcDbVisualStyle
  2
Realistic
 70
     8
177
     3
291
     0
 70
    58
 90
        2
176
     1
 90
        3
176
     1
 90
        0
176
     1
 90
        2
176
     1
 40
0.6
176
     1
 40
30.0
176
     1
 62
     7
420
 16777215
176
     1
 90
        0
176
     1
 90
        0
176
     1
 62
     7
176
     1
 62
   257
176
     1
 90
        1
176
     1
 90
        1
176
     1
 40
1.0
176
     1
 90
        8
176
     1
 62
   257
176
     1
 40
1.0
176
     1
 90
        1
176
     1
 90
        6
176
     1
 90
        2
176
     1
 62
     7
176
     1
 90
        3
176
     1
 90
        0
176
     1
 90
        0
176
     1
290
     0
176
     1
 90
       13
176
     1
 40
0.0
176
     1
 90
        0
176
     1
290
     0
176
     1
290
     1
176
     1
290
     1
176
     1
290
     0
176
     1
290
     0
176
     1
290
     0
176
     1
290
     0
176
     1
290
     0
176
     1
290
     0
176
     1
 90
       50
176
     1
 40
0.0
176
     1
 40
1.0
176
     1
 90
        0
176
     1
 62
    18
420
        0
176
     1
 90
       50
176
     1
 90
        3
176
     1
 62
     5
420
      255
176
     1
290
     0
176
     1
 90
       50
176
     1
 90
       50
176
     1
 90
       50
176
     1
290
     0
176
     1
 90
       50
176
     1
 62
   256
176
     0
 40
1.0
176
     0
 90
        2
176
     1
  1
strokes_ogs.tif
176
     1
290
     0
176
     1
 40
1.0
176
     1
 40
1.0
176
     1
1001
ACAD
1000
AcDbSavedByObjectVersion
1070
     0
  0
VISUALSTYLE
  5
3E
102
{ACAD_REACTORS
330
29
102
}
330
29
100
AcDbVisualStyle
  2
Shaded
 70
    27
177
     3
291
     0
 70
    58
 90
        2
176
     1
 90
        2
176
     1
 90
        1
176
     1
 90
        2
176
     1
 40
0.6
176
     1
 40
30.0
176
     1
 62
     7
420
 16777215
176
     1
 90
        0
176
     1
 90
        4
176
     1
 62
     7
176
     1
 62
   257
176
     1
 90
        1
176
     1
 90
        1
176
     1
 40
1.0
176
     1
 90
        8
176
     1
 62
   257
176
     1
 40
1.0
176
     1
 90
        1
176
     1
 90
        6
176
     1
 90
        2
176
     1
 62
     8
420
  7895160
176
     1
 90
        3
176
     1
 90
        0
176
     1
 90
        0
176
     1
290
     0
176
     1
 90
        5
176
     1
 40
0.0
176
     1
 90
        0
176
     1
290
     0
176
     1
290
     1
176
     1
290
     1
176
     1
290
     0
176
     1
290
     0
176
     1
290
     0
176
     1
290
     0
176
     1
290
     0
176
     1
290
     0
176
     1
 90
       50
176
     1
 40
0.0
176
     1
 40
1.0
176
     1
 90
        0
176
     1
 62
    18
420
        0
176
     1
 90
       50
176
     1
 90
        3
176
     1
 62
     5
420
      255
176
     1
290
     0
176
     1
 90
       50
176
     1
 90
       50
176
     1
 90
       50
176
     1
290
     0
176
     1
 90
       50
176
     1
 62
   256
176
     0
 40
1.0
176
     0
 90
        2
176
     1
  1
strokes_ogs.tif
176
     1
290
     0
176
     1
 40
1.0
176
     1
 40
1.0
176
     1
1001
ACAD
1000
AcDbSavedByObjectVersion
1070
     0
  0
VISUALSTYLE
  5
3D
102
{ACAD_REACTORS
330
29
102
}
330
29
100
AcDbVisualStyle
  2
Shaded with edges
 70
    26
177
     3
291
     0
 70
    58
 90
        2
176
     1
 90
        2
176
     1
 90
        1
176
     1
 90
        2
176
     1
 40
0.6
176
     1
 40
30.0
176
     1
 62
     7
420
 16777215
176
     1
 90
        1
176
     1
 90
        2
176
     1
 62
     7
176
     1
 62
   257
176
     1
 90
        2
176
     1
 90
        1
176
     1
 40
1.0
176
     1
 90
        8
176
     1
 62
   257
176
     1
 40
1.0
176
     1
 90
        1
176
     1
 90
        6
176
     1
 90
        2
176
     1
 62
     7
176
     1
 90
        3
176
     1
 90
        0
176
     1
 90
        0
176
     1
290
     0
176
     1
 90
        5
176
     1
 40
0.0
176
     1
 90
        0
176
     1
290
     0
176
     1
290
     1
176
     1
290
     1
176
     1
290
     0
176
     1
290
     0
176
     1
290
     0
176
     1
290
     0
176
     1
290
     0
176
     1
290
     0
176
     1
 90
       50
176
     1
 40
0.0
176
     1
 40
1.0
176
     1
 90
        0
176
     1
 62
    18
420
        0
176
     1
 90
       50
176
     1
 90
        3
176
     1
 62
     5
420
      255
176
     1
290
     0
176
     1
 90
       50
176
     1
 90
       50
176
     1
 90
       50
176
     1
290
     0
176
     1
 90
       50
176
     1
 62
   256
176
     0
 40
1.0
176
     0
 90
        2
176
     1
  1
strokes_ogs.tif
176
     1
290
     0
176
     1
 40
1.0
176
     1
 40
1.0
176
     1
1001
ACAD
1000
AcDbSavedByObjectVersion
1070
     0
  0
VISUALSTYLE
  5
3A
102
{ACAD_REACTORS
330
29
102
}
330
29
100
AcDbVisualStyle
  2
Shades of Gray
 70
    23
177
     3
291
     0
 70
    58
 90
        2
176
     1
 90
        2
176
     1
 90
        3
176
     1
 90
        0
176
     1
 40
0.6
176
     1
 40
30.0
176
     1
 62
     7
420
 16777215
176
     1
 90
        2
176
     1
 90
        2
176
     1
 62
     7
176
     1
 62
     7
176
     1
 90
        1
176
     1
 90
        1
176
     1
 40
40.0
176
     1
 90
        8
176
     1
 62
     7
176
     1
 40
1.0
176
     1
 90
        1
176
     1
 90
        6
176
     1
 90
        2
176
     1
 62
     7
176
     1
 90
        3
176
     1
 90
        0
176
     1
 90
        0
176
     1
290
     0
176
     1
 90
        1
176
     1
 40
0.0
176
     1
 90
        0
176
     1
290
     0
176
     1
290
     1
176
     1
290
     1
176
     1
290
     0
176
     1
290
     0
176
     1
290
     0
176
     1
290
     0
176
     1
290
     0
176
     1
290
     0
176
     1
 90
       50
176
     1
 40
0.0
176
     1
 40
1.0
176
     1
 90
        0
176
     1
 62
    18
420
        0
176
     1
 90
       50
176
     1
 90
        3
176
     1
 62
     5
420
      255
176
     1
290
     0
176
     1
 90
       50
176
     1
 90
       50
176
     1
 90
       50
176
     1
290
     0
176
     1
 90
       50
176
     1
 62
   256
176
     0
 40
1.0
176
     0
 90
        2
176
     1
  1
strokes_ogs.tif
176
     1
290
     0
176
     1
 40
1.0
176
     1
 40
1.0
176
     1
1001
ACAD
1000
AcDbSavedByObjectVersion
1070
     0
  0
VISUALSTYLE
  5
3B
102
{ACAD_REACTORS
330
29
102
}
330
29
100
AcDbVisualStyle
  2
Sketchy
 70
    24
177
     3
291
     0
 70
    58
 90
        1
176
     1
 90
        2
176
     1
 90
        2
176
     1
 90
        0
176
     1
 40
0.6
176
     1
 40
30.0
176
     1
 62
     7
420
 16777215
176
     1
 90
        2
176
     1
 90
        2
176
     1
 62
     7
176
     1
 62
     7
176
     1
 90
        1
176
     1
 90
        1
176
     1
 40
40.0
176
     1
 90
       11
176
     1
 62
     7
176
     1
 40
1.0
176
     1
 90
        1
176
     1
 90
        6
176
     1
 90
        2
176
     1
 62
     7
176
     1
 90
        6
176
     1
 90
        0
176
     1
 90
        0
176
     1
290
     0
176
     1
 90
        1
176
     1
 40
0.0
176
     1
 90
        0
176
     1
290
     0
176
     1
290
     1
176
     1
290
     1
176
     1
290
     0
176
     1
290
     0
176
     1
290
     0
176
     1
290
     0
176
     1
290
     0
176
     1
290
     0
176
     1
 90
       50
176
     1
 40
0.0
176
     1
 40
1.0
176
     1
 90
        0
176
     1
 62
    18
420
        0
176
     1
 90
       50
176
     1
 90
        3
176
     1
 62
     5
420
      255
176
     1
290
     0
176
     1
 90
       50
176
     1
 90
       50
176
     1
 90
       50
176
     1
290
     0
176
     1
 90
       50
176
     1
 62
   256
176
     0
 40
1.0
176
     0
 90
        2
176
     1
  1
strokes_ogs.tif
176
     1
290
     0
176
     1
 40
1.0
176
     1
 40
1.0
176
     1
1001
ACAD
1000
AcDbSavedByObjectVersion
1070
     0
  0
VISUALSTYLE
  5
36
102
{ACAD_REACTORS
330
29
102
}
330
29
100
AcDbVisualStyle
  2
Thicken
 70
    13
177
     3
291
     1
 70
    58
 90
        2
176
     1
 90
        2
176
     1
 90
        0
176
     1
 90
        0
176
     1
 40
0.6
176
     1
 40
30.0
176
     1
 62
     7
420
 16777215
176
     1
 90
        1
176
     1
 90
        4
176
     1
 62
     7
176
     1
 62
   257
176
     1
 90
        1
176
     1
 90
        1
176
     1
 40
1.0
176
     1
 90
       12
176
     1
 62
     7
176
     1
 40
1.0
176
     1
 90
        1
176
     1
 90
        6
176
     1
 90
        2
176
     1
 62
     7
176
     1
 90
        5
176
     1
 90
        0
176
     1
 90
        0
176
     1
290
     0
176
     1
 90
        1
176
     1
 40
0.0
176
     1
 90
        0
176
     1
290
     0
176
     1
290
     1
176
     1
290
     1
176
     1
290
     0
176
     1
290
     0
176
     1
290
     0
176
     1
290
     0
176
     1
290
     0
176
     1
290
     0
176
     1
 90
       50
176
     1
 40
0.0
176
     1
 40
1.0
176
     1
 90
        0
176
     1
 62
    18
420
        0
176
     1
 90
       50
176
     1
 90
        3
176
     1
 62
     5
420
      255
176
     1
290
     0
176
     1
 90
       50
176
     1
 90
       50
176
     1
 90
       50
176
     1
290
     0
176
     1
 90
       50
176
     1
 62
   256
176
     0
 40
1.0
176
     0
 90
        2
176
     1
  1
strokes_ogs.tif
176
     1
290
     0
176
     1
 40
1.0
176
     1
 40
1.0
176
     1
1001
ACAD
1000
AcDbSavedByObjectVersion
1070
     0
  0
VISUALSTYLE
  5
30
102
{ACAD_REACTORS
330
29
102
}
330
29
100
AcDbVisualStyle
  2
Wireframe
 70
     5
177
     3
291
     0
 70
    58
 90
        0
176
     1
 90
        2
176
     1
 90
        0
176
     1
 90
        0
176
     1
 40
0.6
176
     1
 40
30.0
176
     1
 62
     7
420
 16777215
176
     1
 90
        1
176
     1
 90
        4
176
     1
 62
     7
176
     1
 62
   257
176
     1
 90
        1
176
     1
 90
        1
176
     1
 40
1.0
176
     1
 90
        0
176
     1
 62
   257
176
     1
 40
1.0
176
     1
 90
        1
176
     1
 90
        6
176
     1
 90
        2
176
     1
 62
     7
176
     1
 90
        3
176
     1
 90
        0
176
     1
 90
        0
176
     1
290
     0
176
     1
 90
        1
176
     1
 40
0.0
176
     1
 90
        0
176
     1
290
     0
176
     1
290
     1
176
     1
290
     1
176
     1
290
     0
176
     1
290
     0
176
     1
290
     0
176
     1
290
     0
176
     1
290
     0
176
     1
290
     0
176
     1
 90
       50
176
     1
 40
0.0
176
     1
 40
1.0
176
     1
 90
        0
176
     1
 62
    18
420
        0
176
     1
 90
       50
176
     1
 90
        3
176
     1
 62
     5
420
      255
176
     1
290
     0
176
     1
 90
       50
176
     1
 90
       50
176
     1
 90
       50
176
     1
290
     0
176
     1
 90
       50
176
     1
 62
   256
176
     0
 40
1.0
176
     0
 90
        2
176
     1
  1
strokes_ogs.tif
176
     1
290
     0
176
     1
 40
1.0
176
     1
 40
1.0
176
     1
1001
ACAD
1000
AcDbSavedByObjectVersion
1070
     0
  0
VISUALSTYLE
  5
3C
102
{ACAD_REACTORS
330
29
102
}
330
29
100
AcDbVisualStyle
  2
X-Ray
 70
    25
177
     3
291
     0
 70
    58
 90
        2
176
     1
 90
        2
176
     1
 90
        1
176
     1
 90
        1
176
     1
 40
0.5
176
     1
 40
30.0
176
     1
 62
     7
420
 16777215
176
     1
 90
        1
176
     1
 90
        0
176
     1
 62
     7
176
     1
 62
   257
176
     1
 90
        1
176
     1
 90
        1
176
     1
 40
1.0
176
     1
 90
        8
176
     1
 62
     7
176
     1
 40
1.0
176
     1
 90
        1
176
     1
 90
        6
176
     1
 90
        2
176
     1
 62
     7
176
     1
 90
        3
176
     1
 90
        0
176
     1
 90
        0
176
     1
290
     0
176
     1
 90
       13
176
     1
 40
0.0
176
     1
 90
        0
176
     1
290
     0
176
     1
290
     1
176
     1
290
     1
176
     1
290
     0
176
     1
290
     0
176
     1
290
     0
176
     1
290
     0
176
     1
290
     0
176
     1
290
     0
176
     1
 90
       50
176
     1
 40
0.0
176
     1
 40
1.0
176
     1
 90
        0
176
     1
 62
    18
420
        0
176
     1
 90
       50
176
     1
 90
        3
176
     1
 62
     5
420
      255
176
     1
290
     0
176
     1
 90
       50
176
     1
 90
       50
176
     1
 90
       50
176
     1
290
     0
176
     1
 90
       50
176
     1
 62
   256
176
     0
 40
1.0
176
     0
 90
        2
176
     1
  1
strokes_ogs.tif
176
     1
290
     0
176
     1
 40
1.0
176
     1
 40
1.0
176
     1
1001
ACAD
1000
AcDbSavedByObjectVersion
1070
     0
  0
DICTIONARYVAR
  5
493
102
{ACAD_REACTORS
330
48E
102
}
330
48E
100
DictionaryVariables
280
     0
  1
0
  0
DICTIONARYVAR
  5
494
102
{ACAD_REACTORS
330
48E
102
}
330
48E
100
DictionaryVariables
280
     0
  1
1:1
  0
DICTIONARYVAR
  5
490
102
{ACAD_REACTORS
330
48E
102
}
330
48E
100
DictionaryVariables
280
     0
  1
STANDARD
  0
DICTIONARYVAR
  5
48F
102
{ACAD_REACTORS
330
48E
102
}
330
48E
100
DictionaryVariables
280
     0
  1
STANDARD
  0
DICTIONARYVAR
  5
491
102
{ACAD_REACTORS
330
48E
102
}
330
48E
100
DictionaryVariables
280
     0
  1
Imperial24
  0
DICTIONARYVAR
  5
492
102
{ACAD_REACTORS
330
48E
102
}
330
48E
100
DictionaryVariables
280
     0
  1
Imperial24
  0
DICTIONARY
  5
49A
330
6B
100
AcDbDictionary
280
     1
281
     1
  3
ACAD_XREC_ROUNDTRIP
360
49B
  0
DICTIONARY
  5
1A
330
19
100
AcDbDictionary
280
     1
281
     1
  3
BUMPTILE
360
1C
  3
DIFFUSETILE
360
1B
  3
OPACITYTILE
360
1F
  3
REFLECTIONTILE
360
1E
  3
REFRACTIONTILE
360
20
  3
SPECULARTILE
360
1D
  0
DICTIONARY
  5
12
330
11
100
AcDbDictionary
280
     1
281
     1
  3
BUMPTILE
360
14
  3
DIFFUSETILE
360
13
  3
OPACITYTILE
360
17
  3
REFLECTIONTILE
360
16
  3
REFRACTIONTILE
360
18
  3
SPECULARTILE
360
15
  0
DICTIONARY
  5
22
330
21
100
AcDbDictionary
280
     1
281
     1
  3
BUMPTILE
360
24
  3
DIFFUSETILE
360
23
  3
OPACITYTILE
360
27
  3
REFLECTIONTILE
360
26
  3
REFRACTIONTILE
360
28
  3
SPECULARTILE
360
25
  0
DICTIONARY
  5
498
330
69
100
AcDbDictionary
280
     1
281
     1
  3
ACAD_XREC_ROUNDTRIP
360
499
  0
DICTIONARY
  5
495
330
65
100
AcDbDictionary
280
     1
281
     1
  3
ACAD_ROUNDTRIP_2008_TABLESTYLE_CELLSTYLEMAP
360
496
  0
XRECORD
  5
49B
102
{ACAD_REACTORS
330
49A
102
}
330
49A
100
AcDbXrecord
280
     1
102
DISPLAYNAME
  1
Imperial24
102
FLAGS
 90
        0
  0
XRECORD
  5
1C
102
{ACAD_REACTORS
330
1A
102
}
330
1A
100
AcDbXrecord
280
     1
270
     1
271
     1
  0
XRECORD
  5
1B
102
{ACAD_REACTORS
330
1A
102
}
330
1A
100
AcDbXrecord
280
     1
270
     1
271
     1
  0
XRECORD
  5
1F
102
{ACAD_REACTORS
330
1A
102
}
330
1A
100
AcDbXrecord
280
     1
270
     1
271
     1
  0
XRECORD
  5
1E
102
{ACAD_REACTORS
330
1A
102
}
330
1A
100
AcDbXrecord
280
     1
270
     1
271
     1
  0
XRECORD
  5
20
102
{ACAD_REACTORS
330
1A
102
}
330
1A
100
AcDbXrecord
280
     1
270
     1
271
     1
  0
XRECORD
  5
1D
102
{ACAD_REACTORS
330
1A
102
}
330
1A
100
AcDbXrecord
280
     1
270
     1
271
     1
  0
XRECORD
  5
14
102
{ACAD_REACTORS
330
12
102
}
330
12
100
AcDbXrecord
280
     1
270
     1
271
     1
  0
XRECORD
  5
13
102
{ACAD_REACTORS
330
12
102
}
330
12
100
AcDbXrecord
280
     1
270
     1
271
     1
  0
XRECORD
  5
17
102
{ACAD_REACTORS
330
12
102
}
330
12
100
AcDbXrecord
280
     1
270
     1
271
     1
  0
XRECORD
  5
16
102
{ACAD_REACTORS
330
12
102
}
330
12
100
AcDbXrecord
280
     1
270
     1
271
     1
  0
XRECORD
  5
18
102
{ACAD_REACTORS
330
12
102
}
330
12
100
AcDbXrecord
280
     1
270
     1
271
     1
  0
XRECORD
  5
15
102
{ACAD_REACTORS
330
12
102
}
330
12
100
AcDbXrecord
280
     1
270
     1
271
     1
  0
XRECORD
  5
24
102
{ACAD_REACTORS
330
22
102
}
330
22
100
AcDbXrecord
280
     1
270
     1
271
     1
  0
XRECORD
  5
23
102
{ACAD_REACTORS
330
22
102
}
330
22
100
AcDbXrecord
280
     1
270
     1
271
     1
  0
XRECORD
  5
27
102
{ACAD_REACTORS
330
22
102
}
330
22
100
AcDbXrecord
280
     1
270
     1
271
     1
  0
XRECORD
  5
26
102
{ACAD_REACTORS
330
22
102
}
330
22
100
AcDbXrecord
280
     1
270
     1
271
     1
  0
XRECORD
  5
28
102
{ACAD_REACTORS
330
22
102
}
330
22
100
AcDbXrecord
280
     1
270
     1
271
     1
  0
XRECORD
  5
25
102
{ACAD_REACTORS
330
22
102
}
330
22
100
AcDbXrecord
280
     1
270
     1
271
     1
  0
XRECORD
  5
499
102
{ACAD_REACTORS
330
498
102
}
330
498
100
AcDbXrecord
280
     1
102
DISPLAYNAME
  1
Imperial24
102
FLAGS
 90
        0
  0
CELLSTYLEMAP
  5
496
102
{ACAD_REACTORS
330
495
102
}
330
495
100
AcDbCellStyleMap
 90
        3
300
CELLSTYLE
  1
TABLEFORMAT_BEGIN
 90
        5
170
     1
 91
        0
 92
    32768
 62
   257
 93
        1
300
CONTENTFORMAT
  1
CONTENTFORMAT_BEGIN
 90
        0
 91
        0
 92
      512
 93
        0
300

 40
0.0
140
1.0
 94
        5
 62
     0
340
55
144
0.25
309
CONTENTFORMAT_END
171
     0
 94
        0
309
TABLEFORMAT_END
  1
CELLSTYLE_BEGIN
 90
        1
 91
        1
300
_TITLE
309
CELLSTYLE_END
300
CELLSTYLE
  1
TABLEFORMAT_BEGIN
 90
        5
170
     1
 91
        0
 92
        0
 62
   257
 93
        1
300
CONTENTFORMAT
  1
CONTENTFORMAT_BEGIN
 90
        0
 91
        0
 92
      512
 93
        0
300

 40
0.0
140
1.0
 94
        5
 62
     0
340
55
144
0.18
309
CONTENTFORMAT_END
171
     0
 94
        0
309
TABLEFORMAT_END
  1
CELLSTYLE_BEGIN
 90
        2
 91
        1
300
_HEADER
309
CELLSTYLE_END
300
CELLSTYLE
  1
TABLEFORMAT_BEGIN
 90
        5
170
     1
 91
        0
 92
        0
 62
   257
 93
        1
300
CONTENTFORMAT
  1
CONTENTFORMAT_BEGIN
 90
        0
 91
        0
 92
      512
 93
        0
300

 40
0.0
140
1.0
 94
        2
 62
     0
340
55
144
0.18
309
CONTENTFORMAT_END
171
     0
 94
        0
309
TABLEFORMAT_END
  1
CELLSTYLE_BEGIN
 90
        3
 91
        2
300
_DATA
309
CELLSTYLE_END
  0
ENDSEC
  0
EOF
