  0
SECTION
  2
HEADER
  9
$ACADVER
  1
AC1027
  9
$ACADMAINTVER
 70
   125
  9
$DWGCODEPAGE
  3
ANSI_1252
  9
$LASTSAVEDBY
  1
Administrator
  9
$REQUIREDVERSIONS
160
                 0
  9
$INSBASE
 10
0.0
 20
0.0
 30
0.0
  9
$EXTMIN
 10
0.0
 20
0.0
 30
-1.12794
  9
$EXTMAX
 10
17.0
 20
11.0
 30
2.572738
  9
$LIMMIN
 10
0.0
 20
0.0
  9
$LIMMAX
 10
17.0
 20
11.0
  9
$ORTHOMODE
 70
     0
  9
$REGENMODE
 70
     1
  9
$FILLMODE
 70
     1
  9
$QTEXTMODE
 70
     0
  9
$MIRRTEXT
 70
     0
  9
$LTSCALE
 40
0.75
  9
$ATTMODE
 70
     1
  9
$TEXTSIZE
 40
0.12
  9
$TRACEWID
 40
0.05
  9
$TEXTSTYLE
  7
Standard
  9
$CLAYER
  8
Titleblock
  9
$CELTYPE
  6
ByLayer
  9
$CECOLOR
 62
   256
  9
$CELTSCALE
 40
1.0
  9
$DISPSILH
 70
     0
  9
$DIMSCALE
 40
1.0
  9
$DIMASZ
 40
0.12
  9
$DIMEXO
 40
0.05
  9
$DIMDLI
 40
0.339411
  9
$DIMRND
 40
0.0
  9
$DIMDLE
 40
0.0
  9
$DIMEXE
 40
0.1
  9
$DIMTP
 40
0.01
  9
$DIMTM
 40
0.01
  9
$DIMTXT
 40
0.12
  9
$DIMCEN
 40
0.0
  9
$DIMTSZ
 40
0.0
  9
$DIMTOL
 70
     0
  9
$DIMLIM
 70
     0
  9
$DIMTIH
 70
     1
  9
$DIMTOH
 70
     1
  9
$DIMSE1
 70
     0
  9
$DIMSE2
 70
     0
  9
$DIMTAD
 70
     0
  9
$DIMZIN
 70
    12
  9
$DIMBLK
  1

  9
$DIMASO
 70
     1
  9
$DIMSHO
 70
     1
  9
$DIMPOST
  1
in
  9
$DIMAPOST
  1
mm
  9
$DIMALT
 70
     0
  9
$DIMALTD
 70
     2
  9
$DIMALTF
 40
25.4
  9
$DIMLFAC
 40
1.0
  9
$DIMTOFL
 70
     0
  9
$DIMTVP
 40
0.0
  9
$DIMTIX
 70
     0
  9
$DIMSOXD
 70
     0
  9
$DIMSAH
 70
     0
  9
$DIMBLK1
  1

  9
$DIMBLK2
  1

  9
$DIMSTYLE
  2
Standard
  9
$DIMCLRD
 70
   256
  9
$DIMCLRE
 70
   256
  9
$DIMCLRT
 70
   256
  9
$DIMTFAC
 40
1.0
  9
$DIMGAP
 40
0.06
  9
$DIMJUST
 70
     0
  9
$DIMSD1
 70
     0
  9
$DIMSD2
 70
     0
  9
$DIMTOLJ
 70
     1
  9
$DIMTZIN
 70
    12
  9
$DIMALTZ
 70
    12
  9
$DIMALTTZ
 70
    12
  9
$DIMUPT
 70
     0
  9
$DIMDEC
 70
     2
  9
$DIMTDEC
 70
     2
  9
$DIMALTU
 70
     2
  9
$DIMALTTD
 70
     2
  9
$DIMTXSTY
  7
Standard
  9
$DIMAUNIT
 70
     0
  9
$DIMADEC
 70
     2
  9
$DIMALTRND
 40
0.0
  9
$DIMAZIN
 70
     3
  9
$DIMDSEP
 70
    46
  9
$DIMATFIT
 70
     3
  9
$DIMFRAC
 70
     0
  9
$DIMLDRBLK
  1

  9
$DIMLUNIT
 70
     2
  9
$DIMLWD
 70
    -2
  9
$DIMLWE
 70
    -2
  9
$DIMTMOVE
 70
     0
  9
$DIMFXL
 40
1.0
  9
$DIMFXLON
 70
     0
  9
$DIMJOGANG
 40
0.785398
  9
$DIMTFILL
 70
     0
  9
$DIMTFILLCLR
 70
     0
  9
$DIMARCSYM
 70
     1
  9
$DIMLTYPE
  6

  9
$DIMLTEX1
  6

  9
$DIMLTEX2
  6

  9
$DIMTXTDIRECTION
 70
     0
  9
$LUNITS
 70
     2
  9
$LUPREC
 70
     4
  9
$SKETCHINC
 40
0.1
  9
$FILLETRAD
 40
0.0
  9
$AUNITS
 70
     0
  9
$AUPREC
 70
     0
  9
$MENU
  1
.
  9
$ELEVATION
 40
0.0
  9
$PELEVATION
 40
0.0
  9
$THICKNESS
 40
0.0
  9
$LIMCHECK
 70
     0
  9
$CHAMFERA
 40
0.0
  9
$CHAMFERB
 40
0.0
  9
$CHAMFERC
 40
0.0
  9
$CHAMFERD
 40
0.0
  9
$SKPOLY
 70
     0
  9
$TDCREATE
 40
2458981.533449074
  9
$TDUCREATE
 40
2458981.825115741
  9
$TDUPDATE
 40
2458981.533449074
  9
$TDUUPDATE
 40
2458981.825115741
  9
$TDINDWG
 40
0.0000115741
  9
$TDUSRTIMER
 40
0.0000115741
  9
$USRTIMER
 70
     1
  9
$ANGBASE
 50
0.0
  9
$ANGDIR
 70
     0
  9
$PDMODE
 70
     0
  9
$PDSIZE
 40
0.0
  9
$PLINEWID
 40
0.0
  9
$SPLFRAME
 70
     0
  9
$SPLINETYPE
 70
     6
  9
$SPLINESEGS
 70
     8
  9
$HANDSEED
  5
697
  9
$SURFTAB1
 70
     6
  9
$SURFTAB2
 70
     6
  9
$SURFTYPE
 70
     6
  9
$SURFU
 70
     6
  9
$SURFV
 70
     6
  9
$UCSBASE
  2

  9
$UCSNAME
  2

  9
$UCSORG
 10
0.0
 20
0.0
 30
0.0
  9
$UCSXDIR
 10
1.0
 20
0.0
 30
0.0
  9
$UCSYDIR
 10
0.0
 20
1.0
 30
0.0
  9
$UCSORTHOREF
  2

  9
$UCSORTHOVIEW
 70
     0
  9
$UCSORGTOP
 10
0.0
 20
0.0
 30
0.0
  9
$UCSORGBOTTOM
 10
0.0
 20
0.0
 30
0.0
  9
$UCSORGLEFT
 10
0.0
 20
0.0
 30
0.0
  9
$UCSORGRIGHT
 10
0.0
 20
0.0
 30
0.0
  9
$UCSORGFRONT
 10
0.0
 20
0.0
 30
0.0
  9
$UCSORGBACK
 10
0.0
 20
0.0
 30
0.0
  9
$PUCSBASE
  2

  9
$PUCSNAME
  2

  9
$PUCSORG
 10
0.0
 20
0.0
 30
0.0
  9
$PUCSXDIR
 10
1.0
 20
0.0
 30
0.0
  9
$PUCSYDIR
 10
0.0
 20
1.0
 30
0.0
  9
$PUCSORTHOREF
  2

  9
$PUCSORTHOVIEW
 70
     0
  9
$PUCSORGTOP
 10
0.0
 20
0.0
 30
0.0
  9
$PUCSORGBOTTOM
 10
0.0
 20
0.0
 30
0.0
  9
$PUCSORGLEFT
 10
0.0
 20
0.0
 30
0.0
  9
$PUCSORGRIGHT
 10
0.0
 20
0.0
 30
0.0
  9
$PUCSORGFRONT
 10
0.0
 20
0.0
 30
0.0
  9
$PUCSORGBACK
 10
0.0
 20
0.0
 30
0.0
  9
$USERI1
 70
     0
  9
$USERI2
 70
     0
  9
$USERI3
 70
     0
  9
$USERI4
 70
     0
  9
$USERI5
 70
     0
  9
$USERR1
 40
0.0
  9
$USERR2
 40
0.0
  9
$USERR3
 40
0.0
  9
$USERR4
 40
0.0
  9
$USERR5
 40
0.0
  9
$WORLDVIEW
 70
     1
  9
$SHADEDGE
 70
     3
  9
$SHADEDIF
 70
    70
  9
$TILEMODE
 70
     1
  9
$MAXACTVP
 70
    64
  9
$PINSBASE
 10
0.0
 20
0.0
 30
0.0
  9
$PLIMCHECK
 70
     0
  9
$PEXTMIN
 10
1.000000E+20
 20
1.000000E+20
 30
1.000000E+20
  9
$PEXTMAX
 10
-1.000000E+20
 20
-1.000000E+20
 30
-1.000000E+20
  9
$PLIMMIN
 10
0.0
 20
0.0
  9
$PLIMMAX
 10
12.0
 20
9.0
  9
$UNITMODE
 70
     0
  9
$VISRETAIN
 70
     1
  9
$PLINEGEN
 70
     0
  9
$PSLTSCALE
 70
     1
  9
$TREEDEPTH
 70
  3020
  9
$CMLSTYLE
  2
Standard
  9
$CMLJUST
 70
     0
  9
$CMLSCALE
 40
1.0
  9
$PROXYGRAPHICS
 70
     1
  9
$MEASUREMENT
 70
     0
  9
$CELWEIGHT
370
    -1
  9
$ENDCAPS
280
     0
  9
$JOINSTYLE
280
     0
  9
$LWDISPLAY
290
     0
  9
$INSUNITS
 70
     1
  9
$HYPERLINKBASE
  1

  9
$STYLESHEET
  1

  9
$XEDIT
290
     1
  9
$CEPSNTYPE
380
     0
  9
$PSTYLEMODE
290
     1
  9
$FINGERPRINTGUID
  2
{1B2FD4D4-F4CD-EE4D-BFBA-73979ECABC7F}
  9
$VERSIONGUID
  2
{DA3B6187-5CD8-1B4F-A5BA-D99450FC3DDE}
  9
$EXTNAMES
290
     1
  9
$PSVPSCALE
 40
0.0
  9
$OLESTARTUP
290
     0
  9
$SORTENTS
280
   127
  9
$INDEXCTL
280
     0
  9
$HIDETEXT
280
     1
  9
$XCLIPFRAME
280
     2
  9
$HALOGAP
280
     0
  9
$OBSCOLOR
 70
   257
  9
$OBSLTYPE
280
     0
  9
$INTERSECTIONDISPLAY
280
     0
  9
$INTERSECTIONCOLOR
 70
   257
  9
$DIMASSOC
280
     2
  9
$PROJECTNAME
  1

  9
$CAMERADISPLAY
290
     0
  9
$LENSLENGTH
 40
50.0
  9
$CAMERAHEIGHT
 40
0.0
  9
$STEPSPERSEC
 40
2.0
  9
$STEPSIZE
 40
6.0
  9
$3DDWFPREC
 40
2.0
  9
$PSOLWIDTH
 40
0.25
  9
$PSOLHEIGHT
 40
4.0
  9
$LOFTANG1
 40
1.570796
  9
$LOFTANG2
 40
1.570796
  9
$LOFTMAG1
 40
0.0
  9
$LOFTMAG2
 40
0.0
  9
$LOFTPARAM
 70
     7
  9
$LOFTNORMALS
280
     1
  9
$LATITUDE
 40
37.795
  9
$LONGITUDE
 40
-122.394
  9
$NORTHDIRECTION
 40
0.0
  9
$TIMEZONE
 70
 -8000
  9
$LIGHTGLYPHDISPLAY
280
     1
  9
$TILEMODELIGHTSYNCH
280
     1
  9
$CMATERIAL
347
11
  9
$SOLIDHIST
280
     0
  9
$SHOWHIST
280
     1
  9
$DWFFRAME
280
     2
  9
$DGNFRAME
280
     0
  9
$REALWORLDSCALE
290
     1
  9
$INTERFERECOLOR
 62
     1
  9
$INTERFEREOBJVS
345
33
  9
$INTERFEREVPVS
346
30
  9
$CSHADOW
280
     0
  9
$SHADOWPLANELOCATION
 40
0.0
  0
ENDSEC
  0
SECTION
  2
CLASSES
  0
CLASS
  1
ACDBDICTIONARYWDFLT
  2
AcDbDictionaryWithDefault
  3
ObjectDBX Classes
 90
        0
 91
        1
280
     0
281
     0
  0
CLASS
  1
MATERIAL
  2
AcDbMaterial
  3
ObjectDBX Classes
 90
     1153
 91
        3
280
     0
281
     0
  0
CLASS
  1
VISUALSTYLE
  2
AcDbVisualStyle
  3
ObjectDBX Classes
 90
     4095
 91
       24
280
     0
281
     0
  0
CLASS
  1
SCALE
  2
AcDbScale
  3
ObjectDBX Classes
 90
     1153
 91
       33
280
     0
281
     0
  0
CLASS
  1
TABLESTYLE
  2
AcDbTableStyle
  3
ObjectDBX Classes
 90
     4095
 91
        1
280
     0
281
     0
  0
CLASS
  1
MLEADERSTYLE
  2
AcDbMLeaderStyle
  3
ACDB_MLEADERSTYLE_CLASS
 90
     4095
 91
        1
280
     0
281
     0
  0
CLASS
  1
ACDBSECTIONVIEWSTYLE
  2
AcDbSectionViewStyle
  3
ObjectDBX Classes
 90
     1025
 91
        1
280
     0
281
     0
  0
CLASS
  1
ACDBDETAILVIEWSTYLE
  2
AcDbDetailViewStyle
  3
ObjectDBX Classes
 90
     1025
 91
        1
280
     0
281
     0
  0
CLASS
  1
ACMESCOPE
  2
AcMeScope
  3
AcMeServices
 90
     1024
 91
        1
280
     0
281
     0
  0
CLASS
  1
ACMECOMMANDHISTORY
  2
AcMeCommandHistory
  3
AcMeServices
 90
     1024
 91
        1
280
     0
281
     0
  0
CLASS
  1
ACIMSYSVARMAN
  2
AcImSysVarManager
  3
AcMeServices
 90
     1024
 91
        1
280
     0
281
     0
  0
CLASS
  1
ACIMINTSYSVAR
  2
AcImIntSysVar
  3
AcMeServices
 90
     1024
 91
        1
280
     0
281
     0
  0
CLASS
  1
ACMESTATEMGR
  2
AcMeStateMgr
  3
AcMeServices
 90
     1024
 91
        1
280
     0
281
     0
  0
CLASS
  1
ACGREFMASTER
  2
AcGrefMaster
  3
AcAttribServices
 90
     1024
 91
        1
280
     0
281
     0
  0
CLASS
  1
SORTENTSTABLE
  2
AcDbSortentsTable
  3
ObjectDBX Classes
 90
        0
 91
        6
280
     0
281
     0
  0
CLASS
  1
IMAGE
  2
AcDbRasterImage
  3
ISM
 90
     2175
 91
        1
280
     0
281
     1
  0
CLASS
  1
IMAGEDEF
  2
AcDbRasterImageDef
  3
ISM
 90
        0
 91
        1
280
     0
281
     0
  0
CLASS
  1
IMAGEDEF_REACTOR
  2
AcDbRasterImageDefReactor
  3
ISM
 90
        1
 91
        2
280
     0
281
     0
  0
CLASS
  1
RASTERVARIABLES
  2
AcDbRasterVariables
  3
ISM
 90
        0
 91
        1
280
     0
281
     0
  0
CLASS
  1
MULTILEADER
  2
AcDbMLeader
  3
ACDB_MLEADER_CLASS
 90
     1025
 91
        1
280
     0
281
     1
  0
CLASS
  1
DICTIONARYVAR
  2
AcDbDictionaryVar
  3
ObjectDBX Classes
 90
        0
 91
        6
280
     0
281
     0
  0
CLASS
  1
CELLSTYLEMAP
  2
AcDbCellStyleMap
  3
ObjectDBX Classes
 90
     1152
 91
        1
280
     0
281
     0
  0
ENDSEC
  0
SECTION
  2
TABLES
  0
TABLE
  2
VPORT
  5
8
330
0
100
AcDbSymbolTable
 70
     1
1001
ACAD
1000
DbSaveVer
1071
      251
  0
VPORT
  5
57
330
8
100
AcDbSymbolTableRecord
100
AcDbViewportTableRecord
  2
*Active
 70
     0
 10
0.0
 20
0.0
 11
1.0
 21
1.0
 12
8.5
 22
5.5
 13
0.0
 23
0.0
 14
0.5
 24
0.5
 15
0.0
 25
0.0
 16
0.0
 26
0.0
 36
1.0
 17
0.0
 27
0.0
 37
0.0
 40
11.0
 41
1.780516
 42
50.0
 43
0.0
 44
0.0
 50
0.0
 51
0.0
 71
     0
 72
 20000
 73
     1
 74
     0
 75
     0
 76
     0
 77
     0
 78
     0
281
     0
 65
     1
110
0.0
120
0.0
130
0.0
111
1.0
121
0.0
131
0.0
112
0.0
122
1.0
132
0.0
 79
     0
146
0.0
348
2F
 60
     3
 61
     5
292
     1
282
     1
141
0.0
142
0.0
 63
   250
421
  3355443
  0
ENDTAB
  0
TABLE
  2
LTYPE
  5
5
330
0
100
AcDbSymbolTable
 70
    11
  0
LTYPE
  5
5B
330
5
100
AcDbSymbolTableRecord
100
AcDbLinetypeTableRecord
  2
ByBlock
 70
     0
  3

 72
    65
 73
     0
 40
0.0
  0
LTYPE
  5
5C
330
5
100
AcDbSymbolTableRecord
100
AcDbLinetypeTableRecord
  2
ByLayer
 70
     0
  3

 72
    65
 73
     0
 40
0.0
  0
LTYPE
  5
5D
330
5
100
AcDbSymbolTableRecord
100
AcDbLinetypeTableRecord
  2
Continuous
 70
     0
  3
Solid line
 72
    65
 73
     0
 40
0.0
  0
LTYPE
  5
81
330
5
100
AcDbSymbolTableRecord
100
AcDbLinetypeTableRecord
  2
HIDDEN
 70
     0
  3
Hidden __ __ __ __ __ __ __ __ __ __ __ __ __ _
 72
    65
 73
     2
 40
0.375
 49
0.25
 74
     0
 49
-0.125
 74
     0
  0
LTYPE
  5
82
330
5
100
AcDbSymbolTableRecord
100
AcDbLinetypeTableRecord
  2
PHANTOM2
 70
     0
  3
Phantom (.5x) ___ _ _ ___ _ _ ___ _ _ ___ _ _
 72
    65
 73
     6
 40
1.25
 49
0.625
 74
     0
 49
-0.125
 74
     0
 49
0.125
 74
     0
 49
-0.125
 74
     0
 49
0.125
 74
     0
 49
-0.125
 74
     0
  0
LTYPE
  5
83
330
5
100
AcDbSymbolTableRecord
100
AcDbLinetypeTableRecord
  2
CENTER
 70
     0
  3
Center ____ _ ____ _ ____ _ ____ _ ____ _ ____
 72
    65
 73
     4
 40
2.0
 49
1.25
 74
     0
 49
-0.25
 74
     0
 49
0.25
 74
     0
 49
-0.25
 74
     0
  0
LTYPE
  5
9B
330
5
100
AcDbSymbolTableRecord
100
AcDbLinetypeTableRecord
  2
CENTER2
 70
     0
  3
Center (.5x) ___ _ ___ _ ___ _ ___ _ ___ _ ___
 72
    65
 73
     4
 40
1.125
 49
0.75
 74
     0
 49
-0.125
 74
     0
 49
0.125
 74
     0
 49
-0.125
 74
     0
  0
LTYPE
  5
9C
330
5
100
AcDbSymbolTableRecord
100
AcDbLinetypeTableRecord
  2
HIDDEN2
 70
     0
  3
Hidden (.5x) _ _ _ _ _ _ _ _ _ _ _ _ _ _ _ _ _
 72
    65
 73
     2
 40
0.1875
 49
0.125
 74
     0
 49
-0.0625
 74
     0
  0
LTYPE
  5
9D
330
5
100
AcDbSymbolTableRecord
100
AcDbLinetypeTableRecord
  2
Amconstr
 70
     0
  3
_______________________
 72
    65
 73
     2
 40
9999.0
 49
9999.0
 74
     0
 49
0.0
 74
     0
  0
LTYPE
  5
9E
330
5
100
AcDbSymbolTableRecord
100
AcDbLinetypeTableRecord
  2
Amzigzag2
 70
     0
  3
/\/-/\/-/\/-/\/-/\/-/\/
 72
    65
 73
     2
 40
0.4401
 49
0.0001
 74
     4
 75
   136
340
98
 46
0.0016
 50
0.0
 44
0.0
 45
0.0
 49
-0.44
 74
     0
  0
LTYPE
  5
9F
330
5
100
AcDbSymbolTableRecord
100
AcDbLinetypeTableRecord
  2
ACANSTGB
 70
     0
  3
__ . . __ . .
 72
    65
 73
     6
 40
0.354331
 49
0.15748
 74
     0
 49
-0.03937
 74
     0
 49
0.03937
 74
     0
 49
-0.03937
 74
     0
 49
0.03937
 74
     0
 49
-0.03937
 74
     0
  0
LTYPE
  5
A0
330
5
100
AcDbSymbolTableRecord
100
AcDbLinetypeTableRecord
  2
ACANSTGL
 70
     0
  3
_ _ _ _ _
 72
    65
 73
     2
 40
0.11811
 49
0.07874
 74
     0
 49
-0.03937
 74
     0
  0
LTYPE
  5
A1
330
5
100
AcDbSymbolTableRecord
100
AcDbLinetypeTableRecord
  2
ACAD_VIEWBORDER_LINETYPE
 70
     0
  3
Dashed line in view border
 72
    83
 73
     2
 40
0.393701
 49
0.062598
 74
     0
 49
-0.25
 74
     0
1001
ACAD_EXEMPT_FROM_CAD_STANDARDS
1070
     1
  0
ENDTAB
  0
TABLE
  2
LAYER
  5
2
330
0
100
AcDbSymbolTable
 70
    10
  0
LAYER
  5
54
330
2
100
AcDbSymbolTableRecord
100
AcDbLayerTableRecord
  2
0
 70
     0
 62
     7
  6
Continuous
370
    -3
390
F
347
21
348
0
1001
AcAecLayerStandard
1000

1000

  0
LAYER
  5
79
330
2
100
AcDbSymbolTableRecord
100
AcDbLayerTableRecord
  2
Defpoints
 70
     0
 62
     7
  6
Continuous
290
     0
370
    -3
390
F
347
21
348
0
1001
AcAecLayerStandard
1000

1000

  0
LAYER
  5
BB
330
2
100
AcDbSymbolTableRecord
100
AcDbLayerTableRecord
  2
Visible
 70
     0
 62
     7
  6
Continuous
370
    50
390
F
347
21
348
0
  0
LAYER
  5
1B6
330
2
100
AcDbSymbolTableRecord
100
AcDbLayerTableRecord
  2
Titleblock
 70
     0
 62
     7
  6
Continuous
370
    -3
390
F
347
21
348
0
1001
AcAecLayerStandard
1000

1000

1001
AcCmTransparency
1071
        0
  0
LAYER
  5
1DB
330
2
100
AcDbSymbolTableRecord
100
AcDbLayerTableRecord
  2
Border
 70
     0
 62
     7
  6
Continuous
370
    -3
390
F
347
21
348
0
1001
AcAecLayerStandard
1000

1000

1001
AcCmTransparency
1071
        0
  0
LAYER
  5
1FC
330
2
100
AcDbSymbolTableRecord
100
AcDbLayerTableRecord
  2
Dimensions
 70
     0
 62
     7
  6
Continuous
370
    25
390
F
347
21
348
0
  0
LAYER
  5
2A8
330
2
100
AcDbSymbolTableRecord
100
AcDbLayerTableRecord
  2
Annotations
 70
     0
 62
     7
  6
Continuous
370
    25
390
F
347
21
348
0
  0
ENDTAB
  0
TABLE
  2
STYLE
  5
3
330
0
100
AcDbSymbolTable
 70
     4
  0
STYLE
  5
55
330
3
100
AcDbSymbolTableRecord
100
AcDbTextStyleTableRecord
  2
Standard
 70
     0
 40
0.0
 41
1.0
 50
0.0
 71
     0
 42
0.12
  3
arial.ttf
  4

1001
ACAD
1000
Arial
1071
       34
  0
STYLE
  5
5A
330
3
100
AcDbSymbolTableRecord
100
AcDbTextStyleTableRecord
  2
Annotative
 70
     0
 40
0.0
 41
1.0
 50
0.0
 71
     0
 42
0.2
  3
txt
  4

1001
AcadAnnotative
1000
AnnotativeData
1002
{
1070
     1
1070
     1
1002
}
  0
STYLE
  5
98
330
3
100
AcDbSymbolTableRecord
100
AcDbTextStyleTableRecord
  2

 70
     1
 40
0.0
 41
1.0
 50
0.0
 71
     0
 42
0.12
  3
genltshp.shx
  4

  0
STYLE
  5
99
330
3
100
AcDbSymbolTableRecord
100
AcDbTextStyleTableRecord
  2
ACANSGDT
 70
     0
 40
0.0
 41
1.0
 50
0.0
 71
     0
 42
0.12
  3
amgdt.shx
  4

  0
ENDTAB
  0
TABLE
  2
VIEW
  5
6
330
0
100
AcDbSymbolTable
 70
     0
  0
ENDTAB
  0
TABLE
  2
UCS
  5
7
330
0
100
AcDbSymbolTable
 70
     0
  0
ENDTAB
  0
TABLE
  2
APPID
  5
9
330
0
100
AcDbSymbolTable
 70
    25
  0
APPID
  5
56
330
9
100
AcDbSymbolTableRecord
100
AcDbRegAppTableRecord
  2
ACAD
 70
     0
  0
APPID
  5
5E
330
9
100
AcDbSymbolTableRecord
100
AcDbRegAppTableRecord
  2
AcadAnnotative
 70
     0
  0
APPID
  5
78
330
9
100
AcDbSymbolTableRecord
100
AcDbRegAppTableRecord
  2
ACAD_PSEXT
 70
     0
  0
APPID
  5
7A
330
9
100
AcDbSymbolTableRecord
100
AcDbRegAppTableRecord
  2
MCAD_NO_VIS
 70
     0
  0
APPID
  5
7B
330
9
100
AcDbSymbolTableRecord
100
AcDbRegAppTableRecord
  2
ACAD_TEMP_GRAPHIC
 70
     0
  0
APPID
  5
84
330
9
100
AcDbSymbolTableRecord
100
AcDbRegAppTableRecord
  2
ACAD_DSTYLE_DIMJAG
 70
     0
  0
APPID
  5
85
330
9
100
AcDbSymbolTableRecord
100
AcDbRegAppTableRecord
  2
ACAD_DSTYLE_DIMTALN
 70
     0
  0
APPID
  5
86
330
9
100
AcDbSymbolTableRecord
100
AcDbRegAppTableRecord
  2
ACAD_NAV_VCDISPLAY
 70
     0
  0
APPID
  5
87
330
9
100
AcDbSymbolTableRecord
100
AcDbRegAppTableRecord
  2
AcAecLayerStandard
 70
     0
  0
APPID
  5
88
330
9
100
AcDbSymbolTableRecord
100
AcDbRegAppTableRecord
  2
AcCmTransparency
 70
     0
  0
APPID
  5
89
330
9
100
AcDbSymbolTableRecord
100
AcDbRegAppTableRecord
  2
ACAD_EXEMPT_FROM_CAD_STANDARDS
 70
     0
  0
APPID
  5
8A
330
9
100
AcDbSymbolTableRecord
100
AcDbRegAppTableRecord
  2
ACAD_DSTYLE_DIMBREAK
 70
     0
  0
APPID
  5
8B
330
9
100
AcDbSymbolTableRecord
100
AcDbRegAppTableRecord
  2
ACAD_DSTYLE_DIMRADIAL_EXTENSION
 70
     0
  0
APPID
  5
8C
330
9
100
AcDbSymbolTableRecord
100
AcDbRegAppTableRecord
  2
FUSIONTITLEBLOCK
 70
     0
  0
APPID
  5
8D
330
9
100
AcDbSymbolTableRecord
100
AcDbRegAppTableRecord
  2
FUSIONCURRENTTITLEBLOCK
 70
     0
  0
APPID
  5
8E
330
9
100
AcDbSymbolTableRecord
100
AcDbRegAppTableRecord
  2
AcSynergy
 70
     0
  0
APPID
  5
8F
330
9
100
AcDbSymbolTableRecord
100
AcDbRegAppTableRecord
  2
ACAD_VIEW_EDGE_ID
 70
     0
  0
APPID
  5
90
330
9
100
AcDbSymbolTableRecord
100
AcDbRegAppTableRecord
  2
GENIUS_GENSCREG_15
 70
     0
  0
APPID
  5
91
330
9
100
AcDbSymbolTableRecord
100
AcDbRegAppTableRecord
  2
GENIUS_GENOBJ-N-SDF_13
 70
     0
  0
APPID
  5
92
330
9
100
AcDbSymbolTableRecord
100
AcDbRegAppTableRecord
  2
GENIUS_GENODEF_13
 70
     0
  0
APPID
  5
93
330
9
100
AcDbSymbolTableRecord
100
AcDbRegAppTableRecord
  2
ACAD_DIMASSOC_CALC_DIMLFAC
 70
     0
  0
APPID
  5
94
330
9
100
AcDbSymbolTableRecord
100
AcDbRegAppTableRecord
  2
ACAD_DIMASSOC_DIMLFAC
 70
     0
  0
APPID
  5
95
330
9
100
AcDbSymbolTableRecord
100
AcDbRegAppTableRecord
  2
ACAD_DIMASSOC_OVERRIDDEN_DIMLFAC
 70
     0
  0
APPID
  5
96
330
9
100
AcDbSymbolTableRecord
100
AcDbRegAppTableRecord
  2
FD_ATT_APPNAME
 70
     0
  0
APPID
  5
97
330
9
100
AcDbSymbolTableRecord
100
AcDbRegAppTableRecord
  2
ACATTRIBSERVICES
 70
     0
  0
ENDTAB
  0
TABLE
  2
DIMSTYLE
  5
A
330
0
100
AcDbSymbolTable
 70
     2
100
AcDbDimStyleTable
 71
     1
340
58
  0
DIMSTYLE
105
58
102
{ACAD_REACTORS
330
250
330
25A
330
264
330
26E
330
27C
330
28A
330
298
330
1FB
330
20A
330
218
330
226
330
234
330
242
102
}
330
A
100
AcDbSymbolTableRecord
100
AcDbDimStyleTableRecord
  2
Standard
 70
     0
  3
in
  4
mm
 41
0.12
 42
0.05
 43
0.339411
 44
0.1
 47
0.01
 48
0.01
 78
    12
 79
     3
 90
     1
140
0.12
141
0.0
147
0.06
176
   256
177
   256
178
   256
179
     2
271
     2
272
     2
284
    12
285
    12
286
    12
340
55
  0
DIMSTYLE
105
59
330
A
100
AcDbSymbolTableRecord
100
AcDbDimStyleTableRecord
  2
Annotative
 70
     0
  3
in
 40
0.0
 43
0.339411
 78
    12
 79
     3
140
0.12
179
     2
271
     2
272
     2
284
    12
285
    12
286
    12
340
55
1001
AcadAnnotative
1000
AnnotativeData
1002
{
1070
     1
1070
     1
1002
}
  0
ENDTAB
  0
TABLE
  2
BLOCK_RECORD
  5
1
330
0
100
AcDbSymbolTable
 70
    32
  0
BLOCK_RECORD
  5
70
102
{ACAD_XDICTIONARY
360
B4
102
}
330
1
100
AcDbSymbolTableRecord
100
AcDbBlockTableRecord
  2
*Model_Space
340
73
 70
     0
280
     1
281
     0
  0
BLOCK_RECORD
  5
6C
330
1
100
AcDbSymbolTableRecord
100
AcDbBlockTableRecord
  2
*Paper_Space
340
6F
 70
     0
280
     1
281
     0
  0
BLOCK_RECORD
  5
74
330
1
100
AcDbSymbolTableRecord
100
AcDbBlockTableRecord
  2
*Paper_Space0
340
77
 70
     0
280
     1
281
     0
  0
BLOCK_RECORD
  5
1B7
102
{ACAD_XDICTIONARY
360
1B8
102
}
330
1
100
AcDbSymbolTableRecord
100
AcDbBlockTableRecord
  2
Shower
340
0
102
{BLKREFS
331
1B5
102
}
 70
     1
280
     1
281
     0
1001
FUSIONTITLEBLOCK
1000
TitleBlock
  0
BLOCK_RECORD
  5
1DC
330
1
100
AcDbSymbolTableRecord
100
AcDbBlockTableRecord
  2
ANSI_B_SHEET
340
0
310
2800000020000000200000000100080000000000000400000000000000000000000000000000000000000000000080000080000000808000800000008000800080800000C0C0C000C0DCC000F0CAA6000020400000206000002080000020A0000020C0000020E00000400000004020000040400000406000004080000040A0
310
000040C0000040E00000600000006020000060400000606000006080000060A0000060C0000060E00000800000008020000080400000806000008080000080A0000080C0000080E00000A0000000A0200000A0400000A0600000A0800000A0A00000A0C00000A0E00000C0000000C0200000C0400000C0600000C0800000C0
310
A00000C0C00000C0E00000E0000000E0200000E0400000E0600000E0800000E0A00000E0C00000E0E00040000000400020004000400040006000400080004000A0004000C0004000E00040200000402020004020400040206000402080004020A0004020C0004020E000404000004040200040404000404060004040800040
310
40A0004040C0004040E00040600000406020004060400040606000406080004060A0004060C0004060E00040800000408020004080400040806000408080004080A0004080C0004080E00040A0000040A0200040A0400040A0600040A0800040A0A00040A0C00040A0E00040C0000040C0200040C0400040C0600040C08000
310
40C0A00040C0C00040C0E00040E0000040E0200040E0400040E0600040E0800040E0A00040E0C00040E0E00080000000800020008000400080006000800080008000A0008000C0008000E00080200000802020008020400080206000802080008020A0008020C0008020E00080400000804020008040400080406000804080
310
008040A0008040C0008040E00080600000806020008060400080606000806080008060A0008060C0008060E00080800000808020008080400080806000808080008080A0008080C0008080E00080A0000080A0200080A0400080A0600080A0800080A0A00080A0C00080A0E00080C0000080C0200080C0400080C0600080C0
310
800080C0A00080C0C00080C0E00080E0000080E0200080E0400080E0600080E0800080E0A00080E0C00080E0E000C0000000C0002000C0004000C0006000C0008000C000A000C000C000C000E000C0200000C0202000C0204000C0206000C0208000C020A000C020C000C020E000C0400000C0402000C0404000C0406000C0
310
408000C040A000C040C000C040E000C0600000C0602000C0604000C0606000C0608000C060A000C060C000C060E000C0800000C0802000C0804000C0806000C0808000C080A000C080C000C080E000C0A00000C0A02000C0A04000C0A06000C0A08000C0A0A000C0A0C000C0A0E000C0C00000C0C02000C0C04000C0C06000
310
C0C08000C0C0A000F0FBFF00A4A0A000808080000000FF0000FF000000FFFF00FF000000FF00FF00FFFF0000FFFFFF0049494949494949494949494949494949494949494949494949494949494949494949494949494949494949494949494949494949494949494949494949494949494949494949494949494949494949
310
494949494949494949494949494949494949494949494949494949494949494949494949494949494949494949494949494949494949494949494949494949494949494949494949494949494949494949494949494949494949494949494949494949494949494949494949494949494949FFFF4949494949494949494949
310
494949494949494949494949494949FFFF4949FFFFFFFFFFFFFFFFFFFFFFFFFFFFFFFFFFFFFFFFFFFFFFFFFFFFFFFFFFFF494949FF4949494949494949494949494949494949494949494949494949FF49494949FF4949494949494949494949494949494949494949494949494949FF49494949FF49494949494949494949
310
49494949494949494949494949494949FF49494949FF4949494949494949494949494949494949494949494949494949FF49494949FF4949494949494949494949494949494949494949494949494949FF49494949FF4949494949494949494949494949494949494949494949494949FF49494949FF494949494949494949
310
4949494949494949494949494949494949FF49494949FF4949494949494949494949494949494949494949494949494949FF49494949FF4949494949494949494949494949494949494949494949494949FF49494949FF4949494949494949494949494949494949494949494949494949FF49494949FF4949494949494949
310
494949494949494949494949494949494949FF49494949FF4949494949494949494949494949494949494949494949494949FF49494949FF4949494949494949494949494949494949494949494949494949FF49494949FF4949494949494949494949494949494949494949494949494949FF49494949FF49494949494949
310
49494949494949494949494949494949494949FF49494949FF4949494949494949494949494949494949494949494949494949FF494949FFFFFFFFFFFFFFFFFFFFFFFFFFFFFFFFFFFFFFFFFFFFFFFFFFFFFFFFFFFF4949FFFF4949494949494949494949494949494949494949494949494949FFFF49494949494949494949
310
49494949494949494949494949494949494949494949494949494949494949494949494949494949494949494949494949494949494949494949494949494949494949494949494949494949494949494949494949494949494949494949494949494949494949494949494949494949494949494949494949494949494949
310
4949494949494949494949494949494949494949494949494949494949494949494949494949494949494949494949494949494949494949
102
{BLKREFS
331
1DA
102
}
 70
     1
280
     1
281
     0
  0
BLOCK_RECORD
  5
1FD
330
1
100
AcDbSymbolTableRecord
100
AcDbBlockTableRecord
  2
*D6
340
0
 70
     0
280
     1
281
     0
  0
BLOCK_RECORD
  5
20B
330
1
100
AcDbSymbolTableRecord
100
AcDbBlockTableRecord
  2
*D7
340
0
 70
     0
280
     1
281
     0
  0
BLOCK_RECORD
  5
219
330
1
100
AcDbSymbolTableRecord
100
AcDbBlockTableRecord
  2
*D8
340
0
 70
     0
280
     1
281
     0
  0
BLOCK_RECORD
  5
227
330
1
100
AcDbSymbolTableRecord
100
AcDbBlockTableRecord
  2
*D9
340
0
 70
     0
280
     1
281
     0
  0
BLOCK_RECORD
  5
235
330
1
100
AcDbSymbolTableRecord
100
AcDbBlockTableRecord
  2
*D10
340
0
 70
     0
280
     1
281
     0
  0
BLOCK_RECORD
  5
243
330
1
100
AcDbSymbolTableRecord
100
AcDbBlockTableRecord
  2
*D11
340
0
 70
     0
280
     1
281
     0
  0
BLOCK_RECORD
  5
251
330
1
100
AcDbSymbolTableRecord
100
AcDbBlockTableRecord
  2
*D12
340
0
 70
     0
280
     1
281
     0
  0
BLOCK_RECORD
  5
25B
330
1
100
AcDbSymbolTableRecord
100
AcDbBlockTableRecord
  2
*D13
340
0
 70
     0
280
     1
281
     0
  0
BLOCK_RECORD
  5
265
330
1
100
AcDbSymbolTableRecord
100
AcDbBlockTableRecord
  2
*D14
340
0
 70
     0
280
     1
281
     0
  0
BLOCK_RECORD
  5
26F
330
1
100
AcDbSymbolTableRecord
100
AcDbBlockTableRecord
  2
*D15
340
0
 70
     0
280
     1
281
     0
  0
BLOCK_RECORD
  5
27D
330
1
100
AcDbSymbolTableRecord
100
AcDbBlockTableRecord
  2
*D16
340
0
 70
     0
280
     1
281
     0
  0
BLOCK_RECORD
  5
28B
330
1
100
AcDbSymbolTableRecord
100
AcDbBlockTableRecord
  2
*D17
340
0
 70
     0
280
     1
281
     0
  0
BLOCK_RECORD
  5
299
330
1
100
AcDbSymbolTableRecord
100
AcDbBlockTableRecord
  2
*D18
340
0
 70
     0
280
     1
281
     0
  0
BLOCK_RECORD
  5
2AA
330
1
100
AcDbSymbolTableRecord
100
AcDbBlockTableRecord
  2
*D19
340
0
 70
     0
280
     1
281
     0
  0
BLOCK_RECORD
  5
2B7
330
1
100
AcDbSymbolTableRecord
100
AcDbBlockTableRecord
  2
*D20
340
0
 70
     0
280
     1
281
     0
  0
BLOCK_RECORD
  5
2C4
330
1
100
AcDbSymbolTableRecord
100
AcDbBlockTableRecord
  2
*D21
340
0
 70
     0
280
     1
281
     0
  0
BLOCK_RECORD
  5
2D1
330
1
100
AcDbSymbolTableRecord
100
AcDbBlockTableRecord
  2
*D22
340
0
 70
     0
280
     1
281
     0
  0
BLOCK_RECORD
  5
2DE
330
1
100
AcDbSymbolTableRecord
100
AcDbBlockTableRecord
  2
*D23
340
0
 70
     0
280
     1
281
     0
  0
BLOCK_RECORD
  5
2EB
330
1
100
AcDbSymbolTableRecord
100
AcDbBlockTableRecord
  2
*D24
340
0
 70
     0
280
     1
281
     0
  0
BLOCK_RECORD
  5
2F8
330
1
100
AcDbSymbolTableRecord
100
AcDbBlockTableRecord
  2
*D25
340
0
 70
     0
280
     1
281
     0
  0
BLOCK_RECORD
  5
301
330
1
100
AcDbSymbolTableRecord
100
AcDbBlockTableRecord
  2
*D26
340
0
 70
     0
280
     1
281
     0
  0
BLOCK_RECORD
  5
30A
330
1
100
AcDbSymbolTableRecord
100
AcDbBlockTableRecord
  2
*D27
340
0
 70
     0
280
     1
281
     0
  0
BLOCK_RECORD
  5
313
330
1
100
AcDbSymbolTableRecord
100
AcDbBlockTableRecord
  2
*D28
340
0
 70
     0
280
     1
281
     0
  0
BLOCK_RECORD
  5
320
330
1
100
AcDbSymbolTableRecord
100
AcDbBlockTableRecord
  2
*D29
340
0
 70
     0
280
     1
281
     0
  0
BLOCK_RECORD
  5
32D
330
1
100
AcDbSymbolTableRecord
100
AcDbBlockTableRecord
  2
*D30
340
0
 70
     0
280
     1
281
     0
  0
BLOCK_RECORD
  5
33A
330
1
100
AcDbSymbolTableRecord
100
AcDbBlockTableRecord
  2
*D31
340
0
 70
     0
280
     1
281
     0
  0
ENDTAB
  0
ENDSEC
  0
SECTION
  2
BLOCKS
  0
BLOCK
  5
71
330
70
100
AcDbEntity
  8
0
100
AcDbBlockBegin
  2
*Model_Space
 70
     0
 10
0.0
 20
0.0
 30
0.0
  3
*Model_Space
  1

  0
ENDBLK
  5
72
330
70
100
AcDbEntity
  8
0
100
AcDbBlockEnd
  0
BLOCK
  5
6D
330
6C
100
AcDbEntity
 67
     1
  8
0
100
AcDbBlockBegin
  2
*Paper_Space
 70
     0
 10
0.0
 20
0.0
 30
0.0
  3
*Paper_Space
  1

  0
ENDBLK
  5
6E
330
6C
100
AcDbEntity
 67
     1
  8
0
100
AcDbBlockEnd
  0
BLOCK
  5
75
330
74
100
AcDbEntity
 67
     1
  8
0
100
AcDbBlockBegin
  2
*Paper_Space0
 70
     0
 10
0.0
 20
0.0
 30
0.0
  3
*Paper_Space0
  1

  0
ENDBLK
  5
76
330
74
100
AcDbEntity
 67
     1
  8
0
100
AcDbBlockEnd
  0
BLOCK
  5
1BA
330
1B7
100
AcDbEntity
  8
0
100
AcDbBlockBegin
  2
Shower
 70
     2
 10
0.0
 20
0.0
 30
0.0
  3
Shower
  1

  0
LWPOLYLINE
  5
1BB
330
1B7
100
AcDbEntity
  8
Titleblock
100
AcDbPolyline
 90
        4
 70
     1
 43
0.0
 10
0.0
 20
0.0
 10
-4.9375
 20
0.0
 10
-4.9375
 20
2.5
 10
0.0
 20
2.5
  0
IMAGE
  5
1BC
330
1B7
100
AcDbEntity
  8
Titleblock
  6
Continuous
160
               140
310
8C0000000100000084000000060000000500000000000000008013C000B87FA8928AB03F000000000000000000000000008013C035B4911D6523F03F000000000000000001000000008001C035B4911D6523F03F000000000000000001000000008001C000B87FA8928AB03F000000000000000000000000008013C000B87F
310
A8928AB03F0000000000000000
370
     0
100
AcDbRasterImage
 90
        0
 10
-4.875
 20
0.064614
 30
0.0
 11
0.0028349156118143
 21
0.0
 31
0.0
 12
0.0
 22
0.0028349156118143
 32
0.0
 13
948.0
 23
333.0
340
1BD
 70
    15
280
     0
281
    50
282
    50
283
     0
290
     0
360
1BF
 71
     1
 91
        2
 14
-0.5
 24
-0.5
 14
947.5
 24
332.5
  0
LWPOLYLINE
  5
1C1
330
1B7
100
AcDbEntity
  8
Titleblock
  6
Continuous
370
    25
100
AcDbPolyline
 90
        4
 70
     1
 43
0.0
 10
0.0
 20
1.0625
 10
-4.9375
 20
1.061638
 10
-4.9375
 20
0.0
 10
0.0
 20
0.0
  0
LWPOLYLINE
  5
1C2
330
1B7
100
AcDbEntity
  8
Titleblock
  6
Continuous
370
    25
100
AcDbPolyline
 90
        4
 70
     1
 43
0.0
 10
-1.75
 20
2.5
 10
0.0
 20
2.5
 10
0.0
 20
2.5
 10
-1.75
 20
2.5
  0
ATTDEF
  5
1C3
330
1B7
100
AcDbEntity
  8
Titleblock
  6
Continuous
370
    25
100
AcDbText
 10
-3.6875
 20
2.3125
 30
0.0
 40
0.12
  1

100
AcDbAttributeDefinition
280
     0
  3

  2
PROJECT
 70
     0
280
     1
  0
MTEXT
  5
1C4
330
1B7
100
AcDbEntity
  8
Titleblock
  6
Continuous
370
    25
100
AcDbMText
 10
-4.875
 20
1.653875
 30
0.0
 40
0.12
 41
0.6875
 46
0.0
 71
     1
 72
     5
  1
Description:
 73
     1
 44
1.0
1001
ACAD
1000
ACAD_MTEXT_COLUMN_INFO_BEGIN
1070
    75
1070
     2
1070
    79
1070
     0
1070
    76
1070
     1
1070
    78
1070
     0
1070
    48
1040
0.6875
1070
    49
1040
0.6
1070
    50
1070
     1
1040
0.0
1000
ACAD_MTEXT_COLUMN_INFO_END
  0
ATTDEF
  5
1C5
330
1B7
100
AcDbEntity
  8
Titleblock
  6
Continuous
370
    25
100
AcDbText
 10
-1.6875
 20
0.6875
 30
0.0
 40
0.12
  1

100
AcDbAttributeDefinition
280
     0
  3

  2
DRAWN_DATE
 70
     0
280
     1
  0
ATTDEF
  5
1C6
330
1B7
100
AcDbEntity
  8
Titleblock
  6
Continuous
370
    25
100
AcDbText
 10
-4.3125
 20
1.8125
 30
0.0
 40
0.3048
  1

100
AcDbAttributeDefinition
280
     0
  3

  2
TITLE_1
 70
     0
280
     1
  0
ATTDEF
  5
1C7
330
1B7
100
AcDbEntity
  8
Titleblock
  6
Continuous
370
    25
100
AcDbText
 10
-1.6875
 20
0.91994
 30
0.0
 40
0.12
  1

100
AcDbAttributeDefinition
280
     0
  3

  2
SCALE
 70
     0
280
     1
  0
LWPOLYLINE
  5
1C8
330
1B7
100
AcDbEntity
  8
Titleblock
  6
Continuous
370
    25
100
AcDbPolyline
 90
        4
 70
     1
 43
0.0
 10
0.0
 20
1.0625
 10
0.0
 20
1.0625
 10
0.0
 20
0.0
 10
0.0
 20
0.0
  0
LWPOLYLINE
  5
1C9
330
1B7
100
AcDbEntity
  8
Titleblock
  6
Continuous
370
    25
100
AcDbPolyline
 90
        4
 70
     1
 43
0.0
 10
0.0
 20
1.0625
 10
0.0
 20
1.0625
 10
0.0
 20
0.0
 10
0.0
 20
0.0
  0
LINE
  5
1CA
330
1B7
100
AcDbEntity
  8
Titleblock
  6
Continuous
370
    25
100
AcDbLine
 10
-2.125
 20
1.062165
 30
0.0
 11
-2.125
 21
0.0
 31
0.0
  0
LWPOLYLINE
  5
1CB
330
1B7
100
AcDbEntity
  8
Titleblock
  6
Continuous
370
    25
100
AcDbPolyline
 90
        4
 70
     1
 43
0.0
 10
-4.9375
 20
2.5
 10
0.0
 20
2.5
 10
0.0
 20
2.5
 10
-4.9375
 20
2.5
  0
LINE
  5
1CC
330
1B7
100
AcDbEntity
  8
Titleblock
  6
Continuous
370
    25
100
AcDbLine
 10
-4.9375
 20
2.25
 30
0.0
 11
0.0
 21
2.25
 31
0.0
  0
LINE
  5
1CD
330
1B7
100
AcDbEntity
  8
Titleblock
  6
Continuous
370
    25
100
AcDbLine
 10
-4.9375
 20
1.6875
 30
0.0
 11
0.0
 21
1.6875
 31
0.0
  0
MTEXT
  5
1CE
330
1B7
100
AcDbEntity
  8
Titleblock
100
AcDbMText
 10
-4.875
 20
2.467284
 30
0.0
 40
0.12
 41
0.375
 46
0.0
 71
     1
 72
     5
  1
Project:
 73
     1
 44
1.0
1001
ACAD
1000
ACAD_MTEXT_COLUMN_INFO_BEGIN
1070
    75
1070
     2
1070
    79
1070
     0
1070
    76
1070
     1
1070
    78
1070
     0
1070
    48
1040
0.375
1070
    49
1040
0.6
1070
    50
1070
     1
1040
0.0
1000
ACAD_MTEXT_COLUMN_INFO_END
  0
MTEXT
  5
1CF
330
1B7
100
AcDbEntity
  8
Titleblock
100
AcDbMText
 10
-2.0625
 20
1.045477
 30
0.0
 40
0.075
 41
0.375
 46
0.0
 71
     1
 72
     5
  1
Scale:
 73
     1
 44
1.0
1001
ACAD
1000
ACAD_MTEXT_COLUMN_INFO_BEGIN
1070
    75
1070
     2
1070
    79
1070
     0
1070
    76
1070
     1
1070
    78
1070
     0
1070
    48
1040
0.375
1070
    49
1040
0.6
1070
    50
1070
     1
1040
0.0
1000
ACAD_MTEXT_COLUMN_INFO_END
  0
MTEXT
  5
1D0
330
1B7
100
AcDbEntity
  8
Titleblock
100
AcDbMText
 10
-2.0625
 20
0.857735
 30
0.0
 40
0.075
 41
0.375
 46
0.0
 71
     1
 72
     5
  1
Date Drawn:
 73
     1
 44
1.0
1001
ACAD
1000
ACAD_MTEXT_COLUMN_INFO_BEGIN
1070
    75
1070
     2
1070
    79
1070
     0
1070
    76
1070
     1
1070
    78
1070
     0
1070
    48
1040
0.375
1070
    49
1040
0.6
1070
    50
1070
     1
1040
0.0
1000
ACAD_MTEXT_COLUMN_INFO_END
  0
LINE
  5
1D1
330
1B7
100
AcDbEntity
  8
Titleblock
100
AcDbLine
 10
-2.125
 20
0.875
 30
0.0
 11
0.0
 21
0.875
 31
0.0
  0
LINE
  5
1D2
330
1B7
100
AcDbEntity
  8
Titleblock
100
AcDbLine
 10
-2.125
 20
0.625
 30
0.0
 11
0.0
 21
0.625
 31
0.0
  0
MTEXT
  5
1D3
330
1B7
100
AcDbEntity
  8
Titleblock
100
AcDbMText
 10
-4.875
 20
2.220603
 30
0.0
 40
0.12
 41
0.625
 46
0.0
 71
     1
 72
     5
  1
Title:
 73
     1
 44
1.0
1001
ACAD
1000
ACAD_MTEXT_COLUMN_INFO_BEGIN
1070
    75
1070
     2
1070
    79
1070
     0
1070
    76
1070
     1
1070
    78
1070
     0
1070
    48
1040
0.625
1070
    49
1040
0.6
1070
    50
1070
     1
1040
0.0
1000
ACAD_MTEXT_COLUMN_INFO_END
  0
ENDBLK
  5
1D4
330
1B7
100
AcDbEntity
  8
0
100
AcDbBlockEnd
  0
BLOCK
  5
1DD
330
1DC
100
AcDbEntity
  8
0
100
AcDbBlockBegin
  2
ANSI_B_SHEET
 70
     0
 10
0.0
 20
0.0
 30
0.0
  3
ANSI_B_SHEET
  1

  0
LINE
  5
1DE
330
1DC
100
AcDbEntity
  8
Border
100
AcDbLine
 10
0.0
 20
0.0
 30
0.0
 11
0.5
 21
0.0
 31
0.0
  0
LINE
  5
1DF
330
1DC
100
AcDbEntity
  8
Border
100
AcDbLine
 10
16.5
 20
0.0
 30
0.0
 11
17.0
 21
0.0
 31
0.0
  0
LINE
  5
1E0
330
1DC
100
AcDbEntity
  8
Border
100
AcDbLine
 10
0.62
 20
0.38
 30
0.0
 11
16.38
 21
0.38
 31
0.0
  0
LINE
  5
1E1
330
1DC
100
AcDbEntity
  8
Border
100
AcDbLine
 10
17.0
 20
0.0
 30
0.0
 11
17.0
 21
0.5
 31
0.0
  0
LINE
  5
1E2
330
1DC
100
AcDbEntity
  8
Border
100
AcDbLine
 10
17.0
 20
10.5
 30
0.0
 11
17.0
 21
11.0
 31
0.0
  0
LINE
  5
1E3
330
1DC
100
AcDbEntity
  8
Border
100
AcDbLine
 10
16.38
 20
0.38
 30
0.0
 11
16.38
 21
10.62
 31
0.0
  0
LINE
  5
1E4
330
1DC
100
AcDbEntity
  8
Border
100
AcDbLine
 10
17.0
 20
11.0
 30
0.0
 11
16.5
 21
11.0
 31
0.0
  0
LINE
  5
1E5
330
1DC
100
AcDbEntity
  8
Border
100
AcDbLine
 10
0.5
 20
11.0
 30
0.0
 11
0.0
 21
11.0
 31
0.0
  0
LINE
  5
1E6
330
1DC
100
AcDbEntity
  8
Border
100
AcDbLine
 10
16.38
 20
10.62
 30
0.0
 11
0.62
 21
10.62
 31
0.0
  0
LINE
  5
1E7
330
1DC
100
AcDbEntity
  8
Border
100
AcDbLine
 10
0.0
 20
11.0
 30
0.0
 11
0.0
 21
10.5
 31
0.0
  0
LINE
  5
1E8
330
1DC
100
AcDbEntity
  8
Border
100
AcDbLine
 10
0.0
 20
0.5
 30
0.0
 11
0.0
 21
0.0
 31
0.0
  0
LINE
  5
1E9
330
1DC
100
AcDbEntity
  8
Border
100
AcDbLine
 10
0.62
 20
10.62
 30
0.0
 11
0.62
 21
0.38
 31
0.0
  0
LINE
  5
1EA
330
1DC
100
AcDbEntity
  8
Border
100
AcDbLine
 10
8.413397
 20
0.23
 30
0.0
 11
8.586603
 21
0.23
 31
0.0
  0
LINE
  5
1EB
330
1DC
100
AcDbEntity
  8
Border
100
AcDbLine
 10
8.5
 20
0.38
 30
0.0
 11
8.5
 21
0.13
 31
0.0
  0
LINE
  5
1EC
330
1DC
100
AcDbEntity
  8
Border
100
AcDbLine
 10
8.5
 20
0.38
 30
0.0
 11
8.413397
 21
0.23
 31
0.0
  0
LINE
  5
1ED
330
1DC
100
AcDbEntity
  8
Border
100
AcDbLine
 10
8.5
 20
0.38
 30
0.0
 11
8.586603
 21
0.23
 31
0.0
  0
LINE
  5
1EE
330
1DC
100
AcDbEntity
  8
Border
100
AcDbLine
 10
0.47
 20
5.586603
 30
0.0
 11
0.47
 21
5.413397
 31
0.0
  0
LINE
  5
1EF
330
1DC
100
AcDbEntity
  8
Border
100
AcDbLine
 10
0.62
 20
5.5
 30
0.0
 11
0.37
 21
5.5
 31
0.0
  0
LINE
  5
1F0
330
1DC
100
AcDbEntity
  8
Border
100
AcDbLine
 10
0.62
 20
5.5
 30
0.0
 11
0.47
 21
5.586603
 31
0.0
  0
LINE
  5
1F1
330
1DC
100
AcDbEntity
  8
Border
100
AcDbLine
 10
0.62
 20
5.5
 30
0.0
 11
0.47
 21
5.413397
 31
0.0
  0
LINE
  5
1F2
330
1DC
100
AcDbEntity
  8
Border
100
AcDbLine
 10
16.53
 20
5.586603
 30
0.0
 11
16.53
 21
5.413397
 31
0.0
  0
LINE
  5
1F3
330
1DC
100
AcDbEntity
  8
Border
100
AcDbLine
 10
16.38
 20
5.5
 30
0.0
 11
16.63
 21
5.5
 31
0.0
  0
LINE
  5
1F4
330
1DC
100
AcDbEntity
  8
Border
100
AcDbLine
 10
16.38
 20
5.5
 30
0.0
 11
16.53
 21
5.586603
 31
0.0
  0
LINE
  5
1F5
330
1DC
100
AcDbEntity
  8
Border
100
AcDbLine
 10
16.38
 20
5.5
 30
0.0
 11
16.53
 21
5.413397
 31
0.0
  0
LINE
  5
1F6
330
1DC
100
AcDbEntity
  8
Border
100
AcDbLine
 10
8.413397
 20
10.77
 30
0.0
 11
8.586603
 21
10.77
 31
0.0
  0
LINE
  5
1F7
330
1DC
100
AcDbEntity
  8
Border
100
AcDbLine
 10
8.5
 20
10.62
 30
0.0
 11
8.5
 21
10.87
 31
0.0
  0
LINE
  5
1F8
330
1DC
100
AcDbEntity
  8
Border
100
AcDbLine
 10
8.5
 20
10.62
 30
0.0
 11
8.413397
 21
10.77
 31
0.0
  0
LINE
  5
1F9
330
1DC
100
AcDbEntity
  8
Border
100
AcDbLine
 10
8.5
 20
10.62
 30
0.0
 11
8.586603
 21
10.77
 31
0.0
  0
ENDBLK
  5
1FA
330
1DC
100
AcDbEntity
  8
0
100
AcDbBlockEnd
  0
BLOCK
  5
1FE
330
1FD
100
AcDbEntity
  8
0
100
AcDbBlockBegin
  2
*D6
 70
     1
 10
0.0
 20
0.0
 30
0.0
  3
*D6
  1

  0
LINE
  5
1FF
330
1FD
100
AcDbEntity
  8
Dimensions
440
 16777216
370
    -2
100
AcDbLine
 10
1.456146
 20
5.449288
 30
0.0
 11
1.468967
 21
6.177997
 31
0.0
  0
LINE
  5
200
330
1FD
100
AcDbEntity
  8
Dimensions
440
 16777216
370
    -2
100
AcDbLine
 10
1.692367
 20
5.445132
 30
0.0
 11
1.705188
 21
6.173841
 31
0.0
  0
LINE
  5
201
330
1FD
100
AcDbEntity
  8
Dimensions
440
 16777216
370
    -2
100
AcDbLine
 10
1.347227
 20
6.080124
 30
0.0
 11
1.227245
 21
6.082235
 31
0.0
  0
LINE
  5
202
330
1FD
100
AcDbEntity
  8
Dimensions
440
 16777216
370
    -2
100
AcDbLine
 10
1.82341
 20
6.071746
 30
0.0
 11
1.943391
 21
6.069635
 31
0.0
  0
SOLID
  5
203
330
1FD
100
AcDbEntity
  8
Dimensions
440
 16777216
100
AcDbTrace
 10
1.347579
 20
6.100121
 30
0.0
 11
1.346875
 21
6.060127
 31
0.0
 12
1.467208
 22
6.078013
 32
0.0
 13
1.467208
 23
6.078013
 33
0.0
  0
SOLID
  5
204
330
1FD
100
AcDbEntity
  8
Dimensions
440
 16777216
100
AcDbTrace
 10
1.823762
 20
6.091743
 30
0.0
 11
1.823058
 21
6.051749
 31
0.0
 12
1.703429
 22
6.073857
 32
0.0
 13
1.703429
 23
6.073857
 33
0.0
  0
MTEXT
  5
205
330
1FD
100
AcDbEntity
  8
Dimensions
440
 16777216
100
AcDbMText
 10
2.171768
 20
6.069635
 30
0.0
 40
0.12
 41
0.0
 46
0.0
 71
     5
 72
     1
  1
\A1;.24in
 73
     1
 44
1.0
  0
POINT
  5
206
330
1FD
100
AcDbEntity
  8
Defpoints
 62
     0
440
 16777216
100
AcDbPoint
 10
1.455267
 20
5.399295
 30
0.0
  0
POINT
  5
207
330
1FD
100
AcDbEntity
  8
Defpoints
 62
     0
440
 16777216
100
AcDbPoint
 10
1.691487
 20
5.395139
 30
0.0
  0
POINT
  5
208
330
1FD
100
AcDbEntity
  8
Defpoints
 62
     0
440
 16777216
100
AcDbPoint
 10
1.703429
 20
6.073857
 30
0.0
  0
ENDBLK
  5
209
330
1FD
100
AcDbEntity
  8
0
100
AcDbBlockEnd
  0
BLOCK
  5
20C
330
20B
100
AcDbEntity
  8
0
100
AcDbBlockBegin
  2
*D7
 70
     1
 10
0.0
 20
0.0
 30
0.0
  3
*D7
  1

  0
LINE
  5
20D
330
20B
100
AcDbEntity
  8
Dimensions
440
 16777216
370
    -2
100
AcDbLine
 10
2.447393
 20
5.449295
 30
0.0
 11
2.447393
 21
6.178118
 31
0.0
  0
LINE
  5
20E
330
20B
100
AcDbEntity
  8
Dimensions
440
 16777216
370
    -2
100
AcDbLine
 10
2.644243
 20
5.449295
 30
0.0
 11
2.644243
 21
6.178118
 31
0.0
  0
LINE
  5
20F
330
20B
100
AcDbEntity
  8
Dimensions
440
 16777216
370
    -2
100
AcDbLine
 10
2.327393
 20
6.078118
 30
0.0
 11
2.207393
 21
6.078118
 31
0.0
  0
LINE
  5
210
330
20B
100
AcDbEntity
  8
Dimensions
440
 16777216
370
    -2
100
AcDbLine
 10
2.764243
 20
6.078118
 30
0.0
 11
2.884243
 21
6.078118
 31
0.0
  0
SOLID
  5
211
330
20B
100
AcDbEntity
  8
Dimensions
440
 16777216
100
AcDbTrace
 10
2.327393
 20
6.098118
 30
0.0
 11
2.327393
 21
6.058118
 31
0.0
 12
2.447393
 22
6.078118
 32
0.0
 13
2.447393
 23
6.078118
 33
0.0
  0
SOLID
  5
212
330
20B
100
AcDbEntity
  8
Dimensions
440
 16777216
100
AcDbTrace
 10
2.764243
 20
6.098118
 30
0.0
 11
2.764243
 21
6.058118
 31
0.0
 12
2.644243
 22
6.078118
 32
0.0
 13
2.644243
 23
6.078118
 33
0.0
  0
MTEXT
  5
213
330
20B
100
AcDbEntity
  8
Dimensions
440
 16777216
100
AcDbMText
 10
3.066003
 20
6.078118
 30
0.0
 40
0.12
 41
0.0
 46
0.0
 71
     5
 72
     1
  1
\A1;.2in
 73
     1
 44
1.0
  0
POINT
  5
214
330
20B
100
AcDbEntity
  8
Defpoints
 62
     0
440
 16777216
100
AcDbPoint
 10
2.447393
 20
5.399295
 30
0.0
  0
POINT
  5
215
330
20B
100
AcDbEntity
  8
Defpoints
 62
     0
440
 16777216
100
AcDbPoint
 10
2.644243
 20
5.399295
 30
0.0
  0
POINT
  5
216
330
20B
100
AcDbEntity
  8
Defpoints
 62
     0
440
 16777216
100
AcDbPoint
 10
2.644243
 20
6.078118
 30
0.0
  0
ENDBLK
  5
217
330
20B
100
AcDbEntity
  8
0
100
AcDbBlockEnd
  0
BLOCK
  5
21A
330
219
100
AcDbEntity
  8
0
100
AcDbBlockBegin
  2
*D8
 70
     1
 10
0.0
 20
0.0
 30
0.0
  3
*D8
  1

  0
LINE
  5
21B
330
219
100
AcDbEntity
  8
Dimensions
440
 16777216
370
    -2
100
AcDbLine
 10
6.04057
 20
4.907169
 30
0.0
 11
6.429982
 21
4.907169
 31
0.0
  0
LINE
  5
21C
330
219
100
AcDbEntity
  8
Dimensions
440
 16777216
370
    -2
100
AcDbLine
 10
6.04057
 20
3.922917
 30
0.0
 11
6.429982
 21
3.922917
 31
0.0
  0
LINE
  5
21D
330
219
100
AcDbEntity
  8
Dimensions
440
 16777216
370
    -2
100
AcDbLine
 10
6.329982
 20
4.787169
 30
0.0
 11
6.329982
 21
4.536312
 31
0.0
  0
LINE
  5
21E
330
219
100
AcDbEntity
  8
Dimensions
440
 16777216
370
    -2
100
AcDbLine
 10
6.329982
 20
4.042917
 30
0.0
 11
6.329982
 21
4.293775
 31
0.0
  0
SOLID
  5
21F
330
219
100
AcDbEntity
  8
Dimensions
440
 16777216
100
AcDbTrace
 10
6.309982
 20
4.787169
 30
0.0
 11
6.349982
 21
4.787169
 31
0.0
 12
6.329982
 22
4.907169
 32
0.0
 13
6.329982
 23
4.907169
 33
0.0
  0
SOLID
  5
220
330
219
100
AcDbEntity
  8
Dimensions
440
 16777216
100
AcDbTrace
 10
6.309982
 20
4.042917
 30
0.0
 11
6.349982
 21
4.042917
 31
0.0
 12
6.329982
 22
3.922917
 32
0.0
 13
6.329982
 23
3.922917
 33
0.0
  0
MTEXT
  5
221
330
219
100
AcDbEntity
  8
Dimensions
440
 16777216
100
AcDbMText
 10
6.329982
 20
4.415043
 30
0.0
 40
0.12
 41
0.0
 46
0.0
 71
     5
 72
     1
  1
\A1;.98in
 73
     1
 44
1.0
  0
POINT
  5
222
330
219
100
AcDbEntity
  8
Defpoints
 62
     0
440
 16777216
100
AcDbPoint
 10
5.99057
 20
4.907169
 30
0.0
  0
POINT
  5
223
330
219
100
AcDbEntity
  8
Defpoints
 62
     0
440
 16777216
100
AcDbPoint
 10
5.99057
 20
3.922917
 30
0.0
  0
POINT
  5
224
330
219
100
AcDbEntity
  8
Defpoints
 62
     0
440
 16777216
100
AcDbPoint
 10
6.329982
 20
3.922917
 30
0.0
  0
ENDBLK
  5
225
330
219
100
AcDbEntity
  8
0
100
AcDbBlockEnd
  0
BLOCK
  5
228
330
227
100
AcDbEntity
  8
0
100
AcDbBlockBegin
  2
*D9
 70
     1
 10
0.0
 20
0.0
 30
0.0
  3
*D9
  1

  0
LINE
  5
229
330
227
100
AcDbEntity
  8
Dimensions
440
 16777216
370
    -2
100
AcDbLine
 10
2.694243
 20
3.430791
 30
0.0
 11
3.423066
 21
3.430791
 31
0.0
  0
LINE
  5
22A
330
227
100
AcDbEntity
  8
Dimensions
440
 16777216
370
    -2
100
AcDbLine
 10
2.694243
 20
5.399295
 30
0.0
 11
3.423066
 21
5.399295
 31
0.0
  0
LINE
  5
22B
330
227
100
AcDbEntity
  8
Dimensions
440
 16777216
370
    -2
100
AcDbLine
 10
3.323066
 20
3.550791
 30
0.0
 11
3.323066
 21
4.290419
 31
0.0
  0
LINE
  5
22C
330
227
100
AcDbEntity
  8
Dimensions
440
 16777216
370
    -2
100
AcDbLine
 10
3.323066
 20
5.279295
 30
0.0
 11
3.323066
 21
4.539668
 31
0.0
  0
SOLID
  5
22D
330
227
100
AcDbEntity
  8
Dimensions
440
 16777216
100
AcDbTrace
 10
3.303066
 20
3.550791
 30
0.0
 11
3.343066
 21
3.550791
 31
0.0
 12
3.323066
 22
3.430791
 32
0.0
 13
3.323066
 23
3.430791
 33
0.0
  0
SOLID
  5
22E
330
227
100
AcDbEntity
  8
Dimensions
440
 16777216
100
AcDbTrace
 10
3.303066
 20
5.279295
 30
0.0
 11
3.343066
 21
5.279295
 31
0.0
 12
3.323066
 22
5.399295
 32
0.0
 13
3.323066
 23
5.399295
 33
0.0
  0
MTEXT
  5
22F
330
227
100
AcDbEntity
  8
Dimensions
440
 16777216
100
AcDbMText
 10
3.323066
 20
4.415043
 30
0.0
 40
0.12
 41
0.0
 46
0.0
 71
     5
 72
     1
  1
\A1;∅1.97in
 73
     1
 44
1.0
  0
POINT
  5
230
330
227
100
AcDbEntity
  8
Defpoints
 62
     0
440
 16777216
100
AcDbPoint
 10
2.644243
 20
3.430791
 30
0.0
  0
POINT
  5
231
330
227
100
AcDbEntity
  8
Defpoints
 62
     0
440
 16777216
100
AcDbPoint
 10
2.644243
 20
5.399295
 30
0.0
  0
POINT
  5
232
330
227
100
AcDbEntity
  8
Defpoints
 62
     0
440
 16777216
100
AcDbPoint
 10
3.323066
 20
5.399295
 30
0.0
  0
ENDBLK
  5
233
330
227
100
AcDbEntity
  8
0
100
AcDbBlockEnd
  0
BLOCK
  5
236
330
235
100
AcDbEntity
  8
0
100
AcDbBlockBegin
  2
*D10
 70
     1
 10
0.0
 20
0.0
 30
0.0
  3
*D10
  1

  0
LINE
  5
237
330
235
100
AcDbEntity
  8
Dimensions
440
 16777216
370
    -2
100
AcDbLine
 10
1.405267
 20
5.399295
 30
0.0
 11
1.015856
 21
5.399295
 31
0.0
  0
LINE
  5
238
330
235
100
AcDbEntity
  8
Dimensions
440
 16777216
370
    -2
100
AcDbLine
 10
1.405267
 20
3.430791
 30
0.0
 11
1.015856
 21
3.430791
 31
0.0
  0
LINE
  5
239
330
235
100
AcDbEntity
  8
Dimensions
440
 16777216
370
    -2
100
AcDbLine
 10
1.115856
 20
5.279295
 30
0.0
 11
1.115856
 21
4.539668
 31
0.0
  0
LINE
  5
23A
330
235
100
AcDbEntity
  8
Dimensions
440
 16777216
370
    -2
100
AcDbLine
 10
1.115856
 20
3.550791
 30
0.0
 11
1.115856
 21
4.290419
 31
0.0
  0
SOLID
  5
23B
330
235
100
AcDbEntity
  8
Dimensions
440
 16777216
100
AcDbTrace
 10
1.095856
 20
5.279295
 30
0.0
 11
1.135856
 21
5.279295
 31
0.0
 12
1.115856
 22
5.399295
 32
0.0
 13
1.115856
 23
5.399295
 33
0.0
  0
SOLID
  5
23C
330
235
100
AcDbEntity
  8
Dimensions
440
 16777216
100
AcDbTrace
 10
1.095856
 20
3.550791
 30
0.0
 11
1.135856
 21
3.550791
 31
0.0
 12
1.115856
 22
3.430791
 32
0.0
 13
1.115856
 23
3.430791
 33
0.0
  0
MTEXT
  5
23D
330
235
100
AcDbEntity
  8
Dimensions
440
 16777216
100
AcDbMText
 10
1.115856
 20
4.415043
 30
0.0
 40
0.12
 41
0.0
 46
0.0
 71
     5
 72
     1
  1
\A1;∅1.97in
 73
     1
 44
1.0
  0
POINT
  5
23E
330
235
100
AcDbEntity
  8
Defpoints
 62
     0
440
 16777216
100
AcDbPoint
 10
1.455267
 20
5.399295
 30
0.0
  0
POINT
  5
23F
330
235
100
AcDbEntity
  8
Defpoints
 62
     0
440
 16777216
100
AcDbPoint
 10
1.455267
 20
3.430791
 30
0.0
  0
POINT
  5
240
330
235
100
AcDbEntity
  8
Defpoints
 62
     0
440
 16777216
100
AcDbPoint
 10
1.115856
 20
3.430791
 30
0.0
  0
ENDBLK
  5
241
330
235
100
AcDbEntity
  8
0
100
AcDbBlockEnd
  0
BLOCK
  5
244
330
243
100
AcDbEntity
  8
0
100
AcDbBlockBegin
  2
*D11
 70
     1
 10
0.0
 20
0.0
 30
0.0
  3
*D11
  1

  0
LINE
  5
245
330
243
100
AcDbEntity
  8
Dimensions
440
 16777216
370
    -2
100
AcDbLine
 10
5.87259
 20
3.476272
 30
0.0
 11
5.87259
 21
3.086861
 31
0.0
  0
LINE
  5
246
330
243
100
AcDbEntity
  8
Dimensions
440
 16777216
370
    -2
100
AcDbLine
 10
5.321409
 20
3.476272
 30
0.0
 11
5.321409
 21
3.086861
 31
0.0
  0
LINE
  5
247
330
243
100
AcDbEntity
  8
Dimensions
440
 16777216
370
    -2
100
AcDbLine
 10
5.75259
 20
3.186861
 30
0.0
 11
5.441409
 21
3.186861
 31
0.0
  0
LINE
  5
248
330
243
100
AcDbEntity
  8
Dimensions
440
 16777216
370
    -2
100
AcDbLine
 10
5.321409
 20
3.186861
 30
0.0
 11
5.201409
 21
3.186861
 31
0.0
  0
SOLID
  5
249
330
243
100
AcDbEntity
  8
Dimensions
440
 16777216
100
AcDbTrace
 10
5.75259
 20
3.206861
 30
0.0
 11
5.75259
 21
3.166861
 31
0.0
 12
5.87259
 22
3.186861
 32
0.0
 13
5.87259
 23
3.186861
 33
0.0
  0
SOLID
  5
24A
330
243
100
AcDbEntity
  8
Dimensions
440
 16777216
100
AcDbTrace
 10
5.441409
 20
3.206861
 30
0.0
 11
5.441409
 21
3.166861
 31
0.0
 12
5.321409
 22
3.186861
 32
0.0
 13
5.321409
 23
3.186861
 33
0.0
  0
MTEXT
  5
24B
330
243
100
AcDbEntity
  8
Dimensions
440
 16777216
100
AcDbMText
 10
4.903619
 20
3.186861
 30
0.0
 40
0.12
 41
0.0
 46
0.0
 71
     5
 72
     1
  1
\A1;∅.55in
 73
     1
 44
1.0
  0
POINT
  5
24C
330
243
100
AcDbEntity
  8
Defpoints
 62
     0
440
 16777216
100
AcDbPoint
 10
5.87259
 20
3.526272
 30
0.0
  0
POINT
  5
24D
330
243
100
AcDbEntity
  8
Defpoints
 62
     0
440
 16777216
100
AcDbPoint
 10
5.321409
 20
3.526272
 30
0.0
  0
POINT
  5
24E
330
243
100
AcDbEntity
  8
Defpoints
 62
     0
440
 16777216
100
AcDbPoint
 10
5.321409
 20
3.186861
 30
0.0
  0
ENDBLK
  5
24F
330
243
100
AcDbEntity
  8
0
100
AcDbBlockEnd
  0
BLOCK
  5
252
330
251
100
AcDbEntity
  8
0
100
AcDbBlockBegin
  2
*D12
 70
     1
 10
0.0
 20
0.0
 30
0.0
  3
*D12
  1

  0
LINE
  5
253
330
251
100
AcDbEntity
  8
Dimensions
440
 16777216
370
    -2
100
AcDbLine
 10
6.098213
 20
2.95038
 30
0.0
 11
5.978213
 21
2.95038
 31
0.0
  0
LINE
  5
254
330
251
100
AcDbEntity
  8
Dimensions
440
 16777216
370
    -2
100
AcDbLine
 10
5.978213
 20
2.95038
 30
0.0
 11
5.818205
 21
3.363235
 31
0.0
  0
MTEXT
  5
255
330
251
100
AcDbEntity
  8
Dimensions
440
 16777216
100
AcDbMText
 10
6.388145
 20
2.95038
 30
0.0
 40
0.12
 41
0.0
 46
0.0
 71
     5
 72
     1
  1
\A1;R.49in
 73
     1
 44
1.0
  0
SOLID
  5
256
330
251
100
AcDbEntity
  8
Dimensions
440
 16777216
100
AcDbTrace
 10
5.836853
 20
3.370463
 30
0.0
 11
5.799557
 21
3.356008
 31
0.0
 12
5.77484
 22
3.475126
 32
0.0
 13
5.77484
 23
3.475126
 33
0.0
  0
POINT
  5
257
330
251
100
AcDbEntity
  8
Defpoints
 62
     0
440
 16777216
100
AcDbPoint
 10
5.77484
 20
3.475126
 30
0.0
  0
POINT
  5
258
330
251
100
AcDbEntity
  8
Defpoints
 62
     0
440
 16777216
100
AcDbPoint
 10
5.596999
 20
3.933995
 30
0.0
  0
ENDBLK
  5
259
330
251
100
AcDbEntity
  8
0
100
AcDbBlockEnd
  0
BLOCK
  5
25C
330
25B
100
AcDbEntity
  8
0
100
AcDbBlockBegin
  2
*D13
 70
     1
 10
0.0
 20
0.0
 30
0.0
  3
*D13
  1

  0
LINE
  5
25D
330
25B
100
AcDbEntity
  8
Dimensions
440
 16777216
370
    -2
100
AcDbLine
 10
6.684277
 20
3.733172
 30
0.0
 11
6.564277
 21
3.733172
 31
0.0
  0
LINE
  5
25E
330
25B
100
AcDbEntity
  8
Dimensions
440
 16777216
370
    -2
100
AcDbLine
 10
6.564277
 20
3.733172
 30
0.0
 11
6.104327
 21
3.884709
 31
0.0
  0
MTEXT
  5
25F
330
25B
100
AcDbEntity
  8
Dimensions
440
 16777216
100
AcDbMText
 10
7.020825
 20
3.733172
 30
0.0
 40
0.12
 41
0.0
 46
0.0
 71
     5
 72
     1
  1
\A1;R1.57in
 73
     1
 44
1.0
  0
SOLID
  5
260
330
25B
100
AcDbEntity
  8
Dimensions
440
 16777216
100
AcDbTrace
 10
6.110586
 20
3.903704
 30
0.0
 11
6.098069
 21
3.865713
 31
0.0
 12
5.990354
 22
3.922259
 32
0.0
 13
5.990354
 23
3.922259
 33
0.0
  0
POINT
  5
261
330
25B
100
AcDbEntity
  8
Defpoints
 62
     0
440
 16777216
100
AcDbPoint
 10
5.990354
 20
3.922259
 30
0.0
  0
POINT
  5
262
330
25B
100
AcDbEntity
  8
Defpoints
 62
     0
440
 16777216
100
AcDbPoint
 10
4.494637
 20
4.415043
 30
0.0
  0
ENDBLK
  5
263
330
25B
100
AcDbEntity
  8
0
100
AcDbBlockEnd
  0
BLOCK
  5
266
330
265
100
AcDbEntity
  8
0
100
AcDbBlockBegin
  2
*D14
 70
     1
 10
0.0
 20
0.0
 30
0.0
  3
*D14
  1

  0
LINE
  5
267
330
265
100
AcDbEntity
  8
Dimensions
440
 16777216
370
    -2
100
AcDbLine
 10
5.704244
 20
7.991544
 30
0.0
 11
5.584244
 21
7.991544
 31
0.0
  0
LINE
  5
268
330
265
100
AcDbEntity
  8
Dimensions
440
 16777216
370
    -2
100
AcDbLine
 10
5.584244
 20
7.991544
 30
0.0
 11
5.54771
 21
7.52638
 31
0.0
  0
MTEXT
  5
269
330
265
100
AcDbEntity
  8
Dimensions
440
 16777216
100
AcDbMText
 10
5.994175
 20
7.991544
 30
0.0
 40
0.12
 41
0.0
 46
0.0
 71
     5
 72
     1
  1
\A1;R.75in
 73
     1
 44
1.0
  0
SOLID
  5
26A
330
265
100
AcDbEntity
  8
Dimensions
440
 16777216
100
AcDbTrace
 10
5.527772
 20
7.527946
 30
0.0
 11
5.567649
 21
7.524814
 31
0.0
 12
5.538315
 22
7.406749
 32
0.0
 13
5.538315
 23
7.406749
 33
0.0
  0
POINT
  5
26B
330
265
100
AcDbEntity
  8
Defpoints
 62
     0
440
 16777216
100
AcDbPoint
 10
5.538315
 20
7.406749
 30
0.0
  0
POINT
  5
26C
330
265
100
AcDbEntity
  8
Defpoints
 62
     0
440
 16777216
100
AcDbPoint
 10
5.596884
 20
8.152484
 30
0.0
  0
ENDBLK
  5
26D
330
265
100
AcDbEntity
  8
0
100
AcDbBlockEnd
  0
BLOCK
  5
270
330
26F
100
AcDbEntity
  8
0
100
AcDbBlockBegin
  2
*D15
 70
     1
 10
0.0
 20
0.0
 30
0.0
  3
*D15
  1

  0
LINE
  5
271
330
26F
100
AcDbEntity
  8
Dimensions
440
 16777216
370
    -2
100
AcDbLine
 10
7.220526
 20
7.356027
 30
0.0
 11
7.220526
 21
8.298318
 31
0.0
  0
LINE
  5
272
330
26F
100
AcDbEntity
  8
Dimensions
440
 16777216
370
    -2
100
AcDbLine
 10
9.779528
 20
7.356027
 30
0.0
 11
9.779528
 21
8.298318
 31
0.0
  0
LINE
  5
273
330
26F
100
AcDbEntity
  8
Dimensions
440
 16777216
370
    -2
100
AcDbLine
 10
7.340526
 20
8.198318
 30
0.0
 11
8.219877
 21
8.198318
 31
0.0
  0
LINE
  5
274
330
26F
100
AcDbEntity
  8
Dimensions
440
 16777216
370
    -2
100
AcDbLine
 10
9.659528
 20
8.198318
 30
0.0
 11
8.780177
 21
8.198318
 31
0.0
  0
SOLID
  5
275
330
26F
100
AcDbEntity
  8
Dimensions
440
 16777216
100
AcDbTrace
 10
7.340526
 20
8.218318
 30
0.0
 11
7.340526
 21
8.178318
 31
0.0
 12
7.220526
 22
8.198318
 32
0.0
 13
7.220526
 23
8.198318
 33
0.0
  0
SOLID
  5
276
330
26F
100
AcDbEntity
  8
Dimensions
440
 16777216
100
AcDbTrace
 10
9.659528
 20
8.218318
 30
0.0
 11
9.659528
 21
8.178318
 31
0.0
 12
9.779528
 22
8.198318
 32
0.0
 13
9.779528
 23
8.198318
 33
0.0
  0
MTEXT
  5
277
330
26F
100
AcDbEntity
  8
Dimensions
440
 16777216
100
AcDbMText
 10
8.500027
 20
8.198318
 30
0.0
 40
0.12
 41
0.0
 46
0.0
 71
     5
 72
     1
  1
\A1;2.56in
 73
     1
 44
1.0
  0
POINT
  5
278
330
26F
100
AcDbEntity
  8
Defpoints
 62
     0
440
 16777216
100
AcDbPoint
 10
7.220526
 20
7.306027
 30
0.0
  0
POINT
  5
279
330
26F
100
AcDbEntity
  8
Defpoints
 62
     0
440
 16777216
100
AcDbPoint
 10
9.779528
 20
7.306027
 30
0.0
  0
POINT
  5
27A
330
26F
100
AcDbEntity
  8
Defpoints
 62
     0
440
 16777216
100
AcDbPoint
 10
9.779528
 20
8.198318
 30
0.0
  0
ENDBLK
  5
27B
330
26F
100
AcDbEntity
  8
0
100
AcDbBlockEnd
  0
BLOCK
  5
27E
330
27D
100
AcDbEntity
  8
0
100
AcDbBlockBegin
  2
*D16
 70
     1
 10
0.0
 20
0.0
 30
0.0
  3
*D16
  1

  0
LINE
  5
27F
330
27D
100
AcDbEntity
  8
Dimensions
440
 16777216
370
    -2
100
AcDbLine
 10
9.43533
 20
7.57771
 30
0.0
 11
10.417521
 21
7.57771
 31
0.0
  0
LINE
  5
280
330
27D
100
AcDbEntity
  8
Dimensions
440
 16777216
370
    -2
100
AcDbLine
 10
9.829528
 20
7.306027
 30
0.0
 11
10.417521
 21
7.306027
 31
0.0
  0
LINE
  5
281
330
27D
100
AcDbEntity
  8
Dimensions
440
 16777216
370
    -2
100
AcDbLine
 10
10.317521
 20
7.69771
 30
0.0
 11
10.317521
 21
7.81771
 31
0.0
  0
LINE
  5
282
330
27D
100
AcDbEntity
  8
Dimensions
440
 16777216
370
    -2
100
AcDbLine
 10
10.317521
 20
7.186027
 30
0.0
 11
10.317521
 21
7.066027
 31
0.0
  0
SOLID
  5
283
330
27D
100
AcDbEntity
  8
Dimensions
440
 16777216
100
AcDbTrace
 10
10.297521
 20
7.69771
 30
0.0
 11
10.337521
 21
7.69771
 31
0.0
 12
10.317521
 22
7.57771
 32
0.0
 13
10.317521
 23
7.57771
 33
0.0
  0
SOLID
  5
284
330
27D
100
AcDbEntity
  8
Dimensions
440
 16777216
100
AcDbTrace
 10
10.297521
 20
7.186027
 30
0.0
 11
10.337521
 21
7.186027
 31
0.0
 12
10.317521
 22
7.306027
 32
0.0
 13
10.317521
 23
7.306027
 33
0.0
  0
MTEXT
  5
285
330
27D
100
AcDbEntity
  8
Dimensions
440
 16777216
100
AcDbMText
 10
10.317521
 20
7.441869
 30
0.0
 40
0.12
 41
0.0
 46
0.0
 71
     5
 72
     1
  1
\A1;.27in
 73
     1
 44
1.0
  0
POINT
  5
286
330
27D
100
AcDbEntity
  8
Defpoints
 62
     0
440
 16777216
100
AcDbPoint
 10
9.38533
 20
7.57771
 30
0.0
  0
POINT
  5
287
330
27D
100
AcDbEntity
  8
Defpoints
 62
     0
440
 16777216
100
AcDbPoint
 10
9.779528
 20
7.306027
 30
0.0
  0
POINT
  5
288
330
27D
100
AcDbEntity
  8
Defpoints
 62
     0
440
 16777216
100
AcDbPoint
 10
10.317521
 20
7.306027
 30
0.0
  0
ENDBLK
  5
289
330
27D
100
AcDbEntity
  8
0
100
AcDbBlockEnd
  0
BLOCK
  5
28C
330
28B
100
AcDbEntity
  8
0
100
AcDbBlockBegin
  2
*D17
 70
     1
 10
0.0
 20
0.0
 30
0.0
  3
*D17
  1

  0
LINE
  5
28D
330
28B
100
AcDbEntity
  8
Dimensions
440
 16777216
370
    -2
100
AcDbLine
 10
12.341228
 20
4.392174
 30
0.0
 11
11.433114
 21
4.392174
 31
0.0
  0
LINE
  5
28E
330
28B
100
AcDbEntity
  8
Dimensions
440
 16777216
370
    -2
100
AcDbLine
 10
12.341228
 20
3.407924
 30
0.0
 11
11.433114
 21
3.407924
 31
0.0
  0
LINE
  5
28F
330
28B
100
AcDbEntity
  8
Dimensions
440
 16777216
370
    -2
100
AcDbLine
 10
11.533114
 20
4.272174
 30
0.0
 11
11.533114
 21
4.021317
 31
0.0
  0
LINE
  5
290
330
28B
100
AcDbEntity
  8
Dimensions
440
 16777216
370
    -2
100
AcDbLine
 10
11.533114
 20
3.527924
 30
0.0
 11
11.533114
 21
3.77878
 31
0.0
  0
SOLID
  5
291
330
28B
100
AcDbEntity
  8
Dimensions
440
 16777216
100
AcDbTrace
 10
11.513114
 20
4.272174
 30
0.0
 11
11.553114
 21
4.272174
 31
0.0
 12
11.533114
 22
4.392174
 32
0.0
 13
11.533114
 23
4.392174
 33
0.0
  0
SOLID
  5
292
330
28B
100
AcDbEntity
  8
Dimensions
440
 16777216
100
AcDbTrace
 10
11.513114
 20
3.527924
 30
0.0
 11
11.553114
 21
3.527924
 31
0.0
 12
11.533114
 22
3.407924
 32
0.0
 13
11.533114
 23
3.407924
 33
0.0
  0
MTEXT
  5
293
330
28B
100
AcDbEntity
  8
Dimensions
440
 16777216
100
AcDbMText
 10
11.533114
 20
3.900049
 30
0.0
 40
0.12
 41
0.0
 46
0.0
 71
     5
 72
     1
  1
\A1;.98in
 73
     1
 44
1.0
  0
POINT
  5
294
330
28B
100
AcDbEntity
  8
Defpoints
 62
     0
440
 16777216
100
AcDbPoint
 10
12.391228
 20
4.392174
 30
0.0
  0
POINT
  5
295
330
28B
100
AcDbEntity
  8
Defpoints
 62
     0
440
 16777216
100
AcDbPoint
 10
12.391228
 20
3.407924
 30
0.0
  0
POINT
  5
296
330
28B
100
AcDbEntity
  8
Defpoints
 62
     0
440
 16777216
100
AcDbPoint
 10
11.533114
 20
3.407924
 30
0.0
  0
ENDBLK
  5
297
330
28B
100
AcDbEntity
  8
0
100
AcDbBlockEnd
  0
BLOCK
  5
29A
330
299
100
AcDbEntity
  8
0
100
AcDbBlockBegin
  2
*D18
 70
     1
 10
0.0
 20
0.0
 30
0.0
  3
*D18
  1

  0
LINE
  5
29B
330
299
100
AcDbEntity
  8
Dimensions
440
 16777216
370
    -2
100
AcDbLine
 10
5.646884
 20
7.404452
 30
0.0
 11
6.715117
 21
7.404452
 31
0.0
  0
LINE
  5
29C
330
299
100
AcDbEntity
  8
Dimensions
440
 16777216
370
    -2
100
AcDbLine
 10
5.646884
 20
7.306027
 30
0.0
 11
6.715117
 21
7.306027
 31
0.0
  0
LINE
  5
29D
330
299
100
AcDbEntity
  8
Dimensions
440
 16777216
370
    -2
100
AcDbLine
 10
6.615117
 20
7.524452
 30
0.0
 11
6.615117
 21
7.644452
 31
0.0
  0
LINE
  5
29E
330
299
100
AcDbEntity
  8
Dimensions
440
 16777216
370
    -2
100
AcDbLine
 10
6.615117
 20
7.186027
 30
0.0
 11
6.615117
 21
7.066027
 31
0.0
  0
LINE
  5
29F
330
299
100
AcDbEntity
  8
Dimensions
440
 16777216
370
    -2
100
AcDbLine
 10
6.615117
 20
7.066027
 30
0.0
 11
6.495117
 21
7.066027
 31
0.0
  0
SOLID
  5
2A0
330
299
100
AcDbEntity
  8
Dimensions
440
 16777216
100
AcDbTrace
 10
6.595117
 20
7.524452
 30
0.0
 11
6.635117
 21
7.524452
 31
0.0
 12
6.615117
 22
7.404452
 32
0.0
 13
6.615117
 23
7.404452
 33
0.0
  0
SOLID
  5
2A1
330
299
100
AcDbEntity
  8
Dimensions
440
 16777216
100
AcDbTrace
 10
6.595117
 20
7.186027
 30
0.0
 11
6.635117
 21
7.186027
 31
0.0
 12
6.615117
 22
7.306027
 32
0.0
 13
6.615117
 23
7.306027
 33
0.0
  0
MTEXT
  5
2A2
330
299
100
AcDbEntity
  8
Dimensions
440
 16777216
100
AcDbMText
 10
6.313358
 20
7.066027
 30
0.0
 40
0.12
 41
0.0
 46
0.0
 71
     5
 72
     1
  1
\A1;.1in
 73
     1
 44
1.0
  0
POINT
  5
2A3
330
299
100
AcDbEntity
  8
Defpoints
 62
     0
440
 16777216
100
AcDbPoint
 10
5.596884
 20
7.404452
 30
0.0
  0
POINT
  5
2A4
330
299
100
AcDbEntity
  8
Defpoints
 62
     0
440
 16777216
100
AcDbPoint
 10
5.596884
 20
7.306027
 30
0.0
  0
POINT
  5
2A5
330
299
100
AcDbEntity
  8
Defpoints
 62
     0
440
 16777216
100
AcDbPoint
 10
6.615117
 20
7.306027
 30
0.0
  0
ENDBLK
  5
2A6
330
299
100
AcDbEntity
  8
0
100
AcDbBlockEnd
  0
BLOCK
  5
2AB
330
2AA
100
AcDbEntity
  8
0
100
AcDbBlockBegin
  2
*D19
 70
     1
 10
0.0
 20
0.0
 30
0.0
  3
*D19
  1

  0
LINE
  5
620
330
2AA
100
AcDbEntity
  8
Dimensions
440
 16777216
370
    -2
100
AcDbLine
 10
1.456146
 20
5.449288
 30
0.0
 11
1.468967
 21
6.177997
 31
0.0
  0
LINE
  5
621
330
2AA
100
AcDbEntity
  8
Dimensions
440
 16777216
370
    -2
100
AcDbLine
 10
1.692367
 20
5.445132
 30
0.0
 11
1.705188
 21
6.173841
 31
0.0
  0
LINE
  5
622
330
2AA
100
AcDbEntity
  8
Dimensions
440
 16777216
370
    -2
100
AcDbLine
 10
1.347227
 20
6.080124
 30
0.0
 11
1.227245
 21
6.082235
 31
0.0
  0
LINE
  5
623
330
2AA
100
AcDbEntity
  8
Dimensions
440
 16777216
370
    -2
100
AcDbLine
 10
1.82341
 20
6.071746
 30
0.0
 11
1.943391
 21
6.069635
 31
0.0
  0
SOLID
  5
624
330
2AA
100
AcDbEntity
  8
Dimensions
440
 16777216
100
AcDbTrace
 10
1.347579
 20
6.100121
 30
0.0
 11
1.346875
 21
6.060127
 31
0.0
 12
1.467208
 22
6.078013
 32
0.0
 13
1.467208
 23
6.078013
 33
0.0
  0
SOLID
  5
625
330
2AA
100
AcDbEntity
  8
Dimensions
440
 16777216
100
AcDbTrace
 10
1.823762
 20
6.091743
 30
0.0
 11
1.823058
 21
6.051749
 31
0.0
 12
1.703429
 22
6.073857
 32
0.0
 13
1.703429
 23
6.073857
 33
0.0
  0
MTEXT
  5
626
330
2AA
100
AcDbEntity
  8
Dimensions
440
 16777216
100
AcDbMText
 10
2.171768
 20
6.069635
 30
0.0
 40
0.12
 41
0.0
 46
0.0
 71
     5
 72
     1
  1
\A1;.24in
 73
     1
 44
1.0
  0
POINT
  5
627
330
2AA
100
AcDbEntity
  8
Defpoints
 62
     0
440
 16777216
100
AcDbPoint
 10
1.455267
 20
5.399295
 30
0.0
  0
POINT
  5
628
330
2AA
100
AcDbEntity
  8
Defpoints
 62
     0
440
 16777216
100
AcDbPoint
 10
1.691487
 20
5.395139
 30
0.0
  0
POINT
  5
629
330
2AA
100
AcDbEntity
  8
Defpoints
 62
     0
440
 16777216
100
AcDbPoint
 10
1.703429
 20
6.073857
 30
0.0
  0
ENDBLK
  5
2AC
330
2AA
100
AcDbEntity
  8
0
100
AcDbBlockEnd
  0
BLOCK
  5
2B8
330
2B7
100
AcDbEntity
  8
0
100
AcDbBlockBegin
  2
*D20
 70
     1
 10
0.0
 20
0.0
 30
0.0
  3
*D20
  1

  0
LINE
  5
62A
330
2B7
100
AcDbEntity
  8
Dimensions
440
 16777216
370
    -2
100
AcDbLine
 10
2.447393
 20
5.449295
 30
0.0
 11
2.447393
 21
6.178118
 31
0.0
  0
LINE
  5
62B
330
2B7
100
AcDbEntity
  8
Dimensions
440
 16777216
370
    -2
100
AcDbLine
 10
2.644243
 20
5.449295
 30
0.0
 11
2.644243
 21
6.178118
 31
0.0
  0
LINE
  5
62C
330
2B7
100
AcDbEntity
  8
Dimensions
440
 16777216
370
    -2
100
AcDbLine
 10
2.327393
 20
6.078118
 30
0.0
 11
2.207393
 21
6.078118
 31
0.0
  0
LINE
  5
62D
330
2B7
100
AcDbEntity
  8
Dimensions
440
 16777216
370
    -2
100
AcDbLine
 10
2.764243
 20
6.078118
 30
0.0
 11
2.884243
 21
6.078118
 31
0.0
  0
SOLID
  5
62E
330
2B7
100
AcDbEntity
  8
Dimensions
440
 16777216
100
AcDbTrace
 10
2.327393
 20
6.098118
 30
0.0
 11
2.327393
 21
6.058118
 31
0.0
 12
2.447393
 22
6.078118
 32
0.0
 13
2.447393
 23
6.078118
 33
0.0
  0
SOLID
  5
62F
330
2B7
100
AcDbEntity
  8
Dimensions
440
 16777216
100
AcDbTrace
 10
2.764243
 20
6.098118
 30
0.0
 11
2.764243
 21
6.058118
 31
0.0
 12
2.644243
 22
6.078118
 32
0.0
 13
2.644243
 23
6.078118
 33
0.0
  0
MTEXT
  5
630
330
2B7
100
AcDbEntity
  8
Dimensions
440
 16777216
100
AcDbMText
 10
3.066003
 20
6.078118
 30
0.0
 40
0.12
 41
0.0
 46
0.0
 71
     5
 72
     1
  1
\A1;.2in
 73
     1
 44
1.0
  0
POINT
  5
631
330
2B7
100
AcDbEntity
  8
Defpoints
 62
     0
440
 16777216
100
AcDbPoint
 10
2.447393
 20
5.399295
 30
0.0
  0
POINT
  5
632
330
2B7
100
AcDbEntity
  8
Defpoints
 62
     0
440
 16777216
100
AcDbPoint
 10
2.644243
 20
5.399295
 30
0.0
  0
POINT
  5
633
330
2B7
100
AcDbEntity
  8
Defpoints
 62
     0
440
 16777216
100
AcDbPoint
 10
2.644243
 20
6.078118
 30
0.0
  0
ENDBLK
  5
2B9
330
2B7
100
AcDbEntity
  8
0
100
AcDbBlockEnd
  0
BLOCK
  5
2C5
330
2C4
100
AcDbEntity
  8
0
100
AcDbBlockBegin
  2
*D21
 70
     1
 10
0.0
 20
0.0
 30
0.0
  3
*D21
  1

  0
LINE
  5
634
330
2C4
100
AcDbEntity
  8
Dimensions
440
 16777216
370
    -2
100
AcDbLine
 10
6.04057
 20
4.907169
 30
0.0
 11
6.429982
 21
4.907169
 31
0.0
  0
LINE
  5
635
330
2C4
100
AcDbEntity
  8
Dimensions
440
 16777216
370
    -2
100
AcDbLine
 10
6.04057
 20
3.922917
 30
0.0
 11
6.429982
 21
3.922917
 31
0.0
  0
LINE
  5
636
330
2C4
100
AcDbEntity
  8
Dimensions
440
 16777216
370
    -2
100
AcDbLine
 10
6.329982
 20
4.787169
 30
0.0
 11
6.329982
 21
4.536312
 31
0.0
  0
LINE
  5
637
330
2C4
100
AcDbEntity
  8
Dimensions
440
 16777216
370
    -2
100
AcDbLine
 10
6.329982
 20
4.042917
 30
0.0
 11
6.329982
 21
4.293775
 31
0.0
  0
SOLID
  5
638
330
2C4
100
AcDbEntity
  8
Dimensions
440
 16777216
100
AcDbTrace
 10
6.309982
 20
4.787169
 30
0.0
 11
6.349982
 21
4.787169
 31
0.0
 12
6.329982
 22
4.907169
 32
0.0
 13
6.329982
 23
4.907169
 33
0.0
  0
SOLID
  5
639
330
2C4
100
AcDbEntity
  8
Dimensions
440
 16777216
100
AcDbTrace
 10
6.309982
 20
4.042917
 30
0.0
 11
6.349982
 21
4.042917
 31
0.0
 12
6.329982
 22
3.922917
 32
0.0
 13
6.329982
 23
3.922917
 33
0.0
  0
MTEXT
  5
63A
330
2C4
100
AcDbEntity
  8
Dimensions
440
 16777216
100
AcDbMText
 10
6.329982
 20
4.415043
 30
0.0
 40
0.12
 41
0.0
 46
0.0
 71
     5
 72
     1
  1
\A1;.98in
 73
     1
 44
1.0
  0
POINT
  5
63B
330
2C4
100
AcDbEntity
  8
Defpoints
 62
     0
440
 16777216
100
AcDbPoint
 10
5.99057
 20
4.907169
 30
0.0
  0
POINT
  5
63C
330
2C4
100
AcDbEntity
  8
Defpoints
 62
     0
440
 16777216
100
AcDbPoint
 10
5.99057
 20
3.922917
 30
0.0
  0
POINT
  5
63D
330
2C4
100
AcDbEntity
  8
Defpoints
 62
     0
440
 16777216
100
AcDbPoint
 10
6.329982
 20
3.922917
 30
0.0
  0
ENDBLK
  5
2C6
330
2C4
100
AcDbEntity
  8
0
100
AcDbBlockEnd
  0
BLOCK
  5
2D2
330
2D1
100
AcDbEntity
  8
0
100
AcDbBlockBegin
  2
*D22
 70
     1
 10
0.0
 20
0.0
 30
0.0
  3
*D22
  1

  0
LINE
  5
63E
330
2D1
100
AcDbEntity
  8
Dimensions
440
 16777216
370
    -2
100
AcDbLine
 10
2.694243
 20
3.430791
 30
0.0
 11
3.423066
 21
3.430791
 31
0.0
  0
LINE
  5
63F
330
2D1
100
AcDbEntity
  8
Dimensions
440
 16777216
370
    -2
100
AcDbLine
 10
2.694243
 20
5.399295
 30
0.0
 11
3.423066
 21
5.399295
 31
0.0
  0
LINE
  5
640
330
2D1
100
AcDbEntity
  8
Dimensions
440
 16777216
370
    -2
100
AcDbLine
 10
3.323066
 20
3.550791
 30
0.0
 11
3.323066
 21
4.290419
 31
0.0
  0
LINE
  5
641
330
2D1
100
AcDbEntity
  8
Dimensions
440
 16777216
370
    -2
100
AcDbLine
 10
3.323066
 20
5.279295
 30
0.0
 11
3.323066
 21
4.539668
 31
0.0
  0
SOLID
  5
642
330
2D1
100
AcDbEntity
  8
Dimensions
440
 16777216
100
AcDbTrace
 10
3.303066
 20
3.550791
 30
0.0
 11
3.343066
 21
3.550791
 31
0.0
 12
3.323066
 22
3.430791
 32
0.0
 13
3.323066
 23
3.430791
 33
0.0
  0
SOLID
  5
643
330
2D1
100
AcDbEntity
  8
Dimensions
440
 16777216
100
AcDbTrace
 10
3.303066
 20
5.279295
 30
0.0
 11
3.343066
 21
5.279295
 31
0.0
 12
3.323066
 22
5.399295
 32
0.0
 13
3.323066
 23
5.399295
 33
0.0
  0
MTEXT
  5
644
330
2D1
100
AcDbEntity
  8
Dimensions
440
 16777216
100
AcDbMText
 10
3.323066
 20
4.415043
 30
0.0
 40
0.12
 41
0.0
 46
0.0
 71
     5
 72
     1
  1
\A1;∅1.97in
 73
     1
 44
1.0
  0
POINT
  5
645
330
2D1
100
AcDbEntity
  8
Defpoints
 62
     0
440
 16777216
100
AcDbPoint
 10
2.644243
 20
3.430791
 30
0.0
  0
POINT
  5
646
330
2D1
100
AcDbEntity
  8
Defpoints
 62
     0
440
 16777216
100
AcDbPoint
 10
2.644243
 20
5.399295
 30
0.0
  0
POINT
  5
647
330
2D1
100
AcDbEntity
  8
Defpoints
 62
     0
440
 16777216
100
AcDbPoint
 10
3.323066
 20
5.399295
 30
0.0
  0
ENDBLK
  5
2D3
330
2D1
100
AcDbEntity
  8
0
100
AcDbBlockEnd
  0
BLOCK
  5
2DF
330
2DE
100
AcDbEntity
  8
0
100
AcDbBlockBegin
  2
*D23
 70
     1
 10
0.0
 20
0.0
 30
0.0
  3
*D23
  1

  0
LINE
  5
648
330
2DE
100
AcDbEntity
  8
Dimensions
440
 16777216
370
    -2
100
AcDbLine
 10
1.405267
 20
5.399295
 30
0.0
 11
1.015856
 21
5.399295
 31
0.0
  0
LINE
  5
649
330
2DE
100
AcDbEntity
  8
Dimensions
440
 16777216
370
    -2
100
AcDbLine
 10
1.405267
 20
3.430791
 30
0.0
 11
1.015856
 21
3.430791
 31
0.0
  0
LINE
  5
64A
330
2DE
100
AcDbEntity
  8
Dimensions
440
 16777216
370
    -2
100
AcDbLine
 10
1.115856
 20
5.279295
 30
0.0
 11
1.115856
 21
4.539668
 31
0.0
  0
LINE
  5
64B
330
2DE
100
AcDbEntity
  8
Dimensions
440
 16777216
370
    -2
100
AcDbLine
 10
1.115856
 20
3.550791
 30
0.0
 11
1.115856
 21
4.290419
 31
0.0
  0
SOLID
  5
64C
330
2DE
100
AcDbEntity
  8
Dimensions
440
 16777216
100
AcDbTrace
 10
1.095856
 20
5.279295
 30
0.0
 11
1.135856
 21
5.279295
 31
0.0
 12
1.115856
 22
5.399295
 32
0.0
 13
1.115856
 23
5.399295
 33
0.0
  0
SOLID
  5
64D
330
2DE
100
AcDbEntity
  8
Dimensions
440
 16777216
100
AcDbTrace
 10
1.095856
 20
3.550791
 30
0.0
 11
1.135856
 21
3.550791
 31
0.0
 12
1.115856
 22
3.430791
 32
0.0
 13
1.115856
 23
3.430791
 33
0.0
  0
MTEXT
  5
64E
330
2DE
100
AcDbEntity
  8
Dimensions
440
 16777216
100
AcDbMText
 10
1.115856
 20
4.415043
 30
0.0
 40
0.12
 41
0.0
 46
0.0
 71
     5
 72
     1
  1
\A1;∅1.97in
 73
     1
 44
1.0
  0
POINT
  5
64F
330
2DE
100
AcDbEntity
  8
Defpoints
 62
     0
440
 16777216
100
AcDbPoint
 10
1.455267
 20
5.399295
 30
0.0
  0
POINT
  5
650
330
2DE
100
AcDbEntity
  8
Defpoints
 62
     0
440
 16777216
100
AcDbPoint
 10
1.455267
 20
3.430791
 30
0.0
  0
POINT
  5
651
330
2DE
100
AcDbEntity
  8
Defpoints
 62
     0
440
 16777216
100
AcDbPoint
 10
1.115856
 20
3.430791
 30
0.0
  0
ENDBLK
  5
2E0
330
2DE
100
AcDbEntity
  8
0
100
AcDbBlockEnd
  0
BLOCK
  5
2EC
330
2EB
100
AcDbEntity
  8
0
100
AcDbBlockBegin
  2
*D24
 70
     1
 10
0.0
 20
0.0
 30
0.0
  3
*D24
  1

  0
LINE
  5
652
330
2EB
100
AcDbEntity
  8
Dimensions
440
 16777216
370
    -2
100
AcDbLine
 10
5.87259
 20
3.476272
 30
0.0
 11
5.87259
 21
3.086861
 31
0.0
  0
LINE
  5
653
330
2EB
100
AcDbEntity
  8
Dimensions
440
 16777216
370
    -2
100
AcDbLine
 10
5.321409
 20
3.476272
 30
0.0
 11
5.321409
 21
3.086861
 31
0.0
  0
LINE
  5
654
330
2EB
100
AcDbEntity
  8
Dimensions
440
 16777216
370
    -2
100
AcDbLine
 10
5.75259
 20
3.186861
 30
0.0
 11
5.441409
 21
3.186861
 31
0.0
  0
LINE
  5
655
330
2EB
100
AcDbEntity
  8
Dimensions
440
 16777216
370
    -2
100
AcDbLine
 10
5.321409
 20
3.186861
 30
0.0
 11
5.201409
 21
3.186861
 31
0.0
  0
SOLID
  5
656
330
2EB
100
AcDbEntity
  8
Dimensions
440
 16777216
100
AcDbTrace
 10
5.75259
 20
3.206861
 30
0.0
 11
5.75259
 21
3.166861
 31
0.0
 12
5.87259
 22
3.186861
 32
0.0
 13
5.87259
 23
3.186861
 33
0.0
  0
SOLID
  5
657
330
2EB
100
AcDbEntity
  8
Dimensions
440
 16777216
100
AcDbTrace
 10
5.441409
 20
3.206861
 30
0.0
 11
5.441409
 21
3.166861
 31
0.0
 12
5.321409
 22
3.186861
 32
0.0
 13
5.321409
 23
3.186861
 33
0.0
  0
MTEXT
  5
658
330
2EB
100
AcDbEntity
  8
Dimensions
440
 16777216
100
AcDbMText
 10
4.903619
 20
3.186861
 30
0.0
 40
0.12
 41
0.0
 46
0.0
 71
     5
 72
     1
  1
\A1;∅.55in
 73
     1
 44
1.0
  0
POINT
  5
659
330
2EB
100
AcDbEntity
  8
Defpoints
 62
     0
440
 16777216
100
AcDbPoint
 10
5.87259
 20
3.526272
 30
0.0
  0
POINT
  5
65A
330
2EB
100
AcDbEntity
  8
Defpoints
 62
     0
440
 16777216
100
AcDbPoint
 10
5.321409
 20
3.526272
 30
0.0
  0
POINT
  5
65B
330
2EB
100
AcDbEntity
  8
Defpoints
 62
     0
440
 16777216
100
AcDbPoint
 10
5.321409
 20
3.186861
 30
0.0
  0
ENDBLK
  5
2ED
330
2EB
100
AcDbEntity
  8
0
100
AcDbBlockEnd
  0
BLOCK
  5
2F9
330
2F8
100
AcDbEntity
  8
0
100
AcDbBlockBegin
  2
*D25
 70
     1
 10
0.0
 20
0.0
 30
0.0
  3
*D25
  1

  0
LINE
  5
65C
330
2F8
100
AcDbEntity
  8
Dimensions
440
 16777216
370
    -2
100
AcDbLine
 10
6.098213
 20
2.95038
 30
0.0
 11
5.978213
 21
2.95038
 31
0.0
  0
LINE
  5
65D
330
2F8
100
AcDbEntity
  8
Dimensions
440
 16777216
370
    -2
100
AcDbLine
 10
5.978213
 20
2.95038
 30
0.0
 11
5.818205
 21
3.363235
 31
0.0
  0
MTEXT
  5
65E
330
2F8
100
AcDbEntity
  8
Dimensions
440
 16777216
100
AcDbMText
 10
6.388145
 20
2.95038
 30
0.0
 40
0.12
 41
0.0
 46
0.0
 71
     5
 72
     1
  1
\A1;R.49in
 73
     1
 44
1.0
  0
SOLID
  5
65F
330
2F8
100
AcDbEntity
  8
Dimensions
440
 16777216
100
AcDbTrace
 10
5.836853
 20
3.370463
 30
0.0
 11
5.799557
 21
3.356008
 31
0.0
 12
5.77484
 22
3.475126
 32
0.0
 13
5.77484
 23
3.475126
 33
0.0
  0
POINT
  5
660
330
2F8
100
AcDbEntity
  8
Defpoints
 62
     0
440
 16777216
100
AcDbPoint
 10
5.77484
 20
3.475126
 30
0.0
  0
POINT
  5
661
330
2F8
100
AcDbEntity
  8
Defpoints
 62
     0
440
 16777216
100
AcDbPoint
 10
5.596999
 20
3.933995
 30
0.0
  0
ENDBLK
  5
2FA
330
2F8
100
AcDbEntity
  8
0
100
AcDbBlockEnd
  0
BLOCK
  5
302
330
301
100
AcDbEntity
  8
0
100
AcDbBlockBegin
  2
*D26
 70
     1
 10
0.0
 20
0.0
 30
0.0
  3
*D26
  1

  0
LINE
  5
662
330
301
100
AcDbEntity
  8
Dimensions
440
 16777216
370
    -2
100
AcDbLine
 10
6.684277
 20
3.733172
 30
0.0
 11
6.564277
 21
3.733172
 31
0.0
  0
LINE
  5
663
330
301
100
AcDbEntity
  8
Dimensions
440
 16777216
370
    -2
100
AcDbLine
 10
6.564277
 20
3.733172
 30
0.0
 11
6.104327
 21
3.884709
 31
0.0
  0
MTEXT
  5
664
330
301
100
AcDbEntity
  8
Dimensions
440
 16777216
100
AcDbMText
 10
7.020825
 20
3.733172
 30
0.0
 40
0.12
 41
0.0
 46
0.0
 71
     5
 72
     1
  1
\A1;R1.57in
 73
     1
 44
1.0
  0
SOLID
  5
665
330
301
100
AcDbEntity
  8
Dimensions
440
 16777216
100
AcDbTrace
 10
6.110586
 20
3.903704
 30
0.0
 11
6.098069
 21
3.865713
 31
0.0
 12
5.990354
 22
3.922259
 32
0.0
 13
5.990354
 23
3.922259
 33
0.0
  0
POINT
  5
666
330
301
100
AcDbEntity
  8
Defpoints
 62
     0
440
 16777216
100
AcDbPoint
 10
5.990354
 20
3.922259
 30
0.0
  0
POINT
  5
667
330
301
100
AcDbEntity
  8
Defpoints
 62
     0
440
 16777216
100
AcDbPoint
 10
4.494637
 20
4.415043
 30
0.0
  0
ENDBLK
  5
303
330
301
100
AcDbEntity
  8
0
100
AcDbBlockEnd
  0
BLOCK
  5
30B
330
30A
100
AcDbEntity
  8
0
100
AcDbBlockBegin
  2
*D27
 70
     1
 10
0.0
 20
0.0
 30
0.0
  3
*D27
  1

  0
LINE
  5
668
330
30A
100
AcDbEntity
  8
Dimensions
440
 16777216
370
    -2
100
AcDbLine
 10
5.704244
 20
7.991544
 30
0.0
 11
5.584244
 21
7.991544
 31
0.0
  0
LINE
  5
669
330
30A
100
AcDbEntity
  8
Dimensions
440
 16777216
370
    -2
100
AcDbLine
 10
5.584244
 20
7.991544
 30
0.0
 11
5.54771
 21
7.52638
 31
0.0
  0
MTEXT
  5
66A
330
30A
100
AcDbEntity
  8
Dimensions
440
 16777216
100
AcDbMText
 10
5.994175
 20
7.991544
 30
0.0
 40
0.12
 41
0.0
 46
0.0
 71
     5
 72
     1
  1
\A1;R.75in
 73
     1
 44
1.0
  0
SOLID
  5
66B
330
30A
100
AcDbEntity
  8
Dimensions
440
 16777216
100
AcDbTrace
 10
5.527772
 20
7.527946
 30
0.0
 11
5.567649
 21
7.524814
 31
0.0
 12
5.538315
 22
7.406749
 32
0.0
 13
5.538315
 23
7.406749
 33
0.0
  0
POINT
  5
66C
330
30A
100
AcDbEntity
  8
Defpoints
 62
     0
440
 16777216
100
AcDbPoint
 10
5.538315
 20
7.406749
 30
0.0
  0
POINT
  5
66D
330
30A
100
AcDbEntity
  8
Defpoints
 62
     0
440
 16777216
100
AcDbPoint
 10
5.596884
 20
8.152484
 30
0.0
  0
ENDBLK
  5
30C
330
30A
100
AcDbEntity
  8
0
100
AcDbBlockEnd
  0
BLOCK
  5
314
330
313
100
AcDbEntity
  8
0
100
AcDbBlockBegin
  2
*D28
 70
     1
 10
0.0
 20
0.0
 30
0.0
  3
*D28
  1

  0
LINE
  5
66E
330
313
100
AcDbEntity
  8
Dimensions
440
 16777216
370
    -2
100
AcDbLine
 10
7.220526
 20
7.356027
 30
0.0
 11
7.220526
 21
8.298318
 31
0.0
  0
LINE
  5
66F
330
313
100
AcDbEntity
  8
Dimensions
440
 16777216
370
    -2
100
AcDbLine
 10
9.779528
 20
7.356027
 30
0.0
 11
9.779528
 21
8.298318
 31
0.0
  0
LINE
  5
670
330
313
100
AcDbEntity
  8
Dimensions
440
 16777216
370
    -2
100
AcDbLine
 10
7.340526
 20
8.198318
 30
0.0
 11
8.219877
 21
8.198318
 31
0.0
  0
LINE
  5
671
330
313
100
AcDbEntity
  8
Dimensions
440
 16777216
370
    -2
100
AcDbLine
 10
9.659528
 20
8.198318
 30
0.0
 11
8.780177
 21
8.198318
 31
0.0
  0
SOLID
  5
672
330
313
100
AcDbEntity
  8
Dimensions
440
 16777216
100
AcDbTrace
 10
7.340526
 20
8.218318
 30
0.0
 11
7.340526
 21
8.178318
 31
0.0
 12
7.220526
 22
8.198318
 32
0.0
 13
7.220526
 23
8.198318
 33
0.0
  0
SOLID
  5
673
330
313
100
AcDbEntity
  8
Dimensions
440
 16777216
100
AcDbTrace
 10
9.659528
 20
8.218318
 30
0.0
 11
9.659528
 21
8.178318
 31
0.0
 12
9.779528
 22
8.198318
 32
0.0
 13
9.779528
 23
8.198318
 33
0.0
  0
MTEXT
  5
674
330
313
100
AcDbEntity
  8
Dimensions
440
 16777216
100
AcDbMText
 10
8.500027
 20
8.198318
 30
0.0
 40
0.12
 41
0.0
 46
0.0
 71
     5
 72
     1
  1
\A1;2.56in
 73
     1
 44
1.0
  0
POINT
  5
675
330
313
100
AcDbEntity
  8
Defpoints
 62
     0
440
 16777216
100
AcDbPoint
 10
7.220526
 20
7.306027
 30
0.0
  0
POINT
  5
676
330
313
100
AcDbEntity
  8
Defpoints
 62
     0
440
 16777216
100
AcDbPoint
 10
9.779528
 20
7.306027
 30
0.0
  0
POINT
  5
677
330
313
100
AcDbEntity
  8
Defpoints
 62
     0
440
 16777216
100
AcDbPoint
 10
9.779528
 20
8.198318
 30
0.0
  0
ENDBLK
  5
315
330
313
100
AcDbEntity
  8
0
100
AcDbBlockEnd
  0
BLOCK
  5
321
330
320
100
AcDbEntity
  8
0
100
AcDbBlockBegin
  2
*D29
 70
     1
 10
0.0
 20
0.0
 30
0.0
  3
*D29
  1

  0
LINE
  5
678
330
320
100
AcDbEntity
  8
Dimensions
440
 16777216
370
    -2
100
AcDbLine
 10
9.43533
 20
7.57771
 30
0.0
 11
10.417521
 21
7.57771
 31
0.0
  0
LINE
  5
679
330
320
100
AcDbEntity
  8
Dimensions
440
 16777216
370
    -2
100
AcDbLine
 10
9.829528
 20
7.306027
 30
0.0
 11
10.417521
 21
7.306027
 31
0.0
  0
LINE
  5
67A
330
320
100
AcDbEntity
  8
Dimensions
440
 16777216
370
    -2
100
AcDbLine
 10
10.317521
 20
7.69771
 30
0.0
 11
10.317521
 21
7.81771
 31
0.0
  0
LINE
  5
67B
330
320
100
AcDbEntity
  8
Dimensions
440
 16777216
370
    -2
100
AcDbLine
 10
10.317521
 20
7.186027
 30
0.0
 11
10.317521
 21
7.066027
 31
0.0
  0
SOLID
  5
67C
330
320
100
AcDbEntity
  8
Dimensions
440
 16777216
100
AcDbTrace
 10
10.297521
 20
7.69771
 30
0.0
 11
10.337521
 21
7.69771
 31
0.0
 12
10.317521
 22
7.57771
 32
0.0
 13
10.317521
 23
7.57771
 33
0.0
  0
SOLID
  5
67D
330
320
100
AcDbEntity
  8
Dimensions
440
 16777216
100
AcDbTrace
 10
10.297521
 20
7.186027
 30
0.0
 11
10.337521
 21
7.186027
 31
0.0
 12
10.317521
 22
7.306027
 32
0.0
 13
10.317521
 23
7.306027
 33
0.0
  0
MTEXT
  5
67E
330
320
100
AcDbEntity
  8
Dimensions
440
 16777216
100
AcDbMText
 10
10.317521
 20
7.441869
 30
0.0
 40
0.12
 41
0.0
 46
0.0
 71
     5
 72
     1
  1
\A1;.27in
 73
     1
 44
1.0
  0
POINT
  5
67F
330
320
100
AcDbEntity
  8
Defpoints
 62
     0
440
 16777216
100
AcDbPoint
 10
9.38533
 20
7.57771
 30
0.0
  0
POINT
  5
680
330
320
100
AcDbEntity
  8
Defpoints
 62
     0
440
 16777216
100
AcDbPoint
 10
9.779528
 20
7.306027
 30
0.0
  0
POINT
  5
681
330
320
100
AcDbEntity
  8
Defpoints
 62
     0
440
 16777216
100
AcDbPoint
 10
10.317521
 20
7.306027
 30
0.0
  0
ENDBLK
  5
322
330
320
100
AcDbEntity
  8
0
100
AcDbBlockEnd
  0
BLOCK
  5
32E
330
32D
100
AcDbEntity
  8
0
100
AcDbBlockBegin
  2
*D30
 70
     1
 10
0.0
 20
0.0
 30
0.0
  3
*D30
  1

  0
LINE
  5
682
330
32D
100
AcDbEntity
  8
Dimensions
440
 16777216
370
    -2
100
AcDbLine
 10
12.341228
 20
4.392174
 30
0.0
 11
11.433114
 21
4.392174
 31
0.0
  0
LINE
  5
683
330
32D
100
AcDbEntity
  8
Dimensions
440
 16777216
370
    -2
100
AcDbLine
 10
12.341228
 20
3.407924
 30
0.0
 11
11.433114
 21
3.407924
 31
0.0
  0
LINE
  5
684
330
32D
100
AcDbEntity
  8
Dimensions
440
 16777216
370
    -2
100
AcDbLine
 10
11.533114
 20
4.272174
 30
0.0
 11
11.533114
 21
4.021317
 31
0.0
  0
LINE
  5
685
330
32D
100
AcDbEntity
  8
Dimensions
440
 16777216
370
    -2
100
AcDbLine
 10
11.533114
 20
3.527924
 30
0.0
 11
11.533114
 21
3.77878
 31
0.0
  0
SOLID
  5
686
330
32D
100
AcDbEntity
  8
Dimensions
440
 16777216
100
AcDbTrace
 10
11.513114
 20
4.272174
 30
0.0
 11
11.553114
 21
4.272174
 31
0.0
 12
11.533114
 22
4.392174
 32
0.0
 13
11.533114
 23
4.392174
 33
0.0
  0
SOLID
  5
687
330
32D
100
AcDbEntity
  8
Dimensions
440
 16777216
100
AcDbTrace
 10
11.513114
 20
3.527924
 30
0.0
 11
11.553114
 21
3.527924
 31
0.0
 12
11.533114
 22
3.407924
 32
0.0
 13
11.533114
 23
3.407924
 33
0.0
  0
MTEXT
  5
688
330
32D
100
AcDbEntity
  8
Dimensions
440
 16777216
100
AcDbMText
 10
11.533114
 20
3.900049
 30
0.0
 40
0.12
 41
0.0
 46
0.0
 71
     5
 72
     1
  1
\A1;.98in
 73
     1
 44
1.0
  0
POINT
  5
689
330
32D
100
AcDbEntity
  8
Defpoints
 62
     0
440
 16777216
100
AcDbPoint
 10
12.391228
 20
4.392174
 30
0.0
  0
POINT
  5
68A
330
32D
100
AcDbEntity
  8
Defpoints
 62
     0
440
 16777216
100
AcDbPoint
 10
12.391228
 20
3.407924
 30
0.0
  0
POINT
  5
68B
330
32D
100
AcDbEntity
  8
Defpoints
 62
     0
440
 16777216
100
AcDbPoint
 10
11.533114
 20
3.407924
 30
0.0
  0
ENDBLK
  5
32F
330
32D
100
AcDbEntity
  8
0
100
AcDbBlockEnd
  0
BLOCK
  5
33B
330
33A
100
AcDbEntity
  8
0
100
AcDbBlockBegin
  2
*D31
 70
     1
 10
0.0
 20
0.0
 30
0.0
  3
*D31
  1

  0
LINE
  5
68C
330
33A
100
AcDbEntity
  8
Dimensions
440
 16777216
370
    -2
100
AcDbLine
 10
5.646884
 20
7.404452
 30
0.0
 11
6.715117
 21
7.404452
 31
0.0
  0
LINE
  5
68D
330
33A
100
AcDbEntity
  8
Dimensions
440
 16777216
370
    -2
100
AcDbLine
 10
5.646884
 20
7.306027
 30
0.0
 11
6.715117
 21
7.306027
 31
0.0
  0
LINE
  5
68E
330
33A
100
AcDbEntity
  8
Dimensions
440
 16777216
370
    -2
100
AcDbLine
 10
6.615117
 20
7.524452
 30
0.0
 11
6.615117
 21
7.644452
 31
0.0
  0
LINE
  5
68F
330
33A
100
AcDbEntity
  8
Dimensions
440
 16777216
370
    -2
100
AcDbLine
 10
6.615117
 20
7.186027
 30
0.0
 11
6.615117
 21
7.066027
 31
0.0
  0
LINE
  5
690
330
33A
100
AcDbEntity
  8
Dimensions
440
 16777216
370
    -2
100
AcDbLine
 10
6.615117
 20
7.066027
 30
0.0
 11
6.495117
 21
7.066027
 31
0.0
  0
SOLID
  5
691
330
33A
100
AcDbEntity
  8
Dimensions
440
 16777216
100
AcDbTrace
 10
6.595117
 20
7.524452
 30
0.0
 11
6.635117
 21
7.524452
 31
0.0
 12
6.615117
 22
7.404452
 32
0.0
 13
6.615117
 23
7.404452
 33
0.0
  0
SOLID
  5
692
330
33A
100
AcDbEntity
  8
Dimensions
440
 16777216
100
AcDbTrace
 10
6.595117
 20
7.186027
 30
0.0
 11
6.635117
 21
7.186027
 31
0.0
 12
6.615117
 22
7.306027
 32
0.0
 13
6.615117
 23
7.306027
 33
0.0
  0
MTEXT
  5
693
330
33A
100
AcDbEntity
  8
Dimensions
440
 16777216
100
AcDbMText
 10
6.313358
 20
7.066027
 30
0.0
 40
0.12
 41
0.0
 46
0.0
 71
     5
 72
     1
  1
\A1;.1in
 73
     1
 44
1.0
  0
POINT
  5
694
330
33A
100
AcDbEntity
  8
Defpoints
 62
     0
440
 16777216
100
AcDbPoint
 10
5.596884
 20
7.404452
 30
0.0
  0
POINT
  5
695
330
33A
100
AcDbEntity
  8
Defpoints
 62
     0
440
 16777216
100
AcDbPoint
 10
5.596884
 20
7.306027
 30
0.0
  0
POINT
  5
696
330
33A
100
AcDbEntity
  8
Defpoints
 62
     0
440
 16777216
100
AcDbPoint
 10
6.615117
 20
7.306027
 30
0.0
  0
ENDBLK
  5
33C
330
33A
100
AcDbEntity
  8
0
100
AcDbBlockEnd
  0
ENDSEC
  0
SECTION
  2
ENTITIES
  0
INSERT
  5
1B5
330
70
100
AcDbEntity
  8
Titleblock
100
AcDbBlockReference
 66
     1
  2
Shower
 10
16.38
 20
0.38
 30
0.0
  0
ATTRIB
  5
1D5
330
1B5
100
AcDbEntity
  8
Titleblock
  6
Continuous
370
    25
100
AcDbText
 10
12.6925
 20
2.6925
 30
0.0
 40
0.12
  1
Railing Products and Mock Ups
100
AcDbAttribute
280
     0
  2
PROJECT
 70
     0
280
     1
1001
FD_ATT_APPNAME
1005
1C3
  0
ATTRIB
  5
1D6
330
1B5
100
AcDbEntity
  8
Titleblock
  6
Continuous
370
    25
100
AcDbText
 10
14.6925
 20
1.0675
 30
0.0
 40
0.12
  1
8/20/2019
100
AcDbAttribute
280
     0
  2
DRAWN_DATE
 70
     0
280
     1
1001
FD_ATT_APPNAME
1005
1C5
  0
ATTRIB
  5
1D7
330
1B5
100
AcDbEntity
  8
Titleblock
  6
Continuous
370
    25
100
AcDbText
 10
12.0675
 20
2.1925
 30
0.0
 40
0.3048
  1
R13-0155-038-12
100
AcDbAttribute
280
     0
  2
TITLE_1
 70
     0
280
     1
1001
FD_ATT_APPNAME
1005
1C6
  0
ATTRIB
  5
1D8
330
1B5
100
AcDbEntity
  8
Titleblock
  6
Continuous
370
    25
100
AcDbText
 10
14.6925
 20
1.29994
 30
0.0
 40
0.12
  1
1:1
100
AcDbAttribute
280
     0
  2
SCALE
 70
     0
280
     1
1001
FD_ATT_APPNAME
1005
1C7
  0
SEQEND
  5
1D9
330
1B5
100
AcDbEntity
  8
Titleblock
  0
INSERT
  5
1DA
330
70
100
AcDbEntity
  8
Border
100
AcDbBlockReference
  2
ANSI_B_SHEET
 10
0.0
 20
0.0
 30
0.0
  0
DIMENSION
  5
1FB
330
70
100
AcDbEntity
  8
Dimensions
100
AcDbDimension
280
     0
  2
*D19
 10
1.703429
 20
6.073857
 30
0.0
 11
2.171768
 21
6.069635
 31
0.0
 70
    33
 71
     5
 42
0.236257
 73
     0
 74
     0
 75
     0
  3
Standard
100
AcDbAlignedDimension
 13
1.455267
 23
5.399295
 33
0.0
 14
1.691487
 24
5.395139
 34
0.0
1001
ACAD_DIMASSOC_CALC_DIMLFAC
1040
-1.0
1001
ACAD_DIMASSOC_DIMLFAC
1040
-1.0
1001
ACAD_DIMASSOC_OVERRIDDEN_DIMLFAC
1040
0.0
1001
ACAD
1000
DSTYLE
1002
{
1070
   144
1040
1.0
1070
   176
1070
   256
1070
   177
1070
   256
1002
}
  0
DIMENSION
  5
20A
330
70
100
AcDbEntity
  8
Dimensions
100
AcDbDimension
280
     0
  2
*D20
 10
2.644243
 20
6.078118
 30
0.0
 11
3.066003
 21
6.078118
 31
0.0
 70
    33
 71
     5
 42
0.19685
 73
     0
 74
     0
 75
     0
  3
Standard
100
AcDbAlignedDimension
 13
2.447393
 23
5.399295
 33
0.0
 14
2.644243
 24
5.399295
 34
0.0
1001
ACAD_DIMASSOC_CALC_DIMLFAC
1040
-1.0
1001
ACAD_DIMASSOC_DIMLFAC
1040
-1.0
1001
ACAD_DIMASSOC_OVERRIDDEN_DIMLFAC
1040
0.0
1001
ACAD
1000
DSTYLE
1002
{
1070
   177
1070
   256
1070
   176
1070
   256
1070
   144
1040
1.0
1002
}
  0
DIMENSION
  5
218
330
70
100
AcDbEntity
  8
Dimensions
100
AcDbDimension
280
     0
  2
*D21
 10
6.329982
 20
3.922917
 30
0.0
 11
6.329982
 21
4.415043
 31
0.0
 70
    33
 71
     5
 42
0.984252
 73
     0
 74
     0
 75
     0
  3
Standard
100
AcDbAlignedDimension
 13
5.99057
 23
4.907169
 33
0.0
 14
5.99057
 24
3.922917
 34
0.0
1001
ACAD_DIMASSOC_CALC_DIMLFAC
1040
-1.0
1001
ACAD_DIMASSOC_DIMLFAC
1040
-1.0
1001
ACAD_DIMASSOC_OVERRIDDEN_DIMLFAC
1040
0.0
1001
ACAD
1000
DSTYLE
1002
{
1070
   144
1040
1.0
1070
   176
1070
   256
1070
   177
1070
   256
1002
}
  0
DIMENSION
  5
226
330
70
100
AcDbEntity
  8
Dimensions
100
AcDbDimension
280
     0
  2
*D22
 10
3.323066
 20
5.399295
 30
0.0
 11
3.323066
 21
4.415043
 31
0.0
 70
    33
  1
∅<>
 71
     5
 42
1.968504
 73
     0
 74
     0
 75
     0
  3
Standard
100
AcDbAlignedDimension
 13
2.644243
 23
3.430791
 33
0.0
 14
2.644243
 24
5.399295
 34
0.0
1001
ACAD_DIMASSOC_CALC_DIMLFAC
1040
-1.0
1001
ACAD_DIMASSOC_DIMLFAC
1040
-1.0
1001
ACAD_DIMASSOC_OVERRIDDEN_DIMLFAC
1040
0.0
1001
ACAD
1000
DSTYLE
1002
{
1070
   177
1070
   256
1070
   176
1070
   256
1070
   144
1040
1.0
1002
}
  0
DIMENSION
  5
234
330
70
100
AcDbEntity
  8
Dimensions
100
AcDbDimension
280
     0
  2
*D23
 10
1.115856
 20
3.430791
 30
0.0
 11
1.115856
 21
4.415043
 31
0.0
 70
    33
  1
∅<>
 71
     5
 42
1.968504
 73
     0
 74
     0
 75
     0
  3
Standard
100
AcDbAlignedDimension
 13
1.455267
 23
5.399295
 33
0.0
 14
1.455267
 24
3.430791
 34
0.0
1001
ACAD_DIMASSOC_CALC_DIMLFAC
1040
-1.0
1001
ACAD_DIMASSOC_DIMLFAC
1040
-1.0
1001
ACAD_DIMASSOC_OVERRIDDEN_DIMLFAC
1040
0.0
1001
ACAD
1000
DSTYLE
1002
{
1070
   144
1040
1.0
1070
   176
1070
   256
1070
   177
1070
   256
1002
}
  0
DIMENSION
  5
242
330
70
100
AcDbEntity
  8
Dimensions
100
AcDbDimension
280
     0
  2
*D24
 10
5.321409
 20
3.186861
 30
0.0
 11
4.903619
 21
3.186861
 31
0.0
 70
    33
  1
∅<>
 71
     5
 42
0.551181
 73
     0
 74
     0
 75
     0
  3
Standard
100
AcDbAlignedDimension
 13
5.87259
 23
3.526272
 33
0.0
 14
5.321409
 24
3.526272
 34
0.0
1001
ACAD_DIMASSOC_CALC_DIMLFAC
1040
-1.0
1001
ACAD_DIMASSOC_DIMLFAC
1040
-1.0
1001
ACAD_DIMASSOC_OVERRIDDEN_DIMLFAC
1040
0.0
1001
ACAD
1000
DSTYLE
1002
{
1070
   144
1040
1.0
1070
   176
1070
   256
1070
   177
1070
   256
1002
}
  0
DIMENSION
  5
250
330
70
100
AcDbEntity
  8
Dimensions
100
AcDbDimension
280
     0
  2
*D25
 10
5.596999
 20
3.933995
 30
0.0
 11
6.388145
 21
2.95038
 31
0.0
 70
   164
 71
     5
 42
0.492126
 73
     0
 74
     0
 75
     0
  3
Standard
100
AcDbRadialDimension
 15
5.77484
 25
3.475126
 35
0.0
 40
0.0
1001
ACAD_DIMASSOC_CALC_DIMLFAC
1040
-1.0
1001
ACAD_DIMASSOC_DIMLFAC
1040
-1.0
1001
ACAD_DIMASSOC_OVERRIDDEN_DIMLFAC
1040
0.0
1001
ACAD_DSTYLE_DIMRADIAL_EXTENSION
1070
   387
1070
     1
1070
   388
1040
4.118003
1070
   390
1040
5.306775
1001
ACAD
1000
DSTYLE
1002
{
1070
    75
1070
     1
1070
   144
1040
1.0
1070
   176
1070
   256
1070
   177
1070
   256
1002
}
  0
DIMENSION
  5
25A
330
70
100
AcDbEntity
  8
Dimensions
100
AcDbDimension
280
     0
  2
*D26
 10
4.494637
 20
4.415043
 30
0.0
 11
7.020825
 21
3.733172
 31
0.0
 70
   164
 71
     5
 42
1.574803
 73
     0
 74
     0
 75
     0
  3
Standard
100
AcDbRadialDimension
 15
5.990354
 25
3.922259
 35
0.0
 40
0.0
1001
ACAD_DIMASSOC_CALC_DIMLFAC
1040
-1.0
1001
ACAD_DIMASSOC_DIMLFAC
1040
-1.0
1001
ACAD_DIMASSOC_OVERRIDDEN_DIMLFAC
1040
0.0
1001
ACAD_DSTYLE_DIMRADIAL_EXTENSION
1070
   387
1070
     1
1070
   388
1040
5.965362
1070
   390
1040
0.317824
1001
ACAD
1000
DSTYLE
1002
{
1070
    75
1070
     1
1070
   144
1040
1.0
1070
   176
1070
   256
1070
   177
1070
   256
1002
}
  0
DIMENSION
  5
264
330
70
100
AcDbEntity
  8
Dimensions
100
AcDbDimension
280
     0
  2
*D27
 10
5.596884
 20
8.152484
 30
0.0
 11
5.994175
 21
7.991544
 31
0.0
 70
   164
 71
     5
 42
0.748031
 73
     0
 74
     0
 75
     0
  3
Standard
100
AcDbRadialDimension
 15
5.538315
 25
7.406749
 35
0.0
 40
0.0
1001
ACAD_DIMASSOC_CALC_DIMLFAC
1040
-1.0
1001
ACAD_DIMASSOC_DIMLFAC
1040
-1.0
1001
ACAD_DIMASSOC_OVERRIDDEN_DIMLFAC
1040
0.0
1001
ACAD_DSTYLE_DIMRADIAL_EXTENSION
1070
   387
1070
     1
1070
   388
1040
4.712389
1070
   390
1040
5.402164
1001
ACAD
1000
DSTYLE
1002
{
1070
    75
1070
     1
1070
   144
1040
1.0
1070
   176
1070
   256
1070
   177
1070
   256
1002
}
  0
DIMENSION
  5
26E
330
70
100
AcDbEntity
  8
Dimensions
100
AcDbDimension
280
     0
  2
*D28
 10
9.779528
 20
8.198318
 30
0.0
 11
8.500027
 21
8.198318
 31
0.0
 70
    32
 71
     5
 42
2.559002
 73
     0
 74
     0
 75
     0
  3
Standard
100
AcDbAlignedDimension
 13
7.220526
 23
7.306027
 33
0.0
 14
9.779528
 24
7.306027
 34
0.0
100
AcDbRotatedDimension
1001
ACAD_DIMASSOC_CALC_DIMLFAC
1040
-1.0
1001
ACAD_DIMASSOC_DIMLFAC
1040
-1.0
1001
ACAD_DIMASSOC_OVERRIDDEN_DIMLFAC
1040
0.0
1001
ACAD
1000
DSTYLE
1002
{
1070
   177
1070
   256
1070
   176
1070
   256
1070
   144
1040
1.0
1002
}
  0
DIMENSION
  5
27C
330
70
100
AcDbEntity
  8
Dimensions
100
AcDbDimension
280
     0
  2
*D29
 10
10.317521
 20
7.306027
 30
0.0
 11
10.317521
 21
7.441869
 31
0.0
 70
    32
 71
     5
 42
0.271683
 73
     0
 74
     0
 75
     0
  3
Standard
100
AcDbAlignedDimension
 13
9.38533
 23
7.57771
 33
0.0
 14
9.779528
 24
7.306027
 34
0.0
 50
90.0
100
AcDbRotatedDimension
1001
ACAD_DIMASSOC_CALC_DIMLFAC
1040
-1.0
1001
ACAD_DIMASSOC_DIMLFAC
1040
-1.0
1001
ACAD_DIMASSOC_OVERRIDDEN_DIMLFAC
1040
0.0
1001
ACAD
1000
DSTYLE
1002
{
1070
   177
1070
   256
1070
   176
1070
   256
1070
   144
1040
1.0
1002
}
  0
DIMENSION
  5
28A
330
70
100
AcDbEntity
  8
Dimensions
100
AcDbDimension
280
     0
  2
*D30
 10
11.533114
 20
3.407924
 30
0.0
 11
11.533114
 21
3.900049
 31
0.0
 70
    32
 71
     5
 42
0.98425
 73
     0
 74
     0
 75
     0
  3
Standard
100
AcDbAlignedDimension
 13
12.391228
 23
4.392174
 33
0.0
 14
12.391228
 24
3.407924
 34
0.0
 50
90.0
100
AcDbRotatedDimension
1001
ACAD_DIMASSOC_CALC_DIMLFAC
1040
-1.0
1001
ACAD_DIMASSOC_DIMLFAC
1040
-1.0
1001
ACAD_DIMASSOC_OVERRIDDEN_DIMLFAC
1040
0.0
1001
ACAD
1000
DSTYLE
1002
{
1070
   177
1070
   256
1070
   176
1070
   256
1070
   144
1040
1.0
1002
}
  0
DIMENSION
  5
298
330
70
100
AcDbEntity
  8
Dimensions
100
AcDbDimension
280
     0
  2
*D31
 10
6.615117
 20
7.306027
 30
0.0
 11
6.313358
 21
7.066027
 31
0.0
 70
    32
 71
     5
 42
0.098425
 73
     0
 74
     0
 75
     0
  3
Standard
100
AcDbAlignedDimension
 13
5.596884
 23
7.404452
 33
0.0
 14
5.596884
 24
7.306027
 34
0.0
 50
90.0
100
AcDbRotatedDimension
1001
ACAD_DIMASSOC_CALC_DIMLFAC
1040
-1.0
1001
ACAD_DIMASSOC_DIMLFAC
1040
-1.0
1001
ACAD_DIMASSOC_OVERRIDDEN_DIMLFAC
1040
0.0
1001
ACAD
1000
DSTYLE
1002
{
1070
   177
1070
   256
1070
   176
1070
   256
1070
   144
1040
1.0
1002
}
  0
MULTILEADER
  5
2A7
330
70
100
AcDbEntity
  8
Annotations
160
               648
310
88020000180000000C00000016000000000000C00C00000033000000000000000C00000013000000993A0000C400000026000000E6A23137D8601040E4C77A9F76161440000000000000000000000000000000000000000000000000000000000000F03F000000000000F03F00000000000000000000000000000000530065
310
00740020005300630072006500770000000900000001000000B81E85EB51B8BE3F000000000000F03F0000000000000000000000000000F03F00000000000000000000000000000000000000000000000000000000010000002200000041007200690061006C00000000000000000000000C00000033000000000000000C00
310
000010000000090000000C00000016000000000000C00C00000012000000FF7F00000C00000013000000010000000C000000140000000100000054000000070000000300000092FCF59AE1311640322890EF566112400000000000000000009060D9CF791640D0863D32A1FB11400000000000000000780E2D4CC814164009
310
7AA04D8344124000000000000000000C00000014000000010000000C00000013000000891300003C0000000600000002000000858591F3542316401D51981EED5212400000000000000000A07389611D261440F0B7987CF354144000000000000000000C00000013000000112700003C0000000600000002000000A0738961
310
1D261440F0B7987CF35414400000000000000000255FDB193CAB1340F0B7987CF354144000000000000000000C00000016000000000000C00C00000012000000FF7F00000C00000017000000000000000C000000130000009A3A00000C00000016000000000000C00C00000012000000FF7F00000C00000017000000FFFFFF
310
FF0C0000003300000000000000
100
AcDbMLeader
270
     2
300
CONTEXT_DATA{
 40
1.0
 10
4.042105
 20
5.08296
 30
0.0
 41
0.12
140
0.12
145
0.06
174
     1
175
     1
176
     2
177
     0
290
     1
304
Set Screw
 11
0.0
 21
0.0
 31
1.0
340
55
 12
4.857221
 22
5.143983
 32
0.0
 13
1.0
 23
0.0
 33
0.0
 42
0.0
 43
0.0
 44
0.0
 45
1.0
170
     1
 90
-1073741824
171
     3
172
     5
 91
-1073741824
141
0.0
 92
        0
291
     0
292
     0
173
     0
293
     0
142
0.0
143
0.0
294
     0
295
     0
296
     0
110
5.618957
120
4.495732
130
0.0
111
1.0
121
0.0
131
0.0
112
0.0
122
1.0
132
0.0
297
     0
302
LEADER{
290
     1
291
     1
 10
5.037221
 20
5.08296
 30
0.0
 11
-1.0
 21
0.0
 31
0.0
 90
        0
 40
0.12
304
LEADER_LINE{
 10
5.618957
 20
4.495732
 30
0.0
 91
        0
305
}
271
     0
303
}
272
     9
273
     9
301
}
340
67
 90
   279552
170
     1
 91
-1056964608
341
5B
171
    -2
290
     1
291
     1
 41
0.12
 42
0.12
172
     2
343
55
173
     1
 95
        1
174
     1
175
     2
 92
-1056964608
292
     0
 93
-1056964608
 10
1.0
 20
1.0
 30
1.0
 43
0.0
176
     0
293
     0
294
     0
178
     0
179
     3
 45
1.0
271
     0
272
     9
273
     9
295
     0
  0
CIRCLE
  5
4AE
330
70
100
AcDbEntity
  8
Visible
100
AcDbCircle
 10
8.501614
 20
6.907549
 30
2.088175
 40
0.1181102362204725
  0
CIRCLE
  5
4AF
330
70
100
AcDbEntity
  8
Visible
100
AcDbCircle
 10
8.501614
 20
6.907549
 30
1.977742
 40
0.2066929133858268
  0
LINE
  5
4B0
330
70
100
AcDbEntity
  8
Visible
100
AcDbLine
 10
7.468648
 20
7.306027
 30
1.824701
 11
7.220472
 21
7.306027
 31
1.824701
210
0.0
220
1.0
230
0.0
  0
LINE
  5
4B1
330
70
100
AcDbEntity
  8
Visible
100
AcDbLine
 10
8.224409
 20
7.306027
 30
1.824701
 11
7.516883
 21
7.306027
 31
1.824701
210
0.0
220
1.0
230
0.0
  0
LINE
  5
4B2
330
70
100
AcDbEntity
  8
Visible
100
AcDbLine
 10
9.779528
 20
7.306027
 30
1.824701
 11
8.775591
 21
7.306027
 31
1.824701
210
0.0
220
1.0
230
0.0
  0
LINE
  5
4B3
330
70
100
AcDbEntity
  8
Visible
100
AcDbLine
 10
9.38533
 20
7.57771
 30
2.306984
 11
7.61467
 21
7.57771
 31
2.306984
210
0.0
220
1.0
230
0.0
  0
LINE
  5
4B4
330
70
100
AcDbEntity
  8
Visible
100
AcDbLine
 10
9.779528
 20
7.404452
 30
1.824701
 11
9.779528
 21
7.306027
 31
1.824701
210
0.0
220
1.0
230
0.0
  0
LINE
  5
4B5
330
70
100
AcDbEntity
  8
Visible
100
AcDbLine
 10
7.220472
 20
7.404452
 30
1.824701
 11
7.220472
 21
7.306027
 31
1.824701
210
0.0
220
1.0
230
0.0
  0
LINE
  5
4B6
330
70
100
AcDbEntity
  8
Visible
100
AcDbLine
 10
8.224409
 20
7.306027
 30
1.824701
 11
8.224409
 21
6.892641
 31
1.824701
210
0.0
220
1.0
230
0.0
  0
SPLINE
  5
4B7
330
70
100
AcDbEntity
  8
Visible
100
AcDbSpline
 70
     0
 71
     3
 72
    14
 73
    10
 74
     0
 42
0.000000001
 43
0.0000000001
 40
0.8614158771370725
 40
0.8614158771370725
 40
0.8614158771370725
 40
0.8614158771370725
 40
0.9657163878682641
 40
0.9657163878682641
 40
1.446823100655255
 40
1.446823100655255
 40
1.687376457048751
 40
1.687376457048751
 40
1.927929813442247
 40
1.927929813442247
 40
1.927929813442247
 40
1.927929813442247
 10
9.605972754674439
 20
7.385476310563344
 30
2.19980062803188
 10
9.616266946206451
 20
7.381598766223303
 30
2.191057831227226
 10
9.626084401154002
 20
7.377739790899378
 30
2.181988580290635
 10
9.678299555584089
 20
7.356544260486916
 30
2.129773425860548
 10
9.71600228569514
 20
7.338464312357205
 30
2.075272630370818
 10
9.753986619600254
 20
7.319421998045091
 30
1.984577377341338
 10
9.763668115147083
 20
7.314380748543603
 30
1.952871655505077
 10
9.776440850337166
 20
7.307681298168542
 30
1.888718226136916
 10
9.779527559052439
 20
7.306027127233301
 30
1.856269195823188
 10
9.779527559052439
 20
7.306027127233301
 30
1.824700513881907
1001
ACAD_VIEW_EDGE_ID
1071
       41
1071
       -1
1071
        9
1071
        0
  0
SPLINE
  5
4B8
330
70
100
AcDbEntity
  8
Visible
100
AcDbSpline
 70
     0
 71
     3
 72
    24
 73
    20
 74
     0
 42
0.000000001
 43
0.0000000001
 40
6.470569909110528
 40
6.470569909110528
 40
6.470569909110528
 40
6.470569909110528
 40
6.480392878344787
 40
6.480392878344787
 40
6.490215847579046
 40
6.490215847579046
 40
6.509861786047564
 40
6.509861786047564
 40
6.5491536629846
 40
6.5491536629846
 40
6.627737416858674
 40
6.627737416858674
 40
6.78490492460682
 40
6.78490492460682
 40
7.099239940103112
 40
7.099239940103112
 40
7.413574955599404
 40
7.413574955599404
 40
7.552066411691978
 40
7.552066411691978
 40
7.552066411691978
 40
7.552066411691978
 10
9.287402416310214
 20
7.562848565095235
 30
2.316825656625951
 10
9.288691519885105
 20
7.562848565095235
 30
2.316825656625951
 10
9.289751726882968
 20
7.562490731398398
 30
2.316821061504015
 10
9.291748630843358
 20
7.561688683213082
 30
2.316807477775
 10
9.292675712376876
 20
7.561220737161622
 30
2.316798245759855
 10
9.295419602156471
 20
7.55977441004221
 30
2.31676376436917
 10
9.297162457969534
 20
7.558745460817275
 30
2.316731992044879
 10
9.30242422997253
 20
7.555609058705363
 30
2.316608852139324
 10
9.305915105338499
 20
7.553444461283772
 30
2.316489982918938
 10
9.316488507398389
 20
7.546876475232441
 30
2.316016039399983
 10
9.323779306027063
 20
7.542297243344025
 30
2.315534478602785
 10
9.345760264752243
 20
7.528518454764199
 30
2.313574711048204
 10
9.361333966448
 20
7.518765834680838
 30
2.311495658630519
 10
9.407816230335811
 20
7.489965008974174
 30
2.302906319690009
 10
9.440893641454749
 20
7.469861402750092
 30
2.293521672900169
 10
9.50416325691367
 20
7.433562624206833
 30
2.267834415319157
 10
9.535833155387081
 20
7.416442444527659
 30
2.251130694430685
 10
9.579814322712991
 20
7.396015627279204
 30
2.220868441352649
 10
9.593043948698323
 20
7.390346243114824
 30
2.210780987510588
 10
9.605972754674439
 20
7.385476310563344
 30
2.19980062803188
1001
ACAD_VIEW_EDGE_ID
1071
       40
1071
       -1
1071
        9
1071
        0
  0
LINE
  5
4B9
330
70
100
AcDbEntity
  8
Visible
100
AcDbLine
 10
8.775591
 20
7.306027
 30
1.824701
 11
8.775591
 21
6.892641
 31
1.824701
210
0.0
220
1.0
230
0.0
  0
LINE
  5
4BA
330
70
100
AcDbEntity
  8
Visible
100
AcDbLine
 10
7.712598
 20
7.562849
 30
2.316826
 11
9.287402
 21
7.562849
 31
2.316826
210
0.0
220
1.0
230
0.0
  0
LINE
  5
4BB
330
70
100
AcDbEntity
  8
Visible
100
AcDbLine
 10
9.287402
 20
7.567997
 30
2.316826
 11
7.712598
 21
7.567997
 31
2.316826
210
0.0
220
1.0
230
0.0
  0
LINE
  5
4BC
330
70
100
AcDbEntity
  8
Visible
100
AcDbLine
 10
8.235897
 20
7.078046
 30
1.903441
 11
8.235897
 21
7.098159
 31
1.903441
210
0.0
220
1.0
230
0.0
  0
LINE
  5
4BD
330
70
100
AcDbEntity
  8
Visible
100
AcDbLine
 10
8.764103
 20
7.098159
 30
1.903441
 11
8.764103
 21
7.078046
 31
1.903441
210
0.0
220
1.0
230
0.0
  0
LINE
  5
4BE
330
70
100
AcDbEntity
  8
Visible
100
AcDbLine
 10
8.775591
 20
4.822766
 30
1.824816
 11
8.775591
 21
6.723702
 31
1.824816
210
0.0
220
1.0
230
0.0
  0
LINE
  5
4BF
330
70
100
AcDbEntity
  8
Visible
100
AcDbLine
 10
8.775591
 20
3.526272
 30
1.824816
 11
8.775591
 21
4.007321
 31
1.824816
210
0.0
220
1.0
230
0.0
  0
LINE
  5
4C0
330
70
100
AcDbEntity
  8
Visible
100
AcDbLine
 10
8.224409
 20
4.822766
 30
1.824816
 11
8.224409
 21
6.723702
 31
1.824816
210
0.0
220
1.0
230
0.0
  0
LINE
  5
4C1
330
70
100
AcDbEntity
  8
Visible
100
AcDbLine
 10
8.224409
 20
3.526272
 30
1.824816
 11
8.224409
 21
4.007321
 31
1.824816
210
0.0
220
1.0
230
0.0
  0
LINE
  5
4C2
330
70
100
AcDbEntity
  8
Visible
100
AcDbLine
 10
8.235897
 20
7.078046
 30
1.903556
 11
8.235897
 21
6.712885
 31
1.903556
210
0.0
220
1.0
230
0.0
  0
LINE
  5
4C3
330
70
100
AcDbEntity
  8
Visible
100
AcDbLine
 10
8.764103
 20
6.712885
 30
1.903556
 11
8.764103
 21
7.078046
 31
1.903556
210
0.0
220
1.0
230
0.0
  0
SPLINE
  5
4C4
330
70
100
AcDbEntity
  8
Visible
100
AcDbSpline
 70
     0
 71
     3
 72
    22
 73
    18
 74
     0
 42
0.000000001
 43
0.0000000001
 40
0.0391361519072636
 40
0.0391361519072636
 40
0.0391361519072636
 40
0.0391361519072636
 40
0.0400420764210185
 40
0.0400420764210185
 40
0.1018962334595151
 40
0.1018962334595151
 40
0.222824588648715
 40
0.222824588648715
 40
0.2832887662433149
 40
0.2832887662433149
 40
0.3135208550406149
 40
0.3135208550406149
 40
0.3286368994392649
 40
0.3286368994392649
 40
0.3361949216385899
 40
0.3361949216385899
 40
0.3437529438379149
 40
0.3437529438379149
 40
0.3437529438379149
 40
0.3437529438379149
 10
9.412270646178512
 20
7.575460390975131
 30
2.300720556831947
 10
9.412156279126065
 20
7.575485140076583
 30
2.300750557273204
 10
9.412042699636003
 20
7.575509383560618
 30
2.300780307050445
 10
9.404235038035039
 20
7.577154283659295
 30
2.302822420655502
 10
9.394763402817261
 20
7.577655209993078
 30
2.3050406677321
 10
9.371271155428985
 20
7.577804745771883
 30
2.3098860799073
 10
9.354211636617037
 20
7.576375876702156
 30
2.312571373182436
 10
9.328611136328618
 20
7.573481375042353
 30
2.315172295682714
 10
9.32004433646216
 20
7.572379950689897
 30
2.315813170805995
 10
9.307511687809892
 20
7.570689923331489
 30
2.316432419083866
 10
9.303376504103653
 20
7.570117771364566
 30
2.316583034316863
 10
9.297298443203544
 20
7.569270296748733
 30
2.316730321559589
 10
9.295290880945685
 20
7.568983689761656
 30
2.316766441948857
 10
9.29231331896517
 20
7.568576284980601
 30
2.316802149947761
 10
9.291327391310915
 20
7.568435093927595
 30
2.316810984428229
 10
9.289364100175589
 20
7.568172063805657
 30
2.316822725037127
 10
9.288394282741137
 20
7.567996680313857
 30
2.316825656625951
 10
9.287402416310214
 20
7.567996680313857
 30
2.316825656625951
1001
ACAD_VIEW_EDGE_ID
1071
       38
1071
       -1
1071
        9
1071
        0
  0
SPLINE
  5
4C5
330
70
100
AcDbEntity
  8
Visible
100
AcDbSpline
 70
     0
 71
     3
 72
    16
 73
    12
 74
     0
 42
0.000000001
 43
0.0000000001
 40
5.87713379579406
 40
5.87713379579406
 40
5.87713379579406
 40
5.87713379579406
 40
6.120750749539656
 40
6.120750749539656
 40
6.364367703285251
 40
6.364367703285251
 40
6.851601610776441
 40
6.851601610776441
 40
7.343890002584261
 40
7.343890002584261
 40
7.519495441059433
 40
7.519495441059433
 40
7.519495441059433
 40
7.519495441059433
 10
9.779527559052439
 20
7.404452324083695
 30
1.824700513881907
 10
9.779527559052439
 20
7.404452324083695
 30
1.85667124272004
 10
9.776361885686128
 20
7.406547449325197
 30
1.889419658245969
 10
9.763392989010753
 20
7.414983493419768
 30
1.953940233135654
 10
9.753595033525925
 20
7.421319574605552
 30
1.985714083670245
 10
9.715400131324713
 20
7.445269171306716
 30
2.076295755265164
 10
9.677769217734748
 20
7.468049697760482
 30
2.130303763711708
 10
9.592566004575928
 20
7.512826467220271
 30
2.215506976868709
 10
9.538657600904116
 20
7.538271004313982
 30
2.25284500514499
 10
9.457161455944515
 20
7.564461344443933
 30
2.287204284653853
 10
9.434945027978756
 20
7.570553640615414
 30
2.294772677198125
 10
9.412270646178512
 20
7.575460390975131
 30
2.300720556831947
1001
ACAD_VIEW_EDGE_ID
1071
       37
1071
       -1
1071
        9
1071
        0
  0
SPLINE
  5
4C6
330
70
100
AcDbEntity
  8
Visible
100
AcDbSpline
 70
     0
 71
     3
 72
    24
 73
    20
 74
     0
 42
0.000000001
 43
0.0000000001
 40
5.389073406529078
 40
5.389073406529078
 40
5.389073406529078
 40
5.389073406529078
 40
5.527564862621652
 40
5.527564862621652
 40
5.841899878117944
 40
5.841899878117944
 40
6.156234893614236
 40
6.156234893614236
 40
6.313402401362382
 40
6.313402401362382
 40
6.391986155236455
 40
6.391986155236455
 40
6.431278032173492
 40
6.431278032173492
 40
6.45092397064201
 40
6.45092397064201
 40
6.460746939876269
 40
6.460746939876269
 40
6.470569909110528
 40
6.470569909110528
 40
6.470569909110528
 40
6.470569909110528
 10
7.394027245321922
 20
7.385476310563344
 30
2.19980062803188
 10
7.406956051298038
 20
7.390346243114824
 30
2.210780987510588
 10
7.42018567728337
 20
7.396015627279204
 30
2.220868441352649
 10
7.46416684460928
 20
7.416442444527659
 30
2.251130694430685
 10
7.495836743082691
 20
7.433562624206833
 30
2.267834415319157
 10
7.559106358541612
 20
7.469861402750092
 30
2.293521672900169
 10
7.59218376966055
 20
7.489965008974174
 30
2.302906319690009
 10
7.638666033548361
 20
7.518765834680838
 30
2.311495658630519
 10
7.654239735244118
 20
7.528518454764199
 30
2.313574711048204
 10
7.676220693969298
 20
7.542297243344025
 30
2.315534478602785
 10
7.683511492597972
 20
7.546876475232441
 30
2.316016039399983
 10
7.694084894657862
 20
7.553444461283772
 30
2.316489982918938
 10
7.697575770023831
 20
7.555609058705363
 30
2.316608852139324
 10
7.702837542026827
 20
7.558745460817275
 30
2.316731992044879
 10
7.70458039783989
 20
7.55977441004221
 30
2.31676376436917
 10
7.707324287619485
 20
7.561220737161622
 30
2.316798245759855
 10
7.708251369153003
 20
7.561688683213082
 30
2.316807477775
 10
7.710248273113393
 20
7.562490731398398
 30
2.316821061504015
 10
7.711308480111256
 20
7.562848565095235
 30
2.316825656625951
 10
7.712597583686147
 20
7.562848565095235
 30
2.316825656625951
1001
ACAD_VIEW_EDGE_ID
1071
       31
1071
       -1
1071
        9
1071
        0
  0
SPLINE
  5
4C7
330
70
100
AcDbEntity
  8
Visible
100
AcDbSpline
 70
     0
 71
     3
 72
    14
 73
    10
 74
     0
 42
0.000000001
 43
0.0000000001
 40
5.783789440326742
 40
5.783789440326742
 40
5.783789440326742
 40
5.783789440326742
 40
6.024342796720238
 40
6.024342796720238
 40
6.264896153113734
 40
6.264896153113734
 40
6.746002865900726
 40
6.746002865900726
 40
6.850303376631917
 40
6.850303376631917
 40
6.850303376631917
 40
6.850303376631917
 10
7.220472440943922
 20
7.306027127233301
 30
1.824700513881907
 10
7.220472440943922
 20
7.306027127233301
 30
1.856269195823188
 10
7.223559149659195
 20
7.307681298168542
 30
1.888718226136916
 10
7.236331884849278
 20
7.314380748543603
 30
1.952871655505077
 10
7.246013380396107
 20
7.319421998045091
 30
1.984577377341338
 10
7.283997714301222
 20
7.338464312357205
 30
2.075272630370818
 10
7.321700444412272
 20
7.356544260486916
 30
2.129773425860548
 10
7.373915598842359
 20
7.377739790899378
 30
2.181988580290635
 10
7.38373305378991
 20
7.381598766223303
 30
2.191057831227226
 10
7.394027245321922
 20
7.385476310563344
 30
2.19980062803188
1001
ACAD_VIEW_EDGE_ID
1071
       30
1071
       -1
1071
        9
1071
        0
  0
SPLINE
  5
4C8
330
70
100
AcDbEntity
  8
Visible
100
AcDbSpline
 70
     0
 71
     3
 72
    16
 73
    12
 74
     0
 42
0.000000001
 43
0.0000000001
 40
0.3166829533326489
 40
0.3166829533326489
 40
0.3166829533326489
 40
0.3166829533326489
 40
0.4922883918078198
 40
0.4922883918078198
 40
0.9845767836156394
 40
0.9845767836156394
 40
1.47181069110683
 40
1.47181069110683
 40
1.715427644852425
 40
1.715427644852425
 40
1.959044598598021
 40
1.959044598598021
 40
1.959044598598021
 40
1.959044598598021
 10
7.587729353817849
 20
7.575460390975131
 30
2.300720556831947
 10
7.565054972017605
 20
7.570553640615414
 30
2.294772677198125
 10
7.542838544051846
 20
7.564461344443932
 30
2.287204284653853
 10
7.461342399092245
 20
7.538271004313982
 30
2.25284500514499
 10
7.407433995420433
 20
7.512826467220271
 30
2.215506976868709
 10
7.322230782261613
 20
7.468049697760482
 30
2.130303763711708
 10
7.284599868671648
 20
7.445269171306716
 30
2.076295755265164
 10
7.246404966470436
 20
7.421319574605552
 30
1.985714083670245
 10
7.236607010985608
 20
7.414983493419768
 30
1.953940233135654
 10
7.223638114310233
 20
7.406547449325197
 30
1.889419658245969
 10
7.220472440943922
 20
7.404452324083695
 30
1.85667124272004
 10
7.220472440943922
 20
7.404452324083695
 30
1.824700513881907
1001
ACAD_VIEW_EDGE_ID
1071
       24
1071
       -1
1071
        9
1071
        0
  0
SPLINE
  5
4C9
330
70
100
AcDbEntity
  8
Visible
100
AcDbSpline
 70
     0
 71
     3
 72
    22
 73
    18
 74
     0
 42
0.000000001
 43
0.0000000001
 40
0.3437529438379148
 40
0.3437529438379148
 40
0.3437529438379148
 40
0.3437529438379148
 40
0.3513109660372399
 40
0.3513109660372399
 40
0.3588689882365649
 40
0.3588689882365649
 40
0.3739850326352148
 40
0.3739850326352148
 40
0.4042171214325149
 40
0.4042171214325149
 40
0.464681299027115
 40
0.464681299027115
 40
0.5856096542163152
 40
0.5856096542163152
 40
0.6474638112548118
 40
0.6474638112548118
 40
0.6483697357685667
 40
0.6483697357685667
 40
0.6483697357685667
 40
0.6483697357685667
 10
7.712597583686147
 20
7.567996680313857
 30
2.316825656625951
 10
7.711605717255224
 20
7.567996680313857
 30
2.316825656625951
 10
7.710635899820772
 20
7.568172063805657
 30
2.316822725037127
 10
7.708672608685446
 20
7.568435093927595
 30
2.316810984428229
 10
7.707686681031191
 20
7.568576284980601
 30
2.316802149947761
 10
7.704709119050676
 20
7.568983689761656
 30
2.316766441948857
 10
7.702701556792817
 20
7.569270296748733
 30
2.316730321559589
 10
7.696623495892708
 20
7.570117771364566
 30
2.316583034316863
 10
7.692488312186469
 20
7.570689923331489
 30
2.316432419083866
 10
7.679955663534201
 20
7.572379950689897
 30
2.315813170805995
 10
7.671388863667743
 20
7.573481375042353
 30
2.315172295682714
 10
7.645788363379324
 20
7.576375876702156
 30
2.312571373182436
 10
7.628728844567376
 20
7.577804745771883
 30
2.3098860799073
 10
7.6052365971791
 20
7.577655209993078
 30
2.3050406677321
 10
7.595764961961322
 20
7.577154283659295
 30
2.302822420655502
 10
7.587957300360358
 20
7.575509383560618
 30
2.300780307050445
 10
7.587843720870296
 20
7.575485140076583
 30
2.300750557273204
 10
7.587729353817849
 20
7.575460390975131
 30
2.300720556831947
1001
ACAD_VIEW_EDGE_ID
1071
       23
1071
       -1
1071
        9
1071
        0
  0
SPLINE
  5
4CA
330
70
100
AcDbEntity
  8
Visible
100
AcDbSpline
 70
     0
 71
     3
 72
    14
 73
    10
 74
     0
 42
0.000000001
 43
0.0000000001
 40
3.185139643362986
 40
3.185139643362986
 40
3.185139643379669
 40
3.185139643379669
 40
3.450529563614821
 40
3.450529563614821
 40
3.715919483866656
 40
3.715919483866656
 40
3.981386170841986
 40
3.981386170841986
 40
4.246852857817315
 40
4.246852857817315
 40
4.246852857817315
 40
4.246852857817315
 10
8.224409448817823
 20
7.306027127233301
 30
1.824700513887364
 10
8.224409448817823
 20
7.306027127233573
 30
1.85952858741075
 10
8.23141291072352
 20
7.308188430400409
 30
1.896536515314437
 10
8.259604759712601
 20
7.315994241463577
 30
1.964377149888605
 10
8.280781823808865
 20
7.321536972656891
 30
1.995226232835193
 10
8.329481323438812
 20
7.332029821587415
 30
2.04392573246514
 10
8.360327541406149
 20
7.337684123479757
 30
2.065097341397631
 10
8.428157773490966
 20
7.345748738436002
 30
2.093285164997723
 10
8.465161852102028
 20
7.348025777856349
 30
2.100291065064084
 10
8.499999999998181
 20
7.348025777856349
 30
2.100291065064084
1001
ACAD_VIEW_EDGE_ID
1071
       22
1071
       -1
1071
        9
1071
        0
  0
SPLINE
  5
4CB
330
70
100
AcDbEntity
  8
Visible
100
AcDbSpline
 70
     0
 71
     3
 72
    14
 73
    10
 74
     0
 42
0.000000001
 43
0.0000000001
 40
0.0
 40
0.0
 40
0.0
 40
0.0
 40
0.2654666869753293
 40
0.2654666869753293
 40
0.5309333739506586
 40
0.5309333739506586
 40
0.7963232942024937
 40
0.7963232942024937
 40
1.061713214454328
 40
1.061713214454328
 40
1.061713214454329
 40
1.061713214454329
 10
8.499999999998181
 20
7.348025777856349
 30
2.100291065064084
 10
8.534838147894333
 20
7.348025777856349
 30
2.100291065064084
 10
8.571842226505395
 20
7.345748738436002
 30
2.093285164997723
 10
8.639672458590212
 20
7.337684123479757
 30
2.065097341397631
 10
8.670518676557549
 20
7.332029821587415
 30
2.04392573246514
 10
8.719218176187496
 20
7.321536972656891
 30
1.995226232835193
 10
8.74039524028376
 20
7.315994241463577
 30
1.964377149888605
 10
8.76858708927466
 20
7.308188430400164
 30
1.896536515312618
 10
8.775590551178538
 20
7.306027127233301
 30
1.859528587407112
 10
8.775590551178538
 20
7.306027127233301
 30
1.824700513881907
1001
ACAD_VIEW_EDGE_ID
1071
       22
1071
       -1
1071
        9
1071
        0
  0
SPLINE
  5
4CC
330
70
100
AcDbEntity
  8
Visible
100
AcDbSpline
 70
     0
 71
     3
 72
    14
 73
    10
 74
     0
 42
0.000000001
 43
0.0000000001
 40
0.2072879161788841
 40
0.2072879161788841
 40
0.2072879161788841
 40
0.2072879161788841
 40
0.2901318620391773
 40
0.2901318620391773
 40
0.5802637240783547
 40
0.5802637240783547
 40
0.8595060823891273
 40
0.8595060823891273
 40
1.1387484406999
 40
1.1387484406999
 40
1.1387484406999
 40
1.1387484406999
 10
8.235897482971267
 20
7.098159145125241
 30
1.903440671363568
 10
8.238876019562667
 20
7.101986739815015
 30
1.913430986800449
 10
8.242400757140785
 20
7.106343181469712
 30
1.923182212052779
 10
8.260545191902565
 20
7.127411221707816
 30
1.965803154926106
 10
8.281110070212889
 20
7.147489820935388
 30
1.995554479239217
 10
8.328244568992886
 20
7.181252371487065
 30
2.042688978019214
 10
8.357987004512324
 20
7.19775249128395
 30
2.063719334715642
 10
8.425503340138675
 20
7.220834511206433
 30
2.092558578244279
 10
8.463354021218037
 20
7.227286969752986
 30
2.100291065064084
 10
8.499999999998181
 20
7.227286969752986
 30
2.100291065064084
1001
ACAD_VIEW_EDGE_ID
1071
       21
1071
       -1
1071
        9
1071
        0
  0
SPLINE
  5
4CD
330
70
100
AcDbEntity
  8
Visible
100
AcDbSpline
 70
     0
 71
     3
 72
    14
 73
    10
 74
     0
 42
0.000000001
 43
0.0000000001
 40
1.1387484406999
 40
1.1387484406999
 40
1.1387484406999
 40
1.1387484406999
 40
1.417990799010673
 40
1.417990799010673
 40
1.697233157321445
 40
1.697233157321445
 40
1.987365019360623
 40
1.987365019360623
 40
2.070208965220916
 40
2.070208965220916
 40
2.070208965220916
 40
2.070208965220916
 10
8.499999999998181
 20
7.227286969752986
 30
2.100291065064084
 10
8.536645978778324
 20
7.227286969752986
 30
2.100291065064084
 10
8.574496659857686
 20
7.220834511206433
 30
2.092558578244279
 10
8.642012995484037
 20
7.19775249128395
 30
2.063719334715642
 10
8.671755431003475
 20
7.181252371487065
 30
2.042688978019214
 10
8.718889929783472
 20
7.147489820935388
 30
1.995554479239217
 10
8.739454808093796
 20
7.127411221707816
 30
1.965803154926106
 10
8.757599242855576
 20
7.106343181469712
 30
1.923182212052779
 10
8.761123980433694
 20
7.101986739815015
 30
1.913430986800449
 10
8.764102517025094
 20
7.098159145125241
 30
1.903440671363568
1001
ACAD_VIEW_EDGE_ID
1071
       20
1071
       -1
1071
        9
1071
        0
  0
SPLINE
  5
4CE
330
70
100
AcDbEntity
  8
Visible
100
AcDbSpline
 70
     0
 71
     3
 72
    10
 73
     6
 74
     0
 42
0.000000001
 43
0.0000000001
 40
0.7876292891518966
 40
0.7876292891518966
 40
0.7876292891518966
 40
0.7876292891518966
 40
0.8475837638844783
 40
0.8475837638844783
 40
0.9075382386170563
 40
0.9075382386170563
 40
0.9075382386170563
 40
0.9075382386170563
 10
7.468654111771684
 20
7.306024757599173
 30
1.824672622942671
 10
7.476731160882991
 20
7.306024212294055
 30
1.826477193990285
 10
7.484897180434927
 20
7.306030981405318
 30
1.827371042063532
 10
7.500633263041891
 20
7.306030981405318
 30
1.827371042063532
 10
7.508799282595646
 20
7.306024212294055
 30
1.826477193990285
 10
7.516876331705134
 20
7.306024757599175
 30
1.824672622942671
1001
ACAD_VIEW_EDGE_ID
1071
        2
1071
       -1
1071
        9
1071
        0
  0
ARC
  5
4CF
330
70
100
AcDbEntity
  8
Visible
100
AcDbCircle
 10
8.501614
 20
6.907549
 30
2.088175
 40
0.0909213022345862
100
AcDbArc
 50
210.0
 51
270.0
  0
ARC
  5
4D0
330
70
100
AcDbEntity
  8
Visible
100
AcDbCircle
 10
8.501614
 20
6.907549
 30
2.088175
 40
0.0909213022345863
100
AcDbArc
 50
270.0
 51
330.0
  0
ARC
  5
4D1
330
70
100
AcDbEntity
  8
Visible
100
AcDbCircle
 10
8.501614
 20
6.907549
 30
2.088175
 40
0.0909213022345862
100
AcDbArc
 50
30.0
 51
90.0
  0
ARC
  5
4D2
330
70
100
AcDbEntity
  8
Visible
100
AcDbCircle
 10
8.501614
 20
6.907549
 30
2.088175
 40
0.0909213022345859
100
AcDbArc
 50
90.0
 51
150.0
  0
ARC
  5
4D3
330
70
100
AcDbEntity
  8
Visible
100
AcDbCircle
 10
8.501614
 20
6.907549
 30
2.088175
 40
0.0909213022345878
100
AcDbArc
 50
150.0
 51
210.0
  0
ARC
  5
4D4
330
70
100
AcDbEntity
  8
Visible
100
AcDbCircle
 10
8.501614
 20
6.907549
 30
2.088175
 40
0.0909213022345877
100
AcDbArc
 50
330.0
 51
30.0
  0
SPLINE
  5
4D5
330
70
100
AcDbEntity
  8
Visible
100
AcDbSpline
 70
     1
 71
     3
 72
    38
 73
    34
 74
     0
 42
0.000000001
 43
0.0000000001
 40
0.0
 40
0.0
 40
0.0
 40
0.0
 40
0.1054838284653477
 40
0.1054838284653477
 40
0.2109676569306954
 40
0.2109676569306954
 40
0.3167758624501248
 40
0.3167758624501248
 40
0.4225840679695543
 40
0.4225840679695543
 40
0.5292062853356539
 40
0.5292062853356539
 40
0.6358285027017536
 40
0.6358285027017536
 40
0.7418578570909686
 40
0.7418578570909686
 40
0.8478872114801838
 40
0.8478872114801838
 40
0.9534983864974076
 40
0.9534983864974076
 40
1.059109561514631
 40
1.059109561514631
 40
1.166149557102843
 40
1.166149557102843
 40
1.273189552691055
 40
1.273189552691055
 40
1.379002637297842
 40
1.379002637297842
 40
1.48481572190463
 40
1.48481572190463
 40
1.590294672585504
 40
1.590294672585504
 40
1.695773623266378
 40
1.695773623266378
 40
1.695773623266378
 40
1.695773623266378
 10
9.510026230180301
 20
7.306030981405318
 30
1.827371042063532
 10
9.49618320807167
 20
7.306030981405318
 30
1.827371042063532
 10
9.481417743545534
 20
7.306025999942985
 30
1.830137971686781
 10
9.454257308922024
 20
7.306160545940006
 30
1.841389169747344
 10
9.441862449180916
 20
7.306317811276004
 30
1.849873485478383
 10
9.422262362928449
 20
7.307058917176476
 30
1.86947357173085
 10
9.413770432729506
 20
7.307696550067751
 30
1.881902227189129
 10
9.402534948498214
 20
7.309782067899837
 30
1.909079139559253
 10
9.39979000970743
 20
7.311247745571421
 30
1.923825455629412
 10
9.39979000970743
 20
7.314649848885352
 30
1.951495096704093
 10
9.402570875645324
 20
7.316817665154683
 30
1.966262228748746
 10
9.413822470032755
 20
7.321432896742333
 30
1.993397913278386
 10
9.42229145638521
 20
7.323863487927866
 30
2.005770046798716
 10
9.441809031797674
 20
7.32797819891803
 30
2.025287622212999
 10
9.454158515514791
 20
7.329939574508401
 30
2.03376809267138
 10
9.481308216181787
 20
7.332630587655103
 30
2.045047394389257
 10
9.496111616743291
 20
7.333339560061007
 30
2.047843483009273
 10
9.523885964434157
 20
7.333339560061006
 30
2.047843483009273
 10
9.538635034667095
 20
7.332636201940289
 30
2.045069197274642
 10
9.565702177398634
 20
7.329963734720283
 30
2.033871069534143
 10
9.578023391080932
 20
7.328015007304525
 30
2.025449965640291
 10
9.59759896991818
 20
7.323907132427555
 30
2.005989197788949
 10
9.606127357739751
 20
7.32146763623193
 30
1.993588597006237
 10
9.617459971756034
 20
7.316833808914696
 30
1.966370569562059
 10
9.620262450653171
 20
7.314656539662759
 30
1.951549513454665
 10
9.620262450653171
 20
7.311247667432145
 30
1.923824820114532
 10
9.617517260401655
 20
7.309781943992756
 30
1.909077865293511
 10
9.606280821328255
 20
7.307696403396896
 30
1.881899975440319
 10
9.597788187857076
 20
7.307058790497803
 30
1.869470981431732
 10
9.578187420182075
 20
7.306317767624914
 30
1.849871573243945
 10
9.565792896875791
 20
7.306160527020516
 30
1.841387959801068
 10
9.538633437703538
 20
7.306026001358564
 30
1.83013771784681
 10
9.523868612159276
 20
7.306030981405318
 30
1.827371042063532
 10
9.510026230180301
 20
7.306030981405318
 30
1.827371042063532
1001
ACAD_VIEW_EDGE_ID
1071
        0
1071
       -1
1071
        9
1071
        0
  0
SPLINE
  5
4D6
330
70
100
AcDbEntity
  8
Visible
100
AcDbSpline
210
-0.5000000000042172
220
0.8660254037820036
230
0.0000000000199723
 70
    12
 71
     2
 72
     6
 73
     3
 74
     0
 42
0.000000001
 43
0.0000000001
 40
-0.4532338724592098
 40
-0.4532338724592098
 40
-0.4532338724592098
 40
-0.1355501852959808
 40
-0.1355501852959808
 40
-0.1355501852959808
 10
8.501614298702406
 20
6.816628183551575
 30
2.088175479873825
 41
1.232050807568012
 10
8.540984377441418
 20
6.83935850911034
 30
2.065445154314147
 41
1.422649730811241
 10
8.580354456182249
 20
6.862088834669107
 30
2.088175479873825
 41
1.232050807568012
1001
ACAD_VIEW_EDGE_ID
1071
       27
1071
       -1
1071
        7
1071
        0
  0
SPLINE
  5
4D7
330
70
100
AcDbEntity
  8
Visible
100
AcDbSpline
210
0.4999999999955616
220
0.8660254037870011
230
0.0000000000000169
 70
    12
 71
     2
 72
     6
 73
     3
 74
     0
 42
0.000000001
 43
0.0000000001
 40
-0.45323387245921
 40
-0.45323387245921
 40
-0.45323387245921
 40
-0.1355501852959808
 40
-0.1355501852959808
 40
-0.1355501852959808
 10
8.422874141220745
 20
6.862088834669107
 30
2.088175479873825
 41
1.232050807568012
 10
8.462244219961576
 20
6.839358509110341
 30
2.065445154314147
 41
1.422649730811241
 10
8.501614298702406
 20
6.816628183551574
 30
2.088175479873825
 41
1.232050807568012
1001
ACAD_VIEW_EDGE_ID
1071
       26
1071
       -1
1071
        7
1071
        0
  0
SPLINE
  5
4D8
330
70
100
AcDbEntity
  8
Visible
100
AcDbSpline
210
1.0
220
0.0
230
0.0
 70
    12
 71
     2
 72
     6
 73
     3
 74
     0
 42
0.000000001
 43
0.0000000001
 40
-0.4532338724592097
 40
-0.4532338724592097
 40
-0.4532338724592097
 40
-0.1355501852959807
 40
-0.1355501852959807
 40
-0.1355501852959807
 10
8.422874141220745
 20
6.953010136903813
 30
2.088175479873825
 41
1.232050807568013
 10
8.422874141220745
 20
6.90754948578628
 30
2.065445154314147
 41
1.422649730811242
 10
8.422874141220745
 20
6.86208883466875
 30
2.088175479873825
 41
1.232050807568012
1001
ACAD_VIEW_EDGE_ID
1071
       25
1071
       -1
1071
        7
1071
        0
  0
SPLINE
  5
4D9
330
70
100
AcDbEntity
  8
Visible
100
AcDbSpline
210
-0.4999999999955396
220
0.8660254037870139
230
0.0
 70
    12
 71
     2
 72
     6
 73
     3
 74
     0
 42
0.000000001
 43
0.0000000001
 40
-0.4532338724592102
 40
-0.4532338724592102
 40
-0.4532338724592102
 40
-0.1355501852959811
 40
-0.1355501852959811
 40
-0.1355501852959811
 10
8.501614298702406
 20
6.998470788020986
 30
2.088175479873825
 41
1.232050807568011
 10
8.462244219961576
 20
6.975740462462221
 30
2.065445154314147
 41
1.422649730811238
 10
8.422874141220745
 20
6.953010136903456
 30
2.088175479873825
 41
1.232050807568011
1001
ACAD_VIEW_EDGE_ID
1071
       24
1071
       -1
1071
        7
1071
        0
  0
SPLINE
  5
4DA
330
70
100
AcDbEntity
  8
Visible
100
AcDbSpline
210
0.5000000000042099
220
0.8660254037820081
230
-0.0000000000199892
 70
    12
 71
     2
 72
     6
 73
     3
 74
     0
 42
0.000000001
 43
0.0000000001
 40
-0.45323387245921
 40
-0.45323387245921
 40
-0.45323387245921
 40
-0.1355501852959807
 40
-0.1355501852959807
 40
-0.1355501852959807
 10
8.580354456182249
 20
6.953010136903455
 30
2.088175479873825
 41
1.232050807568012
 10
8.540984377441418
 20
6.975740462462221
 30
2.065445154314147
 41
1.422649730811242
 10
8.501614298702406
 20
6.998470788020986
 30
2.088175479873825
 41
1.232050807568012
1001
ACAD_VIEW_EDGE_ID
1071
       23
1071
       -1
1071
        7
1071
        0
  0
CIRCLE
  5
4DB
330
70
100
AcDbEntity
  8
Visible
100
AcDbCircle
 10
8.5
 20
4.415043
 30
2.218387
 40
0.4921259842519685
  0
SPLINE
  5
4DC
330
70
100
AcDbEntity
  8
Visible
100
AcDbSpline
210
1.0
220
0.0
230
0.0
 70
    12
 71
     2
 72
     6
 73
     3
 74
     0
 42
0.000000001
 43
0.0000000001
 40
0.1355501852963379
 40
0.1355501852963379
 40
0.1355501852963379
 40
0.453233872459803
 40
0.453233872459803
 40
0.453233872459803
 10
8.580354456182249
 20
6.953010136903813
 30
2.088175479873825
 41
1.232050807568715
 10
8.580354456182249
 20
6.90754948578628
 30
2.065445154314147
 41
1.422649730812052
 10
8.580354456182249
 20
6.862088834668749
 30
2.088175479873825
 41
1.232050807568715
1001
ACAD_VIEW_EDGE_ID
1071
        0
1071
       -1
1071
        7
1071
        0
  0
SPLINE
  5
4DD
330
70
100
AcDbEntity
  8
Visible
100
AcDbSpline
 70
     0
 71
     3
 72
    14
 73
    10
 74
     0
 42
0.000000001
 43
0.0000000001
 40
2.53604769841391
 40
2.53604769841391
 40
2.53604769841391
 40
2.53604769841391
 40
2.622459047187773
 40
2.622459047187773
 40
2.921503126107184
 40
2.921503126107184
 40
3.203312789254864
 40
3.203312789254864
 40
3.485122452402544
 40
3.485122452402544
 40
3.485122452402544
 40
3.485122452402544
 10
8.764102517028732
 20
7.078045929197437
 30
1.903556097809996
 10
8.761115853689261
 20
7.082642307093939
 30
1.913573671190533
 10
8.757585249742987
 20
7.087809850912721
 30
1.923337957359763
 10
8.739532675814189
 20
7.112303511298675
 30
1.965709763779159
 10
8.719116189513442
 20
7.134779010350174
 30
1.99544364596295
 10
8.672024942270581
 20
7.171866265107823
 30
2.042534893203992
 10
8.642479200309026
 20
7.189618319402742
 30
2.063558869474945
 10
8.57499747069778
 20
7.214442367482649
 30
2.092535749376111
 10
8.536982895424443
 20
7.221396364495509
 30
2.100406491515968
 10
8.499999999998181
 20
7.221396364495509
 30
2.100406491515968
1001
ACAD_VIEW_EDGE_ID
1071
       21
1071
       -1
1071
        6
1071
        0
  0
ARC
  5
4DE
330
70
100
AcDbEntity
  8
Visible
100
AcDbCircle
 10
-8.5
 20
3.933995
 30
-1.824816
 40
0.4921259842519688
210
0.0000000000000001
220
0.0
230
-1.0
100
AcDbArc
 50
235.944202
 51
304.055798
  0
SPLINE
  5
4DF
330
70
100
AcDbEntity
  8
Visible
100
AcDbSpline
 70
     0
 71
     3
 72
    14
 73
    10
 74
     0
 42
0.000000001
 43
0.0000000001
 40
-1.161707484134181
 40
-1.161707484134181
 40
-1.161707484134181
 40
-1.161707484134181
 40
-0.8798978209865015
 40
-0.8798978209865015
 40
-0.5980881578388218
 40
-0.5980881578388218
 40
-0.2990440789194109
 40
-0.2990440789194109
 40
-0.2126327301455481
 40
-0.2126327301455481
 40
-0.2126327301455481
 40
-0.2126327301455481
 10
8.499999999998181
 20
7.221396364495509
 30
2.100406491515968
 10
8.463017104571918
 20
7.221396364495509
 30
2.100406491515968
 10
8.425002529298581
 20
7.214442367482649
 30
2.092535749376111
 10
8.357520799687335
 20
7.189618319402742
 30
2.063558869474945
 10
8.32797505772578
 20
7.171866265107823
 30
2.042534893203992
 10
8.280883810482919
 20
7.134779010350174
 30
1.99544364596295
 10
8.260467324182172
 20
7.112303511298675
 30
1.965709763779159
 10
8.242414750253374
 20
7.087809850912721
 30
1.923337957359763
 10
8.2388841463071
 20
7.082642307093939
 30
1.913573671190533
 10
8.235897482967629
 20
7.078045929197437
 30
1.903556097809996
1001
ACAD_VIEW_EDGE_ID
1071
       20
1071
       -1
1071
        6
1071
        0
  0
SPLINE
  5
4E0
330
70
100
AcDbEntity
  8
Visible
100
AcDbSpline
 70
     0
 71
     3
 72
     8
 73
     4
 74
     0
 42
0.000000001
 43
0.0000000001
 40
2.008562787254438
 40
2.008562787254438
 40
2.008562787254438
 40
2.008562787254438
 40
2.209857864444705
 40
2.209857864444705
 40
2.209857864444705
 40
2.209857864444705
 10
8.235897482971267
 20
6.712884613035075
 30
1.903556097815453
 10
8.228302526393235
 20
6.719754509743959
 30
1.878081839025981
 10
8.224409448817823
 20
6.723702331875713
 30
1.851232617131245
 10
8.224409448817823
 20
6.723702331875713
 30
1.824815940333792
1001
ACAD_VIEW_EDGE_ID
1071
       14
1071
       -1
1071
        6
1071
        0
  0
SPLINE
  5
4E1
330
70
100
AcDbEntity
  8
Visible
100
AcDbSpline
 70
     0
 71
     3
 72
     8
 73
     4
 74
     0
 42
0.000000001
 43
0.0000000001
 40
0.0
 40
0.0
 40
0.0
 40
0.0
 40
0.2012950771902999
 40
0.2012950771902999
 40
0.2012950771902999
 40
0.2012950771902999
 10
8.775590551178538
 20
6.723702331875712
 30
1.824815940333792
 10
8.775590551178538
 20
6.723702331875712
 30
1.851232617131245
 10
8.771697473603126
 20
6.719754509743936
 30
1.878081839025981
 10
8.764102517025094
 20
6.712884613035051
 30
1.903556097815453
1001
ACAD_VIEW_EDGE_ID
1071
       10
1071
       -1
1071
        6
1071
        0
  0
ARC
  5
4E2
330
70
100
AcDbEntity
  8
Visible
100
AcDbCircle
 10
-8.5
 20
1.824816
 30
3.526272
 40
0.2755905511811029
210
0.0
220
1.0
230
0.0
100
AcDbArc
 50
0.0
 51
180.0
  0
ELLIPSE
  5
4E3
330
70
100
AcDbEntity
  8
Visible
100
AcDbEllipse
 10
8.5
 20
6.892641
 30
1.824701
 11
0.0000000000242234
 21
-0.275590551140742
 31
0.275590551140742
210
-0.0000000000000002
220
0.7071067811865474
230
0.7071067811865474
 40
0.7071067812881928
 41
1.281044625272129
 42
1.570796326750945
1001
ACAD_VIEW_EDGE_ID
1071
       11
1071
       -1
1071
        9
1071
        0
  0
ELLIPSE
  5
4E4
330
70
100
AcDbEntity
  8
Visible
100
AcDbEllipse
 10
8.5
 20
6.892641
 30
1.824701
 11
-0.0000000000242221
 21
-0.2755905511407422
 31
0.2755905511407422
210
-0.0000000000000002
220
0.7071067811865474
230
0.7071067811865474
 40
0.7071067812881923
 41
-1.57079632675095
 42
-1.281044625272133
1001
ACAD_VIEW_EDGE_ID
1071
        7
1071
       -1
1071
        9
1071
        0
  0
ARC
  5
4E5
330
70
100
AcDbEntity
  8
Visible
100
AcDbCircle
 10
8.5
 20
4.415043
 30
-1.12794
 40
0.984251968503937
100
AcDbArc
 50
106.260205
 51
73.739795
  0
SPLINE
  5
4E6
330
70
100
AcDbEntity
  8
Visible
100
AcDbSpline
 70
     3
 71
     3
 72
    46
 73
    42
 74
     0
 42
0.000000001
 43
0.0000000001
 40
0.0
 40
0.0
 40
0.0
 40
0.0
 40
0.1176160583361983
 40
0.1176160583361983
 40
0.2352321166723966
 40
0.2352321166723966
 40
0.4704642333447932
 40
0.4704642333447932
 40
0.6974993473189302
 40
0.6974993473189302
 40
0.9245344612930672
 40
0.9245344612930672
 40
1.151569575267204
 40
1.151569575267204
 40
1.378604689241342
 40
1.378604689241342
 40
1.613836805913738
 40
1.613836805913738
 40
1.731452864249937
 40
1.731452864249937
 40
1.849068922586135
 40
1.849068922586135
 40
1.966684980922334
 40
1.966684980922334
 40
2.084301039258532
 40
2.084301039258532
 40
2.31953315593093
 40
2.31953315593093
 40
2.546568269905066
 40
2.546568269905066
 40
2.773603383879203
 40
2.773603383879203
 40
3.000638497853339
 40
3.000638497853339
 40
3.227673611827476
 40
3.227673611827476
 40
3.462905728499873
 40
3.462905728499873
 40
3.580521786836072
 40
3.580521786836072
 40
3.698137845172271
 40
3.698137845172271
 40
3.698137845172271
 40
3.698137845172271
 10
8.275590551178538
 20
6.90643573457425
 30
1.984786410050219
 10
8.275590551178538
 20
6.921870912833594
 30
1.984786410050219
 10
8.277188224361452
 20
6.937105785281286
 30
1.98708264554989
 10
8.283272430098804
 20
6.966559772902041
 30
1.995123694945505
 10
8.287758095681056
 20
6.980791116420138
 30
2.000824307560833
 10
8.30501243956678
 20
7.021337621145283
 30
2.020345176562841
 10
8.321778614286813
 20
7.045577234907836
 30
2.036377891372467
 10
8.360177602153271
 20
7.083976222773202
 30
2.063420017446333
 10
8.384423339068234
 20
7.101102280999368
 30
2.076676929682435
 10
8.439406160750877
 20
7.124567392776971
 30
2.095223619842727
 10
8.470205365618312
 20
7.130845183393148
 30
2.100406491515968
 10
8.529794634378049
 20
7.130845183393148
 30
2.100406491515968
 10
8.560593839245484
 20
7.124567392776972
 30
2.095223619842727
 10
8.615576660928127
 20
7.101102280999368
 30
2.076676929682435
 10
8.63982239784309
 20
7.083976222773202
 30
2.063420017446333
 10
8.678221385709548
 20
7.045577234907836
 30
2.036377891372467
 10
8.694987560429581
 20
7.021337621145283
 30
2.020345176562841
 10
8.712241904315305
 20
6.980791116420138
 30
2.000824307560833
 10
8.716727569897557
 20
6.966559772902041
 30
1.995123694945505
 10
8.722811775634909
 20
6.937105785281286
 30
1.98708264554989
 10
8.724409448817823
 20
6.921870912833594
 30
1.984786410050219
 10
8.724409448817823
 20
6.891000556314907
 30
1.984786410050219
 10
8.722811775634909
 20
6.875765683867214
 30
1.98708264554989
 10
8.716727569897557
 20
6.846311696246459
 30
1.995123694945505
 10
8.712241904315305
 20
6.832080352728362
 30
2.000824307560833
 10
8.694987560429581
 20
6.791533848003217
 30
2.020345176562841
 10
8.678221385709548
 20
6.767294234240665
 30
2.036377891372467
 10
8.63982239784309
 20
6.7288952463753
 30
2.063420017446333
 10
8.615576660928127
 20
6.711769188149133
 30
2.076676929682435
 10
8.560593839245484
 20
6.68830407637153
 30
2.095223619842727
 10
8.529794634378049
 20
6.682026285755353
 30
2.100406491515968
 10
8.470205365618312
 20
6.682026285755353
 30
2.100406491515968
 10
8.439406160750877
 20
6.68830407637153
 30
2.095223619842727
 10
8.384423339068234
 20
6.711769188149132
 30
2.076676929682435
 10
8.360177602153271
 20
6.7288952463753
 30
2.063420017446333
 10
8.321778614286813
 20
6.767294234240665
 30
2.036377891372467
 10
8.30501243956678
 20
6.791533848003217
 30
2.020345176562841
 10
8.287758095681056
 20
6.832080352728362
 30
2.000824307560833
 10
8.283272430098804
 20
6.84631169624646
 30
1.995123694945505
 10
8.277188224361452
 20
6.875765683867215
 30
1.98708264554989
 10
8.275590551178538
 20
6.891000556314907
 30
1.984786410050219
 10
8.275590551178538
 20
6.90643573457425
 30
1.984786410050219
1001
ACAD_VIEW_EDGE_ID
1071
        2
1071
       -1
1071
        6
1071
        0
  0
ARC
  5
4E7
330
70
100
AcDbEntity
  8
Visible
100
AcDbCircle
 10
13.178631
 20
-1.08928
 30
-6.852689
 40
0.9842519685039372
210
0.0000000000000004
220
-1.0
230
-0.0000000000000004
100
AcDbArc
 50
0.0
 51
180.0
  0
ARC
  5
4E8
330
70
100
AcDbEntity
  8
Visible
100
AcDbCircle
 10
13.178631
 20
-1.08928
 30
-7.04954
 40
0.9842519685039372
210
0.0000000000000003
220
-1.0
230
-0.0000000000000004
100
AcDbArc
 50
0.0
 51
180.0
  0
ARC
  5
4E9
330
70
100
AcDbEntity
  8
Visible
100
AcDbCircle
 10
13.178631
 20
-1.08928
 30
-7.12828
 40
0.9448818897637799
210
-0.0000000000000002
220
-1.0
230
-0.000000000000002
100
AcDbArc
 50
0.0
 51
180.0
  0
ARC
  5
4EA
330
70
100
AcDbEntity
  8
Visible
100
AcDbCircle
 10
13.178631
 20
-1.08928
 30
-7.805445
 40
0.9448818897637838
210
0.0
220
-1.0
230
0.0000000000000003
100
AcDbArc
 50
84.512707
 51
95.487293
  0
ARC
  5
4EB
330
70
100
AcDbEntity
  8
Visible
100
AcDbCircle
 10
13.178631
 20
-1.08928
 30
-7.718831
 40
0.9448818897637798
210
0.0
220
-1.0
230
0.0000000000000003
100
AcDbArc
 50
360.0
 51
180.0
  0
ARC
  5
4EC
330
70
100
AcDbEntity
  8
Visible
100
AcDbCircle
 10
13.178631
 20
-1.08928
 30
-7.20702
 40
0.2559055118110236
210
0.0000000000000003
220
-1.0
230
0.0000000000000003
100
AcDbArc
 50
0.0
 51
180.0
  0
ARC
  5
4ED
330
70
100
AcDbEntity
  8
Visible
100
AcDbCircle
 10
-13.178631
 20
-1.08928
 30
8.041666
 40
0.9842519685039368
210
0.0
220
1.0
230
-0.0000000000000002
100
AcDbArc
 50
0.0
 51
180.0
  0
ARC
  5
4EE
330
70
100
AcDbEntity
  8
Visible
100
AcDbCircle
 10
-13.178631
 20
-1.08928
 30
7.805445
 40
0.9842519685039366
210
0.0
220
1.0
230
0.0000000000000003
100
AcDbArc
 50
360.0
 51
84.732832
  0
ARC
  5
4EF
330
70
100
AcDbEntity
  8
Visible
100
AcDbCircle
 10
-13.178631
 20
-1.08928
 30
7.805445
 40
0.984251968503937
210
0.0
220
1.0
230
0.0000000000000003
100
AcDbArc
 50
95.267168
 51
180.0
  0
ARC
  5
4F0
330
70
100
AcDbEntity
  8
Visible
100
AcDbCircle
 10
-13.178631
 20
-1.08928
 30
7.962925
 40
0.9842519685039228
210
0.0
220
1.0
230
0.0
100
AcDbArc
 50
84.732832
 51
95.267168
  0
LINE
  5
4F1
330
70
100
AcDbEntity
  8
Visible
100
AcDbLine
 10
13.053115
 20
7.173841
 30
-1.090343
 11
13.053115
 21
7.168083
 31
-1.090343
  0
LINE
  5
4F2
330
70
100
AcDbEntity
  8
Visible
100
AcDbLine
 10
13.304147
 20
7.14884
 30
-1.090343
 11
13.304147
 21
7.143083
 31
-1.090343
  0
LINE
  5
4F3
330
70
100
AcDbEntity
  8
Visible
100
AcDbLine
 10
13.304147
 20
7.198053
 30
-1.090343
 11
13.304147
 21
7.192295
 31
-1.090343
  0
LINE
  5
4F4
330
70
100
AcDbEntity
  8
Visible
100
AcDbLine
 10
13.021151
 20
7.149234
 30
-1.090343
 11
13.021151
 21
7.143083
 31
-1.090343
  0
LINE
  5
4F5
330
70
100
AcDbEntity
  8
Visible
100
AcDbLine
 10
13.021151
 20
7.198447
 30
-1.090343
 11
13.021151
 21
7.192295
 31
-1.090343
  0
LINE
  5
4F6
330
70
100
AcDbEntity
  8
Visible
100
AcDbLine
 10
13.336111
 20
7.173841
 30
-1.090343
 11
13.336111
 21
7.167689
 31
-1.090343
  0
LINE
  5
4F7
330
70
100
AcDbEntity
  8
Visible
100
AcDbLine
 10
13.966033
 20
3.407924
 30
2.063674
 11
12.391228
 21
3.407924
 31
2.063674
  0
LINE
  5
4F8
330
70
100
AcDbEntity
  8
Visible
100
AcDbLine
 10
13.966033
 20
4.392174
 30
2.063674
 11
12.391228
 21
4.392174
 31
2.063674
  0
LINE
  5
4F9
330
70
100
AcDbEntity
  8
Visible
100
AcDbLine
 10
12.686505
 20
6.852689
 30
-1.08928
 11
12.686505
 21
4.392174
 31
-1.08928
  0
LINE
  5
4FA
330
70
100
AcDbEntity
  8
Visible
100
AcDbLine
 10
13.670757
 20
6.852689
 30
-1.08928
 11
13.670757
 21
4.392174
 31
-1.08928
  0
LINE
  5
4FB
330
70
100
AcDbEntity
  8
Visible
100
AcDbLine
 10
12.194379
 20
7.04954
 30
-1.08928
 11
12.194379
 21
6.852689
 31
-1.08928
  0
LINE
  5
4FC
330
70
100
AcDbEntity
  8
Visible
100
AcDbLine
 10
14.162883
 20
7.04954
 30
-1.08928
 11
14.162883
 21
6.852689
 31
-1.08928
  0
LINE
  5
4FD
330
70
100
AcDbEntity
  8
Visible
100
AcDbLine
 10
12.233749
 20
7.12828
 30
-1.08928
 11
12.233749
 21
7.04954
 31
-1.08928
  0
LINE
  5
4FE
330
70
100
AcDbEntity
  8
Visible
100
AcDbLine
 10
14.123513
 20
7.12828
 30
-1.08928
 11
14.123513
 21
7.04954
 31
-1.08928
  0
LINE
  5
4FF
330
70
100
AcDbEntity
  8
Visible
100
AcDbLine
 10
12.233749
 20
7.805445
 30
-1.08928
 11
12.233749
 21
7.718831
 31
-1.08928
  0
LINE
  5
500
330
70
100
AcDbEntity
  8
Visible
100
AcDbLine
 10
14.123513
 20
7.805445
 30
-1.08928
 11
14.123513
 21
7.718831
 31
-1.08928
  0
LINE
  5
501
330
70
100
AcDbEntity
  8
Visible
100
AcDbLine
 10
12.922725
 20
7.718831
 30
-1.08928
 11
12.922725
 21
7.20702
 31
-1.08928
  0
LINE
  5
502
330
70
100
AcDbEntity
  8
Visible
100
AcDbLine
 10
13.434536
 20
7.718831
 30
-1.08928
 11
13.434536
 21
7.20702
 31
-1.08928
  0
LINE
  5
503
330
70
100
AcDbEntity
  8
Visible
100
AcDbLine
 10
14.162883
 20
7.805445
 30
-1.08928
 11
14.162883
 21
8.041666
 31
-1.08928
  0
LINE
  5
504
330
70
100
AcDbEntity
  8
Visible
100
AcDbLine
 10
12.194379
 20
7.805445
 30
-1.08928
 11
12.194379
 21
8.041666
 31
-1.08928
  0
LINE
  5
505
330
70
100
AcDbEntity
  8
Visible
100
AcDbLine
 10
13.088277
 20
7.805445
 30
-0.109184
 11
13.088277
 21
7.962925
 31
-0.109184
  0
LINE
  5
506
330
70
100
AcDbEntity
  8
Visible
100
AcDbLine
 10
13.268985
 20
7.962925
 30
-0.109184
 11
13.268985
 21
7.805445
 31
-0.109184
  0
SPLINE
  5
507
330
70
100
AcDbEntity
  8
Visible
100
AcDbSpline
 70
     0
 71
     3
 72
     8
 73
     4
 74
     0
 42
0.000000001
 43
0.0000000001
 40
0.0020685763550568
 40
0.0020685763550568
 40
0.0020685763550568
 40
0.0020685763550568
 40
0.079004025668381
 40
0.079004025668381
 40
0.079004025668381
 40
0.079004025668381
 10
13.30414668302001
 20
7.143476633038517
 30
-1.103619802312131
 10
13.31287830394831
 20
7.138407306143562
 30
-1.103601102282744
 10
13.32161244311464
 20
7.133342309749423
 30
-1.103584091915581
 10
13.3303479788392
 20
7.128279719725469
 30
-1.103568736633739
1001
ACAD_VIEW_EDGE_ID
1071
   -30777
1071
       -1
1071
       12
1071
        0
  0
SPLINE
  5
508
330
70
100
AcDbEntity
  8
Visible
100
AcDbSpline
 70
     0
 71
     3
 72
     8
 73
     4
 74
     0
 42
0.000000001
 43
0.0000000001
 40
0.0020685763550538
 40
0.0020685763550538
 40
0.0020685763550538
 40
0.0020685763550538
 40
0.0942917788501522
 40
0.0942917788501522
 40
0.0942917788501522
 40
0.0942917788501522
 10
13.30414668302001
 20
7.1926892314641
 30
-1.103619802312131
 10
13.31461335413223
 20
7.186612584548129
 30
-1.103597386421769
 10
13.32508360541033
 20
7.180542093961776
 30
-1.103577424751902
 10
13.33555563031586
 20
7.174474662340799
 30
-1.103559771312371
1001
ACAD_VIEW_EDGE_ID
1071
   -30776
1071
       -1
1071
       12
1071
        0
  0
SPLINE
  5
509
330
70
100
AcDbEntity
  8
Visible
100
AcDbSpline
 70
     0
 71
     3
 72
     8
 73
     4
 74
     0
 42
0.000000001
 43
0.0000000001
 40
0.0
 40
0.0
 40
0.0
 40
0.0
 40
0.0942917788501525
 40
0.0942917788501525
 40
0.0942917788501525
 40
0.0942917788501525
 10
13.02170614643728
 20
7.149868363128916
 30
-1.077126839761371
 10
13.03241305998926
 20
7.156071887893631
 30
-1.077108790353291
 10
13.04311812661945
 20
7.162278598023476
 30
-1.077088321994382
 10
13.0538193937482
 20
7.168491841519426
 30
-1.077065296882081
1001
ACAD_VIEW_EDGE_ID
1071
   -30744
1071
       -1
1071
       12
1071
        0
  0
SPLINE
  5
50A
330
70
100
AcDbEntity
  8
Visible
100
AcDbSpline
 70
     0
 71
     3
 72
     8
 73
     4
 74
     0
 42
0.000000001
 43
0.0000000001
 40
0.0
 40
0.0
 40
0.0
 40
0.0
 40
0.0402127228402173
 40
0.0402127228402173
 40
0.0402127228402173
 40
0.0402127228402173
 10
13.02170614643728
 20
7.199080961552681
 30
-1.077126839761369
 10
13.02627233611383
 20
7.201726585859432
 30
-1.077119142209648
 10
13.03083816909566
 20
7.204372825399332
 30
-1.077111019226492
 10
13.03540353021344
 20
7.207019877205311
 30
-1.077102435595157
1001
ACAD_VIEW_EDGE_ID
1071
   -30743
1071
       -1
1071
       12
1071
        0
  0
SPLINE
  5
50B
330
70
100
AcDbEntity
  8
Visible
100
AcDbSpline
 70
     0
 71
     3
 72
     8
 73
     4
 74
     0
 42
0.000000001
 43
0.0000000001
 40
0.0
 40
0.0
 40
0.0
 40
0.0
 40
0.0942917788502767
 40
0.0942917788502767
 40
0.0942917788502767
 40
0.0942917788502767
 10
13.33555563031586
 20
7.167055003788846
 30
-1.077126839761369
 10
13.32484871676388
 20
7.160851479024131
 30
-1.07710879035329
 10
13.3141436501337
 20
7.154644768894286
 30
-1.077088321994374
 10
13.30344238300495
 20
7.148431525398336
 30
-1.077065296882074
1001
ACAD_VIEW_EDGE_ID
1071
   -26680
1071
       -1
1071
       12
1071
        0
  0
SPLINE
  5
50C
330
70
100
AcDbEntity
  8
Visible
100
AcDbSpline
 70
     0
 71
     3
 72
     8
 73
     4
 74
     0
 42
0.000000001
 43
0.0000000001
 40
0.0468399779080854
 40
0.0468399779080854
 40
0.0468399779080854
 40
0.0468399779080854
 40
0.0942917788502743
 40
0.0942917788502743
 40
0.0942917788502743
 40
0.0942917788502743
 10
13.31960110382533
 20
7.207019877205311
 30
-1.077098154237569
 10
13.31421407771813
 20
7.203895978072978
 30
-1.077087846247387
 10
13.30882773476878
 20
7.2007709032423
 30
-1.077076884138774
 10
13.30344238300495
 20
7.197644123822101
 30
-1.077065296882081
1001
ACAD_VIEW_EDGE_ID
1071
   -26679
1071
       -1
1071
       12
1071
        0
  0
SPLINE
  5
50D
330
70
100
AcDbEntity
  8
Visible
100
AcDbSpline
 70
     0
 71
     3
 72
     8
 73
     4
 74
     0
 42
0.000000001
 43
0.0000000001
 40
0.0225392713422101
 40
0.0225392713422101
 40
0.0225392713422101
 40
0.0225392713422101
 40
0.0942917788502755
 40
0.0942917788502755
 40
0.0942917788502755
 40
0.0942917788502755
 10
13.04614474103255
 20
7.128279719725469
 30
-1.103605226610679
 10
13.03800015900015
 20
7.133005496267287
 30
-1.103588613070626
 10
13.02985370611168
 20
7.137728054878607
 30
-1.103573506235019
 10
13.02170614643728
 20
7.142448704576963
 30
-1.103559771312372
1001
ACAD_VIEW_EDGE_ID
1071
   -26641
1071
       -1
1071
       12
1071
        0
  0
SPLINE
  5
50E
330
70
100
AcDbEntity
  8
Visible
100
AcDbSpline
 70
     0
 71
     3
 72
     8
 73
     4
 74
     0
 42
0.000000001
 43
0.0000000001
 40
0.0020685770267443
 40
0.0020685770267443
 40
0.0020685770267443
 40
0.0020685770267443
 40
0.094291778850274
 40
0.094291778850274
 40
0.094291778850274
 40
0.094291778850274
 10
13.05311509373314
 20
7.173446734406752
 30
-1.103619802504072
 10
13.04264842932207
 20
7.179523392711416
 30
-1.103597392172103
 10
13.03217817126642
 20
7.185593871425226
 30
-1.103577424751777
 10
13.02170614643728
 20
7.191661303002547
 30
-1.103559771312375
1001
ACAD_VIEW_EDGE_ID
1071
   -26640
1071
       -1
1071
       12
1071
        0
  0
SPLINE
  5
50F
330
70
100
AcDbEntity
  8
Visible
100
AcDbSpline
 70
     4
 71
     2
 72
    10
 73
     7
 74
     0
 42
0.000000001
 43
0.0000000001
 40
0.4329268292682927
 40
0.4329268292682927
 40
0.4329268292682928
 40
0.4359756097560976
 40
0.4359756097560976
 40
0.4390243902439025
 40
0.4390243902439025
 40
0.4402738638158054
 40
0.4402738638158054
 40
0.4402738638158054
 10
13.30414668302001
 20
7.143082746451909
 30
-1.09034330553687
 41
0.9999999999999985
 10
13.30414668302001
 20
7.14000695904906
 30
-1.038352961103379
 41
0.923879532511288
 10
13.26738395791472
 20
7.136931171648029
 30
-1.001590235998234
 41
1.0
 10
13.23062123280942
 20
7.133855384246999
 30
-0.9648275108930894
 41
0.9238795325112867
 10
13.17863088837657
 20
7.130779596844149
 30
-0.9648275108930894
 41
1.0
 10
13.15831185017487
 20
7.12957750744863
 30
-0.9648275108930894
 41
0.9688037519301609
 10
13.13903059819859
 20
7.128279719725469
 30
-0.9712381766677205
 41
0.9631776540641219
1001
ACAD_VIEW_EDGE_ID
1071
       43
1071
       -1
1071
       12
1071
        0
  0
SPLINE
  5
510
330
70
100
AcDbEntity
  8
Visible
100
AcDbSpline
 70
     4
 71
     2
 72
    12
 73
     9
 74
     0
 42
0.000000001
 43
0.0000000001
 40
0.4085365853658537
 40
0.4085365853658537
 40
0.4085365853658537
 40
0.4115853658536585
 40
0.4115853658536585
 40
0.4146341463414635
 40
0.4146341463414635
 40
0.4176829268292683
 40
0.4176829268292683
 40
0.4203135371133574
 40
0.4203135371133574
 40
0.4203135371133574
 10
13.30414668302001
 20
7.192295344875674
 30
-1.090343305536871
 41
1.0
 10
13.30414668302001
 20
7.189219557474643
 30
-1.03835296110338
 41
0.9238795325112867
 10
13.26738395791472
 20
7.186143770073613
 30
-1.001590235998234
 41
1.0
 10
13.23062123280942
 20
7.183067982670763
 30
-0.9648275108930894
 41
0.9238795325112867
 10
13.17863088837657
 20
7.179992195269733
 30
-0.9648275108930894
 41
1.0
 10
13.12664054394372
 20
7.176916407868702
 30
-0.9648275108930894
 41
0.9238795325112867
 10
13.08987781883843
 20
7.173840620467672
 30
-1.001590235998234
 41
1.0
 10
13.05851192556292
 20
7.171216363993153
 30
-1.03295612927366
 41
0.9343202026494051
 10
13.0538193937482
 20
7.168491841519426
 30
-1.077065296882081
 41
0.9819827407397962
1001
ACAD_VIEW_EDGE_ID
1071
       43
1071
       -1
1071
       12
1071
        0
  0
SPLINE
  5
511
330
70
100
AcDbEntity
  8
Visible
100
AcDbSpline
 70
     4
 71
     2
 72
    12
 73
     9
 74
     0
 42
0.000000001
 43
0.0000000001
 40
0.4333449994720088
 40
0.4333449994720088
 40
0.4333449994720088
 40
0.4359756097560976
 40
0.4359756097560976
 40
0.4390243902439025
 40
0.4390243902439025
 40
0.4420731707317074
 40
0.4420731707317074
 40
0.4433226443036104
 40
0.4433226443036104
 40
0.4433226443036104
 10
13.30344238300495
 20
7.148431525398336
 30
-1.077065296882074
 41
0.9819827407397882
 10
13.29874985119022
 20
7.145707002924609
 30
-1.032956129273657
 41
0.9343202026494108
 10
13.26738395791472
 20
7.143082746451909
 30
-1.001590235998234
 41
1.0
 10
13.23062123280942
 20
7.14000695904906
 30
-0.9648275108930894
 41
0.9238795325112867
 10
13.17863088837657
 20
7.136931171648029
 30
-0.9648275108930894
 41
1.0
 10
13.12664054394372
 20
7.133855384246999
 30
-0.9648275108930894
 41
0.9238795325112867
 10
13.08987781883843
 20
7.130779596844149
 30
-1.001590235998234
 41
1.0
 10
13.07551008913833
 20
7.12957750744863
 30
-1.015957965697639
 41
0.9688037519301595
 10
13.06640921035796
 20
7.128279719725469
 30
-1.034124894960693
 41
0.9631776540641215
1001
ACAD_VIEW_EDGE_ID
1071
       42
1071
       -1
1071
       12
1071
        0
  0
SPLINE
  5
512
330
70
100
AcDbEntity
  8
Visible
100
AcDbSpline
 70
     4
 71
     2
 72
    12
 73
     9
 74
     0
 42
0.000000001
 43
0.0000000001
 40
0.4089547555695696
 40
0.4089547555695696
 40
0.4089547555695696
 40
0.4115853658536585
 40
0.4115853658536585
 40
0.4146341463414635
 40
0.4146341463414635
 40
0.4176829268292683
 40
0.4176829268292683
 40
0.4207317073170732
 40
0.4207317073170732
 40
0.4207317073170732
 10
13.30344238300495
 20
7.197644123822101
 30
-1.077065296882081
 41
0.9819827407397962
 10
13.29874985119022
 20
7.194919601350193
 30
-1.03295612927366
 41
0.9343202026494051
 10
13.26738395791472
 20
7.192295344875674
 30
-1.001590235998234
 41
1.0
 10
13.23062123280942
 20
7.189219557474643
 30
-0.9648275108930894
 41
0.9238795325112867
 10
13.17863088837657
 20
7.186143770073613
 30
-0.9648275108930894
 41
1.0
 10
13.12664054394372
 20
7.183067982670763
 30
-0.9648275108930894
 41
0.9238795325112867
 10
13.08987781883843
 20
7.179992195269733
 30
-1.001590235998234
 41
1.0
 10
13.05311509373314
 20
7.176916407868702
 30
-1.03835296110338
 41
0.9238795325112867
 10
13.05311509373314
 20
7.173840620467672
 30
-1.090343305536871
 41
1.0
1001
ACAD_VIEW_EDGE_ID
1071
       42
1071
       -1
1071
       12
1071
        0
  0
SPLINE
  5
513
330
70
100
AcDbEntity
  8
Visible
100
AcDbSpline
 70
     0
 71
     3
 72
    24
 73
    20
 74
     0
 42
0.000000001
 43
0.0000000001
 40
-39.88289814400377
 40
-39.88289814400377
 40
-39.88289814400377
 40
-39.88289814400377
 40
-39.76369353753503
 40
-39.76369353753503
 40
-39.60651456410267
 40
-39.60651456410267
 40
-39.45190578144077
 40
-39.45190578144077
 40
-39.29460259207128
 40
-39.29460259207128
 40
-39.14012904111165
 40
-39.14012904111165
 40
-38.98270004708311
 40
-38.98270004708311
 40
-38.82835057893012
 40
-38.82835057893012
 40
-38.67079457465869
 40
-38.67079457465869
 40
-38.58879220294051
 40
-38.58879220294051
 40
-38.58879220294051
 40
-38.58879220294051
 10
13.33555565355527
 20
7.174476473866889
 30
-1.103559684989292
 10
13.33686444277009
 20
7.173719176977101
 30
-1.088019855553781
 10
13.33585982892145
 20
7.172987064674089
 30
-1.072345443689709
 10
13.32819091110832
 20
7.171165363639374
 30
-1.036887861753368
 10
13.31990922695877
 20
7.170102400437826
 30
-1.017775206414399
 10
13.2966400669975
 20
7.168060475765742
 30
-0.9841090119567571
 10
13.28198364297532
 20
7.167132296652198
 30
-0.96980244925714
 10
13.24775163263075
 20
7.165079533935568
 30
-0.9473443817584382
 10
13.22842758155821
 20
7.164015599573758
 30
-0.939523328675931
 10
13.18822882562563
 20
7.161970319730244
 30
-0.931853382412817
 10
13.16776563667372
 20
7.161043266441993
 30
-0.9319352188219509
 10
13.12761334019888
 20
7.158993839670074
 30
-0.9399296508362848
 10
13.10833793189704
 20
7.15792899934604
 30
-0.9479145231990832
 10
13.07430808014942
 20
7.155880414400598
 30
-0.9706467428395754
 10
13.05979116440539
 20
7.154954088326121
 30
-0.9850454615467194
 10
13.03677212492221
 20
7.152908066564123
 30
-1.018902149292477
 10
13.02862631776952
 20
7.151842388906516
 30
-1.038128654194048
 10
13.02224394068616
 20
7.150265916554417
 30
-1.068918393967853
 10
13.02115055563081
 20
7.149751435808866
 30
-1.079629249805984
 10
13.02115055993636
 20
7.149236113344159
 30
-1.090343391731795
1001
ACAD_VIEW_EDGE_ID
1071
       25
1071
       -1
1071
       12
1071
        0
  0
SPLINE
  5
514
330
70
100
AcDbEntity
  8
Visible
100
AcDbSpline
 70
     0
 71
     3
 72
    14
 73
    10
 74
     0
 42
0.000000001
 43
0.0000000001
 40
-41.54957991828761
 40
-41.54957991828761
 40
-41.54957991828761
 40
-41.54957991828761
 40
-41.47833982887194
 40
-41.47833982887194
 40
-41.32452675136618
 40
-41.32452675136618
 40
-41.16621546118397
 40
-41.16621546118397
 40
-41.10961043122353
 40
-41.10961043122353
 40
-41.10961043122353
 40
-41.10961043122353
 10
13.10671990875016
 20
7.207019877494531
 30
-0.9502403479996869
 10
13.09844232914474
 20
7.206546586807235
 30
-0.9544889862207575
 10
13.09053758538903
 20
7.206076512666186
 30
-0.9594730426978067
 10
13.06705711409813
 20
7.204619436715802
 30
-0.9773884590722701
 10
13.05351302638519
 20
7.203687675515539
 30
-0.9926037146599595
 10
13.03260535963272
 20
7.201618431707174
 30
-1.027827448646806
 10
13.02564011572758
 20
7.200549272976786
 30
-1.047616784533532
 10
13.02167177518458
 20
7.19915501401374
 30
-1.075542117824321
 10
13.02115057229821
 20
7.198797022099824
 30
-1.082945814285839
 10
13.02115056099865
 20
7.198440432815914
 30
-1.090342992830295
1001
ACAD_VIEW_EDGE_ID
1071
       25
1071
       -1
1071
       12
1071
        0
  0
SPLINE
  5
515
330
70
100
AcDbEntity
  8
Visible
100
AcDbSpline
 70
     0
 71
     3
 72
    26
 73
    22
 74
     0
 42
0.000000001
 43
0.0000000001
 40
-21.9927692679055
 40
-21.9927692679055
 40
-21.9927692679055
 40
-21.9927692679055
 40
-21.96649762076992
 40
-21.96649762076992
 40
-21.80678345520427
 40
-21.80678345520427
 40
-21.65209640955183
 40
-21.65209640955183
 40
-21.49253668379856
 40
-21.49253668379856
 40
-21.33788593071876
 40
-21.33788593071876
 40
-21.17848396970479
 40
-21.17848396970479
 40
-21.02386554266697
 40
-21.02386554266697
 40
-20.86462477990747
 40
-20.86462477990747
 40
-20.71003450593548
 40
-20.71003450593548
 40
-20.69933027050207
 40
-20.69933027050207
 40
-20.69933027050207
 40
-20.69933027050207
 10
13.02170615598152
 20
7.142448704429625
 30
-1.10355977049948
 10
13.02141763008694
 20
7.142615870076042
 30
-1.100134077204735
 10
13.02124098252898
 20
7.142781465066946
 30
-1.096695352423853
 10
13.02079073648565
 20
7.143940681571621
 30
-1.072297494701909
 10
13.02458981253767
 20
7.14498266866758
 30
-1.051474839280353
 10
13.03987524344666
 20
7.147088405401518
 30
-1.013148366740098
 10
13.05097223307894
 20
7.148117463582821
 30
-0.9959208977514661
 10
13.07954049732689
 20
7.150078420017962
 30
-0.9661668170160163
 10
13.09691746688804
 20
7.151118082616449
 30
-0.954101388324992
 10
13.13478624318304
 20
7.153223395345776
 30
-0.9377326899271146
 10
13.15480981586006
 20
7.1542530431052
 30
-0.9333559054179437
 10
13.19604057381184
 20
7.156215172801239
 30
-0.932434719977453
 10
13.21685548148161
 20
7.157252373781375
 30
-0.9361443189115657
 10
13.25523401635837
 20
7.159357227161308
 30
-0.951258832568172
 10
13.27251561660887
 20
7.160387500976867
 30
-0.9622873782338347
 10
13.30237690783724
 20
7.162350880909798
 30
-0.9907208965441974
 10
13.31450405243231
 20
7.163385479299904
 30
-1.008024388084779
 10
13.33104115814967
 20
7.165489835104381
 30
-1.045803113608567
 10
13.33551060336322
 20
7.166520772803778
 30
-1.065815661667749
 10
13.33609239635734
 20
7.167556127553325
 30
-1.087532203655822
 10
13.33611120238129
 20
7.167623336146789
 30
-1.088938112107635
 10
13.33611120176283
 20
7.167690705164204
 30
-1.090343225971168
1001
ACAD_VIEW_EDGE_ID
1071
       23
1071
       -1
1071
       12
1071
        0
  0
SPLINE
  5
516
330
70
100
AcDbEntity
  8
Visible
100
AcDbSpline
 70
     0
 71
     3
 72
    18
 73
    14
 74
     0
 42
0.000000001
 43
0.0000000001
 40
-19.47511511799401
 40
-19.47511511799401
 40
-19.47511511799401
 40
-19.47511511799401
 40
-19.45658482162815
 40
-19.45658482162815
 40
-19.29820433221051
 40
-19.29820433221051
 40
-19.14368494538505
 40
-19.14368494538505
 40
-18.98548763271728
 40
-18.98548763271728
 40
-18.83096702423764
 40
-18.83096702423764
 40
-18.68887681948526
 40
-18.68887681948526
 40
-18.68887681948526
 40
-18.68887681948526
 10
13.02170615028808
 20
7.19166130294252
 30
-1.103559770984637
 10
13.02150185637038
 20
7.191779667620721
 30
-1.10113414563794
 10
13.02135363090929
 20
7.191897258358949
 30
-1.098701709480332
 10
13.02047810569456
 20
7.193011578332516
 30
-1.075432161876011
 10
13.02383854905383
 20
7.194030964248668
 30
-1.05464814682952
 10
13.03828353291464
 20
7.196132143286376
 30
-1.016070208139064
 10
13.04904169789915
 20
7.19716700653953
 30
-0.9985792809583546
 10
13.07694649240329
 20
7.199139701515377
 30
-0.9683014341901355
 10
13.09396393005772
 20
7.200155601714868
 30
-0.955934981219851
 10
13.13138765559597
 20
7.202255981497728
 30
-0.9387444020877168
 10
13.15135318545253
 20
7.203291756397447
 30
-0.9339137802065021
 10
13.1903827122187
 20
7.205165751483946
 30
-0.9321908446411251
 10
13.20906254439069
 20
7.206074767591417
 30
-0.9347056594325318
 10
13.22684988003129
 20
7.207020686973919
 30
-0.9404267360729155
1001
ACAD_VIEW_EDGE_ID
1071
       23
1071
       -1
1071
       12
1071
        0
  0
SPLINE
  5
517
330
70
100
AcDbEntity
  8
Visible
100
AcDbSpline
 70
     0
 71
     3
 72
    22
 73
    18
 74
     0
 42
0.000000001
 43
0.0000000001
 40
0.0391361519072636
 40
0.0391361519072636
 40
0.0391361519072636
 40
0.0391361519072636
 40
0.0400420764210185
 40
0.0400420764210185
 40
0.1018962334595151
 40
0.1018962334595151
 40
0.222824588648715
 40
0.222824588648715
 40
0.2832887662433149
 40
0.2832887662433149
 40
0.3135208550406149
 40
0.3135208550406149
 40
0.3286368994392649
 40
0.3286368994392649
 40
0.3361949216385899
 40
0.3361949216385899
 40
0.3437529438379149
 40
0.3437529438379149
 40
0.3437529438379149
 40
0.3437529438379149
 10
14.0909015345569
 20
3.424028646535589
 30
2.071137256284764
 10
14.09078716750446
 20
3.423998646094332
 30
2.071162005386216
 10
14.09067358801439
 20
3.423968896317092
 30
2.071186248870251
 10
14.08286592641343
 20
3.421926782712034
 30
2.072831148968928
 10
14.07339429119565
 20
3.419708535635436
 30
2.073332075302712
 10
14.04990204380738
 20
3.414863123460236
 30
2.073481611081517
 10
14.03284252499543
 20
3.4121778301851
 30
2.07205274201179
 10
14.00724202470701
 20
3.409576907684822
 30
2.069158240351987
 10
13.99867522484055
 20
3.408936032561541
 30
2.06805681599953
 10
13.98614257618828
 20
3.40831678428367
 30
2.066366788641122
 10
13.98200739248204
 20
3.408166169050673
 30
2.0657946366742
 10
13.97592933158193
 20
3.408018881807947
 30
2.064947162058366
 10
13.97392176932408
 20
3.407982761418679
 30
2.064660555071289
 10
13.97094420734356
 20
3.407947053419775
 30
2.064253150290235
 10
13.96995827968931
 20
3.407938218939307
 30
2.064111959237229
 10
13.96799498855398
 20
3.407926478330409
 30
2.06384892911529
 10
13.96702517111953
 20
3.407923546741585
 30
2.063673545623491
 10
13.96603330468861
 20
3.407923546741585
 30
2.063673545623491
1001
ACAD_VIEW_EDGE_ID
1071
       38
1071
       -1
1071
        9
1071
        0
  0
SPLINE
  5
518
330
70
100
AcDbEntity
  8
Visible
100
AcDbSpline
 70
     0
 71
     3
 72
    16
 73
    12
 74
     0
 42
0.000000001
 43
0.0000000001
 40
5.87713379579406
 40
5.87713379579406
 40
5.87713379579406
 40
5.87713379579406
 40
6.120750749539656
 40
6.120750749539656
 40
6.364367703285251
 40
6.364367703285251
 40
6.851601610776441
 40
6.851601610776441
 40
7.343890002584261
 40
7.343890002584261
 40
7.519495441059433
 40
7.519495441059433
 40
7.519495441059433
 40
7.519495441059433
 10
14.45815844743083
 20
3.900048689485629
 30
1.900129189393328
 10
14.45815844743083
 20
3.868077960647497
 30
1.900129189393328
 10
14.45499277406452
 20
3.835329545121567
 30
1.90222431463483
 10
14.44202387738914
 20
3.770808970231882
 30
1.910660358729401
 10
14.43222592190432
 20
3.739035119697291
 30
1.916996439915186
 10
14.39403101970311
 20
3.648453448102372
 30
1.94094603661635
 10
14.35640010611314
 20
3.594445439655828
 30
1.963726563070116
 10
14.27119689295432
 20
3.509242226498827
 30
2.008503332529905
 10
14.21728848928251
 20
3.471904198222546
 30
2.033947869623616
 10
14.13579234432291
 20
3.437544918713683
 30
2.060138209753566
 10
14.11357591635715
 20
3.429976526169411
 30
2.066230505925047
 10
14.0909015345569
 20
3.424028646535589
 30
2.071137256284764
1001
ACAD_VIEW_EDGE_ID
1071
       37
1071
       -1
1071
        9
1071
        0
  0
SPLINE
  5
519
330
70
100
AcDbEntity
  8
Visible
100
AcDbSpline
 70
     0
 71
     3
 72
    16
 73
    12
 74
     0
 42
0.000000001
 43
0.0000000001
 40
4.234772150528689
 40
4.234772150528689
 40
4.234772150528689
 40
4.234772150528689
 40
4.41037758900386
 40
4.41037758900386
 40
4.902665980811679
 40
4.902665980811679
 40
5.38989988830287
 40
5.38989988830287
 40
5.633516842048464
 40
5.633516842048464
 40
5.87713379579406
 40
5.87713379579406
 40
5.87713379579406
 40
5.87713379579406
 10
14.0909015345569
 20
4.37606873243385
 30
2.071137256284764
 10
14.11357591635715
 20
4.370120852800027
 30
2.066230505925047
 10
14.13579234432291
 20
4.362552460255756
 30
2.060138209753565
 10
14.21728848928251
 20
4.328193180746893
 30
2.033947869623616
 10
14.27119689295432
 20
4.290855152470612
 30
2.008503332529905
 10
14.35640010611314
 20
4.205651939313611
 30
1.963726563070116
 10
14.39403101970311
 20
4.151643930867066
 30
1.94094603661635
 10
14.43222592190432
 20
4.061062259272148
 30
1.916996439915186
 10
14.44202387738914
 20
4.029288408739375
 30
1.910660358729401
 10
14.45499277406452
 20
3.964767833847872
 30
1.90222431463483
 10
14.45815844743083
 20
3.932019418323761
 30
1.900129189393328
 10
14.45815844743083
 20
3.900048689485629
 30
1.900129189393328
1001
ACAD_VIEW_EDGE_ID
1071
       36
1071
       -1
1071
        9
1071
        0
  0
SPLINE
  5
51A
330
70
100
AcDbEntity
  8
Visible
100
AcDbSpline
 70
     0
 71
     3
 72
    22
 73
    18
 74
     0
 42
0.000000001
 43
0.0000000001
 40
0.3437529438379148
 40
0.3437529438379148
 40
0.3437529438379148
 40
0.3437529438379148
 40
0.3513109660372399
 40
0.3513109660372399
 40
0.3588689882365649
 40
0.3588689882365649
 40
0.3739850326352148
 40
0.3739850326352148
 40
0.4042171214325149
 40
0.4042171214325149
 40
0.464681299027115
 40
0.464681299027115
 40
0.5856096542163152
 40
0.5856096542163152
 40
0.6474638112548118
 40
0.6474638112548118
 40
0.6483697357685667
 40
0.6483697357685667
 40
0.6483697357685667
 40
0.6483697357685667
 10
13.96603330468861
 20
4.392173832227854
 30
2.063673545623491
 10
13.96702517111953
 20
4.392173832227854
 30
2.063673545623491
 10
13.96799498855398
 20
4.39217090063903
 30
2.06384892911529
 10
13.96995827968931
 20
4.392159160031951
 30
2.064111959237229
 10
13.97094420734356
 20
4.392150325551483
 30
2.064253150290235
 10
13.97392176932408
 20
4.392114617552579
 30
2.064660555071289
 10
13.97592933158193
 20
4.392078497161492
 30
2.064947162058366
 10
13.98200739248204
 20
4.391931209918766
 30
2.0657946366742
 10
13.98614257618828
 20
4.391780594685769
 30
2.066366788641122
 10
13.99867522484055
 20
4.391161346407898
 30
2.06805681599953
 10
14.00724202470701
 20
4.390520471284617
 30
2.069158240351987
 10
14.03284252499543
 20
4.387919548786157
 30
2.07205274201179
 10
14.04990204380738
 20
4.385234255509203
 30
2.073481611081517
 10
14.07339429119565
 20
4.380388843334003
 30
2.073332075302712
 10
14.08286592641343
 20
4.378170596259224
 30
2.072831148968926
 10
14.09067358801439
 20
4.376128482652347
 30
2.071186248870251
 10
14.09078716750446
 20
4.376098732875107
 30
2.071162005386216
 10
14.0909015345569
 20
4.37606873243385
 30
2.071137256284764
1001
ACAD_VIEW_EDGE_ID
1071
       35
1071
       -1
1071
        9
1071
        0
  0
SPLINE
  5
51B
330
70
100
AcDbEntity
  8
Visible
100
AcDbSpline
 70
     0
 71
     3
 72
    22
 73
    18
 74
     0
 42
0.000000001
 43
0.0000000001
 40
0.0391361519072631
 40
0.0391361519072631
 40
0.0391361519072631
 40
0.0391361519072631
 40
0.0400420764210185
 40
0.0400420764210185
 40
0.1018962334595151
 40
0.1018962334595151
 40
0.222824588648715
 40
0.222824588648715
 40
0.2832887662433149
 40
0.2832887662433149
 40
0.3135208550406149
 40
0.3135208550406149
 40
0.3286368994392649
 40
0.3286368994392649
 40
0.3361949216385899
 40
0.3361949216385899
 40
0.3437529438379149
 40
0.3437529438379149
 40
0.3437529438379149
 40
0.3437529438379149
 10
12.26636024219624
 20
4.37606873243385
 30
2.071137256284764
 10
12.26647460924869
 20
4.376098732875107
 30
2.071162005386216
 10
12.26658818873875
 20
4.376128482652347
 30
2.071186248870251
 10
12.27439585033971
 20
4.378170596259224
 30
2.072831148968926
 10
12.28386748555749
 20
4.380388843334003
 30
2.073332075302712
 10
12.30735973294577
 20
4.385234255509203
 30
2.073481611081517
 10
12.32441925175772
 20
4.387919548786157
 30
2.07205274201179
 10
12.35001975204613
 20
4.390520471284617
 30
2.069158240351987
 10
12.35858655191259
 20
4.391161346407898
 30
2.06805681599953
 10
12.37111920056486
 20
4.391780594685769
 30
2.066366788641122
 10
12.3752543842711
 20
4.391931209918766
 30
2.0657946366742
 10
12.38133244517121
 20
4.392078497161492
 30
2.064947162058366
 10
12.38334000742907
 20
4.392114617552579
 30
2.064660555071289
 10
12.38631756940958
 20
4.392150325551483
 30
2.064253150290235
 10
12.38730349706384
 20
4.392159160031951
 30
2.064111959237229
 10
12.38926678819916
 20
4.39217090063903
 30
2.06384892911529
 10
12.39023660563361
 20
4.392173832227854
 30
2.063673545623491
 10
12.39122847206454
 20
4.392173832227854
 30
2.063673545623491
1001
ACAD_VIEW_EDGE_ID
1071
       26
1071
       -1
1071
        9
1071
        0
  0
SPLINE
  5
51C
330
70
100
AcDbEntity
  8
Visible
100
AcDbSpline
 70
     0
 71
     3
 72
    16
 73
    12
 74
     0
 42
0.000000001
 43
0.0000000001
 40
1.959044598598021
 40
1.959044598598021
 40
1.959044598598021
 40
1.959044598598021
 40
2.202661552343616
 40
2.202661552343616
 40
2.446278506089211
 40
2.446278506089211
 40
2.933512413580402
 40
2.933512413580402
 40
3.425800805388221
 40
3.425800805388221
 40
3.601406243863392
 40
3.601406243863392
 40
3.601406243863392
 40
3.601406243863392
 10
11.89910332932231
 20
3.900048689485629
 30
1.900129189393328
 10
11.89910332932231
 20
3.932019418323761
 30
1.900129189393328
 10
11.90226900268863
 20
3.964767833847872
 30
1.90222431463483
 10
11.915237899364
 20
4.029288408739375
 30
1.910660358729401
 10
11.92503585484883
 20
4.061062259272148
 30
1.916996439915186
 10
11.96323075705004
 20
4.151643930867066
 30
1.94094603661635
 10
12.00086167064
 20
4.205651939313611
 30
1.963726563070116
 10
12.08606488379883
 20
4.290855152470612
 30
2.008503332529905
 10
12.13997328747064
 20
4.328193180746893
 30
2.033947869623616
 10
12.22146943243024
 20
4.362552460255756
 30
2.060138209753565
 10
12.243685860396
 20
4.370120852800027
 30
2.066230505925047
 10
12.26636024219624
 20
4.37606873243385
 30
2.071137256284764
1001
ACAD_VIEW_EDGE_ID
1071
       25
1071
       -1
1071
        9
1071
        0
  0
SPLINE
  5
51D
330
70
100
AcDbEntity
  8
Visible
100
AcDbSpline
 70
     0
 71
     3
 72
    16
 73
    12
 74
     0
 42
0.000000001
 43
0.0000000001
 40
0.3166829533326489
 40
0.3166829533326489
 40
0.3166829533326489
 40
0.3166829533326489
 40
0.4922883918078198
 40
0.4922883918078198
 40
0.9845767836156394
 40
0.9845767836156394
 40
1.47181069110683
 40
1.47181069110683
 40
1.715427644852425
 40
1.715427644852425
 40
1.959044598598021
 40
1.959044598598021
 40
1.959044598598021
 40
1.959044598598021
 10
12.26636024219624
 20
3.424028646535589
 30
2.071137256284764
 10
12.243685860396
 20
3.429976526169411
 30
2.066230505925047
 10
12.22146943243024
 20
3.437544918713683
 30
2.060138209753565
 10
12.13997328747064
 20
3.471904198222546
 30
2.033947869623616
 10
12.08606488379883
 20
3.509242226498827
 30
2.008503332529905
 10
12.00086167064
 20
3.594445439655828
 30
1.963726563070116
 10
11.96323075705004
 20
3.648453448102372
 30
1.94094603661635
 10
11.92503585484883
 20
3.739035119697291
 30
1.916996439915186
 10
11.915237899364
 20
3.770808970231882
 30
1.910660358729401
 10
11.90226900268863
 20
3.835329545121567
 30
1.90222431463483
 10
11.89910332932231
 20
3.868077960647497
 30
1.900129189393328
 10
11.89910332932231
 20
3.900048689485629
 30
1.900129189393328
1001
ACAD_VIEW_EDGE_ID
1071
       24
1071
       -1
1071
        9
1071
        0
  0
SPLINE
  5
51E
330
70
100
AcDbEntity
  8
Visible
100
AcDbSpline
 70
     0
 71
     3
 72
    22
 73
    18
 74
     0
 42
0.000000001
 43
0.0000000001
 40
0.3437529438379148
 40
0.3437529438379148
 40
0.3437529438379148
 40
0.3437529438379148
 40
0.3513109660372399
 40
0.3513109660372399
 40
0.3588689882365649
 40
0.3588689882365649
 40
0.3739850326352148
 40
0.3739850326352148
 40
0.4042171214325149
 40
0.4042171214325149
 40
0.464681299027115
 40
0.464681299027115
 40
0.5856096542163152
 40
0.5856096542163152
 40
0.6474638112548118
 40
0.6474638112548118
 40
0.6483697357685667
 40
0.6483697357685667
 40
0.6483697357685667
 40
0.6483697357685667
 10
12.39122847206454
 20
3.407923546741585
 30
2.063673545623491
 10
12.39023660563361
 20
3.407923546741585
 30
2.063673545623491
 10
12.38926678819916
 20
3.407926478330409
 30
2.06384892911529
 10
12.38730349706384
 20
3.407938218939307
 30
2.064111959237229
 10
12.38631756940958
 20
3.407947053419775
 30
2.064253150290235
 10
12.38334000742907
 20
3.407982761418679
 30
2.064660555071289
 10
12.38133244517121
 20
3.408018881807947
 30
2.064947162058366
 10
12.3752543842711
 20
3.408166169050673
 30
2.0657946366742
 10
12.37111920056486
 20
3.40831678428367
 30
2.066366788641122
 10
12.35858655191259
 20
3.408936032561541
 30
2.06805681599953
 10
12.35001975204613
 20
3.409576907684822
 30
2.069158240351987
 10
12.32441925175772
 20
3.4121778301851
 30
2.07205274201179
 10
12.30735973294577
 20
3.414863123460236
 30
2.073481611081517
 10
12.28386748555749
 20
3.419708535635436
 30
2.073332075302712
 10
12.27439585033971
 20
3.421926782712034
 30
2.072831148968928
 10
12.26658818873875
 20
3.423968896317092
 30
2.071186248870251
 10
12.26647460924869
 20
3.423998646094332
 30
2.071162005386216
 10
12.26636024219624
 20
3.424028646535589
 30
2.071137256284764
1001
ACAD_VIEW_EDGE_ID
1071
       23
1071
       -1
1071
        9
1071
        0
  0
SPLINE
  5
51F
330
70
100
AcDbEntity
  8
Visible
100
AcDbSpline
 70
     1
 71
     3
 72
    38
 73
    34
 74
     0
 42
0.000000001
 43
0.0000000001
 40
0.0
 40
0.0
 40
0.0
 40
0.0
 40
0.1056959094392847
 40
0.1056959094392847
 40
0.2113918188785695
 40
0.2113918188785695
 40
0.3191236716724363
 40
0.3191236716724363
 40
0.4268555244663032
 40
0.4268555244663032
 40
0.532776265738451
 40
0.532776265738451
 40
0.6386970070105987
 40
0.6386970070105987
 40
0.7441896492765947
 40
0.7441896492765947
 40
0.8496822915425907
 40
0.8496822915425907
 40
0.9551749338085866
 40
0.9551749338085866
 40
1.060667576074582
 40
1.060667576074582
 40
1.16658831734673
 40
1.16658831734673
 40
1.272509058618878
 40
1.272509058618878
 40
1.380240911412744
 40
1.380240911412744
 40
1.487972764206611
 40
1.487972764206611
 40
1.593668673645896
 40
1.593668673645896
 40
1.699364583085181
 40
1.699364583085181
 40
1.699364583085181
 40
1.699364583085181
 10
12.17139611011771
 20
4.117850602247926
 30
1.932539664315304
 10
12.18526696437402
 20
4.117850602247926
 30
1.932539664315304
 10
12.20001025513738
 20
4.115071698583051
 30
1.931676137691813
 10
12.22703573618491
 20
4.103895621146875
 30
1.928416682767701
 10
12.23932280417284
 20
4.095502448533807
 30
1.926047536337487
 10
12.25889482535786
 20
4.076094817262855
 30
1.921069795446253
 10
12.26744195801984
 20
4.063695310924231
 30
1.918116707689969
 10
12.27881208084909
 20
4.036453330005315
 30
1.912539723134027
 10
12.28163233058876
 20
4.021605483718303
 30
1.909936499311858
 10
12.28163233058876
 20
3.993858488320256
 30
1.90590462401529
 10
12.2788965246782
 20
3.979119935389462
 30
1.904194952018406
 10
12.26766809090622
 20
3.951936931965974
 30
1.901806289254084
 10
12.25917351708813
 20
3.939495225082282
 30
1.901105275522581
 10
12.23956385685051
 20
3.919883580478199
 30
1.90032807602205
 10
12.22716862086781
 20
3.911398227537574
 30
1.900194132290938
 10
12.200006787858
 20
3.900145547082502
 30
1.900108035390816
 10
12.1852402888926
 20
3.897378161304004
 30
1.900133956400822
 10
12.15755193134282
 20
3.897378161304004
 30
1.900133956400822
 10
12.1427854323756
 20
3.900145547082502
 30
1.900108035390816
 10
12.11562359936579
 20
3.911398227537574
 30
1.900194132290938
 10
12.10322836338309
 20
3.919883580478199
 30
1.90032807602205
 10
12.08361870314547
 20
3.939495225082282
 30
1.901105275522581
 10
12.07512412932738
 20
3.951936931965974
 30
1.901806289254084
 10
12.0638956955554
 20
3.979119935389462
 30
1.904194952018406
 10
12.06115988964484
 20
3.993858488320256
 30
1.90590462401529
 10
12.06115988964484
 20
4.021605483718303
 30
1.909936499311858
 10
12.06398013938451
 20
4.036453330005315
 30
1.912539723134027
 10
12.07535026221376
 20
4.063695310924231
 30
1.918116707689969
 10
12.08389739487575
 20
4.076094817262855
 30
1.921069795446253
 10
12.10346941606258
 20
4.095502448533807
 30
1.926047536337486
 10
12.11575648404869
 20
4.103895621146875
 30
1.928416682767701
 10
12.14278196509622
 20
4.115071698583051
 30
1.931676137691813
 10
12.15752525585958
 20
4.117850602247926
 30
1.932539664315304
 10
12.17139611011771
 20
4.117850602247926
 30
1.932539664315304
1001
ACAD_VIEW_EDGE_ID
1071
        3
1071
       -1
1071
        9
1071
        0
  0
SPLINE
  5
520
330
70
100
AcDbEntity
  8
Visible
100
AcDbSpline
 70
     3
 71
     3
 72
    38
 73
    34
 74
     0
 42
0.000000001
 43
0.0000000001
 40
0.0
 40
0.0
 40
0.0
 40
0.0
 40
0.1054824830402876
 40
0.1054824830402876
 40
0.2109649660805752
 40
0.2109649660805752
 40
0.3169607557325951
 40
0.3169607557325951
 40
0.422956545384615
 40
0.422956545384615
 40
0.5308600294403023
 40
0.5308600294403023
 40
0.6387635134959896
 40
0.6387635134959896
 40
0.7444606852206449
 40
0.7444606852206449
 40
0.8501578569453002
 40
0.8501578569453002
 40
0.9558550286699556
 40
0.9558550286699556
 40
1.061552200394611
 40
1.061552200394611
 40
1.169455684450298
 40
1.169455684450298
 40
1.277359168505985
 40
1.277359168505985
 40
1.383354958158005
 40
1.383354958158005
 40
1.489350747810025
 40
1.489350747810025
 40
1.594833230850313
 40
1.594833230850313
 40
1.7003157138906
 40
1.7003157138906
 40
1.7003157138906
 40
1.7003157138906
 10
14.18865711855869
 20
3.897378161304004
 30
1.900133956400822
 10
14.20249996410166
 20
3.897378161304004
 30
1.900133956400822
 10
14.21726516973649
 20
3.894611248431829
 30
1.900127796531394
 10
14.24442437997459
 20
3.883360884832654
 30
1.900294196110295
 10
14.25681821585931
 20
3.874877361733524
 30
1.900488678435596
 10
14.27643290491869
 20
3.855264756999531
 30
1.901406133476815
 10
14.28493025760144
 20
3.842817970238684
 30
1.902196728420488
 10
14.2961593981654
 20
3.815630488114038
 30
1.904782485801264
 10
14.29889333903156
 20
3.800892782352093
 30
1.906599683861373
 10
14.29889333903156
 20
3.773143613976571
 30
1.910836643779585
 10
14.29607052251776
 20
3.758290853325888
 30
1.913552054999398
 10
14.28469225448862
 20
3.731041343047763
 30
1.919338594049319
 10
14.27613961065435
 20
3.718639045768213
 30
1.922389098109601
 10
14.25656456557772
 20
3.699241047363102
 30
1.927517924917962
 10
14.24428457408794
 20
3.690854540593136
 30
1.92995255393417
 10
14.21726890300124
 20
3.679684776318026
 30
1.933300658191217
 10
14.20252813847037
 20
3.676905720358263
 30
1.934187062391968
 10
14.17478609864702
 20
3.676905720358263
 30
1.934187062391968
 10
14.16004533411615
 20
3.679684776318026
 30
1.933300658191217
 10
14.13302966302763
 20
3.690854540593136
 30
1.92995255393417
 10
14.12074967153967
 20
3.699241047363102
 30
1.927517924917962
 10
14.10117462646303
 20
3.718639045768213
 30
1.922389098109601
 10
14.09262198262695
 20
3.731041343047763
 30
1.919338594049319
 10
14.08124371459962
 20
3.758290853325888
 30
1.913552054999398
 10
14.07842089808582
 20
3.773143613976571
 30
1.910836643779585
 10
14.07842089808582
 20
3.800892782352093
 30
1.906599683861373
 10
14.08115483895017
 20
3.815630488114038
 30
1.904782485801264
 10
14.09238397951412
 20
3.842817970238684
 30
1.902196728420488
 10
14.10088133219687
 20
3.855264756999531
 30
1.901406133476815
 10
14.12049602125807
 20
3.874877361733524
 30
1.900488678435596
 10
14.1328898571428
 20
3.883360884832654
 30
1.900294196110295
 10
14.16004906738089
 20
3.894611248431829
 30
1.900127796531394
 10
14.17481427301573
 20
3.897378161304004
 30
1.900133956400822
 10
14.18865711855869
 20
3.897378161304004
 30
1.900133956400822
1001
ACAD_VIEW_EDGE_ID
1071
        1
1071
       -1
1071
        9
1071
        0
  0
ARC
  5
521
330
70
100
AcDbEntity
  8
Visible
100
AcDbCircle
 10
-5.626206
 20
4.417326
 30
-0.481045
 40
0.0779679038476102
210
-0.0000000000000025
220
0.0000000000000022
230
-1.0
100
AcDbArc
 50
90.0
 51
135.0
  0
ARC
  5
522
330
70
100
AcDbEntity
  8
Visible
100
AcDbCircle
 10
-5.630388
 20
4.409482
 30
-0.481389
 40
0.0809817048615761
210
-0.0000320989020349
220
-0.0000362263122918
230
-0.9999999988286575
100
AcDbArc
 50
128.973219
 51
134.112901
  0
ARC
  5
523
330
70
100
AcDbEntity
  8
Visible
100
AcDbCircle
 10
-5.617704
 20
4.41478
 30
-0.480862
 40
0.0809802571766511
210
0.0000022826006762
220
0.0000377862080139
230
-0.9999999992834961
100
AcDbArc
 50
90.887053
 51
96.026827
  0
ARC
  5
524
330
70
100
AcDbEntity
  8
Visible
100
AcDbCircle
 10
5.626206
 20
4.417326
 30
0.481045
 40
0.078740157480315
100
AcDbArc
 50
95.282089
 51
39.717911
  0
ARC
  5
525
330
70
100
AcDbEntity
  8
Visible
100
AcDbCircle
 10
5.626206
 20
4.417326
 30
0.419529
 40
0.0492125984251985
100
AcDbArc
 50
210.0
 51
270.0
  0
ARC
  5
526
330
70
100
AcDbEntity
  8
Visible
100
AcDbCircle
 10
5.626206
 20
4.417326
 30
0.419529
 40
0.0492125984252003
100
AcDbArc
 50
150.0
 51
210.0
  0
ARC
  5
527
330
70
100
AcDbEntity
  8
Visible
100
AcDbCircle
 10
5.626206
 20
4.417326
 30
0.419529
 40
0.0492125984251983
100
AcDbArc
 50
90.0
 51
150.0
  0
ARC
  5
528
330
70
100
AcDbEntity
  8
Visible
100
AcDbCircle
 10
5.626206
 20
4.417326
 30
0.419529
 40
0.0492125984251985
100
AcDbArc
 50
30.0
 51
90.0
  0
ARC
  5
529
330
70
100
AcDbEntity
  8
Visible
100
AcDbCircle
 10
5.626206
 20
4.417326
 30
0.419529
 40
0.0492125984252003
100
AcDbArc
 50
330.0
 51
30.0
  0
ARC
  5
52A
330
70
100
AcDbEntity
  8
Visible
100
AcDbCircle
 10
5.626206
 20
4.417326
 30
0.419529
 40
0.0492125984251985
100
AcDbArc
 50
270.0
 51
330.0
  0
ARC
  5
52B
330
70
100
AcDbEntity
  8
Visible
100
AcDbCircle
 10
-6.892641
 20
0.0
 30
-5.518144
 40
0.2755905518207635
210
-1.0
220
0.0
230
-0.0000000000000002
100
AcDbArc
 50
73.373408
 51
73.39845
  0
ARC
  5
52C
330
70
100
AcDbEntity
  8
Visible
100
AcDbCircle
 10
6.892641
 20
0.0
 30
5.675624
 40
0.2755905511811002
210
1.0
220
0.0
230
0.0000000000000002
100
AcDbArc
 50
106.60155
 51
130.703681
  0
ARC
  5
52D
330
70
100
AcDbEntity
  8
Visible
100
AcDbCircle
 10
-5.674873
 20
6.907549
 30
0.001614
 40
0.21989720161403
210
0.0000000000000002
220
0.0
230
-1.0
100
AcDbArc
 50
132.953501
 51
147.512494
  0
ARC
  5
52E
330
70
100
AcDbEntity
  8
Visible
100
AcDbCircle
 10
-5.674873
 20
6.907549
 30
0.001614
 40
0.2198972016140301
210
0.0000000000000002
220
0.0
230
-1.0
100
AcDbArc
 50
212.487506
 51
227.385391
  0
ARC
  5
52F
330
70
100
AcDbEntity
  8
Visible
100
AcDbCircle
 10
-6.907549
 20
-0.001614
 30
-5.336737
 40
0.0885826771653545
210
-1.0
220
0.0
230
-0.0000000000000002
100
AcDbArc
 50
62.25462
 51
116.129222
  0
ARC
  5
530
330
70
100
AcDbEntity
  8
Visible
100
AcDbCircle
 10
6.907549
 20
-0.001614
 30
5.860359
 40
0.1181102362204724
210
1.0
220
0.0
230
0.0000000000000002
100
AcDbArc
 50
0.0
 51
180.0
  0
ARC
  5
531
330
70
100
AcDbEntity
  8
Visible
100
AcDbCircle
 10
-5.596999
 20
3.933995
 30
0.0
 40
0.4921259842519688
210
0.0000000000000002
220
0.0
230
-1.0
100
AcDbArc
 50
235.944202
 51
304.055798
  0
ARC
  5
532
330
70
100
AcDbEntity
  8
Visible
100
AcDbCircle
 10
-5.596999
 20
0.0
 30
3.526272
 40
0.2755905511811028
210
0.0
220
1.0
230
0.0
100
AcDbArc
 50
0.0
 51
180.0
  0
ARC
  5
533
330
70
100
AcDbEntity
  8
Visible
100
AcDbCircle
 10
6.906436
 20
0.0
 30
5.675739
 40
0.3149606299213214
210
1.0
220
0.0
230
0.0000000000000002
100
AcDbArc
 50
52.492713
 51
56.984741
  0
ARC
  5
534
330
70
100
AcDbEntity
  8
Visible
100
AcDbCircle
 10
-4.494637
 20
4.415043
 30
0.0
 40
1.574803149606299
210
0.0000000000000002
220
0.0
230
-1.0
100
AcDbArc
 50
161.790043
 51
198.209957
  0
ARC
  5
535
330
70
100
AcDbEntity
  8
Visible
100
AcDbCircle
 10
4.415043
 20
0.0
 30
2.644243
 40
0.9842519685039372
210
1.0
220
-0.0000000000000004
230
0.0
100
AcDbArc
 50
0.0
 51
180.0
  0
ARC
  5
536
330
70
100
AcDbEntity
  8
Visible
100
AcDbCircle
 10
4.415043
 20
0.0
 30
2.447393
 40
0.9842519685039372
210
1.0
220
-0.0000000000000004
230
0.0
100
AcDbArc
 50
0.0
 51
180.0
  0
ARC
  5
537
330
70
100
AcDbEntity
  8
Visible
100
AcDbCircle
 10
4.415043
 20
0.0
 30
5.99057
 40
0.4921259842519685
210
1.0
220
0.0
230
0.0000000000000002
100
AcDbArc
 50
0.0
 51
180.0
  0
ARC
  5
538
330
70
100
AcDbEntity
  8
Visible
100
AcDbCircle
 10
4.415043
 20
0.0
 30
2.368653
 40
0.9448818897637799
210
1.0
220
-0.0000000000000021
230
0.0000000000000003
100
AcDbArc
 50
0.0
 51
180.0
  0
ARC
  5
539
330
70
100
AcDbEntity
  8
Visible
100
AcDbCircle
 10
4.415043
 20
0.0
 30
1.778101
 40
0.9448818897637798
210
1.0
220
0.0000000000000003
230
0.0000000000000002
100
AcDbArc
 50
0.0
 51
180.0
  0
ARC
  5
53A
330
70
100
AcDbEntity
  8
Visible
100
AcDbCircle
 10
4.415043
 20
0.0
 30
2.289912
 40
0.2559055118110236
210
1.0
220
0.0000000000000003
230
0.0000000000000002
100
AcDbArc
 50
0.0
 51
180.0
  0
ELLIPSE
  5
53B
330
70
100
AcDbEntity
  8
Visible
100
AcDbEllipse
 10
5.596884
 20
6.892641
 30
0.0
 11
-0.2755905511407455
 21
-0.2755905511407455
 31
0.0000000000242212
210
-0.7071067811865475
220
0.7071067811865475
230
-0.0000000000000003
 40
0.7071067812881842
 41
1.281044625272137
 42
1.570796326750952
1001
ACAD_VIEW_EDGE_ID
1071
        8
1071
       -1
1071
        9
1071
        0
  0
ELLIPSE
  5
53C
330
70
100
AcDbEntity
  8
Visible
100
AcDbEllipse
 10
5.596884
 20
6.892641
 30
0.0
 11
0.2755905511407432
 21
-0.2755905511407432
 31
0.000000000024222
210
0.7071067811865478
220
0.7071067811865478
230
0.0000000000000002
 40
0.7071067812881902
 41
-1.57079632675095
 42
-1.281044625272134
1001
ACAD_VIEW_EDGE_ID
1071
        7
1071
       -1
1071
        9
1071
        0
  0
ARC
  5
53D
330
70
100
AcDbEntity
  8
Visible
100
AcDbCircle
 10
-4.415043
 20
0.0
 30
-1.455267
 40
0.9842519685039368
210
-1.0
220
-0.0000000000000003
230
-0.0000000000000002
100
AcDbArc
 50
0.0
 51
180.0
  0
ARC
  5
53E
330
70
100
AcDbEntity
  8
Visible
100
AcDbCircle
 10
-4.415043
 20
0.0
 30
-1.691487
 40
0.9842519685039372
210
-1.0
220
0.0000000000000003
230
-0.0000000000000002
100
AcDbArc
 50
0.0
 51
174.732832
  0
ARC
  5
53F
330
70
100
AcDbEntity
  8
Visible
100
AcDbCircle
 10
-4.415043
 20
0.0
 30
-1.534007
 40
0.9842519685039489
210
-1.0
220
0.0
230
-0.0000000000000002
100
AcDbArc
 50
174.732832
 51
180.0
  0
LINE
  5
540
330
70
100
AcDbEntity
  8
Visible
100
AcDbLine
 10
2.335395
 20
4.288464
 30
0.0
 11
2.341153
 21
4.288464
 31
0.0
210
0.0
220
1.0
230
0.0
  0
LINE
  5
541
330
70
100
AcDbEntity
  8
Visible
100
AcDbLine
 10
2.289912
 20
4.288464
 30
0.0
 11
2.29194
 21
4.288464
 31
0.0
210
0.0
220
1.0
230
0.0
  0
LINE
  5
542
330
70
100
AcDbEntity
  8
Visible
100
AcDbLine
 10
2.360395
 20
4.539496
 30
0.0
 11
2.366153
 21
4.539496
 31
0.0
210
0.0
220
1.0
230
0.0
  0
LINE
  5
543
330
70
100
AcDbEntity
  8
Visible
100
AcDbLine
 10
2.311182
 20
4.539496
 30
0.0
 11
2.31694
 21
4.539496
 31
0.0
210
0.0
220
1.0
230
0.0
  0
LINE
  5
544
330
70
100
AcDbEntity
  8
Visible
100
AcDbLine
 10
2.360001
 20
4.2565
 30
0.0
 11
2.366153
 21
4.2565
 31
0.0
210
0.0
220
1.0
230
0.0
  0
LINE
  5
545
330
70
100
AcDbEntity
  8
Visible
100
AcDbLine
 10
2.310789
 20
4.2565
 30
0.0
 11
2.31694
 21
4.2565
 31
0.0
210
0.0
220
1.0
230
0.0
  0
LINE
  5
546
330
70
100
AcDbEntity
  8
Visible
100
AcDbLine
 10
2.335395
 20
4.57146
 30
0.0
 11
2.341546
 21
4.57146
 31
0.0
210
0.0
220
1.0
230
0.0
  0
LINE
  5
547
330
70
100
AcDbEntity
  8
Visible
100
AcDbLine
 10
2.289912
 20
4.57146
 30
0.0
 11
2.292334
 21
4.57146
 31
0.0
210
0.0
220
1.0
230
0.0
  0
LINE
  5
548
330
70
100
AcDbEntity
  8
Visible
100
AcDbLine
 10
5.321293
 20
7.348026
 30
0.0
 11
5.321293
 21
7.227287
 31
0.0
210
0.0
220
1.0
230
0.0
  0
LINE
  5
549
330
70
100
AcDbEntity
  8
Visible
100
AcDbLine
 10
5.872474
 20
7.348026
 30
0.0
 11
5.872474
 21
7.227287
 31
0.0
210
0.0
220
1.0
230
0.0
  0
LINE
  5
54A
330
70
100
AcDbEntity
  8
Visible
100
AcDbLine
 10
6.089009
 20
7.567997
 30
0.787402
 11
6.089009
 21
7.562849
 31
0.787402
210
0.0
220
1.0
230
0.0
  0
LINE
  5
54B
330
70
100
AcDbEntity
  8
Visible
100
AcDbLine
 10
5.104759
 20
7.567997
 30
0.787402
 11
5.104759
 21
7.562849
 31
0.787402
210
0.0
220
1.0
230
0.0
  0
LINE
  5
54C
330
70
100
AcDbEntity
  8
Visible
100
AcDbLine
 10
5.518144
 20
7.098159
 30
0.264103
 11
5.518144
 21
6.813901
 31
0.264103
210
0.0
220
1.0
230
0.0
  0
LINE
  5
54D
330
70
100
AcDbEntity
  8
Visible
100
AcDbLine
 10
5.675624
 20
6.813901
 30
0.264103
 11
5.675624
 21
7.098159
 31
0.264103
210
0.0
220
1.0
230
0.0
  0
LINE
  5
54E
330
70
100
AcDbEntity
  8
Visible
100
AcDbLine
 10
5.675739
 20
7.000088
 30
-0.001614
 11
5.675624
 21
7.000088
 31
-0.001614
210
0.0
220
1.0
230
0.0
  0
LINE
  5
54F
330
70
100
AcDbEntity
  8
Visible
100
AcDbLine
 10
5.675739
 20
6.789439
 30
-0.001614
 11
5.675624
 21
6.789439
 31
-0.001614
210
0.0
220
1.0
230
0.0
  0
LINE
  5
550
330
70
100
AcDbEntity
  8
Visible
100
AcDbLine
 10
5.87259
 20
7.130845
 30
0.0
 11
5.87259
 21
7.221396
 31
0.0
210
0.0
220
1.0
230
0.0
  0
LINE
  5
551
330
70
100
AcDbEntity
  8
Visible
100
AcDbLine
 10
5.87259
 20
4.907169
 30
0.0
 11
5.87259
 21
6.682026
 31
0.0
210
0.0
220
1.0
230
0.0
  0
LINE
  5
552
330
70
100
AcDbEntity
  8
Visible
100
AcDbLine
 10
5.87259
 20
3.526272
 30
0.0
 11
5.87259
 21
3.922917
 31
0.0
210
0.0
220
1.0
230
0.0
  0
LINE
  5
553
330
70
100
AcDbEntity
  8
Visible
100
AcDbLine
 10
5.321409
 20
7.00555
 30
0.0
 11
5.321409
 21
7.221396
 31
0.0
210
0.0
220
1.0
230
0.0
  0
LINE
  5
554
330
70
100
AcDbEntity
  8
Visible
100
AcDbLine
 10
5.321409
 20
4.907169
 30
0.0
 11
5.321409
 21
6.807322
 31
0.0
210
0.0
220
1.0
230
0.0
  0
LINE
  5
555
330
70
100
AcDbEntity
  8
Visible
100
AcDbLine
 10
5.321409
 20
3.526272
 30
0.0
 11
5.321409
 21
3.922917
 31
0.0
210
0.0
220
1.0
230
0.0
  0
LINE
  5
556
330
70
100
AcDbEntity
  8
Visible
100
AcDbLine
 10
5.865291
 20
7.221396
 30
0.0
 11
5.87259
 21
7.221396
 31
0.0
210
0.0
220
1.0
230
0.0
  0
LINE
  5
557
330
70
100
AcDbEntity
  8
Visible
100
AcDbLine
 10
5.321409
 20
7.221396
 30
0.0
 11
5.328477
 21
7.221396
 31
0.0
210
0.0
220
1.0
230
0.0
  0
LINE
  5
558
330
70
100
AcDbEntity
  8
Visible
100
AcDbLine
 10
5.518259
 20
6.712885
 30
0.264103
 11
5.518259
 21
6.813901
 31
0.264103
210
0.0
220
1.0
230
0.0
  0
LINE
  5
559
330
70
100
AcDbEntity
  8
Visible
100
AcDbLine
 10
5.675739
 20
7.078046
 30
0.264103
 11
5.675739
 21
6.712885
 31
0.264103
210
0.0
220
1.0
230
0.0
  0
LINE
  5
55A
330
70
100
AcDbEntity
  8
Visible
100
AcDbLine
 10
5.87259
 20
3.922917
 30
0.0
 11
5.99057
 21
3.922917
 31
0.0
210
0.0
220
1.0
230
0.0
  0
LINE
  5
55B
330
70
100
AcDbEntity
  8
Visible
100
AcDbLine
 10
2.644243
 20
3.922917
 30
0.0
 11
5.321409
 21
3.922917
 31
0.0
210
0.0
220
1.0
230
0.0
  0
LINE
  5
55C
330
70
100
AcDbEntity
  8
Visible
100
AcDbLine
 10
5.87259
 20
4.907169
 30
0.0
 11
5.99057
 21
4.907169
 31
0.0
210
0.0
220
1.0
230
0.0
  0
LINE
  5
55D
330
70
100
AcDbEntity
  8
Visible
100
AcDbLine
 10
2.644243
 20
4.907169
 30
0.0
 11
5.321409
 21
4.907169
 31
0.0
210
0.0
220
1.0
230
0.0
  0
LINE
  5
55E
330
70
100
AcDbEntity
  8
Visible
100
AcDbLine
 10
2.447393
 20
3.430791
 30
0.0
 11
2.644243
 21
3.430791
 31
0.0
210
0.0
220
1.0
230
0.0
  0
LINE
  5
55F
330
70
100
AcDbEntity
  8
Visible
100
AcDbLine
 10
2.447393
 20
5.399295
 30
0.0
 11
2.644243
 21
5.399295
 31
0.0
210
0.0
220
1.0
230
0.0
  0
LINE
  5
560
330
70
100
AcDbEntity
  8
Visible
100
AcDbLine
 10
2.368653
 20
3.470162
 30
0.0
 11
2.447393
 21
3.470162
 31
0.0
210
0.0
220
1.0
230
0.0
  0
LINE
  5
561
330
70
100
AcDbEntity
  8
Visible
100
AcDbLine
 10
2.368653
 20
5.359925
 30
0.0
 11
2.447393
 21
5.359925
 31
0.0
210
0.0
220
1.0
230
0.0
  0
LINE
  5
562
330
70
100
AcDbEntity
  8
Visible
100
AcDbLine
 10
1.691487
 20
3.470162
 30
0.0
 11
1.778101
 21
3.470162
 31
0.0
210
0.0
220
1.0
230
0.0
  0
LINE
  5
563
330
70
100
AcDbEntity
  8
Visible
100
AcDbLine
 10
1.691487
 20
5.359925
 30
0.0
 11
1.778101
 21
5.359925
 31
0.0
210
0.0
220
1.0
230
0.0
  0
LINE
  5
564
330
70
100
AcDbEntity
  8
Visible
100
AcDbLine
 10
1.778101
 20
4.159138
 30
0.0
 11
2.289912
 21
4.159138
 31
0.0
210
0.0
220
1.0
230
0.0
  0
LINE
  5
565
330
70
100
AcDbEntity
  8
Visible
100
AcDbLine
 10
1.778101
 20
4.670949
 30
0.0
 11
2.289912
 21
4.670949
 31
0.0
210
0.0
220
1.0
230
0.0
  0
LINE
  5
566
330
70
100
AcDbEntity
  8
Visible
100
AcDbLine
 10
1.534007
 20
5.399295
 30
0.0
 11
1.455267
 21
5.399295
 31
0.0
210
0.0
220
1.0
230
0.0
  0
LINE
  5
567
330
70
100
AcDbEntity
  8
Visible
100
AcDbLine
 10
1.691487
 20
3.430791
 30
0.0
 11
1.455267
 21
3.430791
 31
0.0
210
0.0
220
1.0
230
0.0
  0
LINE
  5
568
330
70
100
AcDbEntity
  8
Visible
100
AcDbLine
 10
1.691487
 20
5.395139
 30
0.090354
 11
1.534007
 21
5.395139
 31
0.090354
210
0.0
220
1.0
230
0.0
  0
SPLINE
  5
569
330
70
100
AcDbEntity
  8
Visible
100
AcDbSpline
 70
     0
 71
     3
 72
     8
 73
     4
 74
     0
 42
0.000000001
 43
0.0000000001
 40
0.002068576355055
 40
0.002068576355055
 40
0.002068576355055
 40
0.002068576355055
 40
0.0167101583849966
 40
0.0167101583849966
 40
0.0167101583849966
 40
0.0167101583849966
 10
2.365758889960488
 20
4.539495623797277
 30
-0.01327649677296
 10
2.366723633344008
 20
4.5411573381981
 30
-0.0132729379711236
 10
2.367688215270391
 20
4.542819146477214
 30
-0.0132694380445173
 10
2.368652653667595
 20
4.544481038203386
 30
-0.0132659992141271
1001
ACAD_VIEW_EDGE_ID
1071
   -30776
1071
       -1
1071
       12
1071
        0
  0
SPLINE
  5
56A
330
70
100
AcDbEntity
  8
Visible
100
AcDbSpline
 70
     0
 71
     3
 72
     8
 73
     4
 74
     0
 42
0.000000001
 43
0.0000000001
 40
0.002068576355072
 40
0.002068576355072
 40
0.002068576355072
 40
0.002068576355072
 40
0.0942917788501688
 40
0.0942917788501688
 40
0.0942917788501688
 40
0.0942917788501688
 10
2.316546291536724
 20
4.539495623797277
 30
-0.01327649677296
 10
2.322622938450876
 20
4.549962294909917
 30
-0.0132540808826889
 10
2.32869342903723
 20
4.560432546186521
 30
-0.0132341192129388
 10
2.334760860658207
 20
4.57090457109212
 30
-0.0132164657734393
1001
ACAD_VIEW_EDGE_ID
1071
   -30775
1071
       -1
1071
       12
1071
        0
  0
SPLINE
  5
56B
330
70
100
AcDbEntity
  8
Visible
100
AcDbSpline
 70
     0
 71
     3
 72
     8
 73
     4
 74
     0
 42
0.000000001
 43
0.0000000001
 40
0.0
 40
0.0
 40
0.0
 40
0.0
 40
0.0942917788501532
 40
0.0942917788501532
 40
0.0942917788501532
 40
0.0942917788501532
 10
2.359367159871908
 20
4.257055087214869
 30
0.0132164657770773
 10
2.353163635105374
 20
4.267762000765877
 30
0.0132345151851041
 10
2.346956924975529
 20
4.278467067395818
 30
0.0132549835434475
 10
2.34074368147958
 20
4.289168334525703
 30
0.0132780086569255
1001
ACAD_VIEW_EDGE_ID
1071
   -30744
1071
       -1
1071
       12
1071
        0
  0
SPLINE
  5
56C
330
70
100
AcDbEntity
  8
Visible
100
AcDbSpline
 70
     0
 71
     3
 72
     8
 73
     4
 74
     0
 42
0.000000001
 43
0.0000000001
 40
0.0
 40
0.0
 40
0.0
 40
0.0
 40
0.0942917788501596
 40
0.0942917788501596
 40
0.0942917788501596
 40
0.0942917788501596
 10
2.310154561446324
 20
4.257055087214869
 30
0.0132164657770773
 10
2.303951036679791
 20
4.267762000765877
 30
0.0132345151851041
 10
2.297744326549945
 20
4.278467067395819
 30
0.0132549835434475
 10
2.291531083053996
 20
4.289168334525705
 30
0.0132780086569255
1001
ACAD_VIEW_EDGE_ID
1071
   -30743
1071
       -1
1071
       12
1071
        0
  0
SPLINE
  5
56D
330
70
100
AcDbEntity
  8
Visible
100
AcDbSpline
 70
     0
 71
     3
 72
     8
 73
     4
 74
     0
 42
0.000000001
 43
0.0000000001
 40
0.0
 40
0.0
 40
0.0
 40
0.0
 40
0.094291778850274
 40
0.094291778850274
 40
0.094291778850274
 40
0.094291778850274
 10
2.34218051921016
 20
4.570904571092162
 30
0.0132164657770773
 10
2.348384043974874
 20
4.560197657541141
 30
0.0132345151851041
 10
2.354590754104719
 20
4.549492590911185
 30
0.0132549835434475
 10
2.360803997602488
 20
4.538791323781287
 30
0.0132780086569255
1001
ACAD_VIEW_EDGE_ID
1071
   -26680
1071
       -1
1071
       12
1071
        0
  0
SPLINE
  5
56E
330
70
100
AcDbEntity
  8
Visible
100
AcDbSpline
 70
     0
 71
     3
 72
     8
 73
     4
 74
     0
 42
0.000000001
 43
0.0000000001
 40
0.0
 40
0.0
 40
0.0
 40
0.0
 40
0.0942917788502744
 40
0.0942917788502744
 40
0.0942917788502744
 40
0.0942917788502744
 10
2.292967920784576
 20
4.570904571092162
 30
0.0132164657770773
 10
2.299171445549291
 20
4.560197657541141
 30
0.0132345151851041
 10
2.305378155680955
 20
4.549492590911185
 30
0.0132549835434475
 10
2.311591399176904
 20
4.538791323781287
 30
0.0132780086569255
1001
ACAD_VIEW_EDGE_ID
1071
   -26679
1071
       -1
1071
       12
1071
        0
  0
SPLINE
  5
56F
330
70
100
AcDbEntity
  8
Visible
100
AcDbSpline
 70
     0
 71
     3
 72
     8
 73
     4
 74
     0
 42
0.000000001
 43
0.0000000001
 40
0.0848389264330905
 40
0.0848389264330905
 40
0.0848389264330905
 40
0.0848389264330905
 40
0.0942917788502773
 40
0.0942917788502773
 40
0.0942917788502773
 40
0.0942917788502773
 10
2.368652653667595
 20
4.260275165114824
 30
-0.0132219650295156
 10
2.368030672805616
 20
4.259201826566983
 30
-0.0132201081523817
 10
2.367408728463487
 20
4.25812846683366
 30
-0.0132182752458903
 10
2.366786818422042
 20
4.257055087214827
 30
-0.0132164657734393
1001
ACAD_VIEW_EDGE_ID
1071
   -26642
1071
       -1
1071
       12
1071
        0
  0
SPLINE
  5
570
330
70
100
AcDbEntity
  8
Visible
100
AcDbSpline
 70
     0
 71
     3
 72
     8
 73
     4
 74
     0
 42
0.000000001
 43
0.0000000001
 40
0.0020685770267444
 40
0.0020685770267444
 40
0.0020685770267444
 40
0.0020685770267444
 40
0.0942917788502743
 40
0.0942917788502743
 40
0.0942917788502743
 40
0.0942917788502743
 10
2.335788788592253
 20
4.288464034509713
 30
-0.0132764969657728
 10
2.329712130287589
 20
4.277997370099229
 30
-0.0132540866325144
 10
2.32364165157378
 20
4.26752711204417
 30
-0.0132341192129388
 10
2.317574219996458
 20
4.257055087214827
 30
-0.0132164657734393
1001
ACAD_VIEW_EDGE_ID
1071
   -26641
1071
       -1
1071
       12
1071
        0
  0
SPLINE
  5
571
330
70
100
AcDbEntity
  8
Visible
100
AcDbSpline
210
-0.9979560350863076
220
-0.0244550942966009
230
0.0590398204414675
 70
    12
 71
     2
 72
     6
 73
     3
 74
     0
 42
0.000000001
 43
0.0000000001
 40
0.4390243902439025
 40
0.4390243902439025
 40
0.4390243902439025
 40
0.4402738638158059
 40
0.4402738638158059
 40
0.4402738638158059
 10
2.366152776548915
 20
4.539495623797277
 30
0.000000000001819
 41
1.0
 10
2.367354865944435
 20
4.539495623797277
 30
0.0203190382035246
 41
0.9688037519301511
 10
2.368652653667595
 20
4.533084958022642
 30
0.0396002901798056
 41
0.9631776540641183
1001
ACAD_VIEW_EDGE_ID
1071
       43
1071
       -1
1071
       12
1071
        0
  0
SPLINE
  5
572
330
70
100
AcDbEntity
  8
Visible
100
AcDbSpline
 70
     4
 71
     2
 72
    12
 73
     9
 74
     0
 42
0.000000001
 43
0.0000000001
 40
0.4146341463414635
 40
0.4146341463414635
 40
0.4146341463414635
 40
0.4176829268292683
 40
0.4176829268292683
 40
0.4207317073170732
 40
0.4207317073170732
 40
0.423780487804878
 40
0.423780487804878
 40
0.4264110980889671
 40
0.4264110980889671
 40
0.4264110980889671
 10
2.316940178123331
 20
4.539495623797277
 30
0.000000000001819
 41
1.0
 10
2.320015965524362
 20
4.539495623797277
 30
0.051990344434671
 41
0.9238795325112867
 10
2.323091752925392
 20
4.502732898692131
 30
0.0887530695399619
 41
1.0
 10
2.326167540328242
 20
4.465970173586986
 30
0.1255157946452527
 41
0.9238795325112867
 10
2.329243327729273
 20
4.413979829153495
 30
0.1255157946452527
 41
1.0
 10
2.332319115130303
 20
4.361989484720004
 30
0.1255157946452527
 41
0.9238795325112867
 10
2.335394902533153
 20
4.325226759614858
 30
0.0887530695399619
 41
1.0
 10
2.338019159007671
 20
4.293860866339433
 30
0.0573871762644558
 41
0.9343202026494051
 10
2.34074368147958
 20
4.289168334525703
 30
0.0132780086569255
 41
0.9819827407397962
1001
ACAD_VIEW_EDGE_ID
1071
       43
1071
       -1
1071
       12
1071
        0
  0
SPLINE
  5
573
330
70
100
AcDbEntity
  8
Visible
100
AcDbSpline
210
0.9979560350980049
220
0.024455093386494
230
0.059039820620724
 70
    12
 71
     2
 72
     6
 73
     3
 74
     0
 42
0.000000001
 43
0.0000000001
 40
0.4012271382108226
 40
0.4012271382108226
 40
0.4012271382108226
 40
0.4020208541865274
 40
0.4020208541865274
 40
0.4020208541865274
 10
2.289912496187753
 20
4.294492539455779
 30
0.0384317877014837
 41
0.9635392891858145
 10
2.290737306891969
 20
4.290535480485003
 30
0.0261289967074845
 41
0.9676018504369498
 10
2.291531083053996
 20
4.289168334525705
 30
0.0132780086569255
 41
0.9819827407397722
1001
ACAD_VIEW_EDGE_ID
1071
       43
1071
       -1
1071
       12
1071
        0
  0
SPLINE
  5
574
330
70
100
AcDbEntity
  8
Visible
100
AcDbSpline
 70
     4
 71
     2
 72
     8
 73
     5
 74
     0
 42
0.000000001
 43
0.0000000001
 40
0.4394425604476183
 40
0.4394425604476183
 40
0.4394425604476183
 40
0.4420731707317074
 40
0.4420731707317074
 40
0.4433226443036095
 40
0.4433226443036095
 40
0.4433226443036095
 10
2.360803997602488
 20
4.538791323781287
 30
0.0132780086569255
 41
0.9819827407397962
 10
2.363528520074396
 20
4.534098791967556
 30
0.0573871762644558
 41
0.9343202026494051
 10
2.366152776548915
 20
4.502732898692131
 30
0.0887530695399619
 41
1.0
 10
2.367354865944435
 20
4.488365168992737
 30
0.1031207992400596
 41
0.9688037519301817
 10
2.368652653667595
 20
4.470198239729699
 30
0.1122216780204326
 41
0.9631776540641293
1001
ACAD_VIEW_EDGE_ID
1071
       42
1071
       -1
1071
       12
1071
        0
  0
SPLINE
  5
575
330
70
100
AcDbEntity
  8
Visible
100
AcDbSpline
 70
     4
 71
     2
 72
    12
 73
     9
 74
     0
 42
0.000000001
 43
0.0000000001
 40
0.4150523165451793
 40
0.4150523165451793
 40
0.4150523165451793
 40
0.4176829268292683
 40
0.4176829268292683
 40
0.4207317073170732
 40
0.4207317073170732
 40
0.423780487804878
 40
0.423780487804878
 40
0.426829268292683
 40
0.426829268292683
 40
0.426829268292683
 10
2.311591399176905
 20
4.538791323781287
 30
0.0132780086569255
 41
0.9819827407397962
 10
2.314315921648812
 20
4.534098791967556
 30
0.0573871762644558
 41
0.9343202026494051
 10
2.316940178123331
 20
4.502732898692131
 30
0.0887530695399619
 41
1.0
 10
2.320015965524362
 20
4.465970173586986
 30
0.1255157946452527
 41
0.9238795325112867
 10
2.323091752925392
 20
4.413979829153495
 30
0.1255157946452527
 41
1.0
 10
2.326167540328242
 20
4.361989484720004
 30
0.1255157946452527
 41
0.9238795325112867
 10
2.329243327729273
 20
4.325226759614858
 30
0.0887530695399619
 41
1.0
 10
2.332319115130303
 20
4.288464034509713
 30
0.051990344434671
 41
0.9238795325112867
 10
2.335394902533153
 20
4.288464034509713
 30
0.000000000001819
 41
1.0
1001
ACAD_VIEW_EDGE_ID
1071
       42
1071
       -1
1071
       12
1071
        0
  0
SPLINE
  5
576
330
70
100
AcDbEntity
  8
Visible
100
AcDbSpline
 70
     0
 71
     3
 72
    24
 73
    20
 74
     0
 42
0.000000001
 43
0.0000000001
 40
-39.2527194845897
 40
-39.2527194845897
 40
-39.2527194845897
 40
-39.2527194845897
 40
-39.14012904111165
 40
-39.14012904111165
 40
-38.98270004708311
 40
-38.98270004708311
 40
-38.82835057893012
 40
-38.82835057893012
 40
-38.67079457465869
 40
-38.67079457465869
 40
-38.51655764875131
 40
-38.51655764875131
 40
-38.35887382474806
 40
-38.35887382474806
 40
-38.20473778250415
 40
-38.20473778250415
 40
-38.04692568146996
 40
-38.04692568146996
 40
-37.95859874582224
 40
-37.95859874582224
 40
-37.95859874582224
 40
-37.95859874582224
 10
2.334757403834373
 20
4.570904600029168
 30
-0.0132163000344008
 10
2.335471231481278
 20
4.572140324456078
 30
0.0014561777679774
 10
2.336164309457672
 20
4.571314402167772
 30
0.0162570094053081
 10
2.33793853372299
 20
4.564393483854082
 30
0.0510175481795159
 10
2.339003374047024
 20
4.556408611491283
 30
0.070292956481353
 10
2.341051958992466
 20
4.533676391850791
 30
0.1043228082289715
 10
2.341978285066943
 20
4.519277673143647
 30
0.1188397239729966
 10
2.344024306828941
 20
4.485420985397889
 30
0.1418587634561845
 10
2.345089984486548
 20
4.466194480496318
 30
0.1500045706088713
 10
2.347141813950656
 20
4.426120644030111
 30
0.1583114396307792
 10
2.348067813158195
 20
4.40569090324223
 30
0.1585597881512513
 10
2.350110372293784
 20
4.365410407647932
 30
0.151226479189063
 10
2.351176816557199
 20
4.345976951219343
 30
0.1435410469639464
 10
2.353231818846325
 20
4.31158783051413
 30
0.1213476113280194
 10
2.354157890302303
 20
4.296862213939283
 30
0.1072046194258291
 10
2.356196940401787
 20
4.273289615882299
 30
0.0737250762886106
 10
2.357264079109882
 20
4.264822614714479
 30
0.0546006287186174
 10
2.358888458136789
 20
4.25776818009453
 30
0.0230732722902758
 10
2.359441748392782
 20
4.256499487963806
 30
0.0115409534791979
 10
2.359997203984676
 20
4.256499498930963
 30
-0.0000001924036042
1001
ACAD_VIEW_EDGE_ID
1071
       25
1071
       -1
1071
       12
1071
        0
  0
SPLINE
  5
577
330
70
100
AcDbEntity
  8
Visible
100
AcDbSpline
 70
     0
 71
     3
 72
    22
 73
    18
 74
     0
 42
0.000000001
 43
0.0000000001
 40
-41.54957991828759
 40
-41.54957991828759
 40
-41.54957991828759
 40
-41.54957991828759
 40
-41.47833982887194
 40
-41.47833982887194
 40
-41.32452675136618
 40
-41.32452675136618
 40
-41.16621546118397
 40
-41.16621546118397
 40
-41.01235923897059
 40
-41.01235923897059
 40
-40.85417524687054
 40
-40.85417524687054
 40
-40.70026434113636
 40
-40.70026434113636
 40
-40.5422082526975
 40
-40.5422082526975
 40
-40.47936451125253
 40
-40.47936451125253
 40
-40.47936451125253
 40
-40.47936451125253
 10
2.289912495898533
 20
4.554082786690675
 30
0.0719109796282282
 10
2.290385786585829
 20
4.549834148469606
 30
0.0801885592336476
 10
2.290855860726878
 20
4.544850091992557
 30
0.088093302989364
 10
2.292312936677262
 20
4.526934675618096
 30
0.1115737742802594
 10
2.293244697877526
 20
4.511719420030407
 30
0.1251178619932034
 10
2.29531394168589
 20
4.476495686043559
 30
0.1460255287456675
 10
2.296383100416278
 20
4.456706350156834
 30
0.15299077265081
 10
2.298408271664811
 20
4.416144601191389
 30
0.1587548160459846
 10
2.299338213075316
 20
4.395793564156439
 30
0.1577245632834092
 10
2.301404746336629
 20
4.356037502001766
 30
0.1478976847029116
 10
2.302473489275143
 20
4.33706588741499
 30
0.1389795755076193
 10
2.304502224686075
 20
4.304126402360958
 30
0.1146312739947461
 10
2.30543066176142
 20
4.290344175369739
 30
0.0996108838135115
 10
2.307494378452247
 20
4.268921266287954
 30
0.0647177878254297
 10
2.308562636102578
 20
4.261666551934525
 30
0.0450674643943785
 10
2.310001378695233
 20
4.257141803913571
 30
0.0164292056379054
 10
2.310398093670301
 20
4.256499508852138
 30
0.0082119242033514
 10
2.310793479411586
 20
4.256499499263895
 30
0.0000002347806003
1001
ACAD_VIEW_EDGE_ID
1071
       25
1071
       -1
1071
       12
1071
        0
  0
SPLINE
  5
578
330
70
100
AcDbEntity
  8
Visible
100
AcDbSpline
 70
     0
 71
     3
 72
    26
 73
    22
 74
     0
 42
0.000000001
 43
0.0000000001
 40
-22.62353042934528
 40
-22.62353042934528
 40
-22.62353042934528
 40
-22.62353042934528
 40
-22.59587439227068
 40
-22.59587439227068
 40
-22.43586084319367
 40
-22.43586084319367
 40
-22.28109012081012
 40
-22.28109012081012
 40
-22.12122472242591
 40
-22.12122472242591
 40
-21.96649762076992
 40
-21.96649762076992
 40
-21.80678345520427
 40
-21.80678345520427
 40
-21.65209640955183
 40
-21.65209640955183
 40
-21.49253668379856
 40
-21.49253668379856
 40
-21.33788593071876
 40
-21.33788593071876
 40
-21.32895177098556
 40
-21.32895177098556
 40
-21.32895177098556
 40
-21.32895177098556
 10
2.366786818589389
 20
4.257055098019537
 30
-0.0132164648530306
 10
2.366611024690428
 20
4.25675167938372
 30
-0.0096139546421909
 10
2.366436973010422
 20
4.256571995091073
 30
-0.0059971405189572
 10
2.365269899579288
 20
4.256201411123948
 30
0.0186003419294139
 10
2.364223657203183
 20
4.260078686476302
 30
0.03942970897333
 10
2.362117167955148
 20
4.275513266719779
 30
0.0777103610125778
 10
2.361089185193122
 20
4.286669788931701
 30
0.0948903635653551
 10
2.359130358872789
 20
4.315355563597442
 30
0.1245505949646031
 10
2.358086180081954
 20
4.332796804655524
 30
0.1365619529879041
 10
2.355980052006998
 20
4.370743966363111
 30
0.1527831579660415
 10
2.35495154833552
 20
4.390776830801569
 30
0.1570789328816318
 10
2.352991691821443
 20
4.432025639988457
 30
0.1578401518927421
 10
2.351949704725484
 20
4.452848295410013
 30
0.1540410758407233
 10
2.349843967991546
 20
4.491174767950267
 30
0.1387556449317344
 10
2.348814909810243
 20
4.5084022369389
 30
0.1276586552994559
 10
2.346853953375102
 20
4.53815631767435
 30
0.0990903910515044
 10
2.345814290776615
 20
4.550221746365374
 30
0.081713421490349
 10
2.343708978047288
 20
4.566590444763251
 30
0.0438446451953496
 10
2.342679330287865
 20
4.570967229272422
 30
0.0238210725183308
 10
2.341657289080103
 20
4.57144705967415
 30
0.0023446462946595
 10
2.341601340769557
 20
4.571460143487534
 30
0.0011720682014129
 10
2.341545264505839
 20
4.571460143011297
 30
0.0000000580312189
1001
ACAD_VIEW_EDGE_ID
1071
       23
1071
       -1
1071
       12
1071
        0
  0
SPLINE
  5
579
330
70
100
AcDbEntity
  8
Visible
100
AcDbSpline
 70
     0
 71
     3
 72
    26
 73
    22
 74
     0
 42
0.000000001
 43
0.0000000001
 40
-20.1037825506331
 40
-20.1037825506331
 40
-20.1037825506331
 40
-20.1037825506331
 40
-20.08293695285298
 40
-20.08293695285298
 40
-19.92420127259608
 40
-19.92420127259608
 40
-19.76966833312272
 40
-19.76966833312272
 40
-19.61110838288817
 40
-19.61110838288817
 40
-19.45658482162815
 40
-19.45658482162815
 40
-19.29820433221051
 40
-19.29820433221051
 40
-19.14368494538505
 40
-19.14368494538505
 40
-18.98548763271728
 40
-18.98548763271728
 40
-18.83096702423764
 40
-18.83096702423764
 40
-18.81336778662152
 40
-18.81336778662152
 40
-18.81336778662152
 40
-18.81336778662152
 10
2.317574220078313
 20
4.257055092503178
 30
-0.0132164653241489
 10
2.317441189996316
 20
4.256825485789151
 30
-0.0104903048613778
 10
2.317309142668818
 20
4.256666710864765
 30
-0.0077556469641422
 10
2.316181251188027
 20
4.255914481890516
 30
0.0158527925523231
 10
2.315155335070812
 20
4.25940609477453
 30
0.0366485322902008
 10
2.313052733270524
 20
4.274103081162946
 30
0.0751522617210867
 10
2.312019565124501
 20
4.284963435105321
 30
0.0925649114396947
 10
2.310050343012335
 20
4.313067401571819
 30
0.1226866069027892
 10
2.309027617800893
 20
4.330192174376883
 30
0.1349634361795324
 10
2.306925699478597
 20
4.367749929748071
 30
0.1519092118633125
 10
2.305891705040266
 20
4.387733868285186
 30
0.1566042316171661
 10
2.303920795060548
 20
4.428890972814355
 30
0.1581527826838283
 10
2.302901409144396
 20
4.449674987860846
 30
0.1547923393245583
 10
2.300800230106688
 20
4.488252926551302
 30
0.1403473554637458
 10
2.299765366853534
 20
4.505743853732012
 30
0.129589190479237
 10
2.297792671877687
 20
4.536021700500231
 30
0.1016843959750986
 10
2.296776771678196
 20
4.548388153470515
 30
0.0846669583206676
 10
2.294676391895336
 20
4.56557873260265
 30
0.0472432327824208
 10
2.293640616995617
 20
4.570409354483864
 30
0.0272777029258578
 10
2.292553159184535
 20
4.571409154191481
 30
0.0046293170926219
 10
2.292441793581019
 20
4.571460141232796
 30
0.0023137842290453
 10
2.292330206157203
 20
4.57146014035747
 30
0.0000001771422831
1001
ACAD_VIEW_EDGE_ID
1071
       23
1071
       -1
1071
       12
1071
        0
  0
SPLINE
  5
57A
330
70
100
AcDbEntity
  8
Visible
100
AcDbSpline
 70
     0
 71
     3
 72
     8
 73
     4
 74
     0
 42
0.000000001
 43
0.0000000001
 40
-0.0197938063911902
 40
-0.0197938063911902
 40
-0.0197938063911902
 40
-0.0197938063911902
 40
-0.0000010000000687
 40
-0.0000010000000687
 40
-0.0000010000000687
 40
-0.0000010000000687
 10
5.69174306000059
 20
4.461659804119346
 30
0.4807762322543568
 10
5.690185544312043
 20
4.463731901393184
 30
0.4808666041935794
 10
5.688526909096253
 20
4.465728415753857
 30
0.4809562995760644
 10
5.686772624461809
 20
4.467641927753798
 30
0.4810449776268797
1001
ACAD_VIEW_EDGE_ID
1071
       26
1071
       -1
1071
       11
1071
        0
  0
SPLINE
  5
57B
330
70
100
AcDbEntity
  8
Visible
100
AcDbSpline
 70
     0
 71
     3
 72
     8
 73
     4
 74
     0
 42
0.000000001
 43
0.0000000001
 40
0.1008847440133142
 40
0.1008847440133142
 40
0.1008847440133142
 40
0.1008847440133142
 40
0.1102725435020509
 40
0.1102725435020509
 40
0.1102725435020509
 40
0.1102725435020509
 10
5.623562512406351
 20
4.498385883886562
 30
0.479384250491421
 10
5.622030121927309
 20
4.497579104090325
 30
0.4799170962505741
 10
5.620488566628409
 20
4.49669693718974
 30
0.4804709907184588
 10
5.618956944003002
 20
4.495732102341362
 30
0.4810449776268797
1001
ACAD_VIEW_EDGE_ID
1071
       25
1071
       -1
1071
       11
1071
        0
  0
SPLINE
  5
57C
330
70
100
AcDbEntity
  8
Visible
100
AcDbSpline
210
-0.8660254037886103
220
0.4999999999927746
230
-0.000000000005067
 70
    12
 71
     2
 72
     6
 73
     3
 74
     0
 42
0.000000001
 43
0.0000000001
 40
-0.4364335524759579
 40
-0.4364335524759579
 40
-0.4364335524759579
 40
-0.1816138839659441
 40
-0.1816138839659441
 40
-0.1816138839659441
 10
5.597792801583636
 20
4.466538911358153
 30
0.4733726833401306
 41
1.606888365329759
 10
5.583586348109747
 20
4.441932612145438
 30
0.4634252175274014
 41
1.855474860566006
 10
5.569379894635858
 20
4.417326312932925
 30
0.4733726833401306
 41
1.606888365336846
1001
ACAD_VIEW_EDGE_ID
1071
       14
1071
       -1
1071
       11
1071
        0
  0
SPLINE
  5
57D
330
70
100
AcDbEntity
  8
Visible
100
AcDbSpline
210
-0.8660254037886064
220
-0.4999999999927814
230
0.0000000000050892
 70
    12
 71
     2
 72
     6
 73
     3
 74
     0
 42
0.000000001
 43
0.0000000001
 40
-0.4364335524759574
 40
-0.4364335524759574
 40
-0.4364335524759574
 40
-0.1816138839659437
 40
-0.1816138839659437
 40
-0.1816138839659437
 10
5.569379894635858
 20
4.417326312932956
 30
0.4733726833401306
 41
1.606888365329759
 10
5.583586348109747
 20
4.392720013720241
 30
0.4634252175274014
 41
1.855474860566005
 10
5.597792801583636
 20
4.368113714507729
 30
0.4733726833401306
 41
1.606888365336844
1001
ACAD_VIEW_EDGE_ID
1071
       13
1071
       -1
1071
       11
1071
        0
  0
SPLINE
  5
57E
330
70
100
AcDbEntity
  8
Visible
100
AcDbSpline
210
0.0
220
1.0
230
0.0
 70
    12
 71
     2
 72
     6
 73
     3
 74
     0
 42
0.000000001
 43
0.0000000001
 40
0.1816138839658646
 40
0.1816138839658646
 40
0.1816138839658646
 40
0.4364335524759569
 40
0.4364335524759569
 40
0.4364335524759569
 10
5.654618615481013
 20
4.368113714507339
 30
0.4733726833401306
 41
1.606888365336688
 10
5.626205708531415
 20
4.368113714507339
 30
0.4634252175274014
 41
1.855474860566078
 10
5.597792801583636
 20
4.368113714507339
 30
0.4733726833401306
 41
1.606888365329757
1001
ACAD_VIEW_EDGE_ID
1071
       12
1071
       -1
1071
       11
1071
        0
  0
SPLINE
  5
57F
330
70
100
AcDbEntity
  8
Visible
100
AcDbSpline
210
-0.866025403788541
220
0.4999999999928945
230
0.0000000000049837
 70
    12
 71
     2
 72
     6
 73
     3
 74
     0
 42
0.000000001
 43
0.0000000001
 40
-0.4364335524758947
 40
-0.4364335524758947
 40
-0.4364335524758947
 40
-0.1816138839659439
 40
-0.1816138839659439
 40
-0.1816138839659439
 10
5.654618615481012
 20
4.368113714506932
 30
0.4733726833401306
 41
1.606888365329876
 10
5.668825068954902
 20
4.392720013719639
 30
0.4634252175274014
 41
1.855474860565937
 10
5.683031522428791
 20
4.417326312932146
 30
0.4733726833401307
 41
1.60688836533684
1001
ACAD_VIEW_EDGE_ID
1071
       11
1071
       -1
1071
       11
1071
        0
  0
SPLINE
  5
580
330
70
100
AcDbEntity
  8
Visible
100
AcDbSpline
210
-0.866025403788617
220
-0.499999999992763
230
-0.000000000005073
 70
    12
 71
     2
 72
     6
 73
     3
 74
     0
 42
0.000000001
 43
0.0000000001
 40
-0.4364335524759576
 40
-0.4364335524759576
 40
-0.4364335524759576
 40
-0.181613883965944
 40
-0.181613883965944
 40
-0.181613883965944
 10
5.683031522428791
 20
4.417326312932115
 30
0.4733726833401307
 41
1.606888365329757
 10
5.668825068954902
 20
4.441932612144831
 30
0.4634252175274014
 41
1.855474860566004
 10
5.654618615481013
 20
4.466538911357343
 30
0.4733726833401306
 41
1.606888365336844
1001
ACAD_VIEW_EDGE_ID
1071
       10
1071
       -1
1071
       11
1071
        0
  0
SPLINE
  5
581
330
70
100
AcDbEntity
  8
Visible
100
AcDbSpline
210
0.0
220
1.0
230
0.0
 70
    12
 71
     2
 72
     6
 73
     3
 74
     0
 42
0.000000001
 43
0.0000000001
 40
-0.4364335524759582
 40
-0.4364335524759582
 40
-0.4364335524759582
 40
-0.1816138839659444
 40
-0.1816138839659444
 40
-0.1816138839659444
 10
5.654618615481012
 20
4.466538911357733
 30
0.4733726833401306
 41
1.606888365329756
 10
5.626205708533234
 20
4.466538911357733
 30
0.4634252175274014
 41
1.855474860566004
 10
5.597792801585455
 20
4.466538911357733
 30
0.4733726833401306
 41
1.606888365336845
1001
ACAD_VIEW_EDGE_ID
1071
        9
1071
       -1
1071
       11
1071
        0
  0
SPLINE
  5
582
330
70
100
AcDbEntity
  8
Visible
100
AcDbSpline
 70
     0
 71
     3
 72
    24
 73
    20
 74
     0
 42
0.000000001
 43
0.0000000001
 40
5.389073406529078
 40
5.389073406529078
 40
5.389073406529078
 40
5.389073406529078
 40
5.527564862621652
 40
5.527564862621652
 40
5.841899878117944
 40
5.841899878117944
 40
6.156234893614236
 40
6.156234893614236
 40
6.313402401362382
 40
6.313402401362382
 40
6.391986155236455
 40
6.391986155236455
 40
6.431278032173492
 40
6.431278032173492
 40
6.45092397064201
 40
6.45092397064201
 40
6.460746939876269
 40
6.460746939876269
 40
6.470569909110528
 40
6.470569909110528
 40
6.470569909110528
 40
6.470569909110528
 10
5.971983798057408
 20
7.385476310563344
 30
1.105972754678077
 10
5.982964157536116
 20
7.390346243114824
 30
1.093043948701961
 10
5.993051611378177
 20
7.396015627279204
 30
1.079814322716629
 10
6.023313864456213
 20
7.416442444527659
 30
1.035833155390719
 10
6.040017585344685
 20
7.433562624206833
 30
1.004163256917308
 10
6.065704842925697
 20
7.469861402750092
 30
0.9408936414583877
 10
6.075089489715537
 20
7.489965008974174
 30
0.9078162303394492
 10
6.083678828656047
 20
7.518765834680838
 30
0.8613339664516388
 10
6.085757881073732
 20
7.528518454764199
 30
0.8457602647558815
 10
6.087717648628313
 20
7.542297243344025
 30
0.8237793060307012
 10
6.088199209425511
 20
7.546876475232441
 30
0.8164885074020276
 10
6.088673152944465
 20
7.553444461283772
 30
0.8059151053421373
 10
6.088792022164852
 20
7.555609058705363
 30
0.8024242299761681
 10
6.088915162070406
 20
7.558745460817275
 30
0.7971624579731725
 10
6.088946934394698
 20
7.55977441004221
 30
0.7954196021601092
 10
6.088981415785383
 20
7.561220737161622
 30
0.7926757123805146
 10
6.088990647800528
 20
7.561688683213082
 30
0.7917486308469961
 10
6.089004231529543
 20
7.562490731398398
 30
0.7897517268866068
 10
6.089008826651479
 20
7.562848565095235
 30
0.7886915198887437
 10
6.089008826651479
 20
7.562848565095235
 30
0.7874024163138529
1001
ACAD_VIEW_EDGE_ID
1071
       31
1071
       -1
1071
        9
1071
        0
  0
SPLINE
  5
583
330
70
100
AcDbEntity
  8
Visible
100
AcDbSpline
 70
     0
 71
     3
 72
    14
 73
    10
 74
     0
 42
0.000000001
 43
0.0000000001
 40
5.783789440326742
 40
5.783789440326742
 40
5.783789440326742
 40
5.783789440326742
 40
6.024342796720238
 40
6.024342796720238
 40
6.264896153113734
 40
6.264896153113734
 40
6.746002865900726
 40
6.746002865900726
 40
6.850303376631917
 40
6.850303376631917
 40
6.850303376631917
 40
6.850303376631917
 10
5.596883683907435
 20
7.306027127233301
 30
1.279527559056077
 10
5.628452365848715
 20
7.306027127233301
 30
1.279527559056077
 10
5.660901396162444
 20
7.307681298168542
 30
1.276440850340804
 10
5.725054825530605
 20
7.314380748543603
 30
1.263668115150721
 10
5.756760547366866
 20
7.319421998045091
 30
1.253986619603892
 10
5.847455800396346
 20
7.338464312357205
 30
1.216002285698777
 10
5.901956595886076
 20
7.356544260486916
 30
1.178299555587727
 10
5.954171750316163
 20
7.377739790899378
 30
1.12608440115764
 10
5.963241001252754
 20
7.381598766223303
 30
1.116266946210089
 10
5.971983798057408
 20
7.385476310563344
 30
1.105972754678077
1001
ACAD_VIEW_EDGE_ID
1071
       30
1071
       -1
1071
        9
1071
        0
  0
SPLINE
  5
584
330
70
100
AcDbEntity
  8
Visible
100
AcDbSpline
 70
     0
 71
     3
 72
    14
 73
    10
 74
     0
 42
0.000000001
 43
0.0000000001
 40
4.717275504021567
 40
4.717275504021567
 40
4.717275504021567
 40
4.717275504021567
 40
4.821576014752759
 40
4.821576014752759
 40
5.302682727539751
 40
5.302682727539751
 40
5.543236083933246
 40
5.543236083933246
 40
5.783789440326742
 40
5.783789440326742
 40
5.783789440326742
 40
5.783789440326742
 10
5.221783569759281
 20
7.385476310563342
 30
1.105972754678077
 10
5.230526366563935
 20
7.381598766223303
 30
1.116266946210089
 10
5.239595617498707
 20
7.377739790899378
 30
1.12608440115764
 10
5.291810771930613
 20
7.356544260486916
 30
1.178299555587727
 10
5.346311567418524
 20
7.338464312357205
 30
1.216002285698777
 10
5.437006820448004
 20
7.319421998045091
 30
1.253986619603892
 10
5.468712542286084
 20
7.314380748543603
 30
1.263668115150721
 10
5.532865971654246
 20
7.307681298168542
 30
1.276440850340804
 10
5.565315001966155
 20
7.306027127233301
 30
1.279527559056077
 10
5.596883683907435
 20
7.306027127233301
 30
1.279527559056077
1001
ACAD_VIEW_EDGE_ID
1071
       29
1071
       -1
1071
        9
1071
        0
  0
SPLINE
  5
585
330
70
100
AcDbEntity
  8
Visible
100
AcDbSpline
 70
     0
 71
     3
 72
    24
 73
    20
 74
     0
 42
0.000000001
 43
0.0000000001
 40
6.470569909110528
 40
6.470569909110528
 40
6.470569909110528
 40
6.470569909110528
 40
6.480392878344787
 40
6.480392878344787
 40
6.490215847579046
 40
6.490215847579046
 40
6.509861786047564
 40
6.509861786047564
 40
6.5491536629846
 40
6.5491536629846
 40
6.627737416858674
 40
6.627737416858674
 40
6.78490492460682
 40
6.78490492460682
 40
7.099239940103112
 40
7.099239940103112
 40
7.413574955599404
 40
7.413574955599404
 40
7.552066411691979
 40
7.552066411691979
 40
7.552066411691979
 40
7.552066411691979
 10
5.10475854116521
 20
7.562848565095235
 30
0.7874024163138529
 10
5.10475854116521
 20
7.562848565095235
 30
0.7886915198887437
 10
5.104763136285328
 20
7.562490731398403
 30
0.7897517268866068
 10
5.104776720014342
 20
7.561688683213088
 30
0.7917486308469961
 10
5.104785952029487
 20
7.561220737161622
 30
0.7926757123805146
 10
5.104820433421991
 20
7.55977441004221
 30
0.7954196021601092
 10
5.104852205746283
 20
7.558745460817277
 30
0.7971624579731725
 10
5.104975345650018
 20
7.555609058705364
 30
0.8024242299761681
 10
5.105094214872224
 20
7.553444461283774
 30
0.8059151053421373
 10
5.105568158391179
 20
7.546876475232441
 30
0.8164885074020276
 10
5.106049719188376
 20
7.542297243344025
 30
0.8237793060307012
 10
5.108009486742957
 20
7.5285184547642
 30
0.8457602647558815
 10
5.110088539160642
 20
7.518765834680838
 30
0.8613339664516388
 10
5.118677878099333
 20
7.489965008974174
 30
0.9078162303394492
 10
5.128062524890992
 20
7.469861402750092
 30
0.9408936414583877
 10
5.153749782470185
 20
7.433562624206833
 30
1.004163256917308
 10
5.170453503358658
 20
7.416442444527659
 30
1.035833155390719
 10
5.200715756438512
 20
7.396015627279204
 30
1.079814322716629
 10
5.210803210278754
 20
7.390346243114824
 30
1.093043948701961
 10
5.221783569759281
 20
7.385476310563342
 30
1.105972754678077
1001
ACAD_VIEW_EDGE_ID
1071
       28
1071
       -1
1071
        9
1071
        0
  0
SPLINE
  5
586
330
70
100
AcDbEntity
  8
Visible
100
AcDbSpline
 70
     0
 71
     3
 72
    22
 73
    18
 74
     0
 42
0.000000001
 43
0.0000000001
 40
0.0391361519072631
 40
0.0391361519072631
 40
0.0391361519072631
 40
0.0391361519072631
 40
0.0400420764210185
 40
0.0400420764210185
 40
0.1018962334595151
 40
0.1018962334595151
 40
0.222824588648715
 40
0.222824588648715
 40
0.2832887662433149
 40
0.2832887662433149
 40
0.3135208550406149
 40
0.3135208550406149
 40
0.3286368994392649
 40
0.3286368994392649
 40
0.3361949216385899
 40
0.3361949216385899
 40
0.3437529438379149
 40
0.3437529438379149
 40
0.3437529438379149
 40
0.3437529438379149
 10
5.120863640959214
 20
7.575460390975131
 30
0.9122706461821508
 10
5.120833640517957
 20
7.575485140076583
 30
0.9121562791297037
 10
5.120803890740717
 20
7.575509383560618
 30
0.9120426996396417
 10
5.11876177713384
 20
7.577154283659293
 30
0.9042350380386778
 10
5.116543530059061
 20
7.577655209993078
 30
0.8947634028208995
 10
5.111698117883861
 20
7.577804745771883
 30
0.8712711554326233
 10
5.109012824606907
 20
7.576375876702156
 30
0.8542116366206755
 10
5.106411902108447
 20
7.573481375042353
 30
0.8286111363322561
 10
5.105771026985166
 20
7.572379950689897
 30
0.8200443364657985
 10
5.105151778707295
 20
7.570689923331489
 30
0.8075116878135304
 10
5.105001163474298
 20
7.570117771364566
 30
0.8033765041072911
 10
5.104853876231572
 20
7.569270296748733
 30
0.7972984432071826
 10
5.104817755840485
 20
7.568983689761656
 30
0.7952908809493238
 10
5.104782047841581
 20
7.568576284980601
 30
0.7923133189688088
 10
5.104773213361113
 20
7.568435093927595
 30
0.7913273913145531
 10
5.104761472754034
 20
7.568172063805657
 30
0.7893641001792276
 10
5.10475854116521
 20
7.567996680313857
 30
0.7883942827447754
 10
5.10475854116521
 20
7.567996680313857
 30
0.7874024163138529
1001
ACAD_VIEW_EDGE_ID
1071
       26
1071
       -1
1071
        9
1071
        0
  0
SPLINE
  5
587
330
70
100
AcDbEntity
  8
Visible
100
AcDbSpline
 70
     0
 71
     3
 72
    16
 73
    12
 74
     0
 42
0.000000001
 43
0.0000000001
 40
1.959044598598021
 40
1.959044598598021
 40
1.959044598598021
 40
1.959044598598021
 40
2.202661552343616
 40
2.202661552343616
 40
2.446278506089211
 40
2.446278506089211
 40
2.933512413580402
 40
2.933512413580402
 40
3.425800805388221
 40
3.425800805388221
 40
3.601406243863392
 40
3.601406243863392
 40
3.601406243863392
 40
3.601406243863392
 10
5.596883683907435
 20
7.404452324083695
 30
1.279527559056077
 10
5.564912955069303
 20
7.404452324083695
 30
1.279527559056077
 10
5.532164539545192
 20
7.406547449325197
 30
1.276361885689766
 10
5.467643964653689
 20
7.414983493419768
 30
1.263392989014391
 10
5.435870114120916
 20
7.421319574605552
 30
1.253595033529563
 10
5.345288442525998
 20
7.445269171306716
 30
1.215400131328351
 10
5.291280434079453
 20
7.468049697760482
 30
1.177769217738386
 10
5.206077220922452
 20
7.512826467220271
 30
1.092566004579566
 10
5.168739192646171
 20
7.538271004313982
 30
1.038657600907754
 10
5.134379913137308
 20
7.564461344443932
 30
0.9571614559481531
 10
5.126811520593037
 20
7.570553640615414
 30
0.934945027982394
 10
5.120863640959214
 20
7.575460390975131
 30
0.9122706461821508
1001
ACAD_VIEW_EDGE_ID
1071
       25
1071
       -1
1071
        9
1071
        0
  0
SPLINE
  5
588
330
70
100
AcDbEntity
  8
Visible
100
AcDbSpline
 70
     0
 71
     3
 72
    16
 73
    12
 74
     0
 42
0.000000001
 43
0.0000000001
 40
0.3166829533326489
 40
0.3166829533326489
 40
0.3166829533326489
 40
0.3166829533326489
 40
0.4922883918078198
 40
0.4922883918078198
 40
0.9845767836156394
 40
0.9845767836156394
 40
1.47181069110683
 40
1.47181069110683
 40
1.715427644852425
 40
1.715427644852425
 40
1.959044598598021
 40
1.959044598598021
 40
1.959044598598021
 40
1.959044598598021
 10
6.072903726857475
 20
7.575460390975131
 30
0.9122706461821508
 10
6.066955847223653
 20
7.570553640615414
 30
0.934945027982394
 10
6.059387454679381
 20
7.564461344443932
 30
0.9571614559481531
 10
6.025028175170518
 20
7.538271004313982
 30
1.038657600907754
 10
5.987690146894237
 20
7.512826467220271
 30
1.092566004579566
 10
5.902486933737236
 20
7.468049697760482
 30
1.177769217738386
 10
5.848478925290692
 20
7.445269171306716
 30
1.215400131328351
 10
5.757897253695773
 20
7.421319574605552
 30
1.253595033529563
 10
5.726123403161182
 20
7.414983493419768
 30
1.263392989014391
 10
5.661602828271497
 20
7.406547449325197
 30
1.276361885689766
 10
5.628854412745567
 20
7.404452324083695
 30
1.279527559056077
 10
5.596883683907435
 20
7.404452324083695
 30
1.279527559056077
1001
ACAD_VIEW_EDGE_ID
1071
       24
1071
       -1
1071
        9
1071
        0
  0
SPLINE
  5
589
330
70
100
AcDbEntity
  8
Visible
100
AcDbSpline
 70
     0
 71
     3
 72
    22
 73
    18
 74
     0
 42
0.000000001
 43
0.0000000001
 40
0.3437529438379148
 40
0.3437529438379148
 40
0.3437529438379148
 40
0.3437529438379148
 40
0.3513109660372399
 40
0.3513109660372399
 40
0.3588689882365649
 40
0.3588689882365649
 40
0.3739850326352148
 40
0.3739850326352148
 40
0.4042171214325149
 40
0.4042171214325149
 40
0.464681299027115
 40
0.464681299027115
 40
0.5856096542163152
 40
0.5856096542163152
 40
0.6474638112548118
 40
0.6474638112548118
 40
0.6483697357685667
 40
0.6483697357685667
 40
0.6483697357685667
 40
0.6483697357685667
 10
6.089008826651479
 20
7.567996680313857
 30
0.7874024163138529
 10
6.089008826651479
 20
7.567996680313857
 30
0.7883942827447754
 10
6.089005895062655
 20
7.568172063805657
 30
0.7893641001792276
 10
6.088994154453757
 20
7.568435093927595
 30
0.7913273913145531
 10
6.088985319973289
 20
7.568576284980601
 30
0.7923133189688088
 10
6.088949611974385
 20
7.568983689761656
 30
0.7952908809493238
 10
6.088913491585117
 20
7.569270296748733
 30
0.7972984432071826
 10
6.088766204342391
 20
7.570117771364566
 30
0.8033765041072911
 10
6.088615589109394
 20
7.570689923331489
 30
0.8075116878135304
 10
6.087996340831523
 20
7.572379950689897
 30
0.8200443364657985
 10
6.087355465708242
 20
7.573481375042353
 30
0.8286111363322561
 10
6.084754543207964
 20
7.576375876702156
 30
0.8542116366206755
 10
6.082069249932828
 20
7.577804745771883
 30
0.8712711554326233
 10
6.077223837757628
 20
7.577655209993078
 30
0.8947634028208995
 10
6.07500559068103
 20
7.577154283659295
 30
0.9042350380386778
 10
6.072963477075973
 20
7.575509383560618
 30
0.9120426996396417
 10
6.072933727298732
 20
7.575485140076583
 30
0.9121562791297037
 10
6.072903726857475
 20
7.575460390975131
 30
0.9122706461821508
1001
ACAD_VIEW_EDGE_ID
1071
       23
1071
       -1
1071
        9
1071
        0
  0
SPLINE
  5
58A
330
70
100
AcDbEntity
  8
Visible
100
AcDbSpline
 70
     0
 71
     3
 72
    14
 73
    10
 74
     0
 42
0.000000001
 43
0.0000000001
 40
0.2072879161788841
 40
0.2072879161788841
 40
0.2072879161788841
 40
0.2072879161788841
 40
0.2901318620391773
 40
0.2901318620391773
 40
0.5802637240783547
 40
0.5802637240783547
 40
0.8595060823891273
 40
0.8595060823891273
 40
1.1387484406999
 40
1.1387484406999
 40
1.1387484406999
 40
1.1387484406999
 10
5.675623841389096
 20
7.098159145125241
 30
0.2641025170287321
 10
5.685614156825977
 20
7.101986739815015
 30
0.2611239804373326
 10
5.695365382078307
 20
7.106343181469712
 30
0.2575992428592144
 10
5.737986324951634
 20
7.127411221707816
 30
0.2394548080974346
 10
5.767737649264745
 20
7.147489820935388
 30
0.2188899297871103
 10
5.814872148044742
 20
7.181252371487065
 30
0.1717554310071137
 10
5.83590250474117
 20
7.19775249128395
 30
0.1420129954876756
 10
5.864741748269807
 20
7.220834511206433
 30
0.0744966598613246
 10
5.872474235089612
 20
7.227286969752986
 30
0.0366459787819622
 10
5.872474235089612
 20
7.227286969752986
 30
0.000000000001819
1001
ACAD_VIEW_EDGE_ID
1071
       21
1071
       -1
1071
        9
1071
        0
  0
SPLINE
  5
58B
330
70
100
AcDbEntity
  8
Visible
100
AcDbSpline
 70
     0
 71
     3
 72
    14
 73
    10
 74
     0
 42
0.000000001
 43
0.0000000001
 40
3.4162453220997
 40
3.4162453220997
 40
3.4162453220997
 40
3.4162453220997
 40
3.695487680410473
 40
3.695487680410473
 40
3.974730038721246
 40
3.974730038721246
 40
4.264861900760423
 40
4.264861900760423
 40
4.347705846620716
 40
4.347705846620716
 40
4.347705846620716
 40
4.347705846620716
 10
5.321293132727078
 20
7.227286969752986
 30
0.000000000001819
 10
5.321293132727078
 20
7.227286969752986
 30
0.0366459787819622
 10
5.329025619546882
 20
7.220834511206433
 30
0.0744966598613246
 10
5.357864863075519
 20
7.19775249128395
 30
0.1420129954876756
 10
5.378895219770129
 20
7.181252371487065
 30
0.1717554310071137
 10
5.426029718550125
 20
7.147489820935388
 30
0.2188899297871103
 10
5.455781042865055
 20
7.127411221707816
 30
0.2394548080974346
 10
5.498401985736563
 20
7.106343181469712
 30
0.2575992428592144
 10
5.508153210988893
 20
7.101986739815015
 30
0.2611239804373326
 10
5.518143526427593
 20
7.098159145125241
 30
0.2641025170287321
1001
ACAD_VIEW_EDGE_ID
1071
       15
1071
       -1
1071
        9
1071
        0
  0
SPLINE
  5
58C
330
70
100
AcDbEntity
  8
Visible
100
AcDbSpline
210
-0.9975947059319468
220
-0.0265263352850637
230
0.0640402703999354
 70
    12
 71
     2
 72
     6
 73
     3
 74
     0
 42
0.000000001
 43
0.0000000001
 40
0.8278983970170335
 40
0.8278983970170335
 40
0.8278983970170335
 40
0.8281716680677305
 40
0.8281716680677305
 40
0.8281716680677305
 10
5.675623841389096
 20
6.979890640808212
 30
0.0560931832696952
 41
0.9811323012319626
 10
5.675681715949394
 20
6.97935007882743
 30
0.0567708229227719
 41
0.9824321959838615
 10
5.675739267840981
 20
6.978796917539405
 30
0.0574382173654158
 41
0.9838201315478833
1001
ACAD_VIEW_EDGE_ID
1071
       13
1071
       -1
1071
        7
1071
        0
  0
SPLINE
  5
58D
330
70
100
AcDbEntity
  8
Visible
100
AcDbSpline
 70
     0
 71
     3
 72
     8
 73
     4
 74
     0
 42
0.000000001
 43
0.0000000001
 40
-14.68852862775799
 40
-14.68852862775799
 40
-14.68852862775799
 40
-14.68852862775799
 40
-14.6829761581014
 40
-14.6829761581014
 40
-14.6829761581014
 40
-14.6829761581014
 10
5.675728860405797
 20
6.789953102134019
 30
0.0093911359399499
 10
5.675690725654931
 20
6.790021824906768
 30
0.0101254617238738
 10
5.675652549236474
 20
6.790097428479858
 30
0.0108591726966552
 10
5.675614318335647
 20
6.790179905423765
 30
0.0115921716660523
1001
ACAD_VIEW_EDGE_ID
1071
       10
1071
       -1
1071
        7
1071
        0
  0
SPLINE
  5
58E
330
70
100
AcDbEntity
  8
Visible
100
AcDbSpline
 70
     0
 71
     3
 72
    14
 73
    10
 74
     0
 42
0.000000001
 43
0.0000000001
 40
-1.161707484134181
 40
-1.161707484134181
 40
-1.161707484134181
 40
-1.161707484134181
 40
-0.8798978209865015
 40
-0.8798978209865015
 40
-0.5980881578388218
 40
-0.5980881578388218
 40
-0.2990440789194109
 40
-0.2990440789194109
 40
-0.2126327301455481
 40
-0.2126327301455481
 40
-0.2126327301455481
 40
-0.2126327301455481
 10
5.872589661541496
 20
7.221396364495509
 30
0.000000000001819
 10
5.872589661541496
 20
7.221396364495509
 30
0.036982895428082
 10
5.864718919401639
 20
7.214442367482649
 30
0.0749974707014189
 10
5.835742039500473
 20
7.189618319402742
 30
0.142479200312664
 10
5.81471806322952
 20
7.171866265107823
 30
0.1720249422742199
 10
5.767626815988478
 20
7.134779010350174
 30
0.2191161895170808
 10
5.737892933804687
 20
7.112303511298675
 30
0.2395326758178271
 10
5.695521127385291
 20
7.087809850912721
 30
0.2575852497466258
 10
5.685756841216061
 20
7.082642307093939
 30
0.2611158536928997
 10
5.675739267835524
 20
7.078045929197437
 30
0.2641025170323701
1001
ACAD_VIEW_EDGE_ID
1071
       20
1071
       -1
1071
        6
1071
        0
  0
SPLINE
  5
58F
330
70
100
AcDbEntity
  8
Visible
100
AcDbSpline
 70
     0
 71
     3
 72
    14
 73
    10
 74
     0
 42
0.000000001
 43
0.0000000001
 40
0.2129646512800869
 40
0.2129646512800869
 40
0.2129646512800869
 40
0.2129646512800869
 40
0.2990440789194104
 40
0.2990440789194104
 40
0.5980881578388209
 40
0.5980881578388209
 40
0.8798978209865008
 40
0.8798978209865008
 40
1.161707484134181
 40
1.161707484134181
 40
1.161707484134181
 40
1.161707484134181
 10
5.518143526336643
 20
7.078098920944523
 30
0.2640680760650866
 10
5.508166370756953
 20
7.082682010749091
 30
0.261088722736531
 10
5.498440606372241
 20
7.087830942750999
 30
0.2575697044176195
 10
5.456105286915772
 20
7.112303511298675
 30
0.2395326758178271
 10
5.42637140473198
 20
7.134779010350174
 30
0.2191161895170808
 10
5.379280157490939
 20
7.171866265107822
 30
0.1720249422742199
 10
5.358256181219985
 20
7.189618319402741
 30
0.142479200312664
 10
5.32927930131882
 20
7.214442367482648
 30
0.0749974707014189
 10
5.321408559178962
 20
7.22139636449551
 30
0.036982895428082
 10
5.321408559178962
 20
7.22139636449551
 30
0.000000000001819
1001
ACAD_VIEW_EDGE_ID
1071
       19
1071
       -1
1071
        6
1071
        0
  0
SPLINE
  5
590
330
70
100
AcDbEntity
  8
Visible
100
AcDbSpline
 70
     0
 71
     3
 72
     8
 73
     4
 74
     0
 42
0.000000001
 43
0.0000000001
 40
2.008562787254438
 40
2.008562787254438
 40
2.008562787254438
 40
2.008562787254438
 40
2.209857864444705
 40
2.209857864444705
 40
2.209857864444705
 40
2.209857864444705
 10
5.675739267840981
 20
6.712884613035075
 30
0.2641025170287321
 10
5.650265009051508
 20
6.719754509743959
 30
0.2716974736067641
 10
5.623415787156773
 20
6.723702331875713
 30
0.2755905511821766
 10
5.59699911035932
 20
6.723702331875713
 30
0.2755905511821766
1001
ACAD_VIEW_EDGE_ID
1071
       14
1071
       -1
1071
        6
1071
        0
  0
SPLINE
  5
591
330
70
100
AcDbEntity
  8
Visible
100
AcDbSpline
 70
     0
 71
     3
 72
     8
 73
     4
 74
     0
 42
0.000000001
 43
0.0000000001
 40
2.209857864444705
 40
2.209857864444705
 40
2.209857864444705
 40
2.209857864444705
 40
2.411152941634972
 40
2.411152941634972
 40
2.411152941634972
 40
2.411152941634972
 10
5.59699911035932
 20
6.723702331875713
 30
0.2755905511821766
 10
5.570582433563686
 20
6.723702331875713
 30
0.2755905511821766
 10
5.54373321166895
 20
6.719754509743959
 30
0.2716974736067641
 10
5.518258952879477
 20
6.712884613035075
 30
0.2641025170287321
1001
ACAD_VIEW_EDGE_ID
1071
       13
1071
       -1
1071
        6
1071
        0
  0
SPLINE
  5
592
330
70
100
AcDbEntity
  8
Visible
100
AcDbSpline
 70
     0
 71
     3
 72
    16
 73
    12
 74
     0
 42
0.000000001
 43
0.0000000001
 40
2.773603383879203
 40
2.773603383879203
 40
2.773603383879203
 40
2.773603383879203
 40
3.000638497853339
 40
3.000638497853339
 40
3.227673611827476
 40
3.227673611827476
 40
3.462905728499873
 40
3.462905728499873
 40
3.580521786836072
 40
3.580521786836072
 40
3.698137845172271
 40
3.698137845172271
 40
3.698137845172271
 40
3.698137845172271
 10
5.872589661541496
 20
6.682026285755353
 30
0.000000000001819
 10
5.872589661541496
 20
6.682026285755353
 30
0.0297946343816875
 10
5.867406789868255
 20
6.68830407637153
 30
0.0605938392491226
 10
5.848860099707962
 20
6.711769188149132
 30
0.1155766609317652
 10
5.835603187471861
 20
6.7288952463753
 30
0.1398223978467286
 10
5.808561061397995
 20
6.767294234240665
 30
0.1782213857131865
 10
5.792528346588369
 20
6.791533848003217
 30
0.1949875604332192
 10
5.773007477586361
 20
6.832080352728362
 30
0.2122419043189438
 10
5.767306864971033
 20
6.84631169624646
 30
0.2167275699011952
 10
5.759265815575417
 20
6.875765683867215
 30
0.2228117756385473
 10
5.756969580075747
 20
6.891000556314907
 30
0.2244094488214614
 10
5.756969580075747
 20
6.90643573457425
 30
0.2244094488214614
1001
ACAD_VIEW_EDGE_ID
1071
        2
1071
       -1
1071
        6
1071
        0
  0
SPLINE
  5
593
330
70
100
AcDbEntity
  8
Visible
100
AcDbSpline
 70
     0
 71
     3
 72
    16
 73
    12
 74
     0
 42
0.000000001
 43
0.0000000001
 40
0.0
 40
0.0
 40
0.0
 40
0.0
 40
0.1176160583361983
 40
0.1176160583361983
 40
0.2352321166723966
 40
0.2352321166723966
 40
0.4704642333447932
 40
0.4704642333447932
 40
0.6974993473189302
 40
0.6974993473189302
 40
0.9245344612930672
 40
0.9245344612930672
 40
0.9245344612930676
 40
0.9245344612930676
 10
5.756969580075747
 20
6.90643573457425
 30
0.2244094488214614
 10
5.756969580075747
 20
6.921870912833594
 30
0.2244094488214614
 10
5.759265815575417
 20
6.937105785281286
 30
0.2228117756385473
 10
5.767306864971033
 20
6.966559772902041
 30
0.2167275699011952
 10
5.773007477586361
 20
6.980791116420138
 30
0.2122419043189438
 10
5.792528346588369
 20
7.021337621145283
 30
0.1949875604332192
 10
5.808561061397995
 20
7.045577234907836
 30
0.1782213857131865
 10
5.835603187471861
 20
7.083976222773202
 30
0.1398223978467286
 10
5.848860099707962
 20
7.101102280999368
 30
0.1155766609317652
 10
5.867406789868255
 20
7.124567392776971
 30
0.0605938392491226
 10
5.872589661541496
 20
7.130845183393148
 30
0.0297946343816875
 10
5.872589661541496
 20
7.130845183393148
 30
0.000000000001819
1001
ACAD_VIEW_EDGE_ID
1071
        2
1071
       -1
1071
        6
1071
        0
  0
SPLINE
  5
594
330
70
100
AcDbEntity
  8
Visible
100
AcDbSpline
 70
     0
 71
     3
 72
    14
 73
    10
 74
     0
 42
0.000000001
 43
0.0000000001
 40
1.149204330895799
 40
1.149204330895799
 40
1.149204330895799
 40
1.149204330895799
 40
1.244940688213344
 40
1.244940688213344
 40
1.340677045530889
 40
1.340677045530889
 40
1.436474743362644
 40
1.436474743362644
 40
1.532272441194398
 40
1.532272441194398
 40
1.532272441194398
 40
1.532272441194398
 10
5.321408559178962
 20
7.005549907802597
 30
0.000000000001819
 10
5.321408559178962
 20
7.005549907802597
 30
0.0125638264216832
 10
5.322351253402302
 20
7.00301615303662
 30
0.0258902802524972
 10
5.325754287827294
 20
6.992865390312171
 30
0.0502792023544316
 10
5.328172237441322
 20
6.985254309647739
 30
0.0613500329309318
 10
5.332767074623916
 20
6.967780171252755
 30
0.0788241713271418
 10
5.335257306509447
 20
6.956711529429155
 30
0.0864309667358612
 10
5.338829247382818
 20
6.932330872770003
 30
0.096578503778801
 10
5.339848313033144
 20
6.919007610930124
 30
0.0991141732301912
 10
5.339848313033144
 20
6.906435734574251
 30
0.0991141732301912
1001
ACAD_VIEW_EDGE_ID
1071
        0
1071
       -1
1071
        6
1071
        0
  0
SPLINE
  5
595
330
70
100
AcDbEntity
  8
Visible
100
AcDbSpline
 70
     0
 71
     3
 72
    14
 73
    10
 74
     0
 42
0.000000001
 43
0.0000000001
 40
0.0
 40
0.0
 40
0.0
 40
0.0
 40
0.0957976978317546
 40
0.0957976978317546
 40
0.1915953956635092
 40
0.1915953956635092
 40
0.2873317529810546
 40
0.2873317529810546
 40
0.3830681102962301
 40
0.3830681102962301
 40
0.3830681102986
 40
0.3830681102986
 10
5.339848313033144
 20
6.906435734574251
 30
0.0991141732301912
 10
5.339848313033144
 20
6.893863858218377
 30
0.0991141732301912
 10
5.338829247382818
 20
6.880540596378499
 30
0.096578503778801
 10
5.335257306509447
 20
6.856159939719347
 30
0.0864309667358612
 10
5.332767074623916
 20
6.845091297895747
 30
0.0788241713271418
 10
5.328172237441322
 20
6.827617159500762
 30
0.0613500329309318
 10
5.325754287827294
 20
6.82000607883633
 30
0.0502792023544316
 10
5.322351253402302
 20
6.809855316112008
 30
0.0258902802543162
 10
5.321408559178962
 20
6.807321561346029
 30
0.0125638264216832
 10
5.321408559178962
 20
6.807321561345904
 30
0.000000000001819
1001
ACAD_VIEW_EDGE_ID
1071
        0
1071
       -1
1071
        6
1071
        0
  0
SPLINE
  5
596
330
70
100
AcDbEntity
  8
Visible
100
AcDbSpline
 70
     0
 71
     3
 72
    22
 73
    18
 74
     0
 42
0.000000001
 43
0.0000000001
 40
1.082898440396907
 40
1.082898440396907
 40
1.082898440396908
 40
1.082898440396908
 40
1.352995901063261
 40
1.352995901063261
 40
1.623093361729615
 40
1.623093361729615
 40
1.894445121261714
 40
1.894445121261714
 40
2.165796880793813
 40
2.165796880793813
 40
2.437148640325912
 40
2.437148640325912
 40
2.708500399858011
 40
2.708500399858011
 40
2.978597860524365
 40
2.978597860524365
 40
3.248695321190719
 40
3.248695321190719
 40
3.248695321190719
 40
3.248695321190719
 10
5.872589661541496
 20
4.9071693888147
 30
0.000000000001819
 10
5.872589661541496
 20
4.9071693888147
 30
0.0354458609817812
 10
5.865341751919913
 20
4.902998802869956
 30
0.0727307919860323
 10
5.836949920252664
 20
4.887980072354835
 30
0.1404319974790269
 10
5.815845284090755
 20
4.877281004431811
 30
0.1708977214148035
 10
5.767785498461307
 20
4.856556242066385
 30
0.2189575070424325
 10
5.737353522905323
 20
4.845008243914258
 30
0.2399827445606206
 10
5.66981575895079
 20
4.827926850022356
 30
0.2683072379295481
 10
5.632609577491166
 20
4.82276614427155
 30
0.2755905511821766
 10
5.561388643229292
 20
4.82276614427155
 30
0.2755905511821766
 10
5.524182461769669
 20
4.827926850022356
 30
0.2683072379295481
 10
5.456644697815136
 20
4.845008243914258
 30
0.2399827445606206
 10
5.426212722259151
 20
4.856556242066385
 30
0.2189575070424325
 10
5.378152936629703
 20
4.877281004431811
 30
0.1708977214148035
 10
5.357048300467795
 20
4.887980072354835
 30
0.1404319974790269
 10
5.328656468800545
 20
4.902998802869956
 30
0.0727307919860323
 10
5.321408559178962
 20
4.9071693888147
 30
0.0354458609817812
 10
5.321408559178962
 20
4.9071693888147
 30
0.000000000001819
1001
ACAD_VIEW_EDGE_ID
1071
        7
1071
       -1
1071
        5
1071
        0
  0
SPLINE
  5
597
330
70
100
AcDbEntity
  8
Visible
100
AcDbSpline
 70
     0
 71
     3
 72
    22
 73
    18
 74
     0
 42
0.000000001
 43
0.0000000001
 40
1.082898440396907
 40
1.082898440396907
 40
1.082898440396908
 40
1.082898440396908
 40
1.352995901063261
 40
1.352995901063261
 40
1.623093361729615
 40
1.623093361729615
 40
1.894445121261714
 40
1.894445121261714
 40
2.165796880793813
 40
2.165796880793813
 40
2.437148640325912
 40
2.437148640325912
 40
2.708500399858011
 40
2.708500399858011
 40
2.978597860524365
 40
2.978597860524365
 40
3.248695321190719
 40
3.248695321190719
 40
3.248695321190719
 40
3.248695321190719
 10
5.321408559178962
 20
3.922917420310763
 30
0.000000000001819
 10
5.321408559178962
 20
3.922917420310763
 30
0.0354458609817812
 10
5.328656468800545
 20
3.927088006255506
 30
0.0727307919860323
 10
5.357048300467795
 20
3.942106736770627
 30
0.1404319974790269
 10
5.378152936629703
 20
3.952805804693651
 30
0.1708977214148035
 10
5.426212722259151
 20
3.973530567059078
 30
0.2189575070424325
 10
5.456644697815136
 20
3.985078565211205
 30
0.2399827445606206
 10
5.524182461769669
 20
4.002159959103106
 30
0.2683072379295481
 10
5.561388643229292
 20
4.007320664853913
 30
0.2755905511821766
 10
5.632609577491166
 20
4.007320664853913
 30
0.2755905511821766
 10
5.66981575895079
 20
4.002159959103106
 30
0.2683072379295481
 10
5.737353522905323
 20
3.985078565211205
 30
0.2399827445606206
 10
5.767785498461307
 20
3.973530567059078
 30
0.2189575070424325
 10
5.815845284090755
 20
3.952805804693651
 30
0.1708977214148035
 10
5.836949920252664
 20
3.942106736770627
 30
0.1404319974790269
 10
5.865341751919913
 20
3.927088006255506
 30
0.0727307919860323
 10
5.872589661541496
 20
3.922917420310763
 30
0.0354458609817812
 10
5.872589661541496
 20
3.922917420310763
 30
0.000000000001819
1001
ACAD_VIEW_EDGE_ID
1071
        6
1071
       -1
1071
        5
1071
        0
  0
SPLINE
  5
598
330
70
100
AcDbEntity
  8
Visible
100
AcDbSpline
 70
     0
 71
     3
 72
    23
 73
    19
 74
     0
 42
0.000000001
 43
0.0000000001
 40
0.9589238396306026
 40
0.9589238396306026
 40
0.9589238396306026
 40
0.9589238396306026
 40
1.038833020773202
 40
1.038833020773202
 40
1.118742201915801
 40
1.118742201915801
 40
1.198653660711635
 40
1.198653660711635
 40
1.27856511950747
 40
1.27856511950747
 40
1.27856511950747
 40
1.358476578303304
 40
1.358476578303304
 40
1.438388037099138
 40
1.438388037099138
 40
1.518297218241738
 40
1.518297218241738
 40
1.598206399384337
 40
1.598206399384337
 40
1.598206399384337
 40
1.598206399384337
 10
5.539305771890212
 20
4.415043404562731
 30
0.4921259842540167
 10
5.539305771890212
 20
4.42553017374155
 30
0.4921259842540167
 10
5.541405687057704
 20
4.436702243873917
 30
0.491756732644717
 10
5.549917827724129
 20
4.457231231216661
 30
0.4904222432851384
 10
5.55632894514747
 20
4.466589810557093
 30
0.4894755721252296
 10
5.571106033183241
 20
4.481366898592068
 30
0.4876931053186127
 10
5.580464522186957
 20
4.487777850842018
 30
0.4867404366414121
 10
5.600993198915602
 20
4.496289871603401
 30
0.4853921756312048
 10
5.612165160500808
 20
4.498389861255644
 30
0.4850168579905585
 10
5.622652228583319
 20
4.498389861255644
 30
0.4850168579905585
 10
5.63313929666765
 20
4.498389861255644
 30
0.4850168579905585
 10
5.644311258252855
 20
4.496289871603401
 30
0.4853921756312048
 10
5.6648399349815
 20
4.487777850842018
 30
0.4867404366414121
 10
5.674198423985217
 20
4.481366898592068
 30
0.4876931053186127
 10
5.688975512020988
 20
4.466589810557093
 30
0.4894755721252296
 10
5.695386629444328
 20
4.457231231216661
 30
0.4904222432851384
 10
5.703898770110754
 20
4.436702243873917
 30
0.491756732644717
 10
5.705998685276426
 20
4.42553017374155
 30
0.4921259842540167
 10
5.705998685276426
 20
4.415043404562731
 30
0.4921259842540167
1001
ACAD_VIEW_EDGE_ID
1071
        4
1071
       -1
1071
        5
1071
        0
  0
SPLINE
  5
599
330
70
100
AcDbEntity
  8
Visible
100
AcDbSpline
 70
     0
 71
     3
 72
    22
 73
    18
 74
     0
 42
0.000000001
 43
0.0000000001
 40
0.3196412798768675
 40
0.3196412798768675
 40
0.3196412798768675
 40
0.3196412798768675
 40
0.3995504610194669
 40
0.3995504610194669
 40
0.4794596421620663
 40
0.4794596421620663
 40
0.5593711009579005
 40
0.5593711009579005
 40
0.639282559753735
 40
0.639282559753735
 40
0.7191940185495694
 40
0.7191940185495694
 40
0.7991054773454036
 40
0.7991054773454036
 40
0.879014658488003
 40
0.879014658488003
 40
0.9589238396306026
 40
0.9589238396306026
 40
0.9589238396306026
 40
0.9589238396306026
 10
5.705998685276426
 20
4.415043404562731
 30
0.4921259842540167
 10
5.705998685276426
 20
4.404556635383912
 30
0.4921259842540167
 10
5.703898770110754
 20
4.393384565251545
 30
0.491756732644717
 10
5.695386629444328
 20
4.372855577908801
 30
0.4904222432851384
 10
5.688975512020988
 20
4.363496998568369
 30
0.4894755721252296
 10
5.674198423985217
 20
4.348719910533394
 30
0.4876931053186127
 10
5.6648399349815
 20
4.342308958283445
 30
0.4867404366414121
 10
5.644311258252855
 20
4.333796937522061
 30
0.4853921756312048
 10
5.63313929666765
 20
4.331696947869818
 30
0.4850168579905585
 10
5.612165160500808
 20
4.331696947869818
 30
0.4850168579905585
 10
5.600993198915602
 20
4.333796937522061
 30
0.4853921756312048
 10
5.580464522186957
 20
4.342308958283445
 30
0.4867404366414121
 10
5.571106033183241
 20
4.348719910533394
 30
0.4876931053186127
 10
5.55632894514747
 20
4.363496998568369
 30
0.4894755721252296
 10
5.549917827724129
 20
4.372855577908801
 30
0.4904222432851384
 10
5.541405687057704
 20
4.393384565251545
 30
0.491756732644717
 10
5.539305771890212
 20
4.404556635383912
 30
0.4921259842540167
 10
5.539305771890212
 20
4.415043404562731
 30
0.4921259842540167
1001
ACAD_VIEW_EDGE_ID
1071
        3
1071
       -1
1071
        5
1071
        0
  0
ENDSEC
  0
SECTION
  2
OBJECTS
  0
DICTIONARY
  5
C
330
0
100
AcDbDictionary
281
     1
  3
ACAD_COLOR
350
63
  3
ACAD_DETAILVIEWSTYLE
350
6A
  3
ACAD_GROUP
350
D
  3
ACAD_IMAGE_DICT
350
1BE
  3
ACAD_IMAGE_VARS
350
1C0
  3
ACAD_LAYOUT
350
62
  3
ACAD_MATERIAL
350
10
  3
ACAD_MLEADERSTYLE
350
66
  3
ACAD_MLINESTYLE
350
5F
  3
ACAD_PLOTSETTINGS
350
61
  3
ACAD_PLOTSTYLENAME
350
E
  3
ACAD_SCALELIST
350
42
  3
ACAD_SECTIONVIEWSTYLE
350
68
  3
ACAD_TABLESTYLE
350
64
  3
ACAD_VISUALSTYLE
350
29
  3
ACDB_RECOMPOSE_DATA
350
61B
  3
AcDbVariableDictionary
350
612
  0
DICTIONARY
  5
B4
330
70
100
AcDbDictionary
280
     1
281
     1
  3
ACAD_SORTENTS
360
1B4
  0
DICTIONARY
  5
1B8
330
1B7
100
AcDbDictionary
280
     1
281
     1
  3
ACAD_SORTENTS
360
4AD
  0
IMAGEDEF_REACTOR
  5
1BF
330
1BC
100
AcDbRasterImageDefReactor
 90
        2
330
1BC
  0
DICTIONARY
  5
63
102
{ACAD_REACTORS
330
C
102
}
330
C
100
AcDbDictionary
281
     1
  0
DICTIONARY
  5
6A
102
{ACAD_REACTORS
330
C
102
}
330
C
100
AcDbDictionary
281
     1
  3
Imperial24
350
6B
  0
DICTIONARY
  5
D
102
{ACAD_REACTORS
330
C
102
}
330
C
100
AcDbDictionary
281
     1
  0
DICTIONARY
  5
1BE
102
{ACAD_REACTORS
330
C
102
}
330
C
100
AcDbDictionary
281
     1
  3
morse_logo-16 (1)_01-2018(B)_1_1
350
1BD
  0
RASTERVARIABLES
  5
1C0
102
{ACAD_REACTORS
330
C
102
}
330
C
100
AcDbRasterVariables
 90
        0
 70
     0
 71
     1
 72
     5
  0
DICTIONARY
  5
62
102
{ACAD_REACTORS
330
C
102
}
330
C
100
AcDbDictionary
281
     1
  3
Model
350
73
  3
Sheet1
350
6F
  3
Sheet2
350
77
  0
DICTIONARY
  5
10
102
{ACAD_REACTORS
330
C
102
}
330
C
100
AcDbDictionary
281
     1
  3
ByBlock
350
19
  3
ByLayer
350
11
  3
Global
350
21
  0
DICTIONARY
  5
66
102
{ACAD_REACTORS
330
C
102
}
330
C
100
AcDbDictionary
281
     1
  3
Standard
350
67
  0
DICTIONARY
  5
5F
102
{ACAD_REACTORS
330
C
102
}
330
C
100
AcDbDictionary
281
     1
  3
Standard
350
60
  0
DICTIONARY
  5
61
102
{ACAD_REACTORS
330
C
102
}
330
C
100
AcDbDictionary
281
     1
  0
ACDBDICTIONARYWDFLT
  5
E
102
{ACAD_REACTORS
330
C
102
}
330
C
100
AcDbDictionary
281
     1
  3
Normal
350
F
100
AcDbDictionaryWithDefault
340
F
  0
DICTIONARY
  5
42
102
{ACAD_REACTORS
330
C
102
}
330
C
100
AcDbDictionary
281
     1
  3
*A1
350
A4
  3
*A10
350
AD
  3
*A11
350
AE
  3
*A12
350
AF
  3
*A13
350
B0
  3
*A14
350
B1
  3
*A15
350
B2
  3
*A16
350
B3
  3
*A2
350
A5
  3
*A3
350
A6
  3
*A4
350
A7
  3
*A5
350
A8
  3
*A6
350
A9
  3
*A7
350
AA
  3
*A8
350
AB
  3
*A9
350
AC
  3
A0
350
43
  3
A1
350
44
  3
A2
350
45
  3
A3
350
46
  3
A4
350
47
  3
A5
350
48
  3
A6
350
49
  3
A7
350
4A
  3
A8
350
4B
  3
A9
350
4C
  3
B0
350
4D
  3
B1
350
4E
  3
B2
350
4F
  3
B3
350
50
  3
B4
350
51
  3
B5
350
52
  3
B6
350
53
  0
DICTIONARY
  5
68
102
{ACAD_REACTORS
330
C
102
}
330
C
100
AcDbDictionary
281
     1
  3
Imperial24
350
69
  0
DICTIONARY
  5
64
102
{ACAD_REACTORS
330
C
102
}
330
C
100
AcDbDictionary
281
     1
  3
Standard
350
65
  0
DICTIONARY
  5
29
102
{ACAD_REACTORS
330
C
102
}
330
C
100
AcDbDictionary
281
     1
  3
2dWireframe
350
2F
  3
Basic
350
2E
  3
Brighten
350
35
  3
ColorChange
350
39
  3
Conceptual
350
32
  3
Dim
350
34
  3
EdgeColorOff
350
41
  3
Facepattern
350
38
  3
Flat
350
2A
  3
FlatWithEdges
350
2B
  3
Gouraud
350
2C
  3
GouraudWithEdges
350
2D
  3
Hidden
350
31
  3
JitterOff
350
3F
  3
Linepattern
350
37
  3
OverhangOff
350
40
  3
Realistic
350
33
  3
Shaded
350
3E
  3
Shaded with edges
350
3D
  3
Shades of Gray
350
3A
  3
Sketchy
350
3B
  3
Thicken
350
36
  3
Wireframe
350
30
  3
X-Ray
350
3C
  0
XRECORD
  5
61B
102
{ACAD_REACTORS
330
C
102
}
330
C
100
AcDbXrecord
280
     1
 90
        1
330
65
330
1C4
330
1CE
330
1CF
330
1D0
330
1D3
  0
DICTIONARY
  5
612
102
{ACAD_REACTORS
330
C
102
}
330
C
100
AcDbDictionary
281
     1
  3
ANNOALLVISIBLE
350
617
  3
CANNOSCALE
350
618
  3
CMLEADERSTYLE
350
614
  3
CTABLESTYLE
350
613
  3
CVIEWDETAILSTYLE
350
615
  3
CVIEWSECTIONSTYLE
350
616
  0
SORTENTSTABLE
  5
1B4
102
{ACAD_REACTORS
330
B4
102
}
330
B4
100
AcDbSortentsTable
330
70
  0
SORTENTSTABLE
  5
4AD
102
{ACAD_REACTORS
330
1B8
102
}
330
1B8
100
AcDbSortentsTable
330
1B7
  0
ACDBDETAILVIEWSTYLE
  5
6B
102
{ACAD_XDICTIONARY
360
61E
102
}
102
{ACAD_REACTORS
330
6A
102
}
330
6A
100
AcDbModelDocViewStyle
 70
     0
  3
Imperial24
290
     0
100
AcDbDetailViewStyle
 70
     0
 71
     0
 90
        3
 71
     1
340
55
 62
   256
 40
0.24
340
0
 62
   256
 40
0.24
300

 40
0.36
280
     3
 71
     2
340
5D
 90
       25
 62
   256
 71
     3
340
55
 62
   256
 40
0.24
 90
        1
 40
0.75
 90
        1
300
%<\AcVar ViewType \f "%tc1">% %<\AcVar ViewDetailId>%\PSCALE %<\AcVar ViewScale \f "%sn">%
 71
     4
340
5D
 90
       25
 62
   256
340
5D
 90
       25
 62
   256
280
     0
  0
IMAGEDEF
  5
1BD
102
{ACAD_REACTORS
330
1BE
330
1BF
330
59A
102
}
330
1BE
100
AcDbRasterImageDef
 90
        0
  1
morse_logo-16 (1)_01-2018(B)_1_1.jpg
 10
948.0
 20
333.0
 11
0.264583
 21
0.264583
280
     1
281
     5
  0
LAYOUT
  5
73
102
{ACAD_REACTORS
330
62
102
}
330
62
100
AcDbPlotSettings
  1

  2
AutoCAD PDF (High Quality Print).pc3
  4
ANSI_full_bleed_B_(17.00_x_11.00_Inches)
  6

 40
0.0
 41
0.0
 42
0.0
 43
0.0
 44
431.799988
 45
279.399994
 46
0.0
 47
0.0
 48
0.0
 49
0.0
140
0.0
141
0.0
142
1.0
143
1.246285
 70
 11952
 72
     0
 73
     0
 74
     0
  7

 75
     0
147
0.802385
 76
     0
 77
     2
 78
   300
148
83.339858
149
25.598097
100
AcDbLayout
  1
Model
 70
     1
 71
     0
 10
0.0
 20
0.0
 11
12.0
 21
9.0
 12
0.0
 22
0.0
 32
0.0
 14
0.0
 24
0.0
 34
0.0
 15
0.0
 25
0.0
 35
0.0
146
0.0
 13
0.0
 23
0.0
 33
0.0
 16
1.0
 26
0.0
 36
0.0
 17
0.0
 27
1.0
 37
0.0
 76
     0
330
70
1001
ACAD_PSEXT
1000
AutoCAD PDF (High Quality Print).pc3
1000
DWG To PDF
1000
File
1000

1070
     0
  0
LAYOUT
  5
6F
102
{ACAD_REACTORS
330
62
102
}
330
62
100
AcDbPlotSettings
  1

  2
None
  4

  6

 40
0.0
 41
0.0
 42
0.0
 43
0.0
 44
0.0
 45
0.0
 46
0.0
 47
0.0
 48
0.0
 49
0.0
140
0.0
141
0.0
142
1.0
143
1.0
 70
   688
 72
     0
 73
     0
 74
     5
  7

 75
    16
147
1.0
 76
     0
 77
     2
 78
   300
148
0.0
149
0.0
100
AcDbLayout
  1
Sheet1
 70
     1
 71
     1
 10
0.0
 20
0.0
 11
12.0
 21
9.0
 12
0.0
 22
0.0
 32
0.0
 14
0.0
 24
0.0
 34
0.0
 15
0.0
 25
0.0
 35
0.0
146
0.0
 13
0.0
 23
0.0
 33
0.0
 16
1.0
 26
0.0
 36
0.0
 17
0.0
 27
1.0
 37
0.0
 76
     0
330
6C
  0
LAYOUT
  5
77
102
{ACAD_REACTORS
330
62
102
}
330
62
100
AcDbPlotSettings
  1

  2
None
  4

  6

 40
0.0
 41
0.0
 42
0.0
 43
0.0
 44
0.0
 45
0.0
 46
0.0
 47
0.0
 48
0.0
 49
0.0
140
0.0
141
0.0
142
1.0
143
1.0
 70
   688
 72
     0
 73
     0
 74
     5
  7

 75
    16
147
1.0
 76
     0
 77
     2
 78
   300
148
0.0
149
0.0
100
AcDbLayout
  1
Sheet2
 70
     1
 71
     2
 10
0.0
 20
0.0
 11
12.0
 21
9.0
 12
0.0
 22
0.0
 32
0.0
 14
0.0
 24
0.0
 34
0.0
 15
0.0
 25
0.0
 35
0.0
146
0.0
 13
0.0
 23
0.0
 33
0.0
 16
1.0
 26
0.0
 36
0.0
 17
0.0
 27
1.0
 37
0.0
 76
     0
330
74
  0
MATERIAL
  5
19
102
{ACAD_XDICTIONARY
360
1A
102
}
102
{ACAD_REACTORS
330
10
102
}
330
10
100
AcDbMaterial
  1
ByBlock
 72
     0
 43
0.020833
 43
0.0
 43
0.0
 43
0.0
 43
0.0
 43
0.020833
 43
0.0
 43
0.0
 43
0.0
 43
0.0
 43
1.0
 43
0.0
 43
0.0
 43
0.0
 43
0.0
 43
1.0
 77
     0
 47
0.020833
 47
0.0
 47
0.0
 47
0.0
 47
0.0
 47
0.020833
 47
0.0
 47
0.0
 47
0.0
 47
0.0
 47
1.0
 47
0.0
 47
0.0
 47
0.0
 47
0.0
 47
1.0
171
     0
 49
0.020833
 49
0.0
 49
0.0
 49
0.0
 49
0.0
 49
0.020833
 49
0.0
 49
0.0
 49
0.0
 49
0.0
 49
1.0
 49
0.0
 49
0.0
 49
0.0
 49
0.0
 49
1.0
175
     0
142
0.020833
142
0.0
142
0.0
142
0.0
142
0.0
142
0.020833
142
0.0
142
0.0
142
0.0
142
0.0
142
1.0
142
0.0
142
0.0
142
0.0
142
0.0
142
1.0
179
     0
144
0.020833
144
0.0
144
0.0
144
0.0
144
0.0
144
0.020833
144
0.0
144
0.0
144
0.0
144
0.0
144
1.0
144
0.0
144
0.0
144
0.0
144
0.0
144
1.0
147
0.020833
147
0.0
147
0.0
147
0.0
147
0.0
147
0.020833
147
0.0
147
0.0
147
0.0
147
0.0
147
1.0
147
0.0
147
0.0
147
0.0
147
0.0
147
1.0
  0
MATERIAL
  5
11
102
{ACAD_XDICTIONARY
360
12
102
}
102
{ACAD_REACTORS
330
10
102
}
330
10
100
AcDbMaterial
  1
ByLayer
 72
     0
 43
0.020833
 43
0.0
 43
0.0
 43
0.0
 43
0.0
 43
0.020833
 43
0.0
 43
0.0
 43
0.0
 43
0.0
 43
1.0
 43
0.0
 43
0.0
 43
0.0
 43
0.0
 43
1.0
 77
     0
 47
0.020833
 47
0.0
 47
0.0
 47
0.0
 47
0.0
 47
0.020833
 47
0.0
 47
0.0
 47
0.0
 47
0.0
 47
1.0
 47
0.0
 47
0.0
 47
0.0
 47
0.0
 47
1.0
171
     0
 49
0.020833
 49
0.0
 49
0.0
 49
0.0
 49
0.0
 49
0.020833
 49
0.0
 49
0.0
 49
0.0
 49
0.0
 49
1.0
 49
0.0
 49
0.0
 49
0.0
 49
0.0
 49
1.0
175
     0
142
0.020833
142
0.0
142
0.0
142
0.0
142
0.0
142
0.020833
142
0.0
142
0.0
142
0.0
142
0.0
142
1.0
142
0.0
142
0.0
142
0.0
142
0.0
142
1.0
179
     0
144
0.020833
144
0.0
144
0.0
144
0.0
144
0.0
144
0.020833
144
0.0
144
0.0
144
0.0
144
0.0
144
1.0
144
0.0
144
0.0
144
0.0
144
0.0
144
1.0
147
0.020833
147
0.0
147
0.0
147
0.0
147
0.0
147
0.020833
147
0.0
147
0.0
147
0.0
147
0.0
147
1.0
147
0.0
147
0.0
147
0.0
147
0.0
147
1.0
  0
MATERIAL
  5
21
102
{ACAD_XDICTIONARY
360
22
102
}
102
{ACAD_REACTORS
330
10
102
}
330
10
100
AcDbMaterial
  1
Global
 72
     0
 43
0.020833
 43
0.0
 43
0.0
 43
0.0
 43
0.0
 43
0.020833
 43
0.0
 43
0.0
 43
0.0
 43
0.0
 43
1.0
 43
0.0
 43
0.0
 43
0.0
 43
0.0
 43
1.0
 77
     0
 47
0.020833
 47
0.0
 47
0.0
 47
0.0
 47
0.0
 47
0.020833
 47
0.0
 47
0.0
 47
0.0
 47
0.0
 47
1.0
 47
0.0
 47
0.0
 47
0.0
 47
0.0
 47
1.0
171
     0
 49
0.020833
 49
0.0
 49
0.0
 49
0.0
 49
0.0
 49
0.020833
 49
0.0
 49
0.0
 49
0.0
 49
0.0
 49
1.0
 49
0.0
 49
0.0
 49
0.0
 49
0.0
 49
1.0
175
     0
142
0.020833
142
0.0
142
0.0
142
0.0
142
0.0
142
0.020833
142
0.0
142
0.0
142
0.0
142
0.0
142
1.0
142
0.0
142
0.0
142
0.0
142
0.0
142
1.0
179
     0
144
0.020833
144
0.0
144
0.0
144
0.0
144
0.0
144
0.020833
144
0.0
144
0.0
144
0.0
144
0.0
144
1.0
144
0.0
144
0.0
144
0.0
144
0.0
144
1.0
147
0.020833
147
0.0
147
0.0
147
0.0
147
0.0
147
0.020833
147
0.0
147
0.0
147
0.0
147
0.0
147
1.0
147
0.0
147
0.0
147
0.0
147
0.0
147
1.0
  0
MLEADERSTYLE
  5
67
102
{ACAD_REACTORS
330
66
330
2A7
102
}
330
66
100
AcDbMLeaderStyle
179
     2
170
     2
171
     1
172
     0
 90
        2
 40
0.0
 41
0.0
173
     1
 91
-1056964608
340
5B
 92
       -2
290
     1
 42
0.06
291
     1
 43
0.12
  3
Standard
 44
0.12
300

342
55
174
     1
178
     1
175
     1
176
     0
 93
-1056964608
 45
0.12
292
     0
297
     0
 46
0.18
 94
-1056964608
 47
1.0
 49
1.0
140
1.0
293
     1
141
0.0
294
     1
177
     0
142
1.0
295
     0
296
     0
143
0.12
271
     0
272
     9
273
     9
298
     1
  0
MLINESTYLE
  5
60
102
{ACAD_REACTORS
330
5F
102
}
330
5F
100
AcDbMlineStyle
  2
STANDARD
 70
     0
  3

 62
   256
 51
90.0
 52
90.0
 71
     0
  0
ACDBPLACEHOLDER
  5
F
102
{ACAD_REACTORS
330
E
102
}
330
E
  0
SCALE
  5
A4
102
{ACAD_REACTORS
330
42
102
}
330
42
100
AcDbScale
 70
     0
300
1:2
140
1.0
141
2.0
290
     0
  0
SCALE
  5
AD
102
{ACAD_REACTORS
330
42
102
}
330
42
100
AcDbScale
 70
     0
300
1:50
140
1.0
141
50.0
290
     0
  0
SCALE
  5
AE
102
{ACAD_REACTORS
330
42
102
}
330
42
100
AcDbScale
 70
     0
300
1:100
140
1.0
141
100.0
290
     0
  0
SCALE
  5
AF
102
{ACAD_REACTORS
330
42
102
}
330
42
100
AcDbScale
 70
     0
300
2:1
140
2.0
141
1.0
290
     0
  0
SCALE
  5
B0
102
{ACAD_REACTORS
330
42
102
}
330
42
100
AcDbScale
 70
     0
300
4:1
140
4.0
141
1.0
290
     0
  0
SCALE
  5
B1
102
{ACAD_REACTORS
330
42
102
}
330
42
100
AcDbScale
 70
     0
300
8:1
140
8.0
141
1.0
290
     0
  0
SCALE
  5
B2
102
{ACAD_REACTORS
330
42
102
}
330
42
100
AcDbScale
 70
     0
300
10:1
140
10.0
141
1.0
290
     0
  0
SCALE
  5
B3
102
{ACAD_REACTORS
330
42
102
}
330
42
100
AcDbScale
 70
     0
300
100:1
140
100.0
141
1.0
290
     0
  0
SCALE
  5
A5
102
{ACAD_REACTORS
330
42
102
}
330
42
100
AcDbScale
 70
     0
300
1:4
140
1.0
141
4.0
290
     0
  0
SCALE
  5
A6
102
{ACAD_REACTORS
330
42
102
}
330
42
100
AcDbScale
 70
     0
300
1:5
140
1.0
141
5.0
290
     0
  0
SCALE
  5
A7
102
{ACAD_REACTORS
330
42
102
}
330
42
100
AcDbScale
 70
     0
300
1:8
140
1.0
141
8.0
290
     0
  0
SCALE
  5
A8
102
{ACAD_REACTORS
330
42
102
}
330
42
100
AcDbScale
 70
     0
300
1:10
140
1.0
141
10.0
290
     0
  0
SCALE
  5
A9
102
{ACAD_REACTORS
330
42
102
}
330
42
100
AcDbScale
 70
     0
300
1:16
140
1.0
141
16.0
290
     0
  0
SCALE
  5
AA
102
{ACAD_REACTORS
330
42
102
}
330
42
100
AcDbScale
 70
     0
300
1:20
140
1.0
141
20.0
290
     0
  0
SCALE
  5
AB
102
{ACAD_REACTORS
330
42
102
}
330
42
100
AcDbScale
 70
     0
300
1:30
140
1.0
141
30.0
290
     0
  0
SCALE
  5
AC
102
{ACAD_REACTORS
330
42
102
}
330
42
100
AcDbScale
 70
     0
300
1:40
140
1.0
141
40.0
290
     0
  0
SCALE
  5
43
102
{ACAD_REACTORS
330
42
102
}
330
42
100
AcDbScale
 70
     0
300
1:1
140
1.0
141
1.0
290
     1
  0
SCALE
  5
44
102
{ACAD_REACTORS
330
42
102
}
330
42
100
AcDbScale
 70
     0
300
1/128" = 1'-0"
140
0.007813
141
12.0
290
     0
  0
SCALE
  5
45
102
{ACAD_REACTORS
330
42
102
}
330
42
100
AcDbScale
 70
     0
300
1/64" = 1'-0"
140
0.015625
141
12.0
290
     0
  0
SCALE
  5
46
102
{ACAD_REACTORS
330
42
102
}
330
42
100
AcDbScale
 70
     0
300
1/32" = 1'-0"
140
0.03125
141
12.0
290
     0
  0
SCALE
  5
47
102
{ACAD_REACTORS
330
42
102
}
330
42
100
AcDbScale
 70
     0
300
1/16" = 1'-0"
140
0.0625
141
12.0
290
     0
  0
SCALE
  5
48
102
{ACAD_REACTORS
330
42
102
}
330
42
100
AcDbScale
 70
     0
300
3/32" = 1'-0"
140
0.09375
141
12.0
290
     0
  0
SCALE
  5
49
102
{ACAD_REACTORS
330
42
102
}
330
42
100
AcDbScale
 70
     0
300
1/8" = 1'-0"
140
0.125
141
12.0
290
     0
  0
SCALE
  5
4A
102
{ACAD_REACTORS
330
42
102
}
330
42
100
AcDbScale
 70
     0
300
3/16" = 1'-0"
140
0.1875
141
12.0
290
     0
  0
SCALE
  5
4B
102
{ACAD_REACTORS
330
42
102
}
330
42
100
AcDbScale
 70
     0
300
1/4" = 1'-0"
140
0.25
141
12.0
290
     0
  0
SCALE
  5
4C
102
{ACAD_REACTORS
330
42
102
}
330
42
100
AcDbScale
 70
     0
300
3/8" = 1'-0"
140
0.375
141
12.0
290
     0
  0
SCALE
  5
4D
102
{ACAD_REACTORS
330
42
102
}
330
42
100
AcDbScale
 70
     0
300
1/2" = 1'-0"
140
0.5
141
12.0
290
     0
  0
SCALE
  5
4E
102
{ACAD_REACTORS
330
42
102
}
330
42
100
AcDbScale
 70
     0
300
3/4" = 1'-0"
140
0.75
141
12.0
290
     0
  0
SCALE
  5
4F
102
{ACAD_REACTORS
330
42
102
}
330
42
100
AcDbScale
 70
     0
300
1" = 1'-0"
140
1.0
141
12.0
290
     0
  0
SCALE
  5
50
102
{ACAD_REACTORS
330
42
102
}
330
42
100
AcDbScale
 70
     0
300
1-1/2" = 1'-0"
140
1.5
141
12.0
290
     0
  0
SCALE
  5
51
102
{ACAD_REACTORS
330
42
102
}
330
42
100
AcDbScale
 70
     0
300
3" = 1'-0"
140
3.0
141
12.0
290
     0
  0
SCALE
  5
52
102
{ACAD_REACTORS
330
42
102
}
330
42
100
AcDbScale
 70
     0
300
6" = 1'-0"
140
6.0
141
12.0
290
     0
  0
SCALE
  5
53
102
{ACAD_REACTORS
330
42
102
}
330
42
100
AcDbScale
 70
     0
300
1'-0" = 1'-0"
140
12.0
141
12.0
290
     0
  0
ACDBSECTIONVIEWSTYLE
  5
69
102
{ACAD_XDICTIONARY
360
61C
102
}
102
{ACAD_REACTORS
330
68
102
}
330
68
100
AcDbModelDocViewStyle
 70
     0
  3
Imperial24
290
     0
100
AcDbSectionViewStyle
 70
     0
 71
     0
 90
       78
 71
     1
340
55
 62
   256
 40
0.24
340
0
340
0
 62
   256
 40
0.24
300
I, O, Q, S, X, Z
 40
0.48
 90
        3
 40
0.18
 90
        1
 71
     2
340
5D
 90
       25
 62
   256
340
5D
 90
       50
 62
   256
 40
0.24
 40
0.0
 40
0.24
 71
     3
340
55
 62
   256
 40
0.24
 90
        1
 40
0.75
 90
        1
300
%<\AcVar ViewType \f "%tc1">% %<\AcVar ViewSectionStartId>%-%<\AcVar ViewSectionEndId>%\PSCALE %<\AcVar ViewScale \f "%sn">%
 71
     4
 62
   256
 62
   257
300
ANSI31
 40
1.0
 90
        0
290
     0
290
     0
 90
        6
 40
0.0
 40
1.570796
 40
0.261799
 40
1.308997
 40
-0.261799
 40
1.832596
  0
TABLESTYLE
  5
65
102
{ACAD_XDICTIONARY
360
619
102
}
102
{ACAD_REACTORS
330
64
102
}
330
64
100
AcDbTableStyle
280
     0
  3
Standard
 70
     0
 71
     0
 40
0.06
 41
0.06
280
     0
281
     0
  7
Standard
140
0.18
170
     2
 62
     0
 63
     7
283
     0
 90
      512
 91
        0
  1

274
    -2
284
     1
 64
     0
275
    -2
285
     1
 65
     0
276
    -2
286
     1
 66
     0
277
    -2
287
     1
 67
     0
278
    -2
288
     1
 68
     0
279
    -2
289
     1
 69
     0
  7
Standard
140
0.25
170
     5
 62
     0
 63
     7
283
     0
 90
      512
 91
        0
  1

274
    -2
284
     1
 64
     0
275
    -2
285
     1
 65
     0
276
    -2
286
     1
 66
     0
277
    -2
287
     1
 67
     0
278
    -2
288
     1
 68
     0
279
    -2
289
     1
 69
     0
  7
Standard
140
0.18
170
     5
 62
     0
 63
     7
283
     0
 90
      512
 91
        0
  1

274
    -2
284
     1
 64
     0
275
    -2
285
     1
 65
     0
276
    -2
286
     1
 66
     0
277
    -2
287
     1
 67
     0
278
    -2
288
     1
 68
     0
279
    -2
289
     1
 69
     0
  0
VISUALSTYLE
  5
2F
102
{ACAD_REACTORS
330
29
102
}
330
29
100
AcDbVisualStyle
  2
2dWireframe
 70
     4
177
     3
291
     0
 70
    58
 90
        0
176
     1
 90
        2
176
     1
 90
        0
176
     1
 90
        0
176
     1
 40
0.6
176
     1
 40
30.0
176
     1
 62
     7
420
 16777215
176
     1
 90
        1
176
     1
 90
        4
176
     1
 62
     7
176
     1
 62
   257
176
     1
 90
        1
176
     1
 90
        1
176
     1
 40
1.0
176
     1
 90
        0
176
     1
 62
   257
176
     1
 40
1.0
176
     1
 90
        1
176
     1
 90
        6
176
     1
 90
        2
176
     1
 62
     7
176
     1
 90
        5
176
     1
 90
        0
176
     1
 90
        0
176
     1
290
     0
176
     1
 90
        1
176
     1
 40
0.0
176
     1
 90
        0
176
     1
290
     1
176
     1
290
     1
176
     1
290
     0
176
     1
290
     0
176
     1
290
     0
176
     1
290
     0
176
     1
290
     0
176
     1
290
     0
176
     1
290
     0
176
     1
 90
       50
176
     1
 40
0.0
176
     1
 40
1.0
176
     1
 90
        0
176
     1
 62
    18
420
        0
176
     1
 90
       50
176
     1
 90
        3
176
     1
 62
     5
420
      255
176
     1
290
     0
176
     1
 90
       50
176
     1
 90
       50
176
     1
 90
       50
176
     1
290
     0
176
     1
 90
       50
176
     1
 62
   256
176
     0
 40
1.0
176
     0
 90
        2
176
     1
  1
strokes_ogs.tif
176
     1
290
     0
176
     1
 40
1.0
176
     1
 40
1.0
176
     1
1001
ACAD
1000
AcDbSavedByObjectVersion
1070
     0
  0
VISUALSTYLE
  5
2E
102
{ACAD_REACTORS
330
29
102
}
330
29
100
AcDbVisualStyle
  2
Basic
 70
     7
177
     3
291
     1
 70
    58
 90
        1
176
     1
 90
        0
176
     1
 90
        1
176
     1
 90
        0
176
     1
 40
0.6
176
     1
 40
30.0
176
     1
 62
     7
420
 16777215
176
     1
 90
        0
176
     1
 90
        4
176
     1
 62
     7
176
     1
 62
   257
176
     1
 90
        1
176
     1
 90
        1
176
     1
 40
1.0
176
     1
 90
        8
176
     1
 62
     7
176
     1
 40
1.0
176
     1
 90
        1
176
     1
 90
        6
176
     1
 90
        2
176
     1
 62
     7
176
     1
 90
        5
176
     1
 90
        0
176
     1
 90
        0
176
     1
290
     0
176
     1
 90
        1
176
     1
 40
0.0
176
     1
 90
        0
176
     1
290
     0
176
     1
290
     1
176
     1
290
     1
176
     1
290
     0
176
     1
290
     0
176
     1
290
     0
176
     1
290
     0
176
     1
290
     0
176
     1
290
     0
176
     1
 90
       50
176
     1
 40
0.0
176
     1
 40
1.0
176
     1
 90
        0
176
     1
 62
    18
420
        0
176
     1
 90
       50
176
     1
 90
        3
176
     1
 62
     5
420
      255
176
     1
290
     0
176
     1
 90
       50
176
     1
 90
       50
176
     1
 90
       50
176
     1
290
     0
176
     1
 90
       50
176
     1
 62
   256
176
     0
 40
1.0
176
     0
 90
        2
176
     1
  1
strokes_ogs.tif
176
     1
290
     0
176
     1
 40
1.0
176
     1
 40
1.0
176
     1
1001
ACAD
1000
AcDbSavedByObjectVersion
1070
     0
  0
VISUALSTYLE
  5
35
102
{ACAD_REACTORS
330
29
102
}
330
29
100
AcDbVisualStyle
  2
Brighten
 70
    12
177
     3
291
     1
 70
    58
 90
        2
176
     1
 90
        2
176
     1
 90
        0
176
     1
 90
        0
176
     1
 40
0.6
176
     1
 40
30.0
176
     1
 62
     7
420
 16777215
176
     1
 90
        1
176
     1
 90
        4
176
     1
 62
     7
176
     1
 62
   257
176
     1
 90
        1
176
     1
 90
        1
176
     1
 40
1.0
176
     1
 90
        8
176
     1
 62
     7
176
     1
 40
1.0
176
     1
 90
        1
176
     1
 90
        6
176
     1
 90
        2
176
     1
 62
     7
176
     1
 90
        5
176
     1
 90
        0
176
     1
 90
        0
176
     1
290
     0
176
     1
 90
        1
176
     1
 40
50.0
176
     1
 90
        0
176
     1
290
     0
176
     1
290
     1
176
     1
290
     1
176
     1
290
     0
176
     1
290
     0
176
     1
290
     0
176
     1
290
     0
176
     1
290
     0
176
     1
290
     0
176
     1
 90
       50
176
     1
 40
0.0
176
     1
 40
1.0
176
     1
 90
        0
176
     1
 62
    18
420
        0
176
     1
 90
       50
176
     1
 90
        3
176
     1
 62
     5
420
      255
176
     1
290
     0
176
     1
 90
       50
176
     1
 90
       50
176
     1
 90
       50
176
     1
290
     0
176
     1
 90
       50
176
     1
 62
   256
176
     0
 40
1.0
176
     0
 90
        2
176
     1
  1
strokes_ogs.tif
176
     1
290
     0
176
     1
 40
1.0
176
     1
 40
1.0
176
     1
1001
ACAD
1000
AcDbSavedByObjectVersion
1070
     0
  0
VISUALSTYLE
  5
39
102
{ACAD_REACTORS
330
29
102
}
330
29
100
AcDbVisualStyle
  2
ColorChange
 70
    16
177
     3
291
     1
 70
    58
 90
        2
176
     1
 90
        2
176
     1
 90
        3
176
     1
 90
        0
176
     1
 40
0.6
176
     1
 40
30.0
176
     1
 62
     8
420
  8421504
176
     1
 90
        1
176
     1
 90
        4
176
     1
 62
     7
176
     1
 62
   257
176
     1
 90
        1
176
     1
 90
        1
176
     1
 40
1.0
176
     1
 90
        8
176
     1
 62
     8
420
  8421504
176
     1
 40
1.0
176
     1
 90
        1
176
     1
 90
        6
176
     1
 90
        2
176
     1
 62
     7
176
     1
 90
        5
176
     1
 90
        0
176
     1
 90
        0
176
     1
290
     0
176
     1
 90
        1
176
     1
 40
0.0
176
     1
 90
        0
176
     1
290
     0
176
     1
290
     1
176
     1
290
     1
176
     1
290
     0
176
     1
290
     0
176
     1
290
     0
176
     1
290
     0
176
     1
290
     0
176
     1
290
     0
176
     1
 90
       50
176
     1
 40
0.0
176
     1
 40
1.0
176
     1
 90
        0
176
     1
 62
    18
420
        0
176
     1
 90
       50
176
     1
 90
        3
176
     1
 62
     5
420
      255
176
     1
290
     0
176
     1
 90
       50
176
     1
 90
       50
176
     1
 90
       50
176
     1
290
     0
176
     1
 90
       50
176
     1
 62
   256
176
     0
 40
1.0
176
     0
 90
        2
176
     1
  1
strokes_ogs.tif
176
     1
290
     0
176
     1
 40
1.0
176
     1
 40
1.0
176
     1
1001
ACAD
1000
AcDbSavedByObjectVersion
1070
     0
  0
VISUALSTYLE
  5
32
102
{ACAD_REACTORS
330
29
102
}
330
29
100
AcDbVisualStyle
  2
Conceptual
 70
     9
177
     3
291
     0
 70
    58
 90
        3
176
     1
 90
        2
176
     1
 90
        0
176
     1
 90
        0
176
     1
 40
0.6
176
     1
 40
30.0
176
     1
 62
     7
420
 16777215
176
     1
 90
        2
176
     1
 90
        2
176
     1
 62
     7
176
     1
 62
   257
176
     1
 90
        1
176
     1
 90
        1
176
     1
 40
179.0
176
     1
 90
        8
176
     1
 62
     7
176
     1
 40
1.0
176
     1
 90
        1
176
     1
 90
        6
176
     1
 90
        2
176
     1
 62
     7
176
     1
 90
        3
176
     1
 90
        0
176
     1
 90
        0
176
     1
290
     0
176
     1
 90
        1
176
     1
 40
0.0
176
     1
 90
        0
176
     1
290
     0
176
     1
290
     1
176
     1
290
     1
176
     1
290
     0
176
     1
290
     0
176
     1
290
     0
176
     1
290
     0
176
     1
290
     0
176
     1
290
     0
176
     1
 90
       50
176
     1
 40
0.0
176
     1
 40
1.0
176
     1
 90
        0
176
     1
 62
    18
420
        0
176
     1
 90
       50
176
     1
 90
        3
176
     1
 62
     5
420
      255
176
     1
290
     0
176
     1
 90
       50
176
     1
 90
       50
176
     1
 90
       50
176
     1
290
     0
176
     1
 90
       50
176
     1
 62
   256
176
     0
 40
1.0
176
     0
 90
        2
176
     1
  1
strokes_ogs.tif
176
     1
290
     0
176
     1
 40
1.0
176
     1
 40
1.0
176
     1
1001
ACAD
1000
AcDbSavedByObjectVersion
1070
     0
  0
VISUALSTYLE
  5
34
102
{ACAD_REACTORS
330
29
102
}
330
29
100
AcDbVisualStyle
  2
Dim
 70
    11
177
     3
291
     1
 70
    58
 90
        2
176
     1
 90
        2
176
     1
 90
        0
176
     1
 90
        0
176
     1
 40
0.6
176
     1
 40
30.0
176
     1
 62
     7
420
 16777215
176
     1
 90
        1
176
     1
 90
        4
176
     1
 62
     7
176
     1
 62
   257
176
     1
 90
        1
176
     1
 90
        1
176
     1
 40
1.0
176
     1
 90
        8
176
     1
 62
     7
176
     1
 40
1.0
176
     1
 90
        1
176
     1
 90
        6
176
     1
 90
        2
176
     1
 62
     7
176
     1
 90
        5
176
     1
 90
        0
176
     1
 90
        0
176
     1
290
     0
176
     1
 90
        1
176
     1
 40
-50.0
176
     1
 90
        0
176
     1
290
     0
176
     1
290
     1
176
     1
290
     1
176
     1
290
     0
176
     1
290
     0
176
     1
290
     0
176
     1
290
     0
176
     1
290
     0
176
     1
290
     0
176
     1
 90
       50
176
     1
 40
0.0
176
     1
 40
1.0
176
     1
 90
        0
176
     1
 62
    18
420
        0
176
     1
 90
       50
176
     1
 90
        3
176
     1
 62
     5
420
      255
176
     1
290
     0
176
     1
 90
       50
176
     1
 90
       50
176
     1
 90
       50
176
     1
290
     0
176
     1
 90
       50
176
     1
 62
   256
176
     0
 40
1.0
176
     0
 90
        2
176
     1
  1
strokes_ogs.tif
176
     1
290
     0
176
     1
 40
1.0
176
     1
 40
1.0
176
     1
1001
ACAD
1000
AcDbSavedByObjectVersion
1070
     0
  0
VISUALSTYLE
  5
41
102
{ACAD_REACTORS
330
29
102
}
330
29
100
AcDbVisualStyle
  2
EdgeColorOff
 70
    22
177
     3
291
     1
 70
    58
 90
        2
176
     0
 90
        2
176
     0
 90
        0
176
     0
 90
        0
176
     0
 40
0.6
176
     0
 40
30.0
176
     0
 62
     7
420
 16777215
176
     0
 90
        1
176
     0
 90
        4
176
     0
 62
     7
176
     0
 62
   257
176
     0
 90
        1
176
     0
 90
        1
176
     0
 40
1.0
176
     0
 90
        8
176
     2
 62
     7
176
     0
 40
1.0
176
     0
 90
        1
176
     0
 90
        6
176
     0
 90
        2
176
     0
 62
     7
176
     0
 90
        5
176
     0
 90
        0
176
     0
 90
        0
176
     0
290
     0
176
     0
 90
        1
176
     0
 40
0.0
176
     0
 90
        0
176
     0
290
     0
176
     0
290
     1
176
     0
290
     1
176
     0
290
     0
176
     0
290
     0
176
     0
290
     0
176
     0
290
     0
176
     0
290
     0
176
     0
290
     0
176
     0
 90
       50
176
     0
 40
0.0
176
     0
 40
1.0
176
     0
 90
        0
176
     0
 62
    18
420
        0
176
     0
 90
       50
176
     0
 90
        3
176
     0
 62
     5
420
      255
176
     0
290
     0
176
     0
 90
       50
176
     0
 90
       50
176
     0
 90
       50
176
     0
290
     0
176
     0
 90
       50
176
     0
 62
   256
176
     0
 40
1.0
176
     0
 90
        2
176
     0
  1
strokes_ogs.tif
176
     0
290
     0
176
     0
 40
1.0
176
     0
 40
1.0
176
     0
1001
ACAD
1000
AcDbSavedByObjectVersion
1070
     0
  0
VISUALSTYLE
  5
38
102
{ACAD_REACTORS
330
29
102
}
330
29
100
AcDbVisualStyle
  2
Facepattern
 70
    15
177
     3
291
     1
 70
    58
 90
        2
176
     1
 90
        2
176
     1
 90
        0
176
     1
 90
        0
176
     1
 40
0.6
176
     1
 40
30.0
176
     1
 62
     7
420
 16777215
176
     1
 90
        1
176
     1
 90
        4
176
     1
 62
     7
176
     1
 62
   257
176
     1
 90
        1
176
     1
 90
        1
176
     1
 40
1.0
176
     1
 90
        8
176
     1
 62
     7
176
     1
 40
1.0
176
     1
 90
        1
176
     1
 90
        6
176
     1
 90
        2
176
     1
 62
     7
176
     1
 90
        5
176
     1
 90
        0
176
     1
 90
        0
176
     1
290
     0
176
     1
 90
        1
176
     1
 40
0.0
176
     1
 90
        0
176
     1
290
     0
176
     1
290
     1
176
     1
290
     1
176
     1
290
     0
176
     1
290
     0
176
     1
290
     0
176
     1
290
     0
176
     1
290
     0
176
     1
290
     0
176
     1
 90
       50
176
     1
 40
0.0
176
     1
 40
1.0
176
     1
 90
        0
176
     1
 62
    18
420
        0
176
     1
 90
       50
176
     1
 90
        3
176
     1
 62
     5
420
      255
176
     1
290
     0
176
     1
 90
       50
176
     1
 90
       50
176
     1
 90
       50
176
     1
290
     0
176
     1
 90
       50
176
     1
 62
   256
176
     0
 40
1.0
176
     0
 90
        2
176
     1
  1
strokes_ogs.tif
176
     1
290
     0
176
     1
 40
1.0
176
     1
 40
1.0
176
     1
1001
ACAD
1000
AcDbSavedByObjectVersion
1070
     0
  0
VISUALSTYLE
  5
2A
102
{ACAD_REACTORS
330
29
102
}
330
29
100
AcDbVisualStyle
  2
Flat
 70
     0
177
     3
291
     1
 70
    58
 90
        2
176
     1
 90
        1
176
     1
 90
        1
176
     1
 90
        2
176
     1
 40
0.6
176
     1
 40
30.0
176
     1
 62
     7
420
 16777215
176
     1
 90
        0
176
     1
 90
        0
176
     1
 62
     7
176
     1
 62
   257
176
     1
 90
        1
176
     1
 90
        1
176
     1
 40
1.0
176
     1
 90
        8
176
     1
 62
     7
176
     1
 40
1.0
176
     1
 90
        1
176
     1
 90
        6
176
     1
 90
        2
176
     1
 62
     7
176
     1
 90
        5
176
     1
 90
        0
176
     1
 90
        0
176
     1
290
     0
176
     1
 90
       13
176
     1
 40
0.0
176
     1
 90
        0
176
     1
290
     0
176
     1
290
     1
176
     1
290
     1
176
     1
290
     0
176
     1
290
     0
176
     1
290
     0
176
     1
290
     0
176
     1
290
     0
176
     1
290
     0
176
     1
 90
       50
176
     1
 40
0.0
176
     1
 40
1.0
176
     1
 90
        0
176
     1
 62
    18
420
        0
176
     1
 90
       50
176
     1
 90
        3
176
     1
 62
     5
420
      255
176
     1
290
     0
176
     1
 90
       50
176
     1
 90
       50
176
     1
 90
       50
176
     1
290
     0
176
     1
 90
       50
176
     1
 62
   256
176
     0
 40
1.0
176
     0
 90
        2
176
     1
  1
strokes_ogs.tif
176
     1
290
     0
176
     1
 40
1.0
176
     1
 40
1.0
176
     1
1001
ACAD
1000
AcDbSavedByObjectVersion
1070
     0
  0
VISUALSTYLE
  5
2B
102
{ACAD_REACTORS
330
29
102
}
330
29
100
AcDbVisualStyle
  2
FlatWithEdges
 70
     1
177
     3
291
     1
 70
    58
 90
        2
176
     1
 90
        1
176
     1
 90
        1
176
     1
 90
        2
176
     1
 40
0.6
176
     1
 40
30.0
176
     1
 62
     7
420
 16777215
176
     1
 90
        1
176
     1
 90
        0
176
     1
 62
     7
176
     1
 62
   257
176
     1
 90
        1
176
     1
 90
        1
176
     1
 40
1.0
176
     1
 90
        0
176
     1
 62
   257
176
     1
 40
1.0
176
     1
 90
        1
176
     1
 90
        6
176
     1
 90
        2
176
     1
 62
     7
176
     1
 90
        5
176
     1
 90
        0
176
     1
 90
        0
176
     1
290
     0
176
     1
 90
       13
176
     1
 40
0.0
176
     1
 90
        0
176
     1
290
     0
176
     1
290
     1
176
     1
290
     1
176
     1
290
     0
176
     1
290
     0
176
     1
290
     0
176
     1
290
     0
176
     1
290
     0
176
     1
290
     0
176
     1
 90
       50
176
     1
 40
0.0
176
     1
 40
1.0
176
     1
 90
        0
176
     1
 62
    18
420
        0
176
     1
 90
       50
176
     1
 90
        3
176
     1
 62
     5
420
      255
176
     1
290
     0
176
     1
 90
       50
176
     1
 90
       50
176
     1
 90
       50
176
     1
290
     0
176
     1
 90
       50
176
     1
 62
   256
176
     0
 40
1.0
176
     0
 90
        2
176
     1
  1
strokes_ogs.tif
176
     1
290
     0
176
     1
 40
1.0
176
     1
 40
1.0
176
     1
1001
ACAD
1000
AcDbSavedByObjectVersion
1070
     0
  0
VISUALSTYLE
  5
2C
102
{ACAD_REACTORS
330
29
102
}
330
29
100
AcDbVisualStyle
  2
Gouraud
 70
     2
177
     3
291
     1
 70
    58
 90
        2
176
     1
 90
        2
176
     1
 90
        1
176
     1
 90
        2
176
     1
 40
0.6
176
     1
 40
30.0
176
     1
 62
     7
420
 16777215
176
     1
 90
        0
176
     1
 90
        0
176
     1
 62
     7
176
     1
 62
   257
176
     1
 90
        1
176
     1
 90
        1
176
     1
 40
1.0
176
     1
 90
        0
176
     1
 62
     7
176
     1
 40
1.0
176
     1
 90
        1
176
     1
 90
        6
176
     1
 90
        2
176
     1
 62
     7
176
     1
 90
        5
176
     1
 90
        0
176
     1
 90
        0
176
     1
290
     0
176
     1
 90
       13
176
     1
 40
0.0
176
     1
 90
        0
176
     1
290
     0
176
     1
290
     1
176
     1
290
     1
176
     1
290
     0
176
     1
290
     0
176
     1
290
     0
176
     1
290
     0
176
     1
290
     0
176
     1
290
     0
176
     1
 90
       50
176
     1
 40
0.0
176
     1
 40
1.0
176
     1
 90
        0
176
     1
 62
    18
420
        0
176
     1
 90
       50
176
     1
 90
        3
176
     1
 62
     5
420
      255
176
     1
290
     0
176
     1
 90
       50
176
     1
 90
       50
176
     1
 90
       50
176
     1
290
     0
176
     1
 90
       50
176
     1
 62
   256
176
     0
 40
1.0
176
     0
 90
        2
176
     1
  1
strokes_ogs.tif
176
     1
290
     0
176
     1
 40
1.0
176
     1
 40
1.0
176
     1
1001
ACAD
1000
AcDbSavedByObjectVersion
1070
     0
  0
VISUALSTYLE
  5
2D
102
{ACAD_REACTORS
330
29
102
}
330
29
100
AcDbVisualStyle
  2
GouraudWithEdges
 70
     3
177
     3
291
     1
 70
    58
 90
        2
176
     1
 90
        2
176
     1
 90
        1
176
     1
 90
        2
176
     1
 40
0.6
176
     1
 40
30.0
176
     1
 62
     7
420
 16777215
176
     1
 90
        1
176
     1
 90
        0
176
     1
 62
     7
176
     1
 62
   257
176
     1
 90
        1
176
     1
 90
        1
176
     1
 40
1.0
176
     1
 90
        0
176
     1
 62
   257
176
     1
 40
1.0
176
     1
 90
        1
176
     1
 90
        6
176
     1
 90
        2
176
     1
 62
     7
176
     1
 90
        5
176
     1
 90
        0
176
     1
 90
        0
176
     1
290
     0
176
     1
 90
       13
176
     1
 40
0.0
176
     1
 90
        0
176
     1
290
     0
176
     1
290
     1
176
     1
290
     1
176
     1
290
     0
176
     1
290
     0
176
     1
290
     0
176
     1
290
     0
176
     1
290
     0
176
     1
290
     0
176
     1
 90
       50
176
     1
 40
0.0
176
     1
 40
1.0
176
     1
 90
        0
176
     1
 62
    18
420
        0
176
     1
 90
       50
176
     1
 90
        3
176
     1
 62
     5
420
      255
176
     1
290
     0
176
     1
 90
       50
176
     1
 90
       50
176
     1
 90
       50
176
     1
290
     0
176
     1
 90
       50
176
     1
 62
   256
176
     0
 40
1.0
176
     0
 90
        2
176
     1
  1
strokes_ogs.tif
176
     1
290
     0
176
     1
 40
1.0
176
     1
 40
1.0
176
     1
1001
ACAD
1000
AcDbSavedByObjectVersion
1070
     0
  0
VISUALSTYLE
  5
31
102
{ACAD_REACTORS
330
29
102
}
330
29
100
AcDbVisualStyle
  2
Hidden
 70
     6
177
     3
291
     0
 70
    58
 90
        1
176
     1
 90
        2
176
     1
 90
        2
176
     1
 90
        0
176
     1
 40
0.6
176
     1
 40
30.0
176
     1
 62
     7
420
 16777215
176
     1
 90
        2
176
     1
 90
        2
176
     1
 62
     7
176
     1
 62
   257
176
     1
 90
        2
176
     1
 90
        1
176
     1
 40
40.0
176
     1
 90
        0
176
     1
 62
   257
176
     1
 40
1.0
176
     1
 90
        1
176
     1
 90
        6
176
     1
 90
        2
176
     1
 62
     7
176
     1
 90
        3
176
     1
 90
        0
176
     1
 90
        0
176
     1
290
     0
176
     1
 90
        1
176
     1
 40
0.0
176
     1
 90
        0
176
     1
290
     0
176
     1
290
     1
176
     1
290
     1
176
     1
290
     0
176
     1
290
     0
176
     1
290
     0
176
     1
290
     0
176
     1
290
     0
176
     1
290
     0
176
     1
 90
       50
176
     1
 40
0.0
176
     1
 40
1.0
176
     1
 90
        0
176
     1
 62
    18
420
        0
176
     1
 90
       50
176
     1
 90
        3
176
     1
 62
     5
420
      255
176
     1
290
     0
176
     1
 90
       50
176
     1
 90
       50
176
     1
 90
       50
176
     1
290
     0
176
     1
 90
       50
176
     1
 62
   256
176
     0
 40
1.0
176
     0
 90
        2
176
     1
  1
strokes_ogs.tif
176
     1
290
     0
176
     1
 40
1.0
176
     1
 40
1.0
176
     1
1001
ACAD
1000
AcDbSavedByObjectVersion
1070
     0
  0
VISUALSTYLE
  5
3F
102
{ACAD_REACTORS
330
29
102
}
330
29
100
AcDbVisualStyle
  2
JitterOff
 70
    20
177
     3
291
     1
 70
    58
 90
        2
176
     0
 90
        2
176
     0
 90
        0
176
     0
 90
        0
176
     0
 40
0.6
176
     0
 40
30.0
176
     0
 62
     7
420
 16777215
176
     0
 90
        1
176
     0
 90
        4
176
     0
 62
     7
176
     0
 62
   257
176
     0
 90
        1
176
     0
 90
        1
176
     0
 40
1.0
176
     0
 90
       10
176
     2
 62
     7
176
     0
 40
1.0
176
     0
 90
        1
176
     0
 90
        6
176
     0
 90
        2
176
     0
 62
     7
176
     0
 90
        5
176
     0
 90
        0
176
     0
 90
        0
176
     0
290
     0
176
     0
 90
        1
176
     0
 40
0.0
176
     0
 90
        0
176
     0
290
     0
176
     0
290
     1
176
     0
290
     1
176
     0
290
     0
176
     0
290
     0
176
     0
290
     0
176
     0
290
     0
176
     0
290
     0
176
     0
290
     0
176
     0
 90
       50
176
     0
 40
0.0
176
     0
 40
1.0
176
     0
 90
        0
176
     0
 62
    18
420
        0
176
     0
 90
       50
176
     0
 90
        3
176
     0
 62
     5
420
      255
176
     0
290
     0
176
     0
 90
       50
176
     0
 90
       50
176
     0
 90
       50
176
     0
290
     0
176
     0
 90
       50
176
     0
 62
   256
176
     0
 40
1.0
176
     0
 90
        2
176
     0
  1
strokes_ogs.tif
176
     0
290
     0
176
     0
 40
1.0
176
     0
 40
1.0
176
     0
1001
ACAD
1000
AcDbSavedByObjectVersion
1070
     0
  0
VISUALSTYLE
  5
37
102
{ACAD_REACTORS
330
29
102
}
330
29
100
AcDbVisualStyle
  2
Linepattern
 70
    14
177
     3
291
     1
 70
    58
 90
        2
176
     1
 90
        2
176
     1
 90
        0
176
     1
 90
        0
176
     1
 40
0.6
176
     1
 40
30.0
176
     1
 62
     7
420
 16777215
176
     1
 90
        1
176
     1
 90
        4
176
     1
 62
     7
176
     1
 62
   257
176
     1
 90
        7
176
     1
 90
        7
176
     1
 40
1.0
176
     1
 90
        8
176
     1
 62
     7
176
     1
 40
1.0
176
     1
 90
        1
176
     1
 90
        6
176
     1
 90
        2
176
     1
 62
     7
176
     1
 90
        5
176
     1
 90
        0
176
     1
 90
        0
176
     1
290
     0
176
     1
 90
        1
176
     1
 40
0.0
176
     1
 90
        0
176
     1
290
     0
176
     1
290
     1
176
     1
290
     1
176
     1
290
     0
176
     1
290
     0
176
     1
290
     0
176
     1
290
     0
176
     1
290
     0
176
     1
290
     0
176
     1
 90
       50
176
     1
 40
0.0
176
     1
 40
1.0
176
     1
 90
        0
176
     1
 62
    18
420
        0
176
     1
 90
       50
176
     1
 90
        3
176
     1
 62
     5
420
      255
176
     1
290
     0
176
     1
 90
       50
176
     1
 90
       50
176
     1
 90
       50
176
     1
290
     0
176
     1
 90
       50
176
     1
 62
   256
176
     0
 40
1.0
176
     0
 90
        2
176
     1
  1
strokes_ogs.tif
176
     1
290
     0
176
     1
 40
1.0
176
     1
 40
1.0
176
     1
1001
ACAD
1000
AcDbSavedByObjectVersion
1070
     0
  0
VISUALSTYLE
  5
40
102
{ACAD_REACTORS
330
29
102
}
330
29
100
AcDbVisualStyle
  2
OverhangOff
 70
    21
177
     3
291
     1
 70
    58
 90
        2
176
     0
 90
        2
176
     0
 90
        0
176
     0
 90
        0
176
     0
 40
0.6
176
     0
 40
30.0
176
     0
 62
     7
420
 16777215
176
     0
 90
        1
176
     0
 90
        4
176
     0
 62
     7
176
     0
 62
   257
176
     0
 90
        1
176
     0
 90
        1
176
     0
 40
1.0
176
     0
 90
        9
176
     2
 62
     7
176
     0
 40
1.0
176
     0
 90
        1
176
     0
 90
        6
176
     0
 90
        2
176
     0
 62
     7
176
     0
 90
        5
176
     0
 90
        0
176
     0
 90
        0
176
     0
290
     0
176
     0
 90
        1
176
     0
 40
0.0
176
     0
 90
        0
176
     0
290
     0
176
     0
290
     1
176
     0
290
     1
176
     0
290
     0
176
     0
290
     0
176
     0
290
     0
176
     0
290
     0
176
     0
290
     0
176
     0
290
     0
176
     0
 90
       50
176
     0
 40
0.0
176
     0
 40
1.0
176
     0
 90
        0
176
     0
 62
    18
420
        0
176
     0
 90
       50
176
     0
 90
        3
176
     0
 62
     5
420
      255
176
     0
290
     0
176
     0
 90
       50
176
     0
 90
       50
176
     0
 90
       50
176
     0
290
     0
176
     0
 90
       50
176
     0
 62
   256
176
     0
 40
1.0
176
     0
 90
        2
176
     0
  1
strokes_ogs.tif
176
     0
290
     0
176
     0
 40
1.0
176
     0
 40
1.0
176
     0
1001
ACAD
1000
AcDbSavedByObjectVersion
1070
     0
  0
VISUALSTYLE
  5
33
102
{ACAD_REACTORS
330
29
102
}
330
29
100
AcDbVisualStyle
  2
Realistic
 70
     8
177
     3
291
     0
 70
    58
 90
        2
176
     1
 90
        3
176
     1
 90
        0
176
     1
 90
        2
176
     1
 40
0.6
176
     1
 40
30.0
176
     1
 62
     7
420
 16777215
176
     1
 90
        0
176
     1
 90
        0
176
     1
 62
     7
176
     1
 62
   257
176
     1
 90
        1
176
     1
 90
        1
176
     1
 40
1.0
176
     1
 90
        8
176
     1
 62
   257
176
     1
 40
1.0
176
     1
 90
        1
176
     1
 90
        6
176
     1
 90
        2
176
     1
 62
     7
176
     1
 90
        3
176
     1
 90
        0
176
     1
 90
        0
176
     1
290
     0
176
     1
 90
       13
176
     1
 40
0.0
176
     1
 90
        0
176
     1
290
     0
176
     1
290
     1
176
     1
290
     1
176
     1
290
     0
176
     1
290
     0
176
     1
290
     0
176
     1
290
     0
176
     1
290
     0
176
     1
290
     0
176
     1
 90
       50
176
     1
 40
0.0
176
     1
 40
1.0
176
     1
 90
        0
176
     1
 62
    18
420
        0
176
     1
 90
       50
176
     1
 90
        3
176
     1
 62
     5
420
      255
176
     1
290
     0
176
     1
 90
       50
176
     1
 90
       50
176
     1
 90
       50
176
     1
290
     0
176
     1
 90
       50
176
     1
 62
   256
176
     0
 40
1.0
176
     0
 90
        2
176
     1
  1
strokes_ogs.tif
176
     1
290
     0
176
     1
 40
1.0
176
     1
 40
1.0
176
     1
1001
ACAD
1000
AcDbSavedByObjectVersion
1070
     0
  0
VISUALSTYLE
  5
3E
102
{ACAD_REACTORS
330
29
102
}
330
29
100
AcDbVisualStyle
  2
Shaded
 70
    27
177
     3
291
     0
 70
    58
 90
        2
176
     1
 90
        2
176
     1
 90
        1
176
     1
 90
        2
176
     1
 40
0.6
176
     1
 40
30.0
176
     1
 62
     7
420
 16777215
176
     1
 90
        0
176
     1
 90
        4
176
     1
 62
     7
176
     1
 62
   257
176
     1
 90
        1
176
     1
 90
        1
176
     1
 40
1.0
176
     1
 90
        8
176
     1
 62
   257
176
     1
 40
1.0
176
     1
 90
        1
176
     1
 90
        6
176
     1
 90
        2
176
     1
 62
     8
420
  7895160
176
     1
 90
        3
176
     1
 90
        0
176
     1
 90
        0
176
     1
290
     0
176
     1
 90
        5
176
     1
 40
0.0
176
     1
 90
        0
176
     1
290
     0
176
     1
290
     1
176
     1
290
     1
176
     1
290
     0
176
     1
290
     0
176
     1
290
     0
176
     1
290
     0
176
     1
290
     0
176
     1
290
     0
176
     1
 90
       50
176
     1
 40
0.0
176
     1
 40
1.0
176
     1
 90
        0
176
     1
 62
    18
420
        0
176
     1
 90
       50
176
     1
 90
        3
176
     1
 62
     5
420
      255
176
     1
290
     0
176
     1
 90
       50
176
     1
 90
       50
176
     1
 90
       50
176
     1
290
     0
176
     1
 90
       50
176
     1
 62
   256
176
     0
 40
1.0
176
     0
 90
        2
176
     1
  1
strokes_ogs.tif
176
     1
290
     0
176
     1
 40
1.0
176
     1
 40
1.0
176
     1
1001
ACAD
1000
AcDbSavedByObjectVersion
1070
     0
  0
VISUALSTYLE
  5
3D
102
{ACAD_REACTORS
330
29
102
}
330
29
100
AcDbVisualStyle
  2
Shaded with edges
 70
    26
177
     3
291
     0
 70
    58
 90
        2
176
     1
 90
        2
176
     1
 90
        1
176
     1
 90
        2
176
     1
 40
0.6
176
     1
 40
30.0
176
     1
 62
     7
420
 16777215
176
     1
 90
        1
176
     1
 90
        2
176
     1
 62
     7
176
     1
 62
   257
176
     1
 90
        2
176
     1
 90
        1
176
     1
 40
1.0
176
     1
 90
        8
176
     1
 62
   257
176
     1
 40
1.0
176
     1
 90
        1
176
     1
 90
        6
176
     1
 90
        2
176
     1
 62
     7
176
     1
 90
        3
176
     1
 90
        0
176
     1
 90
        0
176
     1
290
     0
176
     1
 90
        5
176
     1
 40
0.0
176
     1
 90
        0
176
     1
290
     0
176
     1
290
     1
176
     1
290
     1
176
     1
290
     0
176
     1
290
     0
176
     1
290
     0
176
     1
290
     0
176
     1
290
     0
176
     1
290
     0
176
     1
 90
       50
176
     1
 40
0.0
176
     1
 40
1.0
176
     1
 90
        0
176
     1
 62
    18
420
        0
176
     1
 90
       50
176
     1
 90
        3
176
     1
 62
     5
420
      255
176
     1
290
     0
176
     1
 90
       50
176
     1
 90
       50
176
     1
 90
       50
176
     1
290
     0
176
     1
 90
       50
176
     1
 62
   256
176
     0
 40
1.0
176
     0
 90
        2
176
     1
  1
strokes_ogs.tif
176
     1
290
     0
176
     1
 40
1.0
176
     1
 40
1.0
176
     1
1001
ACAD
1000
AcDbSavedByObjectVersion
1070
     0
  0
VISUALSTYLE
  5
3A
102
{ACAD_REACTORS
330
29
102
}
330
29
100
AcDbVisualStyle
  2
Shades of Gray
 70
    23
177
     3
291
     0
 70
    58
 90
        2
176
     1
 90
        2
176
     1
 90
        3
176
     1
 90
        0
176
     1
 40
0.6
176
     1
 40
30.0
176
     1
 62
     7
420
 16777215
176
     1
 90
        2
176
     1
 90
        2
176
     1
 62
     7
176
     1
 62
     7
176
     1
 90
        1
176
     1
 90
        1
176
     1
 40
40.0
176
     1
 90
        8
176
     1
 62
     7
176
     1
 40
1.0
176
     1
 90
        1
176
     1
 90
        6
176
     1
 90
        2
176
     1
 62
     7
176
     1
 90
        3
176
     1
 90
        0
176
     1
 90
        0
176
     1
290
     0
176
     1
 90
        1
176
     1
 40
0.0
176
     1
 90
        0
176
     1
290
     0
176
     1
290
     1
176
     1
290
     1
176
     1
290
     0
176
     1
290
     0
176
     1
290
     0
176
     1
290
     0
176
     1
290
     0
176
     1
290
     0
176
     1
 90
       50
176
     1
 40
0.0
176
     1
 40
1.0
176
     1
 90
        0
176
     1
 62
    18
420
        0
176
     1
 90
       50
176
     1
 90
        3
176
     1
 62
     5
420
      255
176
     1
290
     0
176
     1
 90
       50
176
     1
 90
       50
176
     1
 90
       50
176
     1
290
     0
176
     1
 90
       50
176
     1
 62
   256
176
     0
 40
1.0
176
     0
 90
        2
176
     1
  1
strokes_ogs.tif
176
     1
290
     0
176
     1
 40
1.0
176
     1
 40
1.0
176
     1
1001
ACAD
1000
AcDbSavedByObjectVersion
1070
     0
  0
VISUALSTYLE
  5
3B
102
{ACAD_REACTORS
330
29
102
}
330
29
100
AcDbVisualStyle
  2
Sketchy
 70
    24
177
     3
291
     0
 70
    58
 90
        1
176
     1
 90
        2
176
     1
 90
        2
176
     1
 90
        0
176
     1
 40
0.6
176
     1
 40
30.0
176
     1
 62
     7
420
 16777215
176
     1
 90
        2
176
     1
 90
        2
176
     1
 62
     7
176
     1
 62
     7
176
     1
 90
        1
176
     1
 90
        1
176
     1
 40
40.0
176
     1
 90
       11
176
     1
 62
     7
176
     1
 40
1.0
176
     1
 90
        1
176
     1
 90
        6
176
     1
 90
        2
176
     1
 62
     7
176
     1
 90
        6
176
     1
 90
        0
176
     1
 90
        0
176
     1
290
     0
176
     1
 90
        1
176
     1
 40
0.0
176
     1
 90
        0
176
     1
290
     0
176
     1
290
     1
176
     1
290
     1
176
     1
290
     0
176
     1
290
     0
176
     1
290
     0
176
     1
290
     0
176
     1
290
     0
176
     1
290
     0
176
     1
 90
       50
176
     1
 40
0.0
176
     1
 40
1.0
176
     1
 90
        0
176
     1
 62
    18
420
        0
176
     1
 90
       50
176
     1
 90
        3
176
     1
 62
     5
420
      255
176
     1
290
     0
176
     1
 90
       50
176
     1
 90
       50
176
     1
 90
       50
176
     1
290
     0
176
     1
 90
       50
176
     1
 62
   256
176
     0
 40
1.0
176
     0
 90
        2
176
     1
  1
strokes_ogs.tif
176
     1
290
     0
176
     1
 40
1.0
176
     1
 40
1.0
176
     1
1001
ACAD
1000
AcDbSavedByObjectVersion
1070
     0
  0
VISUALSTYLE
  5
36
102
{ACAD_REACTORS
330
29
102
}
330
29
100
AcDbVisualStyle
  2
Thicken
 70
    13
177
     3
291
     1
 70
    58
 90
        2
176
     1
 90
        2
176
     1
 90
        0
176
     1
 90
        0
176
     1
 40
0.6
176
     1
 40
30.0
176
     1
 62
     7
420
 16777215
176
     1
 90
        1
176
     1
 90
        4
176
     1
 62
     7
176
     1
 62
   257
176
     1
 90
        1
176
     1
 90
        1
176
     1
 40
1.0
176
     1
 90
       12
176
     1
 62
     7
176
     1
 40
1.0
176
     1
 90
        1
176
     1
 90
        6
176
     1
 90
        2
176
     1
 62
     7
176
     1
 90
        5
176
     1
 90
        0
176
     1
 90
        0
176
     1
290
     0
176
     1
 90
        1
176
     1
 40
0.0
176
     1
 90
        0
176
     1
290
     0
176
     1
290
     1
176
     1
290
     1
176
     1
290
     0
176
     1
290
     0
176
     1
290
     0
176
     1
290
     0
176
     1
290
     0
176
     1
290
     0
176
     1
 90
       50
176
     1
 40
0.0
176
     1
 40
1.0
176
     1
 90
        0
176
     1
 62
    18
420
        0
176
     1
 90
       50
176
     1
 90
        3
176
     1
 62
     5
420
      255
176
     1
290
     0
176
     1
 90
       50
176
     1
 90
       50
176
     1
 90
       50
176
     1
290
     0
176
     1
 90
       50
176
     1
 62
   256
176
     0
 40
1.0
176
     0
 90
        2
176
     1
  1
strokes_ogs.tif
176
     1
290
     0
176
     1
 40
1.0
176
     1
 40
1.0
176
     1
1001
ACAD
1000
AcDbSavedByObjectVersion
1070
     0
  0
VISUALSTYLE
  5
30
102
{ACAD_REACTORS
330
29
102
}
330
29
100
AcDbVisualStyle
  2
Wireframe
 70
     5
177
     3
291
     0
 70
    58
 90
        0
176
     1
 90
        2
176
     1
 90
        0
176
     1
 90
        0
176
     1
 40
0.6
176
     1
 40
30.0
176
     1
 62
     7
420
 16777215
176
     1
 90
        1
176
     1
 90
        4
176
     1
 62
     7
176
     1
 62
   257
176
     1
 90
        1
176
     1
 90
        1
176
     1
 40
1.0
176
     1
 90
        0
176
     1
 62
   257
176
     1
 40
1.0
176
     1
 90
        1
176
     1
 90
        6
176
     1
 90
        2
176
     1
 62
     7
176
     1
 90
        3
176
     1
 90
        0
176
     1
 90
        0
176
     1
290
     0
176
     1
 90
        1
176
     1
 40
0.0
176
     1
 90
        0
176
     1
290
     0
176
     1
290
     1
176
     1
290
     1
176
     1
290
     0
176
     1
290
     0
176
     1
290
     0
176
     1
290
     0
176
     1
290
     0
176
     1
290
     0
176
     1
 90
       50
176
     1
 40
0.0
176
     1
 40
1.0
176
     1
 90
        0
176
     1
 62
    18
420
        0
176
     1
 90
       50
176
     1
 90
        3
176
     1
 62
     5
420
      255
176
     1
290
     0
176
     1
 90
       50
176
     1
 90
       50
176
     1
 90
       50
176
     1
290
     0
176
     1
 90
       50
176
     1
 62
   256
176
     0
 40
1.0
176
     0
 90
        2
176
     1
  1
strokes_ogs.tif
176
     1
290
     0
176
     1
 40
1.0
176
     1
 40
1.0
176
     1
1001
ACAD
1000
AcDbSavedByObjectVersion
1070
     0
  0
VISUALSTYLE
  5
3C
102
{ACAD_REACTORS
330
29
102
}
330
29
100
AcDbVisualStyle
  2
X-Ray
 70
    25
177
     3
291
     0
 70
    58
 90
        2
176
     1
 90
        2
176
     1
 90
        1
176
     1
 90
        1
176
     1
 40
0.5
176
     1
 40
30.0
176
     1
 62
     7
420
 16777215
176
     1
 90
        1
176
     1
 90
        0
176
     1
 62
     7
176
     1
 62
   257
176
     1
 90
        1
176
     1
 90
        1
176
     1
 40
1.0
176
     1
 90
        8
176
     1
 62
     7
176
     1
 40
1.0
176
     1
 90
        1
176
     1
 90
        6
176
     1
 90
        2
176
     1
 62
     7
176
     1
 90
        3
176
     1
 90
        0
176
     1
 90
        0
176
     1
290
     0
176
     1
 90
       13
176
     1
 40
0.0
176
     1
 90
        0
176
     1
290
     0
176
     1
290
     1
176
     1
290
     1
176
     1
290
     0
176
     1
290
     0
176
     1
290
     0
176
     1
290
     0
176
     1
290
     0
176
     1
290
     0
176
     1
 90
       50
176
     1
 40
0.0
176
     1
 40
1.0
176
     1
 90
        0
176
     1
 62
    18
420
        0
176
     1
 90
       50
176
     1
 90
        3
176
     1
 62
     5
420
      255
176
     1
290
     0
176
     1
 90
       50
176
     1
 90
       50
176
     1
 90
       50
176
     1
290
     0
176
     1
 90
       50
176
     1
 62
   256
176
     0
 40
1.0
176
     0
 90
        2
176
     1
  1
strokes_ogs.tif
176
     1
290
     0
176
     1
 40
1.0
176
     1
 40
1.0
176
     1
1001
ACAD
1000
AcDbSavedByObjectVersion
1070
     0
  0
DICTIONARYVAR
  5
617
102
{ACAD_REACTORS
330
612
102
}
330
612
100
DictionaryVariables
280
     0
  1
0
  0
DICTIONARYVAR
  5
618
102
{ACAD_REACTORS
330
612
102
}
330
612
100
DictionaryVariables
280
     0
  1
1:1
  0
DICTIONARYVAR
  5
614
102
{ACAD_REACTORS
330
612
102
}
330
612
100
DictionaryVariables
280
     0
  1
STANDARD
  0
DICTIONARYVAR
  5
613
102
{ACAD_REACTORS
330
612
102
}
330
612
100
DictionaryVariables
280
     0
  1
STANDARD
  0
DICTIONARYVAR
  5
615
102
{ACAD_REACTORS
330
612
102
}
330
612
100
DictionaryVariables
280
     0
  1
Imperial24
  0
DICTIONARYVAR
  5
616
102
{ACAD_REACTORS
330
612
102
}
330
612
100
DictionaryVariables
280
     0
  1
Imperial24
  0
DICTIONARY
  5
61E
330
6B
100
AcDbDictionary
280
     1
281
     1
  3
ACAD_XREC_ROUNDTRIP
360
61F
  0
DICTIONARY
  5
1A
330
19
100
AcDbDictionary
280
     1
281
     1
  3
BUMPTILE
360
1C
  3
DIFFUSETILE
360
1B
  3
OPACITYTILE
360
1F
  3
REFLECTIONTILE
360
1E
  3
REFRACTIONTILE
360
20
  3
SPECULARTILE
360
1D
  0
DICTIONARY
  5
12
330
11
100
AcDbDictionary
280
     1
281
     1
  3
BUMPTILE
360
14
  3
DIFFUSETILE
360
13
  3
OPACITYTILE
360
17
  3
REFLECTIONTILE
360
16
  3
REFRACTIONTILE
360
18
  3
SPECULARTILE
360
15
  0
DICTIONARY
  5
22
330
21
100
AcDbDictionary
280
     1
281
     1
  3
BUMPTILE
360
24
  3
DIFFUSETILE
360
23
  3
OPACITYTILE
360
27
  3
REFLECTIONTILE
360
26
  3
REFRACTIONTILE
360
28
  3
SPECULARTILE
360
25
  0
DICTIONARY
  5
61C
330
69
100
AcDbDictionary
280
     1
281
     1
  3
ACAD_XREC_ROUNDTRIP
360
61D
  0
DICTIONARY
  5
619
330
65
100
AcDbDictionary
280
     1
281
     1
  3
ACAD_ROUNDTRIP_2008_TABLESTYLE_CELLSTYLEMAP
360
61A
  0
XRECORD
  5
61F
102
{ACAD_REACTORS
330
61E
102
}
330
61E
100
AcDbXrecord
280
     1
102
DISPLAYNAME
  1
Imperial24
102
FLAGS
 90
        0
  0
XRECORD
  5
1C
102
{ACAD_REACTORS
330
1A
102
}
330
1A
100
AcDbXrecord
280
     1
270
     1
271
     1
  0
XRECORD
  5
1B
102
{ACAD_REACTORS
330
1A
102
}
330
1A
100
AcDbXrecord
280
     1
270
     1
271
     1
  0
XRECORD
  5
1F
102
{ACAD_REACTORS
330
1A
102
}
330
1A
100
AcDbXrecord
280
     1
270
     1
271
     1
  0
XRECORD
  5
1E
102
{ACAD_REACTORS
330
1A
102
}
330
1A
100
AcDbXrecord
280
     1
270
     1
271
     1
  0
XRECORD
  5
20
102
{ACAD_REACTORS
330
1A
102
}
330
1A
100
AcDbXrecord
280
     1
270
     1
271
     1
  0
XRECORD
  5
1D
102
{ACAD_REACTORS
330
1A
102
}
330
1A
100
AcDbXrecord
280
     1
270
     1
271
     1
  0
XRECORD
  5
14
102
{ACAD_REACTORS
330
12
102
}
330
12
100
AcDbXrecord
280
     1
270
     1
271
     1
  0
XRECORD
  5
13
102
{ACAD_REACTORS
330
12
102
}
330
12
100
AcDbXrecord
280
     1
270
     1
271
     1
  0
XRECORD
  5
17
102
{ACAD_REACTORS
330
12
102
}
330
12
100
AcDbXrecord
280
     1
270
     1
271
     1
  0
XRECORD
  5
16
102
{ACAD_REACTORS
330
12
102
}
330
12
100
AcDbXrecord
280
     1
270
     1
271
     1
  0
XRECORD
  5
18
102
{ACAD_REACTORS
330
12
102
}
330
12
100
AcDbXrecord
280
     1
270
     1
271
     1
  0
XRECORD
  5
15
102
{ACAD_REACTORS
330
12
102
}
330
12
100
AcDbXrecord
280
     1
270
     1
271
     1
  0
XRECORD
  5
24
102
{ACAD_REACTORS
330
22
102
}
330
22
100
AcDbXrecord
280
     1
270
     1
271
     1
  0
XRECORD
  5
23
102
{ACAD_REACTORS
330
22
102
}
330
22
100
AcDbXrecord
280
     1
270
     1
271
     1
  0
XRECORD
  5
27
102
{ACAD_REACTORS
330
22
102
}
330
22
100
AcDbXrecord
280
     1
270
     1
271
     1
  0
XRECORD
  5
26
102
{ACAD_REACTORS
330
22
102
}
330
22
100
AcDbXrecord
280
     1
270
     1
271
     1
  0
XRECORD
  5
28
102
{ACAD_REACTORS
330
22
102
}
330
22
100
AcDbXrecord
280
     1
270
     1
271
     1
  0
XRECORD
  5
25
102
{ACAD_REACTORS
330
22
102
}
330
22
100
AcDbXrecord
280
     1
270
     1
271
     1
  0
XRECORD
  5
61D
102
{ACAD_REACTORS
330
61C
102
}
330
61C
100
AcDbXrecord
280
     1
102
DISPLAYNAME
  1
Imperial24
102
FLAGS
 90
        0
  0
CELLSTYLEMAP
  5
61A
102
{ACAD_REACTORS
330
619
102
}
330
619
100
AcDbCellStyleMap
 90
        3
300
CELLSTYLE
  1
TABLEFORMAT_BEGIN
 90
        5
170
     1
 91
        0
 92
    32768
 62
   257
 93
        1
300
CONTENTFORMAT
  1
CONTENTFORMAT_BEGIN
 90
        0
 91
        0
 92
      512
 93
        0
300

 40
0.0
140
1.0
 94
        5
 62
     0
340
55
144
0.25
309
CONTENTFORMAT_END
171
     0
 94
        0
309
TABLEFORMAT_END
  1
CELLSTYLE_BEGIN
 90
        1
 91
        1
300
_TITLE
309
CELLSTYLE_END
300
CELLSTYLE
  1
TABLEFORMAT_BEGIN
 90
        5
170
     1
 91
        0
 92
        0
 62
   257
 93
        1
300
CONTENTFORMAT
  1
CONTENTFORMAT_BEGIN
 90
        0
 91
        0
 92
      512
 93
        0
300

 40
0.0
140
1.0
 94
        5
 62
     0
340
55
144
0.18
309
CONTENTFORMAT_END
171
     0
 94
        0
309
TABLEFORMAT_END
  1
CELLSTYLE_BEGIN
 90
        2
 91
        1
300
_HEADER
309
CELLSTYLE_END
300
CELLSTYLE
  1
TABLEFORMAT_BEGIN
 90
        5
170
     1
 91
        0
 92
        0
 62
   257
 93
        1
300
CONTENTFORMAT
  1
CONTENTFORMAT_BEGIN
 90
        0
 91
        0
 92
      512
 93
        0
300

 40
0.0
140
1.0
 94
        2
 62
     0
340
55
144
0.18
309
CONTENTFORMAT_END
171
     0
 94
        0
309
TABLEFORMAT_END
  1
CELLSTYLE_BEGIN
 90
        3
 91
        2
300
_DATA
309
CELLSTYLE_END
  0
ENDSEC
  0
EOF
