  0
SECTION
  2
HEADER
  9
$ACADVER
  1
AC1027
  9
$ACADMAINTVER
 70
   125
  9
$DWGCODEPAGE
  3
ANSI_1252
  9
$LASTSAVEDBY
  1
Administrator
  9
$REQUIREDVERSIONS
160
                 0
  9
$INSBASE
 10
0.0
 20
0.0
 30
0.0
  9
$EXTMIN
 10
0.0
 20
0.0
 30
-2.449788
  9
$EXTMAX
 10
17.0
 20
11.0
 30
2.124326
  9
$LIMMIN
 10
0.0
 20
0.0
  9
$LIMMAX
 10
17.0
 20
11.0
  9
$ORTHOMODE
 70
     0
  9
$REGENMODE
 70
     1
  9
$FILLMODE
 70
     1
  9
$QTEXTMODE
 70
     0
  9
$MIRRTEXT
 70
     0
  9
$LTSCALE
 40
0.75
  9
$ATTMODE
 70
     1
  9
$TEXTSIZE
 40
0.12
  9
$TRACEWID
 40
0.05
  9
$TEXTSTYLE
  7
Standard
  9
$CLAYER
  8
Titleblock
  9
$CELTYPE
  6
ByLayer
  9
$CECOLOR
 62
   256
  9
$CELTSCALE
 40
1.0
  9
$DISPSILH
 70
     0
  9
$DIMSCALE
 40
1.0
  9
$DIMASZ
 40
0.12
  9
$DIMEXO
 40
0.05
  9
$DIMDLI
 40
0.339411
  9
$DIMRND
 40
0.0
  9
$DIMDLE
 40
0.0
  9
$DIMEXE
 40
0.1
  9
$DIMTP
 40
0.01
  9
$DIMTM
 40
0.01
  9
$DIMTXT
 40
0.12
  9
$DIMCEN
 40
0.0
  9
$DIMTSZ
 40
0.0
  9
$DIMTOL
 70
     0
  9
$DIMLIM
 70
     0
  9
$DIMTIH
 70
     1
  9
$DIMTOH
 70
     1
  9
$DIMSE1
 70
     0
  9
$DIMSE2
 70
     0
  9
$DIMTAD
 70
     0
  9
$DIMZIN
 70
    12
  9
$DIMBLK
  1

  9
$DIMASO
 70
     1
  9
$DIMSHO
 70
     1
  9
$DIMPOST
  1
in
  9
$DIMAPOST
  1
mm
  9
$DIMALT
 70
     0
  9
$DIMALTD
 70
     2
  9
$DIMALTF
 40
25.4
  9
$DIMLFAC
 40
1.0
  9
$DIMTOFL
 70
     0
  9
$DIMTVP
 40
0.0
  9
$DIMTIX
 70
     0
  9
$DIMSOXD
 70
     0
  9
$DIMSAH
 70
     0
  9
$DIMBLK1
  1

  9
$DIMBLK2
  1

  9
$DIMSTYLE
  2
Standard
  9
$DIMCLRD
 70
   256
  9
$DIMCLRE
 70
   256
  9
$DIMCLRT
 70
   256
  9
$DIMTFAC
 40
1.0
  9
$DIMGAP
 40
0.06
  9
$DIMJUST
 70
     0
  9
$DIMSD1
 70
     0
  9
$DIMSD2
 70
     0
  9
$DIMTOLJ
 70
     1
  9
$DIMTZIN
 70
    12
  9
$DIMALTZ
 70
    12
  9
$DIMALTTZ
 70
    12
  9
$DIMUPT
 70
     0
  9
$DIMDEC
 70
     2
  9
$DIMTDEC
 70
     2
  9
$DIMALTU
 70
     2
  9
$DIMALTTD
 70
     2
  9
$DIMTXSTY
  7
Standard
  9
$DIMAUNIT
 70
     0
  9
$DIMADEC
 70
     2
  9
$DIMALTRND
 40
0.0
  9
$DIMAZIN
 70
     3
  9
$DIMDSEP
 70
    46
  9
$DIMATFIT
 70
     3
  9
$DIMFRAC
 70
     0
  9
$DIMLDRBLK
  1

  9
$DIMLUNIT
 70
     2
  9
$DIMLWD
 70
    -2
  9
$DIMLWE
 70
    -2
  9
$DIMTMOVE
 70
     0
  9
$DIMFXL
 40
1.0
  9
$DIMFXLON
 70
     0
  9
$DIMJOGANG
 40
0.785398
  9
$DIMTFILL
 70
     0
  9
$DIMTFILLCLR
 70
     0
  9
$DIMARCSYM
 70
     1
  9
$DIMLTYPE
  6

  9
$DIMLTEX1
  6

  9
$DIMLTEX2
  6

  9
$DIMTXTDIRECTION
 70
     0
  9
$LUNITS
 70
     2
  9
$LUPREC
 70
     4
  9
$SKETCHINC
 40
0.1
  9
$FILLETRAD
 40
0.0
  9
$AUNITS
 70
     0
  9
$AUPREC
 70
     0
  9
$MENU
  1
.
  9
$ELEVATION
 40
0.0
  9
$PELEVATION
 40
0.0
  9
$THICKNESS
 40
0.0
  9
$LIMCHECK
 70
     0
  9
$CHAMFERA
 40
0.0
  9
$CHAMFERB
 40
0.0
  9
$CHAMFERC
 40
0.0
  9
$CHAMFERD
 40
0.0
  9
$SKPOLY
 70
     0
  9
$TDCREATE
 40
2458891.595995370
  9
$TDUCREATE
 40
2458891.929328704
  9
$TDUPDATE
 40
2458891.595995370
  9
$TDUUPDATE
 40
2458891.929328704
  9
$TDINDWG
 40
0.0000000000
  9
$TDUSRTIMER
 40
0.0000000000
  9
$USRTIMER
 70
     1
  9
$ANGBASE
 50
0.0
  9
$ANGDIR
 70
     0
  9
$PDMODE
 70
     0
  9
$PDSIZE
 40
0.0
  9
$PLINEWID
 40
0.0
  9
$SPLFRAME
 70
     0
  9
$SPLINETYPE
 70
     6
  9
$SPLINESEGS
 70
     8
  9
$HANDSEED
  5
525
  9
$SURFTAB1
 70
     6
  9
$SURFTAB2
 70
     6
  9
$SURFTYPE
 70
     6
  9
$SURFU
 70
     6
  9
$SURFV
 70
     6
  9
$UCSBASE
  2

  9
$UCSNAME
  2

  9
$UCSORG
 10
0.0
 20
0.0
 30
0.0
  9
$UCSXDIR
 10
1.0
 20
0.0
 30
0.0
  9
$UCSYDIR
 10
0.0
 20
1.0
 30
0.0
  9
$UCSORTHOREF
  2

  9
$UCSORTHOVIEW
 70
     0
  9
$UCSORGTOP
 10
0.0
 20
0.0
 30
0.0
  9
$UCSORGBOTTOM
 10
0.0
 20
0.0
 30
0.0
  9
$UCSORGLEFT
 10
0.0
 20
0.0
 30
0.0
  9
$UCSORGRIGHT
 10
0.0
 20
0.0
 30
0.0
  9
$UCSORGFRONT
 10
0.0
 20
0.0
 30
0.0
  9
$UCSORGBACK
 10
0.0
 20
0.0
 30
0.0
  9
$PUCSBASE
  2

  9
$PUCSNAME
  2

  9
$PUCSORG
 10
0.0
 20
0.0
 30
0.0
  9
$PUCSXDIR
 10
1.0
 20
0.0
 30
0.0
  9
$PUCSYDIR
 10
0.0
 20
1.0
 30
0.0
  9
$PUCSORTHOREF
  2

  9
$PUCSORTHOVIEW
 70
     0
  9
$PUCSORGTOP
 10
0.0
 20
0.0
 30
0.0
  9
$PUCSORGBOTTOM
 10
0.0
 20
0.0
 30
0.0
  9
$PUCSORGLEFT
 10
0.0
 20
0.0
 30
0.0
  9
$PUCSORGRIGHT
 10
0.0
 20
0.0
 30
0.0
  9
$PUCSORGFRONT
 10
0.0
 20
0.0
 30
0.0
  9
$PUCSORGBACK
 10
0.0
 20
0.0
 30
0.0
  9
$USERI1
 70
     0
  9
$USERI2
 70
     0
  9
$USERI3
 70
     0
  9
$USERI4
 70
     0
  9
$USERI5
 70
     0
  9
$USERR1
 40
0.0
  9
$USERR2
 40
0.0
  9
$USERR3
 40
0.0
  9
$USERR4
 40
0.0
  9
$USERR5
 40
0.0
  9
$WORLDVIEW
 70
     1
  9
$SHADEDGE
 70
     3
  9
$SHADEDIF
 70
    70
  9
$TILEMODE
 70
     1
  9
$MAXACTVP
 70
    64
  9
$PINSBASE
 10
0.0
 20
0.0
 30
0.0
  9
$PLIMCHECK
 70
     0
  9
$PEXTMIN
 10
1.000000E+20
 20
1.000000E+20
 30
1.000000E+20
  9
$PEXTMAX
 10
-1.000000E+20
 20
-1.000000E+20
 30
-1.000000E+20
  9
$PLIMMIN
 10
0.0
 20
0.0
  9
$PLIMMAX
 10
12.0
 20
9.0
  9
$UNITMODE
 70
     0
  9
$VISRETAIN
 70
     1
  9
$PLINEGEN
 70
     0
  9
$PSLTSCALE
 70
     1
  9
$TREEDEPTH
 70
  3020
  9
$CMLSTYLE
  2
Standard
  9
$CMLJUST
 70
     0
  9
$CMLSCALE
 40
1.0
  9
$PROXYGRAPHICS
 70
     1
  9
$MEASUREMENT
 70
     0
  9
$CELWEIGHT
370
    -1
  9
$ENDCAPS
280
     0
  9
$JOINSTYLE
280
     0
  9
$LWDISPLAY
290
     0
  9
$INSUNITS
 70
     1
  9
$HYPERLINKBASE
  1

  9
$STYLESHEET
  1

  9
$XEDIT
290
     1
  9
$CEPSNTYPE
380
     0
  9
$PSTYLEMODE
290
     1
  9
$FINGERPRINTGUID
  2
{D8006067-D65A-184B-914B-E62B40CB82B2}
  9
$VERSIONGUID
  2
{198D8467-C7B6-EE45-A819-F4E261822808}
  9
$EXTNAMES
290
     1
  9
$PSVPSCALE
 40
0.0
  9
$OLESTARTUP
290
     0
  9
$SORTENTS
280
   127
  9
$INDEXCTL
280
     0
  9
$HIDETEXT
280
     1
  9
$XCLIPFRAME
280
     2
  9
$HALOGAP
280
     0
  9
$OBSCOLOR
 70
   257
  9
$OBSLTYPE
280
     0
  9
$INTERSECTIONDISPLAY
280
     0
  9
$INTERSECTIONCOLOR
 70
   257
  9
$DIMASSOC
280
     2
  9
$PROJECTNAME
  1

  9
$CAMERADISPLAY
290
     0
  9
$LENSLENGTH
 40
50.0
  9
$CAMERAHEIGHT
 40
0.0
  9
$STEPSPERSEC
 40
2.0
  9
$STEPSIZE
 40
6.0
  9
$3DDWFPREC
 40
2.0
  9
$PSOLWIDTH
 40
0.25
  9
$PSOLHEIGHT
 40
4.0
  9
$LOFTANG1
 40
1.570796
  9
$LOFTANG2
 40
1.570796
  9
$LOFTMAG1
 40
0.0
  9
$LOFTMAG2
 40
0.0
  9
$LOFTPARAM
 70
     7
  9
$LOFTNORMALS
280
     1
  9
$LATITUDE
 40
37.795
  9
$LONGITUDE
 40
-122.394
  9
$NORTHDIRECTION
 40
0.0
  9
$TIMEZONE
 70
 -8000
  9
$LIGHTGLYPHDISPLAY
280
     1
  9
$TILEMODELIGHTSYNCH
280
     1
  9
$CMATERIAL
347
11
  9
$SOLIDHIST
280
     0
  9
$SHOWHIST
280
     1
  9
$DWFFRAME
280
     2
  9
$DGNFRAME
280
     0
  9
$REALWORLDSCALE
290
     1
  9
$INTERFERECOLOR
 62
     1
  9
$INTERFEREOBJVS
345
33
  9
$INTERFEREVPVS
346
30
  9
$CSHADOW
280
     0
  9
$SHADOWPLANELOCATION
 40
0.0
  0
ENDSEC
  0
SECTION
  2
CLASSES
  0
CLASS
  1
ACDBDICTIONARYWDFLT
  2
AcDbDictionaryWithDefault
  3
ObjectDBX Classes
 90
        0
 91
        1
280
     0
281
     0
  0
CLASS
  1
MATERIAL
  2
AcDbMaterial
  3
ObjectDBX Classes
 90
     1153
 91
        3
280
     0
281
     0
  0
CLASS
  1
VISUALSTYLE
  2
AcDbVisualStyle
  3
ObjectDBX Classes
 90
     4095
 91
       24
280
     0
281
     0
  0
CLASS
  1
SCALE
  2
AcDbScale
  3
ObjectDBX Classes
 90
     1153
 91
       33
280
     0
281
     0
  0
CLASS
  1
TABLESTYLE
  2
AcDbTableStyle
  3
ObjectDBX Classes
 90
     4095
 91
        1
280
     0
281
     0
  0
CLASS
  1
MLEADERSTYLE
  2
AcDbMLeaderStyle
  3
ACDB_MLEADERSTYLE_CLASS
 90
     4095
 91
        1
280
     0
281
     0
  0
CLASS
  1
ACDBSECTIONVIEWSTYLE
  2
AcDbSectionViewStyle
  3
ObjectDBX Classes
 90
     1025
 91
        1
280
     0
281
     0
  0
CLASS
  1
ACDBDETAILVIEWSTYLE
  2
AcDbDetailViewStyle
  3
ObjectDBX Classes
 90
     1025
 91
        1
280
     0
281
     0
  0
CLASS
  1
ACMESCOPE
  2
AcMeScope
  3
AcMeServices
 90
     1024
 91
        1
280
     0
281
     0
  0
CLASS
  1
ACMECOMMANDHISTORY
  2
AcMeCommandHistory
  3
AcMeServices
 90
     1024
 91
        1
280
     0
281
     0
  0
CLASS
  1
ACIMSYSVARMAN
  2
AcImSysVarManager
  3
AcMeServices
 90
     1024
 91
        1
280
     0
281
     0
  0
CLASS
  1
ACIMINTSYSVAR
  2
AcImIntSysVar
  3
AcMeServices
 90
     1024
 91
        1
280
     0
281
     0
  0
CLASS
  1
ACMESTATEMGR
  2
AcMeStateMgr
  3
AcMeServices
 90
     1024
 91
        1
280
     0
281
     0
  0
CLASS
  1
ACGREFMASTER
  2
AcGrefMaster
  3
AcAttribServices
 90
     1024
 91
        1
280
     0
281
     0
  0
CLASS
  1
SORTENTSTABLE
  2
AcDbSortentsTable
  3
ObjectDBX Classes
 90
        0
 91
        6
280
     0
281
     0
  0
CLASS
  1
IMAGE
  2
AcDbRasterImage
  3
ISM
 90
     2175
 91
        1
280
     0
281
     1
  0
CLASS
  1
IMAGEDEF
  2
AcDbRasterImageDef
  3
ISM
 90
        0
 91
        1
280
     0
281
     0
  0
CLASS
  1
IMAGEDEF_REACTOR
  2
AcDbRasterImageDefReactor
  3
ISM
 90
        1
 91
        2
280
     0
281
     0
  0
CLASS
  1
RASTERVARIABLES
  2
AcDbRasterVariables
  3
ISM
 90
        0
 91
        1
280
     0
281
     0
  0
CLASS
  1
DICTIONARYVAR
  2
AcDbDictionaryVar
  3
ObjectDBX Classes
 90
        0
 91
        6
280
     0
281
     0
  0
CLASS
  1
CELLSTYLEMAP
  2
AcDbCellStyleMap
  3
ObjectDBX Classes
 90
     1152
 91
        1
280
     0
281
     0
  0
ENDSEC
  0
SECTION
  2
TABLES
  0
TABLE
  2
VPORT
  5
8
330
0
100
AcDbSymbolTable
 70
     1
1001
ACAD
1000
DbSaveVer
1071
      251
  0
VPORT
  5
57
330
8
100
AcDbSymbolTableRecord
100
AcDbViewportTableRecord
  2
*Active
 70
     0
 10
0.0
 20
0.0
 11
1.0
 21
1.0
 12
8.5
 22
5.5
 13
0.0
 23
0.0
 14
0.5
 24
0.5
 15
0.0
 25
0.0
 16
0.0
 26
0.0
 36
1.0
 17
0.0
 27
0.0
 37
0.0
 40
11.0
 41
1.777518
 42
50.0
 43
0.0
 44
0.0
 50
0.0
 51
0.0
 71
     0
 72
 20000
 73
     1
 74
     0
 75
     0
 76
     0
 77
     0
 78
     0
281
     0
 65
     1
110
0.0
120
0.0
130
0.0
111
1.0
121
0.0
131
0.0
112
0.0
122
1.0
132
0.0
 79
     0
146
0.0
348
2F
 60
     3
 61
     5
292
     1
282
     1
141
0.0
142
0.0
 63
   250
421
  3355443
  0
ENDTAB
  0
TABLE
  2
LTYPE
  5
5
330
0
100
AcDbSymbolTable
 70
    10
  0
LTYPE
  5
5B
330
5
100
AcDbSymbolTableRecord
100
AcDbLinetypeTableRecord
  2
ByBlock
 70
     0
  3

 72
    65
 73
     0
 40
0.0
  0
LTYPE
  5
5C
330
5
100
AcDbSymbolTableRecord
100
AcDbLinetypeTableRecord
  2
ByLayer
 70
     0
  3

 72
    65
 73
     0
 40
0.0
  0
LTYPE
  5
5D
330
5
100
AcDbSymbolTableRecord
100
AcDbLinetypeTableRecord
  2
Continuous
 70
     0
  3
Solid line
 72
    65
 73
     0
 40
0.0
  0
LTYPE
  5
81
330
5
100
AcDbSymbolTableRecord
100
AcDbLinetypeTableRecord
  2
HIDDEN
 70
     0
  3
Hidden __ __ __ __ __ __ __ __ __ __ __ __ __ _
 72
    65
 73
     2
 40
0.375
 49
0.25
 74
     0
 49
-0.125
 74
     0
  0
LTYPE
  5
82
330
5
100
AcDbSymbolTableRecord
100
AcDbLinetypeTableRecord
  2
PHANTOM2
 70
     0
  3
Phantom (.5x) ___ _ _ ___ _ _ ___ _ _ ___ _ _
 72
    65
 73
     6
 40
1.25
 49
0.625
 74
     0
 49
-0.125
 74
     0
 49
0.125
 74
     0
 49
-0.125
 74
     0
 49
0.125
 74
     0
 49
-0.125
 74
     0
  0
LTYPE
  5
83
330
5
100
AcDbSymbolTableRecord
100
AcDbLinetypeTableRecord
  2
CENTER
 70
     0
  3
Center ____ _ ____ _ ____ _ ____ _ ____ _ ____
 72
    65
 73
     4
 40
2.0
 49
1.25
 74
     0
 49
-0.25
 74
     0
 49
0.25
 74
     0
 49
-0.25
 74
     0
  0
LTYPE
  5
9A
330
5
100
AcDbSymbolTableRecord
100
AcDbLinetypeTableRecord
  2
CENTER2
 70
     0
  3
Center (.5x) ___ _ ___ _ ___ _ ___ _ ___ _ ___
 72
    65
 73
     4
 40
1.125
 49
0.75
 74
     0
 49
-0.125
 74
     0
 49
0.125
 74
     0
 49
-0.125
 74
     0
  0
LTYPE
  5
9B
330
5
100
AcDbSymbolTableRecord
100
AcDbLinetypeTableRecord
  2
HIDDEN2
 70
     0
  3
Hidden (.5x) _ _ _ _ _ _ _ _ _ _ _ _ _ _ _ _ _
 72
    65
 73
     2
 40
0.1875
 49
0.125
 74
     0
 49
-0.0625
 74
     0
  0
LTYPE
  5
9C
330
5
100
AcDbSymbolTableRecord
100
AcDbLinetypeTableRecord
  2
Amconstr
 70
     0
  3
_______________________
 72
    65
 73
     2
 40
9999.0
 49
9999.0
 74
     0
 49
0.0
 74
     0
  0
LTYPE
  5
9D
330
5
100
AcDbSymbolTableRecord
100
AcDbLinetypeTableRecord
  2
Amzigzag2
 70
     0
  3
/\/-/\/-/\/-/\/-/\/-/\/
 72
    65
 73
     2
 40
0.4401
 49
0.0001
 74
     4
 75
   136
340
97
 46
0.0016
 50
0.0
 44
0.0
 45
0.0
 49
-0.44
 74
     0
  0
LTYPE
  5
9E
330
5
100
AcDbSymbolTableRecord
100
AcDbLinetypeTableRecord
  2
ACANSTGB
 70
     0
  3
__ . . __ . .
 72
    65
 73
     6
 40
0.354331
 49
0.15748
 74
     0
 49
-0.03937
 74
     0
 49
0.03937
 74
     0
 49
-0.03937
 74
     0
 49
0.03937
 74
     0
 49
-0.03937
 74
     0
  0
LTYPE
  5
9F
330
5
100
AcDbSymbolTableRecord
100
AcDbLinetypeTableRecord
  2
ACANSTGL
 70
     0
  3
_ _ _ _ _
 72
    65
 73
     2
 40
0.11811
 49
0.07874
 74
     0
 49
-0.03937
 74
     0
  0
ENDTAB
  0
TABLE
  2
LAYER
  5
2
330
0
100
AcDbSymbolTable
 70
    10
  0
LAYER
  5
54
330
2
100
AcDbSymbolTableRecord
100
AcDbLayerTableRecord
  2
0
 70
     0
 62
     7
  6
Continuous
370
    -3
390
F
347
21
348
0
1001
AcAecLayerStandard
1000

1000

  0
LAYER
  5
79
330
2
100
AcDbSymbolTableRecord
100
AcDbLayerTableRecord
  2
Defpoints
 70
     0
 62
     7
  6
Continuous
290
     0
370
    -3
390
F
347
21
348
0
1001
AcAecLayerStandard
1000

1000

  0
LAYER
  5
B9
330
2
100
AcDbSymbolTableRecord
100
AcDbLayerTableRecord
  2
Visible
 70
     0
 62
     7
  6
Continuous
370
    50
390
F
347
21
348
0
  0
LAYER
  5
116
330
2
100
AcDbSymbolTableRecord
100
AcDbLayerTableRecord
  2
Visible Narrow
 70
     0
 62
     7
  6
Continuous
370
    35
390
F
347
21
348
0
  0
LAYER
  5
17F
330
2
100
AcDbSymbolTableRecord
100
AcDbLayerTableRecord
  2
Titleblock
 70
     0
 62
     7
  6
Continuous
370
    -3
390
F
347
21
348
0
1001
AcAecLayerStandard
1000

1000

1001
AcCmTransparency
1071
        0
  0
LAYER
  5
1A4
330
2
100
AcDbSymbolTableRecord
100
AcDbLayerTableRecord
  2
Border
 70
     0
 62
     7
  6
Continuous
370
    -3
390
F
347
21
348
0
1001
AcAecLayerStandard
1000

1000

1001
AcCmTransparency
1071
        0
  0
LAYER
  5
1C5
330
2
100
AcDbSymbolTableRecord
100
AcDbLayerTableRecord
  2
Dimensions
 70
     0
 62
     7
  6
Continuous
370
    25
390
F
347
21
348
0
  0
ENDTAB
  0
TABLE
  2
STYLE
  5
3
330
0
100
AcDbSymbolTable
 70
     4
  0
STYLE
  5
55
330
3
100
AcDbSymbolTableRecord
100
AcDbTextStyleTableRecord
  2
Standard
 70
     0
 40
0.0
 41
1.0
 50
0.0
 71
     0
 42
0.12
  3
arial.ttf
  4

1001
ACAD
1000
Arial
1071
       34
  0
STYLE
  5
5A
330
3
100
AcDbSymbolTableRecord
100
AcDbTextStyleTableRecord
  2
Annotative
 70
     0
 40
0.0
 41
1.0
 50
0.0
 71
     0
 42
0.2
  3
txt
  4

1001
AcadAnnotative
1000
AnnotativeData
1002
{
1070
     1
1070
     1
1002
}
  0
STYLE
  5
97
330
3
100
AcDbSymbolTableRecord
100
AcDbTextStyleTableRecord
  2

 70
     1
 40
0.0
 41
1.0
 50
0.0
 71
     0
 42
0.12
  3
genltshp.shx
  4

  0
STYLE
  5
98
330
3
100
AcDbSymbolTableRecord
100
AcDbTextStyleTableRecord
  2
ACANSGDT
 70
     0
 40
0.0
 41
1.0
 50
0.0
 71
     0
 42
0.12
  3
amgdt.shx
  4

  0
ENDTAB
  0
TABLE
  2
VIEW
  5
6
330
0
100
AcDbSymbolTable
 70
     0
  0
ENDTAB
  0
TABLE
  2
UCS
  5
7
330
0
100
AcDbSymbolTable
 70
     0
  0
ENDTAB
  0
TABLE
  2
APPID
  5
9
330
0
100
AcDbSymbolTable
 70
    24
  0
APPID
  5
56
330
9
100
AcDbSymbolTableRecord
100
AcDbRegAppTableRecord
  2
ACAD
 70
     0
  0
APPID
  5
5E
330
9
100
AcDbSymbolTableRecord
100
AcDbRegAppTableRecord
  2
AcadAnnotative
 70
     0
  0
APPID
  5
78
330
9
100
AcDbSymbolTableRecord
100
AcDbRegAppTableRecord
  2
ACAD_PSEXT
 70
     0
  0
APPID
  5
7A
330
9
100
AcDbSymbolTableRecord
100
AcDbRegAppTableRecord
  2
MCAD_NO_VIS
 70
     0
  0
APPID
  5
7B
330
9
100
AcDbSymbolTableRecord
100
AcDbRegAppTableRecord
  2
ACAD_TEMP_GRAPHIC
 70
     0
  0
APPID
  5
84
330
9
100
AcDbSymbolTableRecord
100
AcDbRegAppTableRecord
  2
ACAD_DSTYLE_DIMJAG
 70
     0
  0
APPID
  5
85
330
9
100
AcDbSymbolTableRecord
100
AcDbRegAppTableRecord
  2
ACAD_DSTYLE_DIMTALN
 70
     0
  0
APPID
  5
86
330
9
100
AcDbSymbolTableRecord
100
AcDbRegAppTableRecord
  2
ACAD_NAV_VCDISPLAY
 70
     0
  0
APPID
  5
87
330
9
100
AcDbSymbolTableRecord
100
AcDbRegAppTableRecord
  2
AcAecLayerStandard
 70
     0
  0
APPID
  5
88
330
9
100
AcDbSymbolTableRecord
100
AcDbRegAppTableRecord
  2
AcCmTransparency
 70
     0
  0
APPID
  5
89
330
9
100
AcDbSymbolTableRecord
100
AcDbRegAppTableRecord
  2
ACAD_DSTYLE_DIMBREAK
 70
     0
  0
APPID
  5
8A
330
9
100
AcDbSymbolTableRecord
100
AcDbRegAppTableRecord
  2
ACAD_DSTYLE_DIMRADIAL_EXTENSION
 70
     0
  0
APPID
  5
8B
330
9
100
AcDbSymbolTableRecord
100
AcDbRegAppTableRecord
  2
FUSIONTITLEBLOCK
 70
     0
  0
APPID
  5
8C
330
9
100
AcDbSymbolTableRecord
100
AcDbRegAppTableRecord
  2
FUSIONCURRENTTITLEBLOCK
 70
     0
  0
APPID
  5
8D
330
9
100
AcDbSymbolTableRecord
100
AcDbRegAppTableRecord
  2
AcSynergy
 70
     0
  0
APPID
  5
8E
330
9
100
AcDbSymbolTableRecord
100
AcDbRegAppTableRecord
  2
ACAD_VIEW_EDGE_ID
 70
     0
  0
APPID
  5
8F
330
9
100
AcDbSymbolTableRecord
100
AcDbRegAppTableRecord
  2
GENIUS_GENSCREG_15
 70
     0
  0
APPID
  5
90
330
9
100
AcDbSymbolTableRecord
100
AcDbRegAppTableRecord
  2
GENIUS_GENOBJ-N-SDF_13
 70
     0
  0
APPID
  5
91
330
9
100
AcDbSymbolTableRecord
100
AcDbRegAppTableRecord
  2
GENIUS_GENODEF_13
 70
     0
  0
APPID
  5
92
330
9
100
AcDbSymbolTableRecord
100
AcDbRegAppTableRecord
  2
ACAD_DIMASSOC_CALC_DIMLFAC
 70
     0
  0
APPID
  5
93
330
9
100
AcDbSymbolTableRecord
100
AcDbRegAppTableRecord
  2
ACAD_DIMASSOC_DIMLFAC
 70
     0
  0
APPID
  5
94
330
9
100
AcDbSymbolTableRecord
100
AcDbRegAppTableRecord
  2
ACAD_DIMASSOC_OVERRIDDEN_DIMLFAC
 70
     0
  0
APPID
  5
95
330
9
100
AcDbSymbolTableRecord
100
AcDbRegAppTableRecord
  2
FD_ATT_APPNAME
 70
     0
  0
APPID
  5
96
330
9
100
AcDbSymbolTableRecord
100
AcDbRegAppTableRecord
  2
ACATTRIBSERVICES
 70
     0
  0
ENDTAB
  0
TABLE
  2
DIMSTYLE
  5
A
330
0
100
AcDbSymbolTable
 70
     2
100
AcDbDimStyleTable
 71
     1
340
58
  0
DIMSTYLE
105
58
102
{ACAD_REACTORS
330
1E1
330
1EF
330
1FD
330
20B
330
219
330
223
330
231
330
1C4
330
1D3
102
}
330
A
100
AcDbSymbolTableRecord
100
AcDbDimStyleTableRecord
  2
Standard
 70
     0
  3
in
  4
mm
 41
0.12
 42
0.05
 43
0.339411
 44
0.1
 47
0.01
 48
0.01
 78
    12
 79
     3
 90
     1
140
0.12
141
0.0
147
0.06
176
   256
177
   256
178
   256
179
     2
271
     2
272
     2
284
    12
285
    12
286
    12
340
55
  0
DIMSTYLE
105
59
330
A
100
AcDbSymbolTableRecord
100
AcDbDimStyleTableRecord
  2
Annotative
 70
     0
  3
in
 40
0.0
 43
0.339411
 78
    12
 79
     3
140
0.12
179
     2
271
     2
272
     2
284
    12
285
    12
286
    12
340
55
1001
AcadAnnotative
1000
AnnotativeData
1002
{
1070
     1
1070
     1
1002
}
  0
ENDTAB
  0
TABLE
  2
BLOCK_RECORD
  5
1
330
0
100
AcDbSymbolTable
 70
    24
  0
BLOCK_RECORD
  5
70
102
{ACAD_XDICTIONARY
360
B2
102
}
330
1
100
AcDbSymbolTableRecord
100
AcDbBlockTableRecord
  2
*Model_Space
340
73
 70
     0
280
     1
281
     0
  0
BLOCK_RECORD
  5
6C
330
1
100
AcDbSymbolTableRecord
100
AcDbBlockTableRecord
  2
*Paper_Space
340
6F
 70
     0
280
     1
281
     0
  0
BLOCK_RECORD
  5
74
330
1
100
AcDbSymbolTableRecord
100
AcDbBlockTableRecord
  2
*Paper_Space0
340
77
 70
     0
280
     1
281
     0
  0
BLOCK_RECORD
  5
180
102
{ACAD_XDICTIONARY
360
181
102
}
330
1
100
AcDbSymbolTableRecord
100
AcDbBlockTableRecord
  2
Shower
340
0
102
{BLKREFS
331
17E
102
}
 70
     1
280
     1
281
     0
1001
FUSIONTITLEBLOCK
1000
TitleBlock
  0
BLOCK_RECORD
  5
1A5
330
1
100
AcDbSymbolTableRecord
100
AcDbBlockTableRecord
  2
ANSI_B_SHEET
340
0
310
2800000020000000200000000100080000000000000400000000000000000000000000000000000000000000000080000080000000808000800000008000800080800000C0C0C000C0DCC000F0CAA6000020400000206000002080000020A0000020C0000020E00000400000004020000040400000406000004080000040A0
310
000040C0000040E00000600000006020000060400000606000006080000060A0000060C0000060E00000800000008020000080400000806000008080000080A0000080C0000080E00000A0000000A0200000A0400000A0600000A0800000A0A00000A0C00000A0E00000C0000000C0200000C0400000C0600000C0800000C0
310
A00000C0C00000C0E00000E0000000E0200000E0400000E0600000E0800000E0A00000E0C00000E0E00040000000400020004000400040006000400080004000A0004000C0004000E00040200000402020004020400040206000402080004020A0004020C0004020E000404000004040200040404000404060004040800040
310
40A0004040C0004040E00040600000406020004060400040606000406080004060A0004060C0004060E00040800000408020004080400040806000408080004080A0004080C0004080E00040A0000040A0200040A0400040A0600040A0800040A0A00040A0C00040A0E00040C0000040C0200040C0400040C0600040C08000
310
40C0A00040C0C00040C0E00040E0000040E0200040E0400040E0600040E0800040E0A00040E0C00040E0E00080000000800020008000400080006000800080008000A0008000C0008000E00080200000802020008020400080206000802080008020A0008020C0008020E00080400000804020008040400080406000804080
310
008040A0008040C0008040E00080600000806020008060400080606000806080008060A0008060C0008060E00080800000808020008080400080806000808080008080A0008080C0008080E00080A0000080A0200080A0400080A0600080A0800080A0A00080A0C00080A0E00080C0000080C0200080C0400080C0600080C0
310
800080C0A00080C0C00080C0E00080E0000080E0200080E0400080E0600080E0800080E0A00080E0C00080E0E000C0000000C0002000C0004000C0006000C0008000C000A000C000C000C000E000C0200000C0202000C0204000C0206000C0208000C020A000C020C000C020E000C0400000C0402000C0404000C0406000C0
310
408000C040A000C040C000C040E000C0600000C0602000C0604000C0606000C0608000C060A000C060C000C060E000C0800000C0802000C0804000C0806000C0808000C080A000C080C000C080E000C0A00000C0A02000C0A04000C0A06000C0A08000C0A0A000C0A0C000C0A0E000C0C00000C0C02000C0C04000C0C06000
310
C0C08000C0C0A000F0FBFF00A4A0A000808080000000FF0000FF000000FFFF00FF000000FF00FF00FFFF0000FFFFFF0049494949494949494949494949494949494949494949494949494949494949494949494949494949494949494949494949494949494949494949494949494949494949494949494949494949494949
310
494949494949494949494949494949494949494949494949494949494949494949494949494949494949494949494949494949494949494949494949494949494949494949494949494949494949494949494949494949494949494949494949494949494949494949494949494949494949FFFF4949494949494949494949
310
494949494949494949494949494949FFFF4949FFFFFFFFFFFFFFFFFFFFFFFFFFFFFFFFFFFFFFFFFFFFFFFFFFFFFFFFFFFF494949FF4949494949494949494949494949494949494949494949494949FF49494949FF4949494949494949494949494949494949494949494949494949FF49494949FF49494949494949494949
310
49494949494949494949494949494949FF49494949FF4949494949494949494949494949494949494949494949494949FF49494949FF4949494949494949494949494949494949494949494949494949FF49494949FF4949494949494949494949494949494949494949494949494949FF49494949FF494949494949494949
310
4949494949494949494949494949494949FF49494949FF4949494949494949494949494949494949494949494949494949FF49494949FF4949494949494949494949494949494949494949494949494949FF49494949FF4949494949494949494949494949494949494949494949494949FF49494949FF4949494949494949
310
494949494949494949494949494949494949FF49494949FF4949494949494949494949494949494949494949494949494949FF49494949FF4949494949494949494949494949494949494949494949494949FF49494949FF4949494949494949494949494949494949494949494949494949FF49494949FF49494949494949
310
49494949494949494949494949494949494949FF49494949FF4949494949494949494949494949494949494949494949494949FF494949FFFFFFFFFFFFFFFFFFFFFFFFFFFFFFFFFFFFFFFFFFFFFFFFFFFFFFFFFFFF4949FFFF4949494949494949494949494949494949494949494949494949FFFF49494949494949494949
310
49494949494949494949494949494949494949494949494949494949494949494949494949494949494949494949494949494949494949494949494949494949494949494949494949494949494949494949494949494949494949494949494949494949494949494949494949494949494949494949494949494949494949
310
4949494949494949494949494949494949494949494949494949494949494949494949494949494949494949494949494949494949494949
102
{BLKREFS
331
1A3
102
}
 70
     1
280
     1
281
     0
  0
BLOCK_RECORD
  5
1C6
330
1
100
AcDbSymbolTableRecord
100
AcDbBlockTableRecord
  2
*D6
340
0
 70
     0
280
     1
281
     0
  0
BLOCK_RECORD
  5
1D4
330
1
100
AcDbSymbolTableRecord
100
AcDbBlockTableRecord
  2
*D7
340
0
 70
     0
280
     1
281
     0
  0
BLOCK_RECORD
  5
1E2
330
1
100
AcDbSymbolTableRecord
100
AcDbBlockTableRecord
  2
*D8
340
0
 70
     0
280
     1
281
     0
  0
BLOCK_RECORD
  5
1F0
330
1
100
AcDbSymbolTableRecord
100
AcDbBlockTableRecord
  2
*D9
340
0
 70
     0
280
     1
281
     0
  0
BLOCK_RECORD
  5
1FE
330
1
100
AcDbSymbolTableRecord
100
AcDbBlockTableRecord
  2
*D10
340
0
 70
     0
280
     1
281
     0
  0
BLOCK_RECORD
  5
20C
330
1
100
AcDbSymbolTableRecord
100
AcDbBlockTableRecord
  2
*D11
340
0
 70
     0
280
     1
281
     0
  0
BLOCK_RECORD
  5
21A
330
1
100
AcDbSymbolTableRecord
100
AcDbBlockTableRecord
  2
*D12
340
0
 70
     0
280
     1
281
     0
  0
BLOCK_RECORD
  5
224
330
1
100
AcDbSymbolTableRecord
100
AcDbBlockTableRecord
  2
*D13
340
0
 70
     0
280
     1
281
     0
  0
BLOCK_RECORD
  5
232
330
1
100
AcDbSymbolTableRecord
100
AcDbBlockTableRecord
  2
*D14
340
0
 70
     0
280
     1
281
     0
  0
BLOCK_RECORD
  5
240
330
1
100
AcDbSymbolTableRecord
100
AcDbBlockTableRecord
  2
*D15
340
0
 70
     0
280
     1
281
     0
  0
BLOCK_RECORD
  5
24D
330
1
100
AcDbSymbolTableRecord
100
AcDbBlockTableRecord
  2
*D16
340
0
 70
     0
280
     1
281
     0
  0
BLOCK_RECORD
  5
25A
330
1
100
AcDbSymbolTableRecord
100
AcDbBlockTableRecord
  2
*D17
340
0
 70
     0
280
     1
281
     0
  0
BLOCK_RECORD
  5
267
330
1
100
AcDbSymbolTableRecord
100
AcDbBlockTableRecord
  2
*D18
340
0
 70
     0
280
     1
281
     0
  0
BLOCK_RECORD
  5
274
330
1
100
AcDbSymbolTableRecord
100
AcDbBlockTableRecord
  2
*D19
340
0
 70
     0
280
     1
281
     0
  0
BLOCK_RECORD
  5
281
330
1
100
AcDbSymbolTableRecord
100
AcDbBlockTableRecord
  2
*D20
340
0
 70
     0
280
     1
281
     0
  0
BLOCK_RECORD
  5
28E
330
1
100
AcDbSymbolTableRecord
100
AcDbBlockTableRecord
  2
*D21
340
0
 70
     0
280
     1
281
     0
  0
BLOCK_RECORD
  5
297
330
1
100
AcDbSymbolTableRecord
100
AcDbBlockTableRecord
  2
*D22
340
0
 70
     0
280
     1
281
     0
  0
BLOCK_RECORD
  5
2A4
330
1
100
AcDbSymbolTableRecord
100
AcDbBlockTableRecord
  2
*D23
340
0
 70
     0
280
     1
281
     0
  0
ENDTAB
  0
ENDSEC
  0
SECTION
  2
BLOCKS
  0
BLOCK
  5
71
330
70
100
AcDbEntity
  8
0
100
AcDbBlockBegin
  2
*Model_Space
 70
     0
 10
0.0
 20
0.0
 30
0.0
  3
*Model_Space
  1

  0
ENDBLK
  5
72
330
70
100
AcDbEntity
  8
0
100
AcDbBlockEnd
  0
BLOCK
  5
6D
330
6C
100
AcDbEntity
 67
     1
  8
0
100
AcDbBlockBegin
  2
*Paper_Space
 70
     0
 10
0.0
 20
0.0
 30
0.0
  3
*Paper_Space
  1

  0
ENDBLK
  5
6E
330
6C
100
AcDbEntity
 67
     1
  8
0
100
AcDbBlockEnd
  0
BLOCK
  5
75
330
74
100
AcDbEntity
 67
     1
  8
0
100
AcDbBlockBegin
  2
*Paper_Space0
 70
     0
 10
0.0
 20
0.0
 30
0.0
  3
*Paper_Space0
  1

  0
ENDBLK
  5
76
330
74
100
AcDbEntity
 67
     1
  8
0
100
AcDbBlockEnd
  0
BLOCK
  5
183
330
180
100
AcDbEntity
  8
0
100
AcDbBlockBegin
  2
Shower
 70
     2
 10
0.0
 20
0.0
 30
0.0
  3
Shower
  1

  0
LWPOLYLINE
  5
184
330
180
100
AcDbEntity
  8
Titleblock
100
AcDbPolyline
 90
        4
 70
     1
 43
0.0
 10
0.0
 20
0.0
 10
-4.9375
 20
0.0
 10
-4.9375
 20
2.5
 10
0.0
 20
2.5
  0
IMAGE
  5
185
330
180
100
AcDbEntity
  8
Titleblock
  6
Continuous
160
               140
310
8C0000000100000084000000060000000500000000000000008013C000B87FA8928AB03F000000000000000000000000008013C035B4911D6523F03F000000000000000001000000008001C035B4911D6523F03F000000000000000001000000008001C000B87FA8928AB03F000000000000000000000000008013C000B87F
310
A8928AB03F0000000000000000
370
     0
100
AcDbRasterImage
 90
        0
 10
-4.875
 20
0.064614
 30
0.0
 11
0.0028349156118143
 21
0.0
 31
0.0
 12
0.0
 22
0.0028349156118143
 32
0.0
 13
948.0
 23
333.0
340
186
 70
    15
280
     0
281
    50
282
    50
283
     0
290
     0
360
188
 71
     1
 91
        2
 14
-0.5
 24
-0.5
 14
947.5
 24
332.5
  0
LWPOLYLINE
  5
18A
330
180
100
AcDbEntity
  8
Titleblock
  6
Continuous
370
    25
100
AcDbPolyline
 90
        4
 70
     1
 43
0.0
 10
0.0
 20
1.0625
 10
-4.9375
 20
1.061638
 10
-4.9375
 20
0.0
 10
0.0
 20
0.0
  0
LWPOLYLINE
  5
18B
330
180
100
AcDbEntity
  8
Titleblock
  6
Continuous
370
    25
100
AcDbPolyline
 90
        4
 70
     1
 43
0.0
 10
-1.75
 20
2.5
 10
0.0
 20
2.5
 10
0.0
 20
2.5
 10
-1.75
 20
2.5
  0
ATTDEF
  5
18C
330
180
100
AcDbEntity
  8
Titleblock
  6
Continuous
370
    25
100
AcDbText
 10
-3.6875
 20
2.3125
 30
0.0
 40
0.12
  1

100
AcDbAttributeDefinition
280
     0
  3

  2
PROJECT
 70
     0
280
     1
  0
MTEXT
  5
18D
330
180
100
AcDbEntity
  8
Titleblock
  6
Continuous
370
    25
100
AcDbMText
 10
-4.875
 20
1.653875
 30
0.0
 40
0.12
 41
0.6875
 46
0.0
 71
     1
 72
     5
  1
Description:
 73
     1
 44
1.0
1001
ACAD
1000
ACAD_MTEXT_COLUMN_INFO_BEGIN
1070
    75
1070
     2
1070
    79
1070
     0
1070
    76
1070
     1
1070
    78
1070
     0
1070
    48
1040
0.6875
1070
    49
1040
0.6
1070
    50
1070
     1
1040
0.0
1000
ACAD_MTEXT_COLUMN_INFO_END
  0
ATTDEF
  5
18E
330
180
100
AcDbEntity
  8
Titleblock
  6
Continuous
370
    25
100
AcDbText
 10
-1.6875
 20
0.6875
 30
0.0
 40
0.12
  1

100
AcDbAttributeDefinition
280
     0
  3

  2
DRAWN_DATE
 70
     0
280
     1
  0
ATTDEF
  5
18F
330
180
100
AcDbEntity
  8
Titleblock
  6
Continuous
370
    25
100
AcDbText
 10
-4.3125
 20
1.8125
 30
0.0
 40
0.3048
  1

100
AcDbAttributeDefinition
280
     0
  3

  2
TITLE_1
 70
     0
280
     1
  0
ATTDEF
  5
190
330
180
100
AcDbEntity
  8
Titleblock
  6
Continuous
370
    25
100
AcDbText
 10
-1.6875
 20
0.91994
 30
0.0
 40
0.12
  1

100
AcDbAttributeDefinition
280
     0
  3

  2
SCALE
 70
     0
280
     1
  0
LWPOLYLINE
  5
191
330
180
100
AcDbEntity
  8
Titleblock
  6
Continuous
370
    25
100
AcDbPolyline
 90
        4
 70
     1
 43
0.0
 10
0.0
 20
1.0625
 10
0.0
 20
1.0625
 10
0.0
 20
0.0
 10
0.0
 20
0.0
  0
LWPOLYLINE
  5
192
330
180
100
AcDbEntity
  8
Titleblock
  6
Continuous
370
    25
100
AcDbPolyline
 90
        4
 70
     1
 43
0.0
 10
0.0
 20
1.0625
 10
0.0
 20
1.0625
 10
0.0
 20
0.0
 10
0.0
 20
0.0
  0
LINE
  5
193
330
180
100
AcDbEntity
  8
Titleblock
  6
Continuous
370
    25
100
AcDbLine
 10
-2.125
 20
1.062165
 30
0.0
 11
-2.125
 21
0.0
 31
0.0
  0
LWPOLYLINE
  5
194
330
180
100
AcDbEntity
  8
Titleblock
  6
Continuous
370
    25
100
AcDbPolyline
 90
        4
 70
     1
 43
0.0
 10
-4.9375
 20
2.5
 10
0.0
 20
2.5
 10
0.0
 20
2.5
 10
-4.9375
 20
2.5
  0
LINE
  5
195
330
180
100
AcDbEntity
  8
Titleblock
  6
Continuous
370
    25
100
AcDbLine
 10
-4.9375
 20
2.25
 30
0.0
 11
0.0
 21
2.25
 31
0.0
  0
LINE
  5
196
330
180
100
AcDbEntity
  8
Titleblock
  6
Continuous
370
    25
100
AcDbLine
 10
-4.9375
 20
1.6875
 30
0.0
 11
0.0
 21
1.6875
 31
0.0
  0
MTEXT
  5
197
330
180
100
AcDbEntity
  8
Titleblock
100
AcDbMText
 10
-4.875
 20
2.467284
 30
0.0
 40
0.12
 41
0.375
 46
0.0
 71
     1
 72
     5
  1
Project:
 73
     1
 44
1.0
1001
ACAD
1000
ACAD_MTEXT_COLUMN_INFO_BEGIN
1070
    75
1070
     2
1070
    79
1070
     0
1070
    76
1070
     1
1070
    78
1070
     0
1070
    48
1040
0.375
1070
    49
1040
0.6
1070
    50
1070
     1
1040
0.0
1000
ACAD_MTEXT_COLUMN_INFO_END
  0
MTEXT
  5
198
330
180
100
AcDbEntity
  8
Titleblock
100
AcDbMText
 10
-2.0625
 20
1.045477
 30
0.0
 40
0.075
 41
0.375
 46
0.0
 71
     1
 72
     5
  1
Scale:
 73
     1
 44
1.0
1001
ACAD
1000
ACAD_MTEXT_COLUMN_INFO_BEGIN
1070
    75
1070
     2
1070
    79
1070
     0
1070
    76
1070
     1
1070
    78
1070
     0
1070
    48
1040
0.375
1070
    49
1040
0.6
1070
    50
1070
     1
1040
0.0
1000
ACAD_MTEXT_COLUMN_INFO_END
  0
MTEXT
  5
199
330
180
100
AcDbEntity
  8
Titleblock
100
AcDbMText
 10
-2.0625
 20
0.857735
 30
0.0
 40
0.075
 41
0.375
 46
0.0
 71
     1
 72
     5
  1
Date Drawn:
 73
     1
 44
1.0
1001
ACAD
1000
ACAD_MTEXT_COLUMN_INFO_BEGIN
1070
    75
1070
     2
1070
    79
1070
     0
1070
    76
1070
     1
1070
    78
1070
     0
1070
    48
1040
0.375
1070
    49
1040
0.6
1070
    50
1070
     1
1040
0.0
1000
ACAD_MTEXT_COLUMN_INFO_END
  0
LINE
  5
19A
330
180
100
AcDbEntity
  8
Titleblock
100
AcDbLine
 10
-2.125
 20
0.875
 30
0.0
 11
0.0
 21
0.875
 31
0.0
  0
LINE
  5
19B
330
180
100
AcDbEntity
  8
Titleblock
100
AcDbLine
 10
-2.125
 20
0.625
 30
0.0
 11
0.0
 21
0.625
 31
0.0
  0
MTEXT
  5
19C
330
180
100
AcDbEntity
  8
Titleblock
100
AcDbMText
 10
-4.875
 20
2.220603
 30
0.0
 40
0.12
 41
0.625
 46
0.0
 71
     1
 72
     5
  1
Title:
 73
     1
 44
1.0
1001
ACAD
1000
ACAD_MTEXT_COLUMN_INFO_BEGIN
1070
    75
1070
     2
1070
    79
1070
     0
1070
    76
1070
     1
1070
    78
1070
     0
1070
    48
1040
0.625
1070
    49
1040
0.6
1070
    50
1070
     1
1040
0.0
1000
ACAD_MTEXT_COLUMN_INFO_END
  0
ENDBLK
  5
19D
330
180
100
AcDbEntity
  8
0
100
AcDbBlockEnd
  0
BLOCK
  5
1A6
330
1A5
100
AcDbEntity
  8
0
100
AcDbBlockBegin
  2
ANSI_B_SHEET
 70
     0
 10
0.0
 20
0.0
 30
0.0
  3
ANSI_B_SHEET
  1

  0
LINE
  5
1A7
330
1A5
100
AcDbEntity
  8
Border
100
AcDbLine
 10
0.0
 20
0.0
 30
0.0
 11
0.5
 21
0.0
 31
0.0
  0
LINE
  5
1A8
330
1A5
100
AcDbEntity
  8
Border
100
AcDbLine
 10
16.5
 20
0.0
 30
0.0
 11
17.0
 21
0.0
 31
0.0
  0
LINE
  5
1A9
330
1A5
100
AcDbEntity
  8
Border
100
AcDbLine
 10
0.62
 20
0.38
 30
0.0
 11
16.38
 21
0.38
 31
0.0
  0
LINE
  5
1AA
330
1A5
100
AcDbEntity
  8
Border
100
AcDbLine
 10
17.0
 20
0.0
 30
0.0
 11
17.0
 21
0.5
 31
0.0
  0
LINE
  5
1AB
330
1A5
100
AcDbEntity
  8
Border
100
AcDbLine
 10
17.0
 20
10.5
 30
0.0
 11
17.0
 21
11.0
 31
0.0
  0
LINE
  5
1AC
330
1A5
100
AcDbEntity
  8
Border
100
AcDbLine
 10
16.38
 20
0.38
 30
0.0
 11
16.38
 21
10.62
 31
0.0
  0
LINE
  5
1AD
330
1A5
100
AcDbEntity
  8
Border
100
AcDbLine
 10
17.0
 20
11.0
 30
0.0
 11
16.5
 21
11.0
 31
0.0
  0
LINE
  5
1AE
330
1A5
100
AcDbEntity
  8
Border
100
AcDbLine
 10
0.5
 20
11.0
 30
0.0
 11
0.0
 21
11.0
 31
0.0
  0
LINE
  5
1AF
330
1A5
100
AcDbEntity
  8
Border
100
AcDbLine
 10
16.38
 20
10.62
 30
0.0
 11
0.62
 21
10.62
 31
0.0
  0
LINE
  5
1B0
330
1A5
100
AcDbEntity
  8
Border
100
AcDbLine
 10
0.0
 20
11.0
 30
0.0
 11
0.0
 21
10.5
 31
0.0
  0
LINE
  5
1B1
330
1A5
100
AcDbEntity
  8
Border
100
AcDbLine
 10
0.0
 20
0.5
 30
0.0
 11
0.0
 21
0.0
 31
0.0
  0
LINE
  5
1B2
330
1A5
100
AcDbEntity
  8
Border
100
AcDbLine
 10
0.62
 20
10.62
 30
0.0
 11
0.62
 21
0.38
 31
0.0
  0
LINE
  5
1B3
330
1A5
100
AcDbEntity
  8
Border
100
AcDbLine
 10
8.413397
 20
0.23
 30
0.0
 11
8.586603
 21
0.23
 31
0.0
  0
LINE
  5
1B4
330
1A5
100
AcDbEntity
  8
Border
100
AcDbLine
 10
8.5
 20
0.38
 30
0.0
 11
8.5
 21
0.13
 31
0.0
  0
LINE
  5
1B5
330
1A5
100
AcDbEntity
  8
Border
100
AcDbLine
 10
8.5
 20
0.38
 30
0.0
 11
8.413397
 21
0.23
 31
0.0
  0
LINE
  5
1B6
330
1A5
100
AcDbEntity
  8
Border
100
AcDbLine
 10
8.5
 20
0.38
 30
0.0
 11
8.586603
 21
0.23
 31
0.0
  0
LINE
  5
1B7
330
1A5
100
AcDbEntity
  8
Border
100
AcDbLine
 10
0.47
 20
5.586603
 30
0.0
 11
0.47
 21
5.413397
 31
0.0
  0
LINE
  5
1B8
330
1A5
100
AcDbEntity
  8
Border
100
AcDbLine
 10
0.62
 20
5.5
 30
0.0
 11
0.37
 21
5.5
 31
0.0
  0
LINE
  5
1B9
330
1A5
100
AcDbEntity
  8
Border
100
AcDbLine
 10
0.62
 20
5.5
 30
0.0
 11
0.47
 21
5.586603
 31
0.0
  0
LINE
  5
1BA
330
1A5
100
AcDbEntity
  8
Border
100
AcDbLine
 10
0.62
 20
5.5
 30
0.0
 11
0.47
 21
5.413397
 31
0.0
  0
LINE
  5
1BB
330
1A5
100
AcDbEntity
  8
Border
100
AcDbLine
 10
16.53
 20
5.586603
 30
0.0
 11
16.53
 21
5.413397
 31
0.0
  0
LINE
  5
1BC
330
1A5
100
AcDbEntity
  8
Border
100
AcDbLine
 10
16.38
 20
5.5
 30
0.0
 11
16.63
 21
5.5
 31
0.0
  0
LINE
  5
1BD
330
1A5
100
AcDbEntity
  8
Border
100
AcDbLine
 10
16.38
 20
5.5
 30
0.0
 11
16.53
 21
5.586603
 31
0.0
  0
LINE
  5
1BE
330
1A5
100
AcDbEntity
  8
Border
100
AcDbLine
 10
16.38
 20
5.5
 30
0.0
 11
16.53
 21
5.413397
 31
0.0
  0
LINE
  5
1BF
330
1A5
100
AcDbEntity
  8
Border
100
AcDbLine
 10
8.413397
 20
10.77
 30
0.0
 11
8.586603
 21
10.77
 31
0.0
  0
LINE
  5
1C0
330
1A5
100
AcDbEntity
  8
Border
100
AcDbLine
 10
8.5
 20
10.62
 30
0.0
 11
8.5
 21
10.87
 31
0.0
  0
LINE
  5
1C1
330
1A5
100
AcDbEntity
  8
Border
100
AcDbLine
 10
8.5
 20
10.62
 30
0.0
 11
8.413397
 21
10.77
 31
0.0
  0
LINE
  5
1C2
330
1A5
100
AcDbEntity
  8
Border
100
AcDbLine
 10
8.5
 20
10.62
 30
0.0
 11
8.586603
 21
10.77
 31
0.0
  0
ENDBLK
  5
1C3
330
1A5
100
AcDbEntity
  8
0
100
AcDbBlockEnd
  0
BLOCK
  5
1C7
330
1C6
100
AcDbEntity
  8
0
100
AcDbBlockBegin
  2
*D6
 70
     1
 10
0.0
 20
0.0
 30
0.0
  3
*D6
  1

  0
LINE
  5
1C8
330
1C6
100
AcDbEntity
  8
Dimensions
440
 16777216
370
    -2
100
AcDbLine
 10
15.767673
 20
5.667049
 30
0.0
 11
16.157084
 21
5.667049
 31
0.0
  0
LINE
  5
1C9
330
1C6
100
AcDbEntity
  8
Dimensions
440
 16777216
370
    -2
100
AcDbLine
 10
15.767673
 20
4.092246
 30
0.0
 11
16.157084
 21
4.092246
 31
0.0
  0
LINE
  5
1CA
330
1C6
100
AcDbEntity
  8
Dimensions
440
 16777216
370
    -2
100
AcDbLine
 10
16.057084
 20
5.547049
 30
0.0
 11
16.057084
 21
5.000916
 31
0.0
  0
LINE
  5
1CB
330
1C6
100
AcDbEntity
  8
Dimensions
440
 16777216
370
    -2
100
AcDbLine
 10
16.057084
 20
4.212246
 30
0.0
 11
16.057084
 21
4.758379
 31
0.0
  0
SOLID
  5
1CC
330
1C6
100
AcDbEntity
  8
Dimensions
440
 16777216
100
AcDbTrace
 10
16.037084
 20
5.547049
 30
0.0
 11
16.077084
 21
5.547049
 31
0.0
 12
16.057084
 22
5.667049
 32
0.0
 13
16.057084
 23
5.667049
 33
0.0
  0
SOLID
  5
1CD
330
1C6
100
AcDbEntity
  8
Dimensions
440
 16777216
100
AcDbTrace
 10
16.037084
 20
4.212246
 30
0.0
 11
16.077084
 21
4.212246
 31
0.0
 12
16.057084
 22
4.092246
 32
0.0
 13
16.057084
 23
4.092246
 33
0.0
  0
MTEXT
  5
1CE
330
1C6
100
AcDbEntity
  8
Dimensions
440
 16777216
100
AcDbMText
 10
16.057084
 20
4.879647
 30
0.0
 40
0.12
 41
0.0
 46
0.0
 71
     5
 72
     1
  1
\A1;1.57in
 73
     1
 44
1.0
  0
POINT
  5
1CF
330
1C6
100
AcDbEntity
  8
Defpoints
 62
     0
440
 16777216
100
AcDbPoint
 10
15.717673
 20
5.667049
 30
0.0
  0
POINT
  5
1D0
330
1C6
100
AcDbEntity
  8
Defpoints
 62
     0
440
 16777216
100
AcDbPoint
 10
15.717673
 20
4.092246
 30
0.0
  0
POINT
  5
1D1
330
1C6
100
AcDbEntity
  8
Defpoints
 62
     0
440
 16777216
100
AcDbPoint
 10
16.057084
 20
4.092246
 30
0.0
  0
ENDBLK
  5
1D2
330
1C6
100
AcDbEntity
  8
0
100
AcDbBlockEnd
  0
BLOCK
  5
1D5
330
1D4
100
AcDbEntity
  8
0
100
AcDbBlockBegin
  2
*D7
 70
     1
 10
0.0
 20
0.0
 30
0.0
  3
*D7
  1

  0
LINE
  5
1D6
330
1D4
100
AcDbEntity
  8
Dimensions
440
 16777216
370
    -2
100
AcDbLine
 10
15.717673
 20
5.677679
 30
0.0
 11
15.717673
 21
6.192187
 31
0.0
  0
LINE
  5
1D7
330
1D4
100
AcDbEntity
  8
Dimensions
440
 16777216
370
    -2
100
AcDbLine
 10
15.520822
 20
5.677679
 30
0.0
 11
15.520822
 21
6.192187
 31
0.0
  0
LINE
  5
1D8
330
1D4
100
AcDbEntity
  8
Dimensions
440
 16777216
370
    -2
100
AcDbLine
 10
15.837673
 20
6.092187
 30
0.0
 11
15.957673
 21
6.092187
 31
0.0
  0
LINE
  5
1D9
330
1D4
100
AcDbEntity
  8
Dimensions
440
 16777216
370
    -2
100
AcDbLine
 10
15.400822
 20
6.092187
 30
0.0
 11
15.280822
 21
6.092187
 31
0.0
  0
SOLID
  5
1DA
330
1D4
100
AcDbEntity
  8
Dimensions
440
 16777216
100
AcDbTrace
 10
15.837673
 20
6.112187
 30
0.0
 11
15.837673
 21
6.072187
 31
0.0
 12
15.717673
 22
6.092187
 32
0.0
 13
15.717673
 23
6.092187
 33
0.0
  0
SOLID
  5
1DB
330
1D4
100
AcDbEntity
  8
Dimensions
440
 16777216
100
AcDbTrace
 10
15.400822
 20
6.112187
 30
0.0
 11
15.400822
 21
6.072187
 31
0.0
 12
15.520822
 22
6.092187
 32
0.0
 13
15.520822
 23
6.092187
 33
0.0
  0
MTEXT
  5
1DC
330
1D4
100
AcDbEntity
  8
Dimensions
440
 16777216
100
AcDbMText
 10
15.099063
 20
6.092187
 30
0.0
 40
0.12
 41
0.0
 46
0.0
 71
     5
 72
     1
  1
\A1;.2in
 73
     1
 44
1.0
  0
POINT
  5
1DD
330
1D4
100
AcDbEntity
  8
Defpoints
 62
     0
440
 16777216
100
AcDbPoint
 10
15.717673
 20
5.627679
 30
0.0
  0
POINT
  5
1DE
330
1D4
100
AcDbEntity
  8
Defpoints
 62
     0
440
 16777216
100
AcDbPoint
 10
15.520822
 20
5.627679
 30
0.0
  0
POINT
  5
1DF
330
1D4
100
AcDbEntity
  8
Defpoints
 62
     0
440
 16777216
100
AcDbPoint
 10
15.520822
 20
6.092187
 30
0.0
  0
ENDBLK
  5
1E0
330
1D4
100
AcDbEntity
  8
0
100
AcDbBlockEnd
  0
BLOCK
  5
1E3
330
1E2
100
AcDbEntity
  8
0
100
AcDbBlockBegin
  2
*D8
 70
     1
 10
0.0
 20
0.0
 30
0.0
  3
*D8
  1

  0
LINE
  5
1E4
330
1E2
100
AcDbEntity
  8
Dimensions
440
 16777216
370
    -2
100
AcDbLine
 10
9.691732
 20
5.667049
 30
0.0
 11
10.219473
 21
5.667049
 31
0.0
  0
LINE
  5
1E5
330
1E2
100
AcDbEntity
  8
Dimensions
440
 16777216
370
    -2
100
AcDbLine
 10
9.691732
 20
4.092246
 30
0.0
 11
10.219473
 21
4.092246
 31
0.0
  0
LINE
  5
1E6
330
1E2
100
AcDbEntity
  8
Dimensions
440
 16777216
370
    -2
100
AcDbLine
 10
10.119473
 20
5.547049
 30
0.0
 11
10.119473
 21
5.000916
 31
0.0
  0
LINE
  5
1E7
330
1E2
100
AcDbEntity
  8
Dimensions
440
 16777216
370
    -2
100
AcDbLine
 10
10.119473
 20
4.212246
 30
0.0
 11
10.119473
 21
4.758379
 31
0.0
  0
SOLID
  5
1E8
330
1E2
100
AcDbEntity
  8
Dimensions
440
 16777216
100
AcDbTrace
 10
10.099473
 20
5.547049
 30
0.0
 11
10.139473
 21
5.547049
 31
0.0
 12
10.119473
 22
5.667049
 32
0.0
 13
10.119473
 23
5.667049
 33
0.0
  0
SOLID
  5
1E9
330
1E2
100
AcDbEntity
  8
Dimensions
440
 16777216
100
AcDbTrace
 10
10.099473
 20
4.212246
 30
0.0
 11
10.139473
 21
4.212246
 31
0.0
 12
10.119473
 22
4.092246
 32
0.0
 13
10.119473
 23
4.092246
 33
0.0
  0
MTEXT
  5
1EA
330
1E2
100
AcDbEntity
  8
Dimensions
440
 16777216
100
AcDbMText
 10
10.119473
 20
4.879647
 30
0.0
 40
0.12
 41
0.0
 46
0.0
 71
     5
 72
     1
  1
\A1;1.57in
 73
     1
 44
1.0
  0
POINT
  5
1EB
330
1E2
100
AcDbEntity
  8
Defpoints
 62
     0
440
 16777216
100
AcDbPoint
 10
9.641732
 20
5.667049
 30
0.0
  0
POINT
  5
1EC
330
1E2
100
AcDbEntity
  8
Defpoints
 62
     0
440
 16777216
100
AcDbPoint
 10
9.641732
 20
4.092246
 30
0.0
  0
POINT
  5
1ED
330
1E2
100
AcDbEntity
  8
Defpoints
 62
     0
440
 16777216
100
AcDbPoint
 10
10.119473
 20
4.092246
 30
0.0
  0
ENDBLK
  5
1EE
330
1E2
100
AcDbEntity
  8
0
100
AcDbBlockEnd
  0
BLOCK
  5
1F1
330
1F0
100
AcDbEntity
  8
0
100
AcDbBlockBegin
  2
*D9
 70
     1
 10
0.0
 20
0.0
 30
0.0
  3
*D9
  1

  0
LINE
  5
1F2
330
1F0
100
AcDbEntity
  8
Dimensions
440
 16777216
370
    -2
100
AcDbLine
 10
9.681102
 20
4.081616
 30
0.0
 11
9.681102
 21
3.701746
 31
0.0
  0
LINE
  5
1F3
330
1F0
100
AcDbEntity
  8
Dimensions
440
 16777216
370
    -2
100
AcDbLine
 10
7.318898
 20
4.081616
 30
0.0
 11
7.318898
 21
3.701746
 31
0.0
  0
LINE
  5
1F4
330
1F0
100
AcDbEntity
  8
Dimensions
440
 16777216
370
    -2
100
AcDbLine
 10
9.561102
 20
3.801746
 30
0.0
 11
8.78015
 21
3.801746
 31
0.0
  0
LINE
  5
1F5
330
1F0
100
AcDbEntity
  8
Dimensions
440
 16777216
370
    -2
100
AcDbLine
 10
7.438898
 20
3.801746
 30
0.0
 11
8.21985
 21
3.801746
 31
0.0
  0
SOLID
  5
1F6
330
1F0
100
AcDbEntity
  8
Dimensions
440
 16777216
100
AcDbTrace
 10
9.561102
 20
3.821746
 30
0.0
 11
9.561102
 21
3.781746
 31
0.0
 12
9.681102
 22
3.801746
 32
0.0
 13
9.681102
 23
3.801746
 33
0.0
  0
SOLID
  5
1F7
330
1F0
100
AcDbEntity
  8
Dimensions
440
 16777216
100
AcDbTrace
 10
7.438898
 20
3.821746
 30
0.0
 11
7.438898
 21
3.781746
 31
0.0
 12
7.318898
 22
3.801746
 32
0.0
 13
7.318898
 23
3.801746
 33
0.0
  0
MTEXT
  5
1F8
330
1F0
100
AcDbEntity
  8
Dimensions
440
 16777216
100
AcDbMText
 10
8.5
 20
3.801746
 30
0.0
 40
0.12
 41
0.0
 46
0.0
 71
     5
 72
     1
  1
\A1;2.36in
 73
     1
 44
1.0
  0
POINT
  5
1F9
330
1F0
100
AcDbEntity
  8
Defpoints
 62
     0
440
 16777216
100
AcDbPoint
 10
9.681102
 20
4.131616
 30
0.0
  0
POINT
  5
1FA
330
1F0
100
AcDbEntity
  8
Defpoints
 62
     0
440
 16777216
100
AcDbPoint
 10
7.318898
 20
4.131616
 30
0.0
  0
POINT
  5
1FB
330
1F0
100
AcDbEntity
  8
Defpoints
 62
     0
440
 16777216
100
AcDbPoint
 10
7.318898
 20
3.801746
 30
0.0
  0
ENDBLK
  5
1FC
330
1F0
100
AcDbEntity
  8
0
100
AcDbBlockEnd
  0
BLOCK
  5
1FF
330
1FE
100
AcDbEntity
  8
0
100
AcDbBlockBegin
  2
*D10
 70
     1
 10
0.0
 20
0.0
 30
0.0
  3
*D10
  1

  0
LINE
  5
200
330
1FE
100
AcDbEntity
  8
Dimensions
440
 16777216
370
    -2
100
AcDbLine
 10
12.095626
 20
6.898151
 30
0.0
 11
12.095626
 21
8.192961
 31
0.0
  0
LINE
  5
201
330
1FE
100
AcDbEntity
  8
Dimensions
440
 16777216
370
    -2
100
AcDbLine
 10
15.717673
 20
5.677679
 30
0.0
 11
15.717673
 21
8.192961
 31
0.0
  0
LINE
  5
202
330
1FE
100
AcDbEntity
  8
Dimensions
440
 16777216
370
    -2
100
AcDbLine
 10
12.215626
 20
8.092961
 30
0.0
 11
13.627563
 21
8.092961
 31
0.0
  0
LINE
  5
203
330
1FE
100
AcDbEntity
  8
Dimensions
440
 16777216
370
    -2
100
AcDbLine
 10
15.597673
 20
8.092961
 30
0.0
 11
14.185735
 21
8.092961
 31
0.0
  0
SOLID
  5
204
330
1FE
100
AcDbEntity
  8
Dimensions
440
 16777216
100
AcDbTrace
 10
12.215626
 20
8.112961
 30
0.0
 11
12.215626
 21
8.072961
 31
0.0
 12
12.095626
 22
8.092961
 32
0.0
 13
12.095626
 23
8.092961
 33
0.0
  0
SOLID
  5
205
330
1FE
100
AcDbEntity
  8
Dimensions
440
 16777216
100
AcDbTrace
 10
15.597673
 20
8.112961
 30
0.0
 11
15.597673
 21
8.072961
 31
0.0
 12
15.717673
 22
8.092961
 32
0.0
 13
15.717673
 23
8.092961
 33
0.0
  0
MTEXT
  5
206
330
1FE
100
AcDbEntity
  8
Dimensions
440
 16777216
100
AcDbMText
 10
13.906649
 20
8.092961
 30
0.0
 40
0.12
 41
0.0
 46
0.0
 71
     5
 72
     1
  1
\A1;3.62in
 73
     1
 44
1.0
  0
POINT
  5
207
330
1FE
100
AcDbEntity
  8
Defpoints
 62
     0
440
 16777216
100
AcDbPoint
 10
12.095626
 20
6.848151
 30
0.0
  0
POINT
  5
208
330
1FE
100
AcDbEntity
  8
Defpoints
 62
     0
440
 16777216
100
AcDbPoint
 10
15.717673
 20
5.627679
 30
0.0
  0
POINT
  5
209
330
1FE
100
AcDbEntity
  8
Defpoints
 62
     0
440
 16777216
100
AcDbPoint
 10
15.717673
 20
8.092961
 30
0.0
  0
ENDBLK
  5
20A
330
1FE
100
AcDbEntity
  8
0
100
AcDbBlockEnd
  0
BLOCK
  5
20D
330
20C
100
AcDbEntity
  8
0
100
AcDbBlockBegin
  2
*D11
 70
     1
 10
0.0
 20
0.0
 30
0.0
  3
*D11
  1

  0
LINE
  5
20E
330
20C
100
AcDbEntity
  8
Dimensions
440
 16777216
370
    -2
100
AcDbLine
 10
8.775591
 20
4.593427
 30
0.0
 11
8.775591
 21
4.293326
 31
0.0
  0
LINE
  5
20F
330
20C
100
AcDbEntity
  8
Dimensions
440
 16777216
370
    -2
100
AcDbLine
 10
8.224409
 20
4.593427
 30
0.0
 11
8.224409
 21
4.293326
 31
0.0
  0
LINE
  5
210
330
20C
100
AcDbEntity
  8
Dimensions
440
 16777216
370
    -2
100
AcDbLine
 10
8.895591
 20
4.393326
 30
0.0
 11
9.015591
 21
4.393326
 31
0.0
  0
LINE
  5
211
330
20C
100
AcDbEntity
  8
Dimensions
440
 16777216
370
    -2
100
AcDbLine
 10
8.104409
 20
4.393326
 30
0.0
 11
7.984409
 21
4.393326
 31
0.0
  0
SOLID
  5
212
330
20C
100
AcDbEntity
  8
Dimensions
440
 16777216
100
AcDbTrace
 10
8.895591
 20
4.413326
 30
0.0
 11
8.895591
 21
4.373326
 31
0.0
 12
8.775591
 22
4.393326
 32
0.0
 13
8.775591
 23
4.393326
 33
0.0
  0
SOLID
  5
213
330
20C
100
AcDbEntity
  8
Dimensions
440
 16777216
100
AcDbTrace
 10
8.104409
 20
4.413326
 30
0.0
 11
8.104409
 21
4.373326
 31
0.0
 12
8.224409
 22
4.393326
 32
0.0
 13
8.224409
 23
4.393326
 33
0.0
  0
MTEXT
  5
214
330
20C
100
AcDbEntity
  8
Dimensions
440
 16777216
100
AcDbMText
 10
8.5
 20
4.393326
 30
0.0
 40
0.12
 41
0.0
 46
0.0
 71
     5
 72
     1
  1
\A1;.55in
 73
     1
 44
1.0
  0
POINT
  5
215
330
20C
100
AcDbEntity
  8
Defpoints
 62
     0
440
 16777216
100
AcDbPoint
 10
8.775591
 20
4.643427
 30
0.0
  0
POINT
  5
216
330
20C
100
AcDbEntity
  8
Defpoints
 62
     0
440
 16777216
100
AcDbPoint
 10
8.224409
 20
4.643427
 30
0.0
  0
POINT
  5
217
330
20C
100
AcDbEntity
  8
Defpoints
 62
     0
440
 16777216
100
AcDbPoint
 10
8.224409
 20
4.393326
 30
0.0
  0
ENDBLK
  5
218
330
20C
100
AcDbEntity
  8
0
100
AcDbBlockEnd
  0
BLOCK
  5
21B
330
21A
100
AcDbEntity
  8
0
100
AcDbBlockBegin
  2
*D12
 70
     1
 10
0.0
 20
0.0
 30
0.0
  3
*D12
  1

  0
LINE
  5
21C
330
21A
100
AcDbEntity
  8
Dimensions
440
 16777216
370
    -2
100
AcDbLine
 10
11.040349
 20
7.643826
 30
0.0
 11
11.228477
 21
7.635333
 31
0.0
  0
MTEXT
  5
21D
330
21A
100
AcDbEntity
  8
Dimensions
440
 16777216
100
AcDbMText
 10
10.742559
 20
7.643826
 30
0.0
 40
0.12
 41
0.0
 46
0.0
 71
     5
 72
     1
  1
\A1;∅1.5in
 73
     1
 44
1.0
  0
SOLID
  5
21E
330
21A
100
AcDbEntity
  8
Dimensions
440
 16777216
100
AcDbTrace
 10
11.229379
 20
7.655312
 30
0.0
 11
11.227575
 21
7.615353
 31
0.0
 12
11.348355
 22
7.629921
 32
0.0
 13
11.348355
 23
7.629921
 33
0.0
  0
ARC
  5
21F
330
21A
100
AcDbEntity
  8
Dimensions
440
 16777216
370
    -2
100
AcDbCircle
 10
12.095626
 20
7.596183
 30
0.0
 40
0.7480314960629917
100
AcDbArc
 50
169.755433
 51
246.204171
  0
POINT
  5
220
330
21A
100
AcDbEntity
  8
Defpoints
 62
     0
440
 16777216
100
AcDbPoint
 10
11.348355
 20
7.629921
 30
0.0
  0
POINT
  5
221
330
21A
100
AcDbEntity
  8
Defpoints
 62
     0
440
 16777216
100
AcDbPoint
 10
12.842896
 20
7.562445
 30
0.0
  0
ENDBLK
  5
222
330
21A
100
AcDbEntity
  8
0
100
AcDbBlockEnd
  0
BLOCK
  5
225
330
224
100
AcDbEntity
  8
0
100
AcDbBlockBegin
  2
*D13
 70
     1
 10
0.0
 20
0.0
 30
0.0
  3
*D13
  1

  0
LINE
  5
226
330
224
100
AcDbEntity
  8
Dimensions
440
 16777216
370
    -2
100
AcDbLine
 10
8.8933
 20
6.887605
 30
0.0
 11
8.890176
 21
7.277003
 31
0.0
  0
LINE
  5
227
330
224
100
AcDbEntity
  8
Dimensions
440
 16777216
370
    -2
100
AcDbLine
 10
8.105898
 20
6.881287
 30
0.0
 11
8.102774
 21
7.270686
 31
0.0
  0
LINE
  5
228
330
224
100
AcDbEntity
  8
Dimensions
440
 16777216
370
    -2
100
AcDbLine
 10
9.010974
 20
7.177969
 30
0.0
 11
9.13097
 21
7.178932
 31
0.0
  0
LINE
  5
229
330
224
100
AcDbEntity
  8
Dimensions
440
 16777216
370
    -2
100
AcDbLine
 10
7.98358
 20
7.169727
 30
0.0
 11
7.863584
 21
7.168764
 31
0.0
  0
SOLID
  5
22A
330
224
100
AcDbEntity
  8
Dimensions
440
 16777216
100
AcDbTrace
 10
9.010814
 20
7.197969
 30
0.0
 11
9.011134
 21
7.15797
 31
0.0
 12
8.890978
 22
7.177007
 32
0.0
 13
8.890978
 23
7.177007
 33
0.0
  0
SOLID
  5
22B
330
224
100
AcDbEntity
  8
Dimensions
440
 16777216
100
AcDbTrace
 10
7.98342
 20
7.189726
 30
0.0
 11
7.983741
 21
7.149727
 31
0.0
 12
8.103576
 22
7.170689
 32
0.0
 13
8.103576
 23
7.170689
 33
0.0
  0
MTEXT
  5
22C
330
224
100
AcDbEntity
  8
Dimensions
440
 16777216
100
AcDbMText
 10
8.497277
 20
7.173848
 30
0.0
 40
0.12
 41
0.0
 46
0.0
 71
     5
 72
     1
  1
\A1;.79in
 73
     1
 44
1.0
  0
POINT
  5
22D
330
224
100
AcDbEntity
  8
Defpoints
 62
     0
440
 16777216
100
AcDbPoint
 10
8.893701
 20
6.837606
 30
0.0
  0
POINT
  5
22E
330
224
100
AcDbEntity
  8
Defpoints
 62
     0
440
 16777216
100
AcDbPoint
 10
8.106299
 20
6.831289
 30
0.0
  0
POINT
  5
22F
330
224
100
AcDbEntity
  8
Defpoints
 62
     0
440
 16777216
100
AcDbPoint
 10
8.103576
 20
7.170689
 30
0.0
  0
ENDBLK
  5
230
330
224
100
AcDbEntity
  8
0
100
AcDbBlockEnd
  0
BLOCK
  5
233
330
232
100
AcDbEntity
  8
0
100
AcDbBlockBegin
  2
*D14
 70
     1
 10
0.0
 20
0.0
 30
0.0
  3
*D14
  1

  0
LINE
  5
234
330
232
100
AcDbEntity
  8
Dimensions
440
 16777216
370
    -2
100
AcDbLine
 10
11.741295
 20
6.894753
 30
0.0
 11
11.741295
 21
7.623576
 31
0.0
  0
LINE
  5
235
330
232
100
AcDbEntity
  8
Dimensions
440
 16777216
370
    -2
100
AcDbLine
 10
12.449956
 20
6.894753
 30
0.0
 11
12.449956
 21
7.623576
 31
0.0
  0
LINE
  5
236
330
232
100
AcDbEntity
  8
Dimensions
440
 16777216
370
    -2
100
AcDbLine
 10
11.621295
 20
7.523576
 30
0.0
 11
11.501295
 21
7.523576
 31
0.0
  0
LINE
  5
237
330
232
100
AcDbEntity
  8
Dimensions
440
 16777216
370
    -2
100
AcDbLine
 10
12.569956
 20
7.523576
 30
0.0
 11
12.689956
 21
7.523576
 31
0.0
  0
SOLID
  5
238
330
232
100
AcDbEntity
  8
Dimensions
440
 16777216
100
AcDbTrace
 10
11.621295
 20
7.543576
 30
0.0
 11
11.621295
 21
7.503576
 31
0.0
 12
11.741295
 22
7.523576
 32
0.0
 13
11.741295
 23
7.523576
 33
0.0
  0
SOLID
  5
239
330
232
100
AcDbEntity
  8
Dimensions
440
 16777216
100
AcDbTrace
 10
12.569956
 20
7.543576
 30
0.0
 11
12.569956
 21
7.503576
 31
0.0
 12
12.449956
 22
7.523576
 32
0.0
 13
12.449956
 23
7.523576
 33
0.0
  0
MTEXT
  5
23A
330
232
100
AcDbEntity
  8
Dimensions
440
 16777216
100
AcDbMText
 10
12.095626
 20
7.523576
 30
0.0
 40
0.12
 41
0.0
 46
0.0
 71
     5
 72
     1
  1
\A1;.71in
 73
     1
 44
1.0
  0
POINT
  5
23B
330
232
100
AcDbEntity
  8
Defpoints
 62
     0
440
 16777216
100
AcDbPoint
 10
11.741295
 20
6.844753
 30
0.0
  0
POINT
  5
23C
330
232
100
AcDbEntity
  8
Defpoints
 62
     0
440
 16777216
100
AcDbPoint
 10
12.449956
 20
6.844753
 30
0.0
  0
POINT
  5
23D
330
232
100
AcDbEntity
  8
Defpoints
 62
     0
440
 16777216
100
AcDbPoint
 10
12.449956
 20
7.523576
 30
0.0
  0
ENDBLK
  5
23E
330
232
100
AcDbEntity
  8
0
100
AcDbBlockEnd
  0
BLOCK
  5
241
330
240
100
AcDbEntity
  8
0
100
AcDbBlockBegin
  2
*D15
 70
     1
 10
0.0
 20
0.0
 30
0.0
  3
*D15
  1

  0
LINE
  5
4CF
330
240
100
AcDbEntity
  8
Dimensions
440
 16777216
370
    -2
100
AcDbLine
 10
15.767673
 20
5.667049
 30
0.0
 11
16.157084
 21
5.667049
 31
0.0
  0
LINE
  5
4D0
330
240
100
AcDbEntity
  8
Dimensions
440
 16777216
370
    -2
100
AcDbLine
 10
15.767673
 20
4.092246
 30
0.0
 11
16.157084
 21
4.092246
 31
0.0
  0
LINE
  5
4D1
330
240
100
AcDbEntity
  8
Dimensions
440
 16777216
370
    -2
100
AcDbLine
 10
16.057084
 20
5.547049
 30
0.0
 11
16.057084
 21
5.000916
 31
0.0
  0
LINE
  5
4D2
330
240
100
AcDbEntity
  8
Dimensions
440
 16777216
370
    -2
100
AcDbLine
 10
16.057084
 20
4.212246
 30
0.0
 11
16.057084
 21
4.758379
 31
0.0
  0
SOLID
  5
4D3
330
240
100
AcDbEntity
  8
Dimensions
440
 16777216
100
AcDbTrace
 10
16.037084
 20
5.547049
 30
0.0
 11
16.077084
 21
5.547049
 31
0.0
 12
16.057084
 22
5.667049
 32
0.0
 13
16.057084
 23
5.667049
 33
0.0
  0
SOLID
  5
4D4
330
240
100
AcDbEntity
  8
Dimensions
440
 16777216
100
AcDbTrace
 10
16.037084
 20
4.212246
 30
0.0
 11
16.077084
 21
4.212246
 31
0.0
 12
16.057084
 22
4.092246
 32
0.0
 13
16.057084
 23
4.092246
 33
0.0
  0
MTEXT
  5
4D5
330
240
100
AcDbEntity
  8
Dimensions
440
 16777216
100
AcDbMText
 10
16.057084
 20
4.879647
 30
0.0
 40
0.12
 41
0.0
 46
0.0
 71
     5
 72
     1
  1
\A1;1.57in
 73
     1
 44
1.0
  0
POINT
  5
4D6
330
240
100
AcDbEntity
  8
Defpoints
 62
     0
440
 16777216
100
AcDbPoint
 10
15.717673
 20
5.667049
 30
0.0
  0
POINT
  5
4D7
330
240
100
AcDbEntity
  8
Defpoints
 62
     0
440
 16777216
100
AcDbPoint
 10
15.717673
 20
4.092246
 30
0.0
  0
POINT
  5
4D8
330
240
100
AcDbEntity
  8
Defpoints
 62
     0
440
 16777216
100
AcDbPoint
 10
16.057084
 20
4.092246
 30
0.0
  0
ENDBLK
  5
242
330
240
100
AcDbEntity
  8
0
100
AcDbBlockEnd
  0
BLOCK
  5
24E
330
24D
100
AcDbEntity
  8
0
100
AcDbBlockBegin
  2
*D16
 70
     1
 10
0.0
 20
0.0
 30
0.0
  3
*D16
  1

  0
LINE
  5
4D9
330
24D
100
AcDbEntity
  8
Dimensions
440
 16777216
370
    -2
100
AcDbLine
 10
15.717673
 20
5.677679
 30
0.0
 11
15.717673
 21
6.192187
 31
0.0
  0
LINE
  5
4DA
330
24D
100
AcDbEntity
  8
Dimensions
440
 16777216
370
    -2
100
AcDbLine
 10
15.520822
 20
5.677679
 30
0.0
 11
15.520822
 21
6.192187
 31
0.0
  0
LINE
  5
4DB
330
24D
100
AcDbEntity
  8
Dimensions
440
 16777216
370
    -2
100
AcDbLine
 10
15.837673
 20
6.092187
 30
0.0
 11
15.957673
 21
6.092187
 31
0.0
  0
LINE
  5
4DC
330
24D
100
AcDbEntity
  8
Dimensions
440
 16777216
370
    -2
100
AcDbLine
 10
15.400822
 20
6.092187
 30
0.0
 11
15.280822
 21
6.092187
 31
0.0
  0
SOLID
  5
4DD
330
24D
100
AcDbEntity
  8
Dimensions
440
 16777216
100
AcDbTrace
 10
15.837673
 20
6.112187
 30
0.0
 11
15.837673
 21
6.072187
 31
0.0
 12
15.717673
 22
6.092187
 32
0.0
 13
15.717673
 23
6.092187
 33
0.0
  0
SOLID
  5
4DE
330
24D
100
AcDbEntity
  8
Dimensions
440
 16777216
100
AcDbTrace
 10
15.400822
 20
6.112187
 30
0.0
 11
15.400822
 21
6.072187
 31
0.0
 12
15.520822
 22
6.092187
 32
0.0
 13
15.520822
 23
6.092187
 33
0.0
  0
MTEXT
  5
4DF
330
24D
100
AcDbEntity
  8
Dimensions
440
 16777216
100
AcDbMText
 10
15.099063
 20
6.092187
 30
0.0
 40
0.12
 41
0.0
 46
0.0
 71
     5
 72
     1
  1
\A1;.2in
 73
     1
 44
1.0
  0
POINT
  5
4E0
330
24D
100
AcDbEntity
  8
Defpoints
 62
     0
440
 16777216
100
AcDbPoint
 10
15.717673
 20
5.627679
 30
0.0
  0
POINT
  5
4E1
330
24D
100
AcDbEntity
  8
Defpoints
 62
     0
440
 16777216
100
AcDbPoint
 10
15.520822
 20
5.627679
 30
0.0
  0
POINT
  5
4E2
330
24D
100
AcDbEntity
  8
Defpoints
 62
     0
440
 16777216
100
AcDbPoint
 10
15.520822
 20
6.092187
 30
0.0
  0
ENDBLK
  5
24F
330
24D
100
AcDbEntity
  8
0
100
AcDbBlockEnd
  0
BLOCK
  5
25B
330
25A
100
AcDbEntity
  8
0
100
AcDbBlockBegin
  2
*D17
 70
     1
 10
0.0
 20
0.0
 30
0.0
  3
*D17
  1

  0
LINE
  5
4E3
330
25A
100
AcDbEntity
  8
Dimensions
440
 16777216
370
    -2
100
AcDbLine
 10
9.691732
 20
5.667049
 30
0.0
 11
10.219473
 21
5.667049
 31
0.0
  0
LINE
  5
4E4
330
25A
100
AcDbEntity
  8
Dimensions
440
 16777216
370
    -2
100
AcDbLine
 10
9.691732
 20
4.092246
 30
0.0
 11
10.219473
 21
4.092246
 31
0.0
  0
LINE
  5
4E5
330
25A
100
AcDbEntity
  8
Dimensions
440
 16777216
370
    -2
100
AcDbLine
 10
10.119473
 20
5.547049
 30
0.0
 11
10.119473
 21
5.000916
 31
0.0
  0
LINE
  5
4E6
330
25A
100
AcDbEntity
  8
Dimensions
440
 16777216
370
    -2
100
AcDbLine
 10
10.119473
 20
4.212246
 30
0.0
 11
10.119473
 21
4.758379
 31
0.0
  0
SOLID
  5
4E7
330
25A
100
AcDbEntity
  8
Dimensions
440
 16777216
100
AcDbTrace
 10
10.099473
 20
5.547049
 30
0.0
 11
10.139473
 21
5.547049
 31
0.0
 12
10.119473
 22
5.667049
 32
0.0
 13
10.119473
 23
5.667049
 33
0.0
  0
SOLID
  5
4E8
330
25A
100
AcDbEntity
  8
Dimensions
440
 16777216
100
AcDbTrace
 10
10.099473
 20
4.212246
 30
0.0
 11
10.139473
 21
4.212246
 31
0.0
 12
10.119473
 22
4.092246
 32
0.0
 13
10.119473
 23
4.092246
 33
0.0
  0
MTEXT
  5
4E9
330
25A
100
AcDbEntity
  8
Dimensions
440
 16777216
100
AcDbMText
 10
10.119473
 20
4.879647
 30
0.0
 40
0.12
 41
0.0
 46
0.0
 71
     5
 72
     1
  1
\A1;1.57in
 73
     1
 44
1.0
  0
POINT
  5
4EA
330
25A
100
AcDbEntity
  8
Defpoints
 62
     0
440
 16777216
100
AcDbPoint
 10
9.641732
 20
5.667049
 30
0.0
  0
POINT
  5
4EB
330
25A
100
AcDbEntity
  8
Defpoints
 62
     0
440
 16777216
100
AcDbPoint
 10
9.641732
 20
4.092246
 30
0.0
  0
POINT
  5
4EC
330
25A
100
AcDbEntity
  8
Defpoints
 62
     0
440
 16777216
100
AcDbPoint
 10
10.119473
 20
4.092246
 30
0.0
  0
ENDBLK
  5
25C
330
25A
100
AcDbEntity
  8
0
100
AcDbBlockEnd
  0
BLOCK
  5
268
330
267
100
AcDbEntity
  8
0
100
AcDbBlockBegin
  2
*D18
 70
     1
 10
0.0
 20
0.0
 30
0.0
  3
*D18
  1

  0
LINE
  5
4ED
330
267
100
AcDbEntity
  8
Dimensions
440
 16777216
370
    -2
100
AcDbLine
 10
9.681102
 20
4.081616
 30
0.0
 11
9.681102
 21
3.701746
 31
0.0
  0
LINE
  5
4EE
330
267
100
AcDbEntity
  8
Dimensions
440
 16777216
370
    -2
100
AcDbLine
 10
7.318898
 20
4.081616
 30
0.0
 11
7.318898
 21
3.701746
 31
0.0
  0
LINE
  5
4EF
330
267
100
AcDbEntity
  8
Dimensions
440
 16777216
370
    -2
100
AcDbLine
 10
9.561102
 20
3.801746
 30
0.0
 11
8.78015
 21
3.801746
 31
0.0
  0
LINE
  5
4F0
330
267
100
AcDbEntity
  8
Dimensions
440
 16777216
370
    -2
100
AcDbLine
 10
7.438898
 20
3.801746
 30
0.0
 11
8.21985
 21
3.801746
 31
0.0
  0
SOLID
  5
4F1
330
267
100
AcDbEntity
  8
Dimensions
440
 16777216
100
AcDbTrace
 10
9.561102
 20
3.821746
 30
0.0
 11
9.561102
 21
3.781746
 31
0.0
 12
9.681102
 22
3.801746
 32
0.0
 13
9.681102
 23
3.801746
 33
0.0
  0
SOLID
  5
4F2
330
267
100
AcDbEntity
  8
Dimensions
440
 16777216
100
AcDbTrace
 10
7.438898
 20
3.821746
 30
0.0
 11
7.438898
 21
3.781746
 31
0.0
 12
7.318898
 22
3.801746
 32
0.0
 13
7.318898
 23
3.801746
 33
0.0
  0
MTEXT
  5
4F3
330
267
100
AcDbEntity
  8
Dimensions
440
 16777216
100
AcDbMText
 10
8.5
 20
3.801746
 30
0.0
 40
0.12
 41
0.0
 46
0.0
 71
     5
 72
     1
  1
\A1;2.36in
 73
     1
 44
1.0
  0
POINT
  5
4F4
330
267
100
AcDbEntity
  8
Defpoints
 62
     0
440
 16777216
100
AcDbPoint
 10
9.681102
 20
4.131616
 30
0.0
  0
POINT
  5
4F5
330
267
100
AcDbEntity
  8
Defpoints
 62
     0
440
 16777216
100
AcDbPoint
 10
7.318898
 20
4.131616
 30
0.0
  0
POINT
  5
4F6
330
267
100
AcDbEntity
  8
Defpoints
 62
     0
440
 16777216
100
AcDbPoint
 10
7.318898
 20
3.801746
 30
0.0
  0
ENDBLK
  5
269
330
267
100
AcDbEntity
  8
0
100
AcDbBlockEnd
  0
BLOCK
  5
275
330
274
100
AcDbEntity
  8
0
100
AcDbBlockBegin
  2
*D19
 70
     1
 10
0.0
 20
0.0
 30
0.0
  3
*D19
  1

  0
LINE
  5
4F7
330
274
100
AcDbEntity
  8
Dimensions
440
 16777216
370
    -2
100
AcDbLine
 10
12.095626
 20
6.898151
 30
0.0
 11
12.095626
 21
8.192961
 31
0.0
  0
LINE
  5
4F8
330
274
100
AcDbEntity
  8
Dimensions
440
 16777216
370
    -2
100
AcDbLine
 10
15.717673
 20
5.677679
 30
0.0
 11
15.717673
 21
8.192961
 31
0.0
  0
LINE
  5
4F9
330
274
100
AcDbEntity
  8
Dimensions
440
 16777216
370
    -2
100
AcDbLine
 10
12.215626
 20
8.092961
 30
0.0
 11
13.627563
 21
8.092961
 31
0.0
  0
LINE
  5
4FA
330
274
100
AcDbEntity
  8
Dimensions
440
 16777216
370
    -2
100
AcDbLine
 10
15.597673
 20
8.092961
 30
0.0
 11
14.185735
 21
8.092961
 31
0.0
  0
SOLID
  5
4FB
330
274
100
AcDbEntity
  8
Dimensions
440
 16777216
100
AcDbTrace
 10
12.215626
 20
8.112961
 30
0.0
 11
12.215626
 21
8.072961
 31
0.0
 12
12.095626
 22
8.092961
 32
0.0
 13
12.095626
 23
8.092961
 33
0.0
  0
SOLID
  5
4FC
330
274
100
AcDbEntity
  8
Dimensions
440
 16777216
100
AcDbTrace
 10
15.597673
 20
8.112961
 30
0.0
 11
15.597673
 21
8.072961
 31
0.0
 12
15.717673
 22
8.092961
 32
0.0
 13
15.717673
 23
8.092961
 33
0.0
  0
MTEXT
  5
4FD
330
274
100
AcDbEntity
  8
Dimensions
440
 16777216
100
AcDbMText
 10
13.906649
 20
8.092961
 30
0.0
 40
0.12
 41
0.0
 46
0.0
 71
     5
 72
     1
  1
\A1;3.62in
 73
     1
 44
1.0
  0
POINT
  5
4FE
330
274
100
AcDbEntity
  8
Defpoints
 62
     0
440
 16777216
100
AcDbPoint
 10
12.095626
 20
6.848151
 30
0.0
  0
POINT
  5
4FF
330
274
100
AcDbEntity
  8
Defpoints
 62
     0
440
 16777216
100
AcDbPoint
 10
15.717673
 20
5.627679
 30
0.0
  0
POINT
  5
500
330
274
100
AcDbEntity
  8
Defpoints
 62
     0
440
 16777216
100
AcDbPoint
 10
15.717673
 20
8.092961
 30
0.0
  0
ENDBLK
  5
276
330
274
100
AcDbEntity
  8
0
100
AcDbBlockEnd
  0
BLOCK
  5
282
330
281
100
AcDbEntity
  8
0
100
AcDbBlockBegin
  2
*D20
 70
     1
 10
0.0
 20
0.0
 30
0.0
  3
*D20
  1

  0
LINE
  5
501
330
281
100
AcDbEntity
  8
Dimensions
440
 16777216
370
    -2
100
AcDbLine
 10
8.775591
 20
4.593427
 30
0.0
 11
8.775591
 21
4.293326
 31
0.0
  0
LINE
  5
502
330
281
100
AcDbEntity
  8
Dimensions
440
 16777216
370
    -2
100
AcDbLine
 10
8.224409
 20
4.593427
 30
0.0
 11
8.224409
 21
4.293326
 31
0.0
  0
LINE
  5
503
330
281
100
AcDbEntity
  8
Dimensions
440
 16777216
370
    -2
100
AcDbLine
 10
8.895591
 20
4.393326
 30
0.0
 11
9.015591
 21
4.393326
 31
0.0
  0
LINE
  5
504
330
281
100
AcDbEntity
  8
Dimensions
440
 16777216
370
    -2
100
AcDbLine
 10
8.104409
 20
4.393326
 30
0.0
 11
7.984409
 21
4.393326
 31
0.0
  0
SOLID
  5
505
330
281
100
AcDbEntity
  8
Dimensions
440
 16777216
100
AcDbTrace
 10
8.895591
 20
4.413326
 30
0.0
 11
8.895591
 21
4.373326
 31
0.0
 12
8.775591
 22
4.393326
 32
0.0
 13
8.775591
 23
4.393326
 33
0.0
  0
SOLID
  5
506
330
281
100
AcDbEntity
  8
Dimensions
440
 16777216
100
AcDbTrace
 10
8.104409
 20
4.413326
 30
0.0
 11
8.104409
 21
4.373326
 31
0.0
 12
8.224409
 22
4.393326
 32
0.0
 13
8.224409
 23
4.393326
 33
0.0
  0
MTEXT
  5
507
330
281
100
AcDbEntity
  8
Dimensions
440
 16777216
100
AcDbMText
 10
8.5
 20
4.393326
 30
0.0
 40
0.12
 41
0.0
 46
0.0
 71
     5
 72
     1
  1
\A1;.55in
 73
     1
 44
1.0
  0
POINT
  5
508
330
281
100
AcDbEntity
  8
Defpoints
 62
     0
440
 16777216
100
AcDbPoint
 10
8.775591
 20
4.643427
 30
0.0
  0
POINT
  5
509
330
281
100
AcDbEntity
  8
Defpoints
 62
     0
440
 16777216
100
AcDbPoint
 10
8.224409
 20
4.643427
 30
0.0
  0
POINT
  5
50A
330
281
100
AcDbEntity
  8
Defpoints
 62
     0
440
 16777216
100
AcDbPoint
 10
8.224409
 20
4.393326
 30
0.0
  0
ENDBLK
  5
283
330
281
100
AcDbEntity
  8
0
100
AcDbBlockEnd
  0
BLOCK
  5
28F
330
28E
100
AcDbEntity
  8
0
100
AcDbBlockBegin
  2
*D21
 70
     1
 10
0.0
 20
0.0
 30
0.0
  3
*D21
  1

  0
LINE
  5
50B
330
28E
100
AcDbEntity
  8
Dimensions
440
 16777216
370
    -2
100
AcDbLine
 10
11.040349
 20
7.643826
 30
0.0
 11
11.228477
 21
7.635333
 31
0.0
  0
MTEXT
  5
50C
330
28E
100
AcDbEntity
  8
Dimensions
440
 16777216
100
AcDbMText
 10
10.742559
 20
7.643826
 30
0.0
 40
0.12
 41
0.0
 46
0.0
 71
     5
 72
     1
  1
\A1;∅1.5in
 73
     1
 44
1.0
  0
SOLID
  5
50D
330
28E
100
AcDbEntity
  8
Dimensions
440
 16777216
100
AcDbTrace
 10
11.229379
 20
7.655312
 30
0.0
 11
11.227575
 21
7.615353
 31
0.0
 12
11.348355
 22
7.629921
 32
0.0
 13
11.348355
 23
7.629921
 33
0.0
  0
ARC
  5
50E
330
28E
100
AcDbEntity
  8
Dimensions
440
 16777216
370
    -2
100
AcDbCircle
 10
12.095626
 20
7.596183
 30
0.0
 40
0.7480314960629917
100
AcDbArc
 50
169.755433
 51
246.204171
  0
POINT
  5
50F
330
28E
100
AcDbEntity
  8
Defpoints
 62
     0
440
 16777216
100
AcDbPoint
 10
11.348355
 20
7.629921
 30
0.0
  0
POINT
  5
510
330
28E
100
AcDbEntity
  8
Defpoints
 62
     0
440
 16777216
100
AcDbPoint
 10
12.842896
 20
7.562445
 30
0.0
  0
ENDBLK
  5
290
330
28E
100
AcDbEntity
  8
0
100
AcDbBlockEnd
  0
BLOCK
  5
298
330
297
100
AcDbEntity
  8
0
100
AcDbBlockBegin
  2
*D22
 70
     1
 10
0.0
 20
0.0
 30
0.0
  3
*D22
  1

  0
LINE
  5
511
330
297
100
AcDbEntity
  8
Dimensions
440
 16777216
370
    -2
100
AcDbLine
 10
8.8933
 20
6.887605
 30
0.0
 11
8.890176
 21
7.277003
 31
0.0
  0
LINE
  5
512
330
297
100
AcDbEntity
  8
Dimensions
440
 16777216
370
    -2
100
AcDbLine
 10
8.105898
 20
6.881287
 30
0.0
 11
8.102774
 21
7.270686
 31
0.0
  0
LINE
  5
513
330
297
100
AcDbEntity
  8
Dimensions
440
 16777216
370
    -2
100
AcDbLine
 10
9.010974
 20
7.177969
 30
0.0
 11
9.13097
 21
7.178932
 31
0.0
  0
LINE
  5
514
330
297
100
AcDbEntity
  8
Dimensions
440
 16777216
370
    -2
100
AcDbLine
 10
7.98358
 20
7.169727
 30
0.0
 11
7.863584
 21
7.168764
 31
0.0
  0
SOLID
  5
515
330
297
100
AcDbEntity
  8
Dimensions
440
 16777216
100
AcDbTrace
 10
9.010814
 20
7.197969
 30
0.0
 11
9.011134
 21
7.15797
 31
0.0
 12
8.890978
 22
7.177007
 32
0.0
 13
8.890978
 23
7.177007
 33
0.0
  0
SOLID
  5
516
330
297
100
AcDbEntity
  8
Dimensions
440
 16777216
100
AcDbTrace
 10
7.98342
 20
7.189726
 30
0.0
 11
7.983741
 21
7.149727
 31
0.0
 12
8.103576
 22
7.170689
 32
0.0
 13
8.103576
 23
7.170689
 33
0.0
  0
MTEXT
  5
517
330
297
100
AcDbEntity
  8
Dimensions
440
 16777216
100
AcDbMText
 10
8.497277
 20
7.173848
 30
0.0
 40
0.12
 41
0.0
 46
0.0
 71
     5
 72
     1
  1
\A1;.79in
 73
     1
 44
1.0
  0
POINT
  5
518
330
297
100
AcDbEntity
  8
Defpoints
 62
     0
440
 16777216
100
AcDbPoint
 10
8.893701
 20
6.837606
 30
0.0
  0
POINT
  5
519
330
297
100
AcDbEntity
  8
Defpoints
 62
     0
440
 16777216
100
AcDbPoint
 10
8.106299
 20
6.831289
 30
0.0
  0
POINT
  5
51A
330
297
100
AcDbEntity
  8
Defpoints
 62
     0
440
 16777216
100
AcDbPoint
 10
8.103576
 20
7.170689
 30
0.0
  0
ENDBLK
  5
299
330
297
100
AcDbEntity
  8
0
100
AcDbBlockEnd
  0
BLOCK
  5
2A5
330
2A4
100
AcDbEntity
  8
0
100
AcDbBlockBegin
  2
*D23
 70
     1
 10
0.0
 20
0.0
 30
0.0
  3
*D23
  1

  0
LINE
  5
51B
330
2A4
100
AcDbEntity
  8
Dimensions
440
 16777216
370
    -2
100
AcDbLine
 10
11.741295
 20
6.894753
 30
0.0
 11
11.741295
 21
7.623576
 31
0.0
  0
LINE
  5
51C
330
2A4
100
AcDbEntity
  8
Dimensions
440
 16777216
370
    -2
100
AcDbLine
 10
12.449956
 20
6.894753
 30
0.0
 11
12.449956
 21
7.623576
 31
0.0
  0
LINE
  5
51D
330
2A4
100
AcDbEntity
  8
Dimensions
440
 16777216
370
    -2
100
AcDbLine
 10
11.621295
 20
7.523576
 30
0.0
 11
11.501295
 21
7.523576
 31
0.0
  0
LINE
  5
51E
330
2A4
100
AcDbEntity
  8
Dimensions
440
 16777216
370
    -2
100
AcDbLine
 10
12.569956
 20
7.523576
 30
0.0
 11
12.689956
 21
7.523576
 31
0.0
  0
SOLID
  5
51F
330
2A4
100
AcDbEntity
  8
Dimensions
440
 16777216
100
AcDbTrace
 10
11.621295
 20
7.543576
 30
0.0
 11
11.621295
 21
7.503576
 31
0.0
 12
11.741295
 22
7.523576
 32
0.0
 13
11.741295
 23
7.523576
 33
0.0
  0
SOLID
  5
520
330
2A4
100
AcDbEntity
  8
Dimensions
440
 16777216
100
AcDbTrace
 10
12.569956
 20
7.543576
 30
0.0
 11
12.569956
 21
7.503576
 31
0.0
 12
12.449956
 22
7.523576
 32
0.0
 13
12.449956
 23
7.523576
 33
0.0
  0
MTEXT
  5
521
330
2A4
100
AcDbEntity
  8
Dimensions
440
 16777216
100
AcDbMText
 10
12.095626
 20
7.523576
 30
0.0
 40
0.12
 41
0.0
 46
0.0
 71
     5
 72
     1
  1
\A1;.71in
 73
     1
 44
1.0
  0
POINT
  5
522
330
2A4
100
AcDbEntity
  8
Defpoints
 62
     0
440
 16777216
100
AcDbPoint
 10
11.741295
 20
6.844753
 30
0.0
  0
POINT
  5
523
330
2A4
100
AcDbEntity
  8
Defpoints
 62
     0
440
 16777216
100
AcDbPoint
 10
12.449956
 20
6.844753
 30
0.0
  0
POINT
  5
524
330
2A4
100
AcDbEntity
  8
Defpoints
 62
     0
440
 16777216
100
AcDbPoint
 10
12.449956
 20
7.523576
 30
0.0
  0
ENDBLK
  5
2A6
330
2A4
100
AcDbEntity
  8
0
100
AcDbBlockEnd
  0
ENDSEC
  0
SECTION
  2
ENTITIES
  0
INSERT
  5
17E
330
70
100
AcDbEntity
  8
Titleblock
100
AcDbBlockReference
 66
     1
  2
Shower
 10
16.38
 20
0.38
 30
0.0
  0
ATTRIB
  5
19E
330
17E
100
AcDbEntity
  8
Titleblock
  6
Continuous
370
    25
100
AcDbText
 10
12.6925
 20
2.6925
 30
0.0
 40
0.12
  1
Railing Products and Mock Ups
100
AcDbAttribute
280
     0
  2
PROJECT
 70
     0
280
     1
1001
FD_ATT_APPNAME
1005
18C
  0
ATTRIB
  5
19F
330
17E
100
AcDbEntity
  8
Titleblock
  6
Continuous
370
    25
100
AcDbText
 10
14.6925
 20
1.0675
 30
0.0
 40
0.12
  1
2/11/2020
100
AcDbAttribute
280
     0
  2
DRAWN_DATE
 70
     0
280
     1
1001
FD_ATT_APPNAME
1005
18E
  0
ATTRIB
  5
1A0
330
17E
100
AcDbEntity
  8
Titleblock
  6
Continuous
370
    25
100
AcDbText
 10
12.0675
 20
2.1925
 30
0.0
 40
0.3048
  1
R13-4111-038-12
100
AcDbAttribute
280
     0
  2
TITLE_1
 70
     0
280
     1
1001
FD_ATT_APPNAME
1005
18F
  0
ATTRIB
  5
1A1
330
17E
100
AcDbEntity
  8
Titleblock
  6
Continuous
370
    25
100
AcDbText
 10
14.6925
 20
1.29994
 30
0.0
 40
0.12
  1
1:1
100
AcDbAttribute
280
     0
  2
SCALE
 70
     0
280
     1
1001
FD_ATT_APPNAME
1005
190
  0
SEQEND
  5
1A2
330
17E
100
AcDbEntity
  8
Titleblock
  0
INSERT
  5
1A3
330
70
100
AcDbEntity
  8
Border
100
AcDbBlockReference
  2
ANSI_B_SHEET
 10
0.0
 20
0.0
 30
0.0
  0
DIMENSION
  5
1C4
330
70
100
AcDbEntity
  8
Dimensions
100
AcDbDimension
280
     0
  2
*D15
 10
16.057084
 20
4.092246
 30
0.0
 11
16.057084
 21
4.879647
 31
0.0
 70
    33
 71
     5
 42
1.574803
 73
     0
 74
     0
 75
     0
  3
Standard
100
AcDbAlignedDimension
 13
15.717673
 23
5.667049
 33
0.0
 14
15.717673
 24
4.092246
 34
0.0
1001
ACAD_DIMASSOC_CALC_DIMLFAC
1040
-1.0
1001
ACAD_DIMASSOC_DIMLFAC
1040
-1.0
1001
ACAD_DIMASSOC_OVERRIDDEN_DIMLFAC
1040
0.0
1001
ACAD
1000
DSTYLE
1002
{
1070
   144
1040
1.0
1070
   176
1070
   256
1070
   177
1070
   256
1002
}
  0
DIMENSION
  5
1D3
330
70
100
AcDbEntity
  8
Dimensions
100
AcDbDimension
280
     0
  2
*D16
 10
15.520822
 20
6.092187
 30
0.0
 11
15.099063
 21
6.092187
 31
0.0
 70
    32
 71
     5
 42
0.19685
 73
     0
 74
     0
 75
     0
  3
Standard
100
AcDbAlignedDimension
 13
15.717673
 23
5.627679
 33
0.0
 14
15.520822
 24
5.627679
 34
0.0
 50
180.0
100
AcDbRotatedDimension
1001
ACAD_DIMASSOC_CALC_DIMLFAC
1040
-1.0
1001
ACAD_DIMASSOC_DIMLFAC
1040
-1.0
1001
ACAD_DIMASSOC_OVERRIDDEN_DIMLFAC
1040
0.0
1001
ACAD
1000
DSTYLE
1002
{
1070
   144
1040
1.0
1070
   176
1070
   256
1070
   177
1070
   256
1002
}
  0
DIMENSION
  5
1E1
330
70
100
AcDbEntity
  8
Dimensions
100
AcDbDimension
280
     0
  2
*D17
 10
10.119473
 20
4.092246
 30
0.0
 11
10.119473
 21
4.879647
 31
0.0
 70
    32
 71
     5
 42
1.574803
 73
     0
 74
     0
 75
     0
  3
Standard
100
AcDbAlignedDimension
 13
9.641732
 23
5.667049
 33
0.0
 14
9.641732
 24
4.092246
 34
0.0
 50
90.0
100
AcDbRotatedDimension
1001
ACAD_DIMASSOC_CALC_DIMLFAC
1040
-1.0
1001
ACAD_DIMASSOC_DIMLFAC
1040
-1.0
1001
ACAD_DIMASSOC_OVERRIDDEN_DIMLFAC
1040
0.0
1001
ACAD
1000
DSTYLE
1002
{
1070
   144
1040
1.0
1070
   176
1070
   256
1070
   177
1070
   256
1002
}
  0
DIMENSION
  5
1EF
330
70
100
AcDbEntity
  8
Dimensions
100
AcDbDimension
280
     0
  2
*D18
 10
7.318898
 20
3.801746
 30
0.0
 11
8.5
 21
3.801746
 31
0.0
 70
    32
 71
     5
 42
2.362205
 73
     0
 74
     0
 75
     0
  3
Standard
100
AcDbAlignedDimension
 13
9.681102
 23
4.131616
 33
0.0
 14
7.318898
 24
4.131616
 34
0.0
100
AcDbRotatedDimension
1001
ACAD_DIMASSOC_CALC_DIMLFAC
1040
-1.0
1001
ACAD_DIMASSOC_DIMLFAC
1040
-1.0
1001
ACAD_DIMASSOC_OVERRIDDEN_DIMLFAC
1040
0.0
1001
ACAD
1000
DSTYLE
1002
{
1070
   144
1040
1.0
1070
   176
1070
   256
1070
   177
1070
   256
1002
}
  0
DIMENSION
  5
1FD
330
70
100
AcDbEntity
  8
Dimensions
100
AcDbDimension
280
     0
  2
*D19
 10
15.717673
 20
8.092961
 30
0.0
 11
13.906649
 21
8.092961
 31
0.0
 70
   160
 71
     5
 42
3.622047
 73
     0
 74
     0
 75
     0
  3
Standard
100
AcDbAlignedDimension
 13
12.095626
 23
6.848151
 33
0.0
 14
15.717673
 24
5.627679
 34
0.0
100
AcDbRotatedDimension
1001
ACAD_DIMASSOC_CALC_DIMLFAC
1040
-1.0
1001
ACAD_DIMASSOC_DIMLFAC
1040
-1.0
1001
ACAD_DIMASSOC_OVERRIDDEN_DIMLFAC
1040
0.0
1001
ACAD
1000
DSTYLE
1002
{
1070
   144
1040
1.0
1002
}
  0
DIMENSION
  5
20B
330
70
100
AcDbEntity
  8
Dimensions
100
AcDbDimension
280
     0
  2
*D20
 10
8.224409
 20
4.393326
 30
0.0
 11
8.5
 21
4.393326
 31
0.0
 70
   160
 71
     5
 42
0.551181
 73
     0
 74
     0
 75
     0
  3
Standard
100
AcDbAlignedDimension
 13
8.775591
 23
4.643427
 33
0.0
 14
8.224409
 24
4.643427
 34
0.0
 50
180.0
100
AcDbRotatedDimension
1001
ACAD_DIMASSOC_CALC_DIMLFAC
1040
-1.0
1001
ACAD_DIMASSOC_DIMLFAC
1040
-1.0
1001
ACAD_DIMASSOC_OVERRIDDEN_DIMLFAC
1040
0.0
1001
ACAD
1000
DSTYLE
1002
{
1070
   144
1040
1.0
1002
}
  0
DIMENSION
  5
219
330
70
100
AcDbEntity
  8
Dimensions
100
AcDbDimension
280
     0
  2
*D21
 10
12.842896
 20
7.562445
 30
0.0
 11
11.040349
 21
7.643826
 31
0.0
 70
   163
 71
     5
 42
1.496063
 73
     0
 74
     0
 75
     0
  3
Standard
100
AcDbDiametricDimension
 15
11.348355
 25
7.629921
 35
0.0
 40
0.0
1001
ACAD_DIMASSOC_CALC_DIMLFAC
1040
-1.0
1001
ACAD_DIMASSOC_DIMLFAC
1040
-1.0
1001
ACAD_DIMASSOC_OVERRIDDEN_DIMLFAC
1040
0.0
1001
ACAD_DSTYLE_DIMRADIAL_EXTENSION
1070
   387
1070
     1
1070
   388
1040
4.363916
1070
   390
1040
5.060862
1001
ACAD
1000
DSTYLE
1002
{
1070
   144
1040
1.0
1070
   288
1070
     1
1002
}
  0
DIMENSION
  5
223
330
70
100
AcDbEntity
  8
Dimensions
100
AcDbDimension
280
     0
  2
*D22
 10
8.103576
 20
7.170689
 30
0.0
 11
8.497277
 21
7.173848
 31
0.0
 70
    33
 71
     5
 42
0.787427
 73
     0
 74
     0
 75
     0
  3
Standard
100
AcDbAlignedDimension
 13
8.893701
 23
6.837606
 33
0.0
 14
8.106299
 24
6.831289
 34
0.0
1001
ACAD_DIMASSOC_CALC_DIMLFAC
1040
-1.0
1001
ACAD_DIMASSOC_DIMLFAC
1040
-1.0
1001
ACAD_DIMASSOC_OVERRIDDEN_DIMLFAC
1040
0.0
1001
ACAD
1000
DSTYLE
1002
{
1070
   144
1040
1.0
1070
   176
1070
   256
1070
   177
1070
   256
1002
}
  0
DIMENSION
  5
231
330
70
100
AcDbEntity
  8
Dimensions
100
AcDbDimension
280
     0
  2
*D23
 10
12.449956
 20
7.523576
 30
0.0
 11
12.095626
 21
7.523576
 31
0.0
 70
    33
 71
     5
 42
0.708661
 73
     0
 74
     0
 75
     0
  3
Standard
100
AcDbAlignedDimension
 13
11.741295
 23
6.844753
 33
0.0
 14
12.449956
 24
6.844753
 34
0.0
1001
ACAD_DIMASSOC_CALC_DIMLFAC
1040
-1.0
1001
ACAD_DIMASSOC_DIMLFAC
1040
-1.0
1001
ACAD_DIMASSOC_OVERRIDDEN_DIMLFAC
1040
0.0
1001
ACAD
1000
DSTYLE
1002
{
1070
   144
1040
1.0
1002
}
  0
ARC
  5
3B4
330
70
100
AcDbEntity
  8
Visible
100
AcDbCircle
 10
8.259843
 20
4.63949
 30
-1.791708
 40
0.0393700787401573
100
AcDbArc
 50
180.0
 51
270.0
  0
LINE
  5
3B5
330
70
100
AcDbEntity
  8
Visible
100
AcDbLine
 10
8.220472
 20
4.63949
 30
-1.791708
 11
8.220472
 21
5.119805
 31
-1.791708
210
0.0
220
1.0
230
0.0
  0
ARC
  5
3B6
330
70
100
AcDbEntity
  8
Visible
100
AcDbCircle
 10
8.740157
 20
5.119805
 30
-1.791708
 40
0.0393700787401545
100
AcDbArc
 50
360.0
 51
25.841933
  0
LINE
  5
3B7
330
70
100
AcDbEntity
  8
Visible
100
AcDbLine
 10
8.779528
 20
5.119805
 30
-1.791708
 11
8.779528
 21
4.63949
 31
-1.791708
210
0.0
220
1.0
230
0.0
  0
ARC
  5
3B8
330
70
100
AcDbEntity
  8
Visible
100
AcDbCircle
 10
8.740157
 20
4.63949
 30
-1.791708
 40
0.0393700787401573
100
AcDbArc
 50
270.0
 51
0.0
  0
ARC
  5
3B9
330
70
100
AcDbEntity
  8
Visible
100
AcDbCircle
 10
8.259843
 20
5.119805
 30
-1.791708
 40
0.0393700787401514
100
AcDbArc
 50
154.158067
 51
180.0
  0
LINE
  5
3BA
330
70
100
AcDbEntity
  8
Visible
100
AcDbLine
 10
8.740157
 20
4.60012
 30
-1.791708
 11
8.259843
 21
4.60012
 31
-1.791708
210
0.0
220
1.0
230
0.0
  0
ARC
  5
3BB
330
70
100
AcDbEntity
  8
Visible
100
AcDbCircle
 10
-9.641732
 20
4.131616
 30
1.791708
 40
0.0393700787401577
210
0.0000000000000001
220
0.0
230
-1.0
100
AcDbArc
 50
180.0
 51
270.0
  0
LINE
  5
3BC
330
70
100
AcDbEntity
  8
Visible
100
AcDbLine
 10
9.641732
 20
4.092246
 30
-1.791708
 11
7.358268
 21
4.092246
 31
-1.791708
210
0.0
220
1.0
230
0.0
  0
LINE
  5
3BD
330
70
100
AcDbEntity
  8
Visible
100
AcDbLine
 10
9.681102
 20
5.627679
 30
-1.791708
 11
9.681102
 21
4.131616
 31
-1.791708
210
0.0
220
1.0
230
0.0
  0
ARC
  5
3BE
330
70
100
AcDbEntity
  8
Visible
100
AcDbCircle
 10
-9.641732
 20
5.627679
 30
1.791708
 40
0.0393700787401577
210
0.0000000000000001
220
0.0
230
-1.0
100
AcDbArc
 50
90.0
 51
180.0
  0
LINE
  5
3BF
330
70
100
AcDbEntity
  8
Visible
100
AcDbLine
 10
7.358268
 20
5.667049
 30
-1.791708
 11
8.224409
 21
5.667049
 31
-1.791708
210
0.0
220
1.0
230
0.0
  0
LINE
  5
3C0
330
70
100
AcDbEntity
  8
Visible
100
AcDbLine
 10
8.775591
 20
5.667049
 30
-1.791708
 11
9.641732
 21
5.667049
 31
-1.791708
210
0.0
220
1.0
230
0.0
  0
ARC
  5
3C1
330
70
100
AcDbEntity
  8
Visible
100
AcDbCircle
 10
-7.358268
 20
5.627679
 30
1.791708
 40
0.0393700787401577
210
0.0000000000000001
220
0.0
230
-1.0
100
AcDbArc
 50
0.0
 51
90.0
  0
LINE
  5
3C2
330
70
100
AcDbEntity
  8
Visible
100
AcDbLine
 10
7.318898
 20
4.131616
 30
-1.791708
 11
7.318898
 21
5.627679
 31
-1.791708
210
0.0
220
1.0
230
0.0
  0
ARC
  5
3C3
330
70
100
AcDbEntity
  8
Visible
100
AcDbCircle
 10
-7.358268
 20
4.131616
 30
1.791708
 40
0.0393700787401575
210
0.0000000000000001
220
0.0
230
-1.0
100
AcDbArc
 50
270.0
 51
360.0
  0
SPLINE
  5
3C4
330
70
100
AcDbEntity
  8
Visible
100
AcDbSpline
210
1.0
220
0.0
230
0.0
 70
     8
 71
     3
 72
    14
 73
    10
 74
     0
 42
0.000000001
 43
0.0000000001
 40
0.0000000000000049
 40
0.0000000000000049
 40
0.0000000000000049
 40
0.0000000000000049
 40
0.0184952434949276
 40
0.0184952434949276
 40
0.0480876330868038
 40
0.0480876330868038
 40
0.0954354564338058
 40
0.0954354564338058
 40
0.1479619479593861
 40
0.1479619479593861
 40
0.1479619479593861
 40
0.1479619479593861
 10
8.89370078740103
 20
6.813356209415783
 30
1.835614043682653
 10
8.89370078740103
 20
6.813963008743044
 30
1.837964167372774
 10
8.89370078740103
 20
6.814596968955679
 30
1.840307354035758
 10
8.89370078740103
 20
6.816312378485906
 30
1.84638148941849
 10
8.89370078740103
 20
6.817434562537364
 30
1.850101358251777
 10
8.89370078740103
 20
6.820484357738455
 30
1.859731410659151
 10
8.89370078740103
 20
6.822490606634336
 30
1.865613991074496
 10
8.89370078740103
 20
6.826790502714766
 30
1.877995582048242
 10
8.89370078740103
 20
6.829089332932267
 30
1.884494574707787
 10
8.89370078740103
 20
6.831288940768288
 30
1.891027452174967
1001
ACAD_VIEW_EDGE_ID
1071
       21
1071
       -1
1071
        3
1071
        0
  0
ARC
  5
3C5
330
70
100
AcDbEntity
  8
Visible
100
AcDbCircle
 10
-7.596183
 20
1.633489
 30
-8.893701
 40
0.8084999364118827
210
-1.0
220
0.0
230
-0.0000000000000001
100
AcDbArc
 50
0.0
 51
14.477512
  0
SPLINE
  5
3C6
330
70
100
AcDbEntity
  8
Visible
100
AcDbSpline
210
1.0
220
0.0
230
0.0
 70
     8
 71
     3
 72
    14
 73
    10
 74
     0
 42
0.000000001
 43
0.0000000001
 40
0.0
 40
0.0
 40
0.0
 40
0.0
 40
0.0184965619890943
 40
0.0184965619890943
 40
0.0480910611716451
 40
0.0480910611716451
 40
0.0954422598637264
 40
0.0954422598637264
 40
0.147972495912754
 40
0.147972495912754
 40
0.147972495912754
 40
0.147972495912754
 10
8.10629921259715
 20
6.831288940960845
 30
1.891027452747948
 10
8.10629921259715
 20
6.830514375947965
 30
1.888726979794228
 10
8.10629921259715
 20
6.829727637136004
 30
1.88643057077752
 10
8.10629921259715
 20
6.827665342504204
 30
1.880465526517582
 10
8.10629921259715
 20
6.826379680289713
 30
1.876800281463147
 10
8.10629921259715
 20
6.82305873337434
 30
1.867263477557571
 10
8.10629921259715
 20
6.821037928012946
 30
1.861387139781072
 10
8.10629921259715
 20
6.817031457137142
 30
1.848906620305569
 10
8.10629921259715
 20
6.815079642357024
 30
1.842288870762786
 10
8.10629921259715
 20
6.813356209415782
 30
1.835614043682653
1001
ACAD_VIEW_EDGE_ID
1071
       74
1071
       -1
1071
        3
1071
        0
  0
ARC
  5
3C7
330
70
100
AcDbEntity
  8
Visible
100
AcDbCircle
 10
7.596183
 20
1.633489
 30
8.106299
 40
0.8084999364119239
210
1.0
220
0.0
230
0.0000000000000001
100
AcDbArc
 50
165.522488
 51
180.0
  0
LINE
  5
3C8
330
70
100
AcDbEntity
  8
Visible
100
AcDbLine
 10
8.775591
 20
4.643427
 30
1.86971
 11
8.775591
 21
6.681305
 31
1.86971
210
0.0
220
1.0
230
0.0
  0
LINE
  5
3C9
330
70
100
AcDbEntity
  8
Visible
100
AcDbLine
 10
8.224409
 20
6.681305
 30
1.86971
 11
8.224409
 21
4.643427
 31
1.86971
210
0.0
220
1.0
230
0.0
  0
ARC
  5
3CA
330
70
100
AcDbEntity
  8
Visible
100
AcDbCircle
 10
8.26378
 20
4.643427
 30
1.86971
 40
0.0393700787401573
100
AcDbArc
 50
180.0
 51
270.0
  0
ARC
  5
3CB
330
70
100
AcDbEntity
  8
Visible
100
AcDbCircle
 10
8.73622
 20
4.643427
 30
1.86971
 40
0.0393700787401573
100
AcDbArc
 50
270.0
 51
0.0
  0
LINE
  5
3CC
330
70
100
AcDbEntity
  8
Visible
100
AcDbLine
 10
8.26378
 20
4.604057
 30
1.86971
 11
8.73622
 21
4.604057
 31
1.86971
210
0.0
220
1.0
230
0.0
  0
SPLINE
  5
3CD
330
70
100
AcDbEntity
  8
Visible
100
AcDbSpline
 70
     0
 71
     3
 72
    10
 73
     6
 74
     0
 42
0.000000001
 43
0.0000000001
 40
0.0573537368508373
 40
0.0573537368508373
 40
0.0573537368508373
 40
0.0573537368508373
 40
0.0670548160427167
 40
0.0670548160427167
 40
0.0807256807572387
 40
0.0807256807572387
 40
0.0807256807572387
 40
0.0807256807572387
 10
8.164748357978169
 20
6.902166533325536
 30
1.340329467608171
 10
8.16759810754047
 20
6.902728918558619
 30
1.339760871056569
 10
8.170403073014313
 20
6.903147205754915
 30
1.339298088914802
 10
8.177166458153806
 20
6.903894671380605
 30
1.338464641832615
 10
8.18112950197792
 20
6.904104795347106
 30
1.338213469029142
 10
8.185039370076992
 20
6.904104795347106
 30
1.338213469029142
1001
ACAD_VIEW_EDGE_ID
1071
       -1
1071
       -1
1071
        3
1071
        0
  0
SPLINE
  5
3CE
330
70
100
AcDbEntity
  8
Visible
100
AcDbSpline
 70
     0
 71
     3
 72
     8
 73
     4
 74
     0
 42
0.000000001
 43
0.0000000001
 40
0.0379467507435442
 40
0.0379467507435442
 40
0.0379467507435442
 40
0.0379467507435442
 40
0.0470861722962654
 40
0.0470861722962654
 40
0.0470861722962654
 40
0.0470861722962654
 10
8.848529038372362
 20
6.898520409730107
 30
1.343554242146637
 10
8.851426295652345
 20
6.897480323297788
 30
1.344351855950662
 10
8.85443921618571
 20
6.896207391921853
 30
1.345219608743718
 10
8.857669013086706
 20
6.894545721294034
 30
1.346147758116785
1001
ACAD_VIEW_EDGE_ID
1071
    -2049
1071
       -1
1071
        3
1071
        0
  0
SPLINE
  5
3CF
330
70
100
AcDbEntity
  8
Visible
100
AcDbSpline
 70
     0
 71
     3
 72
    18
 73
    14
 74
     0
 42
0.000000001
 43
0.0000000001
 40
0.0
 40
0.0
 40
0.0
 40
0.0
 40
0.0161451361514478
 40
0.0161451361514478
 40
0.0322902723028956
 40
0.0322902723028956
 40
0.0484354084543434
 40
0.0484354084543434
 40
0.0645805446057912
 40
0.0645805446057912
 40
0.0746028012335329
 40
0.0746028012335329
 40
0.080725680757239
 40
0.080725680757239
 40
0.080725680757239
 40
0.080725680757239
 10
8.185039370076992
 20
6.904104795347107
 30
1.928764650132507
 10
8.180421860202841
 20
6.904104795347107
 30
1.928764650132507
 10
8.175731338680634
 20
6.903811915225224
 30
1.928411135173519
 10
8.166394963976927
 20
6.90258331027311
 30
1.927066743237446
 10
8.161675153494797
 20
6.901654643811605
 30
1.926070973373498
 10
8.151807778298461
 20
6.898787264277061
 30
1.923572867561233
 10
8.146708628933993
 20
6.896928040462346
 30
1.922086118387596
 10
8.135063479670861
 20
6.890639709236423
 30
1.918744642656747
 10
8.128398942777494
 20
6.88643525229063
 30
1.916924031093003
 10
8.116784101621306
 20
6.872742771708235
 30
1.913815368869109
 10
8.112134725239229
 20
6.865577915577951
 30
1.912586594309686
 10
8.107381791391162
 20
6.850563955942551
 30
1.91059366778245
 10
8.10629921259715
 20
6.844116992132421
 30
1.909834842292184
 10
8.10629921259715
 20
6.837606179612469
 30
1.909079610761182
1001
ACAD_VIEW_EDGE_ID
1071
    -4097
1071
       -1
1071
        3
1071
        0
  0
SPLINE
  5
3D0
330
70
100
AcDbEntity
  8
Visible
100
AcDbSpline
 70
     0
 71
     3
 72
    20
 73
    16
 74
     0
 42
0.000000001
 43
0.0000000001
 40
0.0
 40
0.0
 40
0.0
 40
0.0
 40
0.0062258013423036
 40
0.0062258013423036
 40
0.0130735103784936
 40
0.0130735103784936
 40
0.0218476865667299
 40
0.0218476865667299
 40
0.0347645437397879
 40
0.0347645437397879
 40
0.0509096798912357
 40
0.0509096798912357
 40
0.0670548160426835
 40
0.0670548160426835
 40
0.080725680757239
 40
0.080725680757239
 40
0.080725680757239
 40
0.080725680757239
 10
8.89370078740103
 20
6.837606179612469
 30
1.909079610761182
 10
8.89370078740103
 20
6.8442264348648
 30
1.909847537266614
 10
8.892580161505975
 20
6.850778955094925
 30
1.910619181175206
 10
8.888682916163816
 20
6.862885728912067
 30
1.912232726926959
 10
8.885822315707628
 20
6.868267936075791
 30
1.913073879471994
 10
8.879013836427475
 20
6.878253022286871
 30
1.914961779741133
 10
8.875017817987099
 20
6.882291203674615
 30
1.91599953311379
 10
8.865918140198118
 20
6.89006315279846
 30
1.918464452293846
 10
8.860981136149348
 20
6.892933386233583
 30
1.919878225637148
 10
8.850862980894817
 20
6.897892364933174
 30
1.922787246068764
 10
8.845880026896338
 20
6.899563460325117
 30
1.924206568621229
 10
8.836127324109838
 20
6.902125544811912
 30
1.926550876041801
 10
8.831461711497468
 20
6.902941116304819
 30
1.927450234192292
 10
8.822833541844374
 20
6.903894671380604
 30
1.928513477327214
 10
8.81887049802026
 20
6.904104795347107
 30
1.928764650132507
 10
8.814960629919369
 20
6.904104795347107
 30
1.928764650132507
1001
ACAD_VIEW_EDGE_ID
1071
    -6145
1071
       -1
1071
        3
1071
        0
  0
ARC
  5
3D1
330
70
100
AcDbEntity
  8
Visible
100
AcDbCircle
 10
7.596183
 20
1.633489
 30
8.893701
 40
0.8070866141732285
210
1.0
220
0.0
230
0.0000000000000002
100
AcDbArc
 50
160.033942
 51
161.391715
  0
ARC
  5
3D2
330
70
100
AcDbEntity
  8
Visible
100
AcDbCircle
 10
-8.834646
 20
6.787683
 30
-1.633489
 40
0.0590551181102363
210
0.0000000000000001
220
0.0
230
-1.0
100
AcDbArc
 50
180.0
 51
261.786789
  0
LINE
  5
3D3
330
70
100
AcDbEntity
  8
Visible
100
AcDbLine
 10
8.185039
 20
6.904105
 30
1.928765
 11
8.814961
 21
6.904105
 31
1.928765
210
0.0
220
1.0
230
0.0
  0
ARC
  5
3D4
330
70
100
AcDbEntity
  8
Visible
100
AcDbCircle
 10
-8.165354
 20
6.787683
 30
-1.633489
 40
0.0590551181102363
210
0.0000000000000001
220
0.0
230
-1.0
100
AcDbArc
 50
278.213211
 51
0.0
  0
ARC
  5
3D5
330
70
100
AcDbEntity
  8
Visible
100
AcDbCircle
 10
-7.596183
 20
1.633489
 30
-8.106299
 40
0.8070866141732286
210
-1.0
220
0.0
230
-0.0000000000000002
100
AcDbArc
 50
18.608285
 51
19.966058
  0
ARC
  5
3D6
330
70
100
AcDbEntity
  8
Visible
100
AcDbCircle
 10
-8.854331
 20
6.651301
 30
-1.633489
 40
0.078740157480315
210
0.0000000000000001
220
0.0
230
-1.0
100
AcDbArc
 50
0.0
 51
81.786789
  0
ARC
  5
3D7
330
70
100
AcDbEntity
  8
Visible
100
AcDbCircle
 10
-8.145669
 20
6.651301
 30
-1.633489
 40
0.078740157480315
210
0.0000000000000001
220
0.0
230
-1.0
100
AcDbArc
 50
98.213211
 51
180.0
  0
ARC
  5
3D8
330
70
100
AcDbEntity
  8
Visible
100
AcDbCircle
 10
-4.131616
 20
1.141732
 30
-15.717673
 40
0.0393700787401578
210
-1.0
220
0.0
230
0.0000000000002969
100
AcDbArc
 50
0.0
 51
90.0
  0
ARC
  5
3D9
330
70
100
AcDbEntity
  8
Visible
100
AcDbCircle
 10
4.131616
 20
1.141732
 30
15.520822
 40
0.0393700787401577
210
1.0
220
0.0
230
-0.0000000000002969
100
AcDbArc
 50
90.0
 51
180.0
  0
LINE
  5
3DA
330
70
100
AcDbEntity
  8
Visible
100
AcDbLine
 10
15.520822
 20
4.092246
 30
1.141732
 11
15.717673
 21
4.092246
 31
1.141732
210
0.0
220
1.0
230
0.0
  0
LINE
  5
3DB
330
70
100
AcDbEntity
  8
Visible
100
AcDbLine
 10
15.520822
 20
5.627679
 30
1.181102
 11
15.520822
 21
4.131616
 31
1.181102
210
0.0
220
1.0
230
0.0
  0
ARC
  5
3DC
330
70
100
AcDbEntity
  8
Visible
100
AcDbCircle
 10
5.627679
 20
1.141732
 30
15.520822
 40
0.0393700787401577
210
1.0
220
0.0
230
-0.0000000000002969
100
AcDbArc
 50
0.0
 51
90.0
  0
ARC
  5
3DD
330
70
100
AcDbEntity
  8
Visible
100
AcDbCircle
 10
-5.627679
 20
1.141732
 30
-15.717673
 40
0.0393700787401577
210
-1.0
220
0.0
230
0.0000000000002969
100
AcDbArc
 50
90.0
 51
180.0
  0
LINE
  5
3DE
330
70
100
AcDbEntity
  8
Visible
100
AcDbLine
 10
15.717673
 20
5.667049
 30
1.141732
 11
15.520822
 21
5.667049
 31
1.141732
210
0.0
220
1.0
230
0.0
  0
LINE
  5
3DF
330
70
100
AcDbEntity
  8
Visible
100
AcDbLine
 10
15.717673
 20
4.131616
 30
1.181102
 11
15.717673
 21
5.627679
 31
1.181102
210
0.0
220
1.0
230
0.0
  0
ARC
  5
3E0
330
70
100
AcDbEntity
  8
Visible
100
AcDbCircle
 10
-12.390901
 20
6.84505
 30
-0.314961
 40
0.0590551181102364
210
-0.0000000000002969
220
0.0
230
-1.0
100
AcDbArc
 50
68.539872
 51
180.0
  0
SPLINE
  5
3E1
330
70
100
AcDbEntity
  8
Visible
100
AcDbSpline
 70
     0
 71
     3
 72
    20
 73
    16
 74
     0
 42
0.000000001
 43
0.0000000001
 40
0.0
 40
0.0
 40
0.0
 40
0.0
 40
0.0141269941325168
 40
0.0141269941325168
 40
0.0302721302839646
 40
0.0302721302839646
 40
0.0403628403786195
 40
0.0403628403786195
 40
0.0454081954259469
 40
0.0454081954259469
 40
0.0534807635016708
 40
0.0534807635016708
 40
0.066396872422829
 40
0.066396872422829
 40
0.080725680757239
 40
0.080725680757239
 40
0.080725680757239
 40
0.080725680757239
 10
12.36929561652687
 20
6.900010645246297
 30
0.3149606299230072
 10
12.36929561652687
 20
6.900010645246297
 30
0.3168145661620656
 10
12.36904663171844
 20
6.899912626896151
 30
0.3186948444999871
 10
12.36801467160148
 20
6.899508205863758
 30
0.3225101560328767
 10
12.36716470999454
 20
6.899175733688348
 30
0.3244260451738228
 10
12.3653773359656
 20
6.898482655523538
 30
0.3272192265485501
 10
12.36460200259898
 20
6.898183174619459
 30
0.3282035179636296
 10
12.36332227220737
 20
6.89769182117387
 30
0.329541815113771
 10
12.36287534295115
 20
6.897520672131156
 30
0.3299655153459753
 10
12.36166813065028
 20
6.897059812790669
 30
0.3310019593118341
 10
12.36088065796866
 20
6.896760563628012
 30
0.3315753145943745
 10
12.35875553905316
 20
6.895957452900107
 30
0.3328779637631669
 10
12.3573778703867
 20
6.895441016637718
 30
0.3334941746452387
 10
12.35434576350235
 20
6.894315492443816
 30
0.334404204693783
 10
12.352689022513
 20
6.893706906219047
 30
0.334645669294332
 10
12.35105094589016
 20
6.89311179378957
 30
0.334645669294332
1001
ACAD_VIEW_EDGE_ID
1071
        7
1071
       -1
1071
        3
1071
        0
  0
ARC
  5
3E2
330
70
100
AcDbEntity
  8
Visible
100
AcDbCircle
 10
11.80035
 20
6.84505
 30
0.314961
 40
0.0590551181102365
100
AcDbArc
 50
68.539872
 51
180.0
  0
SPLINE
  5
3E3
330
70
100
AcDbEntity
  8
Visible
100
AcDbSpline
 70
     0
 71
     3
 72
    20
 73
    16
 74
     0
 42
0.000000001
 43
0.0000000001
 40
0.0
 40
0.0
 40
0.0
 40
0.0
 40
0.0141269941325168
 40
0.0141269941325168
 40
0.0302721302839646
 40
0.0302721302839646
 40
0.0403628403786195
 40
0.0403628403786195
 40
0.0454081954259469
 40
0.0454081954259469
 40
0.0534807635016708
 40
0.0534807635016708
 40
0.0663968724228291
 40
0.0663968724228291
 40
0.080725680757239
 40
0.080725680757239
 40
0.080725680757239
 40
0.080725680757239
 10
11.84020016809154
 20
6.89311179378957
 30
0.334645669294332
 10
11.83858516297187
 20
6.893698524353843
 30
0.334645669294332
 10
11.83695201461523
 20
6.894298346456945
 30
0.3344110538637324
 10
11.83357934838568
 20
6.895549918080231
 30
0.3334138243117195
 10
11.83186743829355
 20
6.896193156304672
 30
0.3325908877814072
 10
11.82929051471183
 20
6.897170826631338
 30
0.3307900020026864
 10
11.82835541857275
 20
6.897528036692007
 30
0.3299879141650308
 10
11.82707568818114
 20
6.898019390137596
 30
0.3286496170130704
 10
11.82667037153624
 20
6.898175457534269
 30
0.328182473376728
 10
11.82566507290175
 20
6.898563457525611
 30
0.326903081688215
 10
11.82509690508959
 20
6.89878369577304
 30
0.326053571603552
 10
11.82378786210211
 20
6.899292575483612
 30
0.3237209386643371
 10
11.8231530477733
 20
6.899540903589895
 30
0.3221768332114152
 10
11.82221183098227
 20
6.899909730284791
 30
0.3187485407452186
 10
11.82195549745665
 20
6.900010645246297
 30
0.3168410509642854
 10
11.82195549745665
 20
6.900010645246297
 30
0.3149606299230072
1001
ACAD_VIEW_EDGE_ID
1071
       15
1071
       -1
1071
        3
1071
        0
  0
SPLINE
  5
3E4
330
70
100
AcDbEntity
  8
Visible
100
AcDbSpline
210
1.0
220
0.0
230
0.0
 70
     8
 71
     3
 72
    14
 73
    10
 74
     0
 42
0.000000001
 43
0.0000000001
 40
0.0
 40
0.0
 40
0.0
 40
0.0
 40
0.0399898372735211
 40
0.0399898372735211
 40
0.0760370145341599
 40
0.0760370145341599
 40
0.0985665003220592
 40
0.0985665003220592
 40
0.1126474289394962
 40
0.1126474289394962
 40
0.1126474289394962
 40
0.1126474289394962
 10
12.44995626565287
 20
6.844753072009323
 30
0.2362204724431649
 10
12.44995626565287
 20
6.844753072009323
 30
0.2414684825835138
 10
12.44995626565287
 20
6.844781307681472
 30
0.2467164347908692
 10
12.44995626565287
 20
6.844866967168898
 30
0.256694826637613
 10
12.44995626565287
 20
6.844920603934638
 30
0.2614252343191765
 10
12.44995626565287
 20
6.844994523475921
 30
0.2691121548887168
 10
12.44995626565287
 20
6.845019550635733
 30
0.2720686738430231
 10
12.44995626565287
 20
6.845044115797855
 30
0.2768730970055913
 10
12.44995626565287
 20
6.84504967723687
 30
0.278720971173243
 10
12.44995626565287
 20
6.84504967723687
 30
0.2805688620683213
1001
ACAD_VIEW_EDGE_ID
1071
       17
1071
       -1
1071
        3
1071
        0
  0
ARC
  5
3E5
330
70
100
AcDbEntity
  8
Visible
100
AcDbCircle
 10
-12.095626
 20
7.596183
 30
-0.334646
 40
0.7480314960629922
210
-0.0000000000002969
220
0.0
230
-1.0
100
AcDbArc
 50
250.033942
 51
289.966058
  0
ARC
  5
3E6
330
70
100
AcDbEntity
  8
Visible
100
AcDbCircle
 10
12.095626
 20
7.596183
 30
0.334646
 40
0.8661417322844856
100
AcDbArc
 50
288.608285
 51
289.966058
  0
ARC
  5
3E7
330
70
100
AcDbEntity
  8
Visible
100
AcDbCircle
 10
12.095626
 20
7.596183
 30
0.334646
 40
0.8661417322808169
100
AcDbArc
 50
250.033942
 51
251.391715
  0
ARC
  5
3E8
330
70
100
AcDbEntity
  8
Visible
100
AcDbCircle
 10
12.390901
 20
6.84505
 30
0.314961
 40
0.0590551181102363
100
AcDbArc
 50
291.460128
 51
0.0
  0
SPLINE
  5
3E9
330
70
100
AcDbEntity
  8
Visible
100
AcDbSpline
 70
     0
 71
     3
 72
    14
 73
    10
 74
     0
 42
0.000000001
 43
0.0000000001
 40
0.0
 40
0.0
 40
0.0
 40
0.0
 40
0.0100907095279552
 40
0.0100907095279552
 40
0.0262358447726835
 40
0.0262358447726835
 40
0.0520680611642487
 40
0.0520680611642487
 40
0.0807256762236414
 40
0.0807256762236414
 40
0.0807256762236414
 40
0.0807256762236414
 10
12.39138127045407
 20
6.782100565435445
 30
0.334645669294332
 10
12.39271698889934
 20
6.782585831288419
 30
0.334645669294332
 10
12.39406334878913
 20
6.783078744853948
 30
0.3345267977656476
 10
12.39750718771938
 20
6.784349128161543
 30
0.3339069240628305
 10
12.39955068348354
 20
6.785112513144056
 30
0.3332267415426031
 10
12.40451530189057
 20
6.786986212838732
 30
0.3307153791920427
 10
12.40719184549744
 20
6.788016888390421
 30
0.3284394079782942
 10
12.41129998283213
 20
6.789612060966462
 30
0.3224985178403585
 10
12.4125066785582
 20
6.790088709227443
 30
0.3187214717945608
 10
12.4125066785582
 20
6.790088709227443
 30
0.3149606299230072
1001
ACAD_VIEW_EDGE_ID
1071
       40
1071
       -1
1071
        3
1071
        0
  0
ARC
  5
3EA
330
70
100
AcDbEntity
  8
Visible
100
AcDbCircle
 10
11.80035
 20
6.84505
 30
0.314961
 40
0.0590551181102364
100
AcDbArc
 50
180.0
 51
248.539872
  0
SPLINE
  5
3EB
330
70
100
AcDbEntity
  8
Visible
100
AcDbSpline
 70
     0
 71
     3
 72
    14
 73
    10
 74
     0
 42
0.000000001
 43
0.0000000001
 40
0.0
 40
0.0
 40
0.0
 40
0.0
 40
0.0286576150593928
 40
0.0286576150593928
 40
0.0544898314509581
 40
0.0544898314509581
 40
0.0706349666956864
 40
0.0706349666956864
 40
0.0807256762236416
 40
0.0807256762236416
 40
0.0807256762236416
 40
0.0807256762236416
 10
11.7787444354235
 20
6.790088709227444
 30
0.3149606299248262
 10
11.7787444354235
 20
6.790088709227444
 30
0.3187214717963798
 10
11.77995113114957
 20
6.789612060966462
 30
0.3224985178421775
 10
11.78405926848609
 20
6.788016888390422
 30
0.3284394079782942
 10
11.78673581209295
 20
6.786986212838732
 30
0.3307153791920427
 10
11.79170043049817
 20
6.785112513144056
 30
0.3332267415426031
 10
11.79374392626414
 20
6.784349128161543
 30
0.3339069240628305
 10
11.79718776519257
 20
6.783078744853948
 30
0.3345267977656476
 10
11.79853412508419
 20
6.782585831288419
 30
0.334645669294332
 10
11.79986984352763
 20
6.782100565435446
 30
0.334645669294332
1001
ACAD_VIEW_EDGE_ID
1071
       42
1071
       -1
1071
        3
1071
        0
  0
ARC
  5
3EC
330
70
100
AcDbEntity
  8
Visible
100
AcDbCircle
 10
12.390901
 20
6.844753
 30
0.23622
 40
0.0590551181102358
100
AcDbArc
 50
295.376934
 51
0.0
  0
ARC
  5
3ED
330
70
100
AcDbEntity
  8
Visible
100
AcDbCircle
 10
-11.80035
 20
6.844753
 30
-0.23622
 40
0.0590551181102349
210
-0.0000000000002969
220
0.0
230
-1.0
100
AcDbArc
 50
295.376934
 51
0.0
  0
SPLINE
  5
3EE
330
70
100
AcDbEntity
  8
Visible
100
AcDbSpline
210
1.0
220
0.0
230
0.0
 70
     8
 71
     3
 72
    14
 73
    10
 74
     0
 42
0.000000001
 43
0.0000000001
 40
-0.0000000000073502
 40
-0.0000000000073502
 40
-0.0000000000073502
 40
-0.0000000000073502
 40
0.039989837332726
 40
0.039989837332726
 40
0.0760370146533581
 40
0.0760370146533581
 40
0.0985665004787532
 40
0.0985665004787532
 40
0.1126474291196251
 40
0.1126474291196251
 40
0.1126474291196251
 40
0.1126474291196251
 10
11.74129484833065
 20
6.84504967723687
 30
0.2805688621428999
 10
11.74129484833065
 20
6.845049677237293
 30
0.275320851993456
 10
11.74129484833065
 20
6.845005150121769
 30
0.2700730173801276
 10
11.74129484833065
 20
6.844906155156166
 30
0.2600948090730526
 10
11.74129484833065
 20
6.844853454237901
 30
0.2553643848386855
 10
11.74129484833065
 20
6.844791407868169
 30
0.2476773076723475
 10
11.74129484833065
 20
6.844773053445984
 30
0.2447207158347737
 10
11.74129484833065
 20
6.844756370497063
 30
0.2399162408073607
 10
11.74129484833065
 20
6.844753072009323
 30
0.2380683633437002
 10
11.74129484833065
 20
6.844753072009323
 30
0.2362204724449839
1001
ACAD_VIEW_EDGE_ID
1071
       65
1071
       -1
1071
        3
1071
        0
  0
ARC
  5
3EF
330
70
100
AcDbEntity
  8
Visible
100
AcDbCircle
 10
-11.741295
 20
6.720254
 30
-0.23622
 40
0.0787401574803144
210
-0.0000000000002855
220
0.0000000000000143
230
-1.0
100
AcDbArc
 50
115.376934
 51
180.0
  0
ARC
  5
3F0
330
70
100
AcDbEntity
  8
Visible
100
AcDbCircle
 10
-12.449956
 20
6.720254
 30
-0.23622
 40
0.0787401574803147
210
-0.000000000000288
220
-0.0000000000000112
230
-1.0
100
AcDbArc
 50
0.0
 51
64.623066
  0
LINE
  5
3F1
330
70
100
AcDbEntity
  8
Visible
100
AcDbLine
 10
12.371216
 20
5.194608
 30
0.23622
 11
12.371216
 21
6.720254
 31
0.23622
210
0.0
220
1.0
230
0.0
  0
LINE
  5
3F2
330
70
100
AcDbEntity
  8
Visible
100
AcDbLine
 10
11.820035
 20
6.720254
 30
0.23622
 11
11.820035
 21
4.643427
 31
0.23622
210
0.0
220
1.0
230
0.0
  0
ARC
  5
3F3
330
70
100
AcDbEntity
  8
Visible
100
AcDbCircle
 10
11.859405
 20
4.643427
 30
0.23622
 40
0.0393700787401573
100
AcDbArc
 50
180.0
 51
270.0
  0
LINE
  5
3F4
330
70
100
AcDbEntity
  8
Visible
100
AcDbLine
 10
11.859405
 20
4.604057
 30
0.23622
 11
15.520822
 21
4.604057
 31
0.23622
210
0.0
220
1.0
230
0.0
  0
ARC
  5
3F5
330
70
100
AcDbEntity
  8
Visible
100
AcDbCircle
 10
-12.410586
 20
5.194608
 30
-0.23622
 40
0.0393700787401576
210
-0.0000000000002969
220
0.0
230
-1.0
100
AcDbArc
 50
270.0
 51
0.0
  0
LINE
  5
3F6
330
70
100
AcDbEntity
  8
Visible
100
AcDbLine
 10
15.520822
 20
5.155238
 30
0.23622
 11
12.410586
 21
5.155238
 31
0.23622
210
0.0
220
1.0
230
0.0
  0
ARC
  5
3F7
330
70
100
AcDbEntity
  8
Visible
100
AcDbCircle
 10
5.900839
 20
-0.766442
 30
-1.326916
 40
0.0393700787401573
210
0.7071067811864423
220
-0.4071957137923947
230
0.578093115915811
100
AcDbArc
 50
134.889207
 51
210.842605
  0
LINE
  5
3F8
330
70
100
AcDbEntity
  8
Visible
100
AcDbLine
 10
2.36256
 20
5.416744
 30
-1.369716
 11
2.36256
 21
5.809424
 31
-1.093121
210
-0.0000000000000001
220
0.8175471248425399
230
0.5758617009853119
  0
ARC
  5
3F9
330
70
100
AcDbEntity
  8
Visible
100
AcDbCircle
 10
6.580106
 20
-0.767756
 30
-1.326916
 40
0.0393700787401577
210
0.7071067811864423
220
-0.4071957137923947
230
0.578093115915811
100
AcDbArc
 50
329.157395
 51
44.889207
  0
ARC
  5
3FA
330
70
100
AcDbEntity
  8
Visible
100
AcDbCircle
 10
6.241129
 20
-0.427465
 30
-1.326916
 40
0.0393700787401573
210
0.7071067811864423
220
-0.4071957137923947
230
0.578093115915811
100
AcDbArc
 50
44.889207
 51
134.889207
  0
LINE
  5
3FB
330
70
100
AcDbEntity
  8
Visible
100
AcDbLine
 10
2.390399
 20
5.857643
 30
-1.093209
 11
2.730033
 21
6.053225
 31
-1.370875
210
-0.0000000000000001
220
0.8175471248425399
230
0.5758617009853119
  0
LINE
  5
3FC
330
70
100
AcDbEntity
  8
Visible
100
AcDbLine
 10
2.744991
 20
5.189573
 30
-1.997508
 11
1.752889
 21
4.61826
 31
-1.186418
210
-0.0000000000000001
220
0.8175471248425399
230
0.5758617009853119
  0
LINE
  5
3FD
330
70
100
AcDbEntity
  8
Visible
100
AcDbLine
 10
3.395381
 20
6.819397
 30
-1.645036
 11
3.395381
 21
5.676896
 31
-2.449788
210
-0.0000000000000001
220
0.8175471248425399
230
0.5758617009853119
  0
ARC
  5
3FE
330
70
100
AcDbEntity
  8
Visible
100
AcDbCircle
 10
-7.576197
 20
-1.048071
 30
1.326916
 40
0.0393700787401577
210
-0.7071067811864423
220
0.4071957137923947
230
-0.578093115915811
100
AcDbArc
 50
135.110793
 51
225.110793
  0
LINE
  5
3FF
330
70
100
AcDbEntity
  8
Visible
100
AcDbLine
 10
1.752889
 20
5.905736
 30
-0.279549
 11
3.367543
 21
6.835553
 31
-1.599604
210
-0.0000000000000001
220
0.8175471248425399
230
0.5758617009853119
  0
ARC
  5
400
330
70
100
AcDbEntity
  8
Visible
100
AcDbCircle
 10
-5.964669
 20
0.569702
 30
1.326916
 40
0.0393700787401577
210
-0.7071067811864423
220
0.4071957137923947
230
-0.578093115915811
100
AcDbArc
 50
45.110793
 51
135.110793
  0
LINE
  5
401
330
70
100
AcDbEntity
  8
Visible
100
AcDbLine
 10
1.72505
 20
4.634416
 30
-1.140987
 11
1.72505
 21
5.857518
 31
-0.279461
210
-0.0000000000000001
220
0.8175471248425399
230
0.5758617009853119
  0
ARC
  5
402
330
70
100
AcDbEntity
  8
Visible
100
AcDbCircle
 10
-4.904749
 20
-0.486127
 30
1.326916
 40
0.0393700787401575
210
-0.7071067811864423
220
0.4071957137923947
230
-0.578093115915811
100
AcDbArc
 50
315.110793
 51
45.110793
  0
ARC
  5
403
330
70
100
AcDbEntity
  8
Visible
100
AcDbCircle
 10
4.904749
 20
-0.486127
 30
-1.523766
 40
0.0393700787401582
210
0.7071067811864423
220
-0.4071957137923947
230
0.578093115915811
100
AcDbArc
 50
134.889207
 51
180.0
  0
LINE
  5
404
330
70
100
AcDbEntity
  8
Visible Narrow
100
AcDbLine
 10
1.72505
 20
4.634416
 30
-1.140987
 11
1.585856
 21
4.714572
 31
-1.254785
210
-0.0000000000000001
220
0.8175471248425399
230
0.5758617009853119
  0
LINE
  5
405
330
70
100
AcDbEntity
  8
Visible Narrow
100
AcDbLine
 10
1.585856
 20
5.937674
 30
-0.393259
 11
1.72505
 21
5.857518
 31
-0.279461
210
-0.0000000000000001
220
0.8175471248425399
230
0.5758617009853119
  0
LINE
  5
406
330
70
100
AcDbEntity
  8
Visible
100
AcDbLine
 10
1.585856
 20
5.937674
 30
-0.393259
 11
1.585856
 21
4.714572
 31
-1.254785
210
-0.0000000000000001
220
0.8175471248425399
230
0.5758617009853119
  0
ARC
  5
407
330
70
100
AcDbEntity
  8
Visible
100
AcDbCircle
 10
7.576197
 20
-1.048071
 30
-1.523766
 40
0.0393700787401572
210
0.7071067811864423
220
-0.4071957137923947
230
0.578093115915811
100
AcDbArc
 50
0.0
 51
44.889207
  0
LINE
  5
408
330
70
100
AcDbEntity
  8
Visible Narrow
100
AcDbLine
 10
3.228348
 20
6.91571
 30
-1.713402
 11
3.367543
 21
6.835553
 31
-1.599604
210
-0.0000000000000001
220
0.8175471248425399
230
0.5758617009853119
  0
LINE
  5
409
330
70
100
AcDbEntity
  8
Visible
100
AcDbLine
 10
3.228348
 20
6.91571
 30
-1.713402
 11
1.613695
 21
5.985893
 31
-0.393347
210
-0.0000000000000001
220
0.8175471248425399
230
0.5758617009853119
  0
LINE
  5
40A
330
70
100
AcDbEntity
  8
Visible Narrow
100
AcDbLine
 10
1.752889
 20
5.905736
 30
-0.279549
 11
1.613695
 21
5.985893
 31
-0.393347
210
-0.0000000000000001
220
0.8175471248425399
230
0.5758617009853119
  0
ARC
  5
40B
330
70
100
AcDbEntity
  8
Visible
100
AcDbCircle
 10
5.964669
 20
0.569702
 30
-1.523766
 40
0.0393700787401578
210
0.7071067811864423
220
-0.4071957137923947
230
0.578093115915811
100
AcDbArc
 50
44.889207
 51
134.889207
  0
LINE
  5
40C
330
70
100
AcDbEntity
  8
Visible
100
AcDbLine
 10
1.733242
 20
4.61633
 30
-1.163746
 11
1.594048
 21
4.696486
 31
-1.277544
210
-0.0000000000000001
220
0.8175471248425399
230
0.5758617009853119
  0
LINE
  5
40D
330
70
100
AcDbEntity
  8
Visible
100
AcDbLine
 10
3.38719
 20
6.837484
 30
-1.622276
 11
3.247995
 21
6.91764
 31
-1.736074
210
-0.0000000000000001
220
0.8175471248425399
230
0.5758617009853119
  0
ARC
  5
40E
330
70
100
AcDbEntity
  8
Visible Narrow
100
AcDbCircle
 10
2.868741
 20
5.402586
 30
4.632647
 40
0.0590551181102362
210
0.7071067811866528
220
0.4071957137922735
230
-0.5780931159156389
100
AcDbArc
 50
0.0
 51
66.349334
  0
SPLINE
  5
40F
330
70
100
AcDbEntity
  8
Visible Narrow
100
AcDbSpline
 70
     0
 71
     3
 72
    10
 73
     6
 74
     0
 42
0.000000001
 43
0.0000000001
 40
-0.0808541257761366
 40
-0.0808541257761366
 40
-0.0808541257761366
 40
-0.0808541257761366
 40
-0.0521509111256081
 40
-0.0521509111256081
 40
-0.0395681249462108
 40
-0.0395681249462108
 40
-0.0395681249462108
 40
-0.0395681249462108
 10
4.508935434339583
 20
5.884810721504436
 30
1.78286366458451
 10
4.498921610872095
 20
5.891628855250019
 30
1.775417584489332
 10
4.491655549467033
 20
5.90002655353328
 30
1.765776635897054
 10
4.48666304828621
 20
5.913003928468242
 30
1.750274331607215
 10
4.485883106456277
 20
5.91706291481114
 30
1.745349497394272
 10
4.485881256066569
 20
5.921111873351946
 30
1.740357875029076
1001
ACAD_VIEW_EDGE_ID
1071
        1
1071
       -1
1071
        3
1071
        0
  0
ARC
  5
410
330
70
100
AcDbEntity
  8
Visible Narrow
100
AcDbCircle
 10
-7.397975
 20
1.967961
 30
0.280255
 40
0.0590551181102364
210
-0.6646061752895316
220
0.661883675460815
230
-0.3467111649853565
100
AcDbArc
 50
38.048071
 51
128.048071
  0
SPLINE
  5
411
330
70
100
AcDbEntity
  8
Visible Narrow
100
AcDbSpline
 70
     0
 71
     3
 72
    20
 73
    16
 74
     0
 42
0.000000001
 43
0.0000000001
 40
0.0
 40
0.0
 40
0.0
 40
0.0
 40
0.0141269941325168
 40
0.0141269941325168
 40
0.0302721302839645
 40
0.0302721302839645
 40
0.0403628403786194
 40
0.0403628403786194
 40
0.0454081954259468
 40
0.0454081954259468
 40
0.0534807635016707
 40
0.0534807635016707
 40
0.0663968724228289
 40
0.0663968724228289
 40
0.0807256807572387
 40
0.0807256807572387
 40
0.0807256807572387
 40
0.0807256807572387
 10
4.564952631813504
 20
5.946025000109329
 30
1.79234520623504
 10
4.563810650741835
 20
5.94716230315771
 30
1.791749458554477
 10
4.562821738622552
 20
5.94841323140281
 30
1.791015131746462
 10
4.561142051241951
 20
5.951215853017856
 30
1.789209657239553
 10
4.560513452007946
 20
5.952773909256393
 30
1.788114696115371
 10
4.559964710415989
 20
5.955355826028608
 30
1.786146917556834
 10
4.559870659344234
 20
5.956355235957744
 30
1.785348367055121
 10
4.559912072296903
 20
5.957822990148088
 30
1.784117854984287
 10
4.559955790579444
 20
5.958305844686947
 30
1.783703364937537
 10
4.560149603637547
 20
5.959553369069908
 30
1.782606035525532
 10
4.560348542667817
 20
5.960310696579654
 30
1.781913312464894
 10
4.561072330063872
 20
5.962209604552299
 30
1.780101129015747
 10
4.561715295984505
 20
5.96329987127774
 30
1.778984513135583
 10
4.563473924059145
 20
5.965380649921826
 30
1.776670923081837
 10
4.564641467840921
 20
5.966344252235103
 30
1.775478144785665
 10
4.565971126311161
 20
5.967109951623569
 30
1.774391086326431
1001
ACAD_VIEW_EDGE_ID
1071
        3
1071
       -1
1071
        3
1071
        0
  0
ARC
  5
412
330
70
100
AcDbEntity
  8
Visible Narrow
100
AcDbCircle
 10
-7.925038
 20
1.555461
 30
0.280255
 40
0.0590551181102352
210
-0.6646061752896511
220
0.6618836754607505
230
-0.3467111649852505
100
AcDbArc
 50
128.048071
 51
180.0
  0
ARC
  5
413
330
70
100
AcDbEntity
  8
Visible Narrow
100
AcDbCircle
 10
-2.868741
 20
5.402586
 30
-5.262569
 40
0.0590551181102362
210
-0.7071067811866528
220
-0.4071957137922735
230
0.5780931159156389
100
AcDbArc
 50
113.650666
 51
180.0
  0
SPLINE
  5
414
330
70
100
AcDbEntity
  8
Visible Narrow
100
AcDbSpline
 70
     0
 71
     3
 72
    20
 73
    16
 74
     0
 42
0.000000001
 43
0.0000000001
 40
0.0
 40
0.0
 40
0.0
 40
0.0
 40
0.0141269941325168
 40
0.0141269941325168
 40
0.0302721302839646
 40
0.0302721302839646
 40
0.0403628403786195
 40
0.0403628403786195
 40
0.0454081954259469
 40
0.0454081954259469
 40
0.0534807635016708
 40
0.0534807635016708
 40
0.066396872422829
 40
0.066396872422829
 40
0.080725680757239
 40
0.080725680757239
 40
0.080725680757239
 40
0.080725680757239
 10
5.011392720759069
 20
6.223611188657741
 30
1.410237942442108
 10
5.012703651645644
 20
6.224366103548163
 30
1.409166194665885
 10
5.014209268055857
 20
6.22495022466046
 30
1.4081667100927
 10
5.017636806709198
 20
6.225752960174759
 30
1.406324783216405
 10
5.019592558529986
 20
6.225915189627812
 30
1.405517119856085
 10
5.022831500316534
 20
6.225758126006439
 30
1.404536552383433
 10
5.024075742932474
 20
6.225598373076536
 30
1.404243295590276
 10
5.02592696796055
 20
6.225220516612353
 30
1.403926486917043
 10
5.026542595975662
 20
6.225071135445432
 30
1.403841357279816
 10
5.028129100536354
 20
6.224624825083083
 30
1.403674686034719
 10
5.029091351218632
 20
6.224292987102671
 30
1.403626139697735
 10
5.031515149274675
 20
6.223301500081106
 30
1.403639123085667
 10
5.03292503502471
 20
6.222569226752057
 30
1.403781920724213
 10
5.035712546781361
 20
6.220784957092291
 30
1.404360532458667
 10
5.037054780826657
 20
6.219711114694291
 30
1.404828232498402
 10
5.038213075914974
 20
6.218557564458933
 30
1.405432490859311
1001
ACAD_VIEW_EDGE_ID
1071
        7
1071
       -1
1071
        3
1071
        0
  0
ARC
  5
415
330
70
100
AcDbEntity
  8
Visible Narrow
100
AcDbCircle
 10
-6.377282
 20
-1.574068
 30
-4.224583
 40
0.0590551181102364
210
-0.664606175289594
220
0.1035588097146582
230
-0.7399825705362395
100
AcDbArc
 50
59.255662
 51
149.255662
  0
SPLINE
  5
416
330
70
100
AcDbEntity
  8
Visible Narrow
100
AcDbSpline
 70
     0
 71
     3
 72
    14
 73
    10
 74
     0
 42
0.000000001
 43
0.0000000001
 40
-0.0808541257761367
 40
-0.0808541257761367
 40
-0.0808541257761367
 40
-0.0808541257761367
 40
-0.0707473600541196
 40
-0.0707473600541196
 40
-0.0545765348988923
 40
-0.0545765348988923
 40
-0.0287032146505285
 40
-0.0287032146505285
 40
0.0
 40
0.0
 40
0.0
 40
0.0
 10
5.010034728093707
 20
5.666457549180449
 30
2.105784090686938
 10
5.006283251675633
 20
5.664297217588682
 30
2.108851099445018
 10
5.002109433721308
 20
5.662292338674888
 30
2.111604646703199
 10
4.99051560765347
 20
5.657672818134415
 30
2.117685571329275
 10
4.982734798503408
 20
5.655434574182436
 30
2.120343231814331
 10
4.9616143175841
 20
5.651325652164814
 30
2.124325732846045
 10
4.948043642796257
 20
5.650564611724803
 30
2.123798229215026
 10
4.921410995571569
 20
5.652546851330953
 30
2.117121965244223
 10
4.908693152951492
 20
5.655657118012641
 30
2.110425130560543
 10
4.898679329482185
 20
5.660372139099308
 30
2.101497665482384
1001
ACAD_VIEW_EDGE_ID
1071
        9
1071
       -1
1071
        3
1071
        0
  0
ARC
  5
417
330
70
100
AcDbEntity
  8
Visible Narrow
100
AcDbCircle
 10
-2.451967
 20
5.820976
 30
-4.632647
 40
0.0590551181102367
210
-0.7071067811866528
220
-0.4071957137922735
230
0.5780931159156389
100
AcDbArc
 50
45.110793
 51
156.570921
  0
SPLINE
  5
418
330
70
100
AcDbEntity
  8
Visible Narrow
100
AcDbSpline
 70
     0
 71
     3
 72
    20
 73
    16
 74
     0
 42
0.000000001
 43
0.0000000001
 40
0.0
 40
0.0
 40
0.0
 40
0.0
 40
0.0141269941325168
 40
0.0141269941325168
 40
0.0302721302839646
 40
0.0302721302839646
 40
0.0403628403786195
 40
0.0403628403786195
 40
0.0454081954259469
 40
0.0454081954259469
 40
0.0534807635016708
 40
0.0534807635016708
 40
0.0663968724228291
 40
0.0663968724228291
 40
0.080725680757239
 40
0.080725680757239
 40
0.080725680757239
 40
0.080725680757239
 10
4.952999036121219
 20
5.744235401150945
 30
2.090804641227805
 10
4.951688105235554
 20
5.743480486262342
 30
2.091876389002209
 10
4.95018248882625
 20
5.742736095907275
 30
2.092762983551438
 10
4.946754950172
 20
5.741272093889165
 30
2.094139129256291
 10
4.94479919835394
 20
5.740566241095621
 30
2.09456387663522
 10
4.941560256567392
 20
5.739590056593442
 30
2.094746209766526
 10
4.940316013950543
 20
5.739260130020738
 30
2.094694547393373
 10
4.938464788920647
 20
5.738834577290617
 30
2.094445452803483
 10
4.937849160907354
 20
5.738704113640778
 30
2.094333466086027
 10
4.936262656345753
 20
5.73839687554755
 30
2.093969354840737
 10
4.935300405663475
 20
5.738239412940856
 30
2.093673248917184
 10
4.932876607609252
 20
5.737917738229953
 30
2.092735304106099
 10
4.931466721859216
 20
5.737805589594245
 30
2.0919977147405
 10
4.928679210098927
 20
5.737749521117621
 30
2.090122810452157
 10
4.92733697605545
 20
5.737828267679105
 30
2.088954187416675
 10
4.926178680968952
 20
5.738008753002759
 30
2.087664524142383
1001
ACAD_VIEW_EDGE_ID
1071
       11
1071
       -1
1071
        3
1071
        0
  0
ARC
  5
419
330
70
100
AcDbEntity
  8
Visible Narrow
100
AcDbCircle
 10
2.451967
 20
5.820976
 30
5.262569
 40
0.0590551181102364
210
0.7071067811866528
220
0.4071957137922735
230
-0.5780931159156389
100
AcDbArc
 50
23.429079
 51
134.889207
  0
SPLINE
  5
41A
330
70
100
AcDbEntity
  8
Visible Narrow
100
AcDbSpline
 70
     0
 71
     3
 72
    10
 73
     6
 74
     0
 42
0.000000001
 43
0.0000000001
 40
-0.039556248929872
 40
-0.039556248929872
 40
-0.039556248929872
 40
-0.039556248929872
 40
-0.0286576150593928
 40
-0.0286576150593928
 40
0.0
 40
0.0
 40
0.0
 40
0.0
 10
5.478511875001096
 20
5.953206741545727
 30
1.694791850850378
 10
5.478515786993376
 20
5.950315726879125
 30
1.699552091737132
 10
5.477934589820144
 20
5.947373262457404
 30
1.704324807691591
 10
5.473596346284104
 20
5.936704693332103
 30
1.721344693456558
 10
5.46609358970327
 20
5.929084380975837
 30
1.732934479618052
 10
5.455456322541614
 20
5.922958786214621
 30
1.741630946802615
1001
ACAD_VIEW_EDGE_ID
1071
       13
1071
       -1
1071
        3
1071
        0
  0
ARC
  5
41B
330
70
100
AcDbEntity
  8
Visible Narrow
100
AcDbCircle
 10
-6.719429
 20
-2.149295
 30
-4.224583
 40
0.0590551181102308
210
-0.6646061752896028
220
0.1035588097147615
230
-0.7399825705362173
100
AcDbArc
 50
149.255662
 51
180.0
  0
SPLINE
  5
41C
330
70
100
AcDbEntity
  8
Visible Narrow
100
AcDbSpline
 70
     0
 71
     3
 72
    20
 73
    16
 74
     0
 42
0.000000001
 43
0.0000000001
 40
0.0
 40
0.0
 40
0.0
 40
0.0
 40
0.0141269941325168
 40
0.0141269941325168
 40
0.0302721302839646
 40
0.0302721302839646
 40
0.0403628403786195
 40
0.0403628403786195
 40
0.0454081954259469
 40
0.0454081954259469
 40
0.0534807635016708
 40
0.0534807635016708
 40
0.0663968724228291
 40
0.0663968724228291
 40
0.080725680757239
 40
0.080725680757239
 40
0.080725680757239
 40
0.080725680757239
 10
5.399439125070422
 20
6.010541317352362
 30
1.700751808766653
 10
5.400581106142091
 20
6.010363374075495
 30
1.702023307769195
 10
5.401570018257736
 20
6.010093211502862
 30
1.703448463731547
 10
5.403249705641066
 20
6.009337027453511
 30
1.706695402564946
 10
5.403878304874162
 20
6.008830726334053
 30
1.708531196203693
 10
5.404427046467937
 20
6.007847392691473
 30
1.711624980554915
 10
5.404521097539692
 20
6.007432054880155
 30
1.712834938247397
 10
5.404479684586114
 20
6.006767709882296
 30
1.714631353579534
 10
5.404435966300844
 20
6.006540040246363
 30
1.71522559009827
 10
5.40424215324456
 20
6.005926932417423
 30
1.71676978817959
 10
5.404043214215199
 20
6.005529715200282
 30
1.717716164785088
 10
5.403319426819145
 20
6.004462873516786
 30
1.720114436904623
 10
5.402676460899421
 20
6.003778646650062
 30
1.721517058074823
 10
5.400917832824781
 20
6.002300934412232
 30
1.724255434466613
 10
5.399750289039367
 20
6.001502337573583
 30
1.725564438884248
 10
5.398420630569127
 20
6.000736638185117
 30
1.726651497343482
1001
ACAD_VIEW_EDGE_ID
1071
       15
1071
       -1
1071
        3
1071
        0
  0
LINE
  5
41D
330
70
100
AcDbEntity
  8
Visible Narrow
100
AcDbLine
 10
4.565971
 20
5.96711
 30
1.774391
 11
5.011393
 21
6.223611
 31
1.410238
210
-0.0000000000000001
220
0.8175471248425399
230
0.5758617009853119
  0
ARC
  5
41E
330
70
100
AcDbEntity
  8
Visible Narrow
100
AcDbCircle
 10
3.192512
 20
6.141884
 30
4.612962
 40
0.748031496062993
210
0.7071067811866528
220
0.4071957137922735
230
-0.5780931159156389
100
AcDbArc
 50
204.923148
 51
244.855265
  0
LINE
  5
41F
330
70
100
AcDbEntity
  8
Visible Narrow
100
AcDbLine
 10
5.398421
 20
6.000737
 30
1.726651
 11
4.952999
 21
5.744235
 31
2.090805
210
-0.0000000000000001
220
0.8175471248425399
230
0.5758617009853119
  0
ARC
  5
420
330
70
100
AcDbEntity
  8
Visible Narrow
100
AcDbCircle
 10
-3.192512
 20
6.141884
 30
-5.282254
 40
0.7480314960629921
210
-0.7071067811866528
220
-0.4071957137922735
230
0.5780931159156389
100
AcDbArc
 50
295.144735
 51
335.076852
  0
ARC
  5
421
330
70
100
AcDbEntity
  8
Visible Narrow
100
AcDbCircle
 10
2.451967
 20
5.820976
 30
5.262569
 40
0.0590551181102374
210
0.7071067811866528
220
0.4071957137922735
230
-0.5780931159156389
100
AcDbArc
 50
134.889207
 51
180.0
  0
ARC
  5
422
330
70
100
AcDbEntity
  8
Visible Narrow
100
AcDbCircle
 10
-2.451967
 20
5.820976
 30
-4.667039
 40
0.0590551181102374
210
-0.7071067811866528
220
-0.4071957137922735
230
0.5780931159156389
100
AcDbArc
 50
360.0
 51
45.110793
  0
LINE
  5
423
330
70
100
AcDbEntity
  8
Visible Narrow
100
AcDbLine
 10
5.034353
 20
5.680462
 30
2.085902
 11
5.431138
 21
5.908955
 31
1.761513
210
-0.0000000000000001
220
0.8175471248425399
230
0.5758617009853119
  0
ARC
  5
424
330
70
100
AcDbEntity
  8
Visible Narrow
100
AcDbCircle
 10
-2.451967
 20
5.820976
 30
-5.228177
 40
0.0590551181102367
210
-0.7071067811866559
220
-0.4071957136469963
230
0.5780931160179648
100
AcDbArc
 50
360.0
 51
45.110793
  0
ARC
  5
425
330
70
100
AcDbEntity
  8
Visible Narrow
100
AcDbCircle
 10
2.451967
 20
5.820976
 30
4.632647
 40
0.0590551181102374
210
0.7071067811866528
220
0.4071957137922735
230
-0.5780931159156389
100
AcDbArc
 50
134.889207
 51
180.0
  0
ARC
  5
426
330
70
100
AcDbEntity
  8
Visible Narrow
100
AcDbCircle
 10
-2.451757
 20
5.820767
 30
-4.711388
 40
0.0590551181102346
210
-0.707106781186657
220
-0.4071957137922827
230
0.5780931159156271
100
AcDbArc
 50
360.0
 51
45.110793
  0
SPLINE
  5
427
330
70
100
AcDbEntity
  8
Visible Narrow
100
AcDbSpline
210
-0.7071067810130279
220
0.4071957433363775
230
-0.5780930953178121
 70
     8
 71
     3
 72
    14
 73
    10
 74
     0
 42
0.000000001
 43
0.0000000001
 40
0.0
 40
0.0
 40
0.0
 40
0.0
 40
0.0399898373130724
 40
0.0399898373130724
 40
0.0760370146093629
 40
0.0760370146093629
 40
0.0985665004195445
 40
0.0985665004195445
 40
0.112647429050908
 40
0.112647429050908
 40
0.112647429050908
 40
0.112647429050908
 10
5.065712427400832
 20
5.698277715058793
 30
2.060094144109825
 10
5.062001523837899
 20
5.696140747821118
 30
2.063127982646619
 10
5.058290661241336
 20
5.694026888167172
 30
2.066178047534776
 10
5.051234872694841
 20
5.69003376044111
 30
2.071995815194895
 10
5.047889969342215
 20
5.688151409289275
 30
2.074761318672244
 10
5.042454495675521
 20
5.685081760887442
 30
2.079247641973779
 10
5.040363921071367
 20
5.683898339922052
 30
2.080971197412509
 10
5.036966680871593
 20
5.681962082579957
 30
2.083762747508444
 10
5.035660036513583
 20
5.68121418287501
 30
2.084834193463393
 10
5.034353380331232
 20
5.680461729622948
 30
2.085902446469845
1001
ACAD_VIEW_EDGE_ID
1071
       60
1071
       -1
1071
        3
1071
        0
  0
ARC
  5
428
330
70
100
AcDbEntity
  8
Visible Narrow
100
AcDbCircle
 10
-2.451757
 20
5.820767
 30
-5.183829
 40
0.0590551181102351
210
-0.7071067811866528
220
-0.4071957137922735
230
0.5780931159156389
100
AcDbArc
 50
360.0
 51
45.110793
  0
LINE
  5
429
330
70
100
AcDbEntity
  8
Visible Narrow
100
AcDbLine
 10
5.399779
 20
5.890654
 30
1.786979
 11
5.065712
 21
5.698278
 31
2.060094
210
-0.0000000000000001
220
0.8175471248425399
230
0.5758617009853119
  0
SPLINE
  5
42A
330
70
100
AcDbEntity
  8
Visible Narrow
100
AcDbSpline
210
-0.7071067811085703
220
0.4071957005954167
230
-0.5780931253067143
 70
     8
 71
     3
 72
    14
 73
    10
 74
     0
 42
0.000000001
 43
0.0000000001
 40
-0.0000000000073502
 40
-0.0000000000073502
 40
-0.0000000000073502
 40
-0.0000000000073502
 40
0.039989837332726
 40
0.039989837332726
 40
0.0760370146533581
 40
0.0760370146533581
 40
0.0985665004787532
 40
0.0985665004787532
 40
0.1126474291196251
 40
0.1126474291196251
 40
0.1126474291196251
 40
0.1126474291196251
 10
5.431137670325917
 20
5.908954605783947
 30
1.761512591001519
 10
5.427426766762074
 20
5.906817638546272
 30
1.764546429540132
 10
5.423715987320612
 20
5.90464433976922
 30
1.767554525144078
 10
5.416660328561739
 20
5.900500323065898
 30
1.773265851266842
 10
5.413315413508463
 20
5.898531029109108
 30
1.77597012851038
 10
5.407879829116247
 20
5.895350158403743
 30
1.78037824477542
 10
5.405789202979214
 20
5.894131241276227
 30
1.782076860554298
 10
5.402391926106794
 20
5.89216124054019
 30
1.784844687421355
 10
5.401085279421387
 20
5.891406096088758
 30
1.785911033190132
 10
5.399778623236308
 20
5.890653642834877
 30
1.786979286196583
1001
ACAD_VIEW_EDGE_ID
1071
       65
1071
       -1
1071
        3
1071
        0
  0
ARC
  5
42B
330
70
100
AcDbEntity
  8
Visible Narrow
100
AcDbCircle
 10
-7.397975
 20
1.967961
 30
0.280255
 40
0.0590551181102371
210
-0.6646061752895868
220
0.6618836754607875
230
-0.346711164985303
100
AcDbArc
 50
0.0
 51
38.048071
  0
ARC
  5
42C
330
70
100
AcDbEntity
  8
Visible Narrow
100
AcDbCircle
 10
6.377282
 20
-1.574068
 30
4.224583
 40
0.0590551181102353
210
0.6646061752895961
220
-0.1035588097146593
230
0.7399825705362377
100
AcDbArc
 50
120.744338
 51
180.0
  0
ARC
  5
42D
330
70
100
AcDbEntity
  8
Visible Narrow
100
AcDbCircle
 10
6.793827
 20
-0.815237
 30
3.680744
 40
0.0590551181102353
210
0.6846531968813299
220
-0.1898787733305202
230
0.7037016778711502
100
AcDbArc
 50
125.546127
 51
180.0
  0
ARC
  5
42E
330
70
100
AcDbEntity
  8
Visible Narrow
100
AcDbCircle
 10
6.493929
 20
-1.38125
 30
4.093465
 40
0.0590551181102371
210
0.6701408505248673
220
-0.1250321461675299
230
0.7316270927751029
100
AcDbArc
 50
122.004055
 51
180.0
  0
SPLINE
  5
42F
330
70
100
AcDbEntity
  8
Visible Narrow
100
AcDbSpline
210
0.7071067814667205
220
0.4071957126356994
230
-0.5780931163877329
 70
     8
 71
     3
 72
    14
 73
    10
 74
     0
 42
0.000000001
 43
0.0000000001
 40
0.0
 40
0.0
 40
0.0
 40
0.0
 40
0.0184965619890943
 40
0.0184965619890943
 40
0.0480910611716451
 40
0.0480910611716451
 40
0.0954422598637264
 40
0.0954422598637264
 40
0.147972495912754
 40
0.147972495912754
 40
0.147972495912754
 40
0.147972495912754
 10
4.885914526136367
 20
5.662558260169134
 30
2.08742398141112
 10
4.884287846110602
 20
5.66286175949699
 30
2.085648051506723
 10
4.882664039722477
 20
5.663153651352331
 30
2.083867460514738
 10
4.878446116476517
 20
5.663896568760719
 30
2.079231512996557
 10
4.875854396843898
 20
5.664337951388915
 30
2.076372296432964
 10
4.869110858131172
 20
5.665506266461306
 30
2.068946729606977
 10
4.864955659840781
 20
5.666246982403208
 30
2.064385954779936
 10
4.856130599887002
 20
5.668053517694715
 30
2.054863879255208
 10
4.851451144308704
 20
5.669152536381261
 30
2.049914228420675
 10
4.846731328817078
 20
5.670461509713277
 30
2.04506309781027
1001
ACAD_VIEW_EDGE_ID
1071
       74
1071
       -1
1071
        3
1071
        0
  0
ARC
  5
430
330
70
100
AcDbEntity
  8
Visible Narrow
100
AcDbCircle
 10
7.440432
 20
1.779249
 30
0.382559
 40
0.0590551181102364
210
0.68465319688135
220
-0.5986523357518876
230
0.4157708273784452
100
AcDbArc
 50
140.532697
 51
180.0
  0
ARC
  5
431
330
70
100
AcDbEntity
  8
Visible Narrow
100
AcDbCircle
 10
3.192512
 20
6.141884
 30
4.553907
 40
0.8084999364119036
210
0.7071067811866528
220
0.4071957137922735
230
-0.5780931159156389
100
AcDbArc
 50
210.411694
 51
239.366719
  0
ARC
  5
432
330
70
100
AcDbEntity
  8
Visible Narrow
100
AcDbCircle
 10
7.411746
 20
1.930379
 30
-0.11629
 40
0.0590551181102367
210
0.6701408510143202
220
-0.6467847525998797
230
0.364116359981415
100
AcDbArc
 50
141.632571
 51
180.0
  0
SPLINE
  5
433
330
70
100
AcDbEntity
  8
Visible Narrow
100
AcDbSpline
210
0.707106781213247
220
0.4071957138278986
230
-0.5780931158580158
 70
     8
 71
     3
 72
    14
 73
    10
 74
     0
 42
0.000000001
 43
0.0000000001
 40
-0.0000000000000004
 40
-0.0000000000000004
 40
-0.0000000000000004
 40
-0.0000000000000004
 40
0.0184952723600329
 40
0.0184952723600329
 40
0.0480877081360862
 40
0.0480877081360862
 40
0.0954356053777715
 40
0.0954356053777715
 40
0.147962178880266
 40
0.147962178880266
 40
0.147962178880266
 40
0.147962178880266
 10
4.56088343500469
 20
5.835070364066268
 30
1.811368974083961
 10
4.559221644014179
 20
5.836523413672694
 30
1.810359814673574
 10
4.557564755284694
 20
5.837995846549347
 30
1.809370304705225
 10
4.553269679896949
 20
5.841871648677624
 30
1.80684672004827
 10
4.550639328845683
 20
5.844303808235963
 30
1.805342508885587
 10
4.543829863983411
 20
5.850718466414946
 30
1.801531708510083
 10
4.539670298234888
 20
5.854753985548086
 30
1.799286376368399
 10
4.530915177561475
 20
5.863311097202313
 30
1.794604801832974
 10
4.526319686981516
 20
5.867836869996608
 30
1.792171582636001
 10
4.521700237813639
 20
5.872295319716613
 30
1.789661637132667
1001
ACAD_VIEW_EDGE_ID
1071
       80
1071
       -1
1071
        3
1071
        0
  0
ARC
  5
434
330
70
100
AcDbEntity
  8
Visible Narrow
100
AcDbCircle
 10
-3.192512
 20
6.141884
 30
-4.553907
 40
0.8070866141732244
210
-0.7071067811866528
220
-0.4071957137922735
230
0.5780931159156389
100
AcDbArc
 50
296.502509
 51
333.719078
  0
ARC
  5
435
330
70
100
AcDbEntity
  8
Visible Narrow
100
AcDbCircle
 10
-2.321875
 20
5.774742
 30
-5.183829
 40
0.0787401574803084
210
-0.7071067811866528
220
-0.4071957137922735
230
0.5780931159156389
100
AcDbArc
 50
205.907914
 51
225.110793
  0
SPLINE
  5
436
330
70
100
AcDbEntity
  8
Visible Narrow
100
AcDbSpline
 70
     0
 71
     3
 72
    14
 73
    10
 74
     0
 42
0.000000001
 43
0.0000000001
 40
-0.4807891542558601
 40
-0.4807891542558601
 40
-0.4807891542558601
 40
-0.4807891542558601
 40
-0.3954490793754449
 40
-0.3954490793754449
 40
-0.3185228146945072
 40
-0.3185228146945072
 40
-0.2704438992689213
 40
-0.2704438992689213
 40
-0.2436421057185962
 40
-0.2436421057185962
 40
-0.2436421057185962
 40
-0.2436421057185962
 10
5.344100923930092
 20
5.820932399470621
 30
1.669765867922251
 10
5.346740667834275
 20
5.822452526885172
 30
1.667607752882759
 10
5.349033100050839
 20
5.823671866088261
 30
1.66472016737498
 10
5.352434515110509
 20
5.825305811226826
 30
1.658246264672925
 10
5.353649006416709
 20
5.825797886596774
 30
1.654773869333439
 10
5.354962655344571
 20
5.826210016012737
 30
1.648634762626898
 10
5.355304765020811
 20
5.82627396251155
 30
1.646165538650166
 10
5.355583020015366
 20
5.82625023042965
 30
1.642244290409507
 10
5.355632222248097
 20
5.826217486698624
 30
1.640829677913643
 10
5.355632164762575
 20
5.826163041376275
 30
1.6393985098548
1001
ACAD_VIEW_EDGE_ID
1071
       89
1071
       -1
1071
        3
1071
        0
  0
ARC
  5
437
330
70
100
AcDbEntity
  8
Visible Narrow
100
AcDbCircle
 10
-2.321875
 20
5.774742
 30
-4.711388
 40
0.0787401574803171
210
-0.7071067811866528
220
-0.4071957137922735
230
0.5780931159156389
100
AcDbArc
 50
205.555721
 51
225.110793
  0
LINE
  5
438
330
70
100
AcDbEntity
  8
Visible Narrow
100
AcDbLine
 10
5.010035
 20
5.628556
 30
1.942881
 11
5.344101
 21
5.820932
 31
1.669766
210
-0.0000000000000001
220
0.8175471248425399
230
0.5758617009853119
  0
ARC
  5
439
330
70
100
AcDbEntity
  8
Visible Narrow
100
AcDbCircle
 10
-6.671416
 20
-0.878507
 30
-3.680744
 40
0.0787401574803129
210
-0.6846531968817942
220
0.1898787733302822
230
-0.7037016778707628
100
AcDbArc
 50
207.504653
 51
234.453873
  0
SPLINE
  5
43A
330
70
100
AcDbEntity
  8
Visible Narrow
100
AcDbSpline
 70
     0
 71
     3
 72
    14
 73
    10
 74
     0
 42
0.000000001
 43
0.0000000001
 40
-0.4807891542558611
 40
-0.4807891542558611
 40
-0.4807891542558611
 40
-0.4807891542558611
 40
-0.2953276445696533
 40
-0.2953276445696533
 40
-0.1488085030777334
 40
-0.1488085030777334
 40
-0.0572340396452835
 40
-0.0572340396452835
 40
-0.0000000000000023
 40
-0.0000000000000023
 40
-0.0000000000000023
 40
-0.0000000000000023
 10
4.95435702878931
 20
5.596713828215797
 30
1.920451488082107
 10
4.959911570149053
 20
5.598489705646898
 30
1.92849653032681
 10
4.967079844156252
 20
5.602079911794135
 30
1.93567688850635
 10
4.980930288875789
 20
5.61022792962558
 30
1.944648490001782
 10
4.987336606036116
 20
5.614352541578227
 30
1.94719743681162
 10
4.997238985441619
 20
5.620703133122333
 30
1.948064384629105
 10
5.000873498862894
 20
5.623023807323988
 30
1.947610205121236
 10
5.00630611962206
 20
5.62636553008815
 30
1.945480342261362
 10
5.008264361621151
 20
5.627536985446567
 30
1.944328083853179
 10
5.010034728094616
 20
5.628556471694537
 30
1.942880725833674
1001
ACAD_VIEW_EDGE_ID
1071
       98
1071
       -1
1071
        3
1071
        0
  0
ARC
  5
43B
330
70
100
AcDbEntity
  8
Visible Narrow
100
AcDbCircle
 10
-3.192512
 20
6.141884
 30
-4.672018
 40
0.944881889763757
210
-0.7071067811866528
220
-0.4071957137922735
230
0.5780931159156389
100
AcDbArc
 50
315.10273
 51
329.588306
  0
LINE
  5
43C
330
70
100
AcDbEntity
  8
Visible Narrow
100
AcDbLine
 10
5.344101
 20
5.820932
 30
1.669766
 11
5.344101
 21
4.123028
 31
0.473801
210
-0.0000000000000001
220
0.8175471248425399
230
0.5758617009853119
  0
ARC
  5
43D
330
70
100
AcDbEntity
  8
Visible Narrow
100
AcDbCircle
 10
5.316262
 20
-2.014779
 30
-3.643614
 40
0.0393700787401562
210
0.0000000000000012
220
-0.8175471248425383
230
-0.5758617009853141
100
AcDbArc
 50
0.0
 51
45.0
  0
LINE
  5
43E
330
70
100
AcDbEntity
  8
Visible Narrow
100
AcDbLine
 10
5.010035
 20
3.930653
 30
0.746916
 11
5.010035
 21
5.628556
 31
1.942881
210
-0.0000000000000001
220
0.8175471248425399
230
0.5758617009853119
  0
LINE
  5
43F
330
70
100
AcDbEntity
  8
Visible Narrow
100
AcDbLine
 10
5.344101
 20
4.123028
 30
0.473801
 11
5.010035
 21
3.930653
 31
0.746916
210
-0.0000000000000001
220
0.8175471248425399
230
0.5758617009853119
  0
LINE
  5
440
330
70
100
AcDbEntity
  8
Visible Narrow
100
AcDbLine
 10
4.954357
 20
5.596714
 30
1.920451
 11
4.954357
 21
3.930653
 31
0.746916
210
-0.0000000000000001
220
0.8175471248425399
230
0.5758617009853119
  0
ARC
  5
441
330
70
100
AcDbEntity
  8
Visible Narrow
100
AcDbCircle
 10
4.982196
 20
-1.680712
 30
-3.643614
 40
0.0393700787401573
210
0.0000000000000001
220
-0.8175471248425399
230
-0.5758617009853119
100
AcDbArc
 50
45.0
 51
135.0
  0
LINE
  5
442
330
70
100
AcDbEntity
  8
Visible Narrow
100
AcDbLine
 10
4.620291
 20
4.573645
 30
0.791205
 11
4.620291
 21
5.768528
 31
1.632853
210
-0.0000000000000001
220
0.8175471248425399
230
0.5758617009853119
  0
ARC
  5
443
330
70
100
AcDbEntity
  8
Visible Narrow
100
AcDbCircle
 10
-1.713341
 20
4.223861
 30
-4.672018
 40
0.0787401574803149
210
-0.7071067811866528
220
-0.4071957137922735
230
0.5780931159156389
100
AcDbArc
 50
315.110793
 51
45.110793
  0
LINE
  5
444
330
70
100
AcDbEntity
  8
Visible Narrow
100
AcDbLine
 10
2.36256
 20
5.809412
 30
-1.09994
 11
4.564613
 21
4.541334
 31
0.700342
210
-0.0000000000000001
220
0.8175471248425399
230
0.5758617009853119
  0
LINE
  5
445
330
70
100
AcDbEntity
  8
Visible Narrow
100
AcDbLine
 10
4.954357
 20
3.930653
 30
0.746916
 11
2.36256
 21
5.423169
 31
-1.372
210
-0.0000000000000001
220
0.8175471248425399
230
0.5758617009853119
  0
ARC
  5
446
330
70
100
AcDbEntity
  8
Visible Narrow
100
AcDbCircle
 10
5.906407
 20
-0.766453
 30
2.334501
 40
0.0393700787401566
210
0.7071067811864048
220
-0.4071957137924433
230
0.5780931159158227
100
AcDbArc
 50
134.889207
 51
180.0
  0
ARC
  5
447
330
70
100
AcDbEntity
  8
Visible Narrow
100
AcDbCircle
 10
-0.933855
 20
4.225368
 30
-4.711388
 40
0.0393700787401573
210
-0.7071067811866528
220
-0.4071957137922735
230
0.5780931159156389
100
AcDbArc
 50
360.0
 51
45.110793
  0
ARC
  5
448
330
70
100
AcDbEntity
  8
Visible Narrow
100
AcDbCircle
 10
0.933855
 20
4.225368
 30
5.183829
 40
0.0393700787401584
210
0.7071067811866528
220
0.4071957137922735
230
-0.5780931159156389
100
AcDbArc
 50
134.889207
 51
180.0
  0
LINE
  5
449
330
70
100
AcDbEntity
  8
Visible Narrow
100
AcDbLine
 10
2.724454
 20
6.050012
 30
-1.373151
 11
4.60876
 21
4.964913
 31
0.167357
210
-0.0000000000000001
220
0.8175471248425399
230
0.5758617009853119
  0
ARC
  5
44A
330
70
100
AcDbEntity
  8
Visible Narrow
100
AcDbCircle
 10
1.713341
 20
4.223861
 30
4.711388
 40
0.0393700787401582
210
0.7071067811866528
220
0.4071957137922735
230
-0.5780931159156389
100
AcDbArc
 50
189.535788
 51
224.889207
  0
ARC
  5
44B
330
70
100
AcDbEntity
  8
Visible Narrow
100
AcDbCircle
 10
-6.241119
 20
-0.433033
 30
-1.78332
 40
0.0393700787401573
210
-0.7071067811864423
220
0.4071957137923947
230
-0.578093115915811
100
AcDbArc
 50
45.110793
 51
135.110793
  0
ARC
  5
44C
330
70
100
AcDbEntity
  8
Visible Narrow
100
AcDbCircle
 10
-4.64813
 20
-2.014779
 30
4.194795
 40
0.039370078740158
210
-0.0000000000000001
220
0.8175471248425399
230
0.5758617009853119
100
AcDbArc
 50
0.0
 51
45.0
  0
LINE
  5
44D
330
70
100
AcDbEntity
  8
Visible Narrow
100
AcDbLine
 10
4.592452
 20
4.589552
 30
0.700254
 11
2.390388
 21
5.857636
 31
-1.100037
210
-0.0000000000000001
220
0.8175471248425399
230
0.5758617009853119
  0
LINE
  5
44E
330
70
100
AcDbEntity
  8
Visible Narrow
100
AcDbLine
 10
4.60876
 20
4.598943
 30
0.686922
 11
4.592452
 21
4.589552
 31
0.700254
210
-0.0000000000000001
220
0.8175471248425399
230
0.5758617009853119
  0
SPLINE
  5
44F
330
70
100
AcDbEntity
  8
Visible
100
AcDbSpline
 70
     0
 71
     3
 72
    16
 73
    12
 74
     0
 42
0.000000001
 43
0.0000000001
 40
0.0411694566261922
 40
0.0411694566261922
 40
0.0411694566261922
 40
0.0411694566261922
 40
0.0490807014524015
 40
0.0490807014524015
 40
0.0569919462786108
 40
0.0569919462786108
 40
0.0649031911048201
 40
0.0649031911048201
 40
0.0728144359310294
 40
0.0728144359310294
 40
0.0807256807572387
 40
0.0807256807572387
 40
0.0807256807572387
 40
0.0807256807572387
 10
4.485872976165957
 20
5.921126637632369
 30
1.740340422786175
 10
4.485872976165957
 20
5.925706475642982
 30
1.73967609218198
 10
4.486312694769914
 20
5.930440082000131
 30
1.738998627546607
 10
4.488261660484205
 20
5.940038746151003
 30
1.737617995649998
 10
4.489775935392209
 20
5.944877518218163
 30
1.736918121197959
 10
4.493869479240494
 20
5.954173688839546
 30
1.735525695481555
 10
4.496431398930873
 20
5.958605051754602
 30
1.734836549567262
 10
4.502436074085927
 20
5.966785904168318
 30
1.733472114339747
 10
4.505885612844032
 20
5.970533847387741
 30
1.732795909805645
 10
4.51328807433456
 20
5.977067243218698
 30
1.731485383137624
 10
4.517233431239766
 20
5.979853022924544
 30
1.730851349529984
 10
4.521223302622821
 20
5.982150637046288
 30
1.730251161056003
1001
ACAD_VIEW_EDGE_ID
1071
       -1
1071
       -1
1071
        3
1071
        0
  0
SPLINE
  5
450
330
70
100
AcDbEntity
  8
Visible
100
AcDbSpline
 70
     0
 71
     3
 72
    18
 73
    14
 74
     0
 42
0.000000001
 43
0.0000000001
 40
0.0
 40
0.0
 40
0.0
 40
0.0
 40
0.0133755842480078
 40
0.0133755842480078
 40
0.029314005908593
 40
0.029314005908593
 40
0.0454591420600408
 40
0.0454591420600408
 40
0.0616042782114886
 40
0.0616042782114886
 40
0.0777494143629364
 40
0.0777494143629364
 40
0.080725680757239
 40
0.080725680757239
 40
0.080725680757239
 40
0.080725680757239
 10
4.966644897070729
 20
6.23865187408046
 30
1.36609801717168
 10
4.973390594115336
 20
6.242536462653333
 30
1.365083275284632
 10
4.980419282868389
 20
6.245117310281784
 30
1.364139246970808
 10
4.995114172035393
 20
6.248484258294411
 30
1.362352016660224
 10
5.002675218428159
 20
6.248906366373375
 30
1.36155860114195
 10
5.016985157740784
 20
6.248017585689012
 30
1.360369930160231
 10
5.023603205778819
 20
6.246694572456362
 30
1.359990456759987
 10
5.036141309582127
 20
6.242781633002778
 30
1.359667014819933
 10
5.041976684674047
 20
6.24020263751845
 30
1.359727757533619
 10
5.05295572755822
 20
6.233914965375333
 30
1.360267692023626
 10
5.058171236890849
 20
6.230154741101614
 30
1.360753270062559
 10
5.063888130601846
 20
6.224928481056849
 30
1.361546555122913
 10
5.064764570134322
 20
6.224092701299923
 30
1.3616761713929
 10
5.065626634569163
 20
6.223234168235649
 30
1.361811591970763
1001
ACAD_VIEW_EDGE_ID
1071
    -2049
1071
       -1
1071
        3
1071
        0
  0
SPLINE
  5
451
330
70
100
AcDbEntity
  8
Visible
100
AcDbSpline
 70
     0
 71
     3
 72
    18
 73
    14
 74
     0
 42
0.000000001
 43
0.0000000001
 40
0.0
 40
0.0
 40
0.0
 40
0.0
 40
0.0082338913252376
 40
0.0082338913252376
 40
0.0164677826504752
 40
0.0164677826504752
 40
0.0247016739757128
 40
0.0247016739757128
 40
0.0328818334472644
 40
0.0328818334472644
 40
0.0387988416894799
 40
0.0387988416894799
 40
0.0411694566261879
 40
0.0411694566261879
 40
0.0411694566261879
 40
0.0411694566261879
 10
5.422790288532816
 20
6.015302685314054
 30
1.680445592866817
 10
5.425559142156636
 20
6.014871243060042
 30
1.68124519077719
 10
5.428552544997366
 20
6.014266663179114
 30
1.682096940076007
 10
5.435264044932047
 20
6.012349366974376
 30
1.683880026974293
 10
5.438991898142013
 20
6.011049288206777
 30
1.684811201661432
 10
5.447454138137437
 20
6.006914711440913
 30
1.686722363756416
 10
5.452215707810502
 20
6.004100261442545
 30
1.687697425151782
 10
5.462374726080817
 20
5.99523412970575
 30
1.689688002863476
 10
5.467814252195786
 20
5.989010996096112
 30
1.690703004946044
 10
5.474899828224444
 20
5.974980214376955
 30
1.692461321832524
 10
5.477067046451885
 20
5.968149334423287
 30
1.69320201589835
 10
5.478344263031978
 20
5.958580391195027
 30
1.69423357343112
 10
5.47851878071706
 20
5.955849850750382
 30
1.69452797120175
 10
5.47851878071706
 20
5.953189292261413
 30
1.694821279799725
1001
ACAD_VIEW_EDGE_ID
1071
    -6145
1071
       -1
1071
        3
1071
        0
  0
SPLINE
  5
452
330
70
100
AcDbEntity
  8
Visible
100
AcDbSpline
 70
     0
 71
     3
 72
    16
 73
    12
 74
     0
 42
0.000000001
 43
0.0000000001
 40
1.222322870865242
 40
1.222322870865242
 40
1.222322870865242
 40
1.222322870865242
 40
1.361712253237104
 40
1.361712253237104
 40
1.501101635608966
 40
1.501101635608966
 40
1.640491017980827
 40
1.640491017980827
 40
1.779880400352689
 40
1.779880400352689
 40
1.919269782724551
 40
1.919269782724551
 40
1.919269782724551
 40
1.919269782724551
 10
5.065626634569163
 20
6.223234168235649
 30
1.361811591970763
 10
5.089271718872261
 20
6.199685943905933
 30
1.374813180296769
 10
5.113439453809952
 20
6.177779247526814
 30
1.389748286692338
 10
5.162256741639431
 20
6.137691116326095
 30
1.423196198702498
 10
5.186906023760094
 20
6.119510440088561
 30
1.44170879406738
 10
5.236085733823166
 20
6.087220396582779
 30
1.481952620111769
 10
5.26061555397846
 20
6.073112076294819
 30
1.503683597826238
 10
5.308930787399368
 20
6.049188743237209
 30
1.549942689705858
 10
5.332714679268612
 20
6.039374981945002
 30
1.574470513091
 10
5.378916901914273
 20
6.024103474084768
 30
1.625847538705784
 10
5.401331944152481
 20
6.018646320514562
 30
1.652696417982951
 10
5.422790288532816
 20
6.015302685314054
 30
1.680445592866817
1001
ACAD_VIEW_EDGE_ID
1071
   -14337
1071
       -1
1071
        3
1071
        0
  0
SPLINE
  5
453
330
70
100
AcDbEntity
  8
Visible
100
AcDbSpline
 70
     0
 71
     3
 72
    18
 73
    14
 74
     0
 42
0.000000001
 43
0.0000000001
 40
0.0
 40
0.0
 40
0.0
 40
0.0
 40
0.007911249785974
 40
0.007911249785974
 40
0.015822499571948
 40
0.015822499571948
 40
0.023733749357922
 40
0.023733749357922
 40
0.031644999143896
 40
0.031644999143896
 40
0.0394668341223502
 40
0.0394668341223502
 40
0.03955624892987
 40
0.03955624892987
 40
0.03955624892987
 40
0.03955624892987
 10
5.443168454258376
 20
5.895829590012908
 30
1.707491589564597
 10
5.445315813738126
 20
5.897066172095946
 30
1.706891400714084
 10
5.447543429635153
 20
5.898462202977498
 30
1.706219873360169
 10
5.45223066755225
 20
5.901786055289448
 30
1.704759523088796
 10
5.454693118494652
 20
5.903709308877296
 30
1.703971012377223
 10
5.459905311394869
 20
5.908496771712634
 30
1.702314926813414
 10
5.462671973488433
 20
5.911349174552924
 30
1.701446698602012
 10
5.468451672749871
 20
5.918963966199044
 30
1.699631418703575
 10
5.471496988886975
 20
5.923752583335044
 30
1.698688420909093
 10
5.476536483777273
 20
5.936300512662455
 30
1.696781142331019
 10
5.478475214879473
 20
5.944127365234635
 30
1.69582196497322
 10
5.478518535166223
 20
5.952988687672586
 30
1.694843404329731
 10
5.47851878071615
 20
5.95308894109803
 30
1.694832342838708
 10
5.47851878071706
 20
5.953189292261413
 30
1.694821279799725
1001
ACAD_VIEW_EDGE_ID
1071
   -24577
1071
       -1
1071
        3
1071
        0
  0
LINE
  5
454
330
70
100
AcDbEntity
  8
Visible
100
AcDbLine
 10
4.966645
 20
6.238652
 30
1.366098
 11
4.521223
 21
5.982151
 31
1.730251
210
-0.0000000000000001
220
0.8175471248425399
230
0.5758617009853119
  0
LINE
  5
455
330
70
100
AcDbEntity
  8
Visible
100
AcDbLine
 10
4.997747
 20
5.639328
 30
2.071645
 11
5.022066
 21
5.653333
 31
2.051763
210
-0.0000000000000001
220
0.8175471248425399
230
0.5758617009853119
  0
LINE
  5
456
330
70
100
AcDbEntity
  8
Visible
100
AcDbLine
 10
5.41885
 20
5.881825
 30
1.727373
 11
5.443168
 21
5.89583
 31
1.707492
210
-0.0000000000000001
220
0.8175471248425399
230
0.5758617009853119
  0
SPLINE
  5
457
330
70
100
AcDbEntity
  8
Visible
100
AcDbSpline
 70
     0
 71
     3
 72
    16
 73
    12
 74
     0
 42
0.000000001
 43
0.0000000001
 40
-0.112647429050908
 40
-0.112647429050908
 40
-0.112647429050908
 40
-0.112647429050908
 40
-0.0901179432407264
 40
-0.0901179432407264
 40
-0.0675884574305448
 40
-0.0675884574305448
 40
-0.0450589716203632
 40
-0.0450589716203632
 40
-0.0225294858101816
 40
-0.0225294858101816
 40
0.0
 40
0.0
 40
0.0
 40
0.0
 10
5.022065512048904
 20
5.653332533422144
 30
2.051763089231826
 10
5.024013450348867
 20
5.654454276484102
 30
2.050053884420776
 10
5.025995214551223
 20
5.655584619684304
 30
2.048336517151255
 10
5.030025447643858
 20
5.657871368654923
 30
2.044893285336002
 10
5.032073956191744
 20
5.659027827648969
 30
2.043167438161617
 10
5.036230066227837
 20
5.661372119539009
 30
2.039714405604172
 10
5.038337655961733
 20
5.662559994494586
 30
2.037987241670634
 10
5.042597005317112
 20
5.664967280266864
 30
2.034537452829681
 10
5.044748688521941
 20
5.66618670022126
 30
2.032814849964779
 10
5.049075286028347
 20
5.668651237288941
 30
2.029378110550169
 10
5.051250075904683
 20
5.669896317255734
 30
2.027663991681038
 10
5.053424559117594
 20
5.67114851885708
 30
2.025954786871807
1001
ACAD_VIEW_EDGE_ID
1071
   -36865
1071
       -1
1071
        3
1071
        0
  0
LINE
  5
458
330
70
100
AcDbEntity
  8
Visible
100
AcDbLine
 10
5.053425
 20
5.671149
 30
2.025955
 11
5.387491
 21
5.863524
 31
1.75284
210
-0.0000000000000001
220
0.8175471248425399
230
0.5758617009853119
  0
SPLINE
  5
459
330
70
100
AcDbEntity
  8
Visible
100
AcDbSpline
 70
     0
 71
     3
 72
    16
 73
    12
 74
     0
 42
0.000000001
 43
0.0000000001
 40
-0.1126474291196251
 40
-0.1126474291196251
 40
-0.1126474291196251
 40
-0.1126474291196251
 40
-0.0901179432971193
 40
-0.0901179432971193
 40
-0.0675884574746135
 40
-0.0675884574746135
 40
-0.0450589716521077
 40
-0.0450589716521077
 40
-0.0225294858296019
 40
-0.0225294858296019
 40
-0.0000000000070961
 40
-0.0000000000070961
 40
-0.0000000000070961
 40
-0.0000000000070961
 10
5.38749075495307
 20
5.863524446632254
 30
1.752839928960383
 10
5.389665238165981
 20
5.86477664823451
 30
1.751130724147515
 10
5.391839255147353
 20
5.866035878793809
 30
1.749426466512886
 10
5.396163519488801
 20
5.868553027194138
 30
1.746026464912574
 10
5.398313685266295
 20
5.869810863522616
 30
1.744330713248928
 10
5.402570897632905
 20
5.8723079166366
 30
1.740943860921106
 10
5.404677925460966
 20
5.873547071382745
 30
1.739252740107986
 10
5.408834790129368
 20
5.875989912150544
 30
1.735869226824434
 10
5.410884656315467
 20
5.877193566377172
 30
1.734176809424752
 10
5.414918167709949
 20
5.879550446768007
 30
1.730783426866764
 10
5.416901863735439
 20
5.880703666515728
 30
1.729082438578188
 10
5.418849802037222
 20
5.881825409578596
 30
1.72737323376532
1001
ACAD_VIEW_EDGE_ID
1071
   -40961
1071
       -1
1071
        3
1071
        0
  0
SPLINE
  5
45A
330
70
100
AcDbEntity
  8
Visible
100
AcDbSpline
 70
     0
 71
     3
 72
    16
 73
    12
 74
     0
 42
0.000000001
 43
0.0000000001
 40
0.0395681249462108
 40
0.0395681249462108
 40
0.0395681249462108
 40
0.0395681249462108
 40
0.0478253251121959
 40
0.0478253251121959
 40
0.0560825252781811
 40
0.0560825252781811
 40
0.0643397254441662
 40
0.0643397254441662
 40
0.0725969256101514
 40
0.0725969256101514
 40
0.0808541257761366
 40
0.0808541257761366
 40
0.0808541257761366
 40
0.0808541257761366
 10
4.485872976165957
 20
5.921126637632369
 30
1.740340422786175
 10
4.485872976165957
 20
5.916342174864439
 30
1.741034435332039
 10
4.486354923064574
 20
5.911712303226522
 30
1.741716055463257
 10
4.48804994556449
 20
5.902966415101218
 30
1.743031462772705
 10
4.489260344451032
 20
5.898849170308494
 30
1.743665090496506
 10
4.492172914014737
 20
5.891191014487048
 30
1.744864608706848
 10
4.49388382312609
 20
5.887620977161532
 30
1.745434747384933
 10
4.497678389184876
 20
5.880956477761174
 30
1.74650638597086
 10
4.499753353573943
 20
5.877875454581044
 30
1.747005574659851
 10
4.504192843176134
 20
5.872129130460962
 30
1.747927167380112
 10
4.506555729163302
 20
5.869469219381244
 30
1.748348603476188
 10
4.509021227171253
 20
5.867013821066393
 30
1.748724307344673
1001
ACAD_VIEW_EDGE_ID
1071
   -43009
1071
       -1
1071
        3
1071
        0
  0
SPLINE
  5
45B
330
70
100
AcDbEntity
  8
Visible
100
AcDbSpline
 70
     0
 71
     3
 72
    16
 73
    12
 74
     0
 42
0.000000001
 43
0.0000000001
 40
0.0
 40
0.0
 40
0.0
 40
0.0
 40
0.0161708251552274
 40
0.0161708251552274
 40
0.0323416503104547
 40
0.0323416503104547
 40
0.048512475465682
 40
0.048512475465682
 40
0.0646833006209094
 40
0.0646833006209094
 40
0.0808541257761367
 40
0.0808541257761367
 40
0.0808541257761367
 40
0.0808541257761367
 10
4.931345363493711
 20
5.626068139176823
 30
2.067358308244365
 10
4.937175301268872
 20
5.62515971936591
 30
2.068928666349165
 10
4.942162661484509
 20
5.624998914913703
 30
2.070329993535779
 10
4.951531443085151
 20
5.625251790560469
 30
2.072666012451009
 10
4.955884317493293
 20
5.625698056660439
 30
2.073600281788458
 10
4.964446148992102
 20
5.627047869435045
 30
2.074908524793499
 10
4.968574815782268
 20
5.627945562192508
 30
2.075271301311659
 10
4.976820899898122
 20
5.63020144400798
 30
2.075352211410063
 10
4.980912066740167
 20
5.6315542727325
 30
2.075064416329041
 10
4.989148154416035
 20
5.634846977500274
 30
2.07383249632403
 10
4.993357594442024
 20
5.636800743158346
 30
2.072871536951424
 10
4.997746859810469
 20
5.639328352978736
 30
2.07164473344892
1001
ACAD_VIEW_EDGE_ID
1071
   -45057
1071
       -1
1071
        3
1071
        0
  0
SPLINE
  5
45C
330
70
100
AcDbEntity
  8
Visible
100
AcDbSpline
 70
     0
 71
     3
 72
    16
 73
    12
 74
     0
 42
0.000000001
 43
0.0000000001
 40
0.0
 40
0.0
 40
0.0
 40
0.0
 40
0.0295944991825508
 40
0.0295944991825508
 40
0.0591889983651016
 40
0.0591889983651016
 40
0.0887834975476525
 40
0.0887834975476525
 40
0.1183779967302032
 40
0.1183779967302032
 40
0.147972495912754
 40
0.147972495912754
 40
0.147972495912754
 40
0.147972495912754
 10
4.91684144756855
 20
5.628551924224666
 30
2.053284624173102
 10
4.914645015194402
 20
5.628961725621593
 30
2.050443136327885
 10
4.912311431813215
 20
5.629372559232251
 30
2.047589673511538
 10
4.907316957532749
 20
5.630236610699284
 30
2.041877098476106
 10
4.904655242501213
 20
5.630689922803867
 30
2.039018031717205
 10
4.898989851324223
 20
5.631691156203487
 30
2.033313674905002
 10
4.895985498224582
 20
5.632239691965878
 30
2.030468474124063
 10
4.889684179489087
 20
5.633486056379297
 30
2.024810465745758
 10
4.886386828168362
 20
5.634185049680127
 30
2.021997278987328
 10
4.879625613484314
 20
5.635763137262983
 30
2.016420196043327
 10
4.876163858992732
 20
5.636642704530459
 30
2.013656771901878
 10
4.872707219943187
 20
5.637601353938407
 30
2.010923740574071
1001
ACAD_VIEW_EDGE_ID
1071
   -47105
1071
       -1
1071
        3
1071
        0
  0
SPLINE
  5
45D
330
70
100
AcDbEntity
  8
Visible
100
AcDbSpline
 70
     0
 71
     3
 72
    16
 73
    12
 74
     0
 42
0.000000001
 43
0.0000000001
 40
4.459708725242554
 40
4.459708725242554
 40
4.459708725242554
 40
4.459708725242554
 40
4.560780827299397
 40
4.560780827299397
 40
4.661852929356239
 40
4.661852929356239
 40
4.762925031413081
 40
4.762925031413081
 40
4.863997133469924
 40
4.863997133469924
 40
4.965069235526767
 40
4.965069235526767
 40
4.965069235526767
 40
4.965069235526767
 10
4.872707219943187
 20
5.637601353938407
 30
2.010923740574071
 10
4.851862406515103
 20
5.643382364854005
 30
1.991755660277704
 10
4.830937790240206
 20
5.650484635710199
 30
1.973156683290653
 10
4.789086528044755
 20
5.667192454076939
 30
1.937286644391861
 10
4.768159523643227
 20
5.676798168745335
 30
1.920015644836894
 10
4.726455437190089
 20
5.69837514673145
 30
1.886977848682363
 10
4.705678222997086
 20
5.710346593629765
 30
1.871211109511932
 10
4.664428375803801
 20
5.736513045574611
 30
1.841342768795584
 10
4.64395574096634
 20
5.750708184458744
 30
1.8272412191709
 10
4.603474073163489
 20
5.781170818333521
 30
1.800847196351242
 10
4.583465100964168
 20
5.797438387491638
 30
1.788554769040274
 10
4.563769061581844
 20
5.814660362111681
 30
1.777229616844124
1001
ACAD_VIEW_EDGE_ID
1071
   -49153
1071
       -1
1071
        3
1071
        0
  0
SPLINE
  5
45E
330
70
100
AcDbEntity
  8
Visible
100
AcDbSpline
 70
     0
 71
     3
 72
    16
 73
    12
 74
     0
 42
0.000000001
 43
0.0000000001
 40
-0.0000000000000004
 40
-0.0000000000000004
 40
-0.0000000000000004
 40
-0.0000000000000004
 40
0.029592435761412
 40
0.029592435761412
 40
0.0591848715228245
 40
0.0591848715228245
 40
0.0887773072842369
 40
0.0887773072842369
 40
0.1183697430456493
 40
0.1183697430456493
 40
0.1479621788070617
 40
0.1479621788070617
 40
0.1479621788070617
 40
0.1479621788070617
 10
4.563769061581844
 20
5.814660362111681
 30
1.777229616844124
 10
4.560729946908942
 20
5.817317726608962
 30
1.775614961792598
 10
4.557715766372531
 20
5.820023558234424
 30
1.774051081285506
 10
4.551801937031633
 20
5.825454329392414
 30
1.771015244705267
 10
4.548902330492275
 20
5.82817858279759
 30
1.769543107115168
 10
4.54324627698552
 20
5.833574077884804
 30
1.766664449654854
 10
4.540489891922881
 20
5.836244672759676
 30
1.765257948789439
 10
4.535116490135443
 20
5.841483730240724
 30
1.762473206761569
 10
4.532498789944476
 20
5.844052597426525
 30
1.76109465598347
 10
4.527385912026694
 20
5.849056680224748
 30
1.758326264171046
 10
4.524890490397048
 20
5.851492067159597
 30
1.756936333707926
 10
4.522447283576731
 20
5.853850122063704
 30
1.755522279903743
1001
ACAD_VIEW_EDGE_ID
1071
   -51201
1071
       -1
1071
        3
1071
        0
  0
SPLINE
  5
45F
330
70
100
AcDbEntity
  8
Visible
100
AcDbSpline
 70
     0
 71
     3
 72
    16
 73
    12
 74
     0
 42
0.000000001
 43
0.0000000001
 40
4.363915524455033
 40
4.363915524455033
 40
4.363915524455033
 40
4.363915524455033
 40
4.368655048048136
 40
4.368655048048136
 40
4.373394571641239
 40
4.373394571641239
 40
4.378134095234342
 40
4.378134095234342
 40
4.382873618827445
 40
4.382873618827445
 40
4.387613142420548
 40
4.387613142420548
 40
4.387613142420548
 40
4.387613142420548
 10
4.931345363493711
 20
5.626068139176823
 30
2.067358308244365
 10
4.93038015397142
 20
5.626218537943714
 30
2.066414779643309
 10
4.929414584438383
 20
5.626371986420053
 30
2.065472290027173
 10
4.927482745146882
 20
5.626684968001427
 30
2.06358940994869
 10
4.926516475392055
 20
5.626844501104642
 30
2.062649019482705
 10
4.924583255262042
 20
5.627169637144106
 30
2.060770358819354
 10
4.923616304888675
 20
5.627335240079446
 30
2.059832088623807
 10
4.921681742938382
 20
5.627672500979315
 30
2.057957689583417
 10
4.920714131362366
 20
5.627844158944753
 30
2.057021560733119
 10
4.918778266234404
 20
5.628193515102793
 30
2.055151465414382
 10
4.917810012685187
 20
5.628371213296304
 30
2.054217498944126
 10
4.916841447671323
 20
5.628551924204657
 30
2.053284624151274
1001
ACAD_VIEW_EDGE_ID
1071
   -53249
1071
       -1
1071
        3
1071
        0
  0
SPLINE
  5
460
330
70
100
AcDbEntity
  8
Visible
100
AcDbSpline
 70
     0
 71
     3
 72
    16
 73
    12
 74
     0
 42
0.000000001
 43
0.0000000001
 40
5.037164818069696
 40
5.037164818069696
 40
5.037164818069696
 40
5.037164818069696
 40
5.041904341718625
 40
5.041904341718625
 40
5.046643865367554
 40
5.046643865367554
 40
5.051383389016484
 40
5.051383389016484
 40
5.056122912665413
 40
5.056122912665413
 40
5.060862436314343
 40
5.060862436314343
 40
5.060862436314343
 40
5.060862436314343
 10
4.522447283574003
 20
5.853850122066432
 30
1.755522279920114
 10
4.521548068437915
 20
5.854717997291118
 30
1.755058006547187
 10
4.520649668275474
 20
5.855587828998068
 30
1.754595939632054
 10
4.518854514665328
 20
5.857331386784608
 30
1.753676229098346
 10
4.517957761216713
 20
5.858205112864197
 30
1.753218585474314
 10
4.516165917796207
 20
5.859956440727728
 30
1.752307731805558
 10
4.515270827822497
 20
5.860834042513488
 30
1.751854521755376
 10
4.513482328106512
 20
5.862593103061954
 30
1.750952545411564
 10
4.512588918360599
 20
5.86347456182375
 30
1.750503779116115
 10
4.510803795849462
 20
5.865241317526852
 30
1.74961070036079
 10
4.5099120830806
 20
5.866126614468157
 30
1.749166387900913
 10
4.509021227171253
 20
5.867013821066393
 30
1.748724307344673
1001
ACAD_VIEW_EDGE_ID
1071
   -53250
1071
       -1
1071
        3
1071
        0
  0
SPLINE
  5
461
330
70
100
AcDbEntity
  8
Visible
100
AcDbSpline
 70
     0
 71
     3
 72
    10
 73
     6
 74
     0
 42
0.000000001
 43
0.0000000001
 40
0.2436421057185973
 40
0.2436421057185973
 40
0.2436421057185973
 40
0.2436421057185973
 40
0.2864650409044513
 40
0.2864650409044513
 40
0.2885507883571888
 40
0.2885507883571888
 40
0.2885507883571888
 40
0.2885507883571888
 10
5.35563215301736
 20
5.826163036840625
 30
1.639398534754946
 10
5.35563215301827
 20
5.834043509769799
 30
1.644660330197439
 10
5.357188072899226
 20
5.841183283693681
 30
1.649895500308048
 10
5.359221442058334
 20
5.846841429475716
 30
1.655340458608407
 10
5.359316547560958
 20
5.847100232985212
 30
1.655593193534514
 10
5.359412224098015
 20
5.847355096094361
 30
1.655845766619677
1001
ACAD_VIEW_EDGE_ID
1071
   -57345
1071
       -1
1071
        3
1071
        0
  0
LINE
  5
462
330
70
100
AcDbEntity
  8
Visible
100
AcDbLine
 10
5.355632
 20
5.826163
 30
1.639399
 11
5.355632
 21
4.13906
 31
0.451041
210
-0.0000000000000001
220
0.8175471248425399
230
0.5758617009853119
  0
ARC
  5
463
330
70
100
AcDbEntity
  8
Visible
100
AcDbCircle
 10
-4.982196
 20
3.946684
 30
-0.724156
 40
0.0393700787401577
210
0.0000000000000005
220
-0.0000000000000003
230
-1.0
100
AcDbArc
 50
240.064008
 51
299.935992
  0
ARC
  5
464
330
70
100
AcDbEntity
  8
Visible
100
AcDbCircle
 10
-5.316262
 20
4.13906
 30
-0.451041
 40
0.0393700787401575
210
-0.0000000000000003
220
0.0
230
-1.0
100
AcDbArc
 50
180.0
 51
240.064008
  0
LINE
  5
465
330
70
100
AcDbEntity
  8
Visible
100
AcDbLine
 10
5.001843
 20
3.912566
 30
0.724156
 11
5.335909
 21
4.104942
 31
0.451041
210
-0.0000000000000001
220
0.8175471248425399
230
0.5758617009853119
  0
LINE
  5
466
330
70
100
AcDbEntity
  8
Visible
100
AcDbLine
 10
2.363419
 20
5.409306
 30
-1.400755
 11
4.962549
 21
3.912566
 31
0.724156
210
-0.0000000000000001
220
0.8175471248425399
230
0.5758617009853119
  0
LINE
  5
467
330
70
100
AcDbEntity
  8
Visible
100
AcDbLine
 10
2.73679
 20
6.056153
 30
-1.401801
 11
4.60876
 21
4.978158
 31
0.128623
210
-0.0000000000000001
220
0.8175471248425399
230
0.5758617009853119
  0
SPLINE
  5
468
330
70
100
AcDbEntity
  8
Visible
100
AcDbSpline
 70
     0
 71
     3
 72
    12
 73
     8
 74
     0
 42
0.000000001
 43
0.0000000001
 40
3.141592653589793
 40
3.141592653589793
 40
3.141592653589793
 40
3.141592653589793
 40
3.299059027953889
 40
3.299059027953889
 40
3.456525402317986
 40
3.456525402317986
 40
3.524742402559589
 40
3.524742402559589
 40
3.524742402559589
 40
3.524742402559589
 10
4.608759603864747
 20
4.589676350241461
 30
0.76844528330912
 10
4.608759603865657
 20
4.588084779145901
 30
0.7660652608901728
 10
4.608647882115839
 20
4.58676770628972
 30
0.7634967622361728
 10
4.608354795892047
 20
4.584802333534753
 30
0.7580462640798942
 10
4.608173829413864
 20
4.584156954337231
 30
0.7551643203678396
 10
4.608032718235882
 20
4.583737406715044
 30
0.750860313197336
 10
4.608006032704544
 20
4.583675931015022
 30
0.7495366640305292
 10
4.608006032702725
 20
4.583675931015932
 30
0.7481934096649639
1001
ACAD_VIEW_EDGE_ID
1071
  -116737
1071
       -1
1071
        3
1071
        0
  0
LINE
  5
469
330
70
100
AcDbEntity
  8
Visible
100
AcDbLine
 10
4.60876
 20
4.589676
 30
0.768445
 11
4.60876
 21
5.777415
 31
1.605061
210
-0.0000000000000001
220
0.8175471248425399
230
0.5758617009853119
  0
ENDSEC
  0
SECTION
  2
OBJECTS
  0
DICTIONARY
  5
C
330
0
100
AcDbDictionary
281
     1
  3
ACAD_COLOR
350
63
  3
ACAD_DETAILVIEWSTYLE
350
6A
  3
ACAD_GROUP
350
D
  3
ACAD_IMAGE_DICT
350
187
  3
ACAD_IMAGE_VARS
350
189
  3
ACAD_LAYOUT
350
62
  3
ACAD_MATERIAL
350
10
  3
ACAD_MLEADERSTYLE
350
66
  3
ACAD_MLINESTYLE
350
5F
  3
ACAD_PLOTSETTINGS
350
61
  3
ACAD_PLOTSTYLENAME
350
E
  3
ACAD_SCALELIST
350
42
  3
ACAD_SECTIONVIEWSTYLE
350
68
  3
ACAD_TABLESTYLE
350
64
  3
ACAD_VISUALSTYLE
350
29
  3
ACDB_RECOMPOSE_DATA
350
4CA
  3
AcDbVariableDictionary
350
4C1
  0
DICTIONARY
  5
B2
330
70
100
AcDbDictionary
280
     1
281
     1
  3
ACAD_SORTENTS
360
17D
  0
DICTIONARY
  5
181
330
180
100
AcDbDictionary
280
     1
281
     1
  3
ACAD_SORTENTS
360
3B3
  0
IMAGEDEF_REACTOR
  5
188
330
185
100
AcDbRasterImageDefReactor
 90
        2
330
185
  0
DICTIONARY
  5
63
102
{ACAD_REACTORS
330
C
102
}
330
C
100
AcDbDictionary
281
     1
  0
DICTIONARY
  5
6A
102
{ACAD_REACTORS
330
C
102
}
330
C
100
AcDbDictionary
281
     1
  3
Imperial24
350
6B
  0
DICTIONARY
  5
D
102
{ACAD_REACTORS
330
C
102
}
330
C
100
AcDbDictionary
281
     1
  0
DICTIONARY
  5
187
102
{ACAD_REACTORS
330
C
102
}
330
C
100
AcDbDictionary
281
     1
  3
morse_logo-16 (1)_01-2018(B)_1_1
350
186
  0
RASTERVARIABLES
  5
189
102
{ACAD_REACTORS
330
C
102
}
330
C
100
AcDbRasterVariables
 90
        0
 70
     0
 71
     1
 72
     5
  0
DICTIONARY
  5
62
102
{ACAD_REACTORS
330
C
102
}
330
C
100
AcDbDictionary
281
     1
  3
Model
350
73
  3
Sheet1
350
6F
  3
Sheet2
350
77
  0
DICTIONARY
  5
10
102
{ACAD_REACTORS
330
C
102
}
330
C
100
AcDbDictionary
281
     1
  3
ByBlock
350
19
  3
ByLayer
350
11
  3
Global
350
21
  0
DICTIONARY
  5
66
102
{ACAD_REACTORS
330
C
102
}
330
C
100
AcDbDictionary
281
     1
  3
Standard
350
67
  0
DICTIONARY
  5
5F
102
{ACAD_REACTORS
330
C
102
}
330
C
100
AcDbDictionary
281
     1
  3
Standard
350
60
  0
DICTIONARY
  5
61
102
{ACAD_REACTORS
330
C
102
}
330
C
100
AcDbDictionary
281
     1
  0
ACDBDICTIONARYWDFLT
  5
E
102
{ACAD_REACTORS
330
C
102
}
330
C
100
AcDbDictionary
281
     1
  3
Normal
350
F
100
AcDbDictionaryWithDefault
340
F
  0
DICTIONARY
  5
42
102
{ACAD_REACTORS
330
C
102
}
330
C
100
AcDbDictionary
281
     1
  3
*A1
350
A2
  3
*A10
350
AB
  3
*A11
350
AC
  3
*A12
350
AD
  3
*A13
350
AE
  3
*A14
350
AF
  3
*A15
350
B0
  3
*A16
350
B1
  3
*A2
350
A3
  3
*A3
350
A4
  3
*A4
350
A5
  3
*A5
350
A6
  3
*A6
350
A7
  3
*A7
350
A8
  3
*A8
350
A9
  3
*A9
350
AA
  3
A0
350
43
  3
A1
350
44
  3
A2
350
45
  3
A3
350
46
  3
A4
350
47
  3
A5
350
48
  3
A6
350
49
  3
A7
350
4A
  3
A8
350
4B
  3
A9
350
4C
  3
B0
350
4D
  3
B1
350
4E
  3
B2
350
4F
  3
B3
350
50
  3
B4
350
51
  3
B5
350
52
  3
B6
350
53
  0
DICTIONARY
  5
68
102
{ACAD_REACTORS
330
C
102
}
330
C
100
AcDbDictionary
281
     1
  3
Imperial24
350
69
  0
DICTIONARY
  5
64
102
{ACAD_REACTORS
330
C
102
}
330
C
100
AcDbDictionary
281
     1
  3
Standard
350
65
  0
DICTIONARY
  5
29
102
{ACAD_REACTORS
330
C
102
}
330
C
100
AcDbDictionary
281
     1
  3
2dWireframe
350
2F
  3
Basic
350
2E
  3
Brighten
350
35
  3
ColorChange
350
39
  3
Conceptual
350
32
  3
Dim
350
34
  3
EdgeColorOff
350
41
  3
Facepattern
350
38
  3
Flat
350
2A
  3
FlatWithEdges
350
2B
  3
Gouraud
350
2C
  3
GouraudWithEdges
350
2D
  3
Hidden
350
31
  3
JitterOff
350
3F
  3
Linepattern
350
37
  3
OverhangOff
350
40
  3
Realistic
350
33
  3
Shaded
350
3E
  3
Shaded with edges
350
3D
  3
Shades of Gray
350
3A
  3
Sketchy
350
3B
  3
Thicken
350
36
  3
Wireframe
350
30
  3
X-Ray
350
3C
  0
XRECORD
  5
4CA
102
{ACAD_REACTORS
330
C
102
}
330
C
100
AcDbXrecord
280
     1
 90
        1
330
65
330
18D
330
197
330
198
330
199
330
19C
  0
DICTIONARY
  5
4C1
102
{ACAD_REACTORS
330
C
102
}
330
C
100
AcDbDictionary
281
     1
  3
ANNOALLVISIBLE
350
4C6
  3
CANNOSCALE
350
4C7
  3
CMLEADERSTYLE
350
4C3
  3
CTABLESTYLE
350
4C2
  3
CVIEWDETAILSTYLE
350
4C4
  3
CVIEWSECTIONSTYLE
350
4C5
  0
SORTENTSTABLE
  5
17D
102
{ACAD_REACTORS
330
B2
102
}
330
B2
100
AcDbSortentsTable
330
70
  0
SORTENTSTABLE
  5
3B3
102
{ACAD_REACTORS
330
181
102
}
330
181
100
AcDbSortentsTable
330
180
  0
ACDBDETAILVIEWSTYLE
  5
6B
102
{ACAD_XDICTIONARY
360
4CD
102
}
102
{ACAD_REACTORS
330
6A
102
}
330
6A
100
AcDbModelDocViewStyle
 70
     0
  3
Imperial24
290
     0
100
AcDbDetailViewStyle
 70
     0
 71
     0
 90
        3
 71
     1
340
55
 62
   256
 40
0.24
340
0
 62
   256
 40
0.24
300

 40
0.36
280
     3
 71
     2
340
5D
 90
       25
 62
   256
 71
     3
340
55
 62
   256
 40
0.24
 90
        1
 40
0.75
 90
        1
300
%<\AcVar ViewType \f "%tc1">% %<\AcVar ViewDetailId>%\PSCALE %<\AcVar ViewScale \f "%sn">%
 71
     4
340
5D
 90
       25
 62
   256
340
5D
 90
       25
 62
   256
280
     0
  0
IMAGEDEF
  5
186
102
{ACAD_REACTORS
330
187
330
188
330
46A
102
}
330
187
100
AcDbRasterImageDef
 90
        0
  1
morse_logo-16 (1)_01-2018(B)_1_1.jpg
 10
948.0
 20
333.0
 11
0.264583
 21
0.264583
280
     1
281
     5
  0
LAYOUT
  5
73
102
{ACAD_REACTORS
330
62
102
}
330
62
100
AcDbPlotSettings
  1

  2
AutoCAD PDF (High Quality Print).pc3
  4
ANSI_full_bleed_B_(17.00_x_11.00_Inches)
  6

 40
0.0
 41
0.0
 42
0.0
 43
0.0
 44
431.799988
 45
279.399994
 46
0.0
 47
0.0
 48
0.0
 49
0.0
140
0.0
141
0.0
142
1.0
143
0.936975
 70
 11952
 72
     0
 73
     0
 74
     0
  7

 75
     0
147
1.067264
 76
     0
 77
     2
 78
   300
148
-59.501775
149
30.932781
100
AcDbLayout
  1
Model
 70
     1
 71
     0
 10
0.0
 20
0.0
 11
12.0
 21
9.0
 12
0.0
 22
0.0
 32
0.0
 14
0.0
 24
0.0
 34
0.0
 15
0.0
 25
0.0
 35
0.0
146
0.0
 13
0.0
 23
0.0
 33
0.0
 16
1.0
 26
0.0
 36
0.0
 17
0.0
 27
1.0
 37
0.0
 76
     0
330
70
1001
ACAD_PSEXT
1000
AutoCAD PDF (High Quality Print).pc3
1000
DWG To PDF
1000
File
1000

1070
     0
  0
LAYOUT
  5
6F
102
{ACAD_REACTORS
330
62
102
}
330
62
100
AcDbPlotSettings
  1

  2
None
  4

  6

 40
0.0
 41
0.0
 42
0.0
 43
0.0
 44
0.0
 45
0.0
 46
0.0
 47
0.0
 48
0.0
 49
0.0
140
0.0
141
0.0
142
1.0
143
1.0
 70
   688
 72
     0
 73
     0
 74
     5
  7

 75
    16
147
1.0
 76
     0
 77
     2
 78
   300
148
0.0
149
0.0
100
AcDbLayout
  1
Sheet1
 70
     1
 71
     1
 10
0.0
 20
0.0
 11
12.0
 21
9.0
 12
0.0
 22
0.0
 32
0.0
 14
0.0
 24
0.0
 34
0.0
 15
0.0
 25
0.0
 35
0.0
146
0.0
 13
0.0
 23
0.0
 33
0.0
 16
1.0
 26
0.0
 36
0.0
 17
0.0
 27
1.0
 37
0.0
 76
     0
330
6C
  0
LAYOUT
  5
77
102
{ACAD_REACTORS
330
62
102
}
330
62
100
AcDbPlotSettings
  1

  2
None
  4

  6

 40
0.0
 41
0.0
 42
0.0
 43
0.0
 44
0.0
 45
0.0
 46
0.0
 47
0.0
 48
0.0
 49
0.0
140
0.0
141
0.0
142
1.0
143
1.0
 70
   688
 72
     0
 73
     0
 74
     5
  7

 75
    16
147
1.0
 76
     0
 77
     2
 78
   300
148
0.0
149
0.0
100
AcDbLayout
  1
Sheet2
 70
     1
 71
     2
 10
0.0
 20
0.0
 11
12.0
 21
9.0
 12
0.0
 22
0.0
 32
0.0
 14
0.0
 24
0.0
 34
0.0
 15
0.0
 25
0.0
 35
0.0
146
0.0
 13
0.0
 23
0.0
 33
0.0
 16
1.0
 26
0.0
 36
0.0
 17
0.0
 27
1.0
 37
0.0
 76
     0
330
74
  0
MATERIAL
  5
19
102
{ACAD_XDICTIONARY
360
1A
102
}
102
{ACAD_REACTORS
330
10
102
}
330
10
100
AcDbMaterial
  1
ByBlock
 72
     0
 43
0.020833
 43
0.0
 43
0.0
 43
0.0
 43
0.0
 43
0.020833
 43
0.0
 43
0.0
 43
0.0
 43
0.0
 43
1.0
 43
0.0
 43
0.0
 43
0.0
 43
0.0
 43
1.0
 77
     0
 47
0.020833
 47
0.0
 47
0.0
 47
0.0
 47
0.0
 47
0.020833
 47
0.0
 47
0.0
 47
0.0
 47
0.0
 47
1.0
 47
0.0
 47
0.0
 47
0.0
 47
0.0
 47
1.0
171
     0
 49
0.020833
 49
0.0
 49
0.0
 49
0.0
 49
0.0
 49
0.020833
 49
0.0
 49
0.0
 49
0.0
 49
0.0
 49
1.0
 49
0.0
 49
0.0
 49
0.0
 49
0.0
 49
1.0
175
     0
142
0.020833
142
0.0
142
0.0
142
0.0
142
0.0
142
0.020833
142
0.0
142
0.0
142
0.0
142
0.0
142
1.0
142
0.0
142
0.0
142
0.0
142
0.0
142
1.0
179
     0
144
0.020833
144
0.0
144
0.0
144
0.0
144
0.0
144
0.020833
144
0.0
144
0.0
144
0.0
144
0.0
144
1.0
144
0.0
144
0.0
144
0.0
144
0.0
144
1.0
147
0.020833
147
0.0
147
0.0
147
0.0
147
0.0
147
0.020833
147
0.0
147
0.0
147
0.0
147
0.0
147
1.0
147
0.0
147
0.0
147
0.0
147
0.0
147
1.0
  0
MATERIAL
  5
11
102
{ACAD_XDICTIONARY
360
12
102
}
102
{ACAD_REACTORS
330
10
102
}
330
10
100
AcDbMaterial
  1
ByLayer
 72
     0
 43
0.020833
 43
0.0
 43
0.0
 43
0.0
 43
0.0
 43
0.020833
 43
0.0
 43
0.0
 43
0.0
 43
0.0
 43
1.0
 43
0.0
 43
0.0
 43
0.0
 43
0.0
 43
1.0
 77
     0
 47
0.020833
 47
0.0
 47
0.0
 47
0.0
 47
0.0
 47
0.020833
 47
0.0
 47
0.0
 47
0.0
 47
0.0
 47
1.0
 47
0.0
 47
0.0
 47
0.0
 47
0.0
 47
1.0
171
     0
 49
0.020833
 49
0.0
 49
0.0
 49
0.0
 49
0.0
 49
0.020833
 49
0.0
 49
0.0
 49
0.0
 49
0.0
 49
1.0
 49
0.0
 49
0.0
 49
0.0
 49
0.0
 49
1.0
175
     0
142
0.020833
142
0.0
142
0.0
142
0.0
142
0.0
142
0.020833
142
0.0
142
0.0
142
0.0
142
0.0
142
1.0
142
0.0
142
0.0
142
0.0
142
0.0
142
1.0
179
     0
144
0.020833
144
0.0
144
0.0
144
0.0
144
0.0
144
0.020833
144
0.0
144
0.0
144
0.0
144
0.0
144
1.0
144
0.0
144
0.0
144
0.0
144
0.0
144
1.0
147
0.020833
147
0.0
147
0.0
147
0.0
147
0.0
147
0.020833
147
0.0
147
0.0
147
0.0
147
0.0
147
1.0
147
0.0
147
0.0
147
0.0
147
0.0
147
1.0
  0
MATERIAL
  5
21
102
{ACAD_XDICTIONARY
360
22
102
}
102
{ACAD_REACTORS
330
10
102
}
330
10
100
AcDbMaterial
  1
Global
 72
     0
 43
0.020833
 43
0.0
 43
0.0
 43
0.0
 43
0.0
 43
0.020833
 43
0.0
 43
0.0
 43
0.0
 43
0.0
 43
1.0
 43
0.0
 43
0.0
 43
0.0
 43
0.0
 43
1.0
 77
     0
 47
0.020833
 47
0.0
 47
0.0
 47
0.0
 47
0.0
 47
0.020833
 47
0.0
 47
0.0
 47
0.0
 47
0.0
 47
1.0
 47
0.0
 47
0.0
 47
0.0
 47
0.0
 47
1.0
171
     0
 49
0.020833
 49
0.0
 49
0.0
 49
0.0
 49
0.0
 49
0.020833
 49
0.0
 49
0.0
 49
0.0
 49
0.0
 49
1.0
 49
0.0
 49
0.0
 49
0.0
 49
0.0
 49
1.0
175
     0
142
0.020833
142
0.0
142
0.0
142
0.0
142
0.0
142
0.020833
142
0.0
142
0.0
142
0.0
142
0.0
142
1.0
142
0.0
142
0.0
142
0.0
142
0.0
142
1.0
179
     0
144
0.020833
144
0.0
144
0.0
144
0.0
144
0.0
144
0.020833
144
0.0
144
0.0
144
0.0
144
0.0
144
1.0
144
0.0
144
0.0
144
0.0
144
0.0
144
1.0
147
0.020833
147
0.0
147
0.0
147
0.0
147
0.0
147
0.020833
147
0.0
147
0.0
147
0.0
147
0.0
147
1.0
147
0.0
147
0.0
147
0.0
147
0.0
147
1.0
  0
MLEADERSTYLE
  5
67
102
{ACAD_REACTORS
330
66
102
}
330
66
100
AcDbMLeaderStyle
179
     2
170
     2
171
     1
172
     0
 90
        2
 40
0.0
 41
0.0
173
     1
 91
-1056964608
340
5B
 92
       -2
290
     1
 42
0.09
291
     1
 43
0.36
  3
Standard
 44
0.18
300

342
55
174
     1
178
     6
175
     1
176
     0
 93
-1056964608
 45
0.18
292
     0
297
     0
 46
0.18
 94
-1056964608
 47
1.0
 49
1.0
140
1.0
293
     1
141
0.0
294
     1
177
     0
142
1.0
295
     0
296
     0
143
0.125
271
     0
272
     9
273
     9
298
     1
  0
MLINESTYLE
  5
60
102
{ACAD_REACTORS
330
5F
102
}
330
5F
100
AcDbMlineStyle
  2
STANDARD
 70
     0
  3

 62
   256
 51
90.0
 52
90.0
 71
     0
  0
ACDBPLACEHOLDER
  5
F
102
{ACAD_REACTORS
330
E
102
}
330
E
  0
SCALE
  5
A2
102
{ACAD_REACTORS
330
42
102
}
330
42
100
AcDbScale
 70
     0
300
1:2
140
1.0
141
2.0
290
     0
  0
SCALE
  5
AB
102
{ACAD_REACTORS
330
42
102
}
330
42
100
AcDbScale
 70
     0
300
1:50
140
1.0
141
50.0
290
     0
  0
SCALE
  5
AC
102
{ACAD_REACTORS
330
42
102
}
330
42
100
AcDbScale
 70
     0
300
1:100
140
1.0
141
100.0
290
     0
  0
SCALE
  5
AD
102
{ACAD_REACTORS
330
42
102
}
330
42
100
AcDbScale
 70
     0
300
2:1
140
2.0
141
1.0
290
     0
  0
SCALE
  5
AE
102
{ACAD_REACTORS
330
42
102
}
330
42
100
AcDbScale
 70
     0
300
4:1
140
4.0
141
1.0
290
     0
  0
SCALE
  5
AF
102
{ACAD_REACTORS
330
42
102
}
330
42
100
AcDbScale
 70
     0
300
8:1
140
8.0
141
1.0
290
     0
  0
SCALE
  5
B0
102
{ACAD_REACTORS
330
42
102
}
330
42
100
AcDbScale
 70
     0
300
10:1
140
10.0
141
1.0
290
     0
  0
SCALE
  5
B1
102
{ACAD_REACTORS
330
42
102
}
330
42
100
AcDbScale
 70
     0
300
100:1
140
100.0
141
1.0
290
     0
  0
SCALE
  5
A3
102
{ACAD_REACTORS
330
42
102
}
330
42
100
AcDbScale
 70
     0
300
1:4
140
1.0
141
4.0
290
     0
  0
SCALE
  5
A4
102
{ACAD_REACTORS
330
42
102
}
330
42
100
AcDbScale
 70
     0
300
1:5
140
1.0
141
5.0
290
     0
  0
SCALE
  5
A5
102
{ACAD_REACTORS
330
42
102
}
330
42
100
AcDbScale
 70
     0
300
1:8
140
1.0
141
8.0
290
     0
  0
SCALE
  5
A6
102
{ACAD_REACTORS
330
42
102
}
330
42
100
AcDbScale
 70
     0
300
1:10
140
1.0
141
10.0
290
     0
  0
SCALE
  5
A7
102
{ACAD_REACTORS
330
42
102
}
330
42
100
AcDbScale
 70
     0
300
1:16
140
1.0
141
16.0
290
     0
  0
SCALE
  5
A8
102
{ACAD_REACTORS
330
42
102
}
330
42
100
AcDbScale
 70
     0
300
1:20
140
1.0
141
20.0
290
     0
  0
SCALE
  5
A9
102
{ACAD_REACTORS
330
42
102
}
330
42
100
AcDbScale
 70
     0
300
1:30
140
1.0
141
30.0
290
     0
  0
SCALE
  5
AA
102
{ACAD_REACTORS
330
42
102
}
330
42
100
AcDbScale
 70
     0
300
1:40
140
1.0
141
40.0
290
     0
  0
SCALE
  5
43
102
{ACAD_REACTORS
330
42
102
}
330
42
100
AcDbScale
 70
     0
300
1:1
140
1.0
141
1.0
290
     1
  0
SCALE
  5
44
102
{ACAD_REACTORS
330
42
102
}
330
42
100
AcDbScale
 70
     0
300
1/128" = 1'-0"
140
0.007813
141
12.0
290
     0
  0
SCALE
  5
45
102
{ACAD_REACTORS
330
42
102
}
330
42
100
AcDbScale
 70
     0
300
1/64" = 1'-0"
140
0.015625
141
12.0
290
     0
  0
SCALE
  5
46
102
{ACAD_REACTORS
330
42
102
}
330
42
100
AcDbScale
 70
     0
300
1/32" = 1'-0"
140
0.03125
141
12.0
290
     0
  0
SCALE
  5
47
102
{ACAD_REACTORS
330
42
102
}
330
42
100
AcDbScale
 70
     0
300
1/16" = 1'-0"
140
0.0625
141
12.0
290
     0
  0
SCALE
  5
48
102
{ACAD_REACTORS
330
42
102
}
330
42
100
AcDbScale
 70
     0
300
3/32" = 1'-0"
140
0.09375
141
12.0
290
     0
  0
SCALE
  5
49
102
{ACAD_REACTORS
330
42
102
}
330
42
100
AcDbScale
 70
     0
300
1/8" = 1'-0"
140
0.125
141
12.0
290
     0
  0
SCALE
  5
4A
102
{ACAD_REACTORS
330
42
102
}
330
42
100
AcDbScale
 70
     0
300
3/16" = 1'-0"
140
0.1875
141
12.0
290
     0
  0
SCALE
  5
4B
102
{ACAD_REACTORS
330
42
102
}
330
42
100
AcDbScale
 70
     0
300
1/4" = 1'-0"
140
0.25
141
12.0
290
     0
  0
SCALE
  5
4C
102
{ACAD_REACTORS
330
42
102
}
330
42
100
AcDbScale
 70
     0
300
3/8" = 1'-0"
140
0.375
141
12.0
290
     0
  0
SCALE
  5
4D
102
{ACAD_REACTORS
330
42
102
}
330
42
100
AcDbScale
 70
     0
300
1/2" = 1'-0"
140
0.5
141
12.0
290
     0
  0
SCALE
  5
4E
102
{ACAD_REACTORS
330
42
102
}
330
42
100
AcDbScale
 70
     0
300
3/4" = 1'-0"
140
0.75
141
12.0
290
     0
  0
SCALE
  5
4F
102
{ACAD_REACTORS
330
42
102
}
330
42
100
AcDbScale
 70
     0
300
1" = 1'-0"
140
1.0
141
12.0
290
     0
  0
SCALE
  5
50
102
{ACAD_REACTORS
330
42
102
}
330
42
100
AcDbScale
 70
     0
300
1-1/2" = 1'-0"
140
1.5
141
12.0
290
     0
  0
SCALE
  5
51
102
{ACAD_REACTORS
330
42
102
}
330
42
100
AcDbScale
 70
     0
300
3" = 1'-0"
140
3.0
141
12.0
290
     0
  0
SCALE
  5
52
102
{ACAD_REACTORS
330
42
102
}
330
42
100
AcDbScale
 70
     0
300
6" = 1'-0"
140
6.0
141
12.0
290
     0
  0
SCALE
  5
53
102
{ACAD_REACTORS
330
42
102
}
330
42
100
AcDbScale
 70
     0
300
1'-0" = 1'-0"
140
12.0
141
12.0
290
     0
  0
ACDBSECTIONVIEWSTYLE
  5
69
102
{ACAD_XDICTIONARY
360
4CB
102
}
102
{ACAD_REACTORS
330
68
102
}
330
68
100
AcDbModelDocViewStyle
 70
     0
  3
Imperial24
290
     0
100
AcDbSectionViewStyle
 70
     0
 71
     0
 90
       78
 71
     1
340
55
 62
   256
 40
0.24
340
0
340
0
 62
   256
 40
0.24
300
I, O, Q, S, X, Z
 40
0.48
 90
        3
 40
0.18
 90
        1
 71
     2
340
5D
 90
       25
 62
   256
340
5D
 90
       50
 62
   256
 40
0.24
 40
0.0
 40
0.24
 71
     3
340
55
 62
   256
 40
0.24
 90
        1
 40
0.75
 90
        1
300
%<\AcVar ViewType \f "%tc1">% %<\AcVar ViewSectionStartId>%-%<\AcVar ViewSectionEndId>%\PSCALE %<\AcVar ViewScale \f "%sn">%
 71
     4
 62
   256
 62
   257
300
ANSI31
 40
1.0
 90
        0
290
     0
290
     0
 90
        6
 40
0.0
 40
1.570796
 40
0.261799
 40
1.308997
 40
-0.261799
 40
1.832596
  0
TABLESTYLE
  5
65
102
{ACAD_XDICTIONARY
360
4C8
102
}
102
{ACAD_REACTORS
330
64
102
}
330
64
100
AcDbTableStyle
280
     0
  3
Standard
 70
     0
 71
     0
 40
0.06
 41
0.06
280
     0
281
     0
  7
Standard
140
0.18
170
     2
 62
     0
 63
     7
283
     0
 90
      512
 91
        0
  1

274
    -2
284
     1
 64
     0
275
    -2
285
     1
 65
     0
276
    -2
286
     1
 66
     0
277
    -2
287
     1
 67
     0
278
    -2
288
     1
 68
     0
279
    -2
289
     1
 69
     0
  7
Standard
140
0.25
170
     5
 62
     0
 63
     7
283
     0
 90
      512
 91
        0
  1

274
    -2
284
     1
 64
     0
275
    -2
285
     1
 65
     0
276
    -2
286
     1
 66
     0
277
    -2
287
     1
 67
     0
278
    -2
288
     1
 68
     0
279
    -2
289
     1
 69
     0
  7
Standard
140
0.18
170
     5
 62
     0
 63
     7
283
     0
 90
      512
 91
        0
  1

274
    -2
284
     1
 64
     0
275
    -2
285
     1
 65
     0
276
    -2
286
     1
 66
     0
277
    -2
287
     1
 67
     0
278
    -2
288
     1
 68
     0
279
    -2
289
     1
 69
     0
  0
VISUALSTYLE
  5
2F
102
{ACAD_REACTORS
330
29
102
}
330
29
100
AcDbVisualStyle
  2
2dWireframe
 70
     4
177
     3
291
     0
 70
    58
 90
        0
176
     1
 90
        2
176
     1
 90
        0
176
     1
 90
        0
176
     1
 40
0.6
176
     1
 40
30.0
176
     1
 62
     7
420
 16777215
176
     1
 90
        1
176
     1
 90
        4
176
     1
 62
     7
176
     1
 62
   257
176
     1
 90
        1
176
     1
 90
        1
176
     1
 40
1.0
176
     1
 90
        0
176
     1
 62
   257
176
     1
 40
1.0
176
     1
 90
        1
176
     1
 90
        6
176
     1
 90
        2
176
     1
 62
     7
176
     1
 90
        5
176
     1
 90
        0
176
     1
 90
        0
176
     1
290
     0
176
     1
 90
        1
176
     1
 40
0.0
176
     1
 90
        0
176
     1
290
     1
176
     1
290
     1
176
     1
290
     0
176
     1
290
     0
176
     1
290
     0
176
     1
290
     0
176
     1
290
     0
176
     1
290
     0
176
     1
290
     0
176
     1
 90
       50
176
     1
 40
0.0
176
     1
 40
1.0
176
     1
 90
        0
176
     1
 62
    18
420
        0
176
     1
 90
       50
176
     1
 90
        3
176
     1
 62
     5
420
      255
176
     1
290
     0
176
     1
 90
       50
176
     1
 90
       50
176
     1
 90
       50
176
     1
290
     0
176
     1
 90
       50
176
     1
 62
   256
176
     0
 40
1.0
176
     0
 90
        2
176
     1
  1
strokes_ogs.tif
176
     1
290
     0
176
     1
 40
1.0
176
     1
 40
1.0
176
     1
1001
ACAD
1000
AcDbSavedByObjectVersion
1070
     0
  0
VISUALSTYLE
  5
2E
102
{ACAD_REACTORS
330
29
102
}
330
29
100
AcDbVisualStyle
  2
Basic
 70
     7
177
     3
291
     1
 70
    58
 90
        1
176
     1
 90
        0
176
     1
 90
        1
176
     1
 90
        0
176
     1
 40
0.6
176
     1
 40
30.0
176
     1
 62
     7
420
 16777215
176
     1
 90
        0
176
     1
 90
        4
176
     1
 62
     7
176
     1
 62
   257
176
     1
 90
        1
176
     1
 90
        1
176
     1
 40
1.0
176
     1
 90
        8
176
     1
 62
     7
176
     1
 40
1.0
176
     1
 90
        1
176
     1
 90
        6
176
     1
 90
        2
176
     1
 62
     7
176
     1
 90
        5
176
     1
 90
        0
176
     1
 90
        0
176
     1
290
     0
176
     1
 90
        1
176
     1
 40
0.0
176
     1
 90
        0
176
     1
290
     0
176
     1
290
     1
176
     1
290
     1
176
     1
290
     0
176
     1
290
     0
176
     1
290
     0
176
     1
290
     0
176
     1
290
     0
176
     1
290
     0
176
     1
 90
       50
176
     1
 40
0.0
176
     1
 40
1.0
176
     1
 90
        0
176
     1
 62
    18
420
        0
176
     1
 90
       50
176
     1
 90
        3
176
     1
 62
     5
420
      255
176
     1
290
     0
176
     1
 90
       50
176
     1
 90
       50
176
     1
 90
       50
176
     1
290
     0
176
     1
 90
       50
176
     1
 62
   256
176
     0
 40
1.0
176
     0
 90
        2
176
     1
  1
strokes_ogs.tif
176
     1
290
     0
176
     1
 40
1.0
176
     1
 40
1.0
176
     1
1001
ACAD
1000
AcDbSavedByObjectVersion
1070
     0
  0
VISUALSTYLE
  5
35
102
{ACAD_REACTORS
330
29
102
}
330
29
100
AcDbVisualStyle
  2
Brighten
 70
    12
177
     3
291
     1
 70
    58
 90
        2
176
     1
 90
        2
176
     1
 90
        0
176
     1
 90
        0
176
     1
 40
0.6
176
     1
 40
30.0
176
     1
 62
     7
420
 16777215
176
     1
 90
        1
176
     1
 90
        4
176
     1
 62
     7
176
     1
 62
   257
176
     1
 90
        1
176
     1
 90
        1
176
     1
 40
1.0
176
     1
 90
        8
176
     1
 62
     7
176
     1
 40
1.0
176
     1
 90
        1
176
     1
 90
        6
176
     1
 90
        2
176
     1
 62
     7
176
     1
 90
        5
176
     1
 90
        0
176
     1
 90
        0
176
     1
290
     0
176
     1
 90
        1
176
     1
 40
50.0
176
     1
 90
        0
176
     1
290
     0
176
     1
290
     1
176
     1
290
     1
176
     1
290
     0
176
     1
290
     0
176
     1
290
     0
176
     1
290
     0
176
     1
290
     0
176
     1
290
     0
176
     1
 90
       50
176
     1
 40
0.0
176
     1
 40
1.0
176
     1
 90
        0
176
     1
 62
    18
420
        0
176
     1
 90
       50
176
     1
 90
        3
176
     1
 62
     5
420
      255
176
     1
290
     0
176
     1
 90
       50
176
     1
 90
       50
176
     1
 90
       50
176
     1
290
     0
176
     1
 90
       50
176
     1
 62
   256
176
     0
 40
1.0
176
     0
 90
        2
176
     1
  1
strokes_ogs.tif
176
     1
290
     0
176
     1
 40
1.0
176
     1
 40
1.0
176
     1
1001
ACAD
1000
AcDbSavedByObjectVersion
1070
     0
  0
VISUALSTYLE
  5
39
102
{ACAD_REACTORS
330
29
102
}
330
29
100
AcDbVisualStyle
  2
ColorChange
 70
    16
177
     3
291
     1
 70
    58
 90
        2
176
     1
 90
        2
176
     1
 90
        3
176
     1
 90
        0
176
     1
 40
0.6
176
     1
 40
30.0
176
     1
 62
     8
420
  8421504
176
     1
 90
        1
176
     1
 90
        4
176
     1
 62
     7
176
     1
 62
   257
176
     1
 90
        1
176
     1
 90
        1
176
     1
 40
1.0
176
     1
 90
        8
176
     1
 62
     8
420
  8421504
176
     1
 40
1.0
176
     1
 90
        1
176
     1
 90
        6
176
     1
 90
        2
176
     1
 62
     7
176
     1
 90
        5
176
     1
 90
        0
176
     1
 90
        0
176
     1
290
     0
176
     1
 90
        1
176
     1
 40
0.0
176
     1
 90
        0
176
     1
290
     0
176
     1
290
     1
176
     1
290
     1
176
     1
290
     0
176
     1
290
     0
176
     1
290
     0
176
     1
290
     0
176
     1
290
     0
176
     1
290
     0
176
     1
 90
       50
176
     1
 40
0.0
176
     1
 40
1.0
176
     1
 90
        0
176
     1
 62
    18
420
        0
176
     1
 90
       50
176
     1
 90
        3
176
     1
 62
     5
420
      255
176
     1
290
     0
176
     1
 90
       50
176
     1
 90
       50
176
     1
 90
       50
176
     1
290
     0
176
     1
 90
       50
176
     1
 62
   256
176
     0
 40
1.0
176
     0
 90
        2
176
     1
  1
strokes_ogs.tif
176
     1
290
     0
176
     1
 40
1.0
176
     1
 40
1.0
176
     1
1001
ACAD
1000
AcDbSavedByObjectVersion
1070
     0
  0
VISUALSTYLE
  5
32
102
{ACAD_REACTORS
330
29
102
}
330
29
100
AcDbVisualStyle
  2
Conceptual
 70
     9
177
     3
291
     0
 70
    58
 90
        3
176
     1
 90
        2
176
     1
 90
        0
176
     1
 90
        0
176
     1
 40
0.6
176
     1
 40
30.0
176
     1
 62
     7
420
 16777215
176
     1
 90
        2
176
     1
 90
        2
176
     1
 62
     7
176
     1
 62
   257
176
     1
 90
        1
176
     1
 90
        1
176
     1
 40
179.0
176
     1
 90
        8
176
     1
 62
     7
176
     1
 40
1.0
176
     1
 90
        1
176
     1
 90
        6
176
     1
 90
        2
176
     1
 62
     7
176
     1
 90
        3
176
     1
 90
        0
176
     1
 90
        0
176
     1
290
     0
176
     1
 90
        1
176
     1
 40
0.0
176
     1
 90
        0
176
     1
290
     0
176
     1
290
     1
176
     1
290
     1
176
     1
290
     0
176
     1
290
     0
176
     1
290
     0
176
     1
290
     0
176
     1
290
     0
176
     1
290
     0
176
     1
 90
       50
176
     1
 40
0.0
176
     1
 40
1.0
176
     1
 90
        0
176
     1
 62
    18
420
        0
176
     1
 90
       50
176
     1
 90
        3
176
     1
 62
     5
420
      255
176
     1
290
     0
176
     1
 90
       50
176
     1
 90
       50
176
     1
 90
       50
176
     1
290
     0
176
     1
 90
       50
176
     1
 62
   256
176
     0
 40
1.0
176
     0
 90
        2
176
     1
  1
strokes_ogs.tif
176
     1
290
     0
176
     1
 40
1.0
176
     1
 40
1.0
176
     1
1001
ACAD
1000
AcDbSavedByObjectVersion
1070
     0
  0
VISUALSTYLE
  5
34
102
{ACAD_REACTORS
330
29
102
}
330
29
100
AcDbVisualStyle
  2
Dim
 70
    11
177
     3
291
     1
 70
    58
 90
        2
176
     1
 90
        2
176
     1
 90
        0
176
     1
 90
        0
176
     1
 40
0.6
176
     1
 40
30.0
176
     1
 62
     7
420
 16777215
176
     1
 90
        1
176
     1
 90
        4
176
     1
 62
     7
176
     1
 62
   257
176
     1
 90
        1
176
     1
 90
        1
176
     1
 40
1.0
176
     1
 90
        8
176
     1
 62
     7
176
     1
 40
1.0
176
     1
 90
        1
176
     1
 90
        6
176
     1
 90
        2
176
     1
 62
     7
176
     1
 90
        5
176
     1
 90
        0
176
     1
 90
        0
176
     1
290
     0
176
     1
 90
        1
176
     1
 40
-50.0
176
     1
 90
        0
176
     1
290
     0
176
     1
290
     1
176
     1
290
     1
176
     1
290
     0
176
     1
290
     0
176
     1
290
     0
176
     1
290
     0
176
     1
290
     0
176
     1
290
     0
176
     1
 90
       50
176
     1
 40
0.0
176
     1
 40
1.0
176
     1
 90
        0
176
     1
 62
    18
420
        0
176
     1
 90
       50
176
     1
 90
        3
176
     1
 62
     5
420
      255
176
     1
290
     0
176
     1
 90
       50
176
     1
 90
       50
176
     1
 90
       50
176
     1
290
     0
176
     1
 90
       50
176
     1
 62
   256
176
     0
 40
1.0
176
     0
 90
        2
176
     1
  1
strokes_ogs.tif
176
     1
290
     0
176
     1
 40
1.0
176
     1
 40
1.0
176
     1
1001
ACAD
1000
AcDbSavedByObjectVersion
1070
     0
  0
VISUALSTYLE
  5
41
102
{ACAD_REACTORS
330
29
102
}
330
29
100
AcDbVisualStyle
  2
EdgeColorOff
 70
    22
177
     3
291
     1
 70
    58
 90
        2
176
     0
 90
        2
176
     0
 90
        0
176
     0
 90
        0
176
     0
 40
0.6
176
     0
 40
30.0
176
     0
 62
     7
420
 16777215
176
     0
 90
        1
176
     0
 90
        4
176
     0
 62
     7
176
     0
 62
   257
176
     0
 90
        1
176
     0
 90
        1
176
     0
 40
1.0
176
     0
 90
        8
176
     2
 62
     7
176
     0
 40
1.0
176
     0
 90
        1
176
     0
 90
        6
176
     0
 90
        2
176
     0
 62
     7
176
     0
 90
        5
176
     0
 90
        0
176
     0
 90
        0
176
     0
290
     0
176
     0
 90
        1
176
     0
 40
0.0
176
     0
 90
        0
176
     0
290
     0
176
     0
290
     1
176
     0
290
     1
176
     0
290
     0
176
     0
290
     0
176
     0
290
     0
176
     0
290
     0
176
     0
290
     0
176
     0
290
     0
176
     0
 90
       50
176
     0
 40
0.0
176
     0
 40
1.0
176
     0
 90
        0
176
     0
 62
    18
420
        0
176
     0
 90
       50
176
     0
 90
        3
176
     0
 62
     5
420
      255
176
     0
290
     0
176
     0
 90
       50
176
     0
 90
       50
176
     0
 90
       50
176
     0
290
     0
176
     0
 90
       50
176
     0
 62
   256
176
     0
 40
1.0
176
     0
 90
        2
176
     0
  1
strokes_ogs.tif
176
     0
290
     0
176
     0
 40
1.0
176
     0
 40
1.0
176
     0
1001
ACAD
1000
AcDbSavedByObjectVersion
1070
     0
  0
VISUALSTYLE
  5
38
102
{ACAD_REACTORS
330
29
102
}
330
29
100
AcDbVisualStyle
  2
Facepattern
 70
    15
177
     3
291
     1
 70
    58
 90
        2
176
     1
 90
        2
176
     1
 90
        0
176
     1
 90
        0
176
     1
 40
0.6
176
     1
 40
30.0
176
     1
 62
     7
420
 16777215
176
     1
 90
        1
176
     1
 90
        4
176
     1
 62
     7
176
     1
 62
   257
176
     1
 90
        1
176
     1
 90
        1
176
     1
 40
1.0
176
     1
 90
        8
176
     1
 62
     7
176
     1
 40
1.0
176
     1
 90
        1
176
     1
 90
        6
176
     1
 90
        2
176
     1
 62
     7
176
     1
 90
        5
176
     1
 90
        0
176
     1
 90
        0
176
     1
290
     0
176
     1
 90
        1
176
     1
 40
0.0
176
     1
 90
        0
176
     1
290
     0
176
     1
290
     1
176
     1
290
     1
176
     1
290
     0
176
     1
290
     0
176
     1
290
     0
176
     1
290
     0
176
     1
290
     0
176
     1
290
     0
176
     1
 90
       50
176
     1
 40
0.0
176
     1
 40
1.0
176
     1
 90
        0
176
     1
 62
    18
420
        0
176
     1
 90
       50
176
     1
 90
        3
176
     1
 62
     5
420
      255
176
     1
290
     0
176
     1
 90
       50
176
     1
 90
       50
176
     1
 90
       50
176
     1
290
     0
176
     1
 90
       50
176
     1
 62
   256
176
     0
 40
1.0
176
     0
 90
        2
176
     1
  1
strokes_ogs.tif
176
     1
290
     0
176
     1
 40
1.0
176
     1
 40
1.0
176
     1
1001
ACAD
1000
AcDbSavedByObjectVersion
1070
     0
  0
VISUALSTYLE
  5
2A
102
{ACAD_REACTORS
330
29
102
}
330
29
100
AcDbVisualStyle
  2
Flat
 70
     0
177
     3
291
     1
 70
    58
 90
        2
176
     1
 90
        1
176
     1
 90
        1
176
     1
 90
        2
176
     1
 40
0.6
176
     1
 40
30.0
176
     1
 62
     7
420
 16777215
176
     1
 90
        0
176
     1
 90
        0
176
     1
 62
     7
176
     1
 62
   257
176
     1
 90
        1
176
     1
 90
        1
176
     1
 40
1.0
176
     1
 90
        8
176
     1
 62
     7
176
     1
 40
1.0
176
     1
 90
        1
176
     1
 90
        6
176
     1
 90
        2
176
     1
 62
     7
176
     1
 90
        5
176
     1
 90
        0
176
     1
 90
        0
176
     1
290
     0
176
     1
 90
       13
176
     1
 40
0.0
176
     1
 90
        0
176
     1
290
     0
176
     1
290
     1
176
     1
290
     1
176
     1
290
     0
176
     1
290
     0
176
     1
290
     0
176
     1
290
     0
176
     1
290
     0
176
     1
290
     0
176
     1
 90
       50
176
     1
 40
0.0
176
     1
 40
1.0
176
     1
 90
        0
176
     1
 62
    18
420
        0
176
     1
 90
       50
176
     1
 90
        3
176
     1
 62
     5
420
      255
176
     1
290
     0
176
     1
 90
       50
176
     1
 90
       50
176
     1
 90
       50
176
     1
290
     0
176
     1
 90
       50
176
     1
 62
   256
176
     0
 40
1.0
176
     0
 90
        2
176
     1
  1
strokes_ogs.tif
176
     1
290
     0
176
     1
 40
1.0
176
     1
 40
1.0
176
     1
1001
ACAD
1000
AcDbSavedByObjectVersion
1070
     0
  0
VISUALSTYLE
  5
2B
102
{ACAD_REACTORS
330
29
102
}
330
29
100
AcDbVisualStyle
  2
FlatWithEdges
 70
     1
177
     3
291
     1
 70
    58
 90
        2
176
     1
 90
        1
176
     1
 90
        1
176
     1
 90
        2
176
     1
 40
0.6
176
     1
 40
30.0
176
     1
 62
     7
420
 16777215
176
     1
 90
        1
176
     1
 90
        0
176
     1
 62
     7
176
     1
 62
   257
176
     1
 90
        1
176
     1
 90
        1
176
     1
 40
1.0
176
     1
 90
        0
176
     1
 62
   257
176
     1
 40
1.0
176
     1
 90
        1
176
     1
 90
        6
176
     1
 90
        2
176
     1
 62
     7
176
     1
 90
        5
176
     1
 90
        0
176
     1
 90
        0
176
     1
290
     0
176
     1
 90
       13
176
     1
 40
0.0
176
     1
 90
        0
176
     1
290
     0
176
     1
290
     1
176
     1
290
     1
176
     1
290
     0
176
     1
290
     0
176
     1
290
     0
176
     1
290
     0
176
     1
290
     0
176
     1
290
     0
176
     1
 90
       50
176
     1
 40
0.0
176
     1
 40
1.0
176
     1
 90
        0
176
     1
 62
    18
420
        0
176
     1
 90
       50
176
     1
 90
        3
176
     1
 62
     5
420
      255
176
     1
290
     0
176
     1
 90
       50
176
     1
 90
       50
176
     1
 90
       50
176
     1
290
     0
176
     1
 90
       50
176
     1
 62
   256
176
     0
 40
1.0
176
     0
 90
        2
176
     1
  1
strokes_ogs.tif
176
     1
290
     0
176
     1
 40
1.0
176
     1
 40
1.0
176
     1
1001
ACAD
1000
AcDbSavedByObjectVersion
1070
     0
  0
VISUALSTYLE
  5
2C
102
{ACAD_REACTORS
330
29
102
}
330
29
100
AcDbVisualStyle
  2
Gouraud
 70
     2
177
     3
291
     1
 70
    58
 90
        2
176
     1
 90
        2
176
     1
 90
        1
176
     1
 90
        2
176
     1
 40
0.6
176
     1
 40
30.0
176
     1
 62
     7
420
 16777215
176
     1
 90
        0
176
     1
 90
        0
176
     1
 62
     7
176
     1
 62
   257
176
     1
 90
        1
176
     1
 90
        1
176
     1
 40
1.0
176
     1
 90
        0
176
     1
 62
     7
176
     1
 40
1.0
176
     1
 90
        1
176
     1
 90
        6
176
     1
 90
        2
176
     1
 62
     7
176
     1
 90
        5
176
     1
 90
        0
176
     1
 90
        0
176
     1
290
     0
176
     1
 90
       13
176
     1
 40
0.0
176
     1
 90
        0
176
     1
290
     0
176
     1
290
     1
176
     1
290
     1
176
     1
290
     0
176
     1
290
     0
176
     1
290
     0
176
     1
290
     0
176
     1
290
     0
176
     1
290
     0
176
     1
 90
       50
176
     1
 40
0.0
176
     1
 40
1.0
176
     1
 90
        0
176
     1
 62
    18
420
        0
176
     1
 90
       50
176
     1
 90
        3
176
     1
 62
     5
420
      255
176
     1
290
     0
176
     1
 90
       50
176
     1
 90
       50
176
     1
 90
       50
176
     1
290
     0
176
     1
 90
       50
176
     1
 62
   256
176
     0
 40
1.0
176
     0
 90
        2
176
     1
  1
strokes_ogs.tif
176
     1
290
     0
176
     1
 40
1.0
176
     1
 40
1.0
176
     1
1001
ACAD
1000
AcDbSavedByObjectVersion
1070
     0
  0
VISUALSTYLE
  5
2D
102
{ACAD_REACTORS
330
29
102
}
330
29
100
AcDbVisualStyle
  2
GouraudWithEdges
 70
     3
177
     3
291
     1
 70
    58
 90
        2
176
     1
 90
        2
176
     1
 90
        1
176
     1
 90
        2
176
     1
 40
0.6
176
     1
 40
30.0
176
     1
 62
     7
420
 16777215
176
     1
 90
        1
176
     1
 90
        0
176
     1
 62
     7
176
     1
 62
   257
176
     1
 90
        1
176
     1
 90
        1
176
     1
 40
1.0
176
     1
 90
        0
176
     1
 62
   257
176
     1
 40
1.0
176
     1
 90
        1
176
     1
 90
        6
176
     1
 90
        2
176
     1
 62
     7
176
     1
 90
        5
176
     1
 90
        0
176
     1
 90
        0
176
     1
290
     0
176
     1
 90
       13
176
     1
 40
0.0
176
     1
 90
        0
176
     1
290
     0
176
     1
290
     1
176
     1
290
     1
176
     1
290
     0
176
     1
290
     0
176
     1
290
     0
176
     1
290
     0
176
     1
290
     0
176
     1
290
     0
176
     1
 90
       50
176
     1
 40
0.0
176
     1
 40
1.0
176
     1
 90
        0
176
     1
 62
    18
420
        0
176
     1
 90
       50
176
     1
 90
        3
176
     1
 62
     5
420
      255
176
     1
290
     0
176
     1
 90
       50
176
     1
 90
       50
176
     1
 90
       50
176
     1
290
     0
176
     1
 90
       50
176
     1
 62
   256
176
     0
 40
1.0
176
     0
 90
        2
176
     1
  1
strokes_ogs.tif
176
     1
290
     0
176
     1
 40
1.0
176
     1
 40
1.0
176
     1
1001
ACAD
1000
AcDbSavedByObjectVersion
1070
     0
  0
VISUALSTYLE
  5
31
102
{ACAD_REACTORS
330
29
102
}
330
29
100
AcDbVisualStyle
  2
Hidden
 70
     6
177
     3
291
     0
 70
    58
 90
        1
176
     1
 90
        2
176
     1
 90
        2
176
     1
 90
        0
176
     1
 40
0.6
176
     1
 40
30.0
176
     1
 62
     7
420
 16777215
176
     1
 90
        2
176
     1
 90
        2
176
     1
 62
     7
176
     1
 62
   257
176
     1
 90
        2
176
     1
 90
        1
176
     1
 40
40.0
176
     1
 90
        0
176
     1
 62
   257
176
     1
 40
1.0
176
     1
 90
        1
176
     1
 90
        6
176
     1
 90
        2
176
     1
 62
     7
176
     1
 90
        3
176
     1
 90
        0
176
     1
 90
        0
176
     1
290
     0
176
     1
 90
        1
176
     1
 40
0.0
176
     1
 90
        0
176
     1
290
     0
176
     1
290
     1
176
     1
290
     1
176
     1
290
     0
176
     1
290
     0
176
     1
290
     0
176
     1
290
     0
176
     1
290
     0
176
     1
290
     0
176
     1
 90
       50
176
     1
 40
0.0
176
     1
 40
1.0
176
     1
 90
        0
176
     1
 62
    18
420
        0
176
     1
 90
       50
176
     1
 90
        3
176
     1
 62
     5
420
      255
176
     1
290
     0
176
     1
 90
       50
176
     1
 90
       50
176
     1
 90
       50
176
     1
290
     0
176
     1
 90
       50
176
     1
 62
   256
176
     0
 40
1.0
176
     0
 90
        2
176
     1
  1
strokes_ogs.tif
176
     1
290
     0
176
     1
 40
1.0
176
     1
 40
1.0
176
     1
1001
ACAD
1000
AcDbSavedByObjectVersion
1070
     0
  0
VISUALSTYLE
  5
3F
102
{ACAD_REACTORS
330
29
102
}
330
29
100
AcDbVisualStyle
  2
JitterOff
 70
    20
177
     3
291
     1
 70
    58
 90
        2
176
     0
 90
        2
176
     0
 90
        0
176
     0
 90
        0
176
     0
 40
0.6
176
     0
 40
30.0
176
     0
 62
     7
420
 16777215
176
     0
 90
        1
176
     0
 90
        4
176
     0
 62
     7
176
     0
 62
   257
176
     0
 90
        1
176
     0
 90
        1
176
     0
 40
1.0
176
     0
 90
       10
176
     2
 62
     7
176
     0
 40
1.0
176
     0
 90
        1
176
     0
 90
        6
176
     0
 90
        2
176
     0
 62
     7
176
     0
 90
        5
176
     0
 90
        0
176
     0
 90
        0
176
     0
290
     0
176
     0
 90
        1
176
     0
 40
0.0
176
     0
 90
        0
176
     0
290
     0
176
     0
290
     1
176
     0
290
     1
176
     0
290
     0
176
     0
290
     0
176
     0
290
     0
176
     0
290
     0
176
     0
290
     0
176
     0
290
     0
176
     0
 90
       50
176
     0
 40
0.0
176
     0
 40
1.0
176
     0
 90
        0
176
     0
 62
    18
420
        0
176
     0
 90
       50
176
     0
 90
        3
176
     0
 62
     5
420
      255
176
     0
290
     0
176
     0
 90
       50
176
     0
 90
       50
176
     0
 90
       50
176
     0
290
     0
176
     0
 90
       50
176
     0
 62
   256
176
     0
 40
1.0
176
     0
 90
        2
176
     0
  1
strokes_ogs.tif
176
     0
290
     0
176
     0
 40
1.0
176
     0
 40
1.0
176
     0
1001
ACAD
1000
AcDbSavedByObjectVersion
1070
     0
  0
VISUALSTYLE
  5
37
102
{ACAD_REACTORS
330
29
102
}
330
29
100
AcDbVisualStyle
  2
Linepattern
 70
    14
177
     3
291
     1
 70
    58
 90
        2
176
     1
 90
        2
176
     1
 90
        0
176
     1
 90
        0
176
     1
 40
0.6
176
     1
 40
30.0
176
     1
 62
     7
420
 16777215
176
     1
 90
        1
176
     1
 90
        4
176
     1
 62
     7
176
     1
 62
   257
176
     1
 90
        7
176
     1
 90
        7
176
     1
 40
1.0
176
     1
 90
        8
176
     1
 62
     7
176
     1
 40
1.0
176
     1
 90
        1
176
     1
 90
        6
176
     1
 90
        2
176
     1
 62
     7
176
     1
 90
        5
176
     1
 90
        0
176
     1
 90
        0
176
     1
290
     0
176
     1
 90
        1
176
     1
 40
0.0
176
     1
 90
        0
176
     1
290
     0
176
     1
290
     1
176
     1
290
     1
176
     1
290
     0
176
     1
290
     0
176
     1
290
     0
176
     1
290
     0
176
     1
290
     0
176
     1
290
     0
176
     1
 90
       50
176
     1
 40
0.0
176
     1
 40
1.0
176
     1
 90
        0
176
     1
 62
    18
420
        0
176
     1
 90
       50
176
     1
 90
        3
176
     1
 62
     5
420
      255
176
     1
290
     0
176
     1
 90
       50
176
     1
 90
       50
176
     1
 90
       50
176
     1
290
     0
176
     1
 90
       50
176
     1
 62
   256
176
     0
 40
1.0
176
     0
 90
        2
176
     1
  1
strokes_ogs.tif
176
     1
290
     0
176
     1
 40
1.0
176
     1
 40
1.0
176
     1
1001
ACAD
1000
AcDbSavedByObjectVersion
1070
     0
  0
VISUALSTYLE
  5
40
102
{ACAD_REACTORS
330
29
102
}
330
29
100
AcDbVisualStyle
  2
OverhangOff
 70
    21
177
     3
291
     1
 70
    58
 90
        2
176
     0
 90
        2
176
     0
 90
        0
176
     0
 90
        0
176
     0
 40
0.6
176
     0
 40
30.0
176
     0
 62
     7
420
 16777215
176
     0
 90
        1
176
     0
 90
        4
176
     0
 62
     7
176
     0
 62
   257
176
     0
 90
        1
176
     0
 90
        1
176
     0
 40
1.0
176
     0
 90
        9
176
     2
 62
     7
176
     0
 40
1.0
176
     0
 90
        1
176
     0
 90
        6
176
     0
 90
        2
176
     0
 62
     7
176
     0
 90
        5
176
     0
 90
        0
176
     0
 90
        0
176
     0
290
     0
176
     0
 90
        1
176
     0
 40
0.0
176
     0
 90
        0
176
     0
290
     0
176
     0
290
     1
176
     0
290
     1
176
     0
290
     0
176
     0
290
     0
176
     0
290
     0
176
     0
290
     0
176
     0
290
     0
176
     0
290
     0
176
     0
 90
       50
176
     0
 40
0.0
176
     0
 40
1.0
176
     0
 90
        0
176
     0
 62
    18
420
        0
176
     0
 90
       50
176
     0
 90
        3
176
     0
 62
     5
420
      255
176
     0
290
     0
176
     0
 90
       50
176
     0
 90
       50
176
     0
 90
       50
176
     0
290
     0
176
     0
 90
       50
176
     0
 62
   256
176
     0
 40
1.0
176
     0
 90
        2
176
     0
  1
strokes_ogs.tif
176
     0
290
     0
176
     0
 40
1.0
176
     0
 40
1.0
176
     0
1001
ACAD
1000
AcDbSavedByObjectVersion
1070
     0
  0
VISUALSTYLE
  5
33
102
{ACAD_REACTORS
330
29
102
}
330
29
100
AcDbVisualStyle
  2
Realistic
 70
     8
177
     3
291
     0
 70
    58
 90
        2
176
     1
 90
        3
176
     1
 90
        0
176
     1
 90
        2
176
     1
 40
0.6
176
     1
 40
30.0
176
     1
 62
     7
420
 16777215
176
     1
 90
        0
176
     1
 90
        0
176
     1
 62
     7
176
     1
 62
   257
176
     1
 90
        1
176
     1
 90
        1
176
     1
 40
1.0
176
     1
 90
        8
176
     1
 62
   257
176
     1
 40
1.0
176
     1
 90
        1
176
     1
 90
        6
176
     1
 90
        2
176
     1
 62
     7
176
     1
 90
        3
176
     1
 90
        0
176
     1
 90
        0
176
     1
290
     0
176
     1
 90
       13
176
     1
 40
0.0
176
     1
 90
        0
176
     1
290
     0
176
     1
290
     1
176
     1
290
     1
176
     1
290
     0
176
     1
290
     0
176
     1
290
     0
176
     1
290
     0
176
     1
290
     0
176
     1
290
     0
176
     1
 90
       50
176
     1
 40
0.0
176
     1
 40
1.0
176
     1
 90
        0
176
     1
 62
    18
420
        0
176
     1
 90
       50
176
     1
 90
        3
176
     1
 62
     5
420
      255
176
     1
290
     0
176
     1
 90
       50
176
     1
 90
       50
176
     1
 90
       50
176
     1
290
     0
176
     1
 90
       50
176
     1
 62
   256
176
     0
 40
1.0
176
     0
 90
        2
176
     1
  1
strokes_ogs.tif
176
     1
290
     0
176
     1
 40
1.0
176
     1
 40
1.0
176
     1
1001
ACAD
1000
AcDbSavedByObjectVersion
1070
     0
  0
VISUALSTYLE
  5
3E
102
{ACAD_REACTORS
330
29
102
}
330
29
100
AcDbVisualStyle
  2
Shaded
 70
    27
177
     3
291
     0
 70
    58
 90
        2
176
     1
 90
        2
176
     1
 90
        1
176
     1
 90
        2
176
     1
 40
0.6
176
     1
 40
30.0
176
     1
 62
     7
420
 16777215
176
     1
 90
        0
176
     1
 90
        4
176
     1
 62
     7
176
     1
 62
   257
176
     1
 90
        1
176
     1
 90
        1
176
     1
 40
1.0
176
     1
 90
        8
176
     1
 62
   257
176
     1
 40
1.0
176
     1
 90
        1
176
     1
 90
        6
176
     1
 90
        2
176
     1
 62
     8
420
  7895160
176
     1
 90
        3
176
     1
 90
        0
176
     1
 90
        0
176
     1
290
     0
176
     1
 90
        5
176
     1
 40
0.0
176
     1
 90
        0
176
     1
290
     0
176
     1
290
     1
176
     1
290
     1
176
     1
290
     0
176
     1
290
     0
176
     1
290
     0
176
     1
290
     0
176
     1
290
     0
176
     1
290
     0
176
     1
 90
       50
176
     1
 40
0.0
176
     1
 40
1.0
176
     1
 90
        0
176
     1
 62
    18
420
        0
176
     1
 90
       50
176
     1
 90
        3
176
     1
 62
     5
420
      255
176
     1
290
     0
176
     1
 90
       50
176
     1
 90
       50
176
     1
 90
       50
176
     1
290
     0
176
     1
 90
       50
176
     1
 62
   256
176
     0
 40
1.0
176
     0
 90
        2
176
     1
  1
strokes_ogs.tif
176
     1
290
     0
176
     1
 40
1.0
176
     1
 40
1.0
176
     1
1001
ACAD
1000
AcDbSavedByObjectVersion
1070
     0
  0
VISUALSTYLE
  5
3D
102
{ACAD_REACTORS
330
29
102
}
330
29
100
AcDbVisualStyle
  2
Shaded with edges
 70
    26
177
     3
291
     0
 70
    58
 90
        2
176
     1
 90
        2
176
     1
 90
        1
176
     1
 90
        2
176
     1
 40
0.6
176
     1
 40
30.0
176
     1
 62
     7
420
 16777215
176
     1
 90
        1
176
     1
 90
        2
176
     1
 62
     7
176
     1
 62
   257
176
     1
 90
        2
176
     1
 90
        1
176
     1
 40
1.0
176
     1
 90
        8
176
     1
 62
   257
176
     1
 40
1.0
176
     1
 90
        1
176
     1
 90
        6
176
     1
 90
        2
176
     1
 62
     7
176
     1
 90
        3
176
     1
 90
        0
176
     1
 90
        0
176
     1
290
     0
176
     1
 90
        5
176
     1
 40
0.0
176
     1
 90
        0
176
     1
290
     0
176
     1
290
     1
176
     1
290
     1
176
     1
290
     0
176
     1
290
     0
176
     1
290
     0
176
     1
290
     0
176
     1
290
     0
176
     1
290
     0
176
     1
 90
       50
176
     1
 40
0.0
176
     1
 40
1.0
176
     1
 90
        0
176
     1
 62
    18
420
        0
176
     1
 90
       50
176
     1
 90
        3
176
     1
 62
     5
420
      255
176
     1
290
     0
176
     1
 90
       50
176
     1
 90
       50
176
     1
 90
       50
176
     1
290
     0
176
     1
 90
       50
176
     1
 62
   256
176
     0
 40
1.0
176
     0
 90
        2
176
     1
  1
strokes_ogs.tif
176
     1
290
     0
176
     1
 40
1.0
176
     1
 40
1.0
176
     1
1001
ACAD
1000
AcDbSavedByObjectVersion
1070
     0
  0
VISUALSTYLE
  5
3A
102
{ACAD_REACTORS
330
29
102
}
330
29
100
AcDbVisualStyle
  2
Shades of Gray
 70
    23
177
     3
291
     0
 70
    58
 90
        2
176
     1
 90
        2
176
     1
 90
        3
176
     1
 90
        0
176
     1
 40
0.6
176
     1
 40
30.0
176
     1
 62
     7
420
 16777215
176
     1
 90
        2
176
     1
 90
        2
176
     1
 62
     7
176
     1
 62
     7
176
     1
 90
        1
176
     1
 90
        1
176
     1
 40
40.0
176
     1
 90
        8
176
     1
 62
     7
176
     1
 40
1.0
176
     1
 90
        1
176
     1
 90
        6
176
     1
 90
        2
176
     1
 62
     7
176
     1
 90
        3
176
     1
 90
        0
176
     1
 90
        0
176
     1
290
     0
176
     1
 90
        1
176
     1
 40
0.0
176
     1
 90
        0
176
     1
290
     0
176
     1
290
     1
176
     1
290
     1
176
     1
290
     0
176
     1
290
     0
176
     1
290
     0
176
     1
290
     0
176
     1
290
     0
176
     1
290
     0
176
     1
 90
       50
176
     1
 40
0.0
176
     1
 40
1.0
176
     1
 90
        0
176
     1
 62
    18
420
        0
176
     1
 90
       50
176
     1
 90
        3
176
     1
 62
     5
420
      255
176
     1
290
     0
176
     1
 90
       50
176
     1
 90
       50
176
     1
 90
       50
176
     1
290
     0
176
     1
 90
       50
176
     1
 62
   256
176
     0
 40
1.0
176
     0
 90
        2
176
     1
  1
strokes_ogs.tif
176
     1
290
     0
176
     1
 40
1.0
176
     1
 40
1.0
176
     1
1001
ACAD
1000
AcDbSavedByObjectVersion
1070
     0
  0
VISUALSTYLE
  5
3B
102
{ACAD_REACTORS
330
29
102
}
330
29
100
AcDbVisualStyle
  2
Sketchy
 70
    24
177
     3
291
     0
 70
    58
 90
        1
176
     1
 90
        2
176
     1
 90
        2
176
     1
 90
        0
176
     1
 40
0.6
176
     1
 40
30.0
176
     1
 62
     7
420
 16777215
176
     1
 90
        2
176
     1
 90
        2
176
     1
 62
     7
176
     1
 62
     7
176
     1
 90
        1
176
     1
 90
        1
176
     1
 40
40.0
176
     1
 90
       11
176
     1
 62
     7
176
     1
 40
1.0
176
     1
 90
        1
176
     1
 90
        6
176
     1
 90
        2
176
     1
 62
     7
176
     1
 90
        6
176
     1
 90
        0
176
     1
 90
        0
176
     1
290
     0
176
     1
 90
        1
176
     1
 40
0.0
176
     1
 90
        0
176
     1
290
     0
176
     1
290
     1
176
     1
290
     1
176
     1
290
     0
176
     1
290
     0
176
     1
290
     0
176
     1
290
     0
176
     1
290
     0
176
     1
290
     0
176
     1
 90
       50
176
     1
 40
0.0
176
     1
 40
1.0
176
     1
 90
        0
176
     1
 62
    18
420
        0
176
     1
 90
       50
176
     1
 90
        3
176
     1
 62
     5
420
      255
176
     1
290
     0
176
     1
 90
       50
176
     1
 90
       50
176
     1
 90
       50
176
     1
290
     0
176
     1
 90
       50
176
     1
 62
   256
176
     0
 40
1.0
176
     0
 90
        2
176
     1
  1
strokes_ogs.tif
176
     1
290
     0
176
     1
 40
1.0
176
     1
 40
1.0
176
     1
1001
ACAD
1000
AcDbSavedByObjectVersion
1070
     0
  0
VISUALSTYLE
  5
36
102
{ACAD_REACTORS
330
29
102
}
330
29
100
AcDbVisualStyle
  2
Thicken
 70
    13
177
     3
291
     1
 70
    58
 90
        2
176
     1
 90
        2
176
     1
 90
        0
176
     1
 90
        0
176
     1
 40
0.6
176
     1
 40
30.0
176
     1
 62
     7
420
 16777215
176
     1
 90
        1
176
     1
 90
        4
176
     1
 62
     7
176
     1
 62
   257
176
     1
 90
        1
176
     1
 90
        1
176
     1
 40
1.0
176
     1
 90
       12
176
     1
 62
     7
176
     1
 40
1.0
176
     1
 90
        1
176
     1
 90
        6
176
     1
 90
        2
176
     1
 62
     7
176
     1
 90
        5
176
     1
 90
        0
176
     1
 90
        0
176
     1
290
     0
176
     1
 90
        1
176
     1
 40
0.0
176
     1
 90
        0
176
     1
290
     0
176
     1
290
     1
176
     1
290
     1
176
     1
290
     0
176
     1
290
     0
176
     1
290
     0
176
     1
290
     0
176
     1
290
     0
176
     1
290
     0
176
     1
 90
       50
176
     1
 40
0.0
176
     1
 40
1.0
176
     1
 90
        0
176
     1
 62
    18
420
        0
176
     1
 90
       50
176
     1
 90
        3
176
     1
 62
     5
420
      255
176
     1
290
     0
176
     1
 90
       50
176
     1
 90
       50
176
     1
 90
       50
176
     1
290
     0
176
     1
 90
       50
176
     1
 62
   256
176
     0
 40
1.0
176
     0
 90
        2
176
     1
  1
strokes_ogs.tif
176
     1
290
     0
176
     1
 40
1.0
176
     1
 40
1.0
176
     1
1001
ACAD
1000
AcDbSavedByObjectVersion
1070
     0
  0
VISUALSTYLE
  5
30
102
{ACAD_REACTORS
330
29
102
}
330
29
100
AcDbVisualStyle
  2
Wireframe
 70
     5
177
     3
291
     0
 70
    58
 90
        0
176
     1
 90
        2
176
     1
 90
        0
176
     1
 90
        0
176
     1
 40
0.6
176
     1
 40
30.0
176
     1
 62
     7
420
 16777215
176
     1
 90
        1
176
     1
 90
        4
176
     1
 62
     7
176
     1
 62
   257
176
     1
 90
        1
176
     1
 90
        1
176
     1
 40
1.0
176
     1
 90
        0
176
     1
 62
   257
176
     1
 40
1.0
176
     1
 90
        1
176
     1
 90
        6
176
     1
 90
        2
176
     1
 62
     7
176
     1
 90
        3
176
     1
 90
        0
176
     1
 90
        0
176
     1
290
     0
176
     1
 90
        1
176
     1
 40
0.0
176
     1
 90
        0
176
     1
290
     0
176
     1
290
     1
176
     1
290
     1
176
     1
290
     0
176
     1
290
     0
176
     1
290
     0
176
     1
290
     0
176
     1
290
     0
176
     1
290
     0
176
     1
 90
       50
176
     1
 40
0.0
176
     1
 40
1.0
176
     1
 90
        0
176
     1
 62
    18
420
        0
176
     1
 90
       50
176
     1
 90
        3
176
     1
 62
     5
420
      255
176
     1
290
     0
176
     1
 90
       50
176
     1
 90
       50
176
     1
 90
       50
176
     1
290
     0
176
     1
 90
       50
176
     1
 62
   256
176
     0
 40
1.0
176
     0
 90
        2
176
     1
  1
strokes_ogs.tif
176
     1
290
     0
176
     1
 40
1.0
176
     1
 40
1.0
176
     1
1001
ACAD
1000
AcDbSavedByObjectVersion
1070
     0
  0
VISUALSTYLE
  5
3C
102
{ACAD_REACTORS
330
29
102
}
330
29
100
AcDbVisualStyle
  2
X-Ray
 70
    25
177
     3
291
     0
 70
    58
 90
        2
176
     1
 90
        2
176
     1
 90
        1
176
     1
 90
        1
176
     1
 40
0.5
176
     1
 40
30.0
176
     1
 62
     7
420
 16777215
176
     1
 90
        1
176
     1
 90
        0
176
     1
 62
     7
176
     1
 62
   257
176
     1
 90
        1
176
     1
 90
        1
176
     1
 40
1.0
176
     1
 90
        8
176
     1
 62
     7
176
     1
 40
1.0
176
     1
 90
        1
176
     1
 90
        6
176
     1
 90
        2
176
     1
 62
     7
176
     1
 90
        3
176
     1
 90
        0
176
     1
 90
        0
176
     1
290
     0
176
     1
 90
       13
176
     1
 40
0.0
176
     1
 90
        0
176
     1
290
     0
176
     1
290
     1
176
     1
290
     1
176
     1
290
     0
176
     1
290
     0
176
     1
290
     0
176
     1
290
     0
176
     1
290
     0
176
     1
290
     0
176
     1
 90
       50
176
     1
 40
0.0
176
     1
 40
1.0
176
     1
 90
        0
176
     1
 62
    18
420
        0
176
     1
 90
       50
176
     1
 90
        3
176
     1
 62
     5
420
      255
176
     1
290
     0
176
     1
 90
       50
176
     1
 90
       50
176
     1
 90
       50
176
     1
290
     0
176
     1
 90
       50
176
     1
 62
   256
176
     0
 40
1.0
176
     0
 90
        2
176
     1
  1
strokes_ogs.tif
176
     1
290
     0
176
     1
 40
1.0
176
     1
 40
1.0
176
     1
1001
ACAD
1000
AcDbSavedByObjectVersion
1070
     0
  0
DICTIONARYVAR
  5
4C6
102
{ACAD_REACTORS
330
4C1
102
}
330
4C1
100
DictionaryVariables
280
     0
  1
0
  0
DICTIONARYVAR
  5
4C7
102
{ACAD_REACTORS
330
4C1
102
}
330
4C1
100
DictionaryVariables
280
     0
  1
1:1
  0
DICTIONARYVAR
  5
4C3
102
{ACAD_REACTORS
330
4C1
102
}
330
4C1
100
DictionaryVariables
280
     0
  1
STANDARD
  0
DICTIONARYVAR
  5
4C2
102
{ACAD_REACTORS
330
4C1
102
}
330
4C1
100
DictionaryVariables
280
     0
  1
STANDARD
  0
DICTIONARYVAR
  5
4C4
102
{ACAD_REACTORS
330
4C1
102
}
330
4C1
100
DictionaryVariables
280
     0
  1
Imperial24
  0
DICTIONARYVAR
  5
4C5
102
{ACAD_REACTORS
330
4C1
102
}
330
4C1
100
DictionaryVariables
280
     0
  1
Imperial24
  0
DICTIONARY
  5
4CD
330
6B
100
AcDbDictionary
280
     1
281
     1
  3
ACAD_XREC_ROUNDTRIP
360
4CE
  0
DICTIONARY
  5
1A
330
19
100
AcDbDictionary
280
     1
281
     1
  3
BUMPTILE
360
1C
  3
DIFFUSETILE
360
1B
  3
OPACITYTILE
360
1F
  3
REFLECTIONTILE
360
1E
  3
REFRACTIONTILE
360
20
  3
SPECULARTILE
360
1D
  0
DICTIONARY
  5
12
330
11
100
AcDbDictionary
280
     1
281
     1
  3
BUMPTILE
360
14
  3
DIFFUSETILE
360
13
  3
OPACITYTILE
360
17
  3
REFLECTIONTILE
360
16
  3
REFRACTIONTILE
360
18
  3
SPECULARTILE
360
15
  0
DICTIONARY
  5
22
330
21
100
AcDbDictionary
280
     1
281
     1
  3
BUMPTILE
360
24
  3
DIFFUSETILE
360
23
  3
OPACITYTILE
360
27
  3
REFLECTIONTILE
360
26
  3
REFRACTIONTILE
360
28
  3
SPECULARTILE
360
25
  0
DICTIONARY
  5
4CB
330
69
100
AcDbDictionary
280
     1
281
     1
  3
ACAD_XREC_ROUNDTRIP
360
4CC
  0
DICTIONARY
  5
4C8
330
65
100
AcDbDictionary
280
     1
281
     1
  3
ACAD_ROUNDTRIP_2008_TABLESTYLE_CELLSTYLEMAP
360
4C9
  0
XRECORD
  5
4CE
102
{ACAD_REACTORS
330
4CD
102
}
330
4CD
100
AcDbXrecord
280
     1
102
DISPLAYNAME
  1
Imperial24
102
FLAGS
 90
        0
  0
XRECORD
  5
1C
102
{ACAD_REACTORS
330
1A
102
}
330
1A
100
AcDbXrecord
280
     1
270
     1
271
     1
  0
XRECORD
  5
1B
102
{ACAD_REACTORS
330
1A
102
}
330
1A
100
AcDbXrecord
280
     1
270
     1
271
     1
  0
XRECORD
  5
1F
102
{ACAD_REACTORS
330
1A
102
}
330
1A
100
AcDbXrecord
280
     1
270
     1
271
     1
  0
XRECORD
  5
1E
102
{ACAD_REACTORS
330
1A
102
}
330
1A
100
AcDbXrecord
280
     1
270
     1
271
     1
  0
XRECORD
  5
20
102
{ACAD_REACTORS
330
1A
102
}
330
1A
100
AcDbXrecord
280
     1
270
     1
271
     1
  0
XRECORD
  5
1D
102
{ACAD_REACTORS
330
1A
102
}
330
1A
100
AcDbXrecord
280
     1
270
     1
271
     1
  0
XRECORD
  5
14
102
{ACAD_REACTORS
330
12
102
}
330
12
100
AcDbXrecord
280
     1
270
     1
271
     1
  0
XRECORD
  5
13
102
{ACAD_REACTORS
330
12
102
}
330
12
100
AcDbXrecord
280
     1
270
     1
271
     1
  0
XRECORD
  5
17
102
{ACAD_REACTORS
330
12
102
}
330
12
100
AcDbXrecord
280
     1
270
     1
271
     1
  0
XRECORD
  5
16
102
{ACAD_REACTORS
330
12
102
}
330
12
100
AcDbXrecord
280
     1
270
     1
271
     1
  0
XRECORD
  5
18
102
{ACAD_REACTORS
330
12
102
}
330
12
100
AcDbXrecord
280
     1
270
     1
271
     1
  0
XRECORD
  5
15
102
{ACAD_REACTORS
330
12
102
}
330
12
100
AcDbXrecord
280
     1
270
     1
271
     1
  0
XRECORD
  5
24
102
{ACAD_REACTORS
330
22
102
}
330
22
100
AcDbXrecord
280
     1
270
     1
271
     1
  0
XRECORD
  5
23
102
{ACAD_REACTORS
330
22
102
}
330
22
100
AcDbXrecord
280
     1
270
     1
271
     1
  0
XRECORD
  5
27
102
{ACAD_REACTORS
330
22
102
}
330
22
100
AcDbXrecord
280
     1
270
     1
271
     1
  0
XRECORD
  5
26
102
{ACAD_REACTORS
330
22
102
}
330
22
100
AcDbXrecord
280
     1
270
     1
271
     1
  0
XRECORD
  5
28
102
{ACAD_REACTORS
330
22
102
}
330
22
100
AcDbXrecord
280
     1
270
     1
271
     1
  0
XRECORD
  5
25
102
{ACAD_REACTORS
330
22
102
}
330
22
100
AcDbXrecord
280
     1
270
     1
271
     1
  0
XRECORD
  5
4CC
102
{ACAD_REACTORS
330
4CB
102
}
330
4CB
100
AcDbXrecord
280
     1
102
DISPLAYNAME
  1
Imperial24
102
FLAGS
 90
        0
  0
CELLSTYLEMAP
  5
4C9
102
{ACAD_REACTORS
330
4C8
102
}
330
4C8
100
AcDbCellStyleMap
 90
        3
300
CELLSTYLE
  1
TABLEFORMAT_BEGIN
 90
        5
170
     1
 91
        0
 92
    32768
 62
   257
 93
        1
300
CONTENTFORMAT
  1
CONTENTFORMAT_BEGIN
 90
        0
 91
        0
 92
      512
 93
        0
300

 40
0.0
140
1.0
 94
        5
 62
     0
340
55
144
0.25
309
CONTENTFORMAT_END
171
     0
 94
        0
309
TABLEFORMAT_END
  1
CELLSTYLE_BEGIN
 90
        1
 91
        1
300
_TITLE
309
CELLSTYLE_END
300
CELLSTYLE
  1
TABLEFORMAT_BEGIN
 90
        5
170
     1
 91
        0
 92
        0
 62
   257
 93
        1
300
CONTENTFORMAT
  1
CONTENTFORMAT_BEGIN
 90
        0
 91
        0
 92
      512
 93
        0
300

 40
0.0
140
1.0
 94
        5
 62
     0
340
55
144
0.18
309
CONTENTFORMAT_END
171
     0
 94
        0
309
TABLEFORMAT_END
  1
CELLSTYLE_BEGIN
 90
        2
 91
        1
300
_HEADER
309
CELLSTYLE_END
300
CELLSTYLE
  1
TABLEFORMAT_BEGIN
 90
        5
170
     1
 91
        0
 92
        0
 62
   257
 93
        1
300
CONTENTFORMAT
  1
CONTENTFORMAT_BEGIN
 90
        0
 91
        0
 92
      512
 93
        0
300

 40
0.0
140
1.0
 94
        2
 62
     0
340
55
144
0.18
309
CONTENTFORMAT_END
171
     0
 94
        0
309
TABLEFORMAT_END
  1
CELLSTYLE_BEGIN
 90
        3
 91
        2
300
_DATA
309
CELLSTYLE_END
  0
ENDSEC
  0
EOF
