  0
SECTION
  2
HEADER
  9
$ACADVER
  1
AC1027
  9
$ACADMAINTVER
 70
   125
  9
$DWGCODEPAGE
  3
ANSI_1252
  9
$LASTSAVEDBY
  1
Administrator
  9
$REQUIREDVERSIONS
160
                 0
  9
$INSBASE
 10
0.0
 20
0.0
 30
0.0
  9
$EXTMIN
 10
0.0
 20
0.0
 30
-2.50346
  9
$EXTMAX
 10
17.0
 20
11.0
 30
2.918979
  9
$LIMMIN
 10
0.0
 20
0.0
  9
$LIMMAX
 10
17.0
 20
11.0
  9
$ORTHOMODE
 70
     0
  9
$REGENMODE
 70
     1
  9
$FILLMODE
 70
     1
  9
$QTEXTMODE
 70
     0
  9
$MIRRTEXT
 70
     0
  9
$LTSCALE
 40
0.75
  9
$ATTMODE
 70
     1
  9
$TEXTSIZE
 40
0.12
  9
$TRACEWID
 40
0.05
  9
$TEXTSTYLE
  7
Standard
  9
$CLAYER
  8
Titleblock
  9
$CELTYPE
  6
ByLayer
  9
$CECOLOR
 62
   256
  9
$CELTSCALE
 40
1.0
  9
$DISPSILH
 70
     0
  9
$DIMSCALE
 40
1.0
  9
$DIMASZ
 40
0.12
  9
$DIMEXO
 40
0.05
  9
$DIMDLI
 40
0.339411
  9
$DIMRND
 40
0.0
  9
$DIMDLE
 40
0.0
  9
$DIMEXE
 40
0.1
  9
$DIMTP
 40
0.01
  9
$DIMTM
 40
0.01
  9
$DIMTXT
 40
0.12
  9
$DIMCEN
 40
0.0
  9
$DIMTSZ
 40
0.0
  9
$DIMTOL
 70
     0
  9
$DIMLIM
 70
     0
  9
$DIMTIH
 70
     1
  9
$DIMTOH
 70
     1
  9
$DIMSE1
 70
     0
  9
$DIMSE2
 70
     0
  9
$DIMTAD
 70
     0
  9
$DIMZIN
 70
    12
  9
$DIMBLK
  1

  9
$DIMASO
 70
     1
  9
$DIMSHO
 70
     1
  9
$DIMPOST
  1
in
  9
$DIMAPOST
  1
mm
  9
$DIMALT
 70
     0
  9
$DIMALTD
 70
     2
  9
$DIMALTF
 40
25.4
  9
$DIMLFAC
 40
1.0
  9
$DIMTOFL
 70
     0
  9
$DIMTVP
 40
0.0
  9
$DIMTIX
 70
     0
  9
$DIMSOXD
 70
     0
  9
$DIMSAH
 70
     0
  9
$DIMBLK1
  1

  9
$DIMBLK2
  1

  9
$DIMSTYLE
  2
Standard
  9
$DIMCLRD
 70
   256
  9
$DIMCLRE
 70
   256
  9
$DIMCLRT
 70
   256
  9
$DIMTFAC
 40
1.0
  9
$DIMGAP
 40
0.06
  9
$DIMJUST
 70
     0
  9
$DIMSD1
 70
     0
  9
$DIMSD2
 70
     0
  9
$DIMTOLJ
 70
     1
  9
$DIMTZIN
 70
    12
  9
$DIMALTZ
 70
    12
  9
$DIMALTTZ
 70
    12
  9
$DIMUPT
 70
     0
  9
$DIMDEC
 70
     2
  9
$DIMTDEC
 70
     2
  9
$DIMALTU
 70
     2
  9
$DIMALTTD
 70
     2
  9
$DIMTXSTY
  7
Standard
  9
$DIMAUNIT
 70
     0
  9
$DIMADEC
 70
     2
  9
$DIMALTRND
 40
0.0
  9
$DIMAZIN
 70
     3
  9
$DIMDSEP
 70
    46
  9
$DIMATFIT
 70
     3
  9
$DIMFRAC
 70
     0
  9
$DIMLDRBLK
  1

  9
$DIMLUNIT
 70
     2
  9
$DIMLWD
 70
    -2
  9
$DIMLWE
 70
    -2
  9
$DIMTMOVE
 70
     0
  9
$DIMFXL
 40
1.0
  9
$DIMFXLON
 70
     0
  9
$DIMJOGANG
 40
0.785398
  9
$DIMTFILL
 70
     0
  9
$DIMTFILLCLR
 70
     0
  9
$DIMARCSYM
 70
     1
  9
$DIMLTYPE
  6

  9
$DIMLTEX1
  6

  9
$DIMLTEX2
  6

  9
$DIMTXTDIRECTION
 70
     0
  9
$LUNITS
 70
     2
  9
$LUPREC
 70
     4
  9
$SKETCHINC
 40
0.1
  9
$FILLETRAD
 40
0.0
  9
$AUNITS
 70
     0
  9
$AUPREC
 70
     0
  9
$MENU
  1
.
  9
$ELEVATION
 40
0.0
  9
$PELEVATION
 40
0.0
  9
$THICKNESS
 40
0.0
  9
$LIMCHECK
 70
     0
  9
$CHAMFERA
 40
0.0
  9
$CHAMFERB
 40
0.0
  9
$CHAMFERC
 40
0.0
  9
$CHAMFERD
 40
0.0
  9
$SKPOLY
 70
     0
  9
$TDCREATE
 40
2458891.614166667
  9
$TDUCREATE
 40
2458891.947500000
  9
$TDUPDATE
 40
2458891.614166667
  9
$TDUUPDATE
 40
2458891.947500000
  9
$TDINDWG
 40
0.0000000000
  9
$TDUSRTIMER
 40
0.0000000000
  9
$USRTIMER
 70
     1
  9
$ANGBASE
 50
0.0
  9
$ANGDIR
 70
     0
  9
$PDMODE
 70
     0
  9
$PDSIZE
 40
0.0
  9
$PLINEWID
 40
0.0
  9
$SPLFRAME
 70
     0
  9
$SPLINETYPE
 70
     6
  9
$SPLINESEGS
 70
     8
  9
$HANDSEED
  5
554
  9
$SURFTAB1
 70
     6
  9
$SURFTAB2
 70
     6
  9
$SURFTYPE
 70
     6
  9
$SURFU
 70
     6
  9
$SURFV
 70
     6
  9
$UCSBASE
  2

  9
$UCSNAME
  2

  9
$UCSORG
 10
0.0
 20
0.0
 30
0.0
  9
$UCSXDIR
 10
1.0
 20
0.0
 30
0.0
  9
$UCSYDIR
 10
0.0
 20
1.0
 30
0.0
  9
$UCSORTHOREF
  2

  9
$UCSORTHOVIEW
 70
     0
  9
$UCSORGTOP
 10
0.0
 20
0.0
 30
0.0
  9
$UCSORGBOTTOM
 10
0.0
 20
0.0
 30
0.0
  9
$UCSORGLEFT
 10
0.0
 20
0.0
 30
0.0
  9
$UCSORGRIGHT
 10
0.0
 20
0.0
 30
0.0
  9
$UCSORGFRONT
 10
0.0
 20
0.0
 30
0.0
  9
$UCSORGBACK
 10
0.0
 20
0.0
 30
0.0
  9
$PUCSBASE
  2

  9
$PUCSNAME
  2

  9
$PUCSORG
 10
0.0
 20
0.0
 30
0.0
  9
$PUCSXDIR
 10
1.0
 20
0.0
 30
0.0
  9
$PUCSYDIR
 10
0.0
 20
1.0
 30
0.0
  9
$PUCSORTHOREF
  2

  9
$PUCSORTHOVIEW
 70
     0
  9
$PUCSORGTOP
 10
0.0
 20
0.0
 30
0.0
  9
$PUCSORGBOTTOM
 10
0.0
 20
0.0
 30
0.0
  9
$PUCSORGLEFT
 10
0.0
 20
0.0
 30
0.0
  9
$PUCSORGRIGHT
 10
0.0
 20
0.0
 30
0.0
  9
$PUCSORGFRONT
 10
0.0
 20
0.0
 30
0.0
  9
$PUCSORGBACK
 10
0.0
 20
0.0
 30
0.0
  9
$USERI1
 70
     0
  9
$USERI2
 70
     0
  9
$USERI3
 70
     0
  9
$USERI4
 70
     0
  9
$USERI5
 70
     0
  9
$USERR1
 40
0.0
  9
$USERR2
 40
0.0
  9
$USERR3
 40
0.0
  9
$USERR4
 40
0.0
  9
$USERR5
 40
0.0
  9
$WORLDVIEW
 70
     1
  9
$SHADEDGE
 70
     3
  9
$SHADEDIF
 70
    70
  9
$TILEMODE
 70
     1
  9
$MAXACTVP
 70
    64
  9
$PINSBASE
 10
0.0
 20
0.0
 30
0.0
  9
$PLIMCHECK
 70
     0
  9
$PEXTMIN
 10
1.000000E+20
 20
1.000000E+20
 30
1.000000E+20
  9
$PEXTMAX
 10
-1.000000E+20
 20
-1.000000E+20
 30
-1.000000E+20
  9
$PLIMMIN
 10
0.0
 20
0.0
  9
$PLIMMAX
 10
12.0
 20
9.0
  9
$UNITMODE
 70
     0
  9
$VISRETAIN
 70
     1
  9
$PLINEGEN
 70
     0
  9
$PSLTSCALE
 70
     1
  9
$TREEDEPTH
 70
  3020
  9
$CMLSTYLE
  2
Standard
  9
$CMLJUST
 70
     0
  9
$CMLSCALE
 40
1.0
  9
$PROXYGRAPHICS
 70
     1
  9
$MEASUREMENT
 70
     0
  9
$CELWEIGHT
370
    -1
  9
$ENDCAPS
280
     0
  9
$JOINSTYLE
280
     0
  9
$LWDISPLAY
290
     0
  9
$INSUNITS
 70
     1
  9
$HYPERLINKBASE
  1

  9
$STYLESHEET
  1

  9
$XEDIT
290
     1
  9
$CEPSNTYPE
380
     0
  9
$PSTYLEMODE
290
     1
  9
$FINGERPRINTGUID
  2
{10DCC315-C427-1043-93CF-7984FB8554AB}
  9
$VERSIONGUID
  2
{E093B243-50D0-EA47-840A-D1D289C99FF8}
  9
$EXTNAMES
290
     1
  9
$PSVPSCALE
 40
0.0
  9
$OLESTARTUP
290
     0
  9
$SORTENTS
280
   127
  9
$INDEXCTL
280
     0
  9
$HIDETEXT
280
     1
  9
$XCLIPFRAME
280
     2
  9
$HALOGAP
280
     0
  9
$OBSCOLOR
 70
   257
  9
$OBSLTYPE
280
     0
  9
$INTERSECTIONDISPLAY
280
     0
  9
$INTERSECTIONCOLOR
 70
   257
  9
$DIMASSOC
280
     2
  9
$PROJECTNAME
  1

  9
$CAMERADISPLAY
290
     0
  9
$LENSLENGTH
 40
50.0
  9
$CAMERAHEIGHT
 40
0.0
  9
$STEPSPERSEC
 40
2.0
  9
$STEPSIZE
 40
6.0
  9
$3DDWFPREC
 40
2.0
  9
$PSOLWIDTH
 40
0.25
  9
$PSOLHEIGHT
 40
4.0
  9
$LOFTANG1
 40
1.570796
  9
$LOFTANG2
 40
1.570796
  9
$LOFTMAG1
 40
0.0
  9
$LOFTMAG2
 40
0.0
  9
$LOFTPARAM
 70
     7
  9
$LOFTNORMALS
280
     1
  9
$LATITUDE
 40
37.795
  9
$LONGITUDE
 40
-122.394
  9
$NORTHDIRECTION
 40
0.0
  9
$TIMEZONE
 70
 -8000
  9
$LIGHTGLYPHDISPLAY
280
     1
  9
$TILEMODELIGHTSYNCH
280
     1
  9
$CMATERIAL
347
11
  9
$SOLIDHIST
280
     0
  9
$SHOWHIST
280
     1
  9
$DWFFRAME
280
     2
  9
$DGNFRAME
280
     0
  9
$REALWORLDSCALE
290
     1
  9
$INTERFERECOLOR
 62
     1
  9
$INTERFEREOBJVS
345
33
  9
$INTERFEREVPVS
346
30
  9
$CSHADOW
280
     0
  9
$SHADOWPLANELOCATION
 40
0.0
  0
ENDSEC
  0
SECTION
  2
CLASSES
  0
CLASS
  1
ACDBDICTIONARYWDFLT
  2
AcDbDictionaryWithDefault
  3
ObjectDBX Classes
 90
        0
 91
        1
280
     0
281
     0
  0
CLASS
  1
MATERIAL
  2
AcDbMaterial
  3
ObjectDBX Classes
 90
     1153
 91
        3
280
     0
281
     0
  0
CLASS
  1
VISUALSTYLE
  2
AcDbVisualStyle
  3
ObjectDBX Classes
 90
     4095
 91
       24
280
     0
281
     0
  0
CLASS
  1
SCALE
  2
AcDbScale
  3
ObjectDBX Classes
 90
     1153
 91
       33
280
     0
281
     0
  0
CLASS
  1
TABLESTYLE
  2
AcDbTableStyle
  3
ObjectDBX Classes
 90
     4095
 91
        1
280
     0
281
     0
  0
CLASS
  1
MLEADERSTYLE
  2
AcDbMLeaderStyle
  3
ACDB_MLEADERSTYLE_CLASS
 90
     4095
 91
        1
280
     0
281
     0
  0
CLASS
  1
ACDBSECTIONVIEWSTYLE
  2
AcDbSectionViewStyle
  3
ObjectDBX Classes
 90
     1025
 91
        1
280
     0
281
     0
  0
CLASS
  1
ACDBDETAILVIEWSTYLE
  2
AcDbDetailViewStyle
  3
ObjectDBX Classes
 90
     1025
 91
        1
280
     0
281
     0
  0
CLASS
  1
ACMESCOPE
  2
AcMeScope
  3
AcMeServices
 90
     1024
 91
        1
280
     0
281
     0
  0
CLASS
  1
ACMECOMMANDHISTORY
  2
AcMeCommandHistory
  3
AcMeServices
 90
     1024
 91
        1
280
     0
281
     0
  0
CLASS
  1
ACIMSYSVARMAN
  2
AcImSysVarManager
  3
AcMeServices
 90
     1024
 91
        1
280
     0
281
     0
  0
CLASS
  1
ACIMINTSYSVAR
  2
AcImIntSysVar
  3
AcMeServices
 90
     1024
 91
        1
280
     0
281
     0
  0
CLASS
  1
ACMESTATEMGR
  2
AcMeStateMgr
  3
AcMeServices
 90
     1024
 91
        1
280
     0
281
     0
  0
CLASS
  1
ACGREFMASTER
  2
AcGrefMaster
  3
AcAttribServices
 90
     1024
 91
        1
280
     0
281
     0
  0
CLASS
  1
SORTENTSTABLE
  2
AcDbSortentsTable
  3
ObjectDBX Classes
 90
        0
 91
        6
280
     0
281
     0
  0
CLASS
  1
IMAGE
  2
AcDbRasterImage
  3
ISM
 90
     2175
 91
        1
280
     0
281
     1
  0
CLASS
  1
IMAGEDEF
  2
AcDbRasterImageDef
  3
ISM
 90
        0
 91
        1
280
     0
281
     0
  0
CLASS
  1
IMAGEDEF_REACTOR
  2
AcDbRasterImageDefReactor
  3
ISM
 90
        1
 91
        2
280
     0
281
     0
  0
CLASS
  1
RASTERVARIABLES
  2
AcDbRasterVariables
  3
ISM
 90
        0
 91
        1
280
     0
281
     0
  0
CLASS
  1
DICTIONARYVAR
  2
AcDbDictionaryVar
  3
ObjectDBX Classes
 90
        0
 91
        6
280
     0
281
     0
  0
CLASS
  1
CELLSTYLEMAP
  2
AcDbCellStyleMap
  3
ObjectDBX Classes
 90
     1152
 91
        1
280
     0
281
     0
  0
ENDSEC
  0
SECTION
  2
TABLES
  0
TABLE
  2
VPORT
  5
8
330
0
100
AcDbSymbolTable
 70
     1
1001
ACAD
1000
DbSaveVer
1071
      251
  0
VPORT
  5
57
330
8
100
AcDbSymbolTableRecord
100
AcDbViewportTableRecord
  2
*Active
 70
     0
 10
0.0
 20
0.0
 11
1.0
 21
1.0
 12
8.5
 22
5.5
 13
0.0
 23
0.0
 14
0.5
 24
0.5
 15
0.0
 25
0.0
 16
0.0
 26
0.0
 36
1.0
 17
0.0
 27
0.0
 37
0.0
 40
11.0
 41
1.777518
 42
50.0
 43
0.0
 44
0.0
 50
0.0
 51
0.0
 71
     0
 72
 20000
 73
     1
 74
     0
 75
     0
 76
     0
 77
     0
 78
     0
281
     0
 65
     1
110
0.0
120
0.0
130
0.0
111
1.0
121
0.0
131
0.0
112
0.0
122
1.0
132
0.0
 79
     0
146
0.0
348
2F
 60
     3
 61
     5
292
     1
282
     1
141
0.0
142
0.0
 63
   250
421
  3355443
  0
ENDTAB
  0
TABLE
  2
LTYPE
  5
5
330
0
100
AcDbSymbolTable
 70
    10
  0
LTYPE
  5
5B
330
5
100
AcDbSymbolTableRecord
100
AcDbLinetypeTableRecord
  2
ByBlock
 70
     0
  3

 72
    65
 73
     0
 40
0.0
  0
LTYPE
  5
5C
330
5
100
AcDbSymbolTableRecord
100
AcDbLinetypeTableRecord
  2
ByLayer
 70
     0
  3

 72
    65
 73
     0
 40
0.0
  0
LTYPE
  5
5D
330
5
100
AcDbSymbolTableRecord
100
AcDbLinetypeTableRecord
  2
Continuous
 70
     0
  3
Solid line
 72
    65
 73
     0
 40
0.0
  0
LTYPE
  5
81
330
5
100
AcDbSymbolTableRecord
100
AcDbLinetypeTableRecord
  2
HIDDEN
 70
     0
  3
Hidden __ __ __ __ __ __ __ __ __ __ __ __ __ _
 72
    65
 73
     2
 40
0.375
 49
0.25
 74
     0
 49
-0.125
 74
     0
  0
LTYPE
  5
82
330
5
100
AcDbSymbolTableRecord
100
AcDbLinetypeTableRecord
  2
PHANTOM2
 70
     0
  3
Phantom (.5x) ___ _ _ ___ _ _ ___ _ _ ___ _ _
 72
    65
 73
     6
 40
1.25
 49
0.625
 74
     0
 49
-0.125
 74
     0
 49
0.125
 74
     0
 49
-0.125
 74
     0
 49
0.125
 74
     0
 49
-0.125
 74
     0
  0
LTYPE
  5
83
330
5
100
AcDbSymbolTableRecord
100
AcDbLinetypeTableRecord
  2
CENTER
 70
     0
  3
Center ____ _ ____ _ ____ _ ____ _ ____ _ ____
 72
    65
 73
     4
 40
2.0
 49
1.25
 74
     0
 49
-0.25
 74
     0
 49
0.25
 74
     0
 49
-0.25
 74
     0
  0
LTYPE
  5
99
330
5
100
AcDbSymbolTableRecord
100
AcDbLinetypeTableRecord
  2
CENTER2
 70
     0
  3
Center (.5x) ___ _ ___ _ ___ _ ___ _ ___ _ ___
 72
    65
 73
     4
 40
1.125
 49
0.75
 74
     0
 49
-0.125
 74
     0
 49
0.125
 74
     0
 49
-0.125
 74
     0
  0
LTYPE
  5
9A
330
5
100
AcDbSymbolTableRecord
100
AcDbLinetypeTableRecord
  2
HIDDEN2
 70
     0
  3
Hidden (.5x) _ _ _ _ _ _ _ _ _ _ _ _ _ _ _ _ _
 72
    65
 73
     2
 40
0.1875
 49
0.125
 74
     0
 49
-0.0625
 74
     0
  0
LTYPE
  5
9B
330
5
100
AcDbSymbolTableRecord
100
AcDbLinetypeTableRecord
  2
Amconstr
 70
     0
  3
_______________________
 72
    65
 73
     2
 40
9999.0
 49
9999.0
 74
     0
 49
0.0
 74
     0
  0
LTYPE
  5
9C
330
5
100
AcDbSymbolTableRecord
100
AcDbLinetypeTableRecord
  2
Amzigzag2
 70
     0
  3
/\/-/\/-/\/-/\/-/\/-/\/
 72
    65
 73
     2
 40
0.4401
 49
0.0001
 74
     4
 75
   136
340
96
 46
0.0016
 50
0.0
 44
0.0
 45
0.0
 49
-0.44
 74
     0
  0
LTYPE
  5
9D
330
5
100
AcDbSymbolTableRecord
100
AcDbLinetypeTableRecord
  2
ACANSTGB
 70
     0
  3
__ . . __ . .
 72
    65
 73
     6
 40
0.354331
 49
0.15748
 74
     0
 49
-0.03937
 74
     0
 49
0.03937
 74
     0
 49
-0.03937
 74
     0
 49
0.03937
 74
     0
 49
-0.03937
 74
     0
  0
LTYPE
  5
9E
330
5
100
AcDbSymbolTableRecord
100
AcDbLinetypeTableRecord
  2
ACANSTGL
 70
     0
  3
_ _ _ _ _
 72
    65
 73
     2
 40
0.11811
 49
0.07874
 74
     0
 49
-0.03937
 74
     0
  0
ENDTAB
  0
TABLE
  2
LAYER
  5
2
330
0
100
AcDbSymbolTable
 70
    10
  0
LAYER
  5
54
330
2
100
AcDbSymbolTableRecord
100
AcDbLayerTableRecord
  2
0
 70
     0
 62
     7
  6
Continuous
370
    -3
390
F
347
21
348
0
1001
AcAecLayerStandard
1000

1000

  0
LAYER
  5
79
330
2
100
AcDbSymbolTableRecord
100
AcDbLayerTableRecord
  2
Defpoints
 70
     0
 62
     7
  6
Continuous
290
     0
370
    -3
390
F
347
21
348
0
1001
AcAecLayerStandard
1000

1000

  0
LAYER
  5
B8
330
2
100
AcDbSymbolTableRecord
100
AcDbLayerTableRecord
  2
Visible
 70
     0
 62
     7
  6
Continuous
370
    50
390
F
347
21
348
0
  0
LAYER
  5
170
330
2
100
AcDbSymbolTableRecord
100
AcDbLayerTableRecord
  2
Visible Narrow
 70
     0
 62
     7
  6
Continuous
370
    35
390
F
347
21
348
0
  0
LAYER
  5
188
330
2
100
AcDbSymbolTableRecord
100
AcDbLayerTableRecord
  2
Titleblock
 70
     0
 62
     7
  6
Continuous
370
    -3
390
F
347
21
348
0
1001
AcAecLayerStandard
1000

1000

1001
AcCmTransparency
1071
        0
  0
LAYER
  5
1AD
330
2
100
AcDbSymbolTableRecord
100
AcDbLayerTableRecord
  2
Border
 70
     0
 62
     7
  6
Continuous
370
    -3
390
F
347
21
348
0
1001
AcAecLayerStandard
1000

1000

1001
AcCmTransparency
1071
        0
  0
LAYER
  5
1CE
330
2
100
AcDbSymbolTableRecord
100
AcDbLayerTableRecord
  2
Dimensions
 70
     0
 62
     7
  6
Continuous
370
    25
390
F
347
21
348
0
  0
ENDTAB
  0
TABLE
  2
STYLE
  5
3
330
0
100
AcDbSymbolTable
 70
     4
  0
STYLE
  5
55
330
3
100
AcDbSymbolTableRecord
100
AcDbTextStyleTableRecord
  2
Standard
 70
     0
 40
0.0
 41
1.0
 50
0.0
 71
     0
 42
0.12
  3
arial.ttf
  4

1001
ACAD
1000
Arial
1071
       34
  0
STYLE
  5
5A
330
3
100
AcDbSymbolTableRecord
100
AcDbTextStyleTableRecord
  2
Annotative
 70
     0
 40
0.0
 41
1.0
 50
0.0
 71
     0
 42
0.2
  3
txt
  4

1001
AcadAnnotative
1000
AnnotativeData
1002
{
1070
     1
1070
     1
1002
}
  0
STYLE
  5
96
330
3
100
AcDbSymbolTableRecord
100
AcDbTextStyleTableRecord
  2

 70
     1
 40
0.0
 41
1.0
 50
0.0
 71
     0
 42
0.12
  3
genltshp.shx
  4

  0
STYLE
  5
97
330
3
100
AcDbSymbolTableRecord
100
AcDbTextStyleTableRecord
  2
ACANSGDT
 70
     0
 40
0.0
 41
1.0
 50
0.0
 71
     0
 42
0.12
  3
amgdt.shx
  4

  0
ENDTAB
  0
TABLE
  2
VIEW
  5
6
330
0
100
AcDbSymbolTable
 70
     0
  0
ENDTAB
  0
TABLE
  2
UCS
  5
7
330
0
100
AcDbSymbolTable
 70
     0
  0
ENDTAB
  0
TABLE
  2
APPID
  5
9
330
0
100
AcDbSymbolTable
 70
    23
  0
APPID
  5
56
330
9
100
AcDbSymbolTableRecord
100
AcDbRegAppTableRecord
  2
ACAD
 70
     0
  0
APPID
  5
5E
330
9
100
AcDbSymbolTableRecord
100
AcDbRegAppTableRecord
  2
AcadAnnotative
 70
     0
  0
APPID
  5
78
330
9
100
AcDbSymbolTableRecord
100
AcDbRegAppTableRecord
  2
ACAD_PSEXT
 70
     0
  0
APPID
  5
7A
330
9
100
AcDbSymbolTableRecord
100
AcDbRegAppTableRecord
  2
MCAD_NO_VIS
 70
     0
  0
APPID
  5
7B
330
9
100
AcDbSymbolTableRecord
100
AcDbRegAppTableRecord
  2
ACAD_TEMP_GRAPHIC
 70
     0
  0
APPID
  5
84
330
9
100
AcDbSymbolTableRecord
100
AcDbRegAppTableRecord
  2
ACAD_DSTYLE_DIMJAG
 70
     0
  0
APPID
  5
85
330
9
100
AcDbSymbolTableRecord
100
AcDbRegAppTableRecord
  2
ACAD_DSTYLE_DIMTALN
 70
     0
  0
APPID
  5
86
330
9
100
AcDbSymbolTableRecord
100
AcDbRegAppTableRecord
  2
ACAD_NAV_VCDISPLAY
 70
     0
  0
APPID
  5
87
330
9
100
AcDbSymbolTableRecord
100
AcDbRegAppTableRecord
  2
AcAecLayerStandard
 70
     0
  0
APPID
  5
88
330
9
100
AcDbSymbolTableRecord
100
AcDbRegAppTableRecord
  2
AcCmTransparency
 70
     0
  0
APPID
  5
89
330
9
100
AcDbSymbolTableRecord
100
AcDbRegAppTableRecord
  2
ACAD_DSTYLE_DIMBREAK
 70
     0
  0
APPID
  5
8A
330
9
100
AcDbSymbolTableRecord
100
AcDbRegAppTableRecord
  2
FUSIONTITLEBLOCK
 70
     0
  0
APPID
  5
8B
330
9
100
AcDbSymbolTableRecord
100
AcDbRegAppTableRecord
  2
FUSIONCURRENTTITLEBLOCK
 70
     0
  0
APPID
  5
8C
330
9
100
AcDbSymbolTableRecord
100
AcDbRegAppTableRecord
  2
AcSynergy
 70
     0
  0
APPID
  5
8D
330
9
100
AcDbSymbolTableRecord
100
AcDbRegAppTableRecord
  2
ACAD_VIEW_EDGE_ID
 70
     0
  0
APPID
  5
8E
330
9
100
AcDbSymbolTableRecord
100
AcDbRegAppTableRecord
  2
GENIUS_GENSCREG_15
 70
     0
  0
APPID
  5
8F
330
9
100
AcDbSymbolTableRecord
100
AcDbRegAppTableRecord
  2
GENIUS_GENOBJ-N-SDF_13
 70
     0
  0
APPID
  5
90
330
9
100
AcDbSymbolTableRecord
100
AcDbRegAppTableRecord
  2
GENIUS_GENODEF_13
 70
     0
  0
APPID
  5
91
330
9
100
AcDbSymbolTableRecord
100
AcDbRegAppTableRecord
  2
ACAD_DIMASSOC_CALC_DIMLFAC
 70
     0
  0
APPID
  5
92
330
9
100
AcDbSymbolTableRecord
100
AcDbRegAppTableRecord
  2
ACAD_DIMASSOC_DIMLFAC
 70
     0
  0
APPID
  5
93
330
9
100
AcDbSymbolTableRecord
100
AcDbRegAppTableRecord
  2
ACAD_DIMASSOC_OVERRIDDEN_DIMLFAC
 70
     0
  0
APPID
  5
94
330
9
100
AcDbSymbolTableRecord
100
AcDbRegAppTableRecord
  2
FD_ATT_APPNAME
 70
     0
  0
APPID
  5
95
330
9
100
AcDbSymbolTableRecord
100
AcDbRegAppTableRecord
  2
ACATTRIBSERVICES
 70
     0
  0
ENDTAB
  0
TABLE
  2
DIMSTYLE
  5
A
330
0
100
AcDbSymbolTable
 70
     2
100
AcDbDimStyleTable
 71
     1
340
58
  0
DIMSTYLE
105
58
102
{ACAD_REACTORS
330
1DC
330
1EA
330
1F8
330
206
330
214
330
222
330
230
330
23E
330
1CD
102
}
330
A
100
AcDbSymbolTableRecord
100
AcDbDimStyleTableRecord
  2
Standard
 70
     0
  3
in
  4
mm
 41
0.12
 42
0.05
 43
0.339411
 44
0.1
 47
0.01
 48
0.01
 78
    12
 79
     3
 90
     1
140
0.12
141
0.0
147
0.06
176
   256
177
   256
178
   256
179
     2
271
     2
272
     2
284
    12
285
    12
286
    12
340
55
  0
DIMSTYLE
105
59
330
A
100
AcDbSymbolTableRecord
100
AcDbDimStyleTableRecord
  2
Annotative
 70
     0
  3
in
 40
0.0
 43
0.339411
 78
    12
 79
     3
140
0.12
179
     2
271
     2
272
     2
284
    12
285
    12
286
    12
340
55
1001
AcadAnnotative
1000
AnnotativeData
1002
{
1070
     1
1070
     1
1002
}
  0
ENDTAB
  0
TABLE
  2
BLOCK_RECORD
  5
1
330
0
100
AcDbSymbolTable
 70
    24
  0
BLOCK_RECORD
  5
70
102
{ACAD_XDICTIONARY
360
B1
102
}
330
1
100
AcDbSymbolTableRecord
100
AcDbBlockTableRecord
  2
*Model_Space
340
73
 70
     0
280
     1
281
     0
  0
BLOCK_RECORD
  5
6C
330
1
100
AcDbSymbolTableRecord
100
AcDbBlockTableRecord
  2
*Paper_Space
340
6F
 70
     0
280
     1
281
     0
  0
BLOCK_RECORD
  5
74
330
1
100
AcDbSymbolTableRecord
100
AcDbBlockTableRecord
  2
*Paper_Space0
340
77
 70
     0
280
     1
281
     0
  0
BLOCK_RECORD
  5
189
102
{ACAD_XDICTIONARY
360
18A
102
}
330
1
100
AcDbSymbolTableRecord
100
AcDbBlockTableRecord
  2
Shower
340
0
102
{BLKREFS
331
187
102
}
 70
     1
280
     1
281
     0
1001
FUSIONTITLEBLOCK
1000
TitleBlock
  0
BLOCK_RECORD
  5
1AE
330
1
100
AcDbSymbolTableRecord
100
AcDbBlockTableRecord
  2
ANSI_B_SHEET
340
0
310
2800000020000000200000000100080000000000000400000000000000000000000000000000000000000000000080000080000000808000800000008000800080800000C0C0C000C0DCC000F0CAA6000020400000206000002080000020A0000020C0000020E00000400000004020000040400000406000004080000040A0
310
000040C0000040E00000600000006020000060400000606000006080000060A0000060C0000060E00000800000008020000080400000806000008080000080A0000080C0000080E00000A0000000A0200000A0400000A0600000A0800000A0A00000A0C00000A0E00000C0000000C0200000C0400000C0600000C0800000C0
310
A00000C0C00000C0E00000E0000000E0200000E0400000E0600000E0800000E0A00000E0C00000E0E00040000000400020004000400040006000400080004000A0004000C0004000E00040200000402020004020400040206000402080004020A0004020C0004020E000404000004040200040404000404060004040800040
310
40A0004040C0004040E00040600000406020004060400040606000406080004060A0004060C0004060E00040800000408020004080400040806000408080004080A0004080C0004080E00040A0000040A0200040A0400040A0600040A0800040A0A00040A0C00040A0E00040C0000040C0200040C0400040C0600040C08000
310
40C0A00040C0C00040C0E00040E0000040E0200040E0400040E0600040E0800040E0A00040E0C00040E0E00080000000800020008000400080006000800080008000A0008000C0008000E00080200000802020008020400080206000802080008020A0008020C0008020E00080400000804020008040400080406000804080
310
008040A0008040C0008040E00080600000806020008060400080606000806080008060A0008060C0008060E00080800000808020008080400080806000808080008080A0008080C0008080E00080A0000080A0200080A0400080A0600080A0800080A0A00080A0C00080A0E00080C0000080C0200080C0400080C0600080C0
310
800080C0A00080C0C00080C0E00080E0000080E0200080E0400080E0600080E0800080E0A00080E0C00080E0E000C0000000C0002000C0004000C0006000C0008000C000A000C000C000C000E000C0200000C0202000C0204000C0206000C0208000C020A000C020C000C020E000C0400000C0402000C0404000C0406000C0
310
408000C040A000C040C000C040E000C0600000C0602000C0604000C0606000C0608000C060A000C060C000C060E000C0800000C0802000C0804000C0806000C0808000C080A000C080C000C080E000C0A00000C0A02000C0A04000C0A06000C0A08000C0A0A000C0A0C000C0A0E000C0C00000C0C02000C0C04000C0C06000
310
C0C08000C0C0A000F0FBFF00A4A0A000808080000000FF0000FF000000FFFF00FF000000FF00FF00FFFF0000FFFFFF0049494949494949494949494949494949494949494949494949494949494949494949494949494949494949494949494949494949494949494949494949494949494949494949494949494949494949
310
494949494949494949494949494949494949494949494949494949494949494949494949494949494949494949494949494949494949494949494949494949494949494949494949494949494949494949494949494949494949494949494949494949494949494949494949494949494949FFFF4949494949494949494949
310
494949494949494949494949494949FFFF4949FFFFFFFFFFFFFFFFFFFFFFFFFFFFFFFFFFFFFFFFFFFFFFFFFFFFFFFFFFFF494949FF4949494949494949494949494949494949494949494949494949FF49494949FF4949494949494949494949494949494949494949494949494949FF49494949FF49494949494949494949
310
49494949494949494949494949494949FF49494949FF4949494949494949494949494949494949494949494949494949FF49494949FF4949494949494949494949494949494949494949494949494949FF49494949FF4949494949494949494949494949494949494949494949494949FF49494949FF494949494949494949
310
4949494949494949494949494949494949FF49494949FF4949494949494949494949494949494949494949494949494949FF49494949FF4949494949494949494949494949494949494949494949494949FF49494949FF4949494949494949494949494949494949494949494949494949FF49494949FF4949494949494949
310
494949494949494949494949494949494949FF49494949FF4949494949494949494949494949494949494949494949494949FF49494949FF4949494949494949494949494949494949494949494949494949FF49494949FF4949494949494949494949494949494949494949494949494949FF49494949FF49494949494949
310
49494949494949494949494949494949494949FF49494949FF4949494949494949494949494949494949494949494949494949FF494949FFFFFFFFFFFFFFFFFFFFFFFFFFFFFFFFFFFFFFFFFFFFFFFFFFFFFFFFFFFF4949FFFF4949494949494949494949494949494949494949494949494949FFFF49494949494949494949
310
49494949494949494949494949494949494949494949494949494949494949494949494949494949494949494949494949494949494949494949494949494949494949494949494949494949494949494949494949494949494949494949494949494949494949494949494949494949494949494949494949494949494949
310
4949494949494949494949494949494949494949494949494949494949494949494949494949494949494949494949494949494949494949
102
{BLKREFS
331
1AC
102
}
 70
     1
280
     1
281
     0
  0
BLOCK_RECORD
  5
1CF
330
1
100
AcDbSymbolTableRecord
100
AcDbBlockTableRecord
  2
*D6
340
0
 70
     0
280
     1
281
     0
  0
BLOCK_RECORD
  5
1DD
330
1
100
AcDbSymbolTableRecord
100
AcDbBlockTableRecord
  2
*D7
340
0
 70
     0
280
     1
281
     0
  0
BLOCK_RECORD
  5
1EB
330
1
100
AcDbSymbolTableRecord
100
AcDbBlockTableRecord
  2
*D8
340
0
 70
     0
280
     1
281
     0
  0
BLOCK_RECORD
  5
1F9
330
1
100
AcDbSymbolTableRecord
100
AcDbBlockTableRecord
  2
*D9
340
0
 70
     0
280
     1
281
     0
  0
BLOCK_RECORD
  5
207
330
1
100
AcDbSymbolTableRecord
100
AcDbBlockTableRecord
  2
*D10
340
0
 70
     0
280
     1
281
     0
  0
BLOCK_RECORD
  5
215
330
1
100
AcDbSymbolTableRecord
100
AcDbBlockTableRecord
  2
*D11
340
0
 70
     0
280
     1
281
     0
  0
BLOCK_RECORD
  5
223
330
1
100
AcDbSymbolTableRecord
100
AcDbBlockTableRecord
  2
*D12
340
0
 70
     0
280
     1
281
     0
  0
BLOCK_RECORD
  5
231
330
1
100
AcDbSymbolTableRecord
100
AcDbBlockTableRecord
  2
*D13
340
0
 70
     0
280
     1
281
     0
  0
BLOCK_RECORD
  5
23F
330
1
100
AcDbSymbolTableRecord
100
AcDbBlockTableRecord
  2
*D14
340
0
 70
     0
280
     1
281
     0
  0
BLOCK_RECORD
  5
24D
330
1
100
AcDbSymbolTableRecord
100
AcDbBlockTableRecord
  2
*D15
340
0
 70
     0
280
     1
281
     0
  0
BLOCK_RECORD
  5
25A
330
1
100
AcDbSymbolTableRecord
100
AcDbBlockTableRecord
  2
*D16
340
0
 70
     0
280
     1
281
     0
  0
BLOCK_RECORD
  5
267
330
1
100
AcDbSymbolTableRecord
100
AcDbBlockTableRecord
  2
*D17
340
0
 70
     0
280
     1
281
     0
  0
BLOCK_RECORD
  5
274
330
1
100
AcDbSymbolTableRecord
100
AcDbBlockTableRecord
  2
*D18
340
0
 70
     0
280
     1
281
     0
  0
BLOCK_RECORD
  5
281
330
1
100
AcDbSymbolTableRecord
100
AcDbBlockTableRecord
  2
*D19
340
0
 70
     0
280
     1
281
     0
  0
BLOCK_RECORD
  5
28E
330
1
100
AcDbSymbolTableRecord
100
AcDbBlockTableRecord
  2
*D20
340
0
 70
     0
280
     1
281
     0
  0
BLOCK_RECORD
  5
29B
330
1
100
AcDbSymbolTableRecord
100
AcDbBlockTableRecord
  2
*D21
340
0
 70
     0
280
     1
281
     0
  0
BLOCK_RECORD
  5
2A8
330
1
100
AcDbSymbolTableRecord
100
AcDbBlockTableRecord
  2
*D22
340
0
 70
     0
280
     1
281
     0
  0
BLOCK_RECORD
  5
2B5
330
1
100
AcDbSymbolTableRecord
100
AcDbBlockTableRecord
  2
*D23
340
0
 70
     0
280
     1
281
     0
  0
ENDTAB
  0
ENDSEC
  0
SECTION
  2
BLOCKS
  0
BLOCK
  5
71
330
70
100
AcDbEntity
  8
0
100
AcDbBlockBegin
  2
*Model_Space
 70
     0
 10
0.0
 20
0.0
 30
0.0
  3
*Model_Space
  1

  0
ENDBLK
  5
72
330
70
100
AcDbEntity
  8
0
100
AcDbBlockEnd
  0
BLOCK
  5
6D
330
6C
100
AcDbEntity
 67
     1
  8
0
100
AcDbBlockBegin
  2
*Paper_Space
 70
     0
 10
0.0
 20
0.0
 30
0.0
  3
*Paper_Space
  1

  0
ENDBLK
  5
6E
330
6C
100
AcDbEntity
 67
     1
  8
0
100
AcDbBlockEnd
  0
BLOCK
  5
75
330
74
100
AcDbEntity
 67
     1
  8
0
100
AcDbBlockBegin
  2
*Paper_Space0
 70
     0
 10
0.0
 20
0.0
 30
0.0
  3
*Paper_Space0
  1

  0
ENDBLK
  5
76
330
74
100
AcDbEntity
 67
     1
  8
0
100
AcDbBlockEnd
  0
BLOCK
  5
18C
330
189
100
AcDbEntity
  8
0
100
AcDbBlockBegin
  2
Shower
 70
     2
 10
0.0
 20
0.0
 30
0.0
  3
Shower
  1

  0
LWPOLYLINE
  5
18D
330
189
100
AcDbEntity
  8
Titleblock
100
AcDbPolyline
 90
        4
 70
     1
 43
0.0
 10
0.0
 20
0.0
 10
-4.9375
 20
0.0
 10
-4.9375
 20
2.5
 10
0.0
 20
2.5
  0
IMAGE
  5
18E
330
189
100
AcDbEntity
  8
Titleblock
  6
Continuous
160
               140
310
8C0000000100000084000000060000000500000000000000008013C000B87FA8928AB03F000000000000000000000000008013C035B4911D6523F03F000000000000000001000000008001C035B4911D6523F03F000000000000000001000000008001C000B87FA8928AB03F000000000000000000000000008013C000B87F
310
A8928AB03F0000000000000000
370
     0
100
AcDbRasterImage
 90
        0
 10
-4.875
 20
0.064614
 30
0.0
 11
0.0028349156118143
 21
0.0
 31
0.0
 12
0.0
 22
0.0028349156118143
 32
0.0
 13
948.0
 23
333.0
340
18F
 70
    15
280
     0
281
    50
282
    50
283
     0
290
     0
360
191
 71
     1
 91
        2
 14
-0.5
 24
-0.5
 14
947.5
 24
332.5
  0
LWPOLYLINE
  5
193
330
189
100
AcDbEntity
  8
Titleblock
  6
Continuous
370
    25
100
AcDbPolyline
 90
        4
 70
     1
 43
0.0
 10
0.0
 20
1.0625
 10
-4.9375
 20
1.061638
 10
-4.9375
 20
0.0
 10
0.0
 20
0.0
  0
LWPOLYLINE
  5
194
330
189
100
AcDbEntity
  8
Titleblock
  6
Continuous
370
    25
100
AcDbPolyline
 90
        4
 70
     1
 43
0.0
 10
-1.75
 20
2.5
 10
0.0
 20
2.5
 10
0.0
 20
2.5
 10
-1.75
 20
2.5
  0
ATTDEF
  5
195
330
189
100
AcDbEntity
  8
Titleblock
  6
Continuous
370
    25
100
AcDbText
 10
-3.6875
 20
2.3125
 30
0.0
 40
0.12
  1

100
AcDbAttributeDefinition
280
     0
  3

  2
PROJECT
 70
     0
280
     1
  0
MTEXT
  5
196
330
189
100
AcDbEntity
  8
Titleblock
  6
Continuous
370
    25
100
AcDbMText
 10
-4.875
 20
1.653875
 30
0.0
 40
0.12
 41
0.6875
 46
0.0
 71
     1
 72
     5
  1
Description:
 73
     1
 44
1.0
1001
ACAD
1000
ACAD_MTEXT_COLUMN_INFO_BEGIN
1070
    75
1070
     2
1070
    79
1070
     0
1070
    76
1070
     1
1070
    78
1070
     0
1070
    48
1040
0.6875
1070
    49
1040
0.6
1070
    50
1070
     1
1040
0.0
1000
ACAD_MTEXT_COLUMN_INFO_END
  0
ATTDEF
  5
197
330
189
100
AcDbEntity
  8
Titleblock
  6
Continuous
370
    25
100
AcDbText
 10
-1.6875
 20
0.6875
 30
0.0
 40
0.12
  1

100
AcDbAttributeDefinition
280
     0
  3

  2
DRAWN_DATE
 70
     0
280
     1
  0
ATTDEF
  5
198
330
189
100
AcDbEntity
  8
Titleblock
  6
Continuous
370
    25
100
AcDbText
 10
-4.3125
 20
1.8125
 30
0.0
 40
0.3048
  1

100
AcDbAttributeDefinition
280
     0
  3

  2
TITLE_1
 70
     0
280
     1
  0
ATTDEF
  5
199
330
189
100
AcDbEntity
  8
Titleblock
  6
Continuous
370
    25
100
AcDbText
 10
-1.6875
 20
0.91994
 30
0.0
 40
0.12
  1

100
AcDbAttributeDefinition
280
     0
  3

  2
SCALE
 70
     0
280
     1
  0
LWPOLYLINE
  5
19A
330
189
100
AcDbEntity
  8
Titleblock
  6
Continuous
370
    25
100
AcDbPolyline
 90
        4
 70
     1
 43
0.0
 10
0.0
 20
1.0625
 10
0.0
 20
1.0625
 10
0.0
 20
0.0
 10
0.0
 20
0.0
  0
LWPOLYLINE
  5
19B
330
189
100
AcDbEntity
  8
Titleblock
  6
Continuous
370
    25
100
AcDbPolyline
 90
        4
 70
     1
 43
0.0
 10
0.0
 20
1.0625
 10
0.0
 20
1.0625
 10
0.0
 20
0.0
 10
0.0
 20
0.0
  0
LINE
  5
19C
330
189
100
AcDbEntity
  8
Titleblock
  6
Continuous
370
    25
100
AcDbLine
 10
-2.125
 20
1.062165
 30
0.0
 11
-2.125
 21
0.0
 31
0.0
  0
LWPOLYLINE
  5
19D
330
189
100
AcDbEntity
  8
Titleblock
  6
Continuous
370
    25
100
AcDbPolyline
 90
        4
 70
     1
 43
0.0
 10
-4.9375
 20
2.5
 10
0.0
 20
2.5
 10
0.0
 20
2.5
 10
-4.9375
 20
2.5
  0
LINE
  5
19E
330
189
100
AcDbEntity
  8
Titleblock
  6
Continuous
370
    25
100
AcDbLine
 10
-4.9375
 20
2.25
 30
0.0
 11
0.0
 21
2.25
 31
0.0
  0
LINE
  5
19F
330
189
100
AcDbEntity
  8
Titleblock
  6
Continuous
370
    25
100
AcDbLine
 10
-4.9375
 20
1.6875
 30
0.0
 11
0.0
 21
1.6875
 31
0.0
  0
MTEXT
  5
1A0
330
189
100
AcDbEntity
  8
Titleblock
100
AcDbMText
 10
-4.875
 20
2.467284
 30
0.0
 40
0.12
 41
0.375
 46
0.0
 71
     1
 72
     5
  1
Project:
 73
     1
 44
1.0
1001
ACAD
1000
ACAD_MTEXT_COLUMN_INFO_BEGIN
1070
    75
1070
     2
1070
    79
1070
     0
1070
    76
1070
     1
1070
    78
1070
     0
1070
    48
1040
0.375
1070
    49
1040
0.6
1070
    50
1070
     1
1040
0.0
1000
ACAD_MTEXT_COLUMN_INFO_END
  0
MTEXT
  5
1A1
330
189
100
AcDbEntity
  8
Titleblock
100
AcDbMText
 10
-2.0625
 20
1.045477
 30
0.0
 40
0.075
 41
0.375
 46
0.0
 71
     1
 72
     5
  1
Scale:
 73
     1
 44
1.0
1001
ACAD
1000
ACAD_MTEXT_COLUMN_INFO_BEGIN
1070
    75
1070
     2
1070
    79
1070
     0
1070
    76
1070
     1
1070
    78
1070
     0
1070
    48
1040
0.375
1070
    49
1040
0.6
1070
    50
1070
     1
1040
0.0
1000
ACAD_MTEXT_COLUMN_INFO_END
  0
MTEXT
  5
1A2
330
189
100
AcDbEntity
  8
Titleblock
100
AcDbMText
 10
-2.0625
 20
0.857735
 30
0.0
 40
0.075
 41
0.375
 46
0.0
 71
     1
 72
     5
  1
Date Drawn:
 73
     1
 44
1.0
1001
ACAD
1000
ACAD_MTEXT_COLUMN_INFO_BEGIN
1070
    75
1070
     2
1070
    79
1070
     0
1070
    76
1070
     1
1070
    78
1070
     0
1070
    48
1040
0.375
1070
    49
1040
0.6
1070
    50
1070
     1
1040
0.0
1000
ACAD_MTEXT_COLUMN_INFO_END
  0
LINE
  5
1A3
330
189
100
AcDbEntity
  8
Titleblock
100
AcDbLine
 10
-2.125
 20
0.875
 30
0.0
 11
0.0
 21
0.875
 31
0.0
  0
LINE
  5
1A4
330
189
100
AcDbEntity
  8
Titleblock
100
AcDbLine
 10
-2.125
 20
0.625
 30
0.0
 11
0.0
 21
0.625
 31
0.0
  0
MTEXT
  5
1A5
330
189
100
AcDbEntity
  8
Titleblock
100
AcDbMText
 10
-4.875
 20
2.220603
 30
0.0
 40
0.12
 41
0.625
 46
0.0
 71
     1
 72
     5
  1
Title:
 73
     1
 44
1.0
1001
ACAD
1000
ACAD_MTEXT_COLUMN_INFO_BEGIN
1070
    75
1070
     2
1070
    79
1070
     0
1070
    76
1070
     1
1070
    78
1070
     0
1070
    48
1040
0.625
1070
    49
1040
0.6
1070
    50
1070
     1
1040
0.0
1000
ACAD_MTEXT_COLUMN_INFO_END
  0
ENDBLK
  5
1A6
330
189
100
AcDbEntity
  8
0
100
AcDbBlockEnd
  0
BLOCK
  5
1AF
330
1AE
100
AcDbEntity
  8
0
100
AcDbBlockBegin
  2
ANSI_B_SHEET
 70
     0
 10
0.0
 20
0.0
 30
0.0
  3
ANSI_B_SHEET
  1

  0
LINE
  5
1B0
330
1AE
100
AcDbEntity
  8
Border
100
AcDbLine
 10
0.0
 20
0.0
 30
0.0
 11
0.5
 21
0.0
 31
0.0
  0
LINE
  5
1B1
330
1AE
100
AcDbEntity
  8
Border
100
AcDbLine
 10
16.5
 20
0.0
 30
0.0
 11
17.0
 21
0.0
 31
0.0
  0
LINE
  5
1B2
330
1AE
100
AcDbEntity
  8
Border
100
AcDbLine
 10
0.62
 20
0.38
 30
0.0
 11
16.38
 21
0.38
 31
0.0
  0
LINE
  5
1B3
330
1AE
100
AcDbEntity
  8
Border
100
AcDbLine
 10
17.0
 20
0.0
 30
0.0
 11
17.0
 21
0.5
 31
0.0
  0
LINE
  5
1B4
330
1AE
100
AcDbEntity
  8
Border
100
AcDbLine
 10
17.0
 20
10.5
 30
0.0
 11
17.0
 21
11.0
 31
0.0
  0
LINE
  5
1B5
330
1AE
100
AcDbEntity
  8
Border
100
AcDbLine
 10
16.38
 20
0.38
 30
0.0
 11
16.38
 21
10.62
 31
0.0
  0
LINE
  5
1B6
330
1AE
100
AcDbEntity
  8
Border
100
AcDbLine
 10
17.0
 20
11.0
 30
0.0
 11
16.5
 21
11.0
 31
0.0
  0
LINE
  5
1B7
330
1AE
100
AcDbEntity
  8
Border
100
AcDbLine
 10
0.5
 20
11.0
 30
0.0
 11
0.0
 21
11.0
 31
0.0
  0
LINE
  5
1B8
330
1AE
100
AcDbEntity
  8
Border
100
AcDbLine
 10
16.38
 20
10.62
 30
0.0
 11
0.62
 21
10.62
 31
0.0
  0
LINE
  5
1B9
330
1AE
100
AcDbEntity
  8
Border
100
AcDbLine
 10
0.0
 20
11.0
 30
0.0
 11
0.0
 21
10.5
 31
0.0
  0
LINE
  5
1BA
330
1AE
100
AcDbEntity
  8
Border
100
AcDbLine
 10
0.0
 20
0.5
 30
0.0
 11
0.0
 21
0.0
 31
0.0
  0
LINE
  5
1BB
330
1AE
100
AcDbEntity
  8
Border
100
AcDbLine
 10
0.62
 20
10.62
 30
0.0
 11
0.62
 21
0.38
 31
0.0
  0
LINE
  5
1BC
330
1AE
100
AcDbEntity
  8
Border
100
AcDbLine
 10
8.413397
 20
0.23
 30
0.0
 11
8.586603
 21
0.23
 31
0.0
  0
LINE
  5
1BD
330
1AE
100
AcDbEntity
  8
Border
100
AcDbLine
 10
8.5
 20
0.38
 30
0.0
 11
8.5
 21
0.13
 31
0.0
  0
LINE
  5
1BE
330
1AE
100
AcDbEntity
  8
Border
100
AcDbLine
 10
8.5
 20
0.38
 30
0.0
 11
8.413397
 21
0.23
 31
0.0
  0
LINE
  5
1BF
330
1AE
100
AcDbEntity
  8
Border
100
AcDbLine
 10
8.5
 20
0.38
 30
0.0
 11
8.586603
 21
0.23
 31
0.0
  0
LINE
  5
1C0
330
1AE
100
AcDbEntity
  8
Border
100
AcDbLine
 10
0.47
 20
5.586603
 30
0.0
 11
0.47
 21
5.413397
 31
0.0
  0
LINE
  5
1C1
330
1AE
100
AcDbEntity
  8
Border
100
AcDbLine
 10
0.62
 20
5.5
 30
0.0
 11
0.37
 21
5.5
 31
0.0
  0
LINE
  5
1C2
330
1AE
100
AcDbEntity
  8
Border
100
AcDbLine
 10
0.62
 20
5.5
 30
0.0
 11
0.47
 21
5.586603
 31
0.0
  0
LINE
  5
1C3
330
1AE
100
AcDbEntity
  8
Border
100
AcDbLine
 10
0.62
 20
5.5
 30
0.0
 11
0.47
 21
5.413397
 31
0.0
  0
LINE
  5
1C4
330
1AE
100
AcDbEntity
  8
Border
100
AcDbLine
 10
16.53
 20
5.586603
 30
0.0
 11
16.53
 21
5.413397
 31
0.0
  0
LINE
  5
1C5
330
1AE
100
AcDbEntity
  8
Border
100
AcDbLine
 10
16.38
 20
5.5
 30
0.0
 11
16.63
 21
5.5
 31
0.0
  0
LINE
  5
1C6
330
1AE
100
AcDbEntity
  8
Border
100
AcDbLine
 10
16.38
 20
5.5
 30
0.0
 11
16.53
 21
5.586603
 31
0.0
  0
LINE
  5
1C7
330
1AE
100
AcDbEntity
  8
Border
100
AcDbLine
 10
16.38
 20
5.5
 30
0.0
 11
16.53
 21
5.413397
 31
0.0
  0
LINE
  5
1C8
330
1AE
100
AcDbEntity
  8
Border
100
AcDbLine
 10
8.413397
 20
10.77
 30
0.0
 11
8.586603
 21
10.77
 31
0.0
  0
LINE
  5
1C9
330
1AE
100
AcDbEntity
  8
Border
100
AcDbLine
 10
8.5
 20
10.62
 30
0.0
 11
8.5
 21
10.87
 31
0.0
  0
LINE
  5
1CA
330
1AE
100
AcDbEntity
  8
Border
100
AcDbLine
 10
8.5
 20
10.62
 30
0.0
 11
8.413397
 21
10.77
 31
0.0
  0
LINE
  5
1CB
330
1AE
100
AcDbEntity
  8
Border
100
AcDbLine
 10
8.5
 20
10.62
 30
0.0
 11
8.586603
 21
10.77
 31
0.0
  0
ENDBLK
  5
1CC
330
1AE
100
AcDbEntity
  8
0
100
AcDbBlockEnd
  0
BLOCK
  5
1D0
330
1CF
100
AcDbEntity
  8
0
100
AcDbBlockBegin
  2
*D6
 70
     1
 10
0.0
 20
0.0
 30
0.0
  3
*D6
  1

  0
LINE
  5
1D1
330
1CF
100
AcDbEntity
  8
Dimensions
440
 16777216
370
    -2
100
AcDbLine
 10
7.318891
 20
3.749204
 30
0.0
 11
7.318795
 21
2.68097
 31
0.0
  0
LINE
  5
1D2
330
1CF
100
AcDbEntity
  8
Dimensions
440
 16777216
370
    -2
100
AcDbLine
 10
9.681095
 20
3.748993
 30
0.0
 11
9.681
 21
2.680759
 31
0.0
  0
LINE
  5
1D3
330
1CF
100
AcDbEntity
  8
Dimensions
440
 16777216
370
    -2
100
AcDbLine
 10
7.438804
 20
2.780959
 30
0.0
 11
8.219757
 21
2.78089
 31
0.0
  0
LINE
  5
1D4
330
1CF
100
AcDbEntity
  8
Dimensions
440
 16777216
370
    -2
100
AcDbLine
 10
9.561009
 20
2.78077
 30
0.0
 11
8.780057
 21
2.78084
 31
0.0
  0
SOLID
  5
1D5
330
1CF
100
AcDbEntity
  8
Dimensions
440
 16777216
100
AcDbTrace
 10
7.438806
 20
2.800959
 30
0.0
 11
7.438803
 21
2.760959
 31
0.0
 12
7.318804
 22
2.78097
 32
0.0
 13
7.318804
 23
2.78097
 33
0.0
  0
SOLID
  5
1D6
330
1CF
100
AcDbEntity
  8
Dimensions
440
 16777216
100
AcDbTrace
 10
9.561011
 20
2.80077
 30
0.0
 11
9.561007
 21
2.76077
 31
0.0
 12
9.681009
 22
2.780759
 32
0.0
 13
9.681009
 23
2.780759
 33
0.0
  0
MTEXT
  5
1D7
330
1CF
100
AcDbEntity
  8
Dimensions
440
 16777216
100
AcDbMText
 10
8.499907
 20
2.780865
 30
0.0
 40
0.12
 41
0.0
 46
0.0
 71
     5
 72
     1
  1
\A1;2.36in
 73
     1
 44
1.0
  0
POINT
  5
1D8
330
1CF
100
AcDbEntity
  8
Defpoints
 62
     0
440
 16777216
100
AcDbPoint
 10
7.318895
 20
3.799204
 30
0.0
  0
POINT
  5
1D9
330
1CF
100
AcDbEntity
  8
Defpoints
 62
     0
440
 16777216
100
AcDbPoint
 10
9.6811
 20
3.798993
 30
0.0
  0
POINT
  5
1DA
330
1CF
100
AcDbEntity
  8
Defpoints
 62
     0
440
 16777216
100
AcDbPoint
 10
9.681009
 20
2.780759
 30
0.0
  0
ENDBLK
  5
1DB
330
1CF
100
AcDbEntity
  8
0
100
AcDbBlockEnd
  0
BLOCK
  5
1DE
330
1DD
100
AcDbEntity
  8
0
100
AcDbBlockBegin
  2
*D7
 70
     1
 10
0.0
 20
0.0
 30
0.0
  3
*D7
  1

  0
LINE
  5
1DF
330
1DD
100
AcDbEntity
  8
Dimensions
440
 16777216
370
    -2
100
AcDbLine
 10
7.269035
 20
5.374007
 30
0.0
 11
6.540073
 21
5.374007
 31
0.0
  0
LINE
  5
1E0
330
1DD
100
AcDbEntity
  8
Dimensions
440
 16777216
370
    -2
100
AcDbLine
 10
7.268895
 20
3.799204
 30
0.0
 11
6.540073
 21
3.799204
 31
0.0
  0
LINE
  5
1E1
330
1DD
100
AcDbEntity
  8
Dimensions
440
 16777216
370
    -2
100
AcDbLine
 10
6.640073
 20
5.254007
 30
0.0
 11
6.640073
 21
4.707874
 31
0.0
  0
LINE
  5
1E2
330
1DD
100
AcDbEntity
  8
Dimensions
440
 16777216
370
    -2
100
AcDbLine
 10
6.640073
 20
3.919204
 30
0.0
 11
6.640073
 21
4.465337
 31
0.0
  0
SOLID
  5
1E3
330
1DD
100
AcDbEntity
  8
Dimensions
440
 16777216
100
AcDbTrace
 10
6.620073
 20
5.254007
 30
0.0
 11
6.660073
 21
5.254007
 31
0.0
 12
6.640073
 22
5.374007
 32
0.0
 13
6.640073
 23
5.374007
 33
0.0
  0
SOLID
  5
1E4
330
1DD
100
AcDbEntity
  8
Dimensions
440
 16777216
100
AcDbTrace
 10
6.620073
 20
3.919204
 30
0.0
 11
6.660073
 21
3.919204
 31
0.0
 12
6.640073
 22
3.799204
 32
0.0
 13
6.640073
 23
3.799204
 33
0.0
  0
MTEXT
  5
1E5
330
1DD
100
AcDbEntity
  8
Dimensions
440
 16777216
100
AcDbMText
 10
6.640073
 20
4.586605
 30
0.0
 40
0.12
 41
0.0
 46
0.0
 71
     5
 72
     1
  1
\A1;1.57in
 73
     1
 44
1.0
  0
POINT
  5
1E6
330
1DD
100
AcDbEntity
  8
Defpoints
 62
     0
440
 16777216
100
AcDbPoint
 10
7.319035
 20
5.374007
 30
0.0
  0
POINT
  5
1E7
330
1DD
100
AcDbEntity
  8
Defpoints
 62
     0
440
 16777216
100
AcDbPoint
 10
7.318895
 20
3.799204
 30
0.0
  0
POINT
  5
1E8
330
1DD
100
AcDbEntity
  8
Defpoints
 62
     0
440
 16777216
100
AcDbPoint
 10
6.640073
 20
3.799204
 30
0.0
  0
ENDBLK
  5
1E9
330
1DD
100
AcDbEntity
  8
0
100
AcDbBlockEnd
  0
BLOCK
  5
1EC
330
1EB
100
AcDbEntity
  8
0
100
AcDbBlockBegin
  2
*D8
 70
     1
 10
0.0
 20
0.0
 30
0.0
  3
*D8
  1

  0
LINE
  5
1ED
330
1EB
100
AcDbEntity
  8
Dimensions
440
 16777216
370
    -2
100
AcDbLine
 10
8.94344
 20
4.980162
 30
0.0
 11
9.332851
 21
4.980127
 31
0.0
  0
LINE
  5
1EE
330
1EB
100
AcDbEntity
  8
Dimensions
440
 16777216
370
    -2
100
AcDbLine
 10
8.94337
 20
4.19276
 30
0.0
 11
9.332781
 21
4.192726
 31
0.0
  0
LINE
  5
1EF
330
1EB
100
AcDbEntity
  8
Dimensions
440
 16777216
370
    -2
100
AcDbLine
 10
9.23284
 20
4.860136
 30
0.0
 11
9.232827
 21
4.707704
 31
0.0
  0
LINE
  5
1F0
330
1EB
100
AcDbEntity
  8
Dimensions
440
 16777216
370
    -2
100
AcDbLine
 10
9.232791
 20
4.312735
 30
0.0
 11
9.232805
 21
4.465167
 31
0.0
  0
SOLID
  5
1F1
330
1EB
100
AcDbEntity
  8
Dimensions
440
 16777216
100
AcDbTrace
 10
9.21284
 20
4.860138
 30
0.0
 11
9.25284
 21
4.860134
 31
0.0
 12
9.232851
 22
4.980136
 32
0.0
 13
9.232851
 23
4.980136
 33
0.0
  0
SOLID
  5
1F2
330
1EB
100
AcDbEntity
  8
Dimensions
440
 16777216
100
AcDbTrace
 10
9.212791
 20
4.312736
 30
0.0
 11
9.252791
 21
4.312733
 31
0.0
 12
9.232781
 22
4.192735
 32
0.0
 13
9.232781
 23
4.192735
 33
0.0
  0
MTEXT
  5
1F3
330
1EB
100
AcDbEntity
  8
Dimensions
440
 16777216
100
AcDbMText
 10
9.232816
 20
4.586435
 30
0.0
 40
0.12
 41
0.0
 46
0.0
 71
     5
 72
     1
  1
\A1;.79in
 73
     1
 44
1.0
  0
POINT
  5
1F4
330
1EB
100
AcDbEntity
  8
Defpoints
 62
     0
440
 16777216
100
AcDbPoint
 10
8.89344
 20
4.980166
 30
0.0
  0
POINT
  5
1F5
330
1EB
100
AcDbEntity
  8
Defpoints
 62
     0
440
 16777216
100
AcDbPoint
 10
8.89337
 20
4.192765
 30
0.0
  0
POINT
  5
1F6
330
1EB
100
AcDbEntity
  8
Defpoints
 62
     0
440
 16777216
100
AcDbPoint
 10
9.232781
 20
4.192735
 30
0.0
  0
ENDBLK
  5
1F7
330
1EB
100
AcDbEntity
  8
0
100
AcDbBlockEnd
  0
BLOCK
  5
1FA
330
1F9
100
AcDbEntity
  8
0
100
AcDbBlockBegin
  2
*D9
 70
     1
 10
0.0
 20
0.0
 30
0.0
  3
*D9
  1

  0
LINE
  5
1FB
330
1F9
100
AcDbEntity
  8
Dimensions
440
 16777216
370
    -2
100
AcDbLine
 10
8.775207
 20
3.355374
 30
0.0
 11
8.775188
 21
3.147006
 31
0.0
  0
LINE
  5
1FC
330
1F9
100
AcDbEntity
  8
Dimensions
440
 16777216
370
    -2
100
AcDbLine
 10
8.224026
 20
3.355423
 30
0.0
 11
8.224007
 21
3.147055
 31
0.0
  0
LINE
  5
1FD
330
1F9
100
AcDbEntity
  8
Dimensions
440
 16777216
370
    -2
100
AcDbLine
 10
8.895197
 20
3.246995
 30
0.0
 11
9.015197
 21
3.246984
 31
0.0
  0
LINE
  5
1FE
330
1F9
100
AcDbEntity
  8
Dimensions
440
 16777216
370
    -2
100
AcDbLine
 10
8.104016
 20
3.247065
 30
0.0
 11
7.984016
 21
3.247076
 31
0.0
  0
SOLID
  5
1FF
330
1F9
100
AcDbEntity
  8
Dimensions
440
 16777216
100
AcDbTrace
 10
8.895199
 20
3.266995
 30
0.0
 11
8.895195
 21
3.226995
 31
0.0
 12
8.775197
 22
3.247006
 32
0.0
 13
8.775197
 23
3.247006
 33
0.0
  0
SOLID
  5
200
330
1F9
100
AcDbEntity
  8
Dimensions
440
 16777216
100
AcDbTrace
 10
8.104018
 20
3.267065
 30
0.0
 11
8.104014
 21
3.227065
 31
0.0
 12
8.224016
 22
3.247055
 32
0.0
 13
8.224016
 23
3.247055
 33
0.0
  0
MTEXT
  5
201
330
1F9
100
AcDbEntity
  8
Dimensions
440
 16777216
100
AcDbMText
 10
8.499607
 20
3.24703
 30
0.0
 40
0.12
 41
0.0
 46
0.0
 71
     5
 72
     1
  1
\A1;.55in
 73
     1
 44
1.0
  0
POINT
  5
202
330
1F9
100
AcDbEntity
  8
Defpoints
 62
     0
440
 16777216
100
AcDbPoint
 10
8.775211
 20
3.405374
 30
0.0
  0
POINT
  5
203
330
1F9
100
AcDbEntity
  8
Defpoints
 62
     0
440
 16777216
100
AcDbPoint
 10
8.22403
 20
3.405423
 30
0.0
  0
POINT
  5
204
330
1F9
100
AcDbEntity
  8
Defpoints
 62
     0
440
 16777216
100
AcDbPoint
 10
8.224016
 20
3.247055
 30
0.0
  0
ENDBLK
  5
205
330
1F9
100
AcDbEntity
  8
0
100
AcDbBlockEnd
  0
BLOCK
  5
208
330
207
100
AcDbEntity
  8
0
100
AcDbBlockBegin
  2
*D10
 70
     1
 10
0.0
 20
0.0
 30
0.0
  3
*D10
  1

  0
LINE
  5
209
330
207
100
AcDbEntity
  8
Dimensions
440
 16777216
370
    -2
100
AcDbLine
 10
9.779527
 20
7.372607
 30
0.0
 11
9.779586
 21
8.101429
 31
0.0
  0
LINE
  5
20A
330
207
100
AcDbEntity
  8
Dimensions
440
 16777216
370
    -2
100
AcDbLine
 10
7.220483
 20
7.372814
 30
0.0
 11
7.220542
 21
8.101636
 31
0.0
  0
LINE
  5
20B
330
207
100
AcDbEntity
  8
Dimensions
440
 16777216
370
    -2
100
AcDbLine
 10
9.659578
 20
8.001439
 30
0.0
 11
8.780206
 21
8.00151
 31
0.0
  0
LINE
  5
20C
330
207
100
AcDbEntity
  8
Dimensions
440
 16777216
370
    -2
100
AcDbLine
 10
7.340534
 20
8.001626
 30
0.0
 11
8.219906
 21
8.001555
 31
0.0
  0
SOLID
  5
20D
330
207
100
AcDbEntity
  8
Dimensions
440
 16777216
100
AcDbTrace
 10
9.659579
 20
8.021439
 30
0.0
 11
9.659576
 21
7.981439
 31
0.0
 12
9.779578
 22
8.001429
 32
0.0
 13
9.779578
 23
8.001429
 33
0.0
  0
SOLID
  5
20E
330
207
100
AcDbEntity
  8
Dimensions
440
 16777216
100
AcDbTrace
 10
7.340536
 20
8.021626
 30
0.0
 11
7.340533
 21
7.981626
 31
0.0
 12
7.220534
 22
8.001636
 32
0.0
 13
7.220534
 23
8.001636
 33
0.0
  0
MTEXT
  5
20F
330
207
100
AcDbEntity
  8
Dimensions
440
 16777216
100
AcDbMText
 10
8.500056
 20
8.001533
 30
0.0
 40
0.12
 41
0.0
 46
0.0
 71
     5
 72
     1
  1
\A1;2.56in
 73
     1
 44
1.0
  0
POINT
  5
210
330
207
100
AcDbEntity
  8
Defpoints
 62
     0
440
 16777216
100
AcDbPoint
 10
9.779523
 20
7.322607
 30
0.0
  0
POINT
  5
211
330
207
100
AcDbEntity
  8
Defpoints
 62
     0
440
 16777216
100
AcDbPoint
 10
7.220479
 20
7.322814
 30
0.0
  0
POINT
  5
212
330
207
100
AcDbEntity
  8
Defpoints
 62
     0
440
 16777216
100
AcDbPoint
 10
7.220534
 20
8.001636
 30
0.0
  0
ENDBLK
  5
213
330
207
100
AcDbEntity
  8
0
100
AcDbBlockEnd
  0
BLOCK
  5
216
330
215
100
AcDbEntity
  8
0
100
AcDbBlockBegin
  2
*D11
 70
     1
 10
0.0
 20
0.0
 30
0.0
  3
*D11
  1

  0
LINE
  5
217
330
215
100
AcDbEntity
  8
Dimensions
440
 16777216
370
    -2
100
AcDbLine
 10
15.562536
 20
5.374007
 30
0.0
 11
15.951947
 21
5.374007
 31
0.0
  0
LINE
  5
218
330
215
100
AcDbEntity
  8
Dimensions
440
 16777216
370
    -2
100
AcDbLine
 10
15.562536
 20
3.799204
 30
0.0
 11
15.951947
 21
3.799204
 31
0.0
  0
LINE
  5
219
330
215
100
AcDbEntity
  8
Dimensions
440
 16777216
370
    -2
100
AcDbLine
 10
15.851947
 20
5.254007
 30
0.0
 11
15.851947
 21
4.707874
 31
0.0
  0
LINE
  5
21A
330
215
100
AcDbEntity
  8
Dimensions
440
 16777216
370
    -2
100
AcDbLine
 10
15.851947
 20
3.919204
 30
0.0
 11
15.851947
 21
4.465337
 31
0.0
  0
SOLID
  5
21B
330
215
100
AcDbEntity
  8
Dimensions
440
 16777216
100
AcDbTrace
 10
15.831947
 20
5.254007
 30
0.0
 11
15.871947
 21
5.254007
 31
0.0
 12
15.851947
 22
5.374007
 32
0.0
 13
15.851947
 23
5.374007
 33
0.0
  0
SOLID
  5
21C
330
215
100
AcDbEntity
  8
Dimensions
440
 16777216
100
AcDbTrace
 10
15.831947
 20
3.919204
 30
0.0
 11
15.871947
 21
3.919204
 31
0.0
 12
15.851947
 22
3.799204
 32
0.0
 13
15.851947
 23
3.799204
 33
0.0
  0
MTEXT
  5
21D
330
215
100
AcDbEntity
  8
Dimensions
440
 16777216
100
AcDbMText
 10
15.851947
 20
4.586605
 30
0.0
 40
0.12
 41
0.0
 46
0.0
 71
     5
 72
     1
  1
\A1;1.57in
 73
     1
 44
1.0
  0
POINT
  5
21E
330
215
100
AcDbEntity
  8
Defpoints
 62
     0
440
 16777216
100
AcDbPoint
 10
15.512536
 20
5.374007
 30
0.0
  0
POINT
  5
21F
330
215
100
AcDbEntity
  8
Defpoints
 62
     0
440
 16777216
100
AcDbPoint
 10
15.512536
 20
3.799204
 30
0.0
  0
POINT
  5
220
330
215
100
AcDbEntity
  8
Defpoints
 62
     0
440
 16777216
100
AcDbPoint
 10
15.851947
 20
3.799204
 30
0.0
  0
ENDBLK
  5
221
330
215
100
AcDbEntity
  8
0
100
AcDbBlockEnd
  0
BLOCK
  5
224
330
223
100
AcDbEntity
  8
0
100
AcDbBlockBegin
  2
*D12
 70
     1
 10
0.0
 20
0.0
 30
0.0
  3
*D12
  1

  0
LINE
  5
225
330
223
100
AcDbEntity
  8
Dimensions
440
 16777216
370
    -2
100
AcDbLine
 10
15.512369
 20
5.423796
 30
0.0
 11
15.512786
 21
5.813207
 31
0.0
  0
LINE
  5
226
330
223
100
AcDbEntity
  8
Dimensions
440
 16777216
370
    -2
100
AcDbLine
 10
15.315739
 20
5.424007
 30
0.0
 11
15.316156
 21
5.813418
 31
0.0
  0
LINE
  5
227
330
223
100
AcDbEntity
  8
Dimensions
440
 16777216
370
    -2
100
AcDbLine
 10
15.632679
 20
5.713079
 30
0.0
 11
15.752679
 21
5.712951
 31
0.0
  0
LINE
  5
228
330
223
100
AcDbEntity
  8
Dimensions
440
 16777216
370
    -2
100
AcDbLine
 10
15.196049
 20
5.713546
 30
0.0
 11
15.076049
 21
5.713675
 31
0.0
  0
SOLID
  5
229
330
223
100
AcDbEntity
  8
Dimensions
440
 16777216
100
AcDbTrace
 10
15.6327
 20
5.733079
 30
0.0
 11
15.632658
 21
5.693079
 31
0.0
 12
15.512679
 22
5.713208
 32
0.0
 13
15.512679
 23
5.713208
 33
0.0
  0
SOLID
  5
22A
330
223
100
AcDbEntity
  8
Dimensions
440
 16777216
100
AcDbTrace
 10
15.196071
 20
5.733546
 30
0.0
 11
15.196028
 21
5.693547
 31
0.0
 12
15.316049
 22
5.713418
 32
0.0
 13
15.316049
 23
5.713418
 33
0.0
  0
MTEXT
  5
22B
330
223
100
AcDbEntity
  8
Dimensions
440
 16777216
100
AcDbMText
 10
14.894289
 20
5.713675
 30
0.0
 40
0.12
 41
0.0
 46
0.0
 71
     5
 72
     1
  1
\A1;.2in
 73
     1
 44
1.0
  0
POINT
  5
22C
330
223
100
AcDbEntity
  8
Defpoints
 62
     0
440
 16777216
100
AcDbPoint
 10
15.512316
 20
5.373796
 30
0.0
  0
POINT
  5
22D
330
223
100
AcDbEntity
  8
Defpoints
 62
     0
440
 16777216
100
AcDbPoint
 10
15.315686
 20
5.374007
 30
0.0
  0
POINT
  5
22E
330
223
100
AcDbEntity
  8
Defpoints
 62
     0
440
 16777216
100
AcDbPoint
 10
15.316049
 20
5.713418
 30
0.0
  0
ENDBLK
  5
22F
330
223
100
AcDbEntity
  8
0
100
AcDbBlockEnd
  0
BLOCK
  5
232
330
231
100
AcDbEntity
  8
0
100
AcDbBlockBegin
  2
*D13
 70
     1
 10
0.0
 20
0.0
 30
0.0
  3
*D13
  1

  0
LINE
  5
233
330
231
100
AcDbEntity
  8
Dimensions
440
 16777216
370
    -2
100
AcDbLine
 10
15.512316
 20
5.423796
 30
0.0
 11
15.512316
 21
9.041683
 31
0.0
  0
LINE
  5
234
330
231
100
AcDbEntity
  8
Dimensions
440
 16777216
370
    -2
100
AcDbLine
 10
11.417974
 20
5.030237
 30
0.0
 11
11.417974
 21
9.041683
 31
0.0
  0
LINE
  5
235
330
231
100
AcDbEntity
  8
Dimensions
440
 16777216
370
    -2
100
AcDbLine
 10
15.392316
 20
8.941683
 30
0.0
 11
13.746687
 21
8.941683
 31
0.0
  0
LINE
  5
236
330
231
100
AcDbEntity
  8
Dimensions
440
 16777216
370
    -2
100
AcDbLine
 10
11.537974
 20
8.941683
 30
0.0
 11
13.183603
 21
8.941683
 31
0.0
  0
SOLID
  5
237
330
231
100
AcDbEntity
  8
Dimensions
440
 16777216
100
AcDbTrace
 10
15.392316
 20
8.961683
 30
0.0
 11
15.392316
 21
8.921683
 31
0.0
 12
15.512316
 22
8.941683
 32
0.0
 13
15.512316
 23
8.941683
 33
0.0
  0
SOLID
  5
238
330
231
100
AcDbEntity
  8
Dimensions
440
 16777216
100
AcDbTrace
 10
11.537974
 20
8.961683
 30
0.0
 11
11.537974
 21
8.921683
 31
0.0
 12
11.417974
 22
8.941683
 32
0.0
 13
11.417974
 23
8.941683
 33
0.0
  0
MTEXT
  5
239
330
231
100
AcDbEntity
  8
Dimensions
440
 16777216
100
AcDbMText
 10
13.465145
 20
8.941683
 30
0.0
 40
0.12
 41
0.0
 46
0.0
 71
     5
 72
     1
  1
\A1;4.09in
 73
     1
 44
1.0
  0
POINT
  5
23A
330
231
100
AcDbEntity
  8
Defpoints
 62
     0
440
 16777216
100
AcDbPoint
 10
15.512316
 20
5.373796
 30
0.0
  0
POINT
  5
23B
330
231
100
AcDbEntity
  8
Defpoints
 62
     0
440
 16777216
100
AcDbPoint
 10
11.417974
 20
4.980237
 30
0.0
  0
POINT
  5
23C
330
231
100
AcDbEntity
  8
Defpoints
 62
     0
440
 16777216
100
AcDbPoint
 10
11.417974
 20
8.941683
 30
0.0
  0
ENDBLK
  5
23D
330
231
100
AcDbEntity
  8
0
100
AcDbBlockEnd
  0
BLOCK
  5
240
330
23F
100
AcDbEntity
  8
0
100
AcDbBlockBegin
  2
*D14
 70
     1
 10
0.0
 20
0.0
 30
0.0
  3
*D14
  1

  0
LINE
  5
241
330
23F
100
AcDbEntity
  8
Dimensions
440
 16777216
370
    -2
100
AcDbLine
 10
15.512316
 20
5.423796
 30
0.0
 11
15.512316
 21
8.200083
 31
0.0
  0
LINE
  5
242
330
23F
100
AcDbEntity
  8
Dimensions
440
 16777216
370
    -2
100
AcDbLine
 10
11.929868
 20
7.471261
 30
0.0
 11
11.929868
 21
8.200083
 31
0.0
  0
LINE
  5
243
330
23F
100
AcDbEntity
  8
Dimensions
440
 16777216
370
    -2
100
AcDbLine
 10
15.392316
 20
8.100083
 30
0.0
 11
14.000178
 21
8.100083
 31
0.0
  0
LINE
  5
244
330
23F
100
AcDbEntity
  8
Dimensions
440
 16777216
370
    -2
100
AcDbLine
 10
12.049868
 20
8.100083
 30
0.0
 11
13.442006
 21
8.100083
 31
0.0
  0
SOLID
  5
245
330
23F
100
AcDbEntity
  8
Dimensions
440
 16777216
100
AcDbTrace
 10
15.392316
 20
8.120083
 30
0.0
 11
15.392316
 21
8.080083
 31
0.0
 12
15.512316
 22
8.100083
 32
0.0
 13
15.512316
 23
8.100083
 33
0.0
  0
SOLID
  5
246
330
23F
100
AcDbEntity
  8
Dimensions
440
 16777216
100
AcDbTrace
 10
12.049868
 20
8.120083
 30
0.0
 11
12.049868
 21
8.080083
 31
0.0
 12
11.929868
 22
8.100083
 32
0.0
 13
11.929868
 23
8.100083
 33
0.0
  0
MTEXT
  5
247
330
23F
100
AcDbEntity
  8
Dimensions
440
 16777216
100
AcDbMText
 10
13.721092
 20
8.100083
 30
0.0
 40
0.12
 41
0.0
 46
0.0
 71
     5
 72
     1
  1
\A1;3.58in
 73
     1
 44
1.0
  0
POINT
  5
248
330
23F
100
AcDbEntity
  8
Defpoints
 62
     0
440
 16777216
100
AcDbPoint
 10
15.512316
 20
5.373796
 30
0.0
  0
POINT
  5
249
330
23F
100
AcDbEntity
  8
Defpoints
 62
     0
440
 16777216
100
AcDbPoint
 10
11.929868
 20
7.421261
 30
0.0
  0
POINT
  5
24A
330
23F
100
AcDbEntity
  8
Defpoints
 62
     0
440
 16777216
100
AcDbPoint
 10
11.929868
 20
8.100083
 30
0.0
  0
ENDBLK
  5
24B
330
23F
100
AcDbEntity
  8
0
100
AcDbBlockEnd
  0
BLOCK
  5
24E
330
24D
100
AcDbEntity
  8
0
100
AcDbBlockBegin
  2
*D15
 70
     1
 10
0.0
 20
0.0
 30
0.0
  3
*D15
  1

  0
LINE
  5
4FA
330
24D
100
AcDbEntity
  8
Dimensions
440
 16777216
370
    -2
100
AcDbLine
 10
7.318891
 20
3.749204
 30
0.0
 11
7.318795
 21
2.68097
 31
0.0
  0
LINE
  5
4FB
330
24D
100
AcDbEntity
  8
Dimensions
440
 16777216
370
    -2
100
AcDbLine
 10
9.681095
 20
3.748993
 30
0.0
 11
9.681
 21
2.680759
 31
0.0
  0
LINE
  5
4FC
330
24D
100
AcDbEntity
  8
Dimensions
440
 16777216
370
    -2
100
AcDbLine
 10
7.438804
 20
2.780959
 30
0.0
 11
8.219757
 21
2.78089
 31
0.0
  0
LINE
  5
4FD
330
24D
100
AcDbEntity
  8
Dimensions
440
 16777216
370
    -2
100
AcDbLine
 10
9.561009
 20
2.78077
 30
0.0
 11
8.780057
 21
2.78084
 31
0.0
  0
SOLID
  5
4FE
330
24D
100
AcDbEntity
  8
Dimensions
440
 16777216
100
AcDbTrace
 10
7.438806
 20
2.800959
 30
0.0
 11
7.438803
 21
2.760959
 31
0.0
 12
7.318804
 22
2.78097
 32
0.0
 13
7.318804
 23
2.78097
 33
0.0
  0
SOLID
  5
4FF
330
24D
100
AcDbEntity
  8
Dimensions
440
 16777216
100
AcDbTrace
 10
9.561011
 20
2.80077
 30
0.0
 11
9.561007
 21
2.76077
 31
0.0
 12
9.681009
 22
2.780759
 32
0.0
 13
9.681009
 23
2.780759
 33
0.0
  0
MTEXT
  5
500
330
24D
100
AcDbEntity
  8
Dimensions
440
 16777216
100
AcDbMText
 10
8.499907
 20
2.780865
 30
0.0
 40
0.12
 41
0.0
 46
0.0
 71
     5
 72
     1
  1
\A1;2.36in
 73
     1
 44
1.0
  0
POINT
  5
501
330
24D
100
AcDbEntity
  8
Defpoints
 62
     0
440
 16777216
100
AcDbPoint
 10
7.318895
 20
3.799204
 30
0.0
  0
POINT
  5
502
330
24D
100
AcDbEntity
  8
Defpoints
 62
     0
440
 16777216
100
AcDbPoint
 10
9.6811
 20
3.798993
 30
0.0
  0
POINT
  5
503
330
24D
100
AcDbEntity
  8
Defpoints
 62
     0
440
 16777216
100
AcDbPoint
 10
9.681009
 20
2.780759
 30
0.0
  0
ENDBLK
  5
24F
330
24D
100
AcDbEntity
  8
0
100
AcDbBlockEnd
  0
BLOCK
  5
25B
330
25A
100
AcDbEntity
  8
0
100
AcDbBlockBegin
  2
*D16
 70
     1
 10
0.0
 20
0.0
 30
0.0
  3
*D16
  1

  0
LINE
  5
504
330
25A
100
AcDbEntity
  8
Dimensions
440
 16777216
370
    -2
100
AcDbLine
 10
7.269035
 20
5.374007
 30
0.0
 11
6.540073
 21
5.374007
 31
0.0
  0
LINE
  5
505
330
25A
100
AcDbEntity
  8
Dimensions
440
 16777216
370
    -2
100
AcDbLine
 10
7.268895
 20
3.799204
 30
0.0
 11
6.540073
 21
3.799204
 31
0.0
  0
LINE
  5
506
330
25A
100
AcDbEntity
  8
Dimensions
440
 16777216
370
    -2
100
AcDbLine
 10
6.640073
 20
5.254007
 30
0.0
 11
6.640073
 21
4.707874
 31
0.0
  0
LINE
  5
507
330
25A
100
AcDbEntity
  8
Dimensions
440
 16777216
370
    -2
100
AcDbLine
 10
6.640073
 20
3.919204
 30
0.0
 11
6.640073
 21
4.465337
 31
0.0
  0
SOLID
  5
508
330
25A
100
AcDbEntity
  8
Dimensions
440
 16777216
100
AcDbTrace
 10
6.620073
 20
5.254007
 30
0.0
 11
6.660073
 21
5.254007
 31
0.0
 12
6.640073
 22
5.374007
 32
0.0
 13
6.640073
 23
5.374007
 33
0.0
  0
SOLID
  5
509
330
25A
100
AcDbEntity
  8
Dimensions
440
 16777216
100
AcDbTrace
 10
6.620073
 20
3.919204
 30
0.0
 11
6.660073
 21
3.919204
 31
0.0
 12
6.640073
 22
3.799204
 32
0.0
 13
6.640073
 23
3.799204
 33
0.0
  0
MTEXT
  5
50A
330
25A
100
AcDbEntity
  8
Dimensions
440
 16777216
100
AcDbMText
 10
6.640073
 20
4.586605
 30
0.0
 40
0.12
 41
0.0
 46
0.0
 71
     5
 72
     1
  1
\A1;1.57in
 73
     1
 44
1.0
  0
POINT
  5
50B
330
25A
100
AcDbEntity
  8
Defpoints
 62
     0
440
 16777216
100
AcDbPoint
 10
7.319035
 20
5.374007
 30
0.0
  0
POINT
  5
50C
330
25A
100
AcDbEntity
  8
Defpoints
 62
     0
440
 16777216
100
AcDbPoint
 10
7.318895
 20
3.799204
 30
0.0
  0
POINT
  5
50D
330
25A
100
AcDbEntity
  8
Defpoints
 62
     0
440
 16777216
100
AcDbPoint
 10
6.640073
 20
3.799204
 30
0.0
  0
ENDBLK
  5
25C
330
25A
100
AcDbEntity
  8
0
100
AcDbBlockEnd
  0
BLOCK
  5
268
330
267
100
AcDbEntity
  8
0
100
AcDbBlockBegin
  2
*D17
 70
     1
 10
0.0
 20
0.0
 30
0.0
  3
*D17
  1

  0
LINE
  5
50E
330
267
100
AcDbEntity
  8
Dimensions
440
 16777216
370
    -2
100
AcDbLine
 10
8.94344
 20
4.980162
 30
0.0
 11
9.332851
 21
4.980127
 31
0.0
  0
LINE
  5
50F
330
267
100
AcDbEntity
  8
Dimensions
440
 16777216
370
    -2
100
AcDbLine
 10
8.94337
 20
4.19276
 30
0.0
 11
9.332781
 21
4.192726
 31
0.0
  0
LINE
  5
510
330
267
100
AcDbEntity
  8
Dimensions
440
 16777216
370
    -2
100
AcDbLine
 10
9.23284
 20
4.860136
 30
0.0
 11
9.232827
 21
4.707704
 31
0.0
  0
LINE
  5
511
330
267
100
AcDbEntity
  8
Dimensions
440
 16777216
370
    -2
100
AcDbLine
 10
9.232791
 20
4.312735
 30
0.0
 11
9.232805
 21
4.465167
 31
0.0
  0
SOLID
  5
512
330
267
100
AcDbEntity
  8
Dimensions
440
 16777216
100
AcDbTrace
 10
9.21284
 20
4.860138
 30
0.0
 11
9.25284
 21
4.860134
 31
0.0
 12
9.232851
 22
4.980136
 32
0.0
 13
9.232851
 23
4.980136
 33
0.0
  0
SOLID
  5
513
330
267
100
AcDbEntity
  8
Dimensions
440
 16777216
100
AcDbTrace
 10
9.212791
 20
4.312736
 30
0.0
 11
9.252791
 21
4.312733
 31
0.0
 12
9.232781
 22
4.192735
 32
0.0
 13
9.232781
 23
4.192735
 33
0.0
  0
MTEXT
  5
514
330
267
100
AcDbEntity
  8
Dimensions
440
 16777216
100
AcDbMText
 10
9.232816
 20
4.586435
 30
0.0
 40
0.12
 41
0.0
 46
0.0
 71
     5
 72
     1
  1
\A1;.79in
 73
     1
 44
1.0
  0
POINT
  5
515
330
267
100
AcDbEntity
  8
Defpoints
 62
     0
440
 16777216
100
AcDbPoint
 10
8.89344
 20
4.980166
 30
0.0
  0
POINT
  5
516
330
267
100
AcDbEntity
  8
Defpoints
 62
     0
440
 16777216
100
AcDbPoint
 10
8.89337
 20
4.192765
 30
0.0
  0
POINT
  5
517
330
267
100
AcDbEntity
  8
Defpoints
 62
     0
440
 16777216
100
AcDbPoint
 10
9.232781
 20
4.192735
 30
0.0
  0
ENDBLK
  5
269
330
267
100
AcDbEntity
  8
0
100
AcDbBlockEnd
  0
BLOCK
  5
275
330
274
100
AcDbEntity
  8
0
100
AcDbBlockBegin
  2
*D18
 70
     1
 10
0.0
 20
0.0
 30
0.0
  3
*D18
  1

  0
LINE
  5
518
330
274
100
AcDbEntity
  8
Dimensions
440
 16777216
370
    -2
100
AcDbLine
 10
8.775207
 20
3.355374
 30
0.0
 11
8.775188
 21
3.147006
 31
0.0
  0
LINE
  5
519
330
274
100
AcDbEntity
  8
Dimensions
440
 16777216
370
    -2
100
AcDbLine
 10
8.224026
 20
3.355423
 30
0.0
 11
8.224007
 21
3.147055
 31
0.0
  0
LINE
  5
51A
330
274
100
AcDbEntity
  8
Dimensions
440
 16777216
370
    -2
100
AcDbLine
 10
8.895197
 20
3.246995
 30
0.0
 11
9.015197
 21
3.246984
 31
0.0
  0
LINE
  5
51B
330
274
100
AcDbEntity
  8
Dimensions
440
 16777216
370
    -2
100
AcDbLine
 10
8.104016
 20
3.247065
 30
0.0
 11
7.984016
 21
3.247076
 31
0.0
  0
SOLID
  5
51C
330
274
100
AcDbEntity
  8
Dimensions
440
 16777216
100
AcDbTrace
 10
8.895199
 20
3.266995
 30
0.0
 11
8.895195
 21
3.226995
 31
0.0
 12
8.775197
 22
3.247006
 32
0.0
 13
8.775197
 23
3.247006
 33
0.0
  0
SOLID
  5
51D
330
274
100
AcDbEntity
  8
Dimensions
440
 16777216
100
AcDbTrace
 10
8.104018
 20
3.267065
 30
0.0
 11
8.104014
 21
3.227065
 31
0.0
 12
8.224016
 22
3.247055
 32
0.0
 13
8.224016
 23
3.247055
 33
0.0
  0
MTEXT
  5
51E
330
274
100
AcDbEntity
  8
Dimensions
440
 16777216
100
AcDbMText
 10
8.499607
 20
3.24703
 30
0.0
 40
0.12
 41
0.0
 46
0.0
 71
     5
 72
     1
  1
\A1;.55in
 73
     1
 44
1.0
  0
POINT
  5
51F
330
274
100
AcDbEntity
  8
Defpoints
 62
     0
440
 16777216
100
AcDbPoint
 10
8.775211
 20
3.405374
 30
0.0
  0
POINT
  5
520
330
274
100
AcDbEntity
  8
Defpoints
 62
     0
440
 16777216
100
AcDbPoint
 10
8.22403
 20
3.405423
 30
0.0
  0
POINT
  5
521
330
274
100
AcDbEntity
  8
Defpoints
 62
     0
440
 16777216
100
AcDbPoint
 10
8.224016
 20
3.247055
 30
0.0
  0
ENDBLK
  5
276
330
274
100
AcDbEntity
  8
0
100
AcDbBlockEnd
  0
BLOCK
  5
282
330
281
100
AcDbEntity
  8
0
100
AcDbBlockBegin
  2
*D19
 70
     1
 10
0.0
 20
0.0
 30
0.0
  3
*D19
  1

  0
LINE
  5
522
330
281
100
AcDbEntity
  8
Dimensions
440
 16777216
370
    -2
100
AcDbLine
 10
9.779527
 20
7.372607
 30
0.0
 11
9.779586
 21
8.101429
 31
0.0
  0
LINE
  5
523
330
281
100
AcDbEntity
  8
Dimensions
440
 16777216
370
    -2
100
AcDbLine
 10
7.220483
 20
7.372814
 30
0.0
 11
7.220542
 21
8.101636
 31
0.0
  0
LINE
  5
524
330
281
100
AcDbEntity
  8
Dimensions
440
 16777216
370
    -2
100
AcDbLine
 10
9.659578
 20
8.001439
 30
0.0
 11
8.780206
 21
8.00151
 31
0.0
  0
LINE
  5
525
330
281
100
AcDbEntity
  8
Dimensions
440
 16777216
370
    -2
100
AcDbLine
 10
7.340534
 20
8.001626
 30
0.0
 11
8.219906
 21
8.001555
 31
0.0
  0
SOLID
  5
526
330
281
100
AcDbEntity
  8
Dimensions
440
 16777216
100
AcDbTrace
 10
9.659579
 20
8.021439
 30
0.0
 11
9.659576
 21
7.981439
 31
0.0
 12
9.779578
 22
8.001429
 32
0.0
 13
9.779578
 23
8.001429
 33
0.0
  0
SOLID
  5
527
330
281
100
AcDbEntity
  8
Dimensions
440
 16777216
100
AcDbTrace
 10
7.340536
 20
8.021626
 30
0.0
 11
7.340533
 21
7.981626
 31
0.0
 12
7.220534
 22
8.001636
 32
0.0
 13
7.220534
 23
8.001636
 33
0.0
  0
MTEXT
  5
528
330
281
100
AcDbEntity
  8
Dimensions
440
 16777216
100
AcDbMText
 10
8.500056
 20
8.001533
 30
0.0
 40
0.12
 41
0.0
 46
0.0
 71
     5
 72
     1
  1
\A1;2.56in
 73
     1
 44
1.0
  0
POINT
  5
529
330
281
100
AcDbEntity
  8
Defpoints
 62
     0
440
 16777216
100
AcDbPoint
 10
9.779523
 20
7.322607
 30
0.0
  0
POINT
  5
52A
330
281
100
AcDbEntity
  8
Defpoints
 62
     0
440
 16777216
100
AcDbPoint
 10
7.220479
 20
7.322814
 30
0.0
  0
POINT
  5
52B
330
281
100
AcDbEntity
  8
Defpoints
 62
     0
440
 16777216
100
AcDbPoint
 10
7.220534
 20
8.001636
 30
0.0
  0
ENDBLK
  5
283
330
281
100
AcDbEntity
  8
0
100
AcDbBlockEnd
  0
BLOCK
  5
28F
330
28E
100
AcDbEntity
  8
0
100
AcDbBlockBegin
  2
*D20
 70
     1
 10
0.0
 20
0.0
 30
0.0
  3
*D20
  1

  0
LINE
  5
52C
330
28E
100
AcDbEntity
  8
Dimensions
440
 16777216
370
    -2
100
AcDbLine
 10
15.562536
 20
5.374007
 30
0.0
 11
15.951947
 21
5.374007
 31
0.0
  0
LINE
  5
52D
330
28E
100
AcDbEntity
  8
Dimensions
440
 16777216
370
    -2
100
AcDbLine
 10
15.562536
 20
3.799204
 30
0.0
 11
15.951947
 21
3.799204
 31
0.0
  0
LINE
  5
52E
330
28E
100
AcDbEntity
  8
Dimensions
440
 16777216
370
    -2
100
AcDbLine
 10
15.851947
 20
5.254007
 30
0.0
 11
15.851947
 21
4.707874
 31
0.0
  0
LINE
  5
52F
330
28E
100
AcDbEntity
  8
Dimensions
440
 16777216
370
    -2
100
AcDbLine
 10
15.851947
 20
3.919204
 30
0.0
 11
15.851947
 21
4.465337
 31
0.0
  0
SOLID
  5
530
330
28E
100
AcDbEntity
  8
Dimensions
440
 16777216
100
AcDbTrace
 10
15.831947
 20
5.254007
 30
0.0
 11
15.871947
 21
5.254007
 31
0.0
 12
15.851947
 22
5.374007
 32
0.0
 13
15.851947
 23
5.374007
 33
0.0
  0
SOLID
  5
531
330
28E
100
AcDbEntity
  8
Dimensions
440
 16777216
100
AcDbTrace
 10
15.831947
 20
3.919204
 30
0.0
 11
15.871947
 21
3.919204
 31
0.0
 12
15.851947
 22
3.799204
 32
0.0
 13
15.851947
 23
3.799204
 33
0.0
  0
MTEXT
  5
532
330
28E
100
AcDbEntity
  8
Dimensions
440
 16777216
100
AcDbMText
 10
15.851947
 20
4.586605
 30
0.0
 40
0.12
 41
0.0
 46
0.0
 71
     5
 72
     1
  1
\A1;1.57in
 73
     1
 44
1.0
  0
POINT
  5
533
330
28E
100
AcDbEntity
  8
Defpoints
 62
     0
440
 16777216
100
AcDbPoint
 10
15.512536
 20
5.374007
 30
0.0
  0
POINT
  5
534
330
28E
100
AcDbEntity
  8
Defpoints
 62
     0
440
 16777216
100
AcDbPoint
 10
15.512536
 20
3.799204
 30
0.0
  0
POINT
  5
535
330
28E
100
AcDbEntity
  8
Defpoints
 62
     0
440
 16777216
100
AcDbPoint
 10
15.851947
 20
3.799204
 30
0.0
  0
ENDBLK
  5
290
330
28E
100
AcDbEntity
  8
0
100
AcDbBlockEnd
  0
BLOCK
  5
29C
330
29B
100
AcDbEntity
  8
0
100
AcDbBlockBegin
  2
*D21
 70
     1
 10
0.0
 20
0.0
 30
0.0
  3
*D21
  1

  0
LINE
  5
536
330
29B
100
AcDbEntity
  8
Dimensions
440
 16777216
370
    -2
100
AcDbLine
 10
15.512369
 20
5.423796
 30
0.0
 11
15.512786
 21
5.813207
 31
0.0
  0
LINE
  5
537
330
29B
100
AcDbEntity
  8
Dimensions
440
 16777216
370
    -2
100
AcDbLine
 10
15.315739
 20
5.424007
 30
0.0
 11
15.316156
 21
5.813418
 31
0.0
  0
LINE
  5
538
330
29B
100
AcDbEntity
  8
Dimensions
440
 16777216
370
    -2
100
AcDbLine
 10
15.632679
 20
5.713079
 30
0.0
 11
15.752679
 21
5.712951
 31
0.0
  0
LINE
  5
539
330
29B
100
AcDbEntity
  8
Dimensions
440
 16777216
370
    -2
100
AcDbLine
 10
15.196049
 20
5.713546
 30
0.0
 11
15.076049
 21
5.713675
 31
0.0
  0
SOLID
  5
53A
330
29B
100
AcDbEntity
  8
Dimensions
440
 16777216
100
AcDbTrace
 10
15.6327
 20
5.733079
 30
0.0
 11
15.632658
 21
5.693079
 31
0.0
 12
15.512679
 22
5.713208
 32
0.0
 13
15.512679
 23
5.713208
 33
0.0
  0
SOLID
  5
53B
330
29B
100
AcDbEntity
  8
Dimensions
440
 16777216
100
AcDbTrace
 10
15.196071
 20
5.733546
 30
0.0
 11
15.196028
 21
5.693547
 31
0.0
 12
15.316049
 22
5.713418
 32
0.0
 13
15.316049
 23
5.713418
 33
0.0
  0
MTEXT
  5
53C
330
29B
100
AcDbEntity
  8
Dimensions
440
 16777216
100
AcDbMText
 10
14.894289
 20
5.713675
 30
0.0
 40
0.12
 41
0.0
 46
0.0
 71
     5
 72
     1
  1
\A1;.2in
 73
     1
 44
1.0
  0
POINT
  5
53D
330
29B
100
AcDbEntity
  8
Defpoints
 62
     0
440
 16777216
100
AcDbPoint
 10
15.512316
 20
5.373796
 30
0.0
  0
POINT
  5
53E
330
29B
100
AcDbEntity
  8
Defpoints
 62
     0
440
 16777216
100
AcDbPoint
 10
15.315686
 20
5.374007
 30
0.0
  0
POINT
  5
53F
330
29B
100
AcDbEntity
  8
Defpoints
 62
     0
440
 16777216
100
AcDbPoint
 10
15.316049
 20
5.713418
 30
0.0
  0
ENDBLK
  5
29D
330
29B
100
AcDbEntity
  8
0
100
AcDbBlockEnd
  0
BLOCK
  5
2A9
330
2A8
100
AcDbEntity
  8
0
100
AcDbBlockBegin
  2
*D22
 70
     1
 10
0.0
 20
0.0
 30
0.0
  3
*D22
  1

  0
LINE
  5
540
330
2A8
100
AcDbEntity
  8
Dimensions
440
 16777216
370
    -2
100
AcDbLine
 10
15.512316
 20
5.423796
 30
0.0
 11
15.512316
 21
9.041683
 31
0.0
  0
LINE
  5
541
330
2A8
100
AcDbEntity
  8
Dimensions
440
 16777216
370
    -2
100
AcDbLine
 10
11.417974
 20
5.030237
 30
0.0
 11
11.417974
 21
9.041683
 31
0.0
  0
LINE
  5
542
330
2A8
100
AcDbEntity
  8
Dimensions
440
 16777216
370
    -2
100
AcDbLine
 10
15.392316
 20
8.941683
 30
0.0
 11
13.746687
 21
8.941683
 31
0.0
  0
LINE
  5
543
330
2A8
100
AcDbEntity
  8
Dimensions
440
 16777216
370
    -2
100
AcDbLine
 10
11.537974
 20
8.941683
 30
0.0
 11
13.183603
 21
8.941683
 31
0.0
  0
SOLID
  5
544
330
2A8
100
AcDbEntity
  8
Dimensions
440
 16777216
100
AcDbTrace
 10
15.392316
 20
8.961683
 30
0.0
 11
15.392316
 21
8.921683
 31
0.0
 12
15.512316
 22
8.941683
 32
0.0
 13
15.512316
 23
8.941683
 33
0.0
  0
SOLID
  5
545
330
2A8
100
AcDbEntity
  8
Dimensions
440
 16777216
100
AcDbTrace
 10
11.537974
 20
8.961683
 30
0.0
 11
11.537974
 21
8.921683
 31
0.0
 12
11.417974
 22
8.941683
 32
0.0
 13
11.417974
 23
8.941683
 33
0.0
  0
MTEXT
  5
546
330
2A8
100
AcDbEntity
  8
Dimensions
440
 16777216
100
AcDbMText
 10
13.465145
 20
8.941683
 30
0.0
 40
0.12
 41
0.0
 46
0.0
 71
     5
 72
     1
  1
\A1;4.09in
 73
     1
 44
1.0
  0
POINT
  5
547
330
2A8
100
AcDbEntity
  8
Defpoints
 62
     0
440
 16777216
100
AcDbPoint
 10
15.512316
 20
5.373796
 30
0.0
  0
POINT
  5
548
330
2A8
100
AcDbEntity
  8
Defpoints
 62
     0
440
 16777216
100
AcDbPoint
 10
11.417974
 20
4.980237
 30
0.0
  0
POINT
  5
549
330
2A8
100
AcDbEntity
  8
Defpoints
 62
     0
440
 16777216
100
AcDbPoint
 10
11.417974
 20
8.941683
 30
0.0
  0
ENDBLK
  5
2AA
330
2A8
100
AcDbEntity
  8
0
100
AcDbBlockEnd
  0
BLOCK
  5
2B6
330
2B5
100
AcDbEntity
  8
0
100
AcDbBlockBegin
  2
*D23
 70
     1
 10
0.0
 20
0.0
 30
0.0
  3
*D23
  1

  0
LINE
  5
54A
330
2B5
100
AcDbEntity
  8
Dimensions
440
 16777216
370
    -2
100
AcDbLine
 10
15.512316
 20
5.423796
 30
0.0
 11
15.512316
 21
8.200083
 31
0.0
  0
LINE
  5
54B
330
2B5
100
AcDbEntity
  8
Dimensions
440
 16777216
370
    -2
100
AcDbLine
 10
11.929868
 20
7.471261
 30
0.0
 11
11.929868
 21
8.200083
 31
0.0
  0
LINE
  5
54C
330
2B5
100
AcDbEntity
  8
Dimensions
440
 16777216
370
    -2
100
AcDbLine
 10
15.392316
 20
8.100083
 30
0.0
 11
14.000178
 21
8.100083
 31
0.0
  0
LINE
  5
54D
330
2B5
100
AcDbEntity
  8
Dimensions
440
 16777216
370
    -2
100
AcDbLine
 10
12.049868
 20
8.100083
 30
0.0
 11
13.442006
 21
8.100083
 31
0.0
  0
SOLID
  5
54E
330
2B5
100
AcDbEntity
  8
Dimensions
440
 16777216
100
AcDbTrace
 10
15.392316
 20
8.120083
 30
0.0
 11
15.392316
 21
8.080083
 31
0.0
 12
15.512316
 22
8.100083
 32
0.0
 13
15.512316
 23
8.100083
 33
0.0
  0
SOLID
  5
54F
330
2B5
100
AcDbEntity
  8
Dimensions
440
 16777216
100
AcDbTrace
 10
12.049868
 20
8.120083
 30
0.0
 11
12.049868
 21
8.080083
 31
0.0
 12
11.929868
 22
8.100083
 32
0.0
 13
11.929868
 23
8.100083
 33
0.0
  0
MTEXT
  5
550
330
2B5
100
AcDbEntity
  8
Dimensions
440
 16777216
100
AcDbMText
 10
13.721092
 20
8.100083
 30
0.0
 40
0.12
 41
0.0
 46
0.0
 71
     5
 72
     1
  1
\A1;3.58in
 73
     1
 44
1.0
  0
POINT
  5
551
330
2B5
100
AcDbEntity
  8
Defpoints
 62
     0
440
 16777216
100
AcDbPoint
 10
15.512316
 20
5.373796
 30
0.0
  0
POINT
  5
552
330
2B5
100
AcDbEntity
  8
Defpoints
 62
     0
440
 16777216
100
AcDbPoint
 10
11.929868
 20
7.421261
 30
0.0
  0
POINT
  5
553
330
2B5
100
AcDbEntity
  8
Defpoints
 62
     0
440
 16777216
100
AcDbPoint
 10
11.929868
 20
8.100083
 30
0.0
  0
ENDBLK
  5
2B7
330
2B5
100
AcDbEntity
  8
0
100
AcDbBlockEnd
  0
ENDSEC
  0
SECTION
  2
ENTITIES
  0
INSERT
  5
187
330
70
100
AcDbEntity
  8
Titleblock
100
AcDbBlockReference
 66
     1
  2
Shower
 10
16.38
 20
0.38
 30
0.0
  0
ATTRIB
  5
1A7
330
187
100
AcDbEntity
  8
Titleblock
  6
Continuous
370
    25
100
AcDbText
 10
12.6925
 20
2.6925
 30
0.0
 40
0.12
  1
Railing Products and Mock Ups
100
AcDbAttribute
280
     0
  2
PROJECT
 70
     0
280
     1
1001
FD_ATT_APPNAME
1005
195
  0
ATTRIB
  5
1A8
330
187
100
AcDbEntity
  8
Titleblock
  6
Continuous
370
    25
100
AcDbText
 10
14.6925
 20
1.0675
 30
0.0
 40
0.12
  1
2/11/2020
100
AcDbAttribute
280
     0
  2
DRAWN_DATE
 70
     0
280
     1
1001
FD_ATT_APPNAME
1005
197
  0
ATTRIB
  5
1A9
330
187
100
AcDbEntity
  8
Titleblock
  6
Continuous
370
    25
100
AcDbText
 10
12.0675
 20
2.1925
 30
0.0
 40
0.3048
  1
R13-4145-038-12
100
AcDbAttribute
280
     0
  2
TITLE_1
 70
     0
280
     1
1001
FD_ATT_APPNAME
1005
198
  0
ATTRIB
  5
1AA
330
187
100
AcDbEntity
  8
Titleblock
  6
Continuous
370
    25
100
AcDbText
 10
14.6925
 20
1.29994
 30
0.0
 40
0.12
  1
1:1
100
AcDbAttribute
280
     0
  2
SCALE
 70
     0
280
     1
1001
FD_ATT_APPNAME
1005
199
  0
SEQEND
  5
1AB
330
187
100
AcDbEntity
  8
Titleblock
  0
INSERT
  5
1AC
330
70
100
AcDbEntity
  8
Border
100
AcDbBlockReference
  2
ANSI_B_SHEET
 10
0.0
 20
0.0
 30
0.0
  0
DIMENSION
  5
1CD
330
70
100
AcDbEntity
  8
Dimensions
100
AcDbDimension
280
     0
  2
*D15
 10
9.681009
 20
2.780759
 30
0.0
 11
8.499907
 21
2.780865
 31
0.0
 70
    33
 71
     5
 42
2.362205
 73
     0
 74
     0
 75
     0
  3
Standard
100
AcDbAlignedDimension
 13
7.318895
 23
3.799204
 33
0.0
 14
9.6811
 24
3.798993
 34
0.0
1001
ACAD_DIMASSOC_CALC_DIMLFAC
1040
-1.0
1001
ACAD_DIMASSOC_DIMLFAC
1040
-1.0
1001
ACAD_DIMASSOC_OVERRIDDEN_DIMLFAC
1040
0.0
1001
ACAD
1000
DSTYLE
1002
{
1070
   144
1040
1.0
1070
   176
1070
   256
1070
   177
1070
   256
1002
}
  0
DIMENSION
  5
1DC
330
70
100
AcDbEntity
  8
Dimensions
100
AcDbDimension
280
     0
  2
*D16
 10
6.640073
 20
3.799204
 30
0.0
 11
6.640073
 21
4.586605
 31
0.0
 70
    32
 71
     5
 42
1.574803
 73
     0
 74
     0
 75
     0
  3
Standard
100
AcDbAlignedDimension
 13
7.319035
 23
5.374007
 33
0.0
 14
7.318895
 24
3.799204
 34
0.0
 50
90.0
100
AcDbRotatedDimension
1001
ACAD_DIMASSOC_CALC_DIMLFAC
1040
-1.0
1001
ACAD_DIMASSOC_DIMLFAC
1040
-1.0
1001
ACAD_DIMASSOC_OVERRIDDEN_DIMLFAC
1040
0.0
1001
ACAD
1000
DSTYLE
1002
{
1070
   177
1070
   256
1070
   176
1070
   256
1070
   144
1040
1.0
1002
}
  0
DIMENSION
  5
1EA
330
70
100
AcDbEntity
  8
Dimensions
100
AcDbDimension
280
     0
  2
*D17
 10
9.232781
 20
4.192735
 30
0.0
 11
9.232816
 21
4.586435
 31
0.0
 70
    33
 71
     5
 42
0.787402
 73
     0
 74
     0
 75
     0
  3
Standard
100
AcDbAlignedDimension
 13
8.89344
 23
4.980166
 33
0.0
 14
8.89337
 24
4.192765
 34
0.0
1001
ACAD_DIMASSOC_CALC_DIMLFAC
1040
-1.0
1001
ACAD_DIMASSOC_DIMLFAC
1040
-1.0
1001
ACAD_DIMASSOC_OVERRIDDEN_DIMLFAC
1040
0.0
1001
ACAD
1000
DSTYLE
1002
{
1070
   144
1040
1.0
1070
   176
1070
   256
1070
   177
1070
   256
1002
}
  0
DIMENSION
  5
1F8
330
70
100
AcDbEntity
  8
Dimensions
100
AcDbDimension
280
     0
  2
*D18
 10
8.224016
 20
3.247055
 30
0.0
 11
8.499607
 21
3.24703
 31
0.0
 70
    33
 71
     5
 42
0.551181
 73
     0
 74
     0
 75
     0
  3
Standard
100
AcDbAlignedDimension
 13
8.775211
 23
3.405374
 33
0.0
 14
8.22403
 24
3.405423
 34
0.0
1001
ACAD_DIMASSOC_CALC_DIMLFAC
1040
-1.0
1001
ACAD_DIMASSOC_DIMLFAC
1040
-1.0
1001
ACAD_DIMASSOC_OVERRIDDEN_DIMLFAC
1040
0.0
1001
ACAD
1000
DSTYLE
1002
{
1070
   144
1040
1.0
1070
   176
1070
   256
1070
   177
1070
   256
1002
}
  0
DIMENSION
  5
206
330
70
100
AcDbEntity
  8
Dimensions
100
AcDbDimension
280
     0
  2
*D19
 10
7.220534
 20
8.001636
 30
0.0
 11
8.500056
 21
8.001533
 31
0.0
 70
    33
 71
     5
 42
2.559044
 73
     0
 74
     0
 75
     0
  3
Standard
100
AcDbAlignedDimension
 13
9.779523
 23
7.322607
 33
0.0
 14
7.220479
 24
7.322814
 34
0.0
1001
ACAD_DIMASSOC_CALC_DIMLFAC
1040
-1.0
1001
ACAD_DIMASSOC_DIMLFAC
1040
-1.0
1001
ACAD_DIMASSOC_OVERRIDDEN_DIMLFAC
1040
0.0
1001
ACAD
1000
DSTYLE
1002
{
1070
   144
1040
1.0
1070
   176
1070
   256
1070
   177
1070
   256
1002
}
  0
DIMENSION
  5
214
330
70
100
AcDbEntity
  8
Dimensions
100
AcDbDimension
280
     0
  2
*D20
 10
15.851947
 20
3.799204
 30
0.0
 11
15.851947
 21
4.586605
 31
0.0
 70
    33
 71
     5
 42
1.574803
 73
     0
 74
     0
 75
     0
  3
Standard
100
AcDbAlignedDimension
 13
15.512536
 23
5.374007
 33
0.0
 14
15.512536
 24
3.799204
 34
0.0
1001
ACAD_DIMASSOC_CALC_DIMLFAC
1040
-1.0
1001
ACAD_DIMASSOC_DIMLFAC
1040
-1.0
1001
ACAD_DIMASSOC_OVERRIDDEN_DIMLFAC
1040
0.0
1001
ACAD
1000
DSTYLE
1002
{
1070
   144
1040
1.0
1070
   176
1070
   256
1070
   177
1070
   256
1002
}
  0
DIMENSION
  5
222
330
70
100
AcDbEntity
  8
Dimensions
100
AcDbDimension
280
     0
  2
*D21
 10
15.316049
 20
5.713418
 30
0.0
 11
14.894289
 21
5.713675
 31
0.0
 70
    33
 71
     5
 42
0.19663
 73
     0
 74
     0
 75
     0
  3
Standard
100
AcDbAlignedDimension
 13
15.512316
 23
5.373796
 33
0.0
 14
15.315686
 24
5.374007
 34
0.0
1001
ACAD_DIMASSOC_CALC_DIMLFAC
1040
-1.0
1001
ACAD_DIMASSOC_DIMLFAC
1040
-1.0
1001
ACAD_DIMASSOC_OVERRIDDEN_DIMLFAC
1040
0.0
1001
ACAD
1000
DSTYLE
1002
{
1070
   144
1040
1.0
1070
   176
1070
   256
1070
   177
1070
   256
1002
}
  0
DIMENSION
  5
230
330
70
100
AcDbEntity
  8
Dimensions
100
AcDbDimension
280
     0
  2
*D22
 10
11.417974
 20
8.941683
 30
0.0
 11
13.465145
 21
8.941683
 31
0.0
 70
   160
 71
     5
 42
4.094341
 73
     0
 74
     0
 75
     0
  3
Standard
100
AcDbAlignedDimension
 13
15.512316
 23
5.373796
 33
0.0
 14
11.417974
 24
4.980237
 34
0.0
100
AcDbRotatedDimension
1001
ACAD_DIMASSOC_CALC_DIMLFAC
1040
-1.0
1001
ACAD_DIMASSOC_DIMLFAC
1040
-1.0
1001
ACAD_DIMASSOC_OVERRIDDEN_DIMLFAC
1040
0.0
1001
ACAD
1000
DSTYLE
1002
{
1070
   144
1040
1.0
1002
}
  0
DIMENSION
  5
23E
330
70
100
AcDbEntity
  8
Dimensions
100
AcDbDimension
280
     0
  2
*D23
 10
11.929868
 20
8.100083
 30
0.0
 11
13.721092
 21
8.100083
 31
0.0
 70
    32
 71
     5
 42
3.582447
 73
     0
 74
     0
 75
     0
  3
Standard
100
AcDbAlignedDimension
 13
15.512316
 23
5.373796
 33
0.0
 14
11.929868
 24
7.421261
 34
0.0
100
AcDbRotatedDimension
1001
ACAD_DIMASSOC_CALC_DIMLFAC
1040
-1.0
1001
ACAD_DIMASSOC_DIMLFAC
1040
-1.0
1001
ACAD_DIMASSOC_OVERRIDDEN_DIMLFAC
1040
0.0
1001
ACAD
1000
DSTYLE
1002
{
1070
   177
1070
   256
1070
   176
1070
   256
1070
   144
1040
1.0
1002
}
  0
LINE
  5
3D1
330
70
100
AcDbEntity
  8
Visible
100
AcDbLine
 10
9.68124
 20
5.373796
 30
-1.850247
 11
9.6811
 21
3.798993
 31
-1.850247
210
0.0
220
1.0
230
0.0
  0
LINE
  5
3D2
330
70
100
AcDbEntity
  8
Visible
100
AcDbLine
 10
7.319035
 20
5.374007
 30
-1.850467
 11
8.224205
 21
5.373926
 31
-1.850383
210
0.0
220
1.0
230
0.0
  0
LINE
  5
3D3
330
70
100
AcDbEntity
  8
Visible
100
AcDbLine
 10
8.775438
 20
5.373877
 30
-1.850331
 11
9.68124
 21
5.373796
 31
-1.850247
210
0.0
220
1.0
230
0.0
  0
LINE
  5
3D4
330
70
100
AcDbEntity
  8
Visible
100
AcDbLine
 10
7.318895
 20
3.799204
 30
-1.850467
 11
7.319035
 21
5.374007
 31
-1.850467
210
0.0
220
1.0
230
0.0
  0
LINE
  5
3D5
330
70
100
AcDbEntity
  8
Visible
100
AcDbLine
 10
9.6811
 20
3.798993
 30
-1.850247
 11
8.775298
 21
3.799074
 31
-1.850331
210
0.0
220
1.0
230
0.0
  0
LINE
  5
3D6
330
70
100
AcDbEntity
  8
Visible
100
AcDbLine
 10
8.224065
 20
3.799123
 30
-1.850383
 11
7.318895
 21
3.799204
 31
-1.850467
210
0.0
220
1.0
230
0.0
  0
LINE
  5
3D7
330
70
100
AcDbEntity
  8
Visible
100
AcDbLine
 10
9.6811
 20
3.798993
 30
-1.850247
 11
9.681118
 21
3.798993
 31
-2.047097
210
0.0
220
1.0
230
0.0
  0
LINE
  5
3D8
330
70
100
AcDbEntity
  8
Visible
100
AcDbLine
 10
9.681118
 20
3.798993
 30
-2.047097
 11
9.681259
 21
5.373796
 31
-2.047097
210
0.0
220
1.0
230
0.0
  0
LINE
  5
3D9
330
70
100
AcDbEntity
  8
Visible
100
AcDbLine
 10
9.68124
 20
5.373796
 30
-1.850247
 11
9.681259
 21
5.373796
 31
-2.047097
210
0.0
220
1.0
230
0.0
  0
LINE
  5
3DA
330
70
100
AcDbEntity
  8
Visible
100
AcDbLine
 10
8.89337
 20
4.192765
 30
2.047318
 11
8.105968
 21
4.192835
 31
2.047244
210
0.0
220
1.0
230
0.0
  0
LINE
  5
3DB
330
70
100
AcDbEntity
  8
Visible
100
AcDbLine
 10
8.106332
 20
4.192834
 30
-1.850394
 11
8.105968
 21
4.192835
 31
2.047244
210
0.0
220
1.0
230
0.0
  0
LINE
  5
3DC
330
70
100
AcDbEntity
  8
Visible
100
AcDbLine
 10
8.893733
 20
4.192764
 30
-1.85032
 11
8.89337
 21
4.192765
 31
2.047318
210
0.0
220
1.0
230
0.0
  0
LINE
  5
3DD
330
70
100
AcDbEntity
  8
Visible
100
AcDbLine
 10
8.105968
 20
4.192835
 30
2.047244
 11
8.106038
 21
4.980236
 31
2.047244
210
0.0
220
1.0
230
0.0
  0
LINE
  5
3DE
330
70
100
AcDbEntity
  8
Visible
100
AcDbLine
 10
8.106038
 20
4.980236
 30
2.047244
 11
8.89344
 21
4.980166
 31
2.047318
210
0.0
220
1.0
230
0.0
  0
LINE
  5
3DF
330
70
100
AcDbEntity
  8
Visible
100
AcDbLine
 10
8.893803
 20
4.980166
 30
-1.85032
 11
8.89344
 21
4.980166
 31
2.047318
210
0.0
220
1.0
230
0.0
  0
LINE
  5
3E0
330
70
100
AcDbEntity
  8
Visible
100
AcDbLine
 10
8.89344
 20
4.980166
 30
2.047318
 11
8.89337
 21
4.192765
 31
2.047318
210
0.0
220
1.0
230
0.0
  0
ARC
  5
3E1
330
70
100
AcDbEntity
  8
Visible
100
AcDbCircle
 10
8.500098
 20
6.869965
 30
1.810268
 40
0.3149606299212597
210
-0.0000933427368679
220
0.0000001423892501
230
0.9999999956435567
100
AcDbArc
 50
28.949919
 51
151.03987
  0
LINE
  5
3E2
330
70
100
AcDbEntity
  8
Visible
100
AcDbLine
 10
8.775552
 20
7.02242
 30
1.614235
 11
8.775533
 21
7.02242
 31
1.811086
210
0.0
220
1.0
230
0.0
  0
ARC
  5
3E3
330
70
100
AcDbEntity
  8
Visible
100
AcDbCircle
 10
-8.500098
 20
6.869965
 30
-1.613417
 40
0.3149606299212626
210
0.0000933427368683
220
-0.0000001423892461
230
-0.9999999956435567
100
AcDbArc
 50
90.087402
 51
151.050081
  0
ARC
  5
3E4
330
70
100
AcDbEntity
  8
Visible
100
AcDbCircle
 10
8.500099
 20
6.869965
 30
1.45593
 40
0.3149604979412965
210
-0.000093879255326
220
-0.00000015442117
230
0.999999995593331
100
AcDbArc
 50
28.949919
 51
28.95268
  0
LINE
  5
3E5
330
70
100
AcDbEntity
  8
Visible
100
AcDbLine
 10
8.775585
 20
7.02242
 30
1.259905
 11
8.775567
 21
7.02242
 31
1.456755
210
0.0
220
1.0
230
0.0
  0
ARC
  5
3E6
330
70
100
AcDbEntity
  8
Visible
100
AcDbCircle
 10
-8.500098
 20
6.869965
 30
-1.259088
 40
0.3149606467106592
210
0.0000932317800304
220
-0.0000002037754146
230
-0.9999999956538969
100
AcDbArc
 50
151.040417
 51
151.050081
  0
LINE
  5
3E7
330
70
100
AcDbEntity
  8
Visible
100
AcDbLine
 10
8.775263
 20
3.405374
 30
1.259905
 11
8.775333
 21
4.192775
 31
1.259905
210
0.0
220
1.0
230
0.0
  0
LINE
  5
3E8
330
70
100
AcDbEntity
  8
Visible
100
AcDbLine
 10
8.775403
 20
4.980177
 30
1.259905
 11
8.775585
 21
7.02242
 31
1.259905
210
0.0
220
1.0
230
0.0
  0
LINE
  5
3E9
330
70
100
AcDbEntity
  8
Visible
100
AcDbLine
 10
8.775567
 20
7.02242
 30
1.456755
 11
8.77554
 21
6.726577
 31
1.456755
210
0.0
220
1.0
230
0.0
  0
LINE
  5
3EA
330
70
100
AcDbEntity
  8
Visible
100
AcDbLine
 10
8.77554
 20
6.726577
 30
1.456755
 11
8.775525
 21
6.726577
 31
1.614235
210
0.0
220
1.0
230
0.0
  0
LINE
  5
3EB
330
70
100
AcDbEntity
  8
Visible
100
AcDbLine
 10
8.775525
 20
6.726577
 30
1.614235
 11
8.775552
 21
7.02242
 31
1.614235
210
0.0
220
1.0
230
0.0
  0
LINE
  5
3EC
330
70
100
AcDbEntity
  8
Visible
100
AcDbLine
 10
8.775211
 20
3.405374
 30
1.811086
 11
8.775281
 21
4.192775
 31
1.811086
210
0.0
220
1.0
230
0.0
  0
LINE
  5
3ED
330
70
100
AcDbEntity
  8
Visible
100
AcDbLine
 10
8.775351
 20
4.980177
 30
1.811086
 11
8.775533
 21
7.02242
 31
1.811086
210
0.0
220
1.0
230
0.0
  0
LINE
  5
3EE
330
70
100
AcDbEntity
  8
Visible
100
AcDbLine
 10
8.775263
 20
3.405374
 30
1.259905
 11
8.775211
 21
3.405374
 31
1.811086
210
0.0
220
1.0
230
0.0
  0
LINE
  5
3EF
330
70
100
AcDbEntity
  8
Visible
100
AcDbLine
 10
8.22403
 20
3.405423
 30
1.811035
 11
8.2241
 21
4.192824
 31
1.811035
210
0.0
220
1.0
230
0.0
  0
LINE
  5
3F0
330
70
100
AcDbEntity
  8
Visible
100
AcDbLine
 10
8.22417
 20
4.980226
 30
1.811035
 11
8.224352
 21
7.022469
 31
1.811034
210
0.0
220
1.0
230
0.0
  0
LINE
  5
3F1
330
70
100
AcDbEntity
  8
Visible
100
AcDbLine
 10
8.775211
 20
3.405374
 30
1.811086
 11
8.22403
 21
3.405423
 31
1.811035
210
0.0
220
1.0
230
0.0
  0
LINE
  5
3F2
330
70
100
AcDbEntity
  8
Visible
100
AcDbLine
 10
8.500428
 20
7.184925
 30
1.61421
 11
8.50041
 21
7.184925
 31
1.81106
210
0.0
220
1.0
230
0.0
  0
ELLIPSE
  5
3F3
330
70
100
AcDbEntity
  8
Visible
100
AcDbEllipse
 10
8.499959
 20
6.909335
 30
1.53547
 11
-0.0000011666322755
 21
0.2755906611929131
 31
0.2755905848964895
210
0.0001290109622145
220
0.7071066776949467
230
-0.707106872909171
 40
0.7071065967971798
 41
1.570796325188955
 42
1.578193614522167
1001
ACAD_VIEW_EDGE_ID
1071
        1
1071
       -1
1071
        5
1071
        0
  0
ELLIPSE
  5
3F4
330
70
100
AcDbEntity
  8
Visible
100
AcDbEllipse
 10
8.499959
 20
6.909335
 30
1.53547
 11
-0.0000502811762274
 21
-0.2755905101811315
 31
0.2755905862646838
210
-0.0000029956022149
220
0.7071068790637535
230
0.7071066833029826
 40
0.7071067828926513
 41
1.563585720905774
 42
1.570796326689596
1001
ACAD_VIEW_EDGE_ID
1071
        2
1071
       -1
1071
        5
1071
        0
  0
SPLINE
  5
3F5
330
70
100
AcDbEntity
  8
Visible
100
AcDbSpline
 70
     0
 71
     3
 72
    14
 73
    10
 74
     0
 42
0.000000001
 43
0.0000000001
 40
3.4162453220997
 40
3.4162453220997
 40
3.4162453220997
 40
3.4162453220997
 40
3.695487680410473
 40
3.695487680410473
 40
3.974730038721246
 40
3.974730038721246
 40
4.264861900760423
 40
4.264861900760423
 40
4.347705846620716
 40
4.347705846620716
 40
4.347705846620716
 40
4.347705846620716
 10
8.499962656687785
 20
7.243980884745399
 30
1.811060033367539
 10
8.536608635162338
 20
7.243977619357721
 30
1.811063454004397
 10
8.574459462743106
 20
7.237521787001516
 30
1.803334501169956
 10
8.641976432987576
 20
7.214433746933231
 30
1.774501563022568
 10
8.671719361025679
 20
7.197930973968891
 30
1.753473984870652
 10
8.718855250619526
 20
7.164164216858891
 30
1.706343890486095
 10
8.739421116699304
 20
7.144083781014491
 30
1.676594488577393
 10
8.757567652370198
 20
7.123014118007766
 30
1.633975242366432
 10
8.761092911938249
 20
7.11865736090556
 30
1.624224346749542
 10
8.764072039964958
 20
7.114829499402086
 30
1.614234309892708
1001
ACAD_VIEW_EDGE_ID
1071
        9
1071
       -1
1071
        5
1071
        0
  0
SPLINE
  5
3F6
330
70
100
AcDbEntity
  8
Visible
100
AcDbSpline
 70
     0
 71
     3
 72
    14
 73
    10
 74
     0
 42
0.000000001
 43
0.0000000001
 40
2.484784797578684
 40
2.484784797578684
 40
2.484784797578684
 40
2.484784797578684
 40
2.567628743438977
 40
2.567628743438977
 40
2.857760605478155
 40
2.857760605478155
 40
3.137002963788927
 40
3.137002963788927
 40
3.4162453220997
 40
3.4162453220997
 40
3.4162453220997
 40
3.4162453220997
 10
8.235867010307629
 20
7.114876565799731
 30
1.614185005782928
 10
8.238844955414606
 20
7.118703896490439
 30
1.624175598688452
 10
8.242369170944584
 20
7.123060025439977
 30
1.633927152322939
 10
8.260511504493479
 20
7.144126454879711
 30
1.676549785835959
 10
8.281075394694198
 20
7.164203225803568
 30
1.706303026910973
 10
8.328208501874541
 20
7.197961582951737
 30
1.753441920622208
 10
8.357950444380549
 20
7.214459055439153
 30
1.774475051255649
 10
8.425466144264646
 20
7.237535063245361
 30
1.803320593722673
 10
8.463316678211413
 20
7.243984150133076
 30
1.811056612730681
 10
8.499962656687785
 20
7.243980884745399
 30
1.811060033367539
1001
ACAD_VIEW_EDGE_ID
1071
       10
1071
       -1
1071
        5
1071
        0
  0
ARC
  5
3F7
330
70
100
AcDbEntity
  8
Visible
100
AcDbCircle
 10
-8.500102
 20
6.909335
 30
-1.613417
 40
0.3346456692913364
210
0.0000933427368725
220
-0.0000001423892561
230
-0.9999999956435566
100
AcDbArc
 50
37.894249
 51
90.001959
  0
LINE
  5
3F8
330
70
100
AcDbEntity
  8
Visible
100
AcDbLine
 10
8.764072
 20
7.114829
 30
1.614234
 11
8.764066
 21
7.041552
 31
1.614234
210
0.0
220
1.0
230
0.0
  0
LINE
  5
3F9
330
70
100
AcDbEntity
  8
Visible
100
AcDbLine
 10
8.23586
 20
7.041627
 30
1.614185
 11
8.235867
 21
7.114877
 31
1.614185
210
0.0
220
1.0
230
0.0
  0
SPLINE
  5
3FA
330
70
100
AcDbEntity
  8
Visible
100
AcDbSpline
210
0.0000086161681924
220
0.7678279216649118
230
0.6406561344727014
 70
     8
 71
     3
 72
     8
 73
     4
 74
     0
 42
0.000000001
 43
0.0000000001
 40
1.13759305009741
 40
1.13759305009741
 40
1.13759305009741
 40
1.13759305009741
 40
1.1387484406999
 40
1.1387484406999
 40
1.1387484406999
 40
1.1387484406999
 10
8.500469045056888
 20
7.243980434430174
 30
1.259879372930299
 10
8.500317378166073
 20
7.243980668775762
 30
1.259879094091957
 10
8.50016573150242
 20
7.243980792752297
 30
1.259878947559627
 10
8.500014105438822
 20
7.243980806263135
 30
1.259878933406071
1001
ACAD_VIEW_EDGE_ID
1071
       15
1071
       -1
1071
        5
1071
        0
  0
SPLINE
  5
3FB
330
70
100
AcDbEntity
  8
Visible
100
AcDbSpline
 70
     0
 71
     3
 72
    24
 73
    20
 74
     0
 42
0.000000001
 43
0.0000000001
 40
1.061778553372104
 40
1.061778553372104
 40
1.061778553372104
 40
1.061778553372104
 40
1.327103134706164
 40
1.327103134706164
 40
1.592493054957999
 40
1.592493054957999
 40
1.857959741933328
 40
1.857959741933328
 40
2.123426428908657
 40
2.123426428908657
 40
2.388893115883987
 40
2.388893115883987
 40
2.654359802859316
 40
2.654359802859316
 40
2.919749723111151
 40
2.919749723111151
 40
3.185139643362986
 40
3.185139643362986
 40
3.185204982280762
 40
3.185204982280762
 40
3.185204982280762
 40
3.185204982280762
 10
8.224404847294863
 20
7.322745559923618
 30
1.5354694728303
 10
8.224405044798913
 20
7.322746628511401
 30
1.570290044639477
 10
8.231405267204536
 20
7.324907209447522
 30
1.607288754496039
 10
8.259588009357685
 20
7.332709557482189
 30
1.67512366774099
 10
8.280762687632886
 20
7.338250406036193
 30
1.705974726533895
 10
8.329458576090473
 20
7.348738922426989
 30
1.754678770290411
 10
8.360303321418541
 20
7.354390478719059
 30
1.775853257642665
 10
8.428131640419451
 20
7.36244905355574
 30
1.804047411498686
 10
8.46513526767012
 20
7.364722796667983
 30
1.811056765291141
 10
8.534811562883987
 20
7.36471658807088
 30
1.811063269069563
 10
8.571816092236986
 20
7.362436250365378
 30
1.804060823400504
 10
8.639648236279754
 20
7.354365587326315
 30
1.775879332464683
 10
8.670495926371586
 20
7.348708533849375
 30
1.75471060365453
 10
8.719199036360805
 20
7.33821133859387
 30
1.706015651388952
 10
8.740378485925248
 20
7.332666716020098
 30
1.675168546045824
 10
8.768575971564132
 20
7.324858383256466
 30
1.607330544315118
 10
8.775582695247067
 20
7.322696450776057
 30
1.570323270581866
 10
8.775585946996216
 20
7.322696445815693
 30
1.535486622549797
 10
8.775585947370927
 20
7.322696445945515
 30
1.535478047755532
 10
8.775585947323634
 20
7.322696446206375
 30
1.5354694728303
1001
ACAD_VIEW_EDGE_ID
1071
       16
1071
       -1
1071
        5
1071
        0
  0
SPLINE
  5
3FC
330
70
100
AcDbEntity
  8
Visible
100
AcDbSpline
 70
     0
 71
     3
 72
    12
 73
     8
 74
     0
 42
0.000000001
 43
0.0000000001
 40
0.5825372891205792
 40
0.5825372891205792
 40
0.5825372891205792
 40
0.5825372891205792
 40
0.5856096542163152
 40
0.5856096542163152
 40
0.6474638112548118
 40
0.6474638112548118
 40
0.6483697357685667
 40
0.6483697357685667
 40
0.6483697357685667
 40
0.6483697357685667
 10
9.385690619074011
 20
7.594325303070509
 30
1.05332892655133
 10
9.386087423119533
 20
7.594324709716032
 30
1.05340973051534
 10
9.386483272519399
 20
7.59432314710892
 30
1.0534908773825
 10
9.394827832720693
 20
7.594269286899528
 30
1.055212804332768
 10
9.404299216166691
 20
7.59376751690119
 30
1.057431935572822
 10
9.412106540514287
 20
7.592121921387962
 30
1.059474778179719
 10
9.412220115065792
 20
7.59209766778761
 30
1.059504538561668
 10
9.412334477112381
 20
7.592072908499703
 30
1.059534549682211
1001
ACAD_VIEW_EDGE_ID
1071
       17
1071
       -1
1071
        5
1071
        0
  0
SPLINE
  5
3FD
330
70
100
AcDbEntity
  8
Visible
100
AcDbSpline
 70
     0
 71
     3
 72
    16
 73
    12
 74
     0
 42
0.000000001
 43
0.0000000001
 40
0.3166829533326489
 40
0.3166829533326489
 40
0.3166829533326489
 40
0.3166829533326489
 40
0.4922883918078198
 40
0.4922883918078198
 40
0.9845767836156394
 40
0.9845767836156394
 40
1.47181069110683
 40
1.47181069110683
 40
1.715427644852425
 40
1.715427644852425
 40
1.959044598598021
 40
1.959044598598021
 40
1.959044598598021
 40
1.959044598598021
 10
9.412334477112381
 20
7.592072908499703
 30
1.059534549682211
 10
9.435007866308296
 20
7.587164138576053
 30
1.065484546435982
 10
9.457223044773854
 20
7.58106986388266
 30
1.073055013506746
 10
9.538713648140401
 20
7.554872266928915
 30
1.107421903452632
 10
9.592616298861685
 20
7.529422931674218
 30
1.144764966935326
 10
9.677807568315984
 20
7.484638582380914
 30
1.229976138827623
 10
9.715431410448218
 20
7.461854710556167
 30
1.283987662665822
 10
9.753615723131588
 20
7.437901723441422
 30
1.374572902293948
 10
9.76341014809077
 20
7.431564773745461
 30
1.406347668105809
 10
9.7763722704276
 20
7.423127583260983
 30
1.470869454400599
 10
9.779534700252042
 20
7.421032180609372
 30
1.503618165555963
 10
9.779531716016208
 20
7.42103218516166
 30
1.535588894254033
1001
ACAD_VIEW_EDGE_ID
1071
       18
1071
       -1
1071
        5
1071
        0
  0
SPLINE
  5
3FE
330
70
100
AcDbEntity
  8
Visible
100
AcDbSpline
 70
     0
 71
     3
 72
    16
 73
    12
 74
     0
 42
0.000000001
 43
0.0000000001
 40
1.959044598598021
 40
1.959044598598021
 40
1.959044598598021
 40
1.959044598598021
 40
2.202661552343616
 40
2.202661552343616
 40
2.446278506089211
 40
2.446278506089211
 40
2.933512413580402
 40
2.933512413580402
 40
3.425800805388221
 40
3.425800805388221
 40
3.601406243863392
 40
3.601406243863392
 40
3.601406243863392
 40
3.601406243863392
 10
9.779531716016208
 20
7.42103218516166
 30
1.535588894254033
 10
9.779528731780374
 20
7.421032189713947
 30
1.567559622953922
 10
9.776360188303442
 20
7.423127601691604
 30
1.600307742563018
 10
9.763386020913458
 20
7.431564810550153
 30
1.664827105489166
 10
9.753585664237107
 20
7.437901769294625
 30
1.696600040466364
 10
9.715384441271453
 20
7.461854782205081
 30
1.787178143238634
 10
9.677750516628293
 20
7.484638669410148
 30
1.841182635822406
 10
9.592543340972042
 20
7.529423042967496
 30
1.926377889501964
 10
9.538633719783319
 20
7.554872388855261
 30
1.963710882246232
 10
9.457136702038042
 20
7.581069995593789
 30
1.998062551019756
 10
9.434920110665188
 20
7.587164272442498
 30
2.005628868972053
 10
9.412245611085381
 20
7.592073044059977
 30
2.011574631433177
1001
ACAD_VIEW_EDGE_ID
1071
       19
1071
       -1
1071
        5
1071
        0
  0
SPLINE
  5
3FF
330
70
100
AcDbEntity
  8
Visible
100
AcDbSpline
 70
     0
 71
     3
 72
    22
 73
    18
 74
     0
 42
0.000000001
 43
0.0000000001
 40
0.0391361519072631
 40
0.0391361519072631
 40
0.0391361519072631
 40
0.0391361519072631
 40
0.0400420764210185
 40
0.0400420764210185
 40
0.1018962334595151
 40
0.1018962334595151
 40
0.222824588648715
 40
0.222824588648715
 40
0.2832887662433149
 40
0.2832887662433149
 40
0.3135208550406149
 40
0.3135208550406149
 40
0.3286368994392649
 40
0.3286368994392649
 40
0.3361949216385899
 40
0.3361949216385899
 40
0.3437529438379149
 40
0.3437529438379149
 40
0.3437529438379149
 40
0.3437529438379149
 10
9.412245611085381
 20
7.592073044059977
 30
2.011574631433177
 10
9.412131243438125
 20
7.592097803356427
 30
2.011604621195147
 10
9.412017663331425
 20
7.59212205696525
 30
2.011634360367679
 10
9.404209957752755
 20
7.593767653060028
 30
2.013675744954525
 10
9.394738160190172
 20
7.594269423690075
 30
2.01589310784584
 10
9.371245474038005
 20
7.594421053465526
 30
2.020736327149279
 10
9.354185577394673
 20
7.592993704894476
 30
2.023420028221153
 10
9.328584576622233
 20
7.590101484782436
 30
2.02601856147703
 10
9.320017618863857
 20
7.589000823881467
 30
2.026658637096261
 10
9.307484761920932
 20
7.587311913355926
 30
2.027276715765765
 10
9.303349513207649
 20
7.586740129883653
 30
2.027426945087427
 10
9.297271363097024
 20
7.585893196885688
 30
2.027573665098316
 10
9.295263771944519
 20
7.585606768791343
 30
2.027609598135313
 10
9.29228617035369
 20
7.585199629336531
 30
2.027645028256301
 10
9.291300229300759
 20
7.585058526137711
 30
2.027653770725009
 10
9.289336913649094
 20
7.584795670960103
 30
2.027665328108923
 10
9.288367080320313
 20
7.584620373886263
 30
2.027668169195749
 10
9.287375213898485
 20
7.584620462267813
 30
2.027668076612826
1001
ACAD_VIEW_EDGE_ID
1071
       20
1071
       -1
1071
        5
1071
        0
  0
SPLINE
  5
400
330
70
100
AcDbEntity
  8
Visible
100
AcDbSpline
 70
     0
 71
     3
 72
    24
 73
    20
 74
     0
 42
0.000000001
 43
0.0000000001
 40
6.470569909110528
 40
6.470569909110528
 40
6.470569909110528
 40
6.470569909110528
 40
6.480392878344787
 40
6.480392878344787
 40
6.490215847579046
 40
6.490215847579046
 40
6.509861786047564
 40
6.509861786047564
 40
6.5491536629846
 40
6.5491536629846
 40
6.627737416858674
 40
6.627737416858674
 40
6.78490492460682
 40
6.78490492460682
 40
7.099239940103112
 40
7.099239940103112
 40
7.413574955599404
 40
7.413574955599404
 40
7.552066411691979
 40
7.552066411691979
 40
7.552066411691979
 40
7.552066411691979
 10
9.287374755169366
 20
7.579472347069629
 30
2.027668077304042
 10
9.288663858731524
 20
7.579472232202377
 30
2.02766819763201
 10
9.289724034266328
 20
7.579114304035185
 30
2.027663701521305
 10
9.291720868010088
 20
7.578312077914389
 30
2.027650304296912
 10
9.292647908700018
 20
7.577844049254661
 30
2.027641158880214
 10
9.295391672798359
 20
7.576397477638208
 30
2.027606933805145
 10
9.297134439875662
 20
7.575368373113397
 30
2.027575324302233
 10
9.302395943856026
 20
7.572231502139354
 30
2.027452675967651
 10
9.305886637410367
 20
7.570066593650432
 30
2.027334132884789
 10
9.316459498371841
 20
7.563497665400927
 30
2.026861177197133
 10
9.323749933852013
 20
7.558917783806011
 30
2.026380297560535
 10
9.345729847547772
 20
7.545137036359877
 30
2.024422583624982
 10
9.361302874158354
 20
7.53538302830422
 30
2.022344986215102
 10
9.407783373077108
 20
7.506578059626191
 30
2.013759989957179
 10
9.440859868549523
 20
7.48647150473984
 30
2.004378433439342
 10
9.504128646751269
 20
7.45016708496159
 30
1.978697086597094
 10
9.535798578615867
 20
7.433044080984393
 30
1.961996324233041
 10
9.579780750176723
 20
7.412613340508804
 30
1.931738179346211
 10
9.593010812464854
 20
7.406942776087529
 30
1.921651961200041
 10
9.605940209328764
 20
7.402071689953798
 30
1.910672809231982
1001
ACAD_VIEW_EDGE_ID
1071
       22
1071
       -1
1071
        5
1071
        0
  0
SPLINE
  5
401
330
70
100
AcDbEntity
  8
Visible
100
AcDbSpline
 70
     0
 71
     3
 72
    14
 73
    10
 74
     0
 42
0.000000001
 43
0.0000000001
 40
4.717275504021567
 40
4.717275504021567
 40
4.717275504021567
 40
4.717275504021567
 40
4.821576014752759
 40
4.821576014752759
 40
5.302682727539751
 40
5.302682727539751
 40
5.543236083933246
 40
5.543236083933246
 40
5.783789440326742
 40
5.783789440326742
 40
5.783789440326742
 40
5.783789440326742
 10
9.605940209328764
 20
7.402071689953798
 30
1.910672809231982
 10
9.616234871336928
 20
7.398193227106926
 30
1.901930973872367
 10
9.62605282889308
 20
7.394333375709845
 30
1.892862639882878
 10
9.678270968139258
 20
7.373133185247294
 30
1.840652362425316
 10
9.715977174151703
 20
7.355049869878152
 30
1.786155088875602
 10
9.75396827669283
 20
7.336004158084053
 30
1.695463384356116
 10
9.763652282450493
 20
7.330962041405751
 30
1.663758567030527
 10
9.776430408828673
 20
7.32426144379132
 30
1.599606331083123
 10
9.779519999003241
 20
7.322606993197053
 30
1.567157589253838
 10
9.779522945709686
 20
7.322606988702012
 30
1.535588907450801
1001
ACAD_VIEW_EDGE_ID
1071
       23
1071
       -1
1071
        5
1071
        0
  0
SPLINE
  5
402
330
70
100
AcDbEntity
  8
Visible
100
AcDbSpline
210
0.4722967840879102
220
0.88143958715641
230
0.0000439744878628
 70
     8
 71
     3
 72
     8
 73
     4
 74
     0
 42
0.000000001
 43
0.0000000001
 40
5.783789440326742
 40
5.783789440326742
 40
5.783789440326742
 40
5.783789440326742
 40
5.78390611698589
 40
5.78390611698589
 40
5.78390611698589
 40
5.78390611698589
 10
9.779522945709686
 20
7.322606988702012
 30
1.535588907450801
 10
9.779522947139412
 20
7.322606988699831
 30
1.535573595552705
 10
9.779522947841542
 20
7.322606989086874
 30
1.535558283449063
 10
9.779522947819714
 20
7.322606989863142
 30
1.535542971136237
1001
ACAD_VIEW_EDGE_ID
1071
       24
1071
       -1
1071
        5
1071
        0
  0
SPLINE
  5
403
330
70
100
AcDbEntity
  8
Visible
100
AcDbSpline
 70
     0
 71
     3
 72
    24
 73
    20
 74
     0
 42
0.000000001
 43
0.0000000001
 40
5.389073406529077
 40
5.389073406529077
 40
5.389073406529077
 40
5.389073406529077
 40
5.527564862621652
 40
5.527564862621652
 40
5.841899878117944
 40
5.841899878117944
 40
6.156234893614236
 40
6.156234893614236
 40
6.313402401362382
 40
6.313402401362382
 40
6.391986155236455
 40
6.391986155236455
 40
6.431278032173492
 40
6.431278032173492
 40
6.45092397064201
 40
6.45092397064201
 40
6.460746939876269
 40
6.460746939876269
 40
6.470569909110528
 40
6.470569909110528
 40
6.470569909110528
 40
6.470569909110528
 10
7.393994718395333
 20
7.402268788239879
 30
1.910466340155835
 10
7.406922933267196
 20
7.407137570297415
 30
1.921447905744571
 10
7.420152122729632
 20
7.412805777032574
 30
1.931536593670898
 10
7.464132285085725
 20
7.433228679509747
 30
1.961802949203047
 10
7.495802149640439
 20
7.450346039511825
 30
1.97850962387929
 10
7.55907260130516
 20
7.486639183847063
 30
2.004202782240099
 10
7.59215092751765
 20
7.506739843921799
 30
2.013590513832241
 10
7.638634955601446
 20
7.535536528874478
 30
2.022184187655511
 10
7.654209332124082
 20
7.54528776150018
 30
2.024264692447104
 10
7.676191335513067
 20
7.559064591662391
 30
2.026226509909974
 10
7.68348249716837
 20
7.563643173945089
 30
2.026708750634497
 10
7.694056440150234
 20
7.570210217881065
 30
2.027183680220332
 10
7.697547497271443
 20
7.572374504251991
 30
2.027302874999804
 10
7.702809537209759
 20
7.575510437511937
 30
2.02742650563232
 10
7.704552481729479
 20
7.576539231437871
 30
2.027458440499685
 10
7.707296497143033
 20
7.57798531405858
 30
2.02749317782036
 10
7.708223619503769
 20
7.578453177500692
 30
2.027502496308443
 10
7.710220593648045
 20
7.57925504774803
 30
2.027516266327438
 10
7.711280832094416
 20
7.579612786972971
 30
2.02752096036238
 10
7.712569935656574
 20
7.579612672105717
 30
2.027521080690348
1001
ACAD_VIEW_EDGE_ID
1071
       27
1071
       -1
1071
        5
1071
        0
  0
SPLINE
  5
404
330
70
100
AcDbEntity
  8
Visible
100
AcDbSpline
 70
     0
 71
     3
 72
    22
 73
    18
 74
     0
 42
0.000000001
 43
0.0000000001
 40
0.3437529438379148
 40
0.3437529438379148
 40
0.3437529438379148
 40
0.3437529438379148
 40
0.3513109660372399
 40
0.3513109660372399
 40
0.3588689882365649
 40
0.3588689882365649
 40
0.3739850326352148
 40
0.3739850326352148
 40
0.4042171214325149
 40
0.4042171214325149
 40
0.464681299027115
 40
0.464681299027115
 40
0.5856096542163152
 40
0.5856096542163152
 40
0.6474638112548118
 40
0.6474638112548118
 40
0.6483697357685667
 40
0.6483697357685667
 40
0.6483697357685667
 40
0.6483697357685667
 10
7.712570394385693
 20
7.584760787303902
 30
2.027521080000951
 10
7.711578527963865
 20
7.584760875685452
 30
2.02752098741621
 10
7.710608726440113
 20
7.584936345592983
 30
2.027517965279912
 10
7.708645459853869
 20
7.58519955065382
 30
2.027506041376909
 10
7.707659545612841
 20
7.585340829557376
 30
2.027497114848301
 10
7.704682023291752
 20
7.585748499651268
 30
2.027461128862341
 10
7.702674489961282
 20
7.586035285518512
 30
2.027424821040767
 10
7.696596518375372
 20
7.586883301703545
 30
2.027276966344288
 10
7.692461399745297
 20
7.58745582211768
 30
2.027125965043524
 10
7.679928959591052
 20
7.589146966119189
 30
2.026505546711632
 10
7.671362317762032
 20
7.590249153731882
 30
2.025863871795081
 10
7.645762318381457
 20
7.593145936175778
 30
2.023260559297341
 10
7.628703177686475
 20
7.594576324968122
 30
2.020573673458784
 10
7.605211369453172
 20
7.594428881807284
 30
2.015726068493677
 10
7.595739896734812
 20
7.593928799142027
 30
2.013506937386409
 10
7.58793227924616
 20
7.592284594470963
 30
2.011464095221526
 10
7.587818700372736
 20
7.592260361103438
 30
2.011434334845034
 10
7.587704333916917
 20
7.592235622188638
 30
2.011404323731767
1001
ACAD_VIEW_EDGE_ID
1071
       29
1071
       -1
1071
        5
1071
        0
  0
SPLINE
  5
405
330
70
100
AcDbEntity
  8
Visible
100
AcDbSpline
 70
     0
 71
     3
 72
    16
 73
    12
 74
     0
 42
0.000000001
 43
0.0000000001
 40
4.234772150528689
 40
4.234772150528689
 40
4.234772150528689
 40
4.234772150528689
 40
4.41037758900386
 40
4.41037758900386
 40
4.902665980811679
 40
4.902665980811679
 40
5.38989988830287
 40
5.38989988830287
 40
5.633516842048464
 40
5.633516842048464
 40
5.877017118916047
 40
5.877017118916047
 40
5.877017118916047
 40
5.877017118916047
 10
7.587704333916917
 20
7.592235622188638
 30
2.011404323731767
 10
7.565030070274588
 20
7.587330891431815
 30
2.005454328293126
 10
7.542813806085177
 20
7.581240573830617
 30
1.997883862857634
 10
7.461318535270038
 20
7.555057490732409
 30
1.963516979934865
 10
7.407411350010079
 20
7.529617752001714
 30
1.926173923273381
 10
7.32221210076932
 20
7.484848562730968
 30
1.840962763388233
 10
7.284584198860102
 20
7.462071381829057
 30
1.78695124566002
 10
7.24639561805634
 20
7.438125175731633
 30
1.696366012452926
 10
7.236600063926744
 20
7.431789963106336
 30
1.664591248338183
 10
7.223639542553428
 20
7.423357085355831
 30
1.600084915202387
 10
7.220476665299429
 20
7.421262224735958
 30
1.56735212265994
 10
7.220476617105305
 20
7.421260214549691
 30
1.535395961327594
1001
ACAD_VIEW_EDGE_ID
1071
       30
1071
       -1
1071
        5
1071
        0
  0
SPLINE
  5
406
330
70
100
AcDbEntity
  8
Visible
100
AcDbSpline
 70
     0
 71
     3
 72
    14
 73
    10
 74
     0
 42
0.000000001
 43
0.0000000001
 40
1.927929813442247
 40
1.927929813442247
 40
1.927929813442247
 40
1.927929813442247
 40
2.168483169835743
 40
2.168483169835743
 40
2.409036526229239
 40
2.409036526229239
 40
2.89014323901623
 40
2.89014323901623
 40
2.994443749747422
 40
2.994443749747422
 40
2.994443749747422
 40
2.994443749747422
 10
7.220467848906992
 20
7.322835016641958
 30
1.535350038209799
 10
7.220464902200546
 20
7.322835021136999
 30
1.566918720014655
 10
7.223548729405592
 20
7.324488921640864
 30
1.599368038085231
 10
7.236316073196576
 20
7.331187242992879
 30
1.663522658518559
 10
7.2459950583725
 20
7.336227634306635
 30
1.695229283239314
 10
7.283972623008594
 20
7.355266576813626
 30
1.785928078883443
 10
7.321671876588879
 20
7.373343173081006
 30
1.840432390987189
 10
7.373884045335216
 20
7.394534058144844
 30
1.89265241625435
 10
7.383700997510459
 20
7.398392159947701
 30
1.901722583021182
 10
7.393994718395333
 20
7.402268788239879
 30
1.910466340155835
1001
ACAD_VIEW_EDGE_ID
1071
       36
1071
       -1
1071
        5
1071
        0
  0
LINE
  5
407
330
70
100
AcDbEntity
  8
Visible
100
AcDbLine
 10
7.71257
 20
7.579613
 30
2.027521
 11
9.287375
 21
7.579472
 31
2.027668
210
0.0
220
1.0
230
0.0
  0
LINE
  5
408
330
70
100
AcDbEntity
  8
Visible
100
AcDbLine
 10
7.71257
 20
7.584761
 30
2.027521
 11
9.287375
 21
7.58462
 31
2.027668
210
0.0
220
1.0
230
0.0
  0
LINE
  5
409
330
70
100
AcDbEntity
  8
Visible
100
AcDbLine
 10
8.775586
 20
7.322696
 30
1.535469
 11
8.775549
 21
6.909285
 31
1.53547
210
0.0
220
1.0
230
0.0
  0
LINE
  5
40A
330
70
100
AcDbEntity
  8
Visible
100
AcDbLine
 10
8.224405
 20
7.322746
 30
1.535469
 11
8.224378
 21
7.022516
 31
1.53547
210
0.0
220
1.0
230
0.0
  0
LINE
  5
40B
330
70
100
AcDbEntity
  8
Visible
100
AcDbLine
 10
9.779532
 20
7.421032
 30
1.535543
 11
9.779523
 21
7.322607
 31
1.535543
210
0.0
220
1.0
230
0.0
  0
LINE
  5
40C
330
70
100
AcDbEntity
  8
Visible
100
AcDbLine
 10
7.220477
 20
7.42126
 30
1.535396
 11
7.220468
 21
7.322835
 31
1.535396
210
0.0
220
1.0
230
0.0
  0
LINE
  5
40D
330
70
100
AcDbEntity
  8
Visible
100
AcDbLine
 10
9.385305
 20
7.594325
 30
1.053269
 11
9.385395
 21
7.594325
 31
1.053269
210
0.0
220
1.0
230
0.0
  0
LINE
  5
40E
330
70
100
AcDbEntity
  8
Visible
100
AcDbLine
 10
7.220468
 20
7.322835
 30
1.53535
 11
8.224405
 21
7.322746
 31
1.535444
210
0.0
220
1.0
230
0.0
  0
LINE
  5
40F
330
70
100
AcDbEntity
  8
Visible
100
AcDbLine
 10
8.775586
 20
7.322696
 30
1.535495
 11
9.779523
 21
7.322607
 31
1.535589
210
0.0
220
1.0
230
0.0
  0
LINE
  5
410
330
70
100
AcDbEntity
  8
Visible
100
AcDbLine
 10
7.614645
 20
7.594483
 30
2.01767
 11
9.385305
 21
7.594326
 31
2.017836
210
0.0
220
1.0
230
0.0
  0
LINE
  5
411
330
70
100
AcDbEntity
  8
Visible
100
AcDbLine
 10
15.315465
 20
5.373796
 30
1.18124
 11
15.315465
 21
3.798993
 31
1.1811
210
0.0
220
1.0
230
0.0
  0
LINE
  5
412
330
70
100
AcDbEntity
  8
Visible
100
AcDbLine
 10
15.315686
 20
5.374007
 30
-1.180965
 11
15.315465
 21
5.373796
 31
1.18124
210
0.0
220
1.0
230
0.0
  0
LINE
  5
413
330
70
100
AcDbEntity
  8
Visible
100
AcDbLine
 10
15.512536
 20
5.374007
 30
-1.180946
 11
15.512536
 21
3.799204
 31
-1.181087
210
0.0
220
1.0
230
0.0
  0
LINE
  5
414
330
70
100
AcDbEntity
  8
Visible
100
AcDbLine
 10
15.512536
 20
5.374007
 30
-1.180946
 11
15.315686
 21
5.374007
 31
-1.180965
210
0.0
220
1.0
230
0.0
  0
LINE
  5
415
330
70
100
AcDbEntity
  8
Visible
100
AcDbLine
 10
15.512536
 20
3.799204
 30
-1.181087
 11
15.512315
 21
3.798993
 31
1.181118
210
0.0
220
1.0
230
0.0
  0
LINE
  5
416
330
70
100
AcDbEntity
  8
Visible
100
AcDbLine
 10
15.315465
 20
3.798993
 30
1.1811
 11
15.512315
 21
3.798993
 31
1.181118
210
0.0
220
1.0
230
0.0
  0
LINE
  5
417
330
70
100
AcDbEntity
  8
Visible
100
AcDbLine
 10
15.512315
 20
3.798993
 30
1.181118
 11
15.512316
 21
5.373796
 31
1.181259
210
0.0
220
1.0
230
0.0
  0
LINE
  5
418
330
70
100
AcDbEntity
  8
Visible
100
AcDbLine
 10
15.315465
 20
5.373796
 30
1.18124
 11
15.512316
 21
5.373796
 31
1.181259
210
0.0
220
1.0
230
0.0
  0
LINE
  5
419
330
70
100
AcDbEntity
  8
Visible
100
AcDbLine
 10
15.512316
 20
5.373796
 30
1.181259
 11
15.512536
 21
5.374007
 31
-1.180946
210
0.0
220
1.0
230
0.0
  0
LINE
  5
41A
330
70
100
AcDbEntity
  8
Visible
100
AcDbLine
 10
15.315465
 20
4.192764
 30
0.393733
 11
11.417901
 21
4.192765
 31
0.39337
210
0.0
220
1.0
230
0.0
  0
LINE
  5
41B
330
70
100
AcDbEntity
  8
Visible
100
AcDbLine
 10
15.315465
 20
4.980236
 30
-0.393598
 11
12.205365
 21
4.980236
 31
-0.393888
210
0.0
220
1.0
230
0.0
  0
LINE
  5
41C
330
70
100
AcDbEntity
  8
Visible
100
AcDbLine
 10
11.654132
 20
4.980237
 30
-0.39394
 11
11.417974
 21
4.980237
 31
-0.393962
210
0.0
220
1.0
230
0.0
  0
LINE
  5
41D
330
70
100
AcDbEntity
  8
Visible
100
AcDbLine
 10
11.417974
 20
4.980237
 30
-0.393962
 11
11.417901
 21
4.980166
 31
0.39344
210
0.0
220
1.0
230
0.0
  0
LINE
  5
41E
330
70
100
AcDbEntity
  8
Visible
100
AcDbLine
 10
15.315465
 20
4.980166
 30
0.393803
 11
11.417901
 21
4.980166
 31
0.39344
210
0.0
220
1.0
230
0.0
  0
LINE
  5
41F
330
70
100
AcDbEntity
  8
Visible
100
AcDbLine
 10
11.417901
 20
4.980166
 30
0.39344
 11
11.417901
 21
4.192765
 31
0.39337
210
0.0
220
1.0
230
0.0
  0
ARC
  5
420
330
70
100
AcDbEntity
  8
Visible
100
AcDbCircle
 10
-6.869967
 20
-0.001159
 30
-11.654157
 40
0.314960629921261
210
-0.9999999956435566
220
0.0000001423892503
230
-0.0000933427365685
100
AcDbArc
 50
118.949919
 51
180.0
  0
LINE
  5
421
330
70
100
AcDbEntity
  8
Visible
100
AcDbLine
 10
11.850983
 20
7.02242
 30
0.275552
 11
11.654133
 21
7.02242
 31
0.275533
210
0.0
220
1.0
230
0.0
  0
ARC
  5
422
330
70
100
AcDbEntity
  8
Visible
100
AcDbCircle
 10
6.869967
 20
-0.001159
 30
11.851008
 40
0.3149606299212177
210
0.9999999956435567
220
-0.0000001423894576
230
0.0000933427362099
100
AcDbArc
 50
56.989847
 51
61.050081
  0
ARC
  5
423
330
70
100
AcDbEntity
  8
Visible
100
AcDbCircle
 10
-6.869967
 20
-0.001159
 30
-12.008488
 40
0.3149606299212647
210
-0.9999999956435567
220
0.0000001423892481
230
-0.0000933427365685
100
AcDbArc
 50
118.949919
 51
141.027865
  0
LINE
  5
424
330
70
100
AcDbEntity
  8
Visible
100
AcDbLine
 10
12.205314
 20
7.02242
 30
0.275585
 11
12.008463
 21
7.02242
 31
0.275567
210
0.0
220
1.0
230
0.0
  0
ARC
  5
425
330
70
100
AcDbEntity
  8
Visible
100
AcDbCircle
 10
6.869967
 20
-0.001159
 30
12.205338
 40
0.3149606299212601
210
0.9999999956435566
220
-0.0000001423892506
230
0.00009334273657
100
AcDbArc
 50
298.96013
 51
61.050081
  0
LINE
  5
426
330
70
100
AcDbEntity
  8
Visible
100
AcDbLine
 10
12.205313
 20
3.405374
 30
0.275263
 11
12.205313
 21
4.192765
 31
0.275333
210
0.0
220
1.0
230
0.0
  0
LINE
  5
427
330
70
100
AcDbEntity
  8
Visible
100
AcDbLine
 10
12.205314
 20
4.980177
 30
0.275403
 11
12.205314
 21
7.02242
 31
0.275585
210
0.0
220
1.0
230
0.0
  0
LINE
  5
428
330
70
100
AcDbEntity
  8
Visible
100
AcDbLine
 10
12.205365
 20
3.405423
 30
-0.275918
 11
12.205313
 21
3.405374
 31
0.275263
210
0.0
220
1.0
230
0.0
  0
LINE
  5
429
330
70
100
AcDbEntity
  8
Visible
100
AcDbLine
 10
12.205365
 20
3.405423
 30
-0.275918
 11
12.205365
 21
4.192765
 31
-0.275848
210
0.0
220
1.0
230
0.0
  0
LINE
  5
42A
330
70
100
AcDbEntity
  8
Visible
100
AcDbLine
 10
12.205365
 20
4.980226
 30
-0.275778
 11
12.205365
 21
7.022469
 31
-0.275596
210
0.0
220
1.0
230
0.0
  0
LINE
  5
42B
330
70
100
AcDbEntity
  8
Visible
100
AcDbLine
 10
12.008463
 20
7.02242
 30
0.275567
 11
12.008463
 21
6.726577
 31
0.27554
210
0.0
220
1.0
230
0.0
  0
LINE
  5
42C
330
70
100
AcDbEntity
  8
Visible
100
AcDbLine
 10
12.008463
 20
6.726577
 30
0.27554
 11
11.850983
 21
6.726577
 31
0.275525
210
0.0
220
1.0
230
0.0
  0
LINE
  5
42D
330
70
100
AcDbEntity
  8
Visible
100
AcDbLine
 10
11.850983
 20
6.726577
 30
0.275525
 11
11.850983
 21
7.02242
 31
0.275552
210
0.0
220
1.0
230
0.0
  0
LINE
  5
42E
330
70
100
AcDbEntity
  8
Visible
100
AcDbLine
 10
11.654132
 20
3.405374
 30
0.275211
 11
11.654132
 21
4.192765
 31
0.275281
210
0.0
220
1.0
230
0.0
  0
LINE
  5
42F
330
70
100
AcDbEntity
  8
Visible
100
AcDbLine
 10
11.654132
 20
4.980177
 30
0.275351
 11
11.654133
 21
7.02242
 31
0.275533
210
0.0
220
1.0
230
0.0
  0
LINE
  5
430
330
70
100
AcDbEntity
  8
Visible
100
AcDbLine
 10
12.205313
 20
3.405374
 30
0.275263
 11
11.654132
 21
3.405374
 31
0.275211
210
0.0
220
1.0
230
0.0
  0
LINE
  5
431
330
70
100
AcDbEntity
  8
Visible
100
AcDbLine
 10
11.729927
 20
7.184926
 30
-0.000064
 11
11.654158
 21
7.184926
 31
-0.000071
210
0.0
220
1.0
230
0.0
  0
LINE
  5
432
330
70
100
AcDbEntity
  8
Visible
100
AcDbLine
 10
12.20534
 20
7.184926
 30
-0.000019
 11
12.129536
 21
7.184926
 31
-0.000026
210
0.0
220
1.0
230
0.0
  0
ELLIPSE
  5
433
330
70
100
AcDbEntity
  8
Visible
100
AcDbEllipse
 10
11.929749
 20
6.909335
 30
-0.000041
 11
0.275590513061243
 21
-0.2755905893578043
 31
0.0000011674959463
210
0.7071068729091711
220
0.7071066776949465
230
0.0001290109620045
 40
0.707106781110925
 41
4.712388980346245
 42
5.002136621606425
1001
ACAD_VIEW_EDGE_ID
1071
        1
1071
       -1
1071
        5
1071
        0
  0
ELLIPSE
  5
434
330
70
100
AcDbEntity
  8
Visible
100
AcDbEllipse
 10
11.929749
 20
6.909335
 30
-0.000041
 11
0.2755905868847489
 21
0.2755905108011966
 31
0.0000502812156533
210
-0.7071066833029828
220
0.7071068790637538
230
-0.0000029956020049
 40
0.707106781301687
 41
4.422637278865082
 42
4.712388980350714
1001
ACAD_VIEW_EDGE_ID
1071
        2
1071
       -1
1071
        5
1071
        0
  0
ARC
  5
435
330
70
100
AcDbEntity
  8
Visible
100
AcDbCircle
 10
-6.909337
 20
-0.001155
 30
-11.851008
 40
0.2755905511811009
210
-0.9999999956435567
220
0.0000001423892483
230
-0.000093342736573
100
AcDbArc
 50
48.459422
 51
73.393345
  0
LINE
  5
436
330
70
100
AcDbEntity
  8
Visible
100
AcDbLine
 10
12.008464
 20
7.041552
 30
0.26408
 11
12.008464
 21
7.11483
 31
0.264087
210
0.0
220
1.0
230
0.0
  0
SPLINE
  5
437
330
70
100
AcDbEntity
  8
Visible
100
AcDbSpline
 70
     0
 71
     3
 72
    14
 73
    10
 74
     0
 42
0.000000001
 43
0.0000000001
 40
3.416310661513308
 40
3.416310661513308
 40
3.416310661513308
 40
3.416310661513308
 40
3.695487680410473
 40
3.695487680410473
 40
3.974730038721246
 40
3.974730038721246
 40
4.264861900760423
 40
4.264861900760423
 40
4.347705846620716
 40
4.347705846620716
 40
4.347705846620716
 40
4.347705846620716
 10
11.65415843196933
 20
7.243980969419288
 30
-0.0000116189312394
 10
11.65415862979716
 20
7.243974685928003
 30
0.0366263482374052
 10
11.66188733858144
 20
7.237519173863081
 30
0.0744673618355591
 10
11.69071690344572
 20
7.214433834959132
 30
0.1419764329930331
 10
11.71174448159763
 20
7.197931061994792
 30
0.1717193610311369
 10
11.75887457598219
 20
7.164164304884792
 30
0.2188552506249834
 10
11.78862397789089
 20
7.144083869040392
 30
0.2394211167047615
 10
11.83124322410185
 20
7.123014206033667
 30
0.2575676523756556
 10
11.84099411971874
 20
7.118657448931461
 30
0.261092911943706
 10
11.85098415657558
 20
7.114829587427987
 30
0.2640720399704151
1001
ACAD_VIEW_EDGE_ID
1071
        9
1071
       -1
1071
        5
1071
        0
  0
LINE
  5
438
330
70
100
AcDbEntity
  8
Visible
100
AcDbLine
 10
11.850984
 20
7.11483
 30
0.264072
 11
11.850984
 21
6.830572
 31
0.264047
210
0.0
220
1.0
230
0.0
  0
SPLINE
  5
439
330
70
100
AcDbEntity
  8
Visible
100
AcDbSpline
210
-0.6402675378200056
220
0.7681519901285633
230
0.0000086853697623
 70
     8
 71
     3
 72
     8
 73
     4
 74
     0
 42
0.000000001
 43
0.0000000001
 40
1.1387484406999
 40
1.1387484406999
 40
1.1387484406999
 40
1.1387484406999
 40
1.138813780113508
 40
1.138813780113508
 40
1.138813780113508
 40
1.138813780113508
 10
12.20533953306221
 20
7.243980894289036
 30
0.0000141054442793
 10
12.20533953386257
 20
7.243980895053098
 30
0.000005530719136
 10
12.2053395342391
 20
7.243980895463892
 30
-0.0000030440733099
 10
12.20533953419181
 20
7.243980895521431
 30
-0.0000116189312394
1001
ACAD_VIEW_EDGE_ID
1071
       14
1071
       -1
1071
        5
1071
        0
  0
SPLINE
  5
43A
330
70
100
AcDbEntity
  8
Visible
100
AcDbSpline
 70
     0
 71
     3
 72
    14
 73
    10
 74
     0
 42
0.000000001
 43
0.0000000001
 40
0.2072879161788841
 40
0.2072879161788841
 40
0.2072879161788841
 40
0.2072879161788841
 40
0.2901318620391773
 40
0.2901318620391773
 40
0.5802637240783547
 40
0.5802637240783547
 40
0.8595060823891273
 40
0.8595060823891273
 40
1.1387484406999
 40
1.1387484406999
 40
1.1387484406999
 40
1.1387484406999
 10
12.00846447085132
 20
7.114829565004482
 30
0.2640867396148678
 10
12.01845506478276
 20
7.118657423662931
 30
0.261109476634374
 10
12.02820661958685
 20
7.123014177988197
 30
0.2575860374763579
 10
12.07082925874965
 20
7.144083828857395
 30
0.2394474585180433
 10
12.10058250520706
 20
7.164164256229256
 30
0.2188871465787088
 10
12.14772140797322
 20
7.197930999916365
 30
0.1717600563097221
 10
12.16875454302863
 20
7.214433766891712
 30
0.1420210543346911
 10
12.19760009168749
 20
7.2375217987472
 30
0.0745094679587055
 10
12.20533611242536
 20
7.243977628901358
 30
0.0366600839206512
 10
12.20533953306221
 20
7.243980894289036
 30
0.0000141054442793
1001
ACAD_VIEW_EDGE_ID
1071
       15
1071
       -1
1071
        5
1071
        0
  0
SPLINE
  5
43B
330
70
100
AcDbEntity
  8
Visible
100
AcDbSpline
 70
     0
 71
     3
 72
    22
 73
    18
 74
     0
 42
0.000000001
 43
0.0000000001
 40
0.3437529438379148
 40
0.3437529438379148
 40
0.3437529438379148
 40
0.3437529438379148
 40
0.3513109660372399
 40
0.3513109660372399
 40
0.3588689882365649
 40
0.3588689882365649
 40
0.3739850326352148
 40
0.3739850326352148
 40
0.4042171214325149
 40
0.4042171214325149
 40
0.464681299027115
 40
0.464681299027115
 40
0.5856096542163152
 40
0.5856096542163152
 40
0.6474638112548118
 40
0.6474638112548118
 40
0.6483697357685667
 40
0.6483697357685667
 40
0.6483697357685667
 40
0.6483697357685667
 10
12.42180067105255
 20
7.584620410147056
 30
0.7874670865203371
 10
12.42180057846963
 20
7.584620321765505
 30
0.7884589529421647
 10
12.4217975563788
 20
7.58479561884018
 30
0.7894287857216114
 10
12.42178563254674
 20
7.585058474021132
 30
0.7913920991832129
 10
12.42177670605633
 20
7.585199577222468
 30
0.7923780385863211
 10
12.42174072017951
 20
7.58560671668745
 30
0.7953556335105532
 10
12.42170441243615
 20
7.58589314479208
 30
0.797363217920065
 10
12.42155655796523
 20
7.586740077831989
 30
0.8034413405348459
 10
12.42140555681908
 20
7.587311861347155
 30
0.8075765611301903
 10
12.4207851389383
 20
7.589000772049043
 30
0.8201093024690635
 10
12.42014346431824
 20
7.590101433132519
 30
0.8286761405852303
 10
12.41754015259721
 20
7.592993653985246
 30
0.8542766558020957
 10
12.41485326714246
 20
7.594421003321011
 30
0.8713360511410428
 10
12.41000566213552
 20
7.594269374925429
 30
0.8948278327261505
 10
12.40778653089546
 20
7.593767604927092
 30
0.9042992161721485
 10
12.40574368828857
 20
7.592122009413863
 30
0.9121065405197441
 10
12.40571392790662
 20
7.592097755813512
 30
0.9122201150712498
 10
12.40568391678607
 20
7.592072996525605
 30
0.9123344771178381
1001
ACAD_VIEW_EDGE_ID
1071
       17
1071
       -1
1071
        5
1071
        0
  0
SPLINE
  5
43C
330
70
100
AcDbEntity
  8
Visible
100
AcDbSpline
 70
     0
 71
     3
 72
    16
 73
    12
 74
     0
 42
0.000000001
 43
0.0000000001
 40
0.3166829533326489
 40
0.3166829533326489
 40
0.3166829533326489
 40
0.3166829533326489
 40
0.4922883918078198
 40
0.4922883918078198
 40
0.9845767836156394
 40
0.9845767836156394
 40
1.47181069110683
 40
1.47181069110683
 40
1.715427644852425
 40
1.715427644852425
 40
1.959044598598021
 40
1.959044598598021
 40
1.959044598598021
 40
1.959044598598021
 10
12.40568391678607
 20
7.592072996525605
 30
0.9123344771178381
 10
12.3997339200323
 20
7.587164226601954
 30
0.9350078663137537
 10
12.39216345296154
 20
7.581069951908562
 30
0.9572230447793117
 10
12.35779656301565
 20
7.554872354954817
 30
1.038713648145858
 10
12.32045349953296
 20
7.52942301970012
 30
1.092616298867142
 10
12.23524232764066
 20
7.484638670406815
 30
1.177807568321441
 10
12.18123080380246
 20
7.461854798582068
 30
1.215431410453675
 10
12.09064556417434
 20
7.437901811467323
 30
1.253615723137045
 10
12.05887079836247
 20
7.431564861771362
 30
1.263410148096227
 10
11.99434901206768
 20
7.423127671286884
 30
1.276372270433057
 10
11.96160030091232
 20
7.421032268635273
 30
1.279534700257499
 10
11.92962957221425
 20
7.421032273187561
 30
1.279531716021665
1001
ACAD_VIEW_EDGE_ID
1071
       18
1071
       -1
1071
        5
1071
        0
  0
SPLINE
  5
43D
330
70
100
AcDbEntity
  8
Visible
100
AcDbSpline
 70
     0
 71
     3
 72
    16
 73
    12
 74
     0
 42
0.000000001
 43
0.0000000001
 40
1.959044598598021
 40
1.959044598598021
 40
1.959044598598021
 40
1.959044598598021
 40
2.202661552343616
 40
2.202661552343616
 40
2.446278506089211
 40
2.446278506089211
 40
2.933512413580402
 40
2.933512413580402
 40
3.425800805388221
 40
3.425800805388221
 40
3.601406243863392
 40
3.601406243863392
 40
3.601406243863392
 40
3.601406243863392
 10
11.92962957221425
 20
7.421032273187561
 30
1.279531716021665
 10
11.89765884351436
 20
7.421032277739849
 30
1.279528731785831
 10
11.86491072390527
 20
7.423127689717505
 30
1.276360188308899
 10
11.80039136097912
 20
7.431564898576055
 30
1.263386020918915
 10
11.76861842600192
 20
7.437901857320526
 30
1.253585664242564
 10
11.67804032322965
 20
7.461854870230983
 30
1.21538444127691
 10
11.62403583064588
 20
7.484638757436049
 30
1.17775051663375
 10
11.53884057696632
 20
7.529423130993397
 30
1.092543340977499
 10
11.50150758422205
 20
7.554872476881162
 30
1.038633719788776
 10
11.46715591544853
 20
7.581070083619691
 30
0.957136702043499
 10
11.45958959749623
 20
7.587164360468399
 30
0.9349201106706459
 10
11.45364383503511
 20
7.592073132085878
 30
0.9122456110908387
1001
ACAD_VIEW_EDGE_ID
1071
       19
1071
       -1
1071
        5
1071
        0
  0
SPLINE
  5
43E
330
70
100
AcDbEntity
  8
Visible
100
AcDbSpline
 70
     0
 71
     3
 72
    22
 73
    18
 74
     0
 42
0.000000001
 43
0.0000000001
 40
0.0391361519072631
 40
0.0391361519072631
 40
0.0391361519072631
 40
0.0391361519072631
 40
0.0400420764210185
 40
0.0400420764210185
 40
0.1018962334595151
 40
0.1018962334595151
 40
0.222824588648715
 40
0.222824588648715
 40
0.2832887662433149
 40
0.2832887662433149
 40
0.3135208550406149
 40
0.3135208550406149
 40
0.3286368994392649
 40
0.3286368994392649
 40
0.3361949216385899
 40
0.3361949216385899
 40
0.3436362253255234
 40
0.3436362253255234
 40
0.3436362253255234
 40
0.3436362253255234
 10
11.45364383503511
 20
7.592073132085878
 30
0.9122456110908387
 10
11.45361384527314
 20
7.592097891382328
 30
0.9121312434435822
 10
11.4535841061006
 20
7.592122144991151
 30
0.9120176633368828
 10
11.45154272151376
 20
7.59376774108593
 30
0.9042099577582121
 10
11.44932535862244
 20
7.594269511715976
 30
0.8947381601956294
 10
11.444482139319
 20
7.594421141491427
 30
0.8712454740434623
 10
11.44179843824713
 20
7.592993792920377
 30
0.8541855774001305
 10
11.43919990499125
 20
7.590101572808337
 30
0.8285845766276906
 10
11.43855982937202
 20
7.589000911907368
 30
0.8200176188693149
 10
11.43794175070252
 20
7.587312001381827
 30
0.8074847619263891
 10
11.43779152138086
 20
7.586740217909555
 30
0.8033495132131065
 10
11.43764480136997
 20
7.585893284911589
 30
0.7972713631024817
 10
11.43760886833297
 20
7.585606856817245
 30
0.7952637719499763
 10
11.43757343821198
 20
7.585199717362432
 30
0.792286170359148
 10
11.43756469574327
 20
7.585058614163612
 30
0.7913002293062164
 10
11.43755322759898
 20
7.584797788621834
 30
0.7893520733923652
 10
11.43755038572271
 20
7.58462586567419
 30
0.7883970374114142
 10
11.43755038766539
 20
7.58462067087259
 30
0.787421150434966
1001
ACAD_VIEW_EDGE_ID
1071
       20
1071
       -1
1071
        5
1071
        0
  0
SPLINE
  5
43F
330
70
100
AcDbEntity
  8
Visible
100
AcDbSpline
 70
     0
 71
     3
 72
    24
 73
    20
 74
     0
 42
0.000000001
 43
0.0000000001
 40
6.470686833952103
 40
6.470686833952103
 40
6.470686833952103
 40
6.470686833952103
 40
6.480392878344787
 40
6.480392878344787
 40
6.490215847579046
 40
6.490215847579046
 40
6.509861786047564
 40
6.509861786047564
 40
6.5491536629846
 40
6.5491536629846
 40
6.627737416858674
 40
6.627737416858674
 40
6.78490492460682
 40
6.78490492460682
 40
7.099239940103112
 40
7.099239940103112
 40
7.413574955599404
 40
7.413574955599404
 40
7.552066411691979
 40
7.552066411691979
 40
7.552066411691979
 40
7.552066411691979
 10
11.43755038682684
 20
7.57947227943251
 30
0.7874206915494142
 10
11.43755037618575
 20
7.579463793123042
 30
0.7886890889658389
 10
11.43755484468238
 20
7.579109617529076
 30
0.7897359186354152
 10
11.43756816217137
 20
7.57831216594029
 30
0.7917208680155455
 10
11.43757730758807
 20
7.577844137280562
 30
0.7926479087054759
 10
11.43761153266314
 20
7.576397565664109
 30
0.7953916728038167
 10
11.43764314216605
 20
7.575368461139298
 30
0.7971344398811198
 10
11.43776579050063
 20
7.572231590165255
 30
0.8023959438614838
 10
11.43788433358349
 20
7.570066681676333
 30
0.8058866374158242
 10
11.43835728927115
 20
7.563497753426828
 30
0.8164594983772985
 10
11.43883816890775
 20
7.558917871831912
 30
0.8237499338574707
 10
11.4407958828433
 20
7.545137124385778
 30
0.8457298475532297
 10
11.44287348025318
 20
7.535383116330121
 30
0.8613028741638117
 10
11.4514584765111
 20
7.506578147652092
 30
0.9077833730825659
 10
11.46084003302894
 20
7.486471592765742
 30
0.9408598685549804
 10
11.48652137987119
 20
7.450167172987491
 30
1.004128646756726
 10
11.50322214223524
 20
7.433044169010294
 30
1.035798578621324
 10
11.53348028712207
 20
7.412613428534705
 30
1.07978075018218
 10
11.54356650526824
 20
7.40694286411343
 30
1.093010812470311
 10
11.5545456572363
 20
7.402071777979699
 30
1.105940209334221
1001
ACAD_VIEW_EDGE_ID
1071
       22
1071
       -1
1071
        5
1071
        0
  0
SPLINE
  5
440
330
70
100
AcDbEntity
  8
Visible
100
AcDbSpline
 70
     0
 71
     3
 72
    14
 73
    10
 74
     0
 42
0.000000001
 43
0.0000000001
 40
4.717275504021567
 40
4.717275504021567
 40
4.717275504021567
 40
4.717275504021567
 40
4.821576014752759
 40
4.821576014752759
 40
5.302682727539751
 40
5.302682727539751
 40
5.543236083933246
 40
5.543236083933246
 40
5.783789440326742
 40
5.783789440326742
 40
5.783789440326742
 40
5.783789440326742
 10
11.5545456572363
 20
7.402071777979699
 30
1.105940209334221
 10
11.56328749259592
 20
7.398193315132827
 30
1.116234871342385
 10
11.5723558265854
 20
7.394333463735746
 30
1.126052828898536
 10
11.62456610404297
 20
7.373133273273196
 30
1.178270968144715
 10
11.67906337759268
 20
7.355049957904054
 30
1.21597717415716
 10
11.76975508211217
 20
7.336004246109954
 30
1.253968276698287
 10
11.80145989943776
 20
7.330962129431652
 30
1.26365228245595
 10
11.86561213538516
 20
7.324261531817221
 30
1.27643040883413
 10
11.89806087721445
 20
7.322607081222955
 30
1.279519999008698
 10
11.92962955901748
 20
7.322607076727913
 30
1.279522945715143
1001
ACAD_VIEW_EDGE_ID
1071
       23
1071
       -1
1071
        5
1071
        0
  0
SPLINE
  5
441
330
70
100
AcDbEntity
  8
Visible
100
AcDbSpline
 70
     0
 71
     3
 72
    14
 73
    10
 74
     0
 42
0.000000001
 43
0.0000000001
 40
5.783789440326742
 40
5.783789440326742
 40
5.783789440326742
 40
5.783789440326742
 40
6.024342796720238
 40
6.024342796720238
 40
6.264896153113734
 40
6.264896153113734
 40
6.746002865900726
 40
6.746002865900726
 40
6.850303376631917
 40
6.850303376631917
 40
6.850303376631917
 40
6.850303376631917
 10
11.92962955901748
 20
7.322607076727913
 30
1.279522945715143
 10
11.96119824082234
 20
7.322607072232872
 30
1.279525892423407
 10
11.99364755933675
 20
7.324261513586353
 30
1.27644236001106
 10
12.05780218156542
 20
7.330962092931267
 30
1.263676210146513
 10
12.08950880763768
 20
7.336004200580461
 30
1.253998123385827
 10
12.18020760838772
 20
7.355049886546503
 30
1.216023952330942
 10
12.23471192533907
 20
7.37313318639499
 30
1.178327920826632
 10
12.28693195629057
 20
7.394333361987787
 30
1.126119529390052
 10
12.29600212409241
 20
7.398193210802141
 30
1.116303264932867
 10
12.30474588226752
 20
7.402071671159252
 30
1.10601023507661
1001
ACAD_VIEW_EDGE_ID
1071
       24
1071
       -1
1071
        5
1071
        0
  0
SPLINE
  5
442
330
70
100
AcDbEntity
  8
Visible
100
AcDbSpline
 70
     0
 71
     3
 72
    24
 73
    20
 74
     0
 42
0.000000001
 43
0.0000000001
 40
5.389073406529078
 40
5.389073406529078
 40
5.389073406529078
 40
5.389073406529078
 40
5.527564862621652
 40
5.527564862621652
 40
5.841899878117944
 40
5.841899878117944
 40
6.156234893614236
 40
6.156234893614236
 40
6.313402401362382
 40
6.313402401362382
 40
6.391986155236455
 40
6.391986155236455
 40
6.431278032173492
 40
6.431278032173492
 40
6.45092397064201
 40
6.45092397064201
 40
6.460746939876269
 40
6.460746939876269
 40
6.470569909110528
 40
6.470569909110528
 40
6.470569909110528
 40
6.470569909110528
 10
12.30474588226752
 20
7.402071671159252
 30
1.10601023507661
 10
12.31572744916229
 20
7.406942754166013
 30
1.093082888086428
 10
12.3258161386093
 20
7.412613315714598
 30
1.079854708979837
 10
12.35608249961842
 20
7.433044047572147
 30
1.035878186941772
 10
12.37278917888398
 20
7.450167046792484
 30
1.004211373418002
 10
12.3984823469782
 20
7.486471459255556
 30
0.9409473906544008
 10
12.40787008396
 20
7.506578011469361
 30
0.9078726471598201
 10
12.4164637655067
 20
7.535382977701331
 30
0.8613937517457088
 10
12.418544272914
 20
7.545136985164917
 30
0.8458211132638098
 10
12.42050609407124
 20
7.558917732052952
 30
0.8238415654286654
 10
12.42098833602358
 20
7.56349761351073
 30
0.8165512198502256
 10
12.42146326737202
 20
7.570066541625267
 30
0.8059784473662148
 10
12.42158246272993
 20
7.572231450080336
 30
0.8024877760035451
 10
12.42170609420282
 20
7.575368321019311
 30
0.7972262950115692
 10
12.42173802934849
 20
7.576397425535073
 30
0.7954835338641715
 10
12.42177276705661
 20
7.577843997141708
 30
0.7927397762032343
 10
12.4217820856702
 20
7.578312025798803
 30
0.7918127372377058
 10
12.42179585590202
 20
7.579114251915731
 30
0.7898159060296166
 10
12.42180055003518
 20
7.579472180081619
 30
0.7887557313533762
 10
12.42180067036315
 20
7.579472294948873
 30
0.7874666277893994
1001
ACAD_VIEW_EDGE_ID
1071
       25
1071
       -1
1071
        5
1071
        0
  0
SPLINE
  5
443
330
70
100
AcDbEntity
  8
Visible
100
AcDbSpline
 70
     0
 71
     3
 72
    12
 73
     8
 74
     0
 42
0.000000001
 43
0.0000000001
 40
0.4763091201047027
 40
0.4763091201047027
 40
0.4763091201047027
 40
0.4763091201047027
 40
0.5856096542163152
 40
0.5856096542163152
 40
0.6474638112548118
 40
0.6474638112548118
 40
0.6483697357685667
 40
0.6483697357685667
 40
0.6483697357685667
 40
0.6483697357685667
 10
11.44074901093518
 20
7.591757110097278
 30
-0.8420925815080408
 10
11.44247943050322
 20
7.59340697434381
 30
-0.8575042862485133
 10
11.44495317635846
 20
7.594567033307354
 30
-0.8727912680278677
 10
11.44949239797461
 20
7.594428969833185
 30
-0.8947886305413703
 10
11.45171152908187
 20
7.593928887167928
 30
-0.9042601032597303
 10
11.45375437124676
 20
7.592284682496864
 30
-0.9120677207483822
 10
11.45378413162325
 20
7.592260449129339
 30
-0.9121812996218068
 10
11.45381414273652
 20
7.592235710214539
 30
-0.9122956660776253
1001
ACAD_VIEW_EDGE_ID
1071
       29
1071
       -1
1071
        5
1071
        0
  0
SPLINE
  5
444
330
70
100
AcDbEntity
  8
Visible
100
AcDbSpline
 70
     0
 71
     3
 72
    16
 73
    12
 74
     0
 42
0.000000001
 43
0.0000000001
 40
4.234772150528689
 40
4.234772150528689
 40
4.234772150528689
 40
4.234772150528689
 40
4.41037758900386
 40
4.41037758900386
 40
4.902665980811679
 40
4.902665980811679
 40
5.38989988830287
 40
5.38989988830287
 40
5.633516842048464
 40
5.633516842048464
 40
5.87713379579406
 40
5.87713379579406
 40
5.87713379579406
 40
5.87713379579406
 10
11.45381414273652
 20
7.592235710214539
 30
-0.9122956660776253
 10
11.45976413817516
 20
7.587330979457716
 30
-0.9349699297199549
 10
11.46733460361065
 20
7.581240661856518
 30
-0.9571861939093651
 10
11.50170148653342
 20
7.55505757875831
 30
-1.038681464724504
 10
11.5390445431949
 20
7.529617840027615
 30
-1.092588649984463
 10
11.62425570308005
 20
7.48484865075687
 30
-1.177787899225222
 10
11.67826722080826
 20
7.462071469854958
 30
-1.21541580113444
 10
11.76885245401536
 20
7.438125263757534
 30
-1.253604381938203
 10
11.8006272181301
 20
7.431790051132237
 30
-1.263399936067798
 10
11.86514900216025
 20
7.423355153494553
 30
-1.276363561813923
 10
11.89789771275536
 20
7.421260305679795
 30
-1.279526365015044
 10
11.92986844145343
 20
7.421260301127507
 30
-1.279523380781029
1001
ACAD_VIEW_EDGE_ID
1071
       30
1071
       -1
1071
        5
1071
        0
  0
SPLINE
  5
445
330
70
100
AcDbEntity
  8
Visible
100
AcDbSpline
 70
     0
 71
     3
 72
    16
 73
    12
 74
     0
 42
0.000000001
 43
0.0000000001
 40
5.87713379579406
 40
5.87713379579406
 40
5.87713379579406
 40
5.87713379579406
 40
6.120750749539656
 40
6.120750749539656
 40
6.364367703285251
 40
6.364367703285251
 40
6.851601610776441
 40
6.851601610776441
 40
7.343890002584261
 40
7.343890002584261
 40
7.519495441059433
 40
7.519495441059433
 40
7.519495441059433
 40
7.519495441059433
 10
11.92986844145343
 20
7.421260301127507
 30
-1.279523380781029
 10
11.96183917015332
 20
7.421260296575219
 30
-1.279520396545194
 10
11.99458729032267
 20
7.423355135063932
 30
-1.276351479689765
 10
12.05910665551164
 20
7.431790014327544
 30
-1.263375808888667
 10
12.09087959218777
 20
7.438125217904332
 30
-1.253574323043721
 10
12.1814577013829
 20
7.462071398206042
 30
-1.215368831957675
 10
12.23546220007483
 20
7.484848563727636
 30
-1.177730847537532
 10
12.32065746576154
 20
7.529617728734338
 30
-1.092515692094821
 10
12.35799046532702
 20
7.555057456831965
 30
-1.038601536367423
 10
12.39234214112548
 20
7.581240530145389
 30
-0.9570998511735524
 10
12.39990846070941
 20
7.587330845591271
 30
-0.9348821740750281
 10
12.40585422448748
 20
7.592235574654266
 30
-0.912206800050626
1001
ACAD_VIEW_EDGE_ID
1071
       31
1071
       -1
1071
        5
1071
        0
  0
SPLINE
  5
446
330
70
100
AcDbEntity
  8
Visible
100
AcDbSpline
 70
     0
 71
     3
 72
    22
 73
    18
 74
     0
 42
0.000000001
 43
0.0000000001
 40
0.0391361519072636
 40
0.0391361519072636
 40
0.0391361519072636
 40
0.0391361519072636
 40
0.0400420764210185
 40
0.0400420764210185
 40
0.1018962334595151
 40
0.1018962334595151
 40
0.222824588648715
 40
0.222824588648715
 40
0.2832887662433149
 40
0.2832887662433149
 40
0.3135208550406149
 40
0.3135208550406149
 40
0.3286368994392649
 40
0.3286368994392649
 40
0.3361949216385899
 40
0.3361949216385899
 40
0.3437529438379149
 40
0.3437529438379149
 40
0.3437529438379149
 40
0.3437529438379149
 10
12.40585422448748
 20
7.592235574654266
 30
-0.912206800050626
 10
12.40588421425673
 20
7.592260313560523
 30
-0.9120924279941391
 10
12.40591395343472
 20
7.592284546919576
 30
-0.9119788435673399
 10
12.40795533846358
 20
7.593928751009091
 30
-0.9041708448457939
 10
12.41017270148768
 20
7.594428833042638
 30
-0.8946989580126682
 10
12.41501592083114
 20
7.594576274823607
 30
-0.8712062452104873
 10
12.41769962152102
 20
7.593145885266548
 30
-0.8541466032093012
 10
12.42029815400019
 20
7.590249102081966
 30
-0.8285461182749713
 10
12.42093822932474
 20
7.589146914286766
 30
-0.8199793568037421
 10
12.42155630754132
 20
7.587455770108908
 30
-0.8074468010454438
 10
12.42170653670837
 20
7.586883249651881
 30
-0.8033116542974312
 10
12.4218532564937
 20
7.586035233424905
 30
-0.7972336552156776
 10
12.42188918945248
 20
7.585748447547373
 30
-0.7952261151403946
 10
12.42192461946433
 20
7.585340777443312
 30
-0.7922485861545284
 10
12.42193336189666
 20
7.585199498537241
 30
-0.7912626702636772
 10
12.42194491920963
 20
7.58493629347306
 30
-0.7892994014873694
 10
12.42194776024917
 20
7.584760823564694
 30
-0.7883295994142828
 10
12.42194766766624
 20
7.584760735183144
 30
-0.7873377329924552
1001
ACAD_VIEW_EDGE_ID
1071
       32
1071
       -1
1071
        5
1071
        0
  0
SPLINE
  5
447
330
70
100
AcDbEntity
  8
Visible
100
AcDbSpline
 70
     0
 71
     3
 72
    22
 73
    18
 74
     0
 42
0.000000001
 43
0.0000000001
 40
6.470569909110528
 40
6.470569909110528
 40
6.470569909110528
 40
6.470569909110528
 40
6.480392878344787
 40
6.480392878344787
 40
6.490215847579046
 40
6.490215847579046
 40
6.509861786047564
 40
6.509861786047564
 40
6.5491536629846
 40
6.5491536629846
 40
6.627737416858674
 40
6.627737416858674
 40
6.78490492460682
 40
6.78490492460682
 40
7.099239940103112
 40
7.099239940103112
 40
7.272069242015261
 40
7.272069242015261
 40
7.272069242015261
 40
7.272069242015261
 10
12.42194766697503
 20
7.57961261998496
 30
-0.7873381917215739
 10
12.42194778730481
 20
7.579612734852213
 30
-0.7886272952855507
 10
12.4219432910977
 20
7.579254995628577
 30
-0.7896875345886656
 10
12.42192989365685
 20
7.578453125385108
 30
-0.7916845112686133
 10
12.42192074811646
 20
7.577985261945627
 30
-0.7926116353537509
 10
12.42188652265213
 20
7.57653917933474
 30
-0.7953556572047092
 10
12.42185491287455
 20
7.575510385417852
 30
-0.7970986076543341
 10
12.42173226369778
 20
7.572374452192974
 30
-0.8023606705810379
 10
12.42161372003465
 20
7.5702101658559
 30
-0.8058517498939181
 10
12.42114076258622
 20
7.563643122054891
 30
-0.8164257813532458
 10
12.4206598817218
 20
7.559064539909332
 30
-0.8237170329102809
 10
12.41870216409006
 20
7.54528771030522
 30
-0.8456994021598802
 10
12.41662456406811
 20
7.535536478271589
 30
-0.8612741668111993
 10
12.40803956008676
 20
7.506739795764969
 30
-0.9077597983996383
 10
12.39865799817744
 20
7.486639138362779
 30
-0.9408398765899619
 10
12.37875719182557
 20
7.458515129818785
 30
-0.9898726617448119
 10
12.37053012918659
 20
7.448848828892682
 30
-1.007278512752236
 10
12.3610624634839
 20
7.439811363311791
 30
-1.024499739813109
1001
ACAD_VIEW_EDGE_ID
1071
       34
1071
       -1
1071
        5
1071
        0
  0
LINE
  5
448
330
70
100
AcDbEntity
  8
Visible
100
AcDbLine
 10
12.421948
 20
7.584761
 30
-0.787338
 11
12.421801
 21
7.58462
 31
0.787467
210
0.0
220
1.0
230
0.0
  0
LINE
  5
449
330
70
100
AcDbEntity
  8
Visible
100
AcDbLine
 10
12.421801
 20
7.579472
 30
0.787467
 11
12.421948
 21
7.579613
 31
-0.787338
210
0.0
220
1.0
230
0.0
  0
LINE
  5
44A
330
70
100
AcDbEntity
  8
Visible
100
AcDbLine
 10
12.20534
 20
7.364648
 30
-0.000001
 11
12.20534
 21
7.243981
 31
-0.000012
210
0.0
220
1.0
230
0.0
  0
LINE
  5
44B
330
70
100
AcDbEntity
  8
Visible
100
AcDbLine
 10
11.654158
 20
7.364578
 30
-0.000001
 11
11.654158
 21
7.243981
 31
-0.000012
210
0.0
220
1.0
230
0.0
  0
LINE
  5
44C
330
70
100
AcDbEntity
  8
Visible
100
AcDbLine
 10
11.43755
 20
7.584621
 30
0.787421
 11
11.43755
 21
7.579472
 31
0.787421
210
0.0
220
1.0
230
0.0
  0
LINE
  5
44D
330
70
100
AcDbEntity
  8
Visible
100
AcDbLine
 10
12.421948
 20
7.584761
 30
-0.787384
 11
12.421948
 21
7.579612
 31
-0.787384
210
0.0
220
1.0
230
0.0
  0
LINE
  5
44E
330
70
100
AcDbEntity
  8
Visible
100
AcDbLine
 10
11.440748
 20
7.591756
 30
-0.842093
 11
11.440591
 21
7.591606
 31
0.84204
210
0.0
220
1.0
230
0.0
  0
LINE
  5
44F
330
70
100
AcDbEntity
  8
Visible
100
AcDbLine
 10
12.361062
 20
7.43982
 30
-1.024504
 11
12.360871
 21
7.439637
 31
1.024596
210
0.0
220
1.0
230
0.0
  0
LINE
  5
450
330
70
100
AcDbEntity
  8
Visible
100
AcDbLine
 10
3.607822
 20
7.085512
 30
-1.825158
 11
3.607748
 21
6.122402
 31
-2.50346
210
-0.0000000000000001
220
0.8175471248425399
230
0.5758617009853117
  0
LINE
  5
451
330
70
100
AcDbEntity
  8
Visible
100
AcDbLine
 10
1.937335
 20
6.123895
 30
-0.45959
 11
3.607822
 21
7.085512
 31
-1.825158
210
-0.0000000000000001
220
0.8175471248425399
230
0.5758617009853117
  0
LINE
  5
452
330
70
100
AcDbEntity
  8
Visible
100
AcDbLine
 10
1.937236
 20
4.836362
 30
-1.366377
 11
1.937335
 21
6.123895
 31
-0.45959
210
-0.0000000000000001
220
0.8175471248425399
230
0.5758617009853117
  0
LINE
  5
453
330
70
100
AcDbEntity
  8
Visible
100
AcDbLine
 10
2.773582
 20
5.317805
 30
-2.050062
 11
1.937236
 21
4.836362
 31
-1.366377
210
-0.0000000000000001
220
0.8175471248425399
230
0.5758617009853117
  0
LINE
  5
454
330
70
100
AcDbEntity
  8
Visible
100
AcDbLine
 10
1.798154
 20
6.204059
 30
-0.573398
 11
1.798055
 21
4.916526
 31
-1.480186
210
-0.0000000000000001
220
0.8175471248425399
230
0.5758617009853117
  0
LINE
  5
455
330
70
100
AcDbEntity
  8
Visible
100
AcDbLine
 10
1.937236
 20
4.836362
 30
-1.366377
 11
1.798055
 21
4.916526
 31
-1.480186
210
-0.0000000000000001
220
0.8175471248425399
230
0.5758617009853117
  0
LINE
  5
456
330
70
100
AcDbEntity
  8
Visible
100
AcDbLine
 10
1.798154
 20
6.204059
 30
-0.573398
 11
1.937335
 21
6.123895
 31
-0.45959
210
-0.0000000000000001
220
0.8175471248425399
230
0.5758617009853117
  0
LINE
  5
457
330
70
100
AcDbEntity
  8
Visible
100
AcDbLine
 10
3.607822
 20
7.085512
 30
-1.825158
 11
3.468641
 21
7.165676
 31
-1.938966
210
-0.0000000000000001
220
0.8175471248425399
230
0.5758617009853117
  0
LINE
  5
458
330
70
100
AcDbEntity
  8
Visible
100
AcDbLine
 10
3.468641
 20
7.165676
 30
-1.938966
 11
1.798154
 21
6.204059
 31
-0.573398
210
-0.0000000000000001
220
0.8175471248425399
230
0.5758617009853117
  0
LINE
  5
459
330
70
100
AcDbEntity
  8
Visible
100
AcDbLine
 10
5.806708
 20
4.212074
 30
0.203349
 11
5.249879
 21
3.891535
 31
0.658539
210
-0.0000000000000001
220
0.8175471248425399
230
0.5758617009853117
  0
LINE
  5
45A
330
70
100
AcDbEntity
  8
Visible
100
AcDbLine
 10
2.49409
 20
5.478784
 30
-1.59487
 11
5.249879
 21
3.891535
 31
0.658539
210
-0.0000000000000001
220
0.8175471248425399
230
0.5758617009853117
  0
LINE
  5
45B
330
70
100
AcDbEntity
  8
Visible
100
AcDbLine
 10
5.249879
 20
3.891535
 30
0.658539
 11
5.249928
 21
4.535301
 31
1.111932
210
-0.0000000000000001
220
0.8175471248425399
230
0.5758617009853117
  0
LINE
  5
45C
330
70
100
AcDbEntity
  8
Visible
100
AcDbLine
 10
2.494139
 20
6.122551
 30
-1.141476
 11
5.249928
 21
4.535301
 31
1.111932
210
-0.0000000000000001
220
0.8175471248425399
230
0.5758617009853117
  0
LINE
  5
45D
330
70
100
AcDbEntity
  8
Visible
100
AcDbLine
 10
5.249928
 20
4.535301
 30
1.111932
 11
5.806757
 21
4.855841
 31
0.656743
210
-0.0000000000000001
220
0.8175471248425399
230
0.5758617009853117
  0
LINE
  5
45E
330
70
100
AcDbEntity
  8
Visible
100
AcDbLine
 10
3.050968
 20
6.44309
 30
-1.596665
 11
4.77677
 21
5.449082
 31
-0.185478
210
-0.0000000000000001
220
0.8175471248425399
230
0.5758617009853117
  0
LINE
  5
45F
330
70
100
AcDbEntity
  8
Visible
100
AcDbLine
 10
5.556223
 20
5.000141
 30
0.451881
 11
5.806757
 21
4.855841
 31
0.656743
210
-0.0000000000000001
220
0.8175471248425399
230
0.5758617009853117
  0
LINE
  5
460
330
70
100
AcDbEntity
  8
Visible
100
AcDbLine
 10
5.806757
 20
4.855841
 30
0.656743
 11
5.806708
 21
4.212074
 31
0.203349
210
-0.0000000000000001
220
0.8175471248425399
230
0.5758617009853117
  0
ARC
  5
461
330
70
100
AcDbEntity
  8
Visible
100
AcDbCircle
 10
8.167025
 20
0.640468
 30
2.271626
 40
0.3149606299212597
210
0.707040774823758
220
-0.4072336043709136
230
0.5781471561875008
100
AcDbArc
 50
343.841796
 51
105.931747
  0
ARC
  5
462
330
70
100
AcDbEntity
  8
Visible
100
AcDbCircle
 10
-8.167025
 20
0.640468
 30
-2.074776
 40
0.3149606299212553
210
-0.7070407748237228
220
0.4072336043709027
230
-0.5781471561875513
100
AcDbArc
 50
74.068253
 51
89.077558
  0
LINE
  5
463
330
70
100
AcDbEntity
  8
Visible
100
AcDbLine
 10
5.166564
 20
6.349284
 30
2.083028
 11
5.027382
 21
6.429448
 31
1.96922
210
-0.0000000000000001
220
0.8175471248425399
230
0.5758617009853117
  0
LINE
  5
464
330
70
100
AcDbEntity
  8
Visible
100
AcDbLine
 10
4.776629
 20
3.616506
 30
-0.318368
 11
4.776671
 21
4.164088
 31
0.067285
210
-0.0000000000000001
220
0.8175471248425399
230
0.5758617009853117
  0
LINE
  5
465
330
70
100
AcDbEntity
  8
Visible
100
AcDbLine
 10
4.776728
 20
4.904039
 30
0.58842
 11
4.776838
 21
6.339318
 31
1.599263
210
-0.0000000000000001
220
0.8175471248425399
230
0.5758617009853117
  0
LINE
  5
466
330
70
100
AcDbEntity
  8
Visible
100
AcDbLine
 10
5.556116
 20
3.616424
 30
-0.318336
 11
5.556151
 21
4.067841
 31
-0.000411
210
-0.0000000000000001
220
0.8175471248425399
230
0.5758617009853117
  0
LINE
  5
467
330
70
100
AcDbEntity
  8
Visible
100
AcDbLine
 10
5.556215
 20
4.903957
 30
0.588451
 11
5.556344
 21
6.573661
 31
1.764396
210
-0.0000000000000001
220
0.8175471248425399
230
0.5758617009853117
  0
LINE
  5
468
330
70
100
AcDbEntity
  8
Visible
100
AcDbLine
 10
5.027382
 20
6.429448
 30
1.96922
 11
5.027364
 21
6.187572
 31
1.79887
210
-0.0000000000000001
220
0.8175471248425399
230
0.5758617009853117
  0
LINE
  5
469
330
70
100
AcDbEntity
  8
Visible
100
AcDbLine
 10
4.916019
 20
6.251703
 30
1.707824
 11
4.916032
 21
6.419445
 31
1.825962
210
-0.0000000000000001
220
0.8175471248425399
230
0.5758617009853117
  0
ARC
  5
46A
330
70
100
AcDbEntity
  8
Visible
100
AcDbCircle
 10
8.264654
 20
0.737711
 30
1.917296
 40
0.3937007874015715
210
0.7070407748237546
220
-0.4072336043709231
230
0.5781471561874981
100
AcDbArc
 50
180.459767
 51
207.426812
  0
LINE
  5
46B
330
70
100
AcDbEntity
  8
Visible
100
AcDbLine
 10
5.027364
 20
6.187572
 30
1.79887
 11
4.916019
 21
6.251703
 31
1.707824
210
-0.0000000000000001
220
0.8175471248425399
230
0.5758617009853117
  0
LINE
  5
46C
330
70
100
AcDbEntity
  8
Visible
100
AcDbLine
 10
5.166336
 20
3.392046
 30
0.000296
 11
4.776629
 21
3.616506
 31
-0.318368
210
-0.0000000000000001
220
0.8175471248425399
230
0.5758617009853117
  0
LINE
  5
46D
330
70
100
AcDbEntity
  8
Visible
100
AcDbLine
 10
5.166336
 20
3.392046
 30
0.000296
 11
5.166378
 21
3.939629
 31
0.385949
210
-0.0000000000000001
220
0.8175471248425399
230
0.5758617009853117
  0
LINE
  5
46E
330
70
100
AcDbEntity
  8
Visible
100
AcDbLine
 10
5.166435
 20
4.679579
 30
0.907084
 11
5.166564
 21
6.349284
 31
2.083028
210
-0.0000000000000001
220
0.8175471248425399
230
0.5758617009853117
  0
LINE
  5
46F
330
70
100
AcDbEntity
  8
Visible
100
AcDbLine
 10
5.556116
 20
3.616424
 30
-0.318336
 11
5.166336
 21
3.392046
 31
0.000296
210
-0.0000000000000001
220
0.8175471248425399
230
0.5758617009853117
  0
LINE
  5
470
330
70
100
AcDbEntity
  8
Visible
100
AcDbLine
 10
5.41001
 20
6.672303
 30
1.747084
 11
5.518642
 21
6.609735
 31
1.835913
210
-0.0000000000000001
220
0.8175471248425399
230
0.5758617009853117
  0
ARC
  5
471
330
70
100
AcDbEntity
  8
Visible
100
AcDbCircle
 10
-8.194919
 20
0.668251
 30
-1.917296
 40
0.2755905511811039
210
-0.7070407748237489
220
0.4072336043709245
230
-0.5781471561875044
100
AcDbArc
 50
0.0
 51
28.511679
  0
ELLIPSE
  5
472
330
70
100
AcDbEntity
  8
Visible
100
AcDbEllipse
 10
5.166593
 20
6.481226
 30
1.69925
 11
0.194836418630854
 21
-0.337548009830418
 31
0.0006440680066409
210
0.4999978125751533
220
0.2901611655036404
230
0.8159710077286021
 40
0.7071067812121744
 41
-1.570796326775849
 42
-1.314871116088184
1001
ACAD_VIEW_EDGE_ID
1071
        4
1071
       -1
1071
        5
1071
        0
  0
ELLIPSE
  5
473
330
70
100
AcDbEntity
  8
Visible
100
AcDbEllipse
 10
5.166593
 20
6.481226
 30
1.69925
 11
0.1948710950220991
 21
0.1130885428544852
 31
0.3180197188229552
210
-0.4999088403313854
220
0.8660764518590681
230
-0.0016525415991972
 40
0.7071067812789199
 41
4.422637278876159
 42
4.712388980353522
1001
ACAD_VIEW_EDGE_ID
1071
        5
1071
       -1
1071
        5
1071
        0
  0
LINE
  5
474
330
70
100
AcDbEntity
  8
Visible
100
AcDbLine
 10
4.924156
 20
6.424122
 30
1.819321
 11
4.924149
 21
6.341403
 31
1.761063
210
-0.0000000000000001
220
0.8175471248425399
230
0.5758617009853117
  0
SPLINE
  5
475
330
70
100
AcDbEntity
  8
Visible
100
AcDbSpline
 70
     0
 71
     3
 72
    12
 73
     8
 74
     0
 42
0.000000001
 43
0.0000000001
 40
3.4162453220997
 40
3.4162453220997
 40
3.4162453220997
 40
3.4162453220997
 40
3.695487680410473
 40
3.695487680410473
 40
3.974730038721246
 40
3.974730038721246
 40
3.974768512614414
 40
3.974768512614414
 40
3.974768512614414
 40
3.974768512614414
 10
5.361467708423178
 20
6.642596734852304
 30
2.051274724490212
 10
5.387382747061409
 20
6.657514757738681
 30
2.030090033642409
 10
5.408682128957324
 20
6.670796701778272
 30
2.000023009759388
 10
5.436035870376898
 20
6.691154410723356
 30
1.93102827297298
 10
5.44219855338163
 20
6.698336148641828
 30
1.892174877941215
 10
5.442200563387658
 20
6.703623197436172
 30
1.855907193245002
 10
5.442200563551367
 20
6.70362392575771
 30
1.855902196935858
 10
5.442200563598661
 20
6.703624654054692
 30
1.855897200572144
1001
ACAD_VIEW_EDGE_ID
1071
        9
1071
       -1
1071
        5
1071
        0
  0
SPLINE
  5
476
330
70
100
AcDbEntity
  8
Visible
100
AcDbSpline
 70
     0
 71
     3
 72
    12
 73
     8
 74
     0
 42
0.000000001
 43
0.0000000001
 40
2.63180605488978
 40
2.63180605488978
 40
2.63180605488978
 40
2.63180605488978
 40
2.857760605478155
 40
2.857760605478155
 40
3.137002963788927
 40
3.137002963788927
 40
3.4162453220997
 40
3.4162453220997
 40
3.4162453220997
 40
3.4162453220997
 10
5.086069117893047
 20
6.51730189535101
 30
2.046999218988275
 10
5.112698638287683
 20
6.523903613618131
 30
2.061562110968225
 10
5.14013030991903
 20
6.534011963736702
 30
2.073503324258126
 10
5.199277022616869
 20
6.558498079864875
 30
2.090755231278308
 10
5.235180421149224
 20
6.575531731930823
 30
2.095220989656809
 10
5.30331810905939
 20
6.610143778118072
 30
2.086154626969801
 10
5.335552669784946
 20
6.627678711965927
 30
2.072459415339835
 10
5.361467708423178
 20
6.642596734852304
 30
2.051274724490212
1001
ACAD_VIEW_EDGE_ID
1071
       10
1071
       -1
1071
        5
1071
        0
  0
LINE
  5
477
330
70
100
AcDbEntity
  8
Visible
100
AcDbLine
 10
5.035508
 20
6.449765
 30
1.973594
 11
5.035511
 21
6.488223
 31
2.00068
210
-0.0000000000000001
220
0.8175471248425399
230
0.5758617009853117
  0
SPLINE
  5
478
330
70
100
AcDbEntity
  8
Visible
100
AcDbSpline
 70
     0
 71
     3
 72
    12
 73
     8
 74
     0
 42
0.000000001
 43
0.0000000001
 40
0.473111666210914
 40
0.473111666210914
 40
0.473111666210914
 40
0.473111666210914
 40
0.5856096542163152
 40
0.5856096542163152
 40
0.6474638112548118
 40
0.6474638112548118
 40
0.6483697357685667
 40
0.6483697357685667
 40
0.6483697357685667
 40
0.6483697357685667
 10
5.415261011334977
 20
7.580453785487407
 30
1.323214158757764
 10
5.42770990159336
 20
7.587618399748862
 30
1.316036600695952
 10
5.44065351441698
 20
7.594013597352386
 30
1.309091171307954
 10
5.45976824145312
 20
7.601137026947071
 30
1.298726921864727
 10
5.468034683662907
 20
7.60367989234146
 30
1.29424549466421
 10
5.474999803512972
 20
7.604681812717899
 30
1.289965452022443
 10
5.475101156615736
 20
7.604696113026875
 30
1.289903032906295
 10
5.475203243861714
 20
7.604710218477521
 30
1.289840012292188
1001
ACAD_VIEW_EDGE_ID
1071
       17
1071
       -1
1071
        5
1071
        0
  0
SPLINE
  5
479
330
70
100
AcDbEntity
  8
Visible
100
AcDbSpline
 70
     0
 71
     3
 72
    16
 73
    12
 74
     0
 42
0.000000001
 43
0.0000000001
 40
0.3166829533326489
 40
0.3166829533326489
 40
0.3166829533326489
 40
0.3166829533326489
 40
0.4922883918078198
 40
0.4922883918078198
 40
0.9845767836156394
 40
0.9845767836156394
 40
1.47181069110683
 40
1.47181069110683
 40
1.715427644852425
 40
1.715427644852425
 40
1.959044598598021
 40
1.959044598598021
 40
1.959044598598021
 40
1.959044598598021
 10
5.475203243861714
 20
7.604710218477521
 30
1.289840012292188
 10
5.495443034167537
 20
7.6075067614629
 30
1.277345561649781
 10
5.516504666107565
 20
7.608487668419002
 30
1.265370095416074
 10
5.598428285280378
 20
7.606258472475019
 30
1.223042008348784
 10
5.662948748548687
 20
7.592195434554014
 30
1.198813727474771
 10
5.783441470355527
 20
7.555574014362719
 30
1.173035641373644
 10
5.84823745902925
 20
7.530274131710939
 30
1.169388888169123
 10
5.939291282679577
 20
7.489354003112566
 30
1.18588789540081
 10
5.96868513936154
 20
7.475222947526162
 30
1.194945372502843
 10
6.023474536588609
 20
7.447330272535509
 30
1.219893004430559
 10
6.048867547895341
 20
7.433569775176692
 30
1.235789967859091
 10
6.071472156783628
 20
7.420550220038421
 30
1.25427375381696
1001
ACAD_VIEW_EDGE_ID
1071
       18
1071
       -1
1071
        5
1071
        0
  0
SPLINE
  5
47A
330
70
100
AcDbEntity
  8
Visible
100
AcDbSpline
 70
     0
 71
     3
 72
    16
 73
    12
 74
     0
 42
0.000000001
 43
0.0000000001
 40
1.959044598598021
 40
1.959044598598021
 40
1.959044598598021
 40
1.959044598598021
 40
2.202661552343616
 40
2.202661552343616
 40
2.446278506089211
 40
2.446278506089211
 40
2.933512413580402
 40
2.933512413580402
 40
3.425800805388221
 40
3.425800805388221
 40
3.601406243863392
 40
3.601406243863392
 40
3.601406243863392
 40
3.601406243863392
 10
6.071472156783628
 20
7.420550220038421
 30
1.25427375381696
 10
6.094076765672824
 20
7.407530664897421
 30
1.272757539778467
 10
6.114992684540838
 20
7.394618651673226
 30
1.294727382959536
 10
6.151440641841717
 20
7.369961434126707
 30
1.344384524807537
 10
6.166977600958333
 20
7.358213730359238
 30
1.372066970361629
 10
6.204013647847049
 20
7.325358057729317
 30
1.460307034802099
 10
6.215589387450408
 20
7.306670188493626
 30
1.526402940993648
 10
6.21558095733947
 20
7.273896385487205
 30
1.650701017862957
 10
6.203859510956889
 20
7.257548823738034
 30
1.718103048468037
 10
6.170522714997631
 20
7.231793513205957
 30
1.800160575010522
 10
6.160163407315693
 20
7.224648398700082
 30
1.820887330495679
 10
6.14833440385776
 20
7.217007502791602
 30
1.840259280530517
1001
ACAD_VIEW_EDGE_ID
1071
       19
1071
       -1
1071
        5
1071
        0
  0
SPLINE
  5
47B
330
70
100
AcDbEntity
  8
Visible
100
AcDbSpline
 70
     0
 71
     3
 72
    22
 73
    18
 74
     0
 42
0.000000001
 43
0.0000000001
 40
0.0391361519072631
 40
0.0391361519072631
 40
0.0391361519072631
 40
0.0391361519072631
 40
0.0400420764210185
 40
0.0400420764210185
 40
0.1018962334595151
 40
0.1018962334595151
 40
0.222824588648715
 40
0.222824588648715
 40
0.2832887662433149
 40
0.2832887662433149
 40
0.3135208550406149
 40
0.3135208550406149
 40
0.3286368994392649
 40
0.3286368994392649
 40
0.3361949216385899
 40
0.3361949216385899
 40
0.3437529438379149
 40
0.3437529438379149
 40
0.3437529438379149
 40
0.3437529438379149
 10
6.14833440385776
 20
7.217007502791602
 30
1.840259280530517
 10
6.148274739682919
 20
7.216968962966348
 30
1.840356990485815
 10
6.148215455190283
 20
7.216930432437038
 30
1.840453809099926
 10
6.144138050514656
 20
7.214265277492813
 30
1.847095136088682
 10
6.139008390565167
 20
7.209915722594814
 30
1.854141509764303
 10
6.125821226090764
 20
7.198501427833434
 30
1.870609619423703
 10
6.115655720714884
 20
7.189294994748706
 30
1.881201301970577
 10
6.099390519949182
 20
7.175447739125047
 30
1.895837739670241
 10
6.093785367834997
 20
7.170798832441505
 30
1.900526433824779
 10
6.085360347321356
 20
7.164063063883077
 30
1.90715632028332
 10
6.082542513086836
 20
7.161850575662356
 30
1.909304457431062
 10
6.078348358640895
 20
7.158623427591919
 30
1.912415295717437
 10
6.076954185817911
 20
7.157557144836573
 30
1.91343170001528
 10
6.074873756419791
 20
7.155997395547274
 30
1.914939056887305
 10
6.074182772674093
 20
7.15547700616571
 30
1.915432820653222
 10
6.072802671168418
 20
7.154457949835887
 30
1.916423112932534
 10
6.072118904396874
 20
7.153918567364598
 30
1.916884462445523
 10
6.071417483457325
 20
7.153514793563772
 30
1.917457850968276
1001
ACAD_VIEW_EDGE_ID
1071
       20
1071
       -1
1071
        5
1071
        0
  0
LINE
  5
47C
330
70
100
AcDbEntity
  8
Visible Narrow
100
AcDbLine
 10
6.071417
 20
7.153515
 30
1.917458
 11
6.071417
 21
7.149306
 31
1.914494
210
-0.0000000000000001
220
0.8175471248425399
230
0.5758617009853117
  0
SPLINE
  5
47D
330
70
100
AcDbEntity
  8
Visible
100
AcDbSpline
 70
     0
 71
     3
 72
    24
 73
    20
 74
     0
 42
0.000000001
 43
0.0000000001
 40
6.470569909110528
 40
6.470569909110528
 40
6.470569909110528
 40
6.470569909110528
 40
6.480392878344787
 40
6.480392878344787
 40
6.490215847579046
 40
6.490215847579046
 40
6.509861786047564
 40
6.509861786047564
 40
6.5491536629846
 40
6.5491536629846
 40
6.627737416858674
 40
6.627737416858674
 40
6.78490492460682
 40
6.78490492460682
 40
7.099239940103112
 40
7.099239940103112
 40
7.413574955599404
 40
7.413574955599404
 40
7.552066411691979
 40
7.552066411691979
 40
7.552066411691979
 40
7.552066411691979
 10
6.071417159575347
 20
7.149305779712449
 30
1.914493514181231
 10
6.072328778531145
 20
7.149830554250002
 30
1.913748295699406
 10
6.073075256610381
 20
7.149971460836241
 30
1.912926699225863
 10
6.074477758023776
 20
7.150134160612651
 30
1.911302627244367
 10
6.075126807995574
 20
7.150132736096566
 30
1.910491904720402
 10
6.077042741412541
 20
7.150081280915401
 30
1.908052943112124
 10
6.078252712537349
 20
7.149962458008303
 30
1.906434566344614
 10
6.081886432211676
 20
7.149590321907453
 30
1.90151562110077
 10
6.084270902677261
 20
7.149290072885378
 30
1.898182458362498
 10
6.091412614185927
 20
7.14841747367609
 30
1.888014153602853
 10
6.096227697300336
 20
7.147837650852125
 30
1.880884231426534
 10
6.110385530524426
 20
7.146318539769708
 30
1.859110249015429
 10
6.119928240027392
 20
7.145531436975034
 30
1.843289585107413
 10
6.146724406935235
 20
7.144404451265472
 30
1.794868923161629
 10
6.163479258950091
 20
7.145255131912563
 30
1.758745620691115
 10
6.190057586550964
 20
7.15179466756399
 30
1.686417840817739
 10
6.200642387813631
 20
7.157492144257048
 30
1.648594593278176
 10
6.21034674014102
 20
7.171019389769753
 30
1.593911496451255
 10
6.212569773651765
 20
7.17587772558727
 30
1.577167054370875
 10
6.213948805043245
 20
7.181630841730111
 30
1.560540614933415
1001
ACAD_VIEW_EDGE_ID
1071
       22
1071
       -1
1071
        5
1071
        0
  0
SPLINE
  5
47E
330
70
100
AcDbEntity
  8
Visible
100
AcDbSpline
 70
     0
 71
     3
 72
    10
 73
     6
 74
     0
 42
0.000000001
 43
0.0000000001
 40
4.717275504021567
 40
4.717275504021567
 40
4.717275504021567
 40
4.717275504021567
 40
4.821576014752759
 40
4.821576014752759
 40
4.821639779220858
 40
4.821639779220858
 40
4.821639779220858
 40
4.821639779220858
 10
6.213948805043245
 20
7.181630841730111
 30
1.560540614933415
 10
6.215046819296575
 20
7.186211595713757
 30
1.547302288641731
 10
6.215576883203383
 20
7.190746402269724
 30
1.534161512921855
 10
6.215577874263389
 20
7.195237299734799
 30
1.521222619239779
 10
6.215577874659929
 20
7.195240043619378
 30
1.521214713764493
 10
6.215577874847284
 20
7.195242787539427
 30
1.521206808220085
1001
ACAD_VIEW_EDGE_ID
1071
       23
1071
       -1
1071
        5
1071
        0
  0
SPLINE
  5
47F
330
70
100
AcDbEntity
  8
Visible
100
AcDbSpline
 70
     0
 71
     3
 72
    24
 73
    20
 74
     0
 42
0.000000001
 43
0.0000000001
 40
5.389073406529077
 40
5.389073406529077
 40
5.389073406529077
 40
5.389073406529077
 40
5.527564862621652
 40
5.527564862621652
 40
5.841899878117944
 40
5.841899878117944
 40
6.156234893614236
 40
6.156234893614236
 40
6.313402401362382
 40
6.313402401362382
 40
6.391986155236455
 40
6.391986155236455
 40
6.431278032173492
 40
6.431278032173492
 40
6.45092397064201
 40
6.45092397064201
 40
6.460746939876269
 40
6.460746939876269
 40
6.470569909110528
 40
6.470569909110528
 40
6.470569909110528
 40
6.470569909110528
 10
4.649721153104864
 20
6.281181329140054
 30
2.839245219025542
 10
4.666627921005628
 20
6.28595445515657
 30
2.840923619593013
 10
4.683116150230334
 20
6.291867280040605
 30
2.842372220447941
 10
4.735616366507955
 20
6.314148168600695
 30
2.846205130488669
 10
4.769823745448619
 20
6.33423536383816
 30
2.847412245473606
 10
4.832730517376902
 20
6.379208032410133
 30
2.846588902730218
 10
4.862758554820929
 20
6.405287977848274
 30
2.844468733372195
 10
4.90170437133186
 20
6.444259414685802
 30
2.839147488391972
 10
4.91418825762942
 20
6.457726153613293
 30
2.836962135444991
 10
4.931119095721286
 20
6.477141495400246
 30
2.833322152633627
 10
4.936615721256957
 20
6.483657265600413
 30
2.832022592498105
 10
4.944428453973913
 20
6.493138408456616
 30
2.82996613146679
 10
4.946981287574844
 20
6.496280822449989
 30
2.829263210691351
 10
4.950789531757281
 20
6.500936933914999
 30
2.828098595504343
 10
4.952044561006759
 20
6.502474737228112
 30
2.827701915624857
 10
4.954009435908873
 20
6.504760184343467
 30
2.826968444207523
 10
4.954671599582824
 20
6.505516410558811
 30
2.826707292742867
 10
4.956093410415477
 20
6.506979529493946
 30
2.826022582457881
 10
4.95684643139596
 20
6.507701811328843
 30
2.825618387818394
 10
4.957758050349938
 20
6.508226585866395
 30
2.824873169336569
1001
ACAD_VIEW_EDGE_ID
1071
       27
1071
       -1
1071
        5
1071
        0
  0
LINE
  5
480
330
70
100
AcDbEntity
  8
Visible Narrow
100
AcDbLine
 10
4.957758
 20
6.512436
 30
2.827838
 11
4.957758
 21
6.508227
 31
2.824873
210
-0.0000000000000001
220
0.8175471248425399
230
0.5758617009853117
  0
SPLINE
  5
481
330
70
100
AcDbEntity
  8
Visible
100
AcDbSpline
 70
     0
 71
     3
 72
    22
 73
    18
 74
     0
 42
0.000000001
 43
0.0000000001
 40
0.3437529438379148
 40
0.3437529438379148
 40
0.3437529438379148
 40
0.3437529438379148
 40
0.3513109660372399
 40
0.3513109660372399
 40
0.3588689882365649
 40
0.3588689882365649
 40
0.3739850326352148
 40
0.3739850326352148
 40
0.4042171214325149
 40
0.4042171214325149
 40
0.464681299027115
 40
0.464681299027115
 40
0.5856096542163152
 40
0.5856096542163152
 40
0.6474638112548118
 40
0.6474638112548118
 40
0.6483697357685667
 40
0.6483697357685667
 40
0.6483697357685667
 40
0.6483697357685667
 10
4.957758374232825
 20
6.512435599719538
 30
2.827837506123614
 10
4.957056953293276
 20
6.512031825919621
 30
2.828410894646367
 10
4.956369063085575
 20
6.511781612415688
 30
2.829070829557167
 10
4.954972392497283
 20
6.511202216580386
 30
2.830350457041276
 10
4.95426893384304
 20
6.510919893531536
 30
2.830996604021493
 10
4.952138061684153
 20
6.510055402056423
 30
2.83293184752074
 10
4.950692847745657
 20
6.509487188439379
 30
2.834236548416811
 10
4.946290523762244
 20
6.507765763453789
 30
2.838153048207459
 10
4.943259779294593
 20
6.506611510372749
 30
2.84078593158847
 10
4.93395930386744
 20
6.50314357606021
 30
2.848646054460914
 10
4.927448040652806
 20
6.500817653815829
 30
2.853862130910783
 10
4.907505287571283
 20
6.493821757644582
 30
2.868824503353607
 10
4.893542738308341
 20
6.48913884731337
 30
2.877956711068691
 10
4.873503747061321
 20
6.481426465923505
 30
2.888649889760927
 10
4.865237241819913
 20
6.478064502359302
 30
2.892554440066305
 10
4.858271915001595
 20
6.47437289575464
 30
2.894940182497521
 10
4.858170558844748
 20
6.474318953301917
 30
2.894974682323663
 10
4.85806846848648
 20
6.474264378939551
 30
2.895009201372886
1001
ACAD_VIEW_EDGE_ID
1071
       29
1071
       -1
1071
        5
1071
        0
  0
SPLINE
  5
482
330
70
100
AcDbEntity
  8
Visible
100
AcDbSpline
 70
     0
 71
     3
 72
    16
 73
    12
 74
     0
 42
0.000000001
 43
0.0000000001
 40
4.234772150528689
 40
4.234772150528689
 40
4.234772150528689
 40
4.234772150528689
 40
4.41037758900386
 40
4.41037758900386
 40
4.902665980811679
 40
4.902665980811679
 40
5.38989988830287
 40
5.38989988830287
 40
5.633516842048464
 40
5.633516842048464
 40
5.87713379579406
 40
5.87713379579406
 40
5.87713379579406
 40
5.87713379579406
 10
4.85806846848648
 20
6.474264378939551
 30
2.895009201372886
 10
4.837828060784731
 20
6.463444480082216
 30
2.901852939094169
 10
4.816765662277092
 20
6.452501651961028
 30
2.906812393877771
 10
4.734838747686652
 20
6.411905270107126
 30
2.918979155712804
 10
4.670315082838741
 20
6.384362242682982
 30
2.913904993209143
 10
4.549816726960515
 20
6.34776617067655
 30
2.888117246262481
 10
4.485017871911467
 20
6.335816090055232
 30
2.865529484606668
 10
4.393961034785051
 20
6.337574630385461
 30
2.821449637578552
 10
4.364566380858222
 20
6.341345135617302
 30
2.805095401274229
 10
4.309775922162615
 20
6.355443470369209
 30
2.770432650399015
 10
4.284382647235205
 20
6.365778088240404
 30
2.752122898380548
 10
4.2617780383451
 20
6.378797643379584
 30
2.733639112422679
1001
ACAD_VIEW_EDGE_ID
1071
       30
1071
       -1
1071
        5
1071
        0
  0
SPLINE
  5
483
330
70
100
AcDbEntity
  8
Visible
100
AcDbSpline
 70
     0
 71
     3
 72
    16
 73
    12
 74
     0
 42
0.000000001
 43
0.0000000001
 40
5.87713379579406
 40
5.87713379579406
 40
5.87713379579406
 40
5.87713379579406
 40
6.120750749539656
 40
6.120750749539656
 40
6.364367703285251
 40
6.364367703285251
 40
6.851601610776441
 40
6.851601610776441
 40
7.343890002584261
 40
7.343890002584261
 40
7.519495441059433
 40
7.519495441059433
 40
7.519495441059433
 40
7.519495441059433
 10
4.2617780383451
 20
6.378797643379584
 30
2.733639112422679
 10
4.239173429454994
 20
6.391817198518765
 30
2.71515532646481
 10
4.218257774210386
 20
6.408155091231492
 30
2.695598271871858
 10
4.181810878380773
 20
6.446606649015848
 30
2.655656248967716
 10
4.166274716505385
 20
6.468714903139698
 30
2.635270562617733
 10
4.129241683092758
 20
6.540732164038672
 30
2.574611337973692
 10
4.117668809865635
 20
6.596669996546552
 30
2.534749946642477
 10
4.117682874047958
 20
6.702661291748881
 30
2.462017702819139
 10
4.129407522009231
 20
6.760614918843202
 30
2.423918115591732
 10
4.162747613386117
 20
6.829195807174073
 30
2.372021914283322
 10
4.173107687638393
 20
6.846302842845943
 30
2.358311170246452
 10
4.184937308490433
 20
6.861967094626379
 30
2.344589933134557
1001
ACAD_VIEW_EDGE_ID
1071
       31
1071
       -1
1071
        5
1071
        0
  0
SPLINE
  5
484
330
70
100
AcDbEntity
  8
Visible
100
AcDbSpline
 70
     0
 71
     3
 72
    12
 73
     8
 74
     0
 42
0.000000001
 43
0.0000000001
 40
0.0391361519072636
 40
0.0391361519072636
 40
0.0391361519072636
 40
0.0391361519072636
 40
0.0400420764210185
 40
0.0400420764210185
 40
0.1018962334595151
 40
0.1018962334595151
 40
0.2143942214649035
 40
0.2143942214649035
 40
0.2143942214649035
 40
0.2143942214649035
 10
4.184937308490433
 20
6.861967094626379
 30
2.344589933134557
 10
4.184996975777566
 20
6.862046103363354
 30
2.344520724745962
 10
4.185056263321556
 20
6.862124276034592
 30
2.344451825421856
 10
4.189133874968164
 20
6.867479117207039
 30
2.339704798641832
 10
4.194263597947455
 20
6.872647770275762
 30
2.333235301859531
 10
4.206842556764812
 20
6.883768848725594
 30
2.317691006617678
 10
4.216205783149079
 20
6.890214609702525
 30
2.306401329395157
 10
4.226201708445686
 20
6.895970380274775
 30
2.295230989719129
1001
ACAD_VIEW_EDGE_ID
1071
       32
1071
       -1
1071
        5
1071
        0
  0
SPLINE
  5
485
330
70
100
AcDbEntity
  8
Visible
100
AcDbSpline
 70
     0
 71
     3
 72
    12
 73
     8
 74
     0
 42
0.000000001
 43
0.0000000001
 40
0.9657801523363618
 40
0.9657801523363618
 40
0.9657801523363618
 40
0.9657801523363618
 40
1.446823100655255
 40
1.446823100655255
 40
1.687376457048751
 40
1.687376457048751
 40
1.927929813442247
 40
1.927929813442247
 40
1.927929813442247
 40
1.927929813442247
 10
4.117668483121478
 20
6.55423933154816
 30
2.431586463375424
 10
4.1176648716026
 20
6.505059261658971
 30
2.471168555375697
 10
4.129535819976653
 20
6.452742493846926
 30
2.514057241347472
 10
4.166795084547474
 20
6.38478281616608
 30
2.577480463613028
 10
4.182365515414702
 20
6.363808348381098
 30
2.598505014344482
 10
4.218691653705563
 20
6.327005969262245
 30
2.639121322243227
 10
4.239451500793465
 20
6.311182658529105
 30
2.658713545362843
 10
4.261771846132277
 20
6.298326830396945
 30
2.676964889053124
1001
ACAD_VIEW_EDGE_ID
1071
       35
1071
       -1
1071
        5
1071
        0
  0
SPLINE
  5
486
330
70
100
AcDbEntity
  8
Visible
100
AcDbSpline
 70
     0
 71
     3
 72
    14
 73
    10
 74
     0
 42
0.000000001
 43
0.0000000001
 40
1.927929813442247
 40
1.927929813442247
 40
1.927929813442247
 40
1.927929813442247
 40
2.168483169835743
 40
2.168483169835743
 40
2.409036526229239
 40
2.409036526229239
 40
2.89014323901623
 40
2.89014323901623
 40
2.994443749747422
 40
2.994443749747422
 40
2.994443749747422
 40
2.994443749747422
 10
4.261771846132277
 20
6.298326830396945
 30
2.676964889053124
 10
4.284092191473818
 20
6.285471002264785
 30
2.695216232741586
 10
4.309217919454412
 20
6.274865641852557
 30
2.713144638812082
 10
4.363609961979663
 20
6.259417156423296
 30
2.746708576412856
 10
4.392874007381423
 20
6.254568353441754
 30
2.762345171511697
 10
4.483861934313453
 20
6.248665726855506
 30
2.803786750035214
 10
4.549059700858223
 20
6.256601248360311
 30
2.823911258154112
 10
4.6229044134205
 20
6.273922596375996
 30
2.836118819075636
 10
4.636259623301001
 20
6.277380864229598
 30
2.837908840636373
 10
4.649721153104864
 20
6.281181329140054
 30
2.839245219025542
1001
ACAD_VIEW_EDGE_ID
1071
       36
1071
       -1
1071
        5
1071
        0
  0
LINE
  5
487
330
70
100
AcDbEntity
  8
Visible
100
AcDbLine
 10
4.957758
 20
6.508227
 30
2.824873
 11
6.071417
 21
7.149306
 31
1.914494
210
-0.0000000000000001
220
0.8175471248425399
230
0.5758617009853117
  0
LINE
  5
488
330
70
100
AcDbEntity
  8
Visible
100
AcDbLine
 10
4.957758
 20
6.512436
 30
2.827838
 11
6.071417
 21
7.153515
 31
1.917458
210
-0.0000000000000001
220
0.8175471248425399
230
0.5758617009853117
  0
LINE
  5
489
330
70
100
AcDbEntity
  8
Visible Narrow
100
AcDbLine
 10
4.184937
 20
6.861967
 30
2.34459
 11
5.475203
 21
7.60471
 31
1.28984
210
-0.0000000000000001
220
0.8175471248425399
230
0.5758617009853117
  0
LINE
  5
48A
330
70
100
AcDbEntity
  8
Visible Narrow
100
AcDbLine
 10
4.858068
 20
6.474264
 30
2.895009
 11
6.148334
 21
7.217008
 31
1.840259
210
-0.0000000000000001
220
0.8175471248425399
230
0.5758617009853117
  0
LINE
  5
48B
330
70
100
AcDbEntity
  8
Visible
100
AcDbLine
 10
4.973373
 20
6.27448
 30
1.653727
 11
5.027368
 21
6.24338
 31
1.697879
210
-0.0000000000000001
220
0.8175471248425399
230
0.5758617009853117
  0
LINE
  5
48C
330
70
100
AcDbEntity
  8
Visible
100
AcDbLine
 10
5.442202
 20
6.722336
 30
1.869075
 11
5.442201
 21
6.703625
 31
1.855897
210
-0.0000000000000001
220
0.8175471248425399
230
0.5758617009853117
  0
LINE
  5
48D
330
70
100
AcDbEntity
  8
Visible
100
AcDbLine
 10
6.215585
 20
7.290374
 30
1.588206
 11
6.215578
 21
7.195243
 31
1.521207
210
-0.0000000000000001
220
0.8175471248425399
230
0.5758617009853117
  0
LINE
  5
48E
330
70
100
AcDbEntity
  8
Visible
100
AcDbLine
 10
4.117676
 20
6.649371
 30
2.498586
 11
4.117668
 21
6.554239
 31
2.431586
210
-0.0000000000000001
220
0.8175471248425399
230
0.5758617009853117
  0
LINE
  5
48F
330
70
100
AcDbEntity
  8
Visible
100
AcDbLine
 10
4.752991
 20
6.325591
 30
2.846462
 11
6.194261
 21
7.155259
 31
1.668271
210
-0.0000000000000001
220
0.8175471248425399
230
0.5758617009853117
  0
LINE
  5
490
330
70
100
AcDbEntity
  8
Visible
100
AcDbLine
 10
4.226201
 20
6.89597
 30
2.29523
 11
5.415261
 21
7.580454
 31
1.323214
210
-0.0000000000000001
220
0.8175471248425399
230
0.5758617009853117
  0
ENDSEC
  0
SECTION
  2
OBJECTS
  0
DICTIONARY
  5
C
330
0
100
AcDbDictionary
281
     1
  3
ACAD_COLOR
350
63
  3
ACAD_DETAILVIEWSTYLE
350
6A
  3
ACAD_GROUP
350
D
  3
ACAD_IMAGE_DICT
350
190
  3
ACAD_IMAGE_VARS
350
192
  3
ACAD_LAYOUT
350
62
  3
ACAD_MATERIAL
350
10
  3
ACAD_MLEADERSTYLE
350
66
  3
ACAD_MLINESTYLE
350
5F
  3
ACAD_PLOTSETTINGS
350
61
  3
ACAD_PLOTSTYLENAME
350
E
  3
ACAD_SCALELIST
350
42
  3
ACAD_SECTIONVIEWSTYLE
350
68
  3
ACAD_TABLESTYLE
350
64
  3
ACAD_VISUALSTYLE
350
29
  3
ACDB_RECOMPOSE_DATA
350
4F5
  3
AcDbVariableDictionary
350
4EC
  0
DICTIONARY
  5
B1
330
70
100
AcDbDictionary
280
     1
281
     1
  3
ACAD_SORTENTS
360
186
  0
DICTIONARY
  5
18A
330
189
100
AcDbDictionary
280
     1
281
     1
  3
ACAD_SORTENTS
360
3D0
  0
IMAGEDEF_REACTOR
  5
191
330
18E
100
AcDbRasterImageDefReactor
 90
        2
330
18E
  0
DICTIONARY
  5
63
102
{ACAD_REACTORS
330
C
102
}
330
C
100
AcDbDictionary
281
     1
  0
DICTIONARY
  5
6A
102
{ACAD_REACTORS
330
C
102
}
330
C
100
AcDbDictionary
281
     1
  3
Imperial24
350
6B
  0
DICTIONARY
  5
D
102
{ACAD_REACTORS
330
C
102
}
330
C
100
AcDbDictionary
281
     1
  0
DICTIONARY
  5
190
102
{ACAD_REACTORS
330
C
102
}
330
C
100
AcDbDictionary
281
     1
  3
morse_logo-16 (1)_01-2018(B)_1_1
350
18F
  0
RASTERVARIABLES
  5
192
102
{ACAD_REACTORS
330
C
102
}
330
C
100
AcDbRasterVariables
 90
        0
 70
     0
 71
     1
 72
     5
  0
DICTIONARY
  5
62
102
{ACAD_REACTORS
330
C
102
}
330
C
100
AcDbDictionary
281
     1
  3
Model
350
73
  3
Sheet1
350
6F
  3
Sheet2
350
77
  0
DICTIONARY
  5
10
102
{ACAD_REACTORS
330
C
102
}
330
C
100
AcDbDictionary
281
     1
  3
ByBlock
350
19
  3
ByLayer
350
11
  3
Global
350
21
  0
DICTIONARY
  5
66
102
{ACAD_REACTORS
330
C
102
}
330
C
100
AcDbDictionary
281
     1
  3
Standard
350
67
  0
DICTIONARY
  5
5F
102
{ACAD_REACTORS
330
C
102
}
330
C
100
AcDbDictionary
281
     1
  3
Standard
350
60
  0
DICTIONARY
  5
61
102
{ACAD_REACTORS
330
C
102
}
330
C
100
AcDbDictionary
281
     1
  0
ACDBDICTIONARYWDFLT
  5
E
102
{ACAD_REACTORS
330
C
102
}
330
C
100
AcDbDictionary
281
     1
  3
Normal
350
F
100
AcDbDictionaryWithDefault
340
F
  0
DICTIONARY
  5
42
102
{ACAD_REACTORS
330
C
102
}
330
C
100
AcDbDictionary
281
     1
  3
*A1
350
A1
  3
*A10
350
AA
  3
*A11
350
AB
  3
*A12
350
AC
  3
*A13
350
AD
  3
*A14
350
AE
  3
*A15
350
AF
  3
*A16
350
B0
  3
*A2
350
A2
  3
*A3
350
A3
  3
*A4
350
A4
  3
*A5
350
A5
  3
*A6
350
A6
  3
*A7
350
A7
  3
*A8
350
A8
  3
*A9
350
A9
  3
A0
350
43
  3
A1
350
44
  3
A2
350
45
  3
A3
350
46
  3
A4
350
47
  3
A5
350
48
  3
A6
350
49
  3
A7
350
4A
  3
A8
350
4B
  3
A9
350
4C
  3
B0
350
4D
  3
B1
350
4E
  3
B2
350
4F
  3
B3
350
50
  3
B4
350
51
  3
B5
350
52
  3
B6
350
53
  0
DICTIONARY
  5
68
102
{ACAD_REACTORS
330
C
102
}
330
C
100
AcDbDictionary
281
     1
  3
Imperial24
350
69
  0
DICTIONARY
  5
64
102
{ACAD_REACTORS
330
C
102
}
330
C
100
AcDbDictionary
281
     1
  3
Standard
350
65
  0
DICTIONARY
  5
29
102
{ACAD_REACTORS
330
C
102
}
330
C
100
AcDbDictionary
281
     1
  3
2dWireframe
350
2F
  3
Basic
350
2E
  3
Brighten
350
35
  3
ColorChange
350
39
  3
Conceptual
350
32
  3
Dim
350
34
  3
EdgeColorOff
350
41
  3
Facepattern
350
38
  3
Flat
350
2A
  3
FlatWithEdges
350
2B
  3
Gouraud
350
2C
  3
GouraudWithEdges
350
2D
  3
Hidden
350
31
  3
JitterOff
350
3F
  3
Linepattern
350
37
  3
OverhangOff
350
40
  3
Realistic
350
33
  3
Shaded
350
3E
  3
Shaded with edges
350
3D
  3
Shades of Gray
350
3A
  3
Sketchy
350
3B
  3
Thicken
350
36
  3
Wireframe
350
30
  3
X-Ray
350
3C
  0
XRECORD
  5
4F5
102
{ACAD_REACTORS
330
C
102
}
330
C
100
AcDbXrecord
280
     1
 90
        1
330
65
330
196
330
1A0
330
1A1
330
1A2
330
1A5
  0
DICTIONARY
  5
4EC
102
{ACAD_REACTORS
330
C
102
}
330
C
100
AcDbDictionary
281
     1
  3
ANNOALLVISIBLE
350
4F1
  3
CANNOSCALE
350
4F2
  3
CMLEADERSTYLE
350
4EE
  3
CTABLESTYLE
350
4ED
  3
CVIEWDETAILSTYLE
350
4EF
  3
CVIEWSECTIONSTYLE
350
4F0
  0
SORTENTSTABLE
  5
186
102
{ACAD_REACTORS
330
B1
102
}
330
B1
100
AcDbSortentsTable
330
70
  0
SORTENTSTABLE
  5
3D0
102
{ACAD_REACTORS
330
18A
102
}
330
18A
100
AcDbSortentsTable
330
189
  0
ACDBDETAILVIEWSTYLE
  5
6B
102
{ACAD_XDICTIONARY
360
4F8
102
}
102
{ACAD_REACTORS
330
6A
102
}
330
6A
100
AcDbModelDocViewStyle
 70
     0
  3
Imperial24
290
     0
100
AcDbDetailViewStyle
 70
     0
 71
     0
 90
        3
 71
     1
340
55
 62
   256
 40
0.24
340
0
 62
   256
 40
0.24
300

 40
0.36
280
     3
 71
     2
340
5D
 90
       25
 62
   256
 71
     3
340
55
 62
   256
 40
0.24
 90
        1
 40
0.75
 90
        1
300
%<\AcVar ViewType \f "%tc1">% %<\AcVar ViewDetailId>%\PSCALE %<\AcVar ViewScale \f "%sn">%
 71
     4
340
5D
 90
       25
 62
   256
340
5D
 90
       25
 62
   256
280
     0
  0
IMAGEDEF
  5
18F
102
{ACAD_REACTORS
330
190
330
191
330
491
102
}
330
190
100
AcDbRasterImageDef
 90
        0
  1
morse_logo-16 (1)_01-2018(B)_1_1.jpg
 10
948.0
 20
333.0
 11
0.264583
 21
0.264583
280
     1
281
     5
  0
LAYOUT
  5
73
102
{ACAD_REACTORS
330
62
102
}
330
62
100
AcDbPlotSettings
  1

  2
AutoCAD PDF (High Quality Print).pc3
  4
ANSI_full_bleed_B_(17.00_x_11.00_Inches)
  6

 40
0.0
 41
0.0
 42
0.0
 43
0.0
 44
431.799988
 45
279.399994
 46
0.0
 47
0.0
 48
0.0
 49
0.0
140
0.0
141
0.0
142
1.0
143
1.260527
 70
 11952
 72
     0
 73
     0
 74
     0
  7

 75
     0
147
0.793319
 76
     0
 77
     2
 78
   300
148
28.485552
149
-2.963896
100
AcDbLayout
  1
Model
 70
     1
 71
     0
 10
0.0
 20
0.0
 11
12.0
 21
9.0
 12
0.0
 22
0.0
 32
0.0
 14
0.0
 24
0.0
 34
0.0
 15
0.0
 25
0.0
 35
0.0
146
0.0
 13
0.0
 23
0.0
 33
0.0
 16
1.0
 26
0.0
 36
0.0
 17
0.0
 27
1.0
 37
0.0
 76
     0
330
70
1001
ACAD_PSEXT
1000
AutoCAD PDF (High Quality Print).pc3
1000
DWG To PDF
1000
File
1000

1070
     0
  0
LAYOUT
  5
6F
102
{ACAD_REACTORS
330
62
102
}
330
62
100
AcDbPlotSettings
  1

  2
None
  4

  6

 40
0.0
 41
0.0
 42
0.0
 43
0.0
 44
0.0
 45
0.0
 46
0.0
 47
0.0
 48
0.0
 49
0.0
140
0.0
141
0.0
142
1.0
143
1.0
 70
   688
 72
     0
 73
     0
 74
     5
  7

 75
    16
147
1.0
 76
     0
 77
     2
 78
   300
148
0.0
149
0.0
100
AcDbLayout
  1
Sheet1
 70
     1
 71
     1
 10
0.0
 20
0.0
 11
12.0
 21
9.0
 12
0.0
 22
0.0
 32
0.0
 14
0.0
 24
0.0
 34
0.0
 15
0.0
 25
0.0
 35
0.0
146
0.0
 13
0.0
 23
0.0
 33
0.0
 16
1.0
 26
0.0
 36
0.0
 17
0.0
 27
1.0
 37
0.0
 76
     0
330
6C
  0
LAYOUT
  5
77
102
{ACAD_REACTORS
330
62
102
}
330
62
100
AcDbPlotSettings
  1

  2
None
  4

  6

 40
0.0
 41
0.0
 42
0.0
 43
0.0
 44
0.0
 45
0.0
 46
0.0
 47
0.0
 48
0.0
 49
0.0
140
0.0
141
0.0
142
1.0
143
1.0
 70
   688
 72
     0
 73
     0
 74
     5
  7

 75
    16
147
1.0
 76
     0
 77
     2
 78
   300
148
0.0
149
0.0
100
AcDbLayout
  1
Sheet2
 70
     1
 71
     2
 10
0.0
 20
0.0
 11
12.0
 21
9.0
 12
0.0
 22
0.0
 32
0.0
 14
0.0
 24
0.0
 34
0.0
 15
0.0
 25
0.0
 35
0.0
146
0.0
 13
0.0
 23
0.0
 33
0.0
 16
1.0
 26
0.0
 36
0.0
 17
0.0
 27
1.0
 37
0.0
 76
     0
330
74
  0
MATERIAL
  5
19
102
{ACAD_XDICTIONARY
360
1A
102
}
102
{ACAD_REACTORS
330
10
102
}
330
10
100
AcDbMaterial
  1
ByBlock
 72
     0
 43
0.020833
 43
0.0
 43
0.0
 43
0.0
 43
0.0
 43
0.020833
 43
0.0
 43
0.0
 43
0.0
 43
0.0
 43
1.0
 43
0.0
 43
0.0
 43
0.0
 43
0.0
 43
1.0
 77
     0
 47
0.020833
 47
0.0
 47
0.0
 47
0.0
 47
0.0
 47
0.020833
 47
0.0
 47
0.0
 47
0.0
 47
0.0
 47
1.0
 47
0.0
 47
0.0
 47
0.0
 47
0.0
 47
1.0
171
     0
 49
0.020833
 49
0.0
 49
0.0
 49
0.0
 49
0.0
 49
0.020833
 49
0.0
 49
0.0
 49
0.0
 49
0.0
 49
1.0
 49
0.0
 49
0.0
 49
0.0
 49
0.0
 49
1.0
175
     0
142
0.020833
142
0.0
142
0.0
142
0.0
142
0.0
142
0.020833
142
0.0
142
0.0
142
0.0
142
0.0
142
1.0
142
0.0
142
0.0
142
0.0
142
0.0
142
1.0
179
     0
144
0.020833
144
0.0
144
0.0
144
0.0
144
0.0
144
0.020833
144
0.0
144
0.0
144
0.0
144
0.0
144
1.0
144
0.0
144
0.0
144
0.0
144
0.0
144
1.0
147
0.020833
147
0.0
147
0.0
147
0.0
147
0.0
147
0.020833
147
0.0
147
0.0
147
0.0
147
0.0
147
1.0
147
0.0
147
0.0
147
0.0
147
0.0
147
1.0
  0
MATERIAL
  5
11
102
{ACAD_XDICTIONARY
360
12
102
}
102
{ACAD_REACTORS
330
10
102
}
330
10
100
AcDbMaterial
  1
ByLayer
 72
     0
 43
0.020833
 43
0.0
 43
0.0
 43
0.0
 43
0.0
 43
0.020833
 43
0.0
 43
0.0
 43
0.0
 43
0.0
 43
1.0
 43
0.0
 43
0.0
 43
0.0
 43
0.0
 43
1.0
 77
     0
 47
0.020833
 47
0.0
 47
0.0
 47
0.0
 47
0.0
 47
0.020833
 47
0.0
 47
0.0
 47
0.0
 47
0.0
 47
1.0
 47
0.0
 47
0.0
 47
0.0
 47
0.0
 47
1.0
171
     0
 49
0.020833
 49
0.0
 49
0.0
 49
0.0
 49
0.0
 49
0.020833
 49
0.0
 49
0.0
 49
0.0
 49
0.0
 49
1.0
 49
0.0
 49
0.0
 49
0.0
 49
0.0
 49
1.0
175
     0
142
0.020833
142
0.0
142
0.0
142
0.0
142
0.0
142
0.020833
142
0.0
142
0.0
142
0.0
142
0.0
142
1.0
142
0.0
142
0.0
142
0.0
142
0.0
142
1.0
179
     0
144
0.020833
144
0.0
144
0.0
144
0.0
144
0.0
144
0.020833
144
0.0
144
0.0
144
0.0
144
0.0
144
1.0
144
0.0
144
0.0
144
0.0
144
0.0
144
1.0
147
0.020833
147
0.0
147
0.0
147
0.0
147
0.0
147
0.020833
147
0.0
147
0.0
147
0.0
147
0.0
147
1.0
147
0.0
147
0.0
147
0.0
147
0.0
147
1.0
  0
MATERIAL
  5
21
102
{ACAD_XDICTIONARY
360
22
102
}
102
{ACAD_REACTORS
330
10
102
}
330
10
100
AcDbMaterial
  1
Global
 72
     0
 43
0.020833
 43
0.0
 43
0.0
 43
0.0
 43
0.0
 43
0.020833
 43
0.0
 43
0.0
 43
0.0
 43
0.0
 43
1.0
 43
0.0
 43
0.0
 43
0.0
 43
0.0
 43
1.0
 77
     0
 47
0.020833
 47
0.0
 47
0.0
 47
0.0
 47
0.0
 47
0.020833
 47
0.0
 47
0.0
 47
0.0
 47
0.0
 47
1.0
 47
0.0
 47
0.0
 47
0.0
 47
0.0
 47
1.0
171
     0
 49
0.020833
 49
0.0
 49
0.0
 49
0.0
 49
0.0
 49
0.020833
 49
0.0
 49
0.0
 49
0.0
 49
0.0
 49
1.0
 49
0.0
 49
0.0
 49
0.0
 49
0.0
 49
1.0
175
     0
142
0.020833
142
0.0
142
0.0
142
0.0
142
0.0
142
0.020833
142
0.0
142
0.0
142
0.0
142
0.0
142
1.0
142
0.0
142
0.0
142
0.0
142
0.0
142
1.0
179
     0
144
0.020833
144
0.0
144
0.0
144
0.0
144
0.0
144
0.020833
144
0.0
144
0.0
144
0.0
144
0.0
144
1.0
144
0.0
144
0.0
144
0.0
144
0.0
144
1.0
147
0.020833
147
0.0
147
0.0
147
0.0
147
0.0
147
0.020833
147
0.0
147
0.0
147
0.0
147
0.0
147
1.0
147
0.0
147
0.0
147
0.0
147
0.0
147
1.0
  0
MLEADERSTYLE
  5
67
102
{ACAD_REACTORS
330
66
102
}
330
66
100
AcDbMLeaderStyle
179
     2
170
     2
171
     1
172
     0
 90
        2
 40
0.0
 41
0.0
173
     1
 91
-1056964608
340
5B
 92
       -2
290
     1
 42
0.09
291
     1
 43
0.36
  3
Standard
 44
0.18
300

342
55
174
     1
178
     6
175
     1
176
     0
 93
-1056964608
 45
0.18
292
     0
297
     0
 46
0.18
 94
-1056964608
 47
1.0
 49
1.0
140
1.0
293
     1
141
0.0
294
     1
177
     0
142
1.0
295
     0
296
     0
143
0.125
271
     0
272
     9
273
     9
298
     1
  0
MLINESTYLE
  5
60
102
{ACAD_REACTORS
330
5F
102
}
330
5F
100
AcDbMlineStyle
  2
STANDARD
 70
     0
  3

 62
   256
 51
90.0
 52
90.0
 71
     0
  0
ACDBPLACEHOLDER
  5
F
102
{ACAD_REACTORS
330
E
102
}
330
E
  0
SCALE
  5
A1
102
{ACAD_REACTORS
330
42
102
}
330
42
100
AcDbScale
 70
     0
300
1:2
140
1.0
141
2.0
290
     0
  0
SCALE
  5
AA
102
{ACAD_REACTORS
330
42
102
}
330
42
100
AcDbScale
 70
     0
300
1:50
140
1.0
141
50.0
290
     0
  0
SCALE
  5
AB
102
{ACAD_REACTORS
330
42
102
}
330
42
100
AcDbScale
 70
     0
300
1:100
140
1.0
141
100.0
290
     0
  0
SCALE
  5
AC
102
{ACAD_REACTORS
330
42
102
}
330
42
100
AcDbScale
 70
     0
300
2:1
140
2.0
141
1.0
290
     0
  0
SCALE
  5
AD
102
{ACAD_REACTORS
330
42
102
}
330
42
100
AcDbScale
 70
     0
300
4:1
140
4.0
141
1.0
290
     0
  0
SCALE
  5
AE
102
{ACAD_REACTORS
330
42
102
}
330
42
100
AcDbScale
 70
     0
300
8:1
140
8.0
141
1.0
290
     0
  0
SCALE
  5
AF
102
{ACAD_REACTORS
330
42
102
}
330
42
100
AcDbScale
 70
     0
300
10:1
140
10.0
141
1.0
290
     0
  0
SCALE
  5
B0
102
{ACAD_REACTORS
330
42
102
}
330
42
100
AcDbScale
 70
     0
300
100:1
140
100.0
141
1.0
290
     0
  0
SCALE
  5
A2
102
{ACAD_REACTORS
330
42
102
}
330
42
100
AcDbScale
 70
     0
300
1:4
140
1.0
141
4.0
290
     0
  0
SCALE
  5
A3
102
{ACAD_REACTORS
330
42
102
}
330
42
100
AcDbScale
 70
     0
300
1:5
140
1.0
141
5.0
290
     0
  0
SCALE
  5
A4
102
{ACAD_REACTORS
330
42
102
}
330
42
100
AcDbScale
 70
     0
300
1:8
140
1.0
141
8.0
290
     0
  0
SCALE
  5
A5
102
{ACAD_REACTORS
330
42
102
}
330
42
100
AcDbScale
 70
     0
300
1:10
140
1.0
141
10.0
290
     0
  0
SCALE
  5
A6
102
{ACAD_REACTORS
330
42
102
}
330
42
100
AcDbScale
 70
     0
300
1:16
140
1.0
141
16.0
290
     0
  0
SCALE
  5
A7
102
{ACAD_REACTORS
330
42
102
}
330
42
100
AcDbScale
 70
     0
300
1:20
140
1.0
141
20.0
290
     0
  0
SCALE
  5
A8
102
{ACAD_REACTORS
330
42
102
}
330
42
100
AcDbScale
 70
     0
300
1:30
140
1.0
141
30.0
290
     0
  0
SCALE
  5
A9
102
{ACAD_REACTORS
330
42
102
}
330
42
100
AcDbScale
 70
     0
300
1:40
140
1.0
141
40.0
290
     0
  0
SCALE
  5
43
102
{ACAD_REACTORS
330
42
102
}
330
42
100
AcDbScale
 70
     0
300
1:1
140
1.0
141
1.0
290
     1
  0
SCALE
  5
44
102
{ACAD_REACTORS
330
42
102
}
330
42
100
AcDbScale
 70
     0
300
1/128" = 1'-0"
140
0.007813
141
12.0
290
     0
  0
SCALE
  5
45
102
{ACAD_REACTORS
330
42
102
}
330
42
100
AcDbScale
 70
     0
300
1/64" = 1'-0"
140
0.015625
141
12.0
290
     0
  0
SCALE
  5
46
102
{ACAD_REACTORS
330
42
102
}
330
42
100
AcDbScale
 70
     0
300
1/32" = 1'-0"
140
0.03125
141
12.0
290
     0
  0
SCALE
  5
47
102
{ACAD_REACTORS
330
42
102
}
330
42
100
AcDbScale
 70
     0
300
1/16" = 1'-0"
140
0.0625
141
12.0
290
     0
  0
SCALE
  5
48
102
{ACAD_REACTORS
330
42
102
}
330
42
100
AcDbScale
 70
     0
300
3/32" = 1'-0"
140
0.09375
141
12.0
290
     0
  0
SCALE
  5
49
102
{ACAD_REACTORS
330
42
102
}
330
42
100
AcDbScale
 70
     0
300
1/8" = 1'-0"
140
0.125
141
12.0
290
     0
  0
SCALE
  5
4A
102
{ACAD_REACTORS
330
42
102
}
330
42
100
AcDbScale
 70
     0
300
3/16" = 1'-0"
140
0.1875
141
12.0
290
     0
  0
SCALE
  5
4B
102
{ACAD_REACTORS
330
42
102
}
330
42
100
AcDbScale
 70
     0
300
1/4" = 1'-0"
140
0.25
141
12.0
290
     0
  0
SCALE
  5
4C
102
{ACAD_REACTORS
330
42
102
}
330
42
100
AcDbScale
 70
     0
300
3/8" = 1'-0"
140
0.375
141
12.0
290
     0
  0
SCALE
  5
4D
102
{ACAD_REACTORS
330
42
102
}
330
42
100
AcDbScale
 70
     0
300
1/2" = 1'-0"
140
0.5
141
12.0
290
     0
  0
SCALE
  5
4E
102
{ACAD_REACTORS
330
42
102
}
330
42
100
AcDbScale
 70
     0
300
3/4" = 1'-0"
140
0.75
141
12.0
290
     0
  0
SCALE
  5
4F
102
{ACAD_REACTORS
330
42
102
}
330
42
100
AcDbScale
 70
     0
300
1" = 1'-0"
140
1.0
141
12.0
290
     0
  0
SCALE
  5
50
102
{ACAD_REACTORS
330
42
102
}
330
42
100
AcDbScale
 70
     0
300
1-1/2" = 1'-0"
140
1.5
141
12.0
290
     0
  0
SCALE
  5
51
102
{ACAD_REACTORS
330
42
102
}
330
42
100
AcDbScale
 70
     0
300
3" = 1'-0"
140
3.0
141
12.0
290
     0
  0
SCALE
  5
52
102
{ACAD_REACTORS
330
42
102
}
330
42
100
AcDbScale
 70
     0
300
6" = 1'-0"
140
6.0
141
12.0
290
     0
  0
SCALE
  5
53
102
{ACAD_REACTORS
330
42
102
}
330
42
100
AcDbScale
 70
     0
300
1'-0" = 1'-0"
140
12.0
141
12.0
290
     0
  0
ACDBSECTIONVIEWSTYLE
  5
69
102
{ACAD_XDICTIONARY
360
4F6
102
}
102
{ACAD_REACTORS
330
68
102
}
330
68
100
AcDbModelDocViewStyle
 70
     0
  3
Imperial24
290
     0
100
AcDbSectionViewStyle
 70
     0
 71
     0
 90
       78
 71
     1
340
55
 62
   256
 40
0.24
340
0
340
0
 62
   256
 40
0.24
300
I, O, Q, S, X, Z
 40
0.48
 90
        3
 40
0.18
 90
        1
 71
     2
340
5D
 90
       25
 62
   256
340
5D
 90
       50
 62
   256
 40
0.24
 40
0.0
 40
0.24
 71
     3
340
55
 62
   256
 40
0.24
 90
        1
 40
0.75
 90
        1
300
%<\AcVar ViewType \f "%tc1">% %<\AcVar ViewSectionStartId>%-%<\AcVar ViewSectionEndId>%\PSCALE %<\AcVar ViewScale \f "%sn">%
 71
     4
 62
   256
 62
   257
300
ANSI31
 40
1.0
 90
        0
290
     0
290
     0
 90
        6
 40
0.0
 40
1.570796
 40
0.261799
 40
1.308997
 40
-0.261799
 40
1.832596
  0
TABLESTYLE
  5
65
102
{ACAD_XDICTIONARY
360
4F3
102
}
102
{ACAD_REACTORS
330
64
102
}
330
64
100
AcDbTableStyle
280
     0
  3
Standard
 70
     0
 71
     0
 40
0.06
 41
0.06
280
     0
281
     0
  7
Standard
140
0.18
170
     2
 62
     0
 63
     7
283
     0
 90
      512
 91
        0
  1

274
    -2
284
     1
 64
     0
275
    -2
285
     1
 65
     0
276
    -2
286
     1
 66
     0
277
    -2
287
     1
 67
     0
278
    -2
288
     1
 68
     0
279
    -2
289
     1
 69
     0
  7
Standard
140
0.25
170
     5
 62
     0
 63
     7
283
     0
 90
      512
 91
        0
  1

274
    -2
284
     1
 64
     0
275
    -2
285
     1
 65
     0
276
    -2
286
     1
 66
     0
277
    -2
287
     1
 67
     0
278
    -2
288
     1
 68
     0
279
    -2
289
     1
 69
     0
  7
Standard
140
0.18
170
     5
 62
     0
 63
     7
283
     0
 90
      512
 91
        0
  1

274
    -2
284
     1
 64
     0
275
    -2
285
     1
 65
     0
276
    -2
286
     1
 66
     0
277
    -2
287
     1
 67
     0
278
    -2
288
     1
 68
     0
279
    -2
289
     1
 69
     0
  0
VISUALSTYLE
  5
2F
102
{ACAD_REACTORS
330
29
102
}
330
29
100
AcDbVisualStyle
  2
2dWireframe
 70
     4
177
     3
291
     0
 70
    58
 90
        0
176
     1
 90
        2
176
     1
 90
        0
176
     1
 90
        0
176
     1
 40
0.6
176
     1
 40
30.0
176
     1
 62
     7
420
 16777215
176
     1
 90
        1
176
     1
 90
        4
176
     1
 62
     7
176
     1
 62
   257
176
     1
 90
        1
176
     1
 90
        1
176
     1
 40
1.0
176
     1
 90
        0
176
     1
 62
   257
176
     1
 40
1.0
176
     1
 90
        1
176
     1
 90
        6
176
     1
 90
        2
176
     1
 62
     7
176
     1
 90
        5
176
     1
 90
        0
176
     1
 90
        0
176
     1
290
     0
176
     1
 90
        1
176
     1
 40
0.0
176
     1
 90
        0
176
     1
290
     1
176
     1
290
     1
176
     1
290
     0
176
     1
290
     0
176
     1
290
     0
176
     1
290
     0
176
     1
290
     0
176
     1
290
     0
176
     1
290
     0
176
     1
 90
       50
176
     1
 40
0.0
176
     1
 40
1.0
176
     1
 90
        0
176
     1
 62
    18
420
        0
176
     1
 90
       50
176
     1
 90
        3
176
     1
 62
     5
420
      255
176
     1
290
     0
176
     1
 90
       50
176
     1
 90
       50
176
     1
 90
       50
176
     1
290
     0
176
     1
 90
       50
176
     1
 62
   256
176
     0
 40
1.0
176
     0
 90
        2
176
     1
  1
strokes_ogs.tif
176
     1
290
     0
176
     1
 40
1.0
176
     1
 40
1.0
176
     1
1001
ACAD
1000
AcDbSavedByObjectVersion
1070
     0
  0
VISUALSTYLE
  5
2E
102
{ACAD_REACTORS
330
29
102
}
330
29
100
AcDbVisualStyle
  2
Basic
 70
     7
177
     3
291
     1
 70
    58
 90
        1
176
     1
 90
        0
176
     1
 90
        1
176
     1
 90
        0
176
     1
 40
0.6
176
     1
 40
30.0
176
     1
 62
     7
420
 16777215
176
     1
 90
        0
176
     1
 90
        4
176
     1
 62
     7
176
     1
 62
   257
176
     1
 90
        1
176
     1
 90
        1
176
     1
 40
1.0
176
     1
 90
        8
176
     1
 62
     7
176
     1
 40
1.0
176
     1
 90
        1
176
     1
 90
        6
176
     1
 90
        2
176
     1
 62
     7
176
     1
 90
        5
176
     1
 90
        0
176
     1
 90
        0
176
     1
290
     0
176
     1
 90
        1
176
     1
 40
0.0
176
     1
 90
        0
176
     1
290
     0
176
     1
290
     1
176
     1
290
     1
176
     1
290
     0
176
     1
290
     0
176
     1
290
     0
176
     1
290
     0
176
     1
290
     0
176
     1
290
     0
176
     1
 90
       50
176
     1
 40
0.0
176
     1
 40
1.0
176
     1
 90
        0
176
     1
 62
    18
420
        0
176
     1
 90
       50
176
     1
 90
        3
176
     1
 62
     5
420
      255
176
     1
290
     0
176
     1
 90
       50
176
     1
 90
       50
176
     1
 90
       50
176
     1
290
     0
176
     1
 90
       50
176
     1
 62
   256
176
     0
 40
1.0
176
     0
 90
        2
176
     1
  1
strokes_ogs.tif
176
     1
290
     0
176
     1
 40
1.0
176
     1
 40
1.0
176
     1
1001
ACAD
1000
AcDbSavedByObjectVersion
1070
     0
  0
VISUALSTYLE
  5
35
102
{ACAD_REACTORS
330
29
102
}
330
29
100
AcDbVisualStyle
  2
Brighten
 70
    12
177
     3
291
     1
 70
    58
 90
        2
176
     1
 90
        2
176
     1
 90
        0
176
     1
 90
        0
176
     1
 40
0.6
176
     1
 40
30.0
176
     1
 62
     7
420
 16777215
176
     1
 90
        1
176
     1
 90
        4
176
     1
 62
     7
176
     1
 62
   257
176
     1
 90
        1
176
     1
 90
        1
176
     1
 40
1.0
176
     1
 90
        8
176
     1
 62
     7
176
     1
 40
1.0
176
     1
 90
        1
176
     1
 90
        6
176
     1
 90
        2
176
     1
 62
     7
176
     1
 90
        5
176
     1
 90
        0
176
     1
 90
        0
176
     1
290
     0
176
     1
 90
        1
176
     1
 40
50.0
176
     1
 90
        0
176
     1
290
     0
176
     1
290
     1
176
     1
290
     1
176
     1
290
     0
176
     1
290
     0
176
     1
290
     0
176
     1
290
     0
176
     1
290
     0
176
     1
290
     0
176
     1
 90
       50
176
     1
 40
0.0
176
     1
 40
1.0
176
     1
 90
        0
176
     1
 62
    18
420
        0
176
     1
 90
       50
176
     1
 90
        3
176
     1
 62
     5
420
      255
176
     1
290
     0
176
     1
 90
       50
176
     1
 90
       50
176
     1
 90
       50
176
     1
290
     0
176
     1
 90
       50
176
     1
 62
   256
176
     0
 40
1.0
176
     0
 90
        2
176
     1
  1
strokes_ogs.tif
176
     1
290
     0
176
     1
 40
1.0
176
     1
 40
1.0
176
     1
1001
ACAD
1000
AcDbSavedByObjectVersion
1070
     0
  0
VISUALSTYLE
  5
39
102
{ACAD_REACTORS
330
29
102
}
330
29
100
AcDbVisualStyle
  2
ColorChange
 70
    16
177
     3
291
     1
 70
    58
 90
        2
176
     1
 90
        2
176
     1
 90
        3
176
     1
 90
        0
176
     1
 40
0.6
176
     1
 40
30.0
176
     1
 62
     8
420
  8421504
176
     1
 90
        1
176
     1
 90
        4
176
     1
 62
     7
176
     1
 62
   257
176
     1
 90
        1
176
     1
 90
        1
176
     1
 40
1.0
176
     1
 90
        8
176
     1
 62
     8
420
  8421504
176
     1
 40
1.0
176
     1
 90
        1
176
     1
 90
        6
176
     1
 90
        2
176
     1
 62
     7
176
     1
 90
        5
176
     1
 90
        0
176
     1
 90
        0
176
     1
290
     0
176
     1
 90
        1
176
     1
 40
0.0
176
     1
 90
        0
176
     1
290
     0
176
     1
290
     1
176
     1
290
     1
176
     1
290
     0
176
     1
290
     0
176
     1
290
     0
176
     1
290
     0
176
     1
290
     0
176
     1
290
     0
176
     1
 90
       50
176
     1
 40
0.0
176
     1
 40
1.0
176
     1
 90
        0
176
     1
 62
    18
420
        0
176
     1
 90
       50
176
     1
 90
        3
176
     1
 62
     5
420
      255
176
     1
290
     0
176
     1
 90
       50
176
     1
 90
       50
176
     1
 90
       50
176
     1
290
     0
176
     1
 90
       50
176
     1
 62
   256
176
     0
 40
1.0
176
     0
 90
        2
176
     1
  1
strokes_ogs.tif
176
     1
290
     0
176
     1
 40
1.0
176
     1
 40
1.0
176
     1
1001
ACAD
1000
AcDbSavedByObjectVersion
1070
     0
  0
VISUALSTYLE
  5
32
102
{ACAD_REACTORS
330
29
102
}
330
29
100
AcDbVisualStyle
  2
Conceptual
 70
     9
177
     3
291
     0
 70
    58
 90
        3
176
     1
 90
        2
176
     1
 90
        0
176
     1
 90
        0
176
     1
 40
0.6
176
     1
 40
30.0
176
     1
 62
     7
420
 16777215
176
     1
 90
        2
176
     1
 90
        2
176
     1
 62
     7
176
     1
 62
   257
176
     1
 90
        1
176
     1
 90
        1
176
     1
 40
179.0
176
     1
 90
        8
176
     1
 62
     7
176
     1
 40
1.0
176
     1
 90
        1
176
     1
 90
        6
176
     1
 90
        2
176
     1
 62
     7
176
     1
 90
        3
176
     1
 90
        0
176
     1
 90
        0
176
     1
290
     0
176
     1
 90
        1
176
     1
 40
0.0
176
     1
 90
        0
176
     1
290
     0
176
     1
290
     1
176
     1
290
     1
176
     1
290
     0
176
     1
290
     0
176
     1
290
     0
176
     1
290
     0
176
     1
290
     0
176
     1
290
     0
176
     1
 90
       50
176
     1
 40
0.0
176
     1
 40
1.0
176
     1
 90
        0
176
     1
 62
    18
420
        0
176
     1
 90
       50
176
     1
 90
        3
176
     1
 62
     5
420
      255
176
     1
290
     0
176
     1
 90
       50
176
     1
 90
       50
176
     1
 90
       50
176
     1
290
     0
176
     1
 90
       50
176
     1
 62
   256
176
     0
 40
1.0
176
     0
 90
        2
176
     1
  1
strokes_ogs.tif
176
     1
290
     0
176
     1
 40
1.0
176
     1
 40
1.0
176
     1
1001
ACAD
1000
AcDbSavedByObjectVersion
1070
     0
  0
VISUALSTYLE
  5
34
102
{ACAD_REACTORS
330
29
102
}
330
29
100
AcDbVisualStyle
  2
Dim
 70
    11
177
     3
291
     1
 70
    58
 90
        2
176
     1
 90
        2
176
     1
 90
        0
176
     1
 90
        0
176
     1
 40
0.6
176
     1
 40
30.0
176
     1
 62
     7
420
 16777215
176
     1
 90
        1
176
     1
 90
        4
176
     1
 62
     7
176
     1
 62
   257
176
     1
 90
        1
176
     1
 90
        1
176
     1
 40
1.0
176
     1
 90
        8
176
     1
 62
     7
176
     1
 40
1.0
176
     1
 90
        1
176
     1
 90
        6
176
     1
 90
        2
176
     1
 62
     7
176
     1
 90
        5
176
     1
 90
        0
176
     1
 90
        0
176
     1
290
     0
176
     1
 90
        1
176
     1
 40
-50.0
176
     1
 90
        0
176
     1
290
     0
176
     1
290
     1
176
     1
290
     1
176
     1
290
     0
176
     1
290
     0
176
     1
290
     0
176
     1
290
     0
176
     1
290
     0
176
     1
290
     0
176
     1
 90
       50
176
     1
 40
0.0
176
     1
 40
1.0
176
     1
 90
        0
176
     1
 62
    18
420
        0
176
     1
 90
       50
176
     1
 90
        3
176
     1
 62
     5
420
      255
176
     1
290
     0
176
     1
 90
       50
176
     1
 90
       50
176
     1
 90
       50
176
     1
290
     0
176
     1
 90
       50
176
     1
 62
   256
176
     0
 40
1.0
176
     0
 90
        2
176
     1
  1
strokes_ogs.tif
176
     1
290
     0
176
     1
 40
1.0
176
     1
 40
1.0
176
     1
1001
ACAD
1000
AcDbSavedByObjectVersion
1070
     0
  0
VISUALSTYLE
  5
41
102
{ACAD_REACTORS
330
29
102
}
330
29
100
AcDbVisualStyle
  2
EdgeColorOff
 70
    22
177
     3
291
     1
 70
    58
 90
        2
176
     0
 90
        2
176
     0
 90
        0
176
     0
 90
        0
176
     0
 40
0.6
176
     0
 40
30.0
176
     0
 62
     7
420
 16777215
176
     0
 90
        1
176
     0
 90
        4
176
     0
 62
     7
176
     0
 62
   257
176
     0
 90
        1
176
     0
 90
        1
176
     0
 40
1.0
176
     0
 90
        8
176
     2
 62
     7
176
     0
 40
1.0
176
     0
 90
        1
176
     0
 90
        6
176
     0
 90
        2
176
     0
 62
     7
176
     0
 90
        5
176
     0
 90
        0
176
     0
 90
        0
176
     0
290
     0
176
     0
 90
        1
176
     0
 40
0.0
176
     0
 90
        0
176
     0
290
     0
176
     0
290
     1
176
     0
290
     1
176
     0
290
     0
176
     0
290
     0
176
     0
290
     0
176
     0
290
     0
176
     0
290
     0
176
     0
290
     0
176
     0
 90
       50
176
     0
 40
0.0
176
     0
 40
1.0
176
     0
 90
        0
176
     0
 62
    18
420
        0
176
     0
 90
       50
176
     0
 90
        3
176
     0
 62
     5
420
      255
176
     0
290
     0
176
     0
 90
       50
176
     0
 90
       50
176
     0
 90
       50
176
     0
290
     0
176
     0
 90
       50
176
     0
 62
   256
176
     0
 40
1.0
176
     0
 90
        2
176
     0
  1
strokes_ogs.tif
176
     0
290
     0
176
     0
 40
1.0
176
     0
 40
1.0
176
     0
1001
ACAD
1000
AcDbSavedByObjectVersion
1070
     0
  0
VISUALSTYLE
  5
38
102
{ACAD_REACTORS
330
29
102
}
330
29
100
AcDbVisualStyle
  2
Facepattern
 70
    15
177
     3
291
     1
 70
    58
 90
        2
176
     1
 90
        2
176
     1
 90
        0
176
     1
 90
        0
176
     1
 40
0.6
176
     1
 40
30.0
176
     1
 62
     7
420
 16777215
176
     1
 90
        1
176
     1
 90
        4
176
     1
 62
     7
176
     1
 62
   257
176
     1
 90
        1
176
     1
 90
        1
176
     1
 40
1.0
176
     1
 90
        8
176
     1
 62
     7
176
     1
 40
1.0
176
     1
 90
        1
176
     1
 90
        6
176
     1
 90
        2
176
     1
 62
     7
176
     1
 90
        5
176
     1
 90
        0
176
     1
 90
        0
176
     1
290
     0
176
     1
 90
        1
176
     1
 40
0.0
176
     1
 90
        0
176
     1
290
     0
176
     1
290
     1
176
     1
290
     1
176
     1
290
     0
176
     1
290
     0
176
     1
290
     0
176
     1
290
     0
176
     1
290
     0
176
     1
290
     0
176
     1
 90
       50
176
     1
 40
0.0
176
     1
 40
1.0
176
     1
 90
        0
176
     1
 62
    18
420
        0
176
     1
 90
       50
176
     1
 90
        3
176
     1
 62
     5
420
      255
176
     1
290
     0
176
     1
 90
       50
176
     1
 90
       50
176
     1
 90
       50
176
     1
290
     0
176
     1
 90
       50
176
     1
 62
   256
176
     0
 40
1.0
176
     0
 90
        2
176
     1
  1
strokes_ogs.tif
176
     1
290
     0
176
     1
 40
1.0
176
     1
 40
1.0
176
     1
1001
ACAD
1000
AcDbSavedByObjectVersion
1070
     0
  0
VISUALSTYLE
  5
2A
102
{ACAD_REACTORS
330
29
102
}
330
29
100
AcDbVisualStyle
  2
Flat
 70
     0
177
     3
291
     1
 70
    58
 90
        2
176
     1
 90
        1
176
     1
 90
        1
176
     1
 90
        2
176
     1
 40
0.6
176
     1
 40
30.0
176
     1
 62
     7
420
 16777215
176
     1
 90
        0
176
     1
 90
        0
176
     1
 62
     7
176
     1
 62
   257
176
     1
 90
        1
176
     1
 90
        1
176
     1
 40
1.0
176
     1
 90
        8
176
     1
 62
     7
176
     1
 40
1.0
176
     1
 90
        1
176
     1
 90
        6
176
     1
 90
        2
176
     1
 62
     7
176
     1
 90
        5
176
     1
 90
        0
176
     1
 90
        0
176
     1
290
     0
176
     1
 90
       13
176
     1
 40
0.0
176
     1
 90
        0
176
     1
290
     0
176
     1
290
     1
176
     1
290
     1
176
     1
290
     0
176
     1
290
     0
176
     1
290
     0
176
     1
290
     0
176
     1
290
     0
176
     1
290
     0
176
     1
 90
       50
176
     1
 40
0.0
176
     1
 40
1.0
176
     1
 90
        0
176
     1
 62
    18
420
        0
176
     1
 90
       50
176
     1
 90
        3
176
     1
 62
     5
420
      255
176
     1
290
     0
176
     1
 90
       50
176
     1
 90
       50
176
     1
 90
       50
176
     1
290
     0
176
     1
 90
       50
176
     1
 62
   256
176
     0
 40
1.0
176
     0
 90
        2
176
     1
  1
strokes_ogs.tif
176
     1
290
     0
176
     1
 40
1.0
176
     1
 40
1.0
176
     1
1001
ACAD
1000
AcDbSavedByObjectVersion
1070
     0
  0
VISUALSTYLE
  5
2B
102
{ACAD_REACTORS
330
29
102
}
330
29
100
AcDbVisualStyle
  2
FlatWithEdges
 70
     1
177
     3
291
     1
 70
    58
 90
        2
176
     1
 90
        1
176
     1
 90
        1
176
     1
 90
        2
176
     1
 40
0.6
176
     1
 40
30.0
176
     1
 62
     7
420
 16777215
176
     1
 90
        1
176
     1
 90
        0
176
     1
 62
     7
176
     1
 62
   257
176
     1
 90
        1
176
     1
 90
        1
176
     1
 40
1.0
176
     1
 90
        0
176
     1
 62
   257
176
     1
 40
1.0
176
     1
 90
        1
176
     1
 90
        6
176
     1
 90
        2
176
     1
 62
     7
176
     1
 90
        5
176
     1
 90
        0
176
     1
 90
        0
176
     1
290
     0
176
     1
 90
       13
176
     1
 40
0.0
176
     1
 90
        0
176
     1
290
     0
176
     1
290
     1
176
     1
290
     1
176
     1
290
     0
176
     1
290
     0
176
     1
290
     0
176
     1
290
     0
176
     1
290
     0
176
     1
290
     0
176
     1
 90
       50
176
     1
 40
0.0
176
     1
 40
1.0
176
     1
 90
        0
176
     1
 62
    18
420
        0
176
     1
 90
       50
176
     1
 90
        3
176
     1
 62
     5
420
      255
176
     1
290
     0
176
     1
 90
       50
176
     1
 90
       50
176
     1
 90
       50
176
     1
290
     0
176
     1
 90
       50
176
     1
 62
   256
176
     0
 40
1.0
176
     0
 90
        2
176
     1
  1
strokes_ogs.tif
176
     1
290
     0
176
     1
 40
1.0
176
     1
 40
1.0
176
     1
1001
ACAD
1000
AcDbSavedByObjectVersion
1070
     0
  0
VISUALSTYLE
  5
2C
102
{ACAD_REACTORS
330
29
102
}
330
29
100
AcDbVisualStyle
  2
Gouraud
 70
     2
177
     3
291
     1
 70
    58
 90
        2
176
     1
 90
        2
176
     1
 90
        1
176
     1
 90
        2
176
     1
 40
0.6
176
     1
 40
30.0
176
     1
 62
     7
420
 16777215
176
     1
 90
        0
176
     1
 90
        0
176
     1
 62
     7
176
     1
 62
   257
176
     1
 90
        1
176
     1
 90
        1
176
     1
 40
1.0
176
     1
 90
        0
176
     1
 62
     7
176
     1
 40
1.0
176
     1
 90
        1
176
     1
 90
        6
176
     1
 90
        2
176
     1
 62
     7
176
     1
 90
        5
176
     1
 90
        0
176
     1
 90
        0
176
     1
290
     0
176
     1
 90
       13
176
     1
 40
0.0
176
     1
 90
        0
176
     1
290
     0
176
     1
290
     1
176
     1
290
     1
176
     1
290
     0
176
     1
290
     0
176
     1
290
     0
176
     1
290
     0
176
     1
290
     0
176
     1
290
     0
176
     1
 90
       50
176
     1
 40
0.0
176
     1
 40
1.0
176
     1
 90
        0
176
     1
 62
    18
420
        0
176
     1
 90
       50
176
     1
 90
        3
176
     1
 62
     5
420
      255
176
     1
290
     0
176
     1
 90
       50
176
     1
 90
       50
176
     1
 90
       50
176
     1
290
     0
176
     1
 90
       50
176
     1
 62
   256
176
     0
 40
1.0
176
     0
 90
        2
176
     1
  1
strokes_ogs.tif
176
     1
290
     0
176
     1
 40
1.0
176
     1
 40
1.0
176
     1
1001
ACAD
1000
AcDbSavedByObjectVersion
1070
     0
  0
VISUALSTYLE
  5
2D
102
{ACAD_REACTORS
330
29
102
}
330
29
100
AcDbVisualStyle
  2
GouraudWithEdges
 70
     3
177
     3
291
     1
 70
    58
 90
        2
176
     1
 90
        2
176
     1
 90
        1
176
     1
 90
        2
176
     1
 40
0.6
176
     1
 40
30.0
176
     1
 62
     7
420
 16777215
176
     1
 90
        1
176
     1
 90
        0
176
     1
 62
     7
176
     1
 62
   257
176
     1
 90
        1
176
     1
 90
        1
176
     1
 40
1.0
176
     1
 90
        0
176
     1
 62
   257
176
     1
 40
1.0
176
     1
 90
        1
176
     1
 90
        6
176
     1
 90
        2
176
     1
 62
     7
176
     1
 90
        5
176
     1
 90
        0
176
     1
 90
        0
176
     1
290
     0
176
     1
 90
       13
176
     1
 40
0.0
176
     1
 90
        0
176
     1
290
     0
176
     1
290
     1
176
     1
290
     1
176
     1
290
     0
176
     1
290
     0
176
     1
290
     0
176
     1
290
     0
176
     1
290
     0
176
     1
290
     0
176
     1
 90
       50
176
     1
 40
0.0
176
     1
 40
1.0
176
     1
 90
        0
176
     1
 62
    18
420
        0
176
     1
 90
       50
176
     1
 90
        3
176
     1
 62
     5
420
      255
176
     1
290
     0
176
     1
 90
       50
176
     1
 90
       50
176
     1
 90
       50
176
     1
290
     0
176
     1
 90
       50
176
     1
 62
   256
176
     0
 40
1.0
176
     0
 90
        2
176
     1
  1
strokes_ogs.tif
176
     1
290
     0
176
     1
 40
1.0
176
     1
 40
1.0
176
     1
1001
ACAD
1000
AcDbSavedByObjectVersion
1070
     0
  0
VISUALSTYLE
  5
31
102
{ACAD_REACTORS
330
29
102
}
330
29
100
AcDbVisualStyle
  2
Hidden
 70
     6
177
     3
291
     0
 70
    58
 90
        1
176
     1
 90
        2
176
     1
 90
        2
176
     1
 90
        0
176
     1
 40
0.6
176
     1
 40
30.0
176
     1
 62
     7
420
 16777215
176
     1
 90
        2
176
     1
 90
        2
176
     1
 62
     7
176
     1
 62
   257
176
     1
 90
        2
176
     1
 90
        1
176
     1
 40
40.0
176
     1
 90
        0
176
     1
 62
   257
176
     1
 40
1.0
176
     1
 90
        1
176
     1
 90
        6
176
     1
 90
        2
176
     1
 62
     7
176
     1
 90
        3
176
     1
 90
        0
176
     1
 90
        0
176
     1
290
     0
176
     1
 90
        1
176
     1
 40
0.0
176
     1
 90
        0
176
     1
290
     0
176
     1
290
     1
176
     1
290
     1
176
     1
290
     0
176
     1
290
     0
176
     1
290
     0
176
     1
290
     0
176
     1
290
     0
176
     1
290
     0
176
     1
 90
       50
176
     1
 40
0.0
176
     1
 40
1.0
176
     1
 90
        0
176
     1
 62
    18
420
        0
176
     1
 90
       50
176
     1
 90
        3
176
     1
 62
     5
420
      255
176
     1
290
     0
176
     1
 90
       50
176
     1
 90
       50
176
     1
 90
       50
176
     1
290
     0
176
     1
 90
       50
176
     1
 62
   256
176
     0
 40
1.0
176
     0
 90
        2
176
     1
  1
strokes_ogs.tif
176
     1
290
     0
176
     1
 40
1.0
176
     1
 40
1.0
176
     1
1001
ACAD
1000
AcDbSavedByObjectVersion
1070
     0
  0
VISUALSTYLE
  5
3F
102
{ACAD_REACTORS
330
29
102
}
330
29
100
AcDbVisualStyle
  2
JitterOff
 70
    20
177
     3
291
     1
 70
    58
 90
        2
176
     0
 90
        2
176
     0
 90
        0
176
     0
 90
        0
176
     0
 40
0.6
176
     0
 40
30.0
176
     0
 62
     7
420
 16777215
176
     0
 90
        1
176
     0
 90
        4
176
     0
 62
     7
176
     0
 62
   257
176
     0
 90
        1
176
     0
 90
        1
176
     0
 40
1.0
176
     0
 90
       10
176
     2
 62
     7
176
     0
 40
1.0
176
     0
 90
        1
176
     0
 90
        6
176
     0
 90
        2
176
     0
 62
     7
176
     0
 90
        5
176
     0
 90
        0
176
     0
 90
        0
176
     0
290
     0
176
     0
 90
        1
176
     0
 40
0.0
176
     0
 90
        0
176
     0
290
     0
176
     0
290
     1
176
     0
290
     1
176
     0
290
     0
176
     0
290
     0
176
     0
290
     0
176
     0
290
     0
176
     0
290
     0
176
     0
290
     0
176
     0
 90
       50
176
     0
 40
0.0
176
     0
 40
1.0
176
     0
 90
        0
176
     0
 62
    18
420
        0
176
     0
 90
       50
176
     0
 90
        3
176
     0
 62
     5
420
      255
176
     0
290
     0
176
     0
 90
       50
176
     0
 90
       50
176
     0
 90
       50
176
     0
290
     0
176
     0
 90
       50
176
     0
 62
   256
176
     0
 40
1.0
176
     0
 90
        2
176
     0
  1
strokes_ogs.tif
176
     0
290
     0
176
     0
 40
1.0
176
     0
 40
1.0
176
     0
1001
ACAD
1000
AcDbSavedByObjectVersion
1070
     0
  0
VISUALSTYLE
  5
37
102
{ACAD_REACTORS
330
29
102
}
330
29
100
AcDbVisualStyle
  2
Linepattern
 70
    14
177
     3
291
     1
 70
    58
 90
        2
176
     1
 90
        2
176
     1
 90
        0
176
     1
 90
        0
176
     1
 40
0.6
176
     1
 40
30.0
176
     1
 62
     7
420
 16777215
176
     1
 90
        1
176
     1
 90
        4
176
     1
 62
     7
176
     1
 62
   257
176
     1
 90
        7
176
     1
 90
        7
176
     1
 40
1.0
176
     1
 90
        8
176
     1
 62
     7
176
     1
 40
1.0
176
     1
 90
        1
176
     1
 90
        6
176
     1
 90
        2
176
     1
 62
     7
176
     1
 90
        5
176
     1
 90
        0
176
     1
 90
        0
176
     1
290
     0
176
     1
 90
        1
176
     1
 40
0.0
176
     1
 90
        0
176
     1
290
     0
176
     1
290
     1
176
     1
290
     1
176
     1
290
     0
176
     1
290
     0
176
     1
290
     0
176
     1
290
     0
176
     1
290
     0
176
     1
290
     0
176
     1
 90
       50
176
     1
 40
0.0
176
     1
 40
1.0
176
     1
 90
        0
176
     1
 62
    18
420
        0
176
     1
 90
       50
176
     1
 90
        3
176
     1
 62
     5
420
      255
176
     1
290
     0
176
     1
 90
       50
176
     1
 90
       50
176
     1
 90
       50
176
     1
290
     0
176
     1
 90
       50
176
     1
 62
   256
176
     0
 40
1.0
176
     0
 90
        2
176
     1
  1
strokes_ogs.tif
176
     1
290
     0
176
     1
 40
1.0
176
     1
 40
1.0
176
     1
1001
ACAD
1000
AcDbSavedByObjectVersion
1070
     0
  0
VISUALSTYLE
  5
40
102
{ACAD_REACTORS
330
29
102
}
330
29
100
AcDbVisualStyle
  2
OverhangOff
 70
    21
177
     3
291
     1
 70
    58
 90
        2
176
     0
 90
        2
176
     0
 90
        0
176
     0
 90
        0
176
     0
 40
0.6
176
     0
 40
30.0
176
     0
 62
     7
420
 16777215
176
     0
 90
        1
176
     0
 90
        4
176
     0
 62
     7
176
     0
 62
   257
176
     0
 90
        1
176
     0
 90
        1
176
     0
 40
1.0
176
     0
 90
        9
176
     2
 62
     7
176
     0
 40
1.0
176
     0
 90
        1
176
     0
 90
        6
176
     0
 90
        2
176
     0
 62
     7
176
     0
 90
        5
176
     0
 90
        0
176
     0
 90
        0
176
     0
290
     0
176
     0
 90
        1
176
     0
 40
0.0
176
     0
 90
        0
176
     0
290
     0
176
     0
290
     1
176
     0
290
     1
176
     0
290
     0
176
     0
290
     0
176
     0
290
     0
176
     0
290
     0
176
     0
290
     0
176
     0
290
     0
176
     0
 90
       50
176
     0
 40
0.0
176
     0
 40
1.0
176
     0
 90
        0
176
     0
 62
    18
420
        0
176
     0
 90
       50
176
     0
 90
        3
176
     0
 62
     5
420
      255
176
     0
290
     0
176
     0
 90
       50
176
     0
 90
       50
176
     0
 90
       50
176
     0
290
     0
176
     0
 90
       50
176
     0
 62
   256
176
     0
 40
1.0
176
     0
 90
        2
176
     0
  1
strokes_ogs.tif
176
     0
290
     0
176
     0
 40
1.0
176
     0
 40
1.0
176
     0
1001
ACAD
1000
AcDbSavedByObjectVersion
1070
     0
  0
VISUALSTYLE
  5
33
102
{ACAD_REACTORS
330
29
102
}
330
29
100
AcDbVisualStyle
  2
Realistic
 70
     8
177
     3
291
     0
 70
    58
 90
        2
176
     1
 90
        3
176
     1
 90
        0
176
     1
 90
        2
176
     1
 40
0.6
176
     1
 40
30.0
176
     1
 62
     7
420
 16777215
176
     1
 90
        0
176
     1
 90
        0
176
     1
 62
     7
176
     1
 62
   257
176
     1
 90
        1
176
     1
 90
        1
176
     1
 40
1.0
176
     1
 90
        8
176
     1
 62
   257
176
     1
 40
1.0
176
     1
 90
        1
176
     1
 90
        6
176
     1
 90
        2
176
     1
 62
     7
176
     1
 90
        3
176
     1
 90
        0
176
     1
 90
        0
176
     1
290
     0
176
     1
 90
       13
176
     1
 40
0.0
176
     1
 90
        0
176
     1
290
     0
176
     1
290
     1
176
     1
290
     1
176
     1
290
     0
176
     1
290
     0
176
     1
290
     0
176
     1
290
     0
176
     1
290
     0
176
     1
290
     0
176
     1
 90
       50
176
     1
 40
0.0
176
     1
 40
1.0
176
     1
 90
        0
176
     1
 62
    18
420
        0
176
     1
 90
       50
176
     1
 90
        3
176
     1
 62
     5
420
      255
176
     1
290
     0
176
     1
 90
       50
176
     1
 90
       50
176
     1
 90
       50
176
     1
290
     0
176
     1
 90
       50
176
     1
 62
   256
176
     0
 40
1.0
176
     0
 90
        2
176
     1
  1
strokes_ogs.tif
176
     1
290
     0
176
     1
 40
1.0
176
     1
 40
1.0
176
     1
1001
ACAD
1000
AcDbSavedByObjectVersion
1070
     0
  0
VISUALSTYLE
  5
3E
102
{ACAD_REACTORS
330
29
102
}
330
29
100
AcDbVisualStyle
  2
Shaded
 70
    27
177
     3
291
     0
 70
    58
 90
        2
176
     1
 90
        2
176
     1
 90
        1
176
     1
 90
        2
176
     1
 40
0.6
176
     1
 40
30.0
176
     1
 62
     7
420
 16777215
176
     1
 90
        0
176
     1
 90
        4
176
     1
 62
     7
176
     1
 62
   257
176
     1
 90
        1
176
     1
 90
        1
176
     1
 40
1.0
176
     1
 90
        8
176
     1
 62
   257
176
     1
 40
1.0
176
     1
 90
        1
176
     1
 90
        6
176
     1
 90
        2
176
     1
 62
     8
420
  7895160
176
     1
 90
        3
176
     1
 90
        0
176
     1
 90
        0
176
     1
290
     0
176
     1
 90
        5
176
     1
 40
0.0
176
     1
 90
        0
176
     1
290
     0
176
     1
290
     1
176
     1
290
     1
176
     1
290
     0
176
     1
290
     0
176
     1
290
     0
176
     1
290
     0
176
     1
290
     0
176
     1
290
     0
176
     1
 90
       50
176
     1
 40
0.0
176
     1
 40
1.0
176
     1
 90
        0
176
     1
 62
    18
420
        0
176
     1
 90
       50
176
     1
 90
        3
176
     1
 62
     5
420
      255
176
     1
290
     0
176
     1
 90
       50
176
     1
 90
       50
176
     1
 90
       50
176
     1
290
     0
176
     1
 90
       50
176
     1
 62
   256
176
     0
 40
1.0
176
     0
 90
        2
176
     1
  1
strokes_ogs.tif
176
     1
290
     0
176
     1
 40
1.0
176
     1
 40
1.0
176
     1
1001
ACAD
1000
AcDbSavedByObjectVersion
1070
     0
  0
VISUALSTYLE
  5
3D
102
{ACAD_REACTORS
330
29
102
}
330
29
100
AcDbVisualStyle
  2
Shaded with edges
 70
    26
177
     3
291
     0
 70
    58
 90
        2
176
     1
 90
        2
176
     1
 90
        1
176
     1
 90
        2
176
     1
 40
0.6
176
     1
 40
30.0
176
     1
 62
     7
420
 16777215
176
     1
 90
        1
176
     1
 90
        2
176
     1
 62
     7
176
     1
 62
   257
176
     1
 90
        2
176
     1
 90
        1
176
     1
 40
1.0
176
     1
 90
        8
176
     1
 62
   257
176
     1
 40
1.0
176
     1
 90
        1
176
     1
 90
        6
176
     1
 90
        2
176
     1
 62
     7
176
     1
 90
        3
176
     1
 90
        0
176
     1
 90
        0
176
     1
290
     0
176
     1
 90
        5
176
     1
 40
0.0
176
     1
 90
        0
176
     1
290
     0
176
     1
290
     1
176
     1
290
     1
176
     1
290
     0
176
     1
290
     0
176
     1
290
     0
176
     1
290
     0
176
     1
290
     0
176
     1
290
     0
176
     1
 90
       50
176
     1
 40
0.0
176
     1
 40
1.0
176
     1
 90
        0
176
     1
 62
    18
420
        0
176
     1
 90
       50
176
     1
 90
        3
176
     1
 62
     5
420
      255
176
     1
290
     0
176
     1
 90
       50
176
     1
 90
       50
176
     1
 90
       50
176
     1
290
     0
176
     1
 90
       50
176
     1
 62
   256
176
     0
 40
1.0
176
     0
 90
        2
176
     1
  1
strokes_ogs.tif
176
     1
290
     0
176
     1
 40
1.0
176
     1
 40
1.0
176
     1
1001
ACAD
1000
AcDbSavedByObjectVersion
1070
     0
  0
VISUALSTYLE
  5
3A
102
{ACAD_REACTORS
330
29
102
}
330
29
100
AcDbVisualStyle
  2
Shades of Gray
 70
    23
177
     3
291
     0
 70
    58
 90
        2
176
     1
 90
        2
176
     1
 90
        3
176
     1
 90
        0
176
     1
 40
0.6
176
     1
 40
30.0
176
     1
 62
     7
420
 16777215
176
     1
 90
        2
176
     1
 90
        2
176
     1
 62
     7
176
     1
 62
     7
176
     1
 90
        1
176
     1
 90
        1
176
     1
 40
40.0
176
     1
 90
        8
176
     1
 62
     7
176
     1
 40
1.0
176
     1
 90
        1
176
     1
 90
        6
176
     1
 90
        2
176
     1
 62
     7
176
     1
 90
        3
176
     1
 90
        0
176
     1
 90
        0
176
     1
290
     0
176
     1
 90
        1
176
     1
 40
0.0
176
     1
 90
        0
176
     1
290
     0
176
     1
290
     1
176
     1
290
     1
176
     1
290
     0
176
     1
290
     0
176
     1
290
     0
176
     1
290
     0
176
     1
290
     0
176
     1
290
     0
176
     1
 90
       50
176
     1
 40
0.0
176
     1
 40
1.0
176
     1
 90
        0
176
     1
 62
    18
420
        0
176
     1
 90
       50
176
     1
 90
        3
176
     1
 62
     5
420
      255
176
     1
290
     0
176
     1
 90
       50
176
     1
 90
       50
176
     1
 90
       50
176
     1
290
     0
176
     1
 90
       50
176
     1
 62
   256
176
     0
 40
1.0
176
     0
 90
        2
176
     1
  1
strokes_ogs.tif
176
     1
290
     0
176
     1
 40
1.0
176
     1
 40
1.0
176
     1
1001
ACAD
1000
AcDbSavedByObjectVersion
1070
     0
  0
VISUALSTYLE
  5
3B
102
{ACAD_REACTORS
330
29
102
}
330
29
100
AcDbVisualStyle
  2
Sketchy
 70
    24
177
     3
291
     0
 70
    58
 90
        1
176
     1
 90
        2
176
     1
 90
        2
176
     1
 90
        0
176
     1
 40
0.6
176
     1
 40
30.0
176
     1
 62
     7
420
 16777215
176
     1
 90
        2
176
     1
 90
        2
176
     1
 62
     7
176
     1
 62
     7
176
     1
 90
        1
176
     1
 90
        1
176
     1
 40
40.0
176
     1
 90
       11
176
     1
 62
     7
176
     1
 40
1.0
176
     1
 90
        1
176
     1
 90
        6
176
     1
 90
        2
176
     1
 62
     7
176
     1
 90
        6
176
     1
 90
        0
176
     1
 90
        0
176
     1
290
     0
176
     1
 90
        1
176
     1
 40
0.0
176
     1
 90
        0
176
     1
290
     0
176
     1
290
     1
176
     1
290
     1
176
     1
290
     0
176
     1
290
     0
176
     1
290
     0
176
     1
290
     0
176
     1
290
     0
176
     1
290
     0
176
     1
 90
       50
176
     1
 40
0.0
176
     1
 40
1.0
176
     1
 90
        0
176
     1
 62
    18
420
        0
176
     1
 90
       50
176
     1
 90
        3
176
     1
 62
     5
420
      255
176
     1
290
     0
176
     1
 90
       50
176
     1
 90
       50
176
     1
 90
       50
176
     1
290
     0
176
     1
 90
       50
176
     1
 62
   256
176
     0
 40
1.0
176
     0
 90
        2
176
     1
  1
strokes_ogs.tif
176
     1
290
     0
176
     1
 40
1.0
176
     1
 40
1.0
176
     1
1001
ACAD
1000
AcDbSavedByObjectVersion
1070
     0
  0
VISUALSTYLE
  5
36
102
{ACAD_REACTORS
330
29
102
}
330
29
100
AcDbVisualStyle
  2
Thicken
 70
    13
177
     3
291
     1
 70
    58
 90
        2
176
     1
 90
        2
176
     1
 90
        0
176
     1
 90
        0
176
     1
 40
0.6
176
     1
 40
30.0
176
     1
 62
     7
420
 16777215
176
     1
 90
        1
176
     1
 90
        4
176
     1
 62
     7
176
     1
 62
   257
176
     1
 90
        1
176
     1
 90
        1
176
     1
 40
1.0
176
     1
 90
       12
176
     1
 62
     7
176
     1
 40
1.0
176
     1
 90
        1
176
     1
 90
        6
176
     1
 90
        2
176
     1
 62
     7
176
     1
 90
        5
176
     1
 90
        0
176
     1
 90
        0
176
     1
290
     0
176
     1
 90
        1
176
     1
 40
0.0
176
     1
 90
        0
176
     1
290
     0
176
     1
290
     1
176
     1
290
     1
176
     1
290
     0
176
     1
290
     0
176
     1
290
     0
176
     1
290
     0
176
     1
290
     0
176
     1
290
     0
176
     1
 90
       50
176
     1
 40
0.0
176
     1
 40
1.0
176
     1
 90
        0
176
     1
 62
    18
420
        0
176
     1
 90
       50
176
     1
 90
        3
176
     1
 62
     5
420
      255
176
     1
290
     0
176
     1
 90
       50
176
     1
 90
       50
176
     1
 90
       50
176
     1
290
     0
176
     1
 90
       50
176
     1
 62
   256
176
     0
 40
1.0
176
     0
 90
        2
176
     1
  1
strokes_ogs.tif
176
     1
290
     0
176
     1
 40
1.0
176
     1
 40
1.0
176
     1
1001
ACAD
1000
AcDbSavedByObjectVersion
1070
     0
  0
VISUALSTYLE
  5
30
102
{ACAD_REACTORS
330
29
102
}
330
29
100
AcDbVisualStyle
  2
Wireframe
 70
     5
177
     3
291
     0
 70
    58
 90
        0
176
     1
 90
        2
176
     1
 90
        0
176
     1
 90
        0
176
     1
 40
0.6
176
     1
 40
30.0
176
     1
 62
     7
420
 16777215
176
     1
 90
        1
176
     1
 90
        4
176
     1
 62
     7
176
     1
 62
   257
176
     1
 90
        1
176
     1
 90
        1
176
     1
 40
1.0
176
     1
 90
        0
176
     1
 62
   257
176
     1
 40
1.0
176
     1
 90
        1
176
     1
 90
        6
176
     1
 90
        2
176
     1
 62
     7
176
     1
 90
        3
176
     1
 90
        0
176
     1
 90
        0
176
     1
290
     0
176
     1
 90
        1
176
     1
 40
0.0
176
     1
 90
        0
176
     1
290
     0
176
     1
290
     1
176
     1
290
     1
176
     1
290
     0
176
     1
290
     0
176
     1
290
     0
176
     1
290
     0
176
     1
290
     0
176
     1
290
     0
176
     1
 90
       50
176
     1
 40
0.0
176
     1
 40
1.0
176
     1
 90
        0
176
     1
 62
    18
420
        0
176
     1
 90
       50
176
     1
 90
        3
176
     1
 62
     5
420
      255
176
     1
290
     0
176
     1
 90
       50
176
     1
 90
       50
176
     1
 90
       50
176
     1
290
     0
176
     1
 90
       50
176
     1
 62
   256
176
     0
 40
1.0
176
     0
 90
        2
176
     1
  1
strokes_ogs.tif
176
     1
290
     0
176
     1
 40
1.0
176
     1
 40
1.0
176
     1
1001
ACAD
1000
AcDbSavedByObjectVersion
1070
     0
  0
VISUALSTYLE
  5
3C
102
{ACAD_REACTORS
330
29
102
}
330
29
100
AcDbVisualStyle
  2
X-Ray
 70
    25
177
     3
291
     0
 70
    58
 90
        2
176
     1
 90
        2
176
     1
 90
        1
176
     1
 90
        1
176
     1
 40
0.5
176
     1
 40
30.0
176
     1
 62
     7
420
 16777215
176
     1
 90
        1
176
     1
 90
        0
176
     1
 62
     7
176
     1
 62
   257
176
     1
 90
        1
176
     1
 90
        1
176
     1
 40
1.0
176
     1
 90
        8
176
     1
 62
     7
176
     1
 40
1.0
176
     1
 90
        1
176
     1
 90
        6
176
     1
 90
        2
176
     1
 62
     7
176
     1
 90
        3
176
     1
 90
        0
176
     1
 90
        0
176
     1
290
     0
176
     1
 90
       13
176
     1
 40
0.0
176
     1
 90
        0
176
     1
290
     0
176
     1
290
     1
176
     1
290
     1
176
     1
290
     0
176
     1
290
     0
176
     1
290
     0
176
     1
290
     0
176
     1
290
     0
176
     1
290
     0
176
     1
 90
       50
176
     1
 40
0.0
176
     1
 40
1.0
176
     1
 90
        0
176
     1
 62
    18
420
        0
176
     1
 90
       50
176
     1
 90
        3
176
     1
 62
     5
420
      255
176
     1
290
     0
176
     1
 90
       50
176
     1
 90
       50
176
     1
 90
       50
176
     1
290
     0
176
     1
 90
       50
176
     1
 62
   256
176
     0
 40
1.0
176
     0
 90
        2
176
     1
  1
strokes_ogs.tif
176
     1
290
     0
176
     1
 40
1.0
176
     1
 40
1.0
176
     1
1001
ACAD
1000
AcDbSavedByObjectVersion
1070
     0
  0
DICTIONARYVAR
  5
4F1
102
{ACAD_REACTORS
330
4EC
102
}
330
4EC
100
DictionaryVariables
280
     0
  1
0
  0
DICTIONARYVAR
  5
4F2
102
{ACAD_REACTORS
330
4EC
102
}
330
4EC
100
DictionaryVariables
280
     0
  1
1:1
  0
DICTIONARYVAR
  5
4EE
102
{ACAD_REACTORS
330
4EC
102
}
330
4EC
100
DictionaryVariables
280
     0
  1
STANDARD
  0
DICTIONARYVAR
  5
4ED
102
{ACAD_REACTORS
330
4EC
102
}
330
4EC
100
DictionaryVariables
280
     0
  1
STANDARD
  0
DICTIONARYVAR
  5
4EF
102
{ACAD_REACTORS
330
4EC
102
}
330
4EC
100
DictionaryVariables
280
     0
  1
Imperial24
  0
DICTIONARYVAR
  5
4F0
102
{ACAD_REACTORS
330
4EC
102
}
330
4EC
100
DictionaryVariables
280
     0
  1
Imperial24
  0
DICTIONARY
  5
4F8
330
6B
100
AcDbDictionary
280
     1
281
     1
  3
ACAD_XREC_ROUNDTRIP
360
4F9
  0
DICTIONARY
  5
1A
330
19
100
AcDbDictionary
280
     1
281
     1
  3
BUMPTILE
360
1C
  3
DIFFUSETILE
360
1B
  3
OPACITYTILE
360
1F
  3
REFLECTIONTILE
360
1E
  3
REFRACTIONTILE
360
20
  3
SPECULARTILE
360
1D
  0
DICTIONARY
  5
12
330
11
100
AcDbDictionary
280
     1
281
     1
  3
BUMPTILE
360
14
  3
DIFFUSETILE
360
13
  3
OPACITYTILE
360
17
  3
REFLECTIONTILE
360
16
  3
REFRACTIONTILE
360
18
  3
SPECULARTILE
360
15
  0
DICTIONARY
  5
22
330
21
100
AcDbDictionary
280
     1
281
     1
  3
BUMPTILE
360
24
  3
DIFFUSETILE
360
23
  3
OPACITYTILE
360
27
  3
REFLECTIONTILE
360
26
  3
REFRACTIONTILE
360
28
  3
SPECULARTILE
360
25
  0
DICTIONARY
  5
4F6
330
69
100
AcDbDictionary
280
     1
281
     1
  3
ACAD_XREC_ROUNDTRIP
360
4F7
  0
DICTIONARY
  5
4F3
330
65
100
AcDbDictionary
280
     1
281
     1
  3
ACAD_ROUNDTRIP_2008_TABLESTYLE_CELLSTYLEMAP
360
4F4
  0
XRECORD
  5
4F9
102
{ACAD_REACTORS
330
4F8
102
}
330
4F8
100
AcDbXrecord
280
     1
102
DISPLAYNAME
  1
Imperial24
102
FLAGS
 90
        0
  0
XRECORD
  5
1C
102
{ACAD_REACTORS
330
1A
102
}
330
1A
100
AcDbXrecord
280
     1
270
     1
271
     1
  0
XRECORD
  5
1B
102
{ACAD_REACTORS
330
1A
102
}
330
1A
100
AcDbXrecord
280
     1
270
     1
271
     1
  0
XRECORD
  5
1F
102
{ACAD_REACTORS
330
1A
102
}
330
1A
100
AcDbXrecord
280
     1
270
     1
271
     1
  0
XRECORD
  5
1E
102
{ACAD_REACTORS
330
1A
102
}
330
1A
100
AcDbXrecord
280
     1
270
     1
271
     1
  0
XRECORD
  5
20
102
{ACAD_REACTORS
330
1A
102
}
330
1A
100
AcDbXrecord
280
     1
270
     1
271
     1
  0
XRECORD
  5
1D
102
{ACAD_REACTORS
330
1A
102
}
330
1A
100
AcDbXrecord
280
     1
270
     1
271
     1
  0
XRECORD
  5
14
102
{ACAD_REACTORS
330
12
102
}
330
12
100
AcDbXrecord
280
     1
270
     1
271
     1
  0
XRECORD
  5
13
102
{ACAD_REACTORS
330
12
102
}
330
12
100
AcDbXrecord
280
     1
270
     1
271
     1
  0
XRECORD
  5
17
102
{ACAD_REACTORS
330
12
102
}
330
12
100
AcDbXrecord
280
     1
270
     1
271
     1
  0
XRECORD
  5
16
102
{ACAD_REACTORS
330
12
102
}
330
12
100
AcDbXrecord
280
     1
270
     1
271
     1
  0
XRECORD
  5
18
102
{ACAD_REACTORS
330
12
102
}
330
12
100
AcDbXrecord
280
     1
270
     1
271
     1
  0
XRECORD
  5
15
102
{ACAD_REACTORS
330
12
102
}
330
12
100
AcDbXrecord
280
     1
270
     1
271
     1
  0
XRECORD
  5
24
102
{ACAD_REACTORS
330
22
102
}
330
22
100
AcDbXrecord
280
     1
270
     1
271
     1
  0
XRECORD
  5
23
102
{ACAD_REACTORS
330
22
102
}
330
22
100
AcDbXrecord
280
     1
270
     1
271
     1
  0
XRECORD
  5
27
102
{ACAD_REACTORS
330
22
102
}
330
22
100
AcDbXrecord
280
     1
270
     1
271
     1
  0
XRECORD
  5
26
102
{ACAD_REACTORS
330
22
102
}
330
22
100
AcDbXrecord
280
     1
270
     1
271
     1
  0
XRECORD
  5
28
102
{ACAD_REACTORS
330
22
102
}
330
22
100
AcDbXrecord
280
     1
270
     1
271
     1
  0
XRECORD
  5
25
102
{ACAD_REACTORS
330
22
102
}
330
22
100
AcDbXrecord
280
     1
270
     1
271
     1
  0
XRECORD
  5
4F7
102
{ACAD_REACTORS
330
4F6
102
}
330
4F6
100
AcDbXrecord
280
     1
102
DISPLAYNAME
  1
Imperial24
102
FLAGS
 90
        0
  0
CELLSTYLEMAP
  5
4F4
102
{ACAD_REACTORS
330
4F3
102
}
330
4F3
100
AcDbCellStyleMap
 90
        3
300
CELLSTYLE
  1
TABLEFORMAT_BEGIN
 90
        5
170
     1
 91
        0
 92
    32768
 62
   257
 93
        1
300
CONTENTFORMAT
  1
CONTENTFORMAT_BEGIN
 90
        0
 91
        0
 92
      512
 93
        0
300

 40
0.0
140
1.0
 94
        5
 62
     0
340
55
144
0.25
309
CONTENTFORMAT_END
171
     0
 94
        0
309
TABLEFORMAT_END
  1
CELLSTYLE_BEGIN
 90
        1
 91
        1
300
_TITLE
309
CELLSTYLE_END
300
CELLSTYLE
  1
TABLEFORMAT_BEGIN
 90
        5
170
     1
 91
        0
 92
        0
 62
   257
 93
        1
300
CONTENTFORMAT
  1
CONTENTFORMAT_BEGIN
 90
        0
 91
        0
 92
      512
 93
        0
300

 40
0.0
140
1.0
 94
        5
 62
     0
340
55
144
0.18
309
CONTENTFORMAT_END
171
     0
 94
        0
309
TABLEFORMAT_END
  1
CELLSTYLE_BEGIN
 90
        2
 91
        1
300
_HEADER
309
CELLSTYLE_END
300
CELLSTYLE
  1
TABLEFORMAT_BEGIN
 90
        5
170
     1
 91
        0
 92
        0
 62
   257
 93
        1
300
CONTENTFORMAT
  1
CONTENTFORMAT_BEGIN
 90
        0
 91
        0
 92
      512
 93
        0
300

 40
0.0
140
1.0
 94
        2
 62
     0
340
55
144
0.18
309
CONTENTFORMAT_END
171
     0
 94
        0
309
TABLEFORMAT_END
  1
CELLSTYLE_BEGIN
 90
        3
 91
        2
300
_DATA
309
CELLSTYLE_END
  0
ENDSEC
  0
EOF
