  0
SECTION
  2
HEADER
  9
$ACADVER
  1
AC1027
  9
$ACADMAINTVER
 70
   125
  9
$DWGCODEPAGE
  3
ANSI_1252
  9
$LASTSAVEDBY
  1
Administrator
  9
$REQUIREDVERSIONS
160
                 0
  9
$INSBASE
 10
0.0
 20
0.0
 30
0.0
  9
$EXTMIN
 10
0.0
 20
0.0
 30
-2.253698
  9
$EXTMAX
 10
17.0
 20
11.0
 30
2.327873
  9
$LIMMIN
 10
0.0
 20
0.0
  9
$LIMMAX
 10
17.0
 20
11.0
  9
$ORTHOMODE
 70
     0
  9
$REGENMODE
 70
     1
  9
$FILLMODE
 70
     1
  9
$QTEXTMODE
 70
     0
  9
$MIRRTEXT
 70
     0
  9
$LTSCALE
 40
0.75
  9
$ATTMODE
 70
     1
  9
$TEXTSIZE
 40
0.12
  9
$TRACEWID
 40
0.05
  9
$TEXTSTYLE
  7
Standard
  9
$CLAYER
  8
Titleblock
  9
$CELTYPE
  6
ByLayer
  9
$CECOLOR
 62
   256
  9
$CELTSCALE
 40
1.0
  9
$DISPSILH
 70
     0
  9
$DIMSCALE
 40
1.0
  9
$DIMASZ
 40
0.12
  9
$DIMEXO
 40
0.05
  9
$DIMDLI
 40
0.339411
  9
$DIMRND
 40
0.0
  9
$DIMDLE
 40
0.0
  9
$DIMEXE
 40
0.1
  9
$DIMTP
 40
0.01
  9
$DIMTM
 40
0.01
  9
$DIMTXT
 40
0.12
  9
$DIMCEN
 40
0.0
  9
$DIMTSZ
 40
0.0
  9
$DIMTOL
 70
     0
  9
$DIMLIM
 70
     0
  9
$DIMTIH
 70
     1
  9
$DIMTOH
 70
     1
  9
$DIMSE1
 70
     0
  9
$DIMSE2
 70
     0
  9
$DIMTAD
 70
     0
  9
$DIMZIN
 70
    12
  9
$DIMBLK
  1

  9
$DIMASO
 70
     1
  9
$DIMSHO
 70
     1
  9
$DIMPOST
  1
in
  9
$DIMAPOST
  1
mm
  9
$DIMALT
 70
     0
  9
$DIMALTD
 70
     2
  9
$DIMALTF
 40
25.4
  9
$DIMLFAC
 40
1.0
  9
$DIMTOFL
 70
     0
  9
$DIMTVP
 40
0.0
  9
$DIMTIX
 70
     0
  9
$DIMSOXD
 70
     0
  9
$DIMSAH
 70
     0
  9
$DIMBLK1
  1

  9
$DIMBLK2
  1

  9
$DIMSTYLE
  2
Standard
  9
$DIMCLRD
 70
   256
  9
$DIMCLRE
 70
   256
  9
$DIMCLRT
 70
   256
  9
$DIMTFAC
 40
1.0
  9
$DIMGAP
 40
0.06
  9
$DIMJUST
 70
     0
  9
$DIMSD1
 70
     0
  9
$DIMSD2
 70
     0
  9
$DIMTOLJ
 70
     1
  9
$DIMTZIN
 70
    12
  9
$DIMALTZ
 70
    12
  9
$DIMALTTZ
 70
    12
  9
$DIMUPT
 70
     0
  9
$DIMDEC
 70
     2
  9
$DIMTDEC
 70
     2
  9
$DIMALTU
 70
     2
  9
$DIMALTTD
 70
     2
  9
$DIMTXSTY
  7
Standard
  9
$DIMAUNIT
 70
     0
  9
$DIMADEC
 70
     2
  9
$DIMALTRND
 40
0.0
  9
$DIMAZIN
 70
     3
  9
$DIMDSEP
 70
    46
  9
$DIMATFIT
 70
     3
  9
$DIMFRAC
 70
     0
  9
$DIMLDRBLK
  1

  9
$DIMLUNIT
 70
     2
  9
$DIMLWD
 70
    -2
  9
$DIMLWE
 70
    -2
  9
$DIMTMOVE
 70
     0
  9
$DIMFXL
 40
1.0
  9
$DIMFXLON
 70
     0
  9
$DIMJOGANG
 40
0.785398
  9
$DIMTFILL
 70
     0
  9
$DIMTFILLCLR
 70
     0
  9
$DIMARCSYM
 70
     1
  9
$DIMLTYPE
  6

  9
$DIMLTEX1
  6

  9
$DIMLTEX2
  6

  9
$DIMTXTDIRECTION
 70
     0
  9
$LUNITS
 70
     2
  9
$LUPREC
 70
     4
  9
$SKETCHINC
 40
0.1
  9
$FILLETRAD
 40
0.0
  9
$AUNITS
 70
     0
  9
$AUPREC
 70
     0
  9
$MENU
  1
.
  9
$ELEVATION
 40
0.0
  9
$PELEVATION
 40
0.0
  9
$THICKNESS
 40
0.0
  9
$LIMCHECK
 70
     0
  9
$CHAMFERA
 40
0.0
  9
$CHAMFERB
 40
0.0
  9
$CHAMFERC
 40
0.0
  9
$CHAMFERD
 40
0.0
  9
$SKPOLY
 70
     0
  9
$TDCREATE
 40
2458869.405821759
  9
$TDUCREATE
 40
2458869.739155093
  9
$TDUPDATE
 40
2458869.405821759
  9
$TDUUPDATE
 40
2458869.739155093
  9
$TDINDWG
 40
0.0000115741
  9
$TDUSRTIMER
 40
0.0000115741
  9
$USRTIMER
 70
     1
  9
$ANGBASE
 50
0.0
  9
$ANGDIR
 70
     0
  9
$PDMODE
 70
     0
  9
$PDSIZE
 40
0.0
  9
$PLINEWID
 40
0.0
  9
$SPLFRAME
 70
     0
  9
$SPLINETYPE
 70
     6
  9
$SPLINESEGS
 70
     8
  9
$HANDSEED
  5
347
  9
$SURFTAB1
 70
     6
  9
$SURFTAB2
 70
     6
  9
$SURFTYPE
 70
     6
  9
$SURFU
 70
     6
  9
$SURFV
 70
     6
  9
$UCSBASE
  2

  9
$UCSNAME
  2

  9
$UCSORG
 10
0.0
 20
0.0
 30
0.0
  9
$UCSXDIR
 10
1.0
 20
0.0
 30
0.0
  9
$UCSYDIR
 10
0.0
 20
1.0
 30
0.0
  9
$UCSORTHOREF
  2

  9
$UCSORTHOVIEW
 70
     0
  9
$UCSORGTOP
 10
0.0
 20
0.0
 30
0.0
  9
$UCSORGBOTTOM
 10
0.0
 20
0.0
 30
0.0
  9
$UCSORGLEFT
 10
0.0
 20
0.0
 30
0.0
  9
$UCSORGRIGHT
 10
0.0
 20
0.0
 30
0.0
  9
$UCSORGFRONT
 10
0.0
 20
0.0
 30
0.0
  9
$UCSORGBACK
 10
0.0
 20
0.0
 30
0.0
  9
$PUCSBASE
  2

  9
$PUCSNAME
  2

  9
$PUCSORG
 10
0.0
 20
0.0
 30
0.0
  9
$PUCSXDIR
 10
1.0
 20
0.0
 30
0.0
  9
$PUCSYDIR
 10
0.0
 20
1.0
 30
0.0
  9
$PUCSORTHOREF
  2

  9
$PUCSORTHOVIEW
 70
     0
  9
$PUCSORGTOP
 10
0.0
 20
0.0
 30
0.0
  9
$PUCSORGBOTTOM
 10
0.0
 20
0.0
 30
0.0
  9
$PUCSORGLEFT
 10
0.0
 20
0.0
 30
0.0
  9
$PUCSORGRIGHT
 10
0.0
 20
0.0
 30
0.0
  9
$PUCSORGFRONT
 10
0.0
 20
0.0
 30
0.0
  9
$PUCSORGBACK
 10
0.0
 20
0.0
 30
0.0
  9
$USERI1
 70
     0
  9
$USERI2
 70
     0
  9
$USERI3
 70
     0
  9
$USERI4
 70
     0
  9
$USERI5
 70
     0
  9
$USERR1
 40
0.0
  9
$USERR2
 40
0.0
  9
$USERR3
 40
0.0
  9
$USERR4
 40
0.0
  9
$USERR5
 40
0.0
  9
$WORLDVIEW
 70
     1
  9
$SHADEDGE
 70
     3
  9
$SHADEDIF
 70
    70
  9
$TILEMODE
 70
     1
  9
$MAXACTVP
 70
    64
  9
$PINSBASE
 10
0.0
 20
0.0
 30
0.0
  9
$PLIMCHECK
 70
     0
  9
$PEXTMIN
 10
1.000000E+20
 20
1.000000E+20
 30
1.000000E+20
  9
$PEXTMAX
 10
-1.000000E+20
 20
-1.000000E+20
 30
-1.000000E+20
  9
$PLIMMIN
 10
0.0
 20
0.0
  9
$PLIMMAX
 10
12.0
 20
9.0
  9
$UNITMODE
 70
     0
  9
$VISRETAIN
 70
     1
  9
$PLINEGEN
 70
     0
  9
$PSLTSCALE
 70
     1
  9
$TREEDEPTH
 70
  3020
  9
$CMLSTYLE
  2
Standard
  9
$CMLJUST
 70
     0
  9
$CMLSCALE
 40
1.0
  9
$PROXYGRAPHICS
 70
     1
  9
$MEASUREMENT
 70
     0
  9
$CELWEIGHT
370
    -1
  9
$ENDCAPS
280
     0
  9
$JOINSTYLE
280
     0
  9
$LWDISPLAY
290
     0
  9
$INSUNITS
 70
     1
  9
$HYPERLINKBASE
  1

  9
$STYLESHEET
  1

  9
$XEDIT
290
     1
  9
$CEPSNTYPE
380
     0
  9
$PSTYLEMODE
290
     1
  9
$FINGERPRINTGUID
  2
{CD4615F2-7693-0342-8F82-B30F140A2C79}
  9
$VERSIONGUID
  2
{491F4D3D-4FFB-4545-9873-E027E12A9FDB}
  9
$EXTNAMES
290
     1
  9
$PSVPSCALE
 40
0.0
  9
$OLESTARTUP
290
     0
  9
$SORTENTS
280
   127
  9
$INDEXCTL
280
     0
  9
$HIDETEXT
280
     1
  9
$XCLIPFRAME
280
     2
  9
$HALOGAP
280
     0
  9
$OBSCOLOR
 70
   257
  9
$OBSLTYPE
280
     0
  9
$INTERSECTIONDISPLAY
280
     0
  9
$INTERSECTIONCOLOR
 70
   257
  9
$DIMASSOC
280
     2
  9
$PROJECTNAME
  1

  9
$CAMERADISPLAY
290
     0
  9
$LENSLENGTH
 40
50.0
  9
$CAMERAHEIGHT
 40
0.0
  9
$STEPSPERSEC
 40
2.0
  9
$STEPSIZE
 40
6.0
  9
$3DDWFPREC
 40
2.0
  9
$PSOLWIDTH
 40
0.25
  9
$PSOLHEIGHT
 40
4.0
  9
$LOFTANG1
 40
1.570796
  9
$LOFTANG2
 40
1.570796
  9
$LOFTMAG1
 40
0.0
  9
$LOFTMAG2
 40
0.0
  9
$LOFTPARAM
 70
     7
  9
$LOFTNORMALS
280
     1
  9
$LATITUDE
 40
37.795
  9
$LONGITUDE
 40
-122.394
  9
$NORTHDIRECTION
 40
0.0
  9
$TIMEZONE
 70
 -8000
  9
$LIGHTGLYPHDISPLAY
280
     1
  9
$TILEMODELIGHTSYNCH
280
     1
  9
$CMATERIAL
347
11
  9
$SOLIDHIST
280
     0
  9
$SHOWHIST
280
     1
  9
$DWFFRAME
280
     2
  9
$DGNFRAME
280
     0
  9
$REALWORLDSCALE
290
     1
  9
$INTERFERECOLOR
 62
     1
  9
$INTERFEREOBJVS
345
33
  9
$INTERFEREVPVS
346
30
  9
$CSHADOW
280
     0
  9
$SHADOWPLANELOCATION
 40
0.0
  0
ENDSEC
  0
SECTION
  2
CLASSES
  0
CLASS
  1
ACDBDICTIONARYWDFLT
  2
AcDbDictionaryWithDefault
  3
ObjectDBX Classes
 90
        0
 91
        1
280
     0
281
     0
  0
CLASS
  1
MATERIAL
  2
AcDbMaterial
  3
ObjectDBX Classes
 90
     1153
 91
        3
280
     0
281
     0
  0
CLASS
  1
VISUALSTYLE
  2
AcDbVisualStyle
  3
ObjectDBX Classes
 90
     4095
 91
       24
280
     0
281
     0
  0
CLASS
  1
SCALE
  2
AcDbScale
  3
ObjectDBX Classes
 90
     1153
 91
       33
280
     0
281
     0
  0
CLASS
  1
TABLESTYLE
  2
AcDbTableStyle
  3
ObjectDBX Classes
 90
     4095
 91
        1
280
     0
281
     0
  0
CLASS
  1
MLEADERSTYLE
  2
AcDbMLeaderStyle
  3
ACDB_MLEADERSTYLE_CLASS
 90
     4095
 91
        1
280
     0
281
     0
  0
CLASS
  1
ACDBSECTIONVIEWSTYLE
  2
AcDbSectionViewStyle
  3
ObjectDBX Classes
 90
     1025
 91
        1
280
     0
281
     0
  0
CLASS
  1
ACDBDETAILVIEWSTYLE
  2
AcDbDetailViewStyle
  3
ObjectDBX Classes
 90
     1025
 91
        1
280
     0
281
     0
  0
CLASS
  1
ACMESCOPE
  2
AcMeScope
  3
AcMeServices
 90
     1024
 91
        1
280
     0
281
     0
  0
CLASS
  1
ACMECOMMANDHISTORY
  2
AcMeCommandHistory
  3
AcMeServices
 90
     1024
 91
        1
280
     0
281
     0
  0
CLASS
  1
ACIMSYSVARMAN
  2
AcImSysVarManager
  3
AcMeServices
 90
     1024
 91
        1
280
     0
281
     0
  0
CLASS
  1
ACIMINTSYSVAR
  2
AcImIntSysVar
  3
AcMeServices
 90
     1024
 91
        1
280
     0
281
     0
  0
CLASS
  1
ACMESTATEMGR
  2
AcMeStateMgr
  3
AcMeServices
 90
     1024
 91
        1
280
     0
281
     0
  0
CLASS
  1
ACGREFMASTER
  2
AcGrefMaster
  3
AcAttribServices
 90
     1024
 91
        1
280
     0
281
     0
  0
CLASS
  1
SORTENTSTABLE
  2
AcDbSortentsTable
  3
ObjectDBX Classes
 90
        0
 91
        6
280
     0
281
     0
  0
CLASS
  1
IMAGE
  2
AcDbRasterImage
  3
ISM
 90
     2175
 91
        1
280
     0
281
     1
  0
CLASS
  1
IMAGEDEF
  2
AcDbRasterImageDef
  3
ISM
 90
        0
 91
        1
280
     0
281
     0
  0
CLASS
  1
IMAGEDEF_REACTOR
  2
AcDbRasterImageDefReactor
  3
ISM
 90
        1
 91
        2
280
     0
281
     0
  0
CLASS
  1
RASTERVARIABLES
  2
AcDbRasterVariables
  3
ISM
 90
        0
 91
        1
280
     0
281
     0
  0
CLASS
  1
DICTIONARYVAR
  2
AcDbDictionaryVar
  3
ObjectDBX Classes
 90
        0
 91
        6
280
     0
281
     0
  0
CLASS
  1
CELLSTYLEMAP
  2
AcDbCellStyleMap
  3
ObjectDBX Classes
 90
     1152
 91
        1
280
     0
281
     0
  0
ENDSEC
  0
SECTION
  2
TABLES
  0
TABLE
  2
VPORT
  5
8
330
0
100
AcDbSymbolTable
 70
     1
1001
ACAD
1000
DbSaveVer
1071
      251
  0
VPORT
  5
57
330
8
100
AcDbSymbolTableRecord
100
AcDbViewportTableRecord
  2
*Active
 70
     0
 10
0.0
 20
0.0
 11
1.0
 21
1.0
 12
8.5
 22
5.5
 13
0.0
 23
0.0
 14
0.5
 24
0.5
 15
0.0
 25
0.0
 16
0.0
 26
0.0
 36
1.0
 17
0.0
 27
0.0
 37
0.0
 40
11.0
 41
1.777518
 42
50.0
 43
0.0
 44
0.0
 50
0.0
 51
0.0
 71
     0
 72
 20000
 73
     1
 74
     0
 75
     0
 76
     0
 77
     0
 78
     0
281
     0
 65
     1
110
0.0
120
0.0
130
0.0
111
1.0
121
0.0
131
0.0
112
0.0
122
1.0
132
0.0
 79
     0
146
0.0
348
2F
 60
     3
 61
     5
292
     1
282
     1
141
0.0
142
0.0
 63
   250
421
  3355443
  0
ENDTAB
  0
TABLE
  2
LTYPE
  5
5
330
0
100
AcDbSymbolTable
 70
    10
  0
LTYPE
  5
5B
330
5
100
AcDbSymbolTableRecord
100
AcDbLinetypeTableRecord
  2
ByBlock
 70
     0
  3

 72
    65
 73
     0
 40
0.0
  0
LTYPE
  5
5C
330
5
100
AcDbSymbolTableRecord
100
AcDbLinetypeTableRecord
  2
ByLayer
 70
     0
  3

 72
    65
 73
     0
 40
0.0
  0
LTYPE
  5
5D
330
5
100
AcDbSymbolTableRecord
100
AcDbLinetypeTableRecord
  2
Continuous
 70
     0
  3
Solid line
 72
    65
 73
     0
 40
0.0
  0
LTYPE
  5
81
330
5
100
AcDbSymbolTableRecord
100
AcDbLinetypeTableRecord
  2
HIDDEN
 70
     0
  3
Hidden __ __ __ __ __ __ __ __ __ __ __ __ __ _
 72
    65
 73
     2
 40
0.375
 49
0.25
 74
     0
 49
-0.125
 74
     0
  0
LTYPE
  5
82
330
5
100
AcDbSymbolTableRecord
100
AcDbLinetypeTableRecord
  2
PHANTOM2
 70
     0
  3
Phantom (.5x) ___ _ _ ___ _ _ ___ _ _ ___ _ _
 72
    65
 73
     6
 40
1.25
 49
0.625
 74
     0
 49
-0.125
 74
     0
 49
0.125
 74
     0
 49
-0.125
 74
     0
 49
0.125
 74
     0
 49
-0.125
 74
     0
  0
LTYPE
  5
83
330
5
100
AcDbSymbolTableRecord
100
AcDbLinetypeTableRecord
  2
CENTER
 70
     0
  3
Center ____ _ ____ _ ____ _ ____ _ ____ _ ____
 72
    65
 73
     4
 40
2.0
 49
1.25
 74
     0
 49
-0.25
 74
     0
 49
0.25
 74
     0
 49
-0.25
 74
     0
  0
LTYPE
  5
9A
330
5
100
AcDbSymbolTableRecord
100
AcDbLinetypeTableRecord
  2
CENTER2
 70
     0
  3
Center (.5x) ___ _ ___ _ ___ _ ___ _ ___ _ ___
 72
    65
 73
     4
 40
1.125
 49
0.75
 74
     0
 49
-0.125
 74
     0
 49
0.125
 74
     0
 49
-0.125
 74
     0
  0
LTYPE
  5
9B
330
5
100
AcDbSymbolTableRecord
100
AcDbLinetypeTableRecord
  2
HIDDEN2
 70
     0
  3
Hidden (.5x) _ _ _ _ _ _ _ _ _ _ _ _ _ _ _ _ _
 72
    65
 73
     2
 40
0.1875
 49
0.125
 74
     0
 49
-0.0625
 74
     0
  0
LTYPE
  5
9C
330
5
100
AcDbSymbolTableRecord
100
AcDbLinetypeTableRecord
  2
Amconstr
 70
     0
  3
_______________________
 72
    65
 73
     2
 40
9999.0
 49
9999.0
 74
     0
 49
0.0
 74
     0
  0
LTYPE
  5
9D
330
5
100
AcDbSymbolTableRecord
100
AcDbLinetypeTableRecord
  2
Amzigzag2
 70
     0
  3
/\/-/\/-/\/-/\/-/\/-/\/
 72
    65
 73
     2
 40
0.4401
 49
0.0001
 74
     4
 75
   136
340
97
 46
0.0016
 50
0.0
 44
0.0
 45
0.0
 49
-0.44
 74
     0
  0
LTYPE
  5
9E
330
5
100
AcDbSymbolTableRecord
100
AcDbLinetypeTableRecord
  2
ACANSTGB
 70
     0
  3
__ . . __ . .
 72
    65
 73
     6
 40
0.354331
 49
0.15748
 74
     0
 49
-0.03937
 74
     0
 49
0.03937
 74
     0
 49
-0.03937
 74
     0
 49
0.03937
 74
     0
 49
-0.03937
 74
     0
  0
LTYPE
  5
9F
330
5
100
AcDbSymbolTableRecord
100
AcDbLinetypeTableRecord
  2
ACANSTGL
 70
     0
  3
_ _ _ _ _
 72
    65
 73
     2
 40
0.11811
 49
0.07874
 74
     0
 49
-0.03937
 74
     0
  0
ENDTAB
  0
TABLE
  2
LAYER
  5
2
330
0
100
AcDbSymbolTable
 70
    10
  0
LAYER
  5
54
330
2
100
AcDbSymbolTableRecord
100
AcDbLayerTableRecord
  2
0
 70
     0
 62
     7
  6
Continuous
370
    -3
390
F
347
21
348
0
1001
AcAecLayerStandard
1000

1000

  0
LAYER
  5
79
330
2
100
AcDbSymbolTableRecord
100
AcDbLayerTableRecord
  2
Defpoints
 70
     0
 62
     7
  6
Continuous
290
     0
370
    -3
390
F
347
21
348
0
1001
AcAecLayerStandard
1000

1000

  0
LAYER
  5
B9
330
2
100
AcDbSymbolTableRecord
100
AcDbLayerTableRecord
  2
Visible
 70
     0
 62
     7
  6
Continuous
370
    50
390
F
347
21
348
0
  0
LAYER
  5
112
330
2
100
AcDbSymbolTableRecord
100
AcDbLayerTableRecord
  2
Visible Narrow
 70
     0
 62
     7
  6
Continuous
370
    35
390
F
347
21
348
0
  0
LAYER
  5
12A
330
2
100
AcDbSymbolTableRecord
100
AcDbLayerTableRecord
  2
Titleblock
 70
     0
 62
     7
  6
Continuous
370
    -3
390
F
347
21
348
0
1001
AcAecLayerStandard
1000

1000

1001
AcCmTransparency
1071
        0
  0
LAYER
  5
14F
330
2
100
AcDbSymbolTableRecord
100
AcDbLayerTableRecord
  2
Border
 70
     0
 62
     7
  6
Continuous
370
    -3
390
F
347
21
348
0
1001
AcAecLayerStandard
1000

1000

1001
AcCmTransparency
1071
        0
  0
LAYER
  5
170
330
2
100
AcDbSymbolTableRecord
100
AcDbLayerTableRecord
  2
Dimensions
 70
     0
 62
     7
  6
Continuous
370
    25
390
F
347
21
348
0
  0
ENDTAB
  0
TABLE
  2
STYLE
  5
3
330
0
100
AcDbSymbolTable
 70
     4
  0
STYLE
  5
55
330
3
100
AcDbSymbolTableRecord
100
AcDbTextStyleTableRecord
  2
Standard
 70
     0
 40
0.0
 41
1.0
 50
0.0
 71
     0
 42
0.12
  3
arial.ttf
  4

1001
ACAD
1000
Arial
1071
       34
  0
STYLE
  5
5A
330
3
100
AcDbSymbolTableRecord
100
AcDbTextStyleTableRecord
  2
Annotative
 70
     0
 40
0.0
 41
1.0
 50
0.0
 71
     0
 42
0.2
  3
txt
  4

1001
AcadAnnotative
1000
AnnotativeData
1002
{
1070
     1
1070
     1
1002
}
  0
STYLE
  5
97
330
3
100
AcDbSymbolTableRecord
100
AcDbTextStyleTableRecord
  2

 70
     1
 40
0.0
 41
1.0
 50
0.0
 71
     0
 42
0.12
  3
genltshp.shx
  4

  0
STYLE
  5
98
330
3
100
AcDbSymbolTableRecord
100
AcDbTextStyleTableRecord
  2
ACANSGDT
 70
     0
 40
0.0
 41
1.0
 50
0.0
 71
     0
 42
0.12
  3
amgdt.shx
  4

  0
ENDTAB
  0
TABLE
  2
VIEW
  5
6
330
0
100
AcDbSymbolTable
 70
     0
  0
ENDTAB
  0
TABLE
  2
UCS
  5
7
330
0
100
AcDbSymbolTable
 70
     0
  0
ENDTAB
  0
TABLE
  2
APPID
  5
9
330
0
100
AcDbSymbolTable
 70
    24
  0
APPID
  5
56
330
9
100
AcDbSymbolTableRecord
100
AcDbRegAppTableRecord
  2
ACAD
 70
     0
  0
APPID
  5
5E
330
9
100
AcDbSymbolTableRecord
100
AcDbRegAppTableRecord
  2
AcadAnnotative
 70
     0
  0
APPID
  5
78
330
9
100
AcDbSymbolTableRecord
100
AcDbRegAppTableRecord
  2
ACAD_PSEXT
 70
     0
  0
APPID
  5
7A
330
9
100
AcDbSymbolTableRecord
100
AcDbRegAppTableRecord
  2
MCAD_NO_VIS
 70
     0
  0
APPID
  5
7B
330
9
100
AcDbSymbolTableRecord
100
AcDbRegAppTableRecord
  2
ACAD_TEMP_GRAPHIC
 70
     0
  0
APPID
  5
84
330
9
100
AcDbSymbolTableRecord
100
AcDbRegAppTableRecord
  2
ACAD_DSTYLE_DIMJAG
 70
     0
  0
APPID
  5
85
330
9
100
AcDbSymbolTableRecord
100
AcDbRegAppTableRecord
  2
ACAD_DSTYLE_DIMTALN
 70
     0
  0
APPID
  5
86
330
9
100
AcDbSymbolTableRecord
100
AcDbRegAppTableRecord
  2
ACAD_NAV_VCDISPLAY
 70
     0
  0
APPID
  5
87
330
9
100
AcDbSymbolTableRecord
100
AcDbRegAppTableRecord
  2
AcAecLayerStandard
 70
     0
  0
APPID
  5
88
330
9
100
AcDbSymbolTableRecord
100
AcDbRegAppTableRecord
  2
AcCmTransparency
 70
     0
  0
APPID
  5
89
330
9
100
AcDbSymbolTableRecord
100
AcDbRegAppTableRecord
  2
ACAD_DSTYLE_DIMBREAK
 70
     0
  0
APPID
  5
8A
330
9
100
AcDbSymbolTableRecord
100
AcDbRegAppTableRecord
  2
ACAD_DSTYLE_DIMRADIAL_EXTENSION
 70
     0
  0
APPID
  5
8B
330
9
100
AcDbSymbolTableRecord
100
AcDbRegAppTableRecord
  2
FUSIONTITLEBLOCK
 70
     0
  0
APPID
  5
8C
330
9
100
AcDbSymbolTableRecord
100
AcDbRegAppTableRecord
  2
FUSIONCURRENTTITLEBLOCK
 70
     0
  0
APPID
  5
8D
330
9
100
AcDbSymbolTableRecord
100
AcDbRegAppTableRecord
  2
AcSynergy
 70
     0
  0
APPID
  5
8E
330
9
100
AcDbSymbolTableRecord
100
AcDbRegAppTableRecord
  2
ACAD_VIEW_EDGE_ID
 70
     0
  0
APPID
  5
8F
330
9
100
AcDbSymbolTableRecord
100
AcDbRegAppTableRecord
  2
GENIUS_GENSCREG_15
 70
     0
  0
APPID
  5
90
330
9
100
AcDbSymbolTableRecord
100
AcDbRegAppTableRecord
  2
GENIUS_GENOBJ-N-SDF_13
 70
     0
  0
APPID
  5
91
330
9
100
AcDbSymbolTableRecord
100
AcDbRegAppTableRecord
  2
GENIUS_GENODEF_13
 70
     0
  0
APPID
  5
92
330
9
100
AcDbSymbolTableRecord
100
AcDbRegAppTableRecord
  2
ACAD_DIMASSOC_CALC_DIMLFAC
 70
     0
  0
APPID
  5
93
330
9
100
AcDbSymbolTableRecord
100
AcDbRegAppTableRecord
  2
ACAD_DIMASSOC_DIMLFAC
 70
     0
  0
APPID
  5
94
330
9
100
AcDbSymbolTableRecord
100
AcDbRegAppTableRecord
  2
ACAD_DIMASSOC_OVERRIDDEN_DIMLFAC
 70
     0
  0
APPID
  5
95
330
9
100
AcDbSymbolTableRecord
100
AcDbRegAppTableRecord
  2
FD_ATT_APPNAME
 70
     0
  0
APPID
  5
96
330
9
100
AcDbSymbolTableRecord
100
AcDbRegAppTableRecord
  2
ACATTRIBSERVICES
 70
     0
  0
ENDTAB
  0
TABLE
  2
DIMSTYLE
  5
A
330
0
100
AcDbSymbolTable
 70
     2
100
AcDbDimStyleTable
 71
     1
340
58
  0
DIMSTYLE
105
58
102
{ACAD_REACTORS
330
16F
330
17A
330
188
330
196
330
1A4
102
}
330
A
100
AcDbSymbolTableRecord
100
AcDbDimStyleTableRecord
  2
Standard
 70
     0
  3
in
  4
mm
 41
0.12
 42
0.05
 43
0.339411
 44
0.1
 47
0.01
 48
0.01
 78
    12
 79
     3
 90
     1
140
0.12
141
0.0
147
0.06
176
   256
177
   256
178
   256
179
     2
271
     2
272
     2
284
    12
285
    12
286
    12
340
55
  0
DIMSTYLE
105
59
330
A
100
AcDbSymbolTableRecord
100
AcDbDimStyleTableRecord
  2
Annotative
 70
     0
  3
in
 40
0.0
 43
0.339411
 78
    12
 79
     3
140
0.12
179
     2
271
     2
272
     2
284
    12
285
    12
286
    12
340
55
1001
AcadAnnotative
1000
AnnotativeData
1002
{
1070
     1
1070
     1
1002
}
  0
ENDTAB
  0
TABLE
  2
BLOCK_RECORD
  5
1
330
0
100
AcDbSymbolTable
 70
    16
  0
BLOCK_RECORD
  5
70
102
{ACAD_XDICTIONARY
360
B2
102
}
330
1
100
AcDbSymbolTableRecord
100
AcDbBlockTableRecord
  2
*Model_Space
340
73
 70
     0
280
     1
281
     0
  0
BLOCK_RECORD
  5
6C
330
1
100
AcDbSymbolTableRecord
100
AcDbBlockTableRecord
  2
*Paper_Space
340
6F
 70
     0
280
     1
281
     0
  0
BLOCK_RECORD
  5
74
330
1
100
AcDbSymbolTableRecord
100
AcDbBlockTableRecord
  2
*Paper_Space0
340
77
 70
     0
280
     1
281
     0
  0
BLOCK_RECORD
  5
12B
102
{ACAD_XDICTIONARY
360
12C
102
}
330
1
100
AcDbSymbolTableRecord
100
AcDbBlockTableRecord
  2
Shower
340
0
102
{BLKREFS
331
129
102
}
 70
     1
280
     1
281
     0
1001
FUSIONTITLEBLOCK
1000
TitleBlock
  0
BLOCK_RECORD
  5
150
330
1
100
AcDbSymbolTableRecord
100
AcDbBlockTableRecord
  2
ANSI_B_SHEET
340
0
310
2800000020000000200000000100080000000000000400000000000000000000000000000000000000000000000080000080000000808000800000008000800080800000C0C0C000C0DCC000F0CAA6000020400000206000002080000020A0000020C0000020E00000400000004020000040400000406000004080000040A0
310
000040C0000040E00000600000006020000060400000606000006080000060A0000060C0000060E00000800000008020000080400000806000008080000080A0000080C0000080E00000A0000000A0200000A0400000A0600000A0800000A0A00000A0C00000A0E00000C0000000C0200000C0400000C0600000C0800000C0
310
A00000C0C00000C0E00000E0000000E0200000E0400000E0600000E0800000E0A00000E0C00000E0E00040000000400020004000400040006000400080004000A0004000C0004000E00040200000402020004020400040206000402080004020A0004020C0004020E000404000004040200040404000404060004040800040
310
40A0004040C0004040E00040600000406020004060400040606000406080004060A0004060C0004060E00040800000408020004080400040806000408080004080A0004080C0004080E00040A0000040A0200040A0400040A0600040A0800040A0A00040A0C00040A0E00040C0000040C0200040C0400040C0600040C08000
310
40C0A00040C0C00040C0E00040E0000040E0200040E0400040E0600040E0800040E0A00040E0C00040E0E00080000000800020008000400080006000800080008000A0008000C0008000E00080200000802020008020400080206000802080008020A0008020C0008020E00080400000804020008040400080406000804080
310
008040A0008040C0008040E00080600000806020008060400080606000806080008060A0008060C0008060E00080800000808020008080400080806000808080008080A0008080C0008080E00080A0000080A0200080A0400080A0600080A0800080A0A00080A0C00080A0E00080C0000080C0200080C0400080C0600080C0
310
800080C0A00080C0C00080C0E00080E0000080E0200080E0400080E0600080E0800080E0A00080E0C00080E0E000C0000000C0002000C0004000C0006000C0008000C000A000C000C000C000E000C0200000C0202000C0204000C0206000C0208000C020A000C020C000C020E000C0400000C0402000C0404000C0406000C0
310
408000C040A000C040C000C040E000C0600000C0602000C0604000C0606000C0608000C060A000C060C000C060E000C0800000C0802000C0804000C0806000C0808000C080A000C080C000C080E000C0A00000C0A02000C0A04000C0A06000C0A08000C0A0A000C0A0C000C0A0E000C0C00000C0C02000C0C04000C0C06000
310
C0C08000C0C0A000F0FBFF00A4A0A000808080000000FF0000FF000000FFFF00FF000000FF00FF00FFFF0000FFFFFF0049494949494949494949494949494949494949494949494949494949494949494949494949494949494949494949494949494949494949494949494949494949494949494949494949494949494949
310
494949494949494949494949494949494949494949494949494949494949494949494949494949494949494949494949494949494949494949494949494949494949494949494949494949494949494949494949494949494949494949494949494949494949494949494949494949494949FFFF4949494949494949494949
310
494949494949494949494949494949FFFF4949FFFFFFFFFFFFFFFFFFFFFFFFFFFFFFFFFFFFFFFFFFFFFFFFFFFFFFFFFFFF494949FF4949494949494949494949494949494949494949494949494949FF49494949FF4949494949494949494949494949494949494949494949494949FF49494949FF49494949494949494949
310
49494949494949494949494949494949FF49494949FF4949494949494949494949494949494949494949494949494949FF49494949FF4949494949494949494949494949494949494949494949494949FF49494949FF4949494949494949494949494949494949494949494949494949FF49494949FF494949494949494949
310
4949494949494949494949494949494949FF49494949FF4949494949494949494949494949494949494949494949494949FF49494949FF4949494949494949494949494949494949494949494949494949FF49494949FF4949494949494949494949494949494949494949494949494949FF49494949FF4949494949494949
310
494949494949494949494949494949494949FF49494949FF4949494949494949494949494949494949494949494949494949FF49494949FF4949494949494949494949494949494949494949494949494949FF49494949FF4949494949494949494949494949494949494949494949494949FF49494949FF49494949494949
310
49494949494949494949494949494949494949FF49494949FF4949494949494949494949494949494949494949494949494949FF494949FFFFFFFFFFFFFFFFFFFFFFFFFFFFFFFFFFFFFFFFFFFFFFFFFFFFFFFFFFFF4949FFFF4949494949494949494949494949494949494949494949494949FFFF49494949494949494949
310
49494949494949494949494949494949494949494949494949494949494949494949494949494949494949494949494949494949494949494949494949494949494949494949494949494949494949494949494949494949494949494949494949494949494949494949494949494949494949494949494949494949494949
310
4949494949494949494949494949494949494949494949494949494949494949494949494949494949494949494949494949494949494949
102
{BLKREFS
331
14E
102
}
 70
     1
280
     1
281
     0
  0
BLOCK_RECORD
  5
171
330
1
100
AcDbSymbolTableRecord
100
AcDbBlockTableRecord
  2
*D6
340
0
 70
     0
280
     1
281
     0
  0
BLOCK_RECORD
  5
17B
330
1
100
AcDbSymbolTableRecord
100
AcDbBlockTableRecord
  2
*D7
340
0
 70
     0
280
     1
281
     0
  0
BLOCK_RECORD
  5
189
330
1
100
AcDbSymbolTableRecord
100
AcDbBlockTableRecord
  2
*D8
340
0
 70
     0
280
     1
281
     0
  0
BLOCK_RECORD
  5
197
330
1
100
AcDbSymbolTableRecord
100
AcDbBlockTableRecord
  2
*D9
340
0
 70
     0
280
     1
281
     0
  0
BLOCK_RECORD
  5
1A5
330
1
100
AcDbSymbolTableRecord
100
AcDbBlockTableRecord
  2
*D10
340
0
 70
     0
280
     1
281
     0
  0
BLOCK_RECORD
  5
1B3
330
1
100
AcDbSymbolTableRecord
100
AcDbBlockTableRecord
  2
*D11
340
0
 70
     0
280
     1
281
     0
  0
BLOCK_RECORD
  5
1BC
330
1
100
AcDbSymbolTableRecord
100
AcDbBlockTableRecord
  2
*D12
340
0
 70
     0
280
     1
281
     0
  0
BLOCK_RECORD
  5
1C9
330
1
100
AcDbSymbolTableRecord
100
AcDbBlockTableRecord
  2
*D13
340
0
 70
     0
280
     1
281
     0
  0
BLOCK_RECORD
  5
1D6
330
1
100
AcDbSymbolTableRecord
100
AcDbBlockTableRecord
  2
*D14
340
0
 70
     0
280
     1
281
     0
  0
BLOCK_RECORD
  5
1E3
330
1
100
AcDbSymbolTableRecord
100
AcDbBlockTableRecord
  2
*D15
340
0
 70
     0
280
     1
281
     0
  0
ENDTAB
  0
ENDSEC
  0
SECTION
  2
BLOCKS
  0
BLOCK
  5
71
330
70
100
AcDbEntity
  8
0
100
AcDbBlockBegin
  2
*Model_Space
 70
     0
 10
0.0
 20
0.0
 30
0.0
  3
*Model_Space
  1

  0
ENDBLK
  5
72
330
70
100
AcDbEntity
  8
0
100
AcDbBlockEnd
  0
BLOCK
  5
6D
330
6C
100
AcDbEntity
 67
     1
  8
0
100
AcDbBlockBegin
  2
*Paper_Space
 70
     0
 10
0.0
 20
0.0
 30
0.0
  3
*Paper_Space
  1

  0
ENDBLK
  5
6E
330
6C
100
AcDbEntity
 67
     1
  8
0
100
AcDbBlockEnd
  0
BLOCK
  5
75
330
74
100
AcDbEntity
 67
     1
  8
0
100
AcDbBlockBegin
  2
*Paper_Space0
 70
     0
 10
0.0
 20
0.0
 30
0.0
  3
*Paper_Space0
  1

  0
ENDBLK
  5
76
330
74
100
AcDbEntity
 67
     1
  8
0
100
AcDbBlockEnd
  0
BLOCK
  5
12E
330
12B
100
AcDbEntity
  8
0
100
AcDbBlockBegin
  2
Shower
 70
     2
 10
0.0
 20
0.0
 30
0.0
  3
Shower
  1

  0
LWPOLYLINE
  5
12F
330
12B
100
AcDbEntity
  8
Titleblock
100
AcDbPolyline
 90
        4
 70
     1
 43
0.0
 10
0.0
 20
0.0
 10
-4.9375
 20
0.0
 10
-4.9375
 20
2.5
 10
0.0
 20
2.5
  0
IMAGE
  5
130
330
12B
100
AcDbEntity
  8
Titleblock
  6
Continuous
160
               140
310
8C0000000100000084000000060000000500000000000000008013C000B87FA8928AB03F000000000000000000000000008013C035B4911D6523F03F000000000000000001000000008001C035B4911D6523F03F000000000000000001000000008001C000B87FA8928AB03F000000000000000000000000008013C000B87F
310
A8928AB03F0000000000000000
370
     0
100
AcDbRasterImage
 90
        0
 10
-4.875
 20
0.064614
 30
0.0
 11
0.0028349156118143
 21
0.0
 31
0.0
 12
0.0
 22
0.0028349156118143
 32
0.0
 13
948.0
 23
333.0
340
131
 70
    15
280
     0
281
    50
282
    50
283
     0
290
     0
360
133
 71
     1
 91
        2
 14
-0.5
 24
-0.5
 14
947.5
 24
332.5
  0
LWPOLYLINE
  5
135
330
12B
100
AcDbEntity
  8
Titleblock
  6
Continuous
370
    25
100
AcDbPolyline
 90
        4
 70
     1
 43
0.0
 10
0.0
 20
1.0625
 10
-4.9375
 20
1.061638
 10
-4.9375
 20
0.0
 10
0.0
 20
0.0
  0
LWPOLYLINE
  5
136
330
12B
100
AcDbEntity
  8
Titleblock
  6
Continuous
370
    25
100
AcDbPolyline
 90
        4
 70
     1
 43
0.0
 10
-1.75
 20
2.5
 10
0.0
 20
2.5
 10
0.0
 20
2.5
 10
-1.75
 20
2.5
  0
ATTDEF
  5
137
330
12B
100
AcDbEntity
  8
Titleblock
  6
Continuous
370
    25
100
AcDbText
 10
-3.6875
 20
2.3125
 30
0.0
 40
0.12
  1

100
AcDbAttributeDefinition
280
     0
  3

  2
PROJECT
 70
     0
280
     1
  0
MTEXT
  5
138
330
12B
100
AcDbEntity
  8
Titleblock
  6
Continuous
370
    25
100
AcDbMText
 10
-4.875
 20
1.653875
 30
0.0
 40
0.12
 41
0.6875
 46
0.0
 71
     1
 72
     5
  1
Description:
 73
     1
 44
1.0
1001
ACAD
1000
ACAD_MTEXT_COLUMN_INFO_BEGIN
1070
    75
1070
     2
1070
    79
1070
     0
1070
    76
1070
     1
1070
    78
1070
     0
1070
    48
1040
0.6875
1070
    49
1040
0.6
1070
    50
1070
     1
1040
0.0
1000
ACAD_MTEXT_COLUMN_INFO_END
  0
ATTDEF
  5
139
330
12B
100
AcDbEntity
  8
Titleblock
  6
Continuous
370
    25
100
AcDbText
 10
-1.6875
 20
0.6875
 30
0.0
 40
0.12
  1

100
AcDbAttributeDefinition
280
     0
  3

  2
DRAWN_DATE
 70
     0
280
     1
  0
ATTDEF
  5
13A
330
12B
100
AcDbEntity
  8
Titleblock
  6
Continuous
370
    25
100
AcDbText
 10
-4.3125
 20
1.8125
 30
0.0
 40
0.3048
  1

100
AcDbAttributeDefinition
280
     0
  3

  2
TITLE_1
 70
     0
280
     1
  0
ATTDEF
  5
13B
330
12B
100
AcDbEntity
  8
Titleblock
  6
Continuous
370
    25
100
AcDbText
 10
-1.6875
 20
0.91994
 30
0.0
 40
0.12
  1

100
AcDbAttributeDefinition
280
     0
  3

  2
SCALE
 70
     0
280
     1
  0
LWPOLYLINE
  5
13C
330
12B
100
AcDbEntity
  8
Titleblock
  6
Continuous
370
    25
100
AcDbPolyline
 90
        4
 70
     1
 43
0.0
 10
0.0
 20
1.0625
 10
0.0
 20
1.0625
 10
0.0
 20
0.0
 10
0.0
 20
0.0
  0
LWPOLYLINE
  5
13D
330
12B
100
AcDbEntity
  8
Titleblock
  6
Continuous
370
    25
100
AcDbPolyline
 90
        4
 70
     1
 43
0.0
 10
0.0
 20
1.0625
 10
0.0
 20
1.0625
 10
0.0
 20
0.0
 10
0.0
 20
0.0
  0
LINE
  5
13E
330
12B
100
AcDbEntity
  8
Titleblock
  6
Continuous
370
    25
100
AcDbLine
 10
-2.125
 20
1.062165
 30
0.0
 11
-2.125
 21
0.0
 31
0.0
  0
LWPOLYLINE
  5
13F
330
12B
100
AcDbEntity
  8
Titleblock
  6
Continuous
370
    25
100
AcDbPolyline
 90
        4
 70
     1
 43
0.0
 10
-4.9375
 20
2.5
 10
0.0
 20
2.5
 10
0.0
 20
2.5
 10
-4.9375
 20
2.5
  0
LINE
  5
140
330
12B
100
AcDbEntity
  8
Titleblock
  6
Continuous
370
    25
100
AcDbLine
 10
-4.9375
 20
2.25
 30
0.0
 11
0.0
 21
2.25
 31
0.0
  0
LINE
  5
141
330
12B
100
AcDbEntity
  8
Titleblock
  6
Continuous
370
    25
100
AcDbLine
 10
-4.9375
 20
1.6875
 30
0.0
 11
0.0
 21
1.6875
 31
0.0
  0
MTEXT
  5
142
330
12B
100
AcDbEntity
  8
Titleblock
100
AcDbMText
 10
-4.875
 20
2.467284
 30
0.0
 40
0.12
 41
0.375
 46
0.0
 71
     1
 72
     5
  1
Project:
 73
     1
 44
1.0
1001
ACAD
1000
ACAD_MTEXT_COLUMN_INFO_BEGIN
1070
    75
1070
     2
1070
    79
1070
     0
1070
    76
1070
     1
1070
    78
1070
     0
1070
    48
1040
0.375
1070
    49
1040
0.6
1070
    50
1070
     1
1040
0.0
1000
ACAD_MTEXT_COLUMN_INFO_END
  0
MTEXT
  5
143
330
12B
100
AcDbEntity
  8
Titleblock
100
AcDbMText
 10
-2.0625
 20
1.045477
 30
0.0
 40
0.075
 41
0.375
 46
0.0
 71
     1
 72
     5
  1
Scale:
 73
     1
 44
1.0
1001
ACAD
1000
ACAD_MTEXT_COLUMN_INFO_BEGIN
1070
    75
1070
     2
1070
    79
1070
     0
1070
    76
1070
     1
1070
    78
1070
     0
1070
    48
1040
0.375
1070
    49
1040
0.6
1070
    50
1070
     1
1040
0.0
1000
ACAD_MTEXT_COLUMN_INFO_END
  0
MTEXT
  5
144
330
12B
100
AcDbEntity
  8
Titleblock
100
AcDbMText
 10
-2.0625
 20
0.857735
 30
0.0
 40
0.075
 41
0.375
 46
0.0
 71
     1
 72
     5
  1
Date Drawn:
 73
     1
 44
1.0
1001
ACAD
1000
ACAD_MTEXT_COLUMN_INFO_BEGIN
1070
    75
1070
     2
1070
    79
1070
     0
1070
    76
1070
     1
1070
    78
1070
     0
1070
    48
1040
0.375
1070
    49
1040
0.6
1070
    50
1070
     1
1040
0.0
1000
ACAD_MTEXT_COLUMN_INFO_END
  0
LINE
  5
145
330
12B
100
AcDbEntity
  8
Titleblock
100
AcDbLine
 10
-2.125
 20
0.875
 30
0.0
 11
0.0
 21
0.875
 31
0.0
  0
LINE
  5
146
330
12B
100
AcDbEntity
  8
Titleblock
100
AcDbLine
 10
-2.125
 20
0.625
 30
0.0
 11
0.0
 21
0.625
 31
0.0
  0
MTEXT
  5
147
330
12B
100
AcDbEntity
  8
Titleblock
100
AcDbMText
 10
-4.875
 20
2.220603
 30
0.0
 40
0.12
 41
0.625
 46
0.0
 71
     1
 72
     5
  1
Title:
 73
     1
 44
1.0
1001
ACAD
1000
ACAD_MTEXT_COLUMN_INFO_BEGIN
1070
    75
1070
     2
1070
    79
1070
     0
1070
    76
1070
     1
1070
    78
1070
     0
1070
    48
1040
0.625
1070
    49
1040
0.6
1070
    50
1070
     1
1040
0.0
1000
ACAD_MTEXT_COLUMN_INFO_END
  0
ENDBLK
  5
148
330
12B
100
AcDbEntity
  8
0
100
AcDbBlockEnd
  0
BLOCK
  5
151
330
150
100
AcDbEntity
  8
0
100
AcDbBlockBegin
  2
ANSI_B_SHEET
 70
     0
 10
0.0
 20
0.0
 30
0.0
  3
ANSI_B_SHEET
  1

  0
LINE
  5
152
330
150
100
AcDbEntity
  8
Border
100
AcDbLine
 10
0.0
 20
0.0
 30
0.0
 11
0.5
 21
0.0
 31
0.0
  0
LINE
  5
153
330
150
100
AcDbEntity
  8
Border
100
AcDbLine
 10
16.5
 20
0.0
 30
0.0
 11
17.0
 21
0.0
 31
0.0
  0
LINE
  5
154
330
150
100
AcDbEntity
  8
Border
100
AcDbLine
 10
0.62
 20
0.38
 30
0.0
 11
16.38
 21
0.38
 31
0.0
  0
LINE
  5
155
330
150
100
AcDbEntity
  8
Border
100
AcDbLine
 10
17.0
 20
0.0
 30
0.0
 11
17.0
 21
0.5
 31
0.0
  0
LINE
  5
156
330
150
100
AcDbEntity
  8
Border
100
AcDbLine
 10
17.0
 20
10.5
 30
0.0
 11
17.0
 21
11.0
 31
0.0
  0
LINE
  5
157
330
150
100
AcDbEntity
  8
Border
100
AcDbLine
 10
16.38
 20
0.38
 30
0.0
 11
16.38
 21
10.62
 31
0.0
  0
LINE
  5
158
330
150
100
AcDbEntity
  8
Border
100
AcDbLine
 10
17.0
 20
11.0
 30
0.0
 11
16.5
 21
11.0
 31
0.0
  0
LINE
  5
159
330
150
100
AcDbEntity
  8
Border
100
AcDbLine
 10
0.5
 20
11.0
 30
0.0
 11
0.0
 21
11.0
 31
0.0
  0
LINE
  5
15A
330
150
100
AcDbEntity
  8
Border
100
AcDbLine
 10
16.38
 20
10.62
 30
0.0
 11
0.62
 21
10.62
 31
0.0
  0
LINE
  5
15B
330
150
100
AcDbEntity
  8
Border
100
AcDbLine
 10
0.0
 20
11.0
 30
0.0
 11
0.0
 21
10.5
 31
0.0
  0
LINE
  5
15C
330
150
100
AcDbEntity
  8
Border
100
AcDbLine
 10
0.0
 20
0.5
 30
0.0
 11
0.0
 21
0.0
 31
0.0
  0
LINE
  5
15D
330
150
100
AcDbEntity
  8
Border
100
AcDbLine
 10
0.62
 20
10.62
 30
0.0
 11
0.62
 21
0.38
 31
0.0
  0
LINE
  5
15E
330
150
100
AcDbEntity
  8
Border
100
AcDbLine
 10
8.413397
 20
0.23
 30
0.0
 11
8.586603
 21
0.23
 31
0.0
  0
LINE
  5
15F
330
150
100
AcDbEntity
  8
Border
100
AcDbLine
 10
8.5
 20
0.38
 30
0.0
 11
8.5
 21
0.13
 31
0.0
  0
LINE
  5
160
330
150
100
AcDbEntity
  8
Border
100
AcDbLine
 10
8.5
 20
0.38
 30
0.0
 11
8.413397
 21
0.23
 31
0.0
  0
LINE
  5
161
330
150
100
AcDbEntity
  8
Border
100
AcDbLine
 10
8.5
 20
0.38
 30
0.0
 11
8.586603
 21
0.23
 31
0.0
  0
LINE
  5
162
330
150
100
AcDbEntity
  8
Border
100
AcDbLine
 10
0.47
 20
5.586603
 30
0.0
 11
0.47
 21
5.413397
 31
0.0
  0
LINE
  5
163
330
150
100
AcDbEntity
  8
Border
100
AcDbLine
 10
0.62
 20
5.5
 30
0.0
 11
0.37
 21
5.5
 31
0.0
  0
LINE
  5
164
330
150
100
AcDbEntity
  8
Border
100
AcDbLine
 10
0.62
 20
5.5
 30
0.0
 11
0.47
 21
5.586603
 31
0.0
  0
LINE
  5
165
330
150
100
AcDbEntity
  8
Border
100
AcDbLine
 10
0.62
 20
5.5
 30
0.0
 11
0.47
 21
5.413397
 31
0.0
  0
LINE
  5
166
330
150
100
AcDbEntity
  8
Border
100
AcDbLine
 10
16.53
 20
5.586603
 30
0.0
 11
16.53
 21
5.413397
 31
0.0
  0
LINE
  5
167
330
150
100
AcDbEntity
  8
Border
100
AcDbLine
 10
16.38
 20
5.5
 30
0.0
 11
16.63
 21
5.5
 31
0.0
  0
LINE
  5
168
330
150
100
AcDbEntity
  8
Border
100
AcDbLine
 10
16.38
 20
5.5
 30
0.0
 11
16.53
 21
5.586603
 31
0.0
  0
LINE
  5
169
330
150
100
AcDbEntity
  8
Border
100
AcDbLine
 10
16.38
 20
5.5
 30
0.0
 11
16.53
 21
5.413397
 31
0.0
  0
LINE
  5
16A
330
150
100
AcDbEntity
  8
Border
100
AcDbLine
 10
8.413397
 20
10.77
 30
0.0
 11
8.586603
 21
10.77
 31
0.0
  0
LINE
  5
16B
330
150
100
AcDbEntity
  8
Border
100
AcDbLine
 10
8.5
 20
10.62
 30
0.0
 11
8.5
 21
10.87
 31
0.0
  0
LINE
  5
16C
330
150
100
AcDbEntity
  8
Border
100
AcDbLine
 10
8.5
 20
10.62
 30
0.0
 11
8.413397
 21
10.77
 31
0.0
  0
LINE
  5
16D
330
150
100
AcDbEntity
  8
Border
100
AcDbLine
 10
8.5
 20
10.62
 30
0.0
 11
8.586603
 21
10.77
 31
0.0
  0
ENDBLK
  5
16E
330
150
100
AcDbEntity
  8
0
100
AcDbBlockEnd
  0
BLOCK
  5
172
330
171
100
AcDbEntity
  8
0
100
AcDbBlockBegin
  2
*D6
 70
     1
 10
0.0
 20
0.0
 30
0.0
  3
*D6
  1

  0
LINE
  5
173
330
171
100
AcDbEntity
  8
Dimensions
440
 16777216
370
    -2
100
AcDbLine
 10
4.428713
 20
6.597248
 30
0.0
 11
4.308713
 21
6.597248
 31
0.0
  0
LINE
  5
174
330
171
100
AcDbEntity
  8
Dimensions
440
 16777216
370
    -2
100
AcDbLine
 10
4.308713
 20
6.597248
 30
0.0
 11
3.90833
 21
6.201919
 31
0.0
  0
MTEXT
  5
175
330
171
100
AcDbEntity
  8
Dimensions
440
 16777216
100
AcDbMText
 10
4.773119
 20
6.597248
 30
0.0
 40
0.12
 41
0.0
 46
0.0
 71
     5
 72
     1
  1
\A1;∅1.67in
 73
     1
 44
1.0
  0
SOLID
  5
176
330
171
100
AcDbEntity
  8
Dimensions
440
 16777216
100
AcDbTrace
 10
3.894278
 20
6.216151
 30
0.0
 11
3.922382
 21
6.187687
 31
0.0
 12
3.82294
 22
6.117607
 32
0.0
 13
3.82294
 23
6.117607
 33
0.0
  0
POINT
  5
177
330
171
100
AcDbEntity
  8
Defpoints
 62
     0
440
 16777216
100
AcDbPoint
 10
3.82294
 20
6.117607
 30
0.0
  0
POINT
  5
178
330
171
100
AcDbEntity
  8
Defpoints
 62
     0
440
 16777216
100
AcDbPoint
 10
2.635101
 20
4.944759
 30
0.0
  0
ENDBLK
  5
179
330
171
100
AcDbEntity
  8
0
100
AcDbBlockEnd
  0
BLOCK
  5
17C
330
17B
100
AcDbEntity
  8
0
100
AcDbBlockBegin
  2
*D7
 70
     1
 10
0.0
 20
0.0
 30
0.0
  3
*D7
  1

  0
LINE
  5
17D
330
17B
100
AcDbEntity
  8
Dimensions
440
 16777216
370
    -2
100
AcDbLine
 10
7.715364
 20
6.365829
 30
0.0
 11
5.370763
 21
6.365829
 31
0.0
  0
LINE
  5
17E
330
17B
100
AcDbEntity
  8
Dimensions
440
 16777216
370
    -2
100
AcDbLine
 10
7.715364
 20
4.909139
 30
0.0
 11
5.370763
 21
4.909139
 31
0.0
  0
LINE
  5
17F
330
17B
100
AcDbEntity
  8
Dimensions
440
 16777216
370
    -2
100
AcDbLine
 10
5.470763
 20
6.245829
 30
0.0
 11
5.470763
 21
5.758753
 31
0.0
  0
LINE
  5
180
330
17B
100
AcDbEntity
  8
Dimensions
440
 16777216
370
    -2
100
AcDbLine
 10
5.470763
 20
5.029139
 30
0.0
 11
5.470763
 21
5.516215
 31
0.0
  0
SOLID
  5
181
330
17B
100
AcDbEntity
  8
Dimensions
440
 16777216
100
AcDbTrace
 10
5.450763
 20
6.245829
 30
0.0
 11
5.490763
 21
6.245829
 31
0.0
 12
5.470763
 22
6.365829
 32
0.0
 13
5.470763
 23
6.365829
 33
0.0
  0
SOLID
  5
182
330
17B
100
AcDbEntity
  8
Dimensions
440
 16777216
100
AcDbTrace
 10
5.450763
 20
5.029139
 30
0.0
 11
5.490763
 21
5.029139
 31
0.0
 12
5.470763
 22
4.909139
 32
0.0
 13
5.470763
 23
4.909139
 33
0.0
  0
MTEXT
  5
183
330
17B
100
AcDbEntity
  8
Dimensions
440
 16777216
100
AcDbMText
 10
5.470763
 20
5.637484
 30
0.0
 40
0.12
 41
0.0
 46
0.0
 71
     5
 72
     1
  1
\A1;1.46in
 73
     1
 44
1.0
  0
POINT
  5
184
330
17B
100
AcDbEntity
  8
Defpoints
 62
     0
440
 16777216
100
AcDbPoint
 10
7.765364
 20
6.365829
 30
0.0
  0
POINT
  5
185
330
17B
100
AcDbEntity
  8
Defpoints
 62
     0
440
 16777216
100
AcDbPoint
 10
7.765364
 20
4.909139
 30
0.0
  0
POINT
  5
186
330
17B
100
AcDbEntity
  8
Defpoints
 62
     0
440
 16777216
100
AcDbPoint
 10
5.470763
 20
4.909139
 30
0.0
  0
ENDBLK
  5
187
330
17B
100
AcDbEntity
  8
0
100
AcDbBlockEnd
  0
BLOCK
  5
18A
330
189
100
AcDbEntity
  8
0
100
AcDbBlockBegin
  2
*D8
 70
     1
 10
0.0
 20
0.0
 30
0.0
  3
*D8
  1

  0
LINE
  5
18B
330
189
100
AcDbEntity
  8
Dimensions
440
 16777216
370
    -2
100
AcDbLine
 10
6.337411
 20
6.298899
 30
0.0
 11
5.948
 21
6.298899
 31
0.0
  0
LINE
  5
18C
330
189
100
AcDbEntity
  8
Dimensions
440
 16777216
370
    -2
100
AcDbLine
 10
6.337411
 20
4.93549
 30
0.0
 11
5.948
 21
4.93549
 31
0.0
  0
LINE
  5
18D
330
189
100
AcDbEntity
  8
Dimensions
440
 16777216
370
    -2
100
AcDbLine
 10
6.048
 20
6.178899
 30
0.0
 11
6.048
 21
5.738504
 31
0.0
  0
LINE
  5
18E
330
189
100
AcDbEntity
  8
Dimensions
440
 16777216
370
    -2
100
AcDbLine
 10
6.048
 20
5.05549
 30
0.0
 11
6.048
 21
5.495885
 31
0.0
  0
SOLID
  5
18F
330
189
100
AcDbEntity
  8
Dimensions
440
 16777216
100
AcDbTrace
 10
6.028
 20
6.178899
 30
0.0
 11
6.068
 21
6.178899
 31
0.0
 12
6.048
 22
6.298899
 32
0.0
 13
6.048
 23
6.298899
 33
0.0
  0
SOLID
  5
190
330
189
100
AcDbEntity
  8
Dimensions
440
 16777216
100
AcDbTrace
 10
6.028
 20
5.05549
 30
0.0
 11
6.068
 21
5.05549
 31
0.0
 12
6.048
 22
4.93549
 32
0.0
 13
6.048
 23
4.93549
 33
0.0
  0
MTEXT
  5
191
330
189
100
AcDbEntity
  8
Dimensions
440
 16777216
100
AcDbMText
 10
6.048
 20
5.617195
 30
0.0
 40
0.12
 41
0.0
 46
0.0
 71
     5
 72
     1
  1
\A1;1.36in
 73
     1
 44
1.0
  0
POINT
  5
192
330
189
100
AcDbEntity
  8
Defpoints
 62
     0
440
 16777216
100
AcDbPoint
 10
6.387411
 20
6.298899
 30
0.0
  0
POINT
  5
193
330
189
100
AcDbEntity
  8
Defpoints
 62
     0
440
 16777216
100
AcDbPoint
 10
6.387411
 20
4.93549
 30
0.0
  0
POINT
  5
194
330
189
100
AcDbEntity
  8
Defpoints
 62
     0
440
 16777216
100
AcDbPoint
 10
6.048
 20
4.93549
 30
0.0
  0
ENDBLK
  5
195
330
189
100
AcDbEntity
  8
0
100
AcDbBlockEnd
  0
BLOCK
  5
198
330
197
100
AcDbEntity
  8
0
100
AcDbBlockBegin
  2
*D9
 70
     1
 10
0.0
 20
0.0
 30
0.0
  3
*D9
  1

  0
LINE
  5
199
330
197
100
AcDbEntity
  8
Dimensions
440
 16777216
370
    -2
100
AcDbLine
 10
7.765364
 20
6.415829
 30
0.0
 11
7.765364
 21
7.144651
 31
0.0
  0
LINE
  5
19A
330
197
100
AcDbEntity
  8
Dimensions
440
 16777216
370
    -2
100
AcDbLine
 10
8.946466
 20
5.581183
 30
0.0
 11
8.946466
 21
7.144651
 31
0.0
  0
LINE
  5
19B
330
197
100
AcDbEntity
  8
Dimensions
440
 16777216
370
    -2
100
AcDbLine
 10
7.885364
 20
7.044651
 30
0.0
 11
8.082436
 21
7.044651
 31
0.0
  0
LINE
  5
19C
330
197
100
AcDbEntity
  8
Dimensions
440
 16777216
370
    -2
100
AcDbLine
 10
8.826466
 20
7.044651
 30
0.0
 11
8.629394
 21
7.044651
 31
0.0
  0
SOLID
  5
19D
330
197
100
AcDbEntity
  8
Dimensions
440
 16777216
100
AcDbTrace
 10
7.885364
 20
7.064651
 30
0.0
 11
7.885364
 21
7.024651
 31
0.0
 12
7.765364
 22
7.044651
 32
0.0
 13
7.765364
 23
7.044651
 33
0.0
  0
SOLID
  5
19E
330
197
100
AcDbEntity
  8
Dimensions
440
 16777216
100
AcDbTrace
 10
8.826466
 20
7.064651
 30
0.0
 11
8.826466
 21
7.024651
 31
0.0
 12
8.946466
 22
7.044651
 32
0.0
 13
8.946466
 23
7.044651
 33
0.0
  0
MTEXT
  5
19F
330
197
100
AcDbEntity
  8
Dimensions
440
 16777216
100
AcDbMText
 10
8.355915
 20
7.044651
 30
0.0
 40
0.12
 41
0.0
 46
0.0
 71
     5
 72
     1
  1
\A1;1.18in
 73
     1
 44
1.0
  0
POINT
  5
1A0
330
197
100
AcDbEntity
  8
Defpoints
 62
     0
440
 16777216
100
AcDbPoint
 10
7.765364
 20
6.365829
 30
0.0
  0
POINT
  5
1A1
330
197
100
AcDbEntity
  8
Defpoints
 62
     0
440
 16777216
100
AcDbPoint
 10
8.946466
 20
5.531183
 30
0.0
  0
POINT
  5
1A2
330
197
100
AcDbEntity
  8
Defpoints
 62
     0
440
 16777216
100
AcDbPoint
 10
8.946466
 20
7.044651
 30
0.0
  0
ENDBLK
  5
1A3
330
197
100
AcDbEntity
  8
0
100
AcDbBlockEnd
  0
BLOCK
  5
1A6
330
1A5
100
AcDbEntity
  8
0
100
AcDbBlockBegin
  2
*D10
 70
     1
 10
0.0
 20
0.0
 30
0.0
  3
*D10
  1

  0
LINE
  5
1A7
330
1A5
100
AcDbEntity
  8
Dimensions
440
 16777216
370
    -2
100
AcDbLine
 10
7.765364
 20
6.348899
 30
0.0
 11
7.765364
 21
6.738311
 31
0.0
  0
LINE
  5
1A8
330
1A5
100
AcDbEntity
  8
Dimensions
440
 16777216
370
    -2
100
AcDbLine
 10
6.387411
 20
6.348899
 30
0.0
 11
6.387411
 21
6.738311
 31
0.0
  0
LINE
  5
1A9
330
1A5
100
AcDbEntity
  8
Dimensions
440
 16777216
370
    -2
100
AcDbLine
 10
7.645364
 20
6.638311
 30
0.0
 11
7.349866
 21
6.638311
 31
0.0
  0
LINE
  5
1AA
330
1A5
100
AcDbEntity
  8
Dimensions
440
 16777216
370
    -2
100
AcDbLine
 10
6.507411
 20
6.638311
 30
0.0
 11
6.802909
 21
6.638311
 31
0.0
  0
SOLID
  5
1AB
330
1A5
100
AcDbEntity
  8
Dimensions
440
 16777216
100
AcDbTrace
 10
7.645364
 20
6.658311
 30
0.0
 11
7.645364
 21
6.618311
 31
0.0
 12
7.765364
 22
6.638311
 32
0.0
 13
7.765364
 23
6.638311
 33
0.0
  0
SOLID
  5
1AC
330
1A5
100
AcDbEntity
  8
Dimensions
440
 16777216
100
AcDbTrace
 10
6.507411
 20
6.658311
 30
0.0
 11
6.507411
 21
6.618311
 31
0.0
 12
6.387411
 22
6.638311
 32
0.0
 13
6.387411
 23
6.638311
 33
0.0
  0
MTEXT
  5
1AD
330
1A5
100
AcDbEntity
  8
Dimensions
440
 16777216
100
AcDbMText
 10
7.076387
 20
6.638311
 30
0.0
 40
0.12
 41
0.0
 46
0.0
 71
     5
 72
     1
  1
\A1;1.38in
 73
     1
 44
1.0
  0
POINT
  5
1AE
330
1A5
100
AcDbEntity
  8
Defpoints
 62
     0
440
 16777216
100
AcDbPoint
 10
7.765364
 20
6.298899
 30
0.0
  0
POINT
  5
1AF
330
1A5
100
AcDbEntity
  8
Defpoints
 62
     0
440
 16777216
100
AcDbPoint
 10
6.387411
 20
6.298899
 30
0.0
  0
POINT
  5
1B0
330
1A5
100
AcDbEntity
  8
Defpoints
 62
     0
440
 16777216
100
AcDbPoint
 10
6.387411
 20
6.638311
 30
0.0
  0
ENDBLK
  5
1B1
330
1A5
100
AcDbEntity
  8
0
100
AcDbBlockEnd
  0
BLOCK
  5
1B4
330
1B3
100
AcDbEntity
  8
0
100
AcDbBlockBegin
  2
*D11
 70
     1
 10
0.0
 20
0.0
 30
0.0
  3
*D11
  1

  0
LINE
  5
319
330
1B3
100
AcDbEntity
  8
Dimensions
440
 16777216
370
    -2
100
AcDbLine
 10
4.428713
 20
6.597248
 30
0.0
 11
4.308713
 21
6.597248
 31
0.0
  0
LINE
  5
31A
330
1B3
100
AcDbEntity
  8
Dimensions
440
 16777216
370
    -2
100
AcDbLine
 10
4.308713
 20
6.597248
 30
0.0
 11
3.90833
 21
6.201919
 31
0.0
  0
MTEXT
  5
31B
330
1B3
100
AcDbEntity
  8
Dimensions
440
 16777216
100
AcDbMText
 10
4.773119
 20
6.597248
 30
0.0
 40
0.12
 41
0.0
 46
0.0
 71
     5
 72
     1
  1
\A1;∅1.67in
 73
     1
 44
1.0
  0
SOLID
  5
31C
330
1B3
100
AcDbEntity
  8
Dimensions
440
 16777216
100
AcDbTrace
 10
3.894278
 20
6.216151
 30
0.0
 11
3.922382
 21
6.187687
 31
0.0
 12
3.82294
 22
6.117607
 32
0.0
 13
3.82294
 23
6.117607
 33
0.0
  0
POINT
  5
31D
330
1B3
100
AcDbEntity
  8
Defpoints
 62
     0
440
 16777216
100
AcDbPoint
 10
3.82294
 20
6.117607
 30
0.0
  0
POINT
  5
31E
330
1B3
100
AcDbEntity
  8
Defpoints
 62
     0
440
 16777216
100
AcDbPoint
 10
2.635101
 20
4.944759
 30
0.0
  0
ENDBLK
  5
1B5
330
1B3
100
AcDbEntity
  8
0
100
AcDbBlockEnd
  0
BLOCK
  5
1BD
330
1BC
100
AcDbEntity
  8
0
100
AcDbBlockBegin
  2
*D12
 70
     1
 10
0.0
 20
0.0
 30
0.0
  3
*D12
  1

  0
LINE
  5
31F
330
1BC
100
AcDbEntity
  8
Dimensions
440
 16777216
370
    -2
100
AcDbLine
 10
7.715364
 20
6.365829
 30
0.0
 11
5.370763
 21
6.365829
 31
0.0
  0
LINE
  5
320
330
1BC
100
AcDbEntity
  8
Dimensions
440
 16777216
370
    -2
100
AcDbLine
 10
7.715364
 20
4.909139
 30
0.0
 11
5.370763
 21
4.909139
 31
0.0
  0
LINE
  5
321
330
1BC
100
AcDbEntity
  8
Dimensions
440
 16777216
370
    -2
100
AcDbLine
 10
5.470763
 20
6.245829
 30
0.0
 11
5.470763
 21
5.758753
 31
0.0
  0
LINE
  5
322
330
1BC
100
AcDbEntity
  8
Dimensions
440
 16777216
370
    -2
100
AcDbLine
 10
5.470763
 20
5.029139
 30
0.0
 11
5.470763
 21
5.516215
 31
0.0
  0
SOLID
  5
323
330
1BC
100
AcDbEntity
  8
Dimensions
440
 16777216
100
AcDbTrace
 10
5.450763
 20
6.245829
 30
0.0
 11
5.490763
 21
6.245829
 31
0.0
 12
5.470763
 22
6.365829
 32
0.0
 13
5.470763
 23
6.365829
 33
0.0
  0
SOLID
  5
324
330
1BC
100
AcDbEntity
  8
Dimensions
440
 16777216
100
AcDbTrace
 10
5.450763
 20
5.029139
 30
0.0
 11
5.490763
 21
5.029139
 31
0.0
 12
5.470763
 22
4.909139
 32
0.0
 13
5.470763
 23
4.909139
 33
0.0
  0
MTEXT
  5
325
330
1BC
100
AcDbEntity
  8
Dimensions
440
 16777216
100
AcDbMText
 10
5.470763
 20
5.637484
 30
0.0
 40
0.12
 41
0.0
 46
0.0
 71
     5
 72
     1
  1
\A1;1.46in
 73
     1
 44
1.0
  0
POINT
  5
326
330
1BC
100
AcDbEntity
  8
Defpoints
 62
     0
440
 16777216
100
AcDbPoint
 10
7.765364
 20
6.365829
 30
0.0
  0
POINT
  5
327
330
1BC
100
AcDbEntity
  8
Defpoints
 62
     0
440
 16777216
100
AcDbPoint
 10
7.765364
 20
4.909139
 30
0.0
  0
POINT
  5
328
330
1BC
100
AcDbEntity
  8
Defpoints
 62
     0
440
 16777216
100
AcDbPoint
 10
5.470763
 20
4.909139
 30
0.0
  0
ENDBLK
  5
1BE
330
1BC
100
AcDbEntity
  8
0
100
AcDbBlockEnd
  0
BLOCK
  5
1CA
330
1C9
100
AcDbEntity
  8
0
100
AcDbBlockBegin
  2
*D13
 70
     1
 10
0.0
 20
0.0
 30
0.0
  3
*D13
  1

  0
LINE
  5
329
330
1C9
100
AcDbEntity
  8
Dimensions
440
 16777216
370
    -2
100
AcDbLine
 10
6.337411
 20
6.298899
 30
0.0
 11
5.948
 21
6.298899
 31
0.0
  0
LINE
  5
32A
330
1C9
100
AcDbEntity
  8
Dimensions
440
 16777216
370
    -2
100
AcDbLine
 10
6.337411
 20
4.93549
 30
0.0
 11
5.948
 21
4.93549
 31
0.0
  0
LINE
  5
32B
330
1C9
100
AcDbEntity
  8
Dimensions
440
 16777216
370
    -2
100
AcDbLine
 10
6.048
 20
6.178899
 30
0.0
 11
6.048
 21
5.738504
 31
0.0
  0
LINE
  5
32C
330
1C9
100
AcDbEntity
  8
Dimensions
440
 16777216
370
    -2
100
AcDbLine
 10
6.048
 20
5.05549
 30
0.0
 11
6.048
 21
5.495885
 31
0.0
  0
SOLID
  5
32D
330
1C9
100
AcDbEntity
  8
Dimensions
440
 16777216
100
AcDbTrace
 10
6.028
 20
6.178899
 30
0.0
 11
6.068
 21
6.178899
 31
0.0
 12
6.048
 22
6.298899
 32
0.0
 13
6.048
 23
6.298899
 33
0.0
  0
SOLID
  5
32E
330
1C9
100
AcDbEntity
  8
Dimensions
440
 16777216
100
AcDbTrace
 10
6.028
 20
5.05549
 30
0.0
 11
6.068
 21
5.05549
 31
0.0
 12
6.048
 22
4.93549
 32
0.0
 13
6.048
 23
4.93549
 33
0.0
  0
MTEXT
  5
32F
330
1C9
100
AcDbEntity
  8
Dimensions
440
 16777216
100
AcDbMText
 10
6.048
 20
5.617195
 30
0.0
 40
0.12
 41
0.0
 46
0.0
 71
     5
 72
     1
  1
\A1;1.36in
 73
     1
 44
1.0
  0
POINT
  5
330
330
1C9
100
AcDbEntity
  8
Defpoints
 62
     0
440
 16777216
100
AcDbPoint
 10
6.387411
 20
6.298899
 30
0.0
  0
POINT
  5
331
330
1C9
100
AcDbEntity
  8
Defpoints
 62
     0
440
 16777216
100
AcDbPoint
 10
6.387411
 20
4.93549
 30
0.0
  0
POINT
  5
332
330
1C9
100
AcDbEntity
  8
Defpoints
 62
     0
440
 16777216
100
AcDbPoint
 10
6.048
 20
4.93549
 30
0.0
  0
ENDBLK
  5
1CB
330
1C9
100
AcDbEntity
  8
0
100
AcDbBlockEnd
  0
BLOCK
  5
1D7
330
1D6
100
AcDbEntity
  8
0
100
AcDbBlockBegin
  2
*D14
 70
     1
 10
0.0
 20
0.0
 30
0.0
  3
*D14
  1

  0
LINE
  5
333
330
1D6
100
AcDbEntity
  8
Dimensions
440
 16777216
370
    -2
100
AcDbLine
 10
7.765364
 20
6.415829
 30
0.0
 11
7.765364
 21
7.144651
 31
0.0
  0
LINE
  5
334
330
1D6
100
AcDbEntity
  8
Dimensions
440
 16777216
370
    -2
100
AcDbLine
 10
8.946466
 20
5.581183
 30
0.0
 11
8.946466
 21
7.144651
 31
0.0
  0
LINE
  5
335
330
1D6
100
AcDbEntity
  8
Dimensions
440
 16777216
370
    -2
100
AcDbLine
 10
7.885364
 20
7.044651
 30
0.0
 11
8.082436
 21
7.044651
 31
0.0
  0
LINE
  5
336
330
1D6
100
AcDbEntity
  8
Dimensions
440
 16777216
370
    -2
100
AcDbLine
 10
8.826466
 20
7.044651
 30
0.0
 11
8.629394
 21
7.044651
 31
0.0
  0
SOLID
  5
337
330
1D6
100
AcDbEntity
  8
Dimensions
440
 16777216
100
AcDbTrace
 10
7.885364
 20
7.064651
 30
0.0
 11
7.885364
 21
7.024651
 31
0.0
 12
7.765364
 22
7.044651
 32
0.0
 13
7.765364
 23
7.044651
 33
0.0
  0
SOLID
  5
338
330
1D6
100
AcDbEntity
  8
Dimensions
440
 16777216
100
AcDbTrace
 10
8.826466
 20
7.064651
 30
0.0
 11
8.826466
 21
7.024651
 31
0.0
 12
8.946466
 22
7.044651
 32
0.0
 13
8.946466
 23
7.044651
 33
0.0
  0
MTEXT
  5
339
330
1D6
100
AcDbEntity
  8
Dimensions
440
 16777216
100
AcDbMText
 10
8.355915
 20
7.044651
 30
0.0
 40
0.12
 41
0.0
 46
0.0
 71
     5
 72
     1
  1
\A1;1.18in
 73
     1
 44
1.0
  0
POINT
  5
33A
330
1D6
100
AcDbEntity
  8
Defpoints
 62
     0
440
 16777216
100
AcDbPoint
 10
7.765364
 20
6.365829
 30
0.0
  0
POINT
  5
33B
330
1D6
100
AcDbEntity
  8
Defpoints
 62
     0
440
 16777216
100
AcDbPoint
 10
8.946466
 20
5.531183
 30
0.0
  0
POINT
  5
33C
330
1D6
100
AcDbEntity
  8
Defpoints
 62
     0
440
 16777216
100
AcDbPoint
 10
8.946466
 20
7.044651
 30
0.0
  0
ENDBLK
  5
1D8
330
1D6
100
AcDbEntity
  8
0
100
AcDbBlockEnd
  0
BLOCK
  5
1E4
330
1E3
100
AcDbEntity
  8
0
100
AcDbBlockBegin
  2
*D15
 70
     1
 10
0.0
 20
0.0
 30
0.0
  3
*D15
  1

  0
LINE
  5
33D
330
1E3
100
AcDbEntity
  8
Dimensions
440
 16777216
370
    -2
100
AcDbLine
 10
7.765364
 20
6.348899
 30
0.0
 11
7.765364
 21
6.738311
 31
0.0
  0
LINE
  5
33E
330
1E3
100
AcDbEntity
  8
Dimensions
440
 16777216
370
    -2
100
AcDbLine
 10
6.387411
 20
6.348899
 30
0.0
 11
6.387411
 21
6.738311
 31
0.0
  0
LINE
  5
33F
330
1E3
100
AcDbEntity
  8
Dimensions
440
 16777216
370
    -2
100
AcDbLine
 10
7.645364
 20
6.638311
 30
0.0
 11
7.349866
 21
6.638311
 31
0.0
  0
LINE
  5
340
330
1E3
100
AcDbEntity
  8
Dimensions
440
 16777216
370
    -2
100
AcDbLine
 10
6.507411
 20
6.638311
 30
0.0
 11
6.802909
 21
6.638311
 31
0.0
  0
SOLID
  5
341
330
1E3
100
AcDbEntity
  8
Dimensions
440
 16777216
100
AcDbTrace
 10
7.645364
 20
6.658311
 30
0.0
 11
7.645364
 21
6.618311
 31
0.0
 12
7.765364
 22
6.638311
 32
0.0
 13
7.765364
 23
6.638311
 33
0.0
  0
SOLID
  5
342
330
1E3
100
AcDbEntity
  8
Dimensions
440
 16777216
100
AcDbTrace
 10
6.507411
 20
6.658311
 30
0.0
 11
6.507411
 21
6.618311
 31
0.0
 12
6.387411
 22
6.638311
 32
0.0
 13
6.387411
 23
6.638311
 33
0.0
  0
MTEXT
  5
343
330
1E3
100
AcDbEntity
  8
Dimensions
440
 16777216
100
AcDbMText
 10
7.076387
 20
6.638311
 30
0.0
 40
0.12
 41
0.0
 46
0.0
 71
     5
 72
     1
  1
\A1;1.38in
 73
     1
 44
1.0
  0
POINT
  5
344
330
1E3
100
AcDbEntity
  8
Defpoints
 62
     0
440
 16777216
100
AcDbPoint
 10
7.765364
 20
6.298899
 30
0.0
  0
POINT
  5
345
330
1E3
100
AcDbEntity
  8
Defpoints
 62
     0
440
 16777216
100
AcDbPoint
 10
6.387411
 20
6.298899
 30
0.0
  0
POINT
  5
346
330
1E3
100
AcDbEntity
  8
Defpoints
 62
     0
440
 16777216
100
AcDbPoint
 10
6.387411
 20
6.638311
 30
0.0
  0
ENDBLK
  5
1E5
330
1E3
100
AcDbEntity
  8
0
100
AcDbBlockEnd
  0
ENDSEC
  0
SECTION
  2
ENTITIES
  0
INSERT
  5
129
330
70
100
AcDbEntity
  8
Titleblock
100
AcDbBlockReference
 66
     1
  2
Shower
 10
16.38
 20
0.38
 30
0.0
  0
ATTRIB
  5
149
330
129
100
AcDbEntity
  8
Titleblock
  6
Continuous
370
    25
100
AcDbText
 10
12.6925
 20
2.6925
 30
0.0
 40
0.12
  1
Railing Products and Mock Ups
100
AcDbAttribute
280
     0
  2
PROJECT
 70
     0
280
     1
1001
FD_ATT_APPNAME
1005
137
  0
ATTRIB
  5
14A
330
129
100
AcDbEntity
  8
Titleblock
  6
Continuous
370
    25
100
AcDbText
 10
14.6925
 20
1.0675
 30
0.0
 40
0.12
  1
1/20/2020
100
AcDbAttribute
280
     0
  2
DRAWN_DATE
 70
     0
280
     1
1001
FD_ATT_APPNAME
1005
139
  0
ATTRIB
  5
14B
330
129
100
AcDbEntity
  8
Titleblock
  6
Continuous
370
    25
100
AcDbText
 10
12.0675
 20
2.1925
 30
0.0
 40
0.3048
  1
R13-6302-042-12
100
AcDbAttribute
280
     0
  2
TITLE_1
 70
     0
280
     1
1001
FD_ATT_APPNAME
1005
13A
  0
ATTRIB
  5
14C
330
129
100
AcDbEntity
  8
Titleblock
  6
Continuous
370
    25
100
AcDbText
 10
14.6925
 20
1.29994
 30
0.0
 40
0.12
  1
1:1
100
AcDbAttribute
280
     0
  2
SCALE
 70
     0
280
     1
1001
FD_ATT_APPNAME
1005
13B
  0
SEQEND
  5
14D
330
129
100
AcDbEntity
  8
Titleblock
  0
INSERT
  5
14E
330
70
100
AcDbEntity
  8
Border
100
AcDbBlockReference
  2
ANSI_B_SHEET
 10
0.0
 20
0.0
 30
0.0
  0
DIMENSION
  5
16F
330
70
100
AcDbEntity
  8
Dimensions
100
AcDbDimension
280
     0
  2
*D11
 10
2.635101
 20
4.944759
 30
0.0
 11
4.773119
 21
6.597248
 31
0.0
 70
   163
 71
     5
 42
1.669291
 73
     0
 74
     0
 75
     0
  3
Standard
100
AcDbDiametricDimension
 15
3.82294
 25
6.117607
 35
0.0
 40
0.0
1001
ACAD_DIMASSOC_CALC_DIMLFAC
1040
-1.0
1001
ACAD_DIMASSOC_DIMLFAC
1040
-1.0
1001
ACAD_DIMASSOC_OVERRIDDEN_DIMLFAC
1040
0.0
1001
ACAD_DSTYLE_DIMRADIAL_EXTENSION
1070
   387
1070
     1
1070
   388
1040
5.470867
1070
   390
1040
3.953911
1001
ACAD
1000
DSTYLE
1002
{
1070
   144
1040
1.0
1070
   288
1070
     1
1002
}
  0
DIMENSION
  5
17A
330
70
100
AcDbEntity
  8
Dimensions
100
AcDbDimension
280
     0
  2
*D12
 10
5.470763
 20
4.909139
 30
0.0
 11
5.470763
 21
5.637484
 31
0.0
 70
   160
 71
     5
 42
1.456689
 73
     0
 74
     0
 75
     0
  3
Standard
100
AcDbAlignedDimension
 13
7.765364
 23
6.365829
 33
0.0
 14
7.765364
 24
4.909139
 34
0.0
 50
90.0
100
AcDbRotatedDimension
1001
ACAD_DIMASSOC_CALC_DIMLFAC
1040
-1.0
1001
ACAD_DIMASSOC_DIMLFAC
1040
-1.0
1001
ACAD_DIMASSOC_OVERRIDDEN_DIMLFAC
1040
0.0
1001
ACAD
1000
DSTYLE
1002
{
1070
   144
1040
1.0
1002
}
  0
DIMENSION
  5
188
330
70
100
AcDbEntity
  8
Dimensions
100
AcDbDimension
280
     0
  2
*D13
 10
6.048
 20
4.93549
 30
0.0
 11
6.048
 21
5.617195
 31
0.0
 70
    32
 71
     5
 42
1.363409
 73
     0
 74
     0
 75
     0
  3
Standard
100
AcDbAlignedDimension
 13
6.387411
 23
6.298899
 33
0.0
 14
6.387411
 24
4.93549
 34
0.0
 50
90.0
100
AcDbRotatedDimension
1001
ACAD_DIMASSOC_CALC_DIMLFAC
1040
-1.0
1001
ACAD_DIMASSOC_DIMLFAC
1040
-1.0
1001
ACAD_DIMASSOC_OVERRIDDEN_DIMLFAC
1040
0.0
1001
ACAD
1000
DSTYLE
1002
{
1070
   177
1070
   256
1070
   176
1070
   256
1070
   144
1040
1.0
1002
}
  0
DIMENSION
  5
196
330
70
100
AcDbEntity
  8
Dimensions
100
AcDbDimension
280
     0
  2
*D14
 10
8.946466
 20
7.044651
 30
0.0
 11
8.355915
 21
7.044651
 31
0.0
 70
    32
 71
     5
 42
1.181102
 73
     0
 74
     0
 75
     0
  3
Standard
100
AcDbAlignedDimension
 13
7.765364
 23
6.365829
 33
0.0
 14
8.946466
 24
5.531183
 34
0.0
100
AcDbRotatedDimension
1001
ACAD_DIMASSOC_CALC_DIMLFAC
1040
-1.0
1001
ACAD_DIMASSOC_DIMLFAC
1040
-1.0
1001
ACAD_DIMASSOC_OVERRIDDEN_DIMLFAC
1040
0.0
1001
ACAD
1000
DSTYLE
1002
{
1070
   177
1070
   256
1070
   176
1070
   256
1070
   144
1040
1.0
1002
}
  0
DIMENSION
  5
1A4
330
70
100
AcDbEntity
  8
Dimensions
100
AcDbDimension
280
     0
  2
*D15
 10
6.387411
 20
6.638311
 30
0.0
 11
7.076387
 21
6.638311
 31
0.0
 70
    32
 71
     5
 42
1.377953
 73
     0
 74
     0
 75
     0
  3
Standard
100
AcDbAlignedDimension
 13
7.765364
 23
6.298899
 33
0.0
 14
6.387411
 24
6.298899
 34
0.0
100
AcDbRotatedDimension
1001
ACAD_DIMASSOC_CALC_DIMLFAC
1040
-1.0
1001
ACAD_DIMASSOC_DIMLFAC
1040
-1.0
1001
ACAD_DIMASSOC_OVERRIDDEN_DIMLFAC
1040
0.0
1001
ACAD
1000
DSTYLE
1002
{
1070
   177
1070
   256
1070
   176
1070
   256
1070
   144
1040
1.0
1002
}
  0
ARC
  5
27B
330
70
100
AcDbEntity
  8
Visible
100
AcDbCircle
 10
-5.531183
 20
0.0
 30
-6.387411
 40
0.7677165354330708
210
-1.0
220
0.0
230
-0.0000000000000001
100
AcDbArc
 50
39.110745
 51
180.0
  0
LINE
  5
27C
330
70
100
AcDbEntity
  8
Visible
100
AcDbLine
 10
7.765364
 20
4.93549
 30
0.484292
 11
6.387411
 21
4.93549
 31
0.484292
210
0.0
220
1.0
230
0.0
  0
ARC
  5
27D
330
70
100
AcDbEntity
  8
Visible
100
AcDbCircle
 10
-4.968194
 20
0.533465
 30
-7.765364
 40
0.0590551181102372
210
-1.0
220
0.0
230
-0.0000000000000001
100
AcDbArc
 50
0.0
 51
43.457573
  0
ARC
  5
27E
330
70
100
AcDbEntity
  8
Visible
100
AcDbCircle
 10
5.531183
 20
0.0
 30
7.765364
 40
0.8346456692913386
210
1.0
220
0.0000000000000029
230
0.0000000000000004
100
AcDbArc
 50
0.0
 51
136.542427
  0
SPLINE
  5
27F
330
70
100
AcDbEntity
  8
Visible
100
AcDbSpline
 70
     0
 71
     3
 72
    16
 73
    12
 74
     0
 42
0.000000001
 43
0.0000000001
 40
7.042737096251476
 40
7.042737096251476
 40
7.042737096251476
 40
7.042737096251476
 40
7.196846187963378
 40
7.196846187963378
 40
7.663604238117969
 40
7.663604238117969
 40
8.130362288272559
 40
8.130362288272559
 40
8.432593646820663
 40
8.432593646820663
 40
8.467425420547192
 40
8.467425420547192
 40
8.467425420547192
 40
8.467425420547192
 10
8.619164564901439
 20
4.941367092305198
 30
0.5905511810997269
 10
8.625887934171259
 20
4.955168451345103
 30
0.6043353544155253
 10
8.632738041707852
 20
4.969293409090713
 30
0.6174745299922506
 10
8.660595230769104
 20
5.02708295265531
 30
0.6677051224469324
 10
8.68494030338843
 20
5.078188985329889
 30
0.7037574622281682
 10
8.73405366157749
 20
5.187151277025011
 30
0.7629680886911956
 10
8.759027061081724
 20
5.244892687299176
 30
0.7861673496590811
 10
8.790472330401826
 20
5.337061604155135
 30
0.8126319711209362
 10
8.802617550576542
 20
5.378207828107735
 30
0.8215179602211719
 10
8.805402444915671
 20
5.42322661498467
 30
0.8276477925137442
 10
8.805556498124133
 20
5.427878689741502
 30
0.8282411783984571
 10
8.805556498124133
 20
5.432516882826426
 30
0.8287933450828859
1001
ACAD_VIEW_EDGE_ID
1071
       31
1071
       -1
1071
        2
1071
        0
  0
ARC
  5
280
330
70
100
AcDbEntity
  8
Visible
100
AcDbCircle
 10
-5.531183
 20
0.0
 30
-8.805556
 40
0.8346456692913385
210
-1.0
220
-0.0000000000000028
230
-0.0000000000000006
100
AcDbArc
 50
83.211015
 51
134.964305
  0
ARC
  5
281
330
70
100
AcDbEntity
  8
Visible
100
AcDbCircle
 10
-8.946466
 20
5.531183
 30
-0.590551
 40
0.5898158151197645
210
0.0000000000000002
220
-0.0000000000000004
230
-1.0
100
AcDbArc
 50
90.0
 51
145.0
  0
LINE
  5
282
330
70
100
AcDbEntity
  8
Visible
100
AcDbLine
 10
8.805556
 20
6.120999
 30
0.590551
 11
8.946466
 21
6.120999
 31
0.590551
210
0.0
220
1.0
230
0.0
  0
LINE
  5
283
330
70
100
AcDbEntity
  8
Visible
100
AcDbLine
 10
8.639428
 20
4.941367
 30
0.590551
 11
8.619165
 21
4.941367
 31
0.590551
210
0.0
220
1.0
230
0.0
  0
LINE
  5
284
330
70
100
AcDbEntity
  8
Visible
100
AcDbLine
 10
7.765364
 20
6.298899
 30
0.0
 11
6.387411
 21
6.298899
 31
0.0
210
0.0
220
1.0
230
0.0
  0
LINE
  5
285
330
70
100
AcDbEntity
  8
Visible
100
AcDbLine
 10
7.765364
 20
6.365829
 30
0.0
 11
8.946466
 21
6.365829
 31
0.0
210
0.0
220
1.0
230
0.0
  0
LINE
  5
286
330
70
100
AcDbEntity
  8
Visible
100
AcDbLine
 10
7.765364
 20
4.909139
 30
0.533465
 11
8.623339
 21
4.909139
 31
0.533465
210
0.0
220
1.0
230
0.0
  0
ARC
  5
287
330
70
100
AcDbEntity
  8
Visible
100
AcDbCircle
 10
-8.946466
 20
5.531183
 30
0.0
 40
0.8346456692913386
210
0.0000000000000001
220
-0.0000000000000003
230
-1.0
100
AcDbArc
 50
90.0
 51
154.719553
  0
ARC
  5
288
330
70
100
AcDbEntity
  8
Visible
100
AcDbCircle
 10
-10.501072
 20
0.0
 30
-1.781705
 40
0.8346456692913386
210
-0.5735764363510486
220
0.8191520442889899
230
-0.0000000000000007
100
AcDbArc
 50
43.457573
 51
180.0
  0
ARC
  5
289
330
70
100
AcDbEntity
  8
Visible
100
AcDbCircle
 10
9.938084
 20
0.533465
 30
1.781705
 40
0.0590551181102365
210
0.5735764363510473
220
-0.819152044288991
230
0.0000000000000008
100
AcDbArc
 50
136.542427
 51
180.0
  0
SPLINE
  5
28A
330
70
100
AcDbEntity
  8
Visible
100
AcDbSpline
 70
     0
 71
     3
 72
    10
 73
     6
 74
     0
 42
0.000000001
 43
0.0000000001
 40
0.1119002411903573
 40
0.1119002411903573
 40
0.1119002411903573
 40
0.1119002411903573
 40
0.1157227430271028
 40
0.1157227430271028
 40
0.150830338685034
 40
0.150830338685034
 40
0.150830338685034
 40
0.150830338685034
 10
8.622984000438009
 20
4.909778455594304
 30
0.5421294053430757
 10
8.62318458203299
 20
4.909414432995584
 30
0.5418321627184924
 10
8.623386417923029
 20
4.909053986389984
 30
0.5415389100216999
 10
8.625450249714049
 20
4.905424002422678
 30
0.5385952645392536
 10
8.627543535540098
 20
4.902131279885679
 30
0.5359841445497296
 10
8.629838526752791
 20
4.898838777237032
 30
0.5334240008269262
1001
ACAD_VIEW_EDGE_ID
1071
       17
1071
       -1
1071
        3
1071
        0
  0
ARC
  5
28B
330
70
100
AcDbEntity
  8
Visible
100
AcDbCircle
 10
8.946466
 20
5.531183
 30
0.590551
 40
0.589815815119764
100
AcDbArc
 50
35.0
 51
103.821895
  0
LINE
  5
28C
330
70
100
AcDbEntity
  8
Visible
100
AcDbLine
 10
8.627468
 20
4.958446
 30
0.590551
 11
8.633521
 21
4.949802
 31
0.590551
210
0.0
220
1.0
230
0.0
  0
ARC
  5
28D
330
70
100
AcDbEntity
  8
Visible
100
AcDbCircle
 10
10.501072
 20
0.0
 30
0.741512
 40
0.834645669291341
210
0.5735764363510461
220
-0.8191520442889919
230
-0.0000000000000007
100
AcDbArc
 50
0.0
 51
45.035695
  0
LINE
  5
28E
330
70
100
AcDbEntity
  8
Visible
100
AcDbLine
 10
9.510437
 20
5.754061
 30
0.590551
 11
9.429615
 21
5.869487
 31
0.590551
210
0.0
220
1.0
230
0.0
  0
LINE
  5
28F
330
70
100
AcDbEntity
  8
Visible
100
AcDbLine
 10
9.135956
 20
4.222005
 30
0.484292
 11
9.926317
 21
3.093252
 31
0.484292
210
0.0
220
1.0
230
0.0
  0
ARC
  5
290
330
70
100
AcDbEntity
  8
Visible
100
AcDbCircle
 10
10.501072
 20
0.0
 30
3.159658
 40
0.7677165354330706
210
0.5735764363510459
220
-0.819152044288992
230
0.0000000000000001
100
AcDbArc
 50
0.0
 51
140.889255
  0
LINE
  5
291
330
70
100
AcDbEntity
  8
Visible
100
AcDbLine
 10
10.30762
 20
5.042414
 30
0.0
 11
9.71099
 21
5.89449
 31
0.0
210
0.0
220
1.0
230
0.0
  0
LINE
  5
292
330
70
100
AcDbEntity
  8
Visible
100
AcDbLine
 10
10.252795
 20
5.004025
 30
0.0
 11
11.043156
 21
3.875272
 31
0.0
210
0.0
220
1.0
230
0.0
  0
LINE
  5
293
330
70
100
AcDbEntity
  8
Visible
100
AcDbLine
 10
9.11437
 20
4.206891
 30
0.533465
 11
8.62987
 21
4.898829
 31
0.533465
210
0.0
220
1.0
230
0.0
  0
ARC
  5
294
330
70
100
AcDbEntity
  8
Visible
100
AcDbCircle
 10
-3.229021
 20
5.531183
 30
-2.327873
 40
0.6771653543307083
210
0.0000000000002969
220
0.0
230
-1.0
100
AcDbArc
 50
314.473668
 51
225.526332
  0
ARC
  5
295
330
70
100
AcDbEntity
  8
Visible
100
AcDbCircle
 10
3.229021
 20
5.531183
 30
2.327873
 40
0.7677165354330705
100
AcDbArc
 50
309.110745
 51
230.889255
  0
ARC
  5
296
330
70
100
AcDbEntity
  8
Visible
100
AcDbCircle
 10
2.695556
 20
4.968194
 30
2.327873
 40
0.0590551181102368
100
AcDbArc
 50
326.372551
 51
0.0
  0
LINE
  5
297
330
70
100
AcDbEntity
  8
Visible
100
AcDbLine
 10
2.754611
 20
4.968194
 30
2.327873
 11
2.754611
 21
5.047976
 31
2.327873
210
0.0
220
1.0
230
0.0
  0
LINE
  5
298
330
70
100
AcDbEntity
  8
Visible
100
AcDbLine
 10
3.70343
 20
5.047976
 30
2.327873
 11
3.70343
 21
4.968194
 31
2.327873
210
0.0
220
1.0
230
0.0
  0
ARC
  5
299
330
70
100
AcDbEntity
  8
Visible
100
AcDbCircle
 10
3.762485
 20
4.968194
 30
2.327873
 40
0.0590551181102716
100
AcDbArc
 50
180.0
 51
213.627449
  0
LINE
  5
29A
330
70
100
AcDbEntity
  8
Visible
100
AcDbLine
 10
2.754611
 20
5.047976
 30
0.94992
 11
2.754611
 21
5.877643
 31
0.94992
210
0.0
220
1.0
230
0.0
  0
LINE
  5
29B
330
70
100
AcDbEntity
  8
Visible
100
AcDbLine
 10
2.754611
 20
5.877643
 30
0.94992
 11
3.70343
 21
5.877643
 31
0.94992
210
0.0
220
1.0
230
0.0
  0
LINE
  5
29C
330
70
100
AcDbEntity
  8
Visible
100
AcDbLine
 10
3.70343
 20
5.877643
 30
0.94992
 11
3.70343
 21
5.047976
 31
0.94992
210
0.0
220
1.0
230
0.0
  0
ARC
  5
29D
330
70
100
AcDbEntity
  8
Visible
100
AcDbCircle
 10
3.762485
 20
4.968194
 30
0.94992
 40
0.0590551181102361
100
AcDbArc
 50
213.627449
 51
313.457573
  0
ARC
  5
29E
330
70
100
AcDbEntity
  8
Visible
100
AcDbCircle
 10
-3.229021
 20
5.531183
 30
-0.94992
 40
0.8346456692913386
210
0.000000000000297
220
0.0000000000000027
230
-1.0
100
AcDbArc
 50
313.457573
 51
226.542427
  0
ARC
  5
29F
330
70
100
AcDbEntity
  8
Visible
100
AcDbCircle
 10
2.695556
 20
4.968194
 30
0.94992
 40
0.0590551181102362
100
AcDbArc
 50
226.542427
 51
326.372551
  0
ARC
  5
2A0
330
70
100
AcDbEntity
  8
Visible
100
AcDbCircle
 10
3.229021
 20
-0.712377
 30
-5.489986
 40
0.7165354330708663
210
0.000000000000026
220
-0.9961946980917453
230
-0.0871557427476605
100
AcDbArc
 50
228.540696
 51
311.459304
  0
LINE
  5
2A1
330
70
100
AcDbEntity
  8
Visible
100
AcDbLine
 10
3.70343
 20
4.762402
 30
-1.192438
 11
2.754611
 21
4.762402
 31
-1.192438
210
0.0
220
1.0
230
0.0
  0
ARC
  5
2A2
330
70
100
AcDbEntity
  8
Visible
100
AcDbCircle
 10
2.695556
 20
-2.798941
 30
-3.217177
 40
0.0590551181102361
210
0.0000000000001714
220
-0.8191520442889904
230
-0.573576436351048
100
AcDbArc
 50
33.627449
 51
133.457573
  0
ARC
  5
2A3
330
70
100
AcDbEntity
  8
Visible
100
AcDbCircle
 10
-3.229021
 20
-3.36193
 30
3.217177
 40
0.8346456692913372
210
-0.0000000000001711
220
0.8191520442889903
230
0.5735764363510483
100
AcDbArc
 50
133.457573
 51
180.0
  0
ARC
  5
2A4
330
70
100
AcDbEntity
  8
Visible
100
AcDbCircle
 10
-3.229021
 20
-3.36193
 30
3.217177
 40
0.8346456692913406
210
-0.0000000000001711
220
0.8191520442889901
230
0.5735764363510484
100
AcDbArc
 50
360.0
 51
46.542427
  0
ARC
  5
2A5
330
70
100
AcDbEntity
  8
Visible
100
AcDbCircle
 10
3.762485
 20
-2.798941
 30
-3.217177
 40
0.0590551181102362
210
0.0000000000001706
220
-0.8191520442889903
230
-0.5735764363510483
100
AcDbArc
 50
46.542427
 51
146.372551
  0
SPLINE
  5
2A6
330
70
100
AcDbEntity
  8
Visible
100
AcDbSpline
 70
     0
 71
     3
 72
    14
 73
    10
 74
     0
 42
0.000000001
 43
0.0000000001
 40
0.0
 40
0.0
 40
0.0
 40
0.0
 40
0.1123436420640593
 40
0.1123436420640593
 40
0.2246872841281186
 40
0.2246872841281186
 40
0.4493745682562372
 40
0.4493745682562372
 40
0.4870211711069662
 40
0.4870211711069662
 40
0.4870211711069662
 40
0.4870211711069662
 10
2.754611279862729
 20
4.804740155153038
 30
-0.0525608281805035
 10
2.754611279862729
 20
4.808260449845974
 30
-0.0382440113535267
 10
2.752384218136285
 20
4.813525189451713
 30
-0.0245422597290599
 10
2.745652706224063
 20
4.826230202922301
 30
0.0018672713486012
 10
2.741070585250781
 20
4.833717691258345
 30
0.0145324441509729
 10
2.72491061355322
 20
4.858638840846239
 30
0.0502526817872422
 10
2.71128426501491
 20
4.87839813063828
 30
0.0711080290293467
 10
2.692920900663011
 20
4.902252289748605
 30
0.0878108910546871
 10
2.690011622053134
 20
4.905978059499425
 30
0.0902028098480514
 10
2.686908994692203
 20
4.909786928071402
 30
0.0923104727571627
1001
ACAD_VIEW_EDGE_ID
1071
        9
1071
       -1
1071
        3
1071
        0
  0
ARC
  5
2A7
330
70
100
AcDbEntity
  8
Visible
100
AcDbCircle
 10
-5.531183
 20
-0.231182
 30
-2.754611
 40
0.7480807070426886
210
-1.0
220
0.0000000000000005
230
-0.000000000000298
100
AcDbArc
 50
325.0
 51
346.185858
  0
ARC
  5
2A8
330
70
100
AcDbEntity
  8
Visible
100
AcDbCircle
 10
3.229021
 20
4.398279
 30
-3.36193
 40
0.8858267716536547
210
-0.0000000000001153
220
-0.5735764363508871
230
0.8191520442891031
100
AcDbArc
 50
236.341972
 51
237.618404
  0
ARC
  5
2A9
330
70
100
AcDbEntity
  8
Visible
100
AcDbCircle
 10
3.229021
 20
4.398279
 30
-3.36193
 40
0.8858267716547265
210
0.0000000000004774
220
-0.5735764363519625
230
0.8191520442883501
100
AcDbArc
 50
302.381596
 51
303.658028
  0
ARC
  5
2AA
330
70
100
AcDbEntity
  8
Visible
100
AcDbCircle
 10
5.531183
 20
-0.231182
 30
3.70343
 40
0.7480807070426893
210
1.0
220
0.0000000000000014
230
0.000000000000298
100
AcDbArc
 50
193.814142
 51
215.0
  0
SPLINE
  5
2AB
330
70
100
AcDbEntity
  8
Visible
100
AcDbSpline
 70
     0
 71
     3
 72
    14
 73
    10
 74
     0
 42
0.000000001
 43
0.0000000001
 40
0.1119002411903665
 40
0.1119002411903665
 40
0.1119002411903665
 40
0.1119002411903665
 40
0.1157227430271028
 40
0.1157227430271028
 40
0.3897489425160236
 40
0.3897489425160236
 40
0.5049991497985687
 40
0.5049991497985687
 40
0.587907066336591
 40
0.587907066336591
 40
0.587907066336591
 40
0.587907066336591
 10
3.771150134027266
 20
4.909778455594302
 30
0.0922997672496422
 10
3.770852891402682
 20
4.909414432995582
 30
0.0920991856546607
 10
3.77055963870589
 20
4.909053986389984
 30
0.0918973497646221
 10
3.749550493415881
 20
4.883146362313604
 30
0.077167538644062
 10
3.731480067244774
 20
4.856427720130515
 30
0.0485001623965218
 10
3.714629234606036
 20
4.829906528961477
 30
0.0082202688226971
 10
3.709976566642581
 20
4.822116191651414
 30
-0.005663934714903
 10
3.704777110944633
 20
4.811222443126
 30
-0.0308369699632749
 10
3.703430177500194
 20
4.807400276676347
 30
-0.0417422814662132
 10
3.703430177500194
 20
4.804740155153039
 30
-0.0525608281805035
1001
ACAD_VIEW_EDGE_ID
1071
       17
1071
       -1
1071
        3
1071
        0
  0
ARC
  5
2AC
330
70
100
AcDbEntity
  8
Visible
100
AcDbCircle
 10
-3.229021
 20
4.398279
 30
3.36193
 40
0.8464566928520117
210
0.0000000000535535
220
0.5735764364154861
230
-0.8191520442438704
100
AcDbArc
 50
304.08797
 51
304.168006
  0
LINE
  5
2AD
330
70
100
AcDbEntity
  8
Visible
100
AcDbLine
 10
2.754611
 20
4.956944
 30
-0.633269
 11
2.754611
 21
4.918391
 31
-0.660264
210
0.0
220
1.0
230
0.0
  0
ARC
  5
2AE
330
70
100
AcDbEntity
  8
Visible
100
AcDbCircle
 10
-3.229021
 20
4.398279
 30
3.36193
 40
0.8464566932915198
210
-0.000000000130982
220
0.5735764365096017
230
-0.8191520441779699
100
AcDbArc
 50
235.831994
 51
235.91203
  0
LINE
  5
2AF
330
70
100
AcDbEntity
  8
Visible
100
AcDbLine
 10
3.70343
 20
4.918391
 30
-0.660264
 11
3.70343
 21
4.956944
 31
-0.633269
210
0.0
220
1.0
230
0.0
  0
ARC
  5
2B0
330
70
100
AcDbEntity
  8
Visible
100
AcDbCircle
 10
-5.531183
 20
-0.231182
 30
-2.754611
 40
0.7010168384915702
210
-1.0
220
0.0
230
-0.0000000000002969
100
AcDbArc
 50
323.427441
 51
325.0
  0
ARC
  5
2B1
330
70
100
AcDbEntity
  8
Visible
100
AcDbCircle
 10
-3.229021
 20
4.398279
 30
3.70839
 40
0.7723045437352411
210
0.0000000000002442
220
0.5735764363510478
230
-0.8191520442889908
100
AcDbArc
 50
232.100546
 51
307.899454
  0
ARC
  5
2B2
330
70
100
AcDbEntity
  8
Visible
100
AcDbCircle
 10
5.531183
 20
-0.231182
 30
3.70343
 40
0.7010168384932724
210
1.0
220
0.0000000000002673
230
0.0000000000004923
100
AcDbArc
 50
215.0
 51
216.572559
  0
ARC
  5
2B3
330
70
100
AcDbEntity
  8
Visible
100
AcDbCircle
 10
-3.229021
 20
-3.36193
 30
1.839224
 40
0.6771653543307076
210
-0.0000000000001703
220
0.8191520442889924
230
0.5735764363510456
100
AcDbArc
 50
225.526332
 51
314.473668
  0
LINE
  5
2B4
330
70
100
AcDbEntity
  8
Visible
100
AcDbLine
 10
2.754611
 20
3.112011
 30
-1.237823
 11
2.754611
 21
4.80474
 31
-0.052561
210
0.0
220
1.0
230
0.0
  0
LINE
  5
2B5
330
70
100
AcDbEntity
  8
Visible
100
AcDbLine
 10
2.744729
 20
4.222005
 30
-0.420672
 11
2.744729
 21
3.093252
 31
-1.211033
210
0.0
220
1.0
230
0.0
  0
ARC
  5
2B6
330
70
100
AcDbEntity
  8
Visible
100
AcDbCircle
 10
2.695556
 20
-2.798941
 30
-1.839224
 40
0.0590551181102718
210
0.0000000000001676
220
-0.819152044288989
230
-0.5735764363510504
100
AcDbArc
 50
360.0
 51
33.627449
  0
LINE
  5
2B7
330
70
100
AcDbEntity
  8
Visible
100
AcDbLine
 10
3.713313
 20
4.222005
 30
-0.420672
 11
3.713313
 21
3.093252
 31
-1.211033
210
0.0
220
1.0
230
0.0
  0
ARC
  5
2B8
330
70
100
AcDbEntity
  8
Visible
100
AcDbCircle
 10
3.229021
 20
-3.36193
 30
-1.839224
 40
0.767716535433071
210
0.0000000000001703
220
-0.8191520442889919
230
-0.573576436351046
100
AcDbArc
 50
129.110745
 51
180.0
  0
ARC
  5
2B9
330
70
100
AcDbEntity
  8
Visible
100
AcDbCircle
 10
3.229021
 20
-3.36193
 30
-1.839224
 40
0.76771653543307
210
0.0000000000001706
220
-0.8191520442889922
230
-0.5735764363510454
100
AcDbArc
 50
0.0
 51
50.889255
  0
ARC
  5
2BA
330
70
100
AcDbEntity
  8
Visible
100
AcDbCircle
 10
3.762485
 20
-2.798941
 30
-1.839224
 40
0.0590551181102367
210
0.0000000000001749
220
-0.8191520442889919
230
-0.5735764363510459
100
AcDbArc
 50
146.372551
 51
180.0
  0
LINE
  5
2BB
330
70
100
AcDbEntity
  8
Visible
100
AcDbLine
 10
3.70343
 20
3.112011
 30
-1.237823
 11
3.70343
 21
4.80474
 31
-0.052561
210
0.0
220
1.0
230
0.0
  0
LINE
  5
2BC
330
70
100
AcDbEntity
  8
Visible
100
AcDbLine
 10
2.394375
 20
4.56368
 30
-0.908635
 11
2.394375
 21
5.531183
 31
-0.231182
210
0.0
220
1.0
230
0.0
  0
LINE
  5
2BD
330
70
100
AcDbEntity
  8
Visible
100
AcDbLine
 10
4.063666
 20
4.56368
 30
-0.908635
 11
4.063666
 21
5.531183
 31
-0.231182
210
0.0
220
1.0
230
0.0
  0
LINE
  5
2BE
330
70
100
AcDbEntity
  8
Visible
100
AcDbLine
 10
3.996737
 20
4.375844
 30
-1.040159
 11
3.996737
 21
3.434928
 31
-1.698996
210
0.0
220
1.0
230
0.0
  0
LINE
  5
2BF
330
70
100
AcDbEntity
  8
Visible
100
AcDbLine
 10
2.461304
 20
4.375844
 30
-1.040159
 11
2.461304
 21
3.434928
 31
-1.698996
210
0.0
220
1.0
230
0.0
  0
ARC
  5
2C0
330
70
100
AcDbEntity
  8
Visible
100
AcDbCircle
 10
-13.838955
 20
-3.804532
 30
-3.840722
 40
0.7677165354330708
210
-0.7071067811866527
220
0.4071957137922736
230
-0.578093115915639
100
AcDbArc
 50
0.0
 51
180.0
  0
ARC
  5
2C1
330
70
100
AcDbEntity
  8
Visible
100
AcDbCircle
 10
13.838955
 20
-3.804532
 30
5.218675
 40
0.8346456692913386
210
0.7071067811866524
220
-0.4071957137922715
230
0.5780931159156408
100
AcDbArc
 50
360.0
 51
180.0
  0
SPLINE
  5
2C2
330
70
100
AcDbEntity
  8
Visible
100
AcDbSpline
 70
     0
 71
     3
 72
    16
 73
    12
 74
     0
 42
0.000000001
 43
0.0000000001
 40
7.060693573836062
 40
7.060693573836062
 40
7.060693573836062
 40
7.060693573836062
 40
7.196846187963378
 40
7.196846187963378
 40
7.663604238117969
 40
7.663604238117969
 40
8.130362288272559
 40
8.130362288272559
 40
8.432593646820663
 40
8.432593646820663
 40
8.467425420547192
 40
8.467425420547192
 40
8.467425420547192
 40
8.467425420547192
 10
12.686607457028
 20
7.700736858067864
 30
0.4147279890415807
 10
12.68230850292457
 20
7.70342515155179
 30
0.4321988834249804
 10
12.67843316788276
 20
7.706480182953933
 30
0.4495712698199861
 10
12.66307033364501
 20
7.72148204793027
 30
0.5257240079639188
 10
12.65479204564508
 20
7.738670070552087
 30
0.5900693431982833
 10
12.64765219877881
 20
7.783642816592479
 30
0.7154379036524388
 10
12.64890670416571
 20
7.811233439680151
 30
0.7765372537839333
 10
12.65242855404358
 20
7.863005213342835
 30
0.863091112227989
 10
12.6547331784368
 20
7.88808037216116
 30
0.8989436440435291
 10
12.65236795012606
 20
7.92125531346224
 30
0.930021781326063
 10
12.65205729501213
 20
7.924754249808752
 30
0.9331328224045144
 10
12.65166685420627
 20
7.928321351322918
 30
0.936122983922306
1001
ACAD_VIEW_EDGE_ID
1071
       31
1071
       -1
1071
        2
1071
        0
  0
ARC
  5
2C3
330
70
100
AcDbEntity
  8
Visible
100
AcDbCircle
 10
-0.52742
 20
9.558584
 30
-13.052636
 40
0.5898158151197642
210
-0.707106781186443
220
-0.4071957137923948
230
0.5780931159158103
100
AcDbArc
 50
65.239752
 51
134.81745
  0
ARC
  5
2C4
330
70
100
AcDbEntity
  8
Visible
100
AcDbCircle
 10
-13.838955
 20
-3.804532
 30
-6.258867
 40
0.8346456692913386
210
-0.7071067811866523
220
0.4071957137922715
230
-0.5780931159156408
100
AcDbArc
 50
38.321809
 51
90.075098
  0
ARC
  5
2C5
330
70
100
AcDbEntity
  8
Visible
100
AcDbCircle
 10
0.52742
 20
9.558584
 30
11.871534
 40
0.5898158151197645
210
0.7071067811864426
220
0.4071957137923941
230
-0.5780931159158108
100
AcDbArc
 50
44.889207
 51
99.889207
  0
LINE
  5
2C6
330
70
100
AcDbEntity
  8
Visible
100
AcDbLine
 10
12.82013
 20
8.588199
 30
1.194867
 11
12.919768
 21
8.530821
 31
1.276326
210
0.0
220
0.8175471248425397
230
0.5758617009853121
  0
ARC
  5
2C7
330
70
100
AcDbEntity
  8
Visible Narrow
100
AcDbCircle
 10
13.838955
 20
-3.804532
 30
6.399777
 40
0.8346456692913378
210
0.7071067811866526
220
-0.4071957137922716
230
0.5780931159156406
100
AcDbArc
 50
44.889207
 51
89.924902
  0
ARC
  5
2C8
330
70
100
AcDbEntity
  8
Visible Narrow
100
AcDbCircle
 10
13.838955
 20
-3.804532
 30
6.399777
 40
0.8346456692913395
210
0.7071067811866524
220
-0.4071957137922714
230
0.5780931159156406
100
AcDbArc
 50
360.0
 51
44.889207
  0
LINE
  5
2C9
330
70
100
AcDbEntity
  8
Visible
100
AcDbLine
 10
11.955012
 20
8.199213
 30
-0.221632
 11
11.14471
 21
8.665835
 31
-0.884092
210
0.0
220
0.8175471248425397
230
0.5758617009853121
  0
LINE
  5
2CA
330
70
100
AcDbEntity
  8
Visible
100
AcDbLine
 10
12.721243
 20
9.529793
 30
-0.221632
 11
11.91094
 21
9.996415
 31
-0.884092
210
0.0
220
0.8175471248425397
230
0.5758617009853121
  0
LINE
  5
2CB
330
70
100
AcDbEntity
  8
Visible
100
AcDbLine
 10
12.9187
 20
9.493319
 30
-0.087507
 11
13.753866
 21
9.012379
 31
0.59528
210
0.0
220
0.8175471248425397
230
0.5758617009853121
  0
LINE
  5
2CC
330
70
100
AcDbEntity
  8
Visible
100
AcDbLine
 10
12.08567
 20
8.046738
 30
-0.087507
 11
12.686641
 21
7.700662
 31
0.403815
210
0.0
220
0.8175471248425397
230
0.5758617009853121
  0
ARC
  5
2CD
330
70
100
AcDbEntity
  8
Visible
100
AcDbCircle
 10
-13.33735
 20
8.289089
 30
-0.59528
 40
0.834645669291339
210
0.0
220
0.0000000000000006
230
-1.0
100
AcDbArc
 50
119.935992
 51
120.19004
  0
ARC
  5
2CE
330
70
100
AcDbEntity
  8
Visible
100
AcDbCircle
 10
-15.562462
 20
0.295328
 30
0.980106
 40
0.8346456692913388
210
-0.4055797876727003
220
0.9032532650317467
230
0.1401377002838873
100
AcDbArc
 50
360.0
 51
180.0
  0
ARC
  5
2CF
330
70
100
AcDbEntity
  8
Visible
100
AcDbCircle
 10
-0.52742
 20
9.558584
 30
-11.871534
 40
0.5898158151197634
210
-0.7071067811864433
220
-0.407195713792394
230
0.5780931159158103
100
AcDbArc
 50
80.110793
 51
149.906059
  0
ARC
  5
2D0
330
70
100
AcDbEntity
  8
Visible Narrow
100
AcDbCircle
 10
-15.562462
 20
0.295328
 30
2.161208
 40
0.8346456692913385
210
-0.4055797876727004
220
0.9032532650317467
230
0.1401377002838876
100
AcDbArc
 50
22.330425
 51
80.686417
  0
ARC
  5
2D1
330
70
100
AcDbEntity
  8
Visible Narrow
100
AcDbCircle
 10
-15.562462
 20
0.295328
 30
2.161208
 40
0.8346456692913173
210
-0.4055797876726964
220
0.9032532650317483
230
0.1401377002838878
100
AcDbArc
 50
170.757808
 51
180.0
  0
LINE
  5
2D2
330
70
100
AcDbEntity
  8
Visible
100
AcDbLine
 10
14.096571
 20
8.609402
 30
0.728008
 11
14.153721
 21
8.482125
 31
0.708261
210
0.0
220
0.8175471248425397
230
0.5758617009853121
  0
ARC
  5
2D3
330
70
100
AcDbEntity
  8
Visible
100
AcDbCircle
 10
15.562462
 20
0.295328
 30
-2.020298
 40
0.8346456692913386
210
0.405579787672701
220
-0.9032532650317463
230
-0.1401377002838865
100
AcDbArc
 50
9.242192
 51
99.313583
  0
LINE
  5
2D4
330
70
100
AcDbEntity
  8
Visible
100
AcDbLine
 10
13.318556
 20
8.001185
 30
1.391049
 11
13.261406
 21
8.128463
 31
1.410795
210
0.0
220
0.8175471248425397
230
0.5758617009853121
  0
ARC
  5
2D5
330
70
100
AcDbEntity
  8
Visible
100
AcDbCircle
 10
0.52742
 20
9.558584
 30
13.052636
 40
0.5898158151197643
210
0.7071067811864437
220
0.4071957137923944
230
-0.5780931159158095
100
AcDbArc
 50
45.18255
 51
99.889207
  0
ARC
  5
2D6
330
70
100
AcDbEntity
  8
Visible
100
AcDbCircle
 10
15.562462
 20
0.295328
 30
0.397847
 40
0.7677165354330709
210
0.4055797876726989
220
-0.9032532650317468
230
-0.1401377002838903
100
AcDbArc
 50
0.0
 51
180.0
  0
LINE
  5
2D7
330
70
100
AcDbEntity
  8
Visible
100
AcDbLine
 10
13.054972
 20
6.880365
 30
0.429763
 11
12.649074
 21
7.784326
 31
0.570011
210
0.0
220
0.8175471248425397
230
0.5758617009853121
  0
LINE
  5
2D8
330
70
100
AcDbEntity
  8
Visible
100
AcDbLine
 10
14.577792
 20
7.564143
 30
0.429763
 11
14.09876
 21
8.630978
 31
0.59528
210
0.0
220
0.8175471248425397
230
0.5758617009853121
  0
ARC
  5
2D9
330
70
100
AcDbEntity
  8
Visible
100
AcDbCircle
 10
-13.33735
 20
8.289089
 30
-0.59528
 40
0.834645669291339
210
0.0000000000000001
220
0.0000000000000005
230
-1.0
100
AcDbArc
 50
120.19004
 51
155.818913
  0
LINE
  5
2DA
330
70
100
AcDbEntity
  8
Visible
100
AcDbLine
 10
14.535534
 20
7.494862
 30
0.423268
 11
15.075605
 21
6.292087
 31
0.23666
210
0.0
220
0.8175471248425397
230
0.5758617009853121
  0
LINE
  5
2DB
330
70
100
AcDbEntity
  8
Visible
100
AcDbLine
 10
13.134827
 20
6.865915
 30
0.423268
 11
13.674898
 21
5.66314
 31
0.23666
210
0.0
220
0.8175471248425397
230
0.5758617009853121
  0
ENDSEC
  0
SECTION
  2
OBJECTS
  0
DICTIONARY
  5
C
330
0
100
AcDbDictionary
281
     1
  3
ACAD_COLOR
350
63
  3
ACAD_DETAILVIEWSTYLE
350
6A
  3
ACAD_GROUP
350
D
  3
ACAD_IMAGE_DICT
350
132
  3
ACAD_IMAGE_VARS
350
134
  3
ACAD_LAYOUT
350
62
  3
ACAD_MATERIAL
350
10
  3
ACAD_MLEADERSTYLE
350
66
  3
ACAD_MLINESTYLE
350
5F
  3
ACAD_PLOTSETTINGS
350
61
  3
ACAD_PLOTSTYLENAME
350
E
  3
ACAD_SCALELIST
350
42
  3
ACAD_SECTIONVIEWSTYLE
350
68
  3
ACAD_TABLESTYLE
350
64
  3
ACAD_VISUALSTYLE
350
29
  3
ACDB_RECOMPOSE_DATA
350
314
  3
AcDbVariableDictionary
350
30B
  0
DICTIONARY
  5
B2
330
70
100
AcDbDictionary
280
     1
281
     1
  3
ACAD_SORTENTS
360
128
  0
DICTIONARY
  5
12C
330
12B
100
AcDbDictionary
280
     1
281
     1
  3
ACAD_SORTENTS
360
27A
  0
IMAGEDEF_REACTOR
  5
133
330
130
100
AcDbRasterImageDefReactor
 90
        2
330
130
  0
DICTIONARY
  5
63
102
{ACAD_REACTORS
330
C
102
}
330
C
100
AcDbDictionary
281
     1
  0
DICTIONARY
  5
6A
102
{ACAD_REACTORS
330
C
102
}
330
C
100
AcDbDictionary
281
     1
  3
Imperial24
350
6B
  0
DICTIONARY
  5
D
102
{ACAD_REACTORS
330
C
102
}
330
C
100
AcDbDictionary
281
     1
  0
DICTIONARY
  5
132
102
{ACAD_REACTORS
330
C
102
}
330
C
100
AcDbDictionary
281
     1
  3
morse_logo-16 (1)_01-2018(B)_1_1
350
131
  0
RASTERVARIABLES
  5
134
102
{ACAD_REACTORS
330
C
102
}
330
C
100
AcDbRasterVariables
 90
        0
 70
     0
 71
     1
 72
     5
  0
DICTIONARY
  5
62
102
{ACAD_REACTORS
330
C
102
}
330
C
100
AcDbDictionary
281
     1
  3
Model
350
73
  3
Sheet1
350
6F
  3
Sheet2
350
77
  0
DICTIONARY
  5
10
102
{ACAD_REACTORS
330
C
102
}
330
C
100
AcDbDictionary
281
     1
  3
ByBlock
350
19
  3
ByLayer
350
11
  3
Global
350
21
  0
DICTIONARY
  5
66
102
{ACAD_REACTORS
330
C
102
}
330
C
100
AcDbDictionary
281
     1
  3
Standard
350
67
  0
DICTIONARY
  5
5F
102
{ACAD_REACTORS
330
C
102
}
330
C
100
AcDbDictionary
281
     1
  3
Standard
350
60
  0
DICTIONARY
  5
61
102
{ACAD_REACTORS
330
C
102
}
330
C
100
AcDbDictionary
281
     1
  0
ACDBDICTIONARYWDFLT
  5
E
102
{ACAD_REACTORS
330
C
102
}
330
C
100
AcDbDictionary
281
     1
  3
Normal
350
F
100
AcDbDictionaryWithDefault
340
F
  0
DICTIONARY
  5
42
102
{ACAD_REACTORS
330
C
102
}
330
C
100
AcDbDictionary
281
     1
  3
*A1
350
A2
  3
*A10
350
AB
  3
*A11
350
AC
  3
*A12
350
AD
  3
*A13
350
AE
  3
*A14
350
AF
  3
*A15
350
B0
  3
*A16
350
B1
  3
*A2
350
A3
  3
*A3
350
A4
  3
*A4
350
A5
  3
*A5
350
A6
  3
*A6
350
A7
  3
*A7
350
A8
  3
*A8
350
A9
  3
*A9
350
AA
  3
A0
350
43
  3
A1
350
44
  3
A2
350
45
  3
A3
350
46
  3
A4
350
47
  3
A5
350
48
  3
A6
350
49
  3
A7
350
4A
  3
A8
350
4B
  3
A9
350
4C
  3
B0
350
4D
  3
B1
350
4E
  3
B2
350
4F
  3
B3
350
50
  3
B4
350
51
  3
B5
350
52
  3
B6
350
53
  0
DICTIONARY
  5
68
102
{ACAD_REACTORS
330
C
102
}
330
C
100
AcDbDictionary
281
     1
  3
Imperial24
350
69
  0
DICTIONARY
  5
64
102
{ACAD_REACTORS
330
C
102
}
330
C
100
AcDbDictionary
281
     1
  3
Standard
350
65
  0
DICTIONARY
  5
29
102
{ACAD_REACTORS
330
C
102
}
330
C
100
AcDbDictionary
281
     1
  3
2dWireframe
350
2F
  3
Basic
350
2E
  3
Brighten
350
35
  3
ColorChange
350
39
  3
Conceptual
350
32
  3
Dim
350
34
  3
EdgeColorOff
350
41
  3
Facepattern
350
38
  3
Flat
350
2A
  3
FlatWithEdges
350
2B
  3
Gouraud
350
2C
  3
GouraudWithEdges
350
2D
  3
Hidden
350
31
  3
JitterOff
350
3F
  3
Linepattern
350
37
  3
OverhangOff
350
40
  3
Realistic
350
33
  3
Shaded
350
3E
  3
Shaded with edges
350
3D
  3
Shades of Gray
350
3A
  3
Sketchy
350
3B
  3
Thicken
350
36
  3
Wireframe
350
30
  3
X-Ray
350
3C
  0
XRECORD
  5
314
102
{ACAD_REACTORS
330
C
102
}
330
C
100
AcDbXrecord
280
     1
 90
        1
330
65
330
138
330
142
330
143
330
144
330
147
  0
DICTIONARY
  5
30B
102
{ACAD_REACTORS
330
C
102
}
330
C
100
AcDbDictionary
281
     1
  3
ANNOALLVISIBLE
350
310
  3
CANNOSCALE
350
311
  3
CMLEADERSTYLE
350
30D
  3
CTABLESTYLE
350
30C
  3
CVIEWDETAILSTYLE
350
30E
  3
CVIEWSECTIONSTYLE
350
30F
  0
SORTENTSTABLE
  5
128
102
{ACAD_REACTORS
330
B2
102
}
330
B2
100
AcDbSortentsTable
330
70
  0
SORTENTSTABLE
  5
27A
102
{ACAD_REACTORS
330
12C
102
}
330
12C
100
AcDbSortentsTable
330
12B
  0
ACDBDETAILVIEWSTYLE
  5
6B
102
{ACAD_XDICTIONARY
360
317
102
}
102
{ACAD_REACTORS
330
6A
102
}
330
6A
100
AcDbModelDocViewStyle
 70
     0
  3
Imperial24
290
     0
100
AcDbDetailViewStyle
 70
     0
 71
     0
 90
        3
 71
     1
340
55
 62
   256
 40
0.24
340
0
 62
   256
 40
0.24
300

 40
0.36
280
     3
 71
     2
340
5D
 90
       25
 62
   256
 71
     3
340
55
 62
   256
 40
0.24
 90
        1
 40
0.75
 90
        1
300
%<\AcVar ViewType \f "%tc1">% %<\AcVar ViewDetailId>%\PSCALE %<\AcVar ViewScale \f "%sn">%
 71
     4
340
5D
 90
       25
 62
   256
340
5D
 90
       25
 62
   256
280
     0
  0
IMAGEDEF
  5
131
102
{ACAD_REACTORS
330
132
330
133
330
2DC
102
}
330
132
100
AcDbRasterImageDef
 90
        0
  1
morse_logo-16 (1)_01-2018(B)_1_1.jpg
 10
948.0
 20
333.0
 11
0.264583
 21
0.264583
280
     1
281
     5
  0
LAYOUT
  5
73
102
{ACAD_REACTORS
330
62
102
}
330
62
100
AcDbPlotSettings
  1

  2
AutoCAD PDF (High Quality Print).pc3
  4
ANSI_full_bleed_B_(17.00_x_11.00_Inches)
  6

 40
0.0
 41
0.0
 42
0.0
 43
0.0
 44
431.799988
 45
279.399994
 46
0.0
 47
0.0
 48
0.0
 49
0.0
140
0.0
141
0.0
142
1.0
143
1.690246
 70
 11952
 72
     0
 73
     0
 74
     0
  7

 75
     0
147
0.59163
 76
     0
 77
     2
 78
   300
148
261.127266
149
52.883156
100
AcDbLayout
  1
Model
 70
     1
 71
     0
 10
0.0
 20
0.0
 11
12.0
 21
9.0
 12
0.0
 22
0.0
 32
0.0
 14
0.0
 24
0.0
 34
0.0
 15
0.0
 25
0.0
 35
0.0
146
0.0
 13
0.0
 23
0.0
 33
0.0
 16
1.0
 26
0.0
 36
0.0
 17
0.0
 27
1.0
 37
0.0
 76
     0
330
70
1001
ACAD_PSEXT
1000
AutoCAD PDF (High Quality Print).pc3
1000
DWG To PDF
1000
File
1000

1070
     0
  0
LAYOUT
  5
6F
102
{ACAD_REACTORS
330
62
102
}
330
62
100
AcDbPlotSettings
  1

  2
None
  4

  6

 40
0.0
 41
0.0
 42
0.0
 43
0.0
 44
0.0
 45
0.0
 46
0.0
 47
0.0
 48
0.0
 49
0.0
140
0.0
141
0.0
142
1.0
143
1.0
 70
   688
 72
     0
 73
     0
 74
     5
  7

 75
    16
147
1.0
 76
     0
 77
     2
 78
   300
148
0.0
149
0.0
100
AcDbLayout
  1
Sheet1
 70
     1
 71
     1
 10
0.0
 20
0.0
 11
12.0
 21
9.0
 12
0.0
 22
0.0
 32
0.0
 14
0.0
 24
0.0
 34
0.0
 15
0.0
 25
0.0
 35
0.0
146
0.0
 13
0.0
 23
0.0
 33
0.0
 16
1.0
 26
0.0
 36
0.0
 17
0.0
 27
1.0
 37
0.0
 76
     0
330
6C
  0
LAYOUT
  5
77
102
{ACAD_REACTORS
330
62
102
}
330
62
100
AcDbPlotSettings
  1

  2
None
  4

  6

 40
0.0
 41
0.0
 42
0.0
 43
0.0
 44
0.0
 45
0.0
 46
0.0
 47
0.0
 48
0.0
 49
0.0
140
0.0
141
0.0
142
1.0
143
1.0
 70
   688
 72
     0
 73
     0
 74
     5
  7

 75
    16
147
1.0
 76
     0
 77
     2
 78
   300
148
0.0
149
0.0
100
AcDbLayout
  1
Sheet2
 70
     1
 71
     2
 10
0.0
 20
0.0
 11
12.0
 21
9.0
 12
0.0
 22
0.0
 32
0.0
 14
0.0
 24
0.0
 34
0.0
 15
0.0
 25
0.0
 35
0.0
146
0.0
 13
0.0
 23
0.0
 33
0.0
 16
1.0
 26
0.0
 36
0.0
 17
0.0
 27
1.0
 37
0.0
 76
     0
330
74
  0
MATERIAL
  5
19
102
{ACAD_XDICTIONARY
360
1A
102
}
102
{ACAD_REACTORS
330
10
102
}
330
10
100
AcDbMaterial
  1
ByBlock
 72
     0
 43
0.020833
 43
0.0
 43
0.0
 43
0.0
 43
0.0
 43
0.020833
 43
0.0
 43
0.0
 43
0.0
 43
0.0
 43
1.0
 43
0.0
 43
0.0
 43
0.0
 43
0.0
 43
1.0
 77
     0
 47
0.020833
 47
0.0
 47
0.0
 47
0.0
 47
0.0
 47
0.020833
 47
0.0
 47
0.0
 47
0.0
 47
0.0
 47
1.0
 47
0.0
 47
0.0
 47
0.0
 47
0.0
 47
1.0
171
     0
 49
0.020833
 49
0.0
 49
0.0
 49
0.0
 49
0.0
 49
0.020833
 49
0.0
 49
0.0
 49
0.0
 49
0.0
 49
1.0
 49
0.0
 49
0.0
 49
0.0
 49
0.0
 49
1.0
175
     0
142
0.020833
142
0.0
142
0.0
142
0.0
142
0.0
142
0.020833
142
0.0
142
0.0
142
0.0
142
0.0
142
1.0
142
0.0
142
0.0
142
0.0
142
0.0
142
1.0
179
     0
144
0.020833
144
0.0
144
0.0
144
0.0
144
0.0
144
0.020833
144
0.0
144
0.0
144
0.0
144
0.0
144
1.0
144
0.0
144
0.0
144
0.0
144
0.0
144
1.0
147
0.020833
147
0.0
147
0.0
147
0.0
147
0.0
147
0.020833
147
0.0
147
0.0
147
0.0
147
0.0
147
1.0
147
0.0
147
0.0
147
0.0
147
0.0
147
1.0
  0
MATERIAL
  5
11
102
{ACAD_XDICTIONARY
360
12
102
}
102
{ACAD_REACTORS
330
10
102
}
330
10
100
AcDbMaterial
  1
ByLayer
 72
     0
 43
0.020833
 43
0.0
 43
0.0
 43
0.0
 43
0.0
 43
0.020833
 43
0.0
 43
0.0
 43
0.0
 43
0.0
 43
1.0
 43
0.0
 43
0.0
 43
0.0
 43
0.0
 43
1.0
 77
     0
 47
0.020833
 47
0.0
 47
0.0
 47
0.0
 47
0.0
 47
0.020833
 47
0.0
 47
0.0
 47
0.0
 47
0.0
 47
1.0
 47
0.0
 47
0.0
 47
0.0
 47
0.0
 47
1.0
171
     0
 49
0.020833
 49
0.0
 49
0.0
 49
0.0
 49
0.0
 49
0.020833
 49
0.0
 49
0.0
 49
0.0
 49
0.0
 49
1.0
 49
0.0
 49
0.0
 49
0.0
 49
0.0
 49
1.0
175
     0
142
0.020833
142
0.0
142
0.0
142
0.0
142
0.0
142
0.020833
142
0.0
142
0.0
142
0.0
142
0.0
142
1.0
142
0.0
142
0.0
142
0.0
142
0.0
142
1.0
179
     0
144
0.020833
144
0.0
144
0.0
144
0.0
144
0.0
144
0.020833
144
0.0
144
0.0
144
0.0
144
0.0
144
1.0
144
0.0
144
0.0
144
0.0
144
0.0
144
1.0
147
0.020833
147
0.0
147
0.0
147
0.0
147
0.0
147
0.020833
147
0.0
147
0.0
147
0.0
147
0.0
147
1.0
147
0.0
147
0.0
147
0.0
147
0.0
147
1.0
  0
MATERIAL
  5
21
102
{ACAD_XDICTIONARY
360
22
102
}
102
{ACAD_REACTORS
330
10
102
}
330
10
100
AcDbMaterial
  1
Global
 72
     0
 43
0.020833
 43
0.0
 43
0.0
 43
0.0
 43
0.0
 43
0.020833
 43
0.0
 43
0.0
 43
0.0
 43
0.0
 43
1.0
 43
0.0
 43
0.0
 43
0.0
 43
0.0
 43
1.0
 77
     0
 47
0.020833
 47
0.0
 47
0.0
 47
0.0
 47
0.0
 47
0.020833
 47
0.0
 47
0.0
 47
0.0
 47
0.0
 47
1.0
 47
0.0
 47
0.0
 47
0.0
 47
0.0
 47
1.0
171
     0
 49
0.020833
 49
0.0
 49
0.0
 49
0.0
 49
0.0
 49
0.020833
 49
0.0
 49
0.0
 49
0.0
 49
0.0
 49
1.0
 49
0.0
 49
0.0
 49
0.0
 49
0.0
 49
1.0
175
     0
142
0.020833
142
0.0
142
0.0
142
0.0
142
0.0
142
0.020833
142
0.0
142
0.0
142
0.0
142
0.0
142
1.0
142
0.0
142
0.0
142
0.0
142
0.0
142
1.0
179
     0
144
0.020833
144
0.0
144
0.0
144
0.0
144
0.0
144
0.020833
144
0.0
144
0.0
144
0.0
144
0.0
144
1.0
144
0.0
144
0.0
144
0.0
144
0.0
144
1.0
147
0.020833
147
0.0
147
0.0
147
0.0
147
0.0
147
0.020833
147
0.0
147
0.0
147
0.0
147
0.0
147
1.0
147
0.0
147
0.0
147
0.0
147
0.0
147
1.0
  0
MLEADERSTYLE
  5
67
102
{ACAD_REACTORS
330
66
102
}
330
66
100
AcDbMLeaderStyle
179
     2
170
     2
171
     1
172
     0
 90
        2
 40
0.0
 41
0.0
173
     1
 91
-1056964608
340
5B
 92
       -2
290
     1
 42
0.09
291
     1
 43
0.36
  3
Standard
 44
0.18
300

342
55
174
     1
178
     6
175
     1
176
     0
 93
-1056964608
 45
0.18
292
     0
297
     0
 46
0.18
 94
-1056964608
 47
1.0
 49
1.0
140
1.0
293
     1
141
0.0
294
     1
177
     0
142
1.0
295
     0
296
     0
143
0.125
271
     0
272
     9
273
     9
298
     1
  0
MLINESTYLE
  5
60
102
{ACAD_REACTORS
330
5F
102
}
330
5F
100
AcDbMlineStyle
  2
STANDARD
 70
     0
  3

 62
   256
 51
90.0
 52
90.0
 71
     0
  0
ACDBPLACEHOLDER
  5
F
102
{ACAD_REACTORS
330
E
102
}
330
E
  0
SCALE
  5
A2
102
{ACAD_REACTORS
330
42
102
}
330
42
100
AcDbScale
 70
     0
300
1:2
140
1.0
141
2.0
290
     0
  0
SCALE
  5
AB
102
{ACAD_REACTORS
330
42
102
}
330
42
100
AcDbScale
 70
     0
300
1:50
140
1.0
141
50.0
290
     0
  0
SCALE
  5
AC
102
{ACAD_REACTORS
330
42
102
}
330
42
100
AcDbScale
 70
     0
300
1:100
140
1.0
141
100.0
290
     0
  0
SCALE
  5
AD
102
{ACAD_REACTORS
330
42
102
}
330
42
100
AcDbScale
 70
     0
300
2:1
140
2.0
141
1.0
290
     0
  0
SCALE
  5
AE
102
{ACAD_REACTORS
330
42
102
}
330
42
100
AcDbScale
 70
     0
300
4:1
140
4.0
141
1.0
290
     0
  0
SCALE
  5
AF
102
{ACAD_REACTORS
330
42
102
}
330
42
100
AcDbScale
 70
     0
300
8:1
140
8.0
141
1.0
290
     0
  0
SCALE
  5
B0
102
{ACAD_REACTORS
330
42
102
}
330
42
100
AcDbScale
 70
     0
300
10:1
140
10.0
141
1.0
290
     0
  0
SCALE
  5
B1
102
{ACAD_REACTORS
330
42
102
}
330
42
100
AcDbScale
 70
     0
300
100:1
140
100.0
141
1.0
290
     0
  0
SCALE
  5
A3
102
{ACAD_REACTORS
330
42
102
}
330
42
100
AcDbScale
 70
     0
300
1:4
140
1.0
141
4.0
290
     0
  0
SCALE
  5
A4
102
{ACAD_REACTORS
330
42
102
}
330
42
100
AcDbScale
 70
     0
300
1:5
140
1.0
141
5.0
290
     0
  0
SCALE
  5
A5
102
{ACAD_REACTORS
330
42
102
}
330
42
100
AcDbScale
 70
     0
300
1:8
140
1.0
141
8.0
290
     0
  0
SCALE
  5
A6
102
{ACAD_REACTORS
330
42
102
}
330
42
100
AcDbScale
 70
     0
300
1:10
140
1.0
141
10.0
290
     0
  0
SCALE
  5
A7
102
{ACAD_REACTORS
330
42
102
}
330
42
100
AcDbScale
 70
     0
300
1:16
140
1.0
141
16.0
290
     0
  0
SCALE
  5
A8
102
{ACAD_REACTORS
330
42
102
}
330
42
100
AcDbScale
 70
     0
300
1:20
140
1.0
141
20.0
290
     0
  0
SCALE
  5
A9
102
{ACAD_REACTORS
330
42
102
}
330
42
100
AcDbScale
 70
     0
300
1:30
140
1.0
141
30.0
290
     0
  0
SCALE
  5
AA
102
{ACAD_REACTORS
330
42
102
}
330
42
100
AcDbScale
 70
     0
300
1:40
140
1.0
141
40.0
290
     0
  0
SCALE
  5
43
102
{ACAD_REACTORS
330
42
102
}
330
42
100
AcDbScale
 70
     0
300
1:1
140
1.0
141
1.0
290
     1
  0
SCALE
  5
44
102
{ACAD_REACTORS
330
42
102
}
330
42
100
AcDbScale
 70
     0
300
1/128" = 1'-0"
140
0.007813
141
12.0
290
     0
  0
SCALE
  5
45
102
{ACAD_REACTORS
330
42
102
}
330
42
100
AcDbScale
 70
     0
300
1/64" = 1'-0"
140
0.015625
141
12.0
290
     0
  0
SCALE
  5
46
102
{ACAD_REACTORS
330
42
102
}
330
42
100
AcDbScale
 70
     0
300
1/32" = 1'-0"
140
0.03125
141
12.0
290
     0
  0
SCALE
  5
47
102
{ACAD_REACTORS
330
42
102
}
330
42
100
AcDbScale
 70
     0
300
1/16" = 1'-0"
140
0.0625
141
12.0
290
     0
  0
SCALE
  5
48
102
{ACAD_REACTORS
330
42
102
}
330
42
100
AcDbScale
 70
     0
300
3/32" = 1'-0"
140
0.09375
141
12.0
290
     0
  0
SCALE
  5
49
102
{ACAD_REACTORS
330
42
102
}
330
42
100
AcDbScale
 70
     0
300
1/8" = 1'-0"
140
0.125
141
12.0
290
     0
  0
SCALE
  5
4A
102
{ACAD_REACTORS
330
42
102
}
330
42
100
AcDbScale
 70
     0
300
3/16" = 1'-0"
140
0.1875
141
12.0
290
     0
  0
SCALE
  5
4B
102
{ACAD_REACTORS
330
42
102
}
330
42
100
AcDbScale
 70
     0
300
1/4" = 1'-0"
140
0.25
141
12.0
290
     0
  0
SCALE
  5
4C
102
{ACAD_REACTORS
330
42
102
}
330
42
100
AcDbScale
 70
     0
300
3/8" = 1'-0"
140
0.375
141
12.0
290
     0
  0
SCALE
  5
4D
102
{ACAD_REACTORS
330
42
102
}
330
42
100
AcDbScale
 70
     0
300
1/2" = 1'-0"
140
0.5
141
12.0
290
     0
  0
SCALE
  5
4E
102
{ACAD_REACTORS
330
42
102
}
330
42
100
AcDbScale
 70
     0
300
3/4" = 1'-0"
140
0.75
141
12.0
290
     0
  0
SCALE
  5
4F
102
{ACAD_REACTORS
330
42
102
}
330
42
100
AcDbScale
 70
     0
300
1" = 1'-0"
140
1.0
141
12.0
290
     0
  0
SCALE
  5
50
102
{ACAD_REACTORS
330
42
102
}
330
42
100
AcDbScale
 70
     0
300
1-1/2" = 1'-0"
140
1.5
141
12.0
290
     0
  0
SCALE
  5
51
102
{ACAD_REACTORS
330
42
102
}
330
42
100
AcDbScale
 70
     0
300
3" = 1'-0"
140
3.0
141
12.0
290
     0
  0
SCALE
  5
52
102
{ACAD_REACTORS
330
42
102
}
330
42
100
AcDbScale
 70
     0
300
6" = 1'-0"
140
6.0
141
12.0
290
     0
  0
SCALE
  5
53
102
{ACAD_REACTORS
330
42
102
}
330
42
100
AcDbScale
 70
     0
300
1'-0" = 1'-0"
140
12.0
141
12.0
290
     0
  0
ACDBSECTIONVIEWSTYLE
  5
69
102
{ACAD_XDICTIONARY
360
315
102
}
102
{ACAD_REACTORS
330
68
102
}
330
68
100
AcDbModelDocViewStyle
 70
     0
  3
Imperial24
290
     0
100
AcDbSectionViewStyle
 70
     0
 71
     0
 90
       78
 71
     1
340
55
 62
   256
 40
0.24
340
0
340
0
 62
   256
 40
0.24
300
I, O, Q, S, X, Z
 40
0.48
 90
        3
 40
0.18
 90
        1
 71
     2
340
5D
 90
       25
 62
   256
340
5D
 90
       50
 62
   256
 40
0.24
 40
0.0
 40
0.24
 71
     3
340
55
 62
   256
 40
0.24
 90
        1
 40
0.75
 90
        1
300
%<\AcVar ViewType \f "%tc1">% %<\AcVar ViewSectionStartId>%-%<\AcVar ViewSectionEndId>%\PSCALE %<\AcVar ViewScale \f "%sn">%
 71
     4
 62
   256
 62
   257
300
ANSI31
 40
1.0
 90
        0
290
     0
290
     0
 90
        6
 40
0.0
 40
1.570796
 40
0.261799
 40
1.308997
 40
-0.261799
 40
1.832596
  0
TABLESTYLE
  5
65
102
{ACAD_XDICTIONARY
360
312
102
}
102
{ACAD_REACTORS
330
64
102
}
330
64
100
AcDbTableStyle
280
     0
  3
Standard
 70
     0
 71
     0
 40
0.06
 41
0.06
280
     0
281
     0
  7
Standard
140
0.18
170
     2
 62
     0
 63
     7
283
     0
 90
      512
 91
        0
  1

274
    -2
284
     1
 64
     0
275
    -2
285
     1
 65
     0
276
    -2
286
     1
 66
     0
277
    -2
287
     1
 67
     0
278
    -2
288
     1
 68
     0
279
    -2
289
     1
 69
     0
  7
Standard
140
0.25
170
     5
 62
     0
 63
     7
283
     0
 90
      512
 91
        0
  1

274
    -2
284
     1
 64
     0
275
    -2
285
     1
 65
     0
276
    -2
286
     1
 66
     0
277
    -2
287
     1
 67
     0
278
    -2
288
     1
 68
     0
279
    -2
289
     1
 69
     0
  7
Standard
140
0.18
170
     5
 62
     0
 63
     7
283
     0
 90
      512
 91
        0
  1

274
    -2
284
     1
 64
     0
275
    -2
285
     1
 65
     0
276
    -2
286
     1
 66
     0
277
    -2
287
     1
 67
     0
278
    -2
288
     1
 68
     0
279
    -2
289
     1
 69
     0
  0
VISUALSTYLE
  5
2F
102
{ACAD_REACTORS
330
29
102
}
330
29
100
AcDbVisualStyle
  2
2dWireframe
 70
     4
177
     3
291
     0
 70
    58
 90
        0
176
     1
 90
        2
176
     1
 90
        0
176
     1
 90
        0
176
     1
 40
0.6
176
     1
 40
30.0
176
     1
 62
     7
420
 16777215
176
     1
 90
        1
176
     1
 90
        4
176
     1
 62
     7
176
     1
 62
   257
176
     1
 90
        1
176
     1
 90
        1
176
     1
 40
1.0
176
     1
 90
        0
176
     1
 62
   257
176
     1
 40
1.0
176
     1
 90
        1
176
     1
 90
        6
176
     1
 90
        2
176
     1
 62
     7
176
     1
 90
        5
176
     1
 90
        0
176
     1
 90
        0
176
     1
290
     0
176
     1
 90
        1
176
     1
 40
0.0
176
     1
 90
        0
176
     1
290
     1
176
     1
290
     1
176
     1
290
     0
176
     1
290
     0
176
     1
290
     0
176
     1
290
     0
176
     1
290
     0
176
     1
290
     0
176
     1
290
     0
176
     1
 90
       50
176
     1
 40
0.0
176
     1
 40
1.0
176
     1
 90
        0
176
     1
 62
    18
420
        0
176
     1
 90
       50
176
     1
 90
        3
176
     1
 62
     5
420
      255
176
     1
290
     0
176
     1
 90
       50
176
     1
 90
       50
176
     1
 90
       50
176
     1
290
     0
176
     1
 90
       50
176
     1
 62
   256
176
     0
 40
1.0
176
     0
 90
        2
176
     1
  1
strokes_ogs.tif
176
     1
290
     0
176
     1
 40
1.0
176
     1
 40
1.0
176
     1
1001
ACAD
1000
AcDbSavedByObjectVersion
1070
     0
  0
VISUALSTYLE
  5
2E
102
{ACAD_REACTORS
330
29
102
}
330
29
100
AcDbVisualStyle
  2
Basic
 70
     7
177
     3
291
     1
 70
    58
 90
        1
176
     1
 90
        0
176
     1
 90
        1
176
     1
 90
        0
176
     1
 40
0.6
176
     1
 40
30.0
176
     1
 62
     7
420
 16777215
176
     1
 90
        0
176
     1
 90
        4
176
     1
 62
     7
176
     1
 62
   257
176
     1
 90
        1
176
     1
 90
        1
176
     1
 40
1.0
176
     1
 90
        8
176
     1
 62
     7
176
     1
 40
1.0
176
     1
 90
        1
176
     1
 90
        6
176
     1
 90
        2
176
     1
 62
     7
176
     1
 90
        5
176
     1
 90
        0
176
     1
 90
        0
176
     1
290
     0
176
     1
 90
        1
176
     1
 40
0.0
176
     1
 90
        0
176
     1
290
     0
176
     1
290
     1
176
     1
290
     1
176
     1
290
     0
176
     1
290
     0
176
     1
290
     0
176
     1
290
     0
176
     1
290
     0
176
     1
290
     0
176
     1
 90
       50
176
     1
 40
0.0
176
     1
 40
1.0
176
     1
 90
        0
176
     1
 62
    18
420
        0
176
     1
 90
       50
176
     1
 90
        3
176
     1
 62
     5
420
      255
176
     1
290
     0
176
     1
 90
       50
176
     1
 90
       50
176
     1
 90
       50
176
     1
290
     0
176
     1
 90
       50
176
     1
 62
   256
176
     0
 40
1.0
176
     0
 90
        2
176
     1
  1
strokes_ogs.tif
176
     1
290
     0
176
     1
 40
1.0
176
     1
 40
1.0
176
     1
1001
ACAD
1000
AcDbSavedByObjectVersion
1070
     0
  0
VISUALSTYLE
  5
35
102
{ACAD_REACTORS
330
29
102
}
330
29
100
AcDbVisualStyle
  2
Brighten
 70
    12
177
     3
291
     1
 70
    58
 90
        2
176
     1
 90
        2
176
     1
 90
        0
176
     1
 90
        0
176
     1
 40
0.6
176
     1
 40
30.0
176
     1
 62
     7
420
 16777215
176
     1
 90
        1
176
     1
 90
        4
176
     1
 62
     7
176
     1
 62
   257
176
     1
 90
        1
176
     1
 90
        1
176
     1
 40
1.0
176
     1
 90
        8
176
     1
 62
     7
176
     1
 40
1.0
176
     1
 90
        1
176
     1
 90
        6
176
     1
 90
        2
176
     1
 62
     7
176
     1
 90
        5
176
     1
 90
        0
176
     1
 90
        0
176
     1
290
     0
176
     1
 90
        1
176
     1
 40
50.0
176
     1
 90
        0
176
     1
290
     0
176
     1
290
     1
176
     1
290
     1
176
     1
290
     0
176
     1
290
     0
176
     1
290
     0
176
     1
290
     0
176
     1
290
     0
176
     1
290
     0
176
     1
 90
       50
176
     1
 40
0.0
176
     1
 40
1.0
176
     1
 90
        0
176
     1
 62
    18
420
        0
176
     1
 90
       50
176
     1
 90
        3
176
     1
 62
     5
420
      255
176
     1
290
     0
176
     1
 90
       50
176
     1
 90
       50
176
     1
 90
       50
176
     1
290
     0
176
     1
 90
       50
176
     1
 62
   256
176
     0
 40
1.0
176
     0
 90
        2
176
     1
  1
strokes_ogs.tif
176
     1
290
     0
176
     1
 40
1.0
176
     1
 40
1.0
176
     1
1001
ACAD
1000
AcDbSavedByObjectVersion
1070
     0
  0
VISUALSTYLE
  5
39
102
{ACAD_REACTORS
330
29
102
}
330
29
100
AcDbVisualStyle
  2
ColorChange
 70
    16
177
     3
291
     1
 70
    58
 90
        2
176
     1
 90
        2
176
     1
 90
        3
176
     1
 90
        0
176
     1
 40
0.6
176
     1
 40
30.0
176
     1
 62
     8
420
  8421504
176
     1
 90
        1
176
     1
 90
        4
176
     1
 62
     7
176
     1
 62
   257
176
     1
 90
        1
176
     1
 90
        1
176
     1
 40
1.0
176
     1
 90
        8
176
     1
 62
     8
420
  8421504
176
     1
 40
1.0
176
     1
 90
        1
176
     1
 90
        6
176
     1
 90
        2
176
     1
 62
     7
176
     1
 90
        5
176
     1
 90
        0
176
     1
 90
        0
176
     1
290
     0
176
     1
 90
        1
176
     1
 40
0.0
176
     1
 90
        0
176
     1
290
     0
176
     1
290
     1
176
     1
290
     1
176
     1
290
     0
176
     1
290
     0
176
     1
290
     0
176
     1
290
     0
176
     1
290
     0
176
     1
290
     0
176
     1
 90
       50
176
     1
 40
0.0
176
     1
 40
1.0
176
     1
 90
        0
176
     1
 62
    18
420
        0
176
     1
 90
       50
176
     1
 90
        3
176
     1
 62
     5
420
      255
176
     1
290
     0
176
     1
 90
       50
176
     1
 90
       50
176
     1
 90
       50
176
     1
290
     0
176
     1
 90
       50
176
     1
 62
   256
176
     0
 40
1.0
176
     0
 90
        2
176
     1
  1
strokes_ogs.tif
176
     1
290
     0
176
     1
 40
1.0
176
     1
 40
1.0
176
     1
1001
ACAD
1000
AcDbSavedByObjectVersion
1070
     0
  0
VISUALSTYLE
  5
32
102
{ACAD_REACTORS
330
29
102
}
330
29
100
AcDbVisualStyle
  2
Conceptual
 70
     9
177
     3
291
     0
 70
    58
 90
        3
176
     1
 90
        2
176
     1
 90
        0
176
     1
 90
        0
176
     1
 40
0.6
176
     1
 40
30.0
176
     1
 62
     7
420
 16777215
176
     1
 90
        2
176
     1
 90
        2
176
     1
 62
     7
176
     1
 62
   257
176
     1
 90
        1
176
     1
 90
        1
176
     1
 40
179.0
176
     1
 90
        8
176
     1
 62
     7
176
     1
 40
1.0
176
     1
 90
        1
176
     1
 90
        6
176
     1
 90
        2
176
     1
 62
     7
176
     1
 90
        3
176
     1
 90
        0
176
     1
 90
        0
176
     1
290
     0
176
     1
 90
        1
176
     1
 40
0.0
176
     1
 90
        0
176
     1
290
     0
176
     1
290
     1
176
     1
290
     1
176
     1
290
     0
176
     1
290
     0
176
     1
290
     0
176
     1
290
     0
176
     1
290
     0
176
     1
290
     0
176
     1
 90
       50
176
     1
 40
0.0
176
     1
 40
1.0
176
     1
 90
        0
176
     1
 62
    18
420
        0
176
     1
 90
       50
176
     1
 90
        3
176
     1
 62
     5
420
      255
176
     1
290
     0
176
     1
 90
       50
176
     1
 90
       50
176
     1
 90
       50
176
     1
290
     0
176
     1
 90
       50
176
     1
 62
   256
176
     0
 40
1.0
176
     0
 90
        2
176
     1
  1
strokes_ogs.tif
176
     1
290
     0
176
     1
 40
1.0
176
     1
 40
1.0
176
     1
1001
ACAD
1000
AcDbSavedByObjectVersion
1070
     0
  0
VISUALSTYLE
  5
34
102
{ACAD_REACTORS
330
29
102
}
330
29
100
AcDbVisualStyle
  2
Dim
 70
    11
177
     3
291
     1
 70
    58
 90
        2
176
     1
 90
        2
176
     1
 90
        0
176
     1
 90
        0
176
     1
 40
0.6
176
     1
 40
30.0
176
     1
 62
     7
420
 16777215
176
     1
 90
        1
176
     1
 90
        4
176
     1
 62
     7
176
     1
 62
   257
176
     1
 90
        1
176
     1
 90
        1
176
     1
 40
1.0
176
     1
 90
        8
176
     1
 62
     7
176
     1
 40
1.0
176
     1
 90
        1
176
     1
 90
        6
176
     1
 90
        2
176
     1
 62
     7
176
     1
 90
        5
176
     1
 90
        0
176
     1
 90
        0
176
     1
290
     0
176
     1
 90
        1
176
     1
 40
-50.0
176
     1
 90
        0
176
     1
290
     0
176
     1
290
     1
176
     1
290
     1
176
     1
290
     0
176
     1
290
     0
176
     1
290
     0
176
     1
290
     0
176
     1
290
     0
176
     1
290
     0
176
     1
 90
       50
176
     1
 40
0.0
176
     1
 40
1.0
176
     1
 90
        0
176
     1
 62
    18
420
        0
176
     1
 90
       50
176
     1
 90
        3
176
     1
 62
     5
420
      255
176
     1
290
     0
176
     1
 90
       50
176
     1
 90
       50
176
     1
 90
       50
176
     1
290
     0
176
     1
 90
       50
176
     1
 62
   256
176
     0
 40
1.0
176
     0
 90
        2
176
     1
  1
strokes_ogs.tif
176
     1
290
     0
176
     1
 40
1.0
176
     1
 40
1.0
176
     1
1001
ACAD
1000
AcDbSavedByObjectVersion
1070
     0
  0
VISUALSTYLE
  5
41
102
{ACAD_REACTORS
330
29
102
}
330
29
100
AcDbVisualStyle
  2
EdgeColorOff
 70
    22
177
     3
291
     1
 70
    58
 90
        2
176
     0
 90
        2
176
     0
 90
        0
176
     0
 90
        0
176
     0
 40
0.6
176
     0
 40
30.0
176
     0
 62
     7
420
 16777215
176
     0
 90
        1
176
     0
 90
        4
176
     0
 62
     7
176
     0
 62
   257
176
     0
 90
        1
176
     0
 90
        1
176
     0
 40
1.0
176
     0
 90
        8
176
     2
 62
     7
176
     0
 40
1.0
176
     0
 90
        1
176
     0
 90
        6
176
     0
 90
        2
176
     0
 62
     7
176
     0
 90
        5
176
     0
 90
        0
176
     0
 90
        0
176
     0
290
     0
176
     0
 90
        1
176
     0
 40
0.0
176
     0
 90
        0
176
     0
290
     0
176
     0
290
     1
176
     0
290
     1
176
     0
290
     0
176
     0
290
     0
176
     0
290
     0
176
     0
290
     0
176
     0
290
     0
176
     0
290
     0
176
     0
 90
       50
176
     0
 40
0.0
176
     0
 40
1.0
176
     0
 90
        0
176
     0
 62
    18
420
        0
176
     0
 90
       50
176
     0
 90
        3
176
     0
 62
     5
420
      255
176
     0
290
     0
176
     0
 90
       50
176
     0
 90
       50
176
     0
 90
       50
176
     0
290
     0
176
     0
 90
       50
176
     0
 62
   256
176
     0
 40
1.0
176
     0
 90
        2
176
     0
  1
strokes_ogs.tif
176
     0
290
     0
176
     0
 40
1.0
176
     0
 40
1.0
176
     0
1001
ACAD
1000
AcDbSavedByObjectVersion
1070
     0
  0
VISUALSTYLE
  5
38
102
{ACAD_REACTORS
330
29
102
}
330
29
100
AcDbVisualStyle
  2
Facepattern
 70
    15
177
     3
291
     1
 70
    58
 90
        2
176
     1
 90
        2
176
     1
 90
        0
176
     1
 90
        0
176
     1
 40
0.6
176
     1
 40
30.0
176
     1
 62
     7
420
 16777215
176
     1
 90
        1
176
     1
 90
        4
176
     1
 62
     7
176
     1
 62
   257
176
     1
 90
        1
176
     1
 90
        1
176
     1
 40
1.0
176
     1
 90
        8
176
     1
 62
     7
176
     1
 40
1.0
176
     1
 90
        1
176
     1
 90
        6
176
     1
 90
        2
176
     1
 62
     7
176
     1
 90
        5
176
     1
 90
        0
176
     1
 90
        0
176
     1
290
     0
176
     1
 90
        1
176
     1
 40
0.0
176
     1
 90
        0
176
     1
290
     0
176
     1
290
     1
176
     1
290
     1
176
     1
290
     0
176
     1
290
     0
176
     1
290
     0
176
     1
290
     0
176
     1
290
     0
176
     1
290
     0
176
     1
 90
       50
176
     1
 40
0.0
176
     1
 40
1.0
176
     1
 90
        0
176
     1
 62
    18
420
        0
176
     1
 90
       50
176
     1
 90
        3
176
     1
 62
     5
420
      255
176
     1
290
     0
176
     1
 90
       50
176
     1
 90
       50
176
     1
 90
       50
176
     1
290
     0
176
     1
 90
       50
176
     1
 62
   256
176
     0
 40
1.0
176
     0
 90
        2
176
     1
  1
strokes_ogs.tif
176
     1
290
     0
176
     1
 40
1.0
176
     1
 40
1.0
176
     1
1001
ACAD
1000
AcDbSavedByObjectVersion
1070
     0
  0
VISUALSTYLE
  5
2A
102
{ACAD_REACTORS
330
29
102
}
330
29
100
AcDbVisualStyle
  2
Flat
 70
     0
177
     3
291
     1
 70
    58
 90
        2
176
     1
 90
        1
176
     1
 90
        1
176
     1
 90
        2
176
     1
 40
0.6
176
     1
 40
30.0
176
     1
 62
     7
420
 16777215
176
     1
 90
        0
176
     1
 90
        0
176
     1
 62
     7
176
     1
 62
   257
176
     1
 90
        1
176
     1
 90
        1
176
     1
 40
1.0
176
     1
 90
        8
176
     1
 62
     7
176
     1
 40
1.0
176
     1
 90
        1
176
     1
 90
        6
176
     1
 90
        2
176
     1
 62
     7
176
     1
 90
        5
176
     1
 90
        0
176
     1
 90
        0
176
     1
290
     0
176
     1
 90
       13
176
     1
 40
0.0
176
     1
 90
        0
176
     1
290
     0
176
     1
290
     1
176
     1
290
     1
176
     1
290
     0
176
     1
290
     0
176
     1
290
     0
176
     1
290
     0
176
     1
290
     0
176
     1
290
     0
176
     1
 90
       50
176
     1
 40
0.0
176
     1
 40
1.0
176
     1
 90
        0
176
     1
 62
    18
420
        0
176
     1
 90
       50
176
     1
 90
        3
176
     1
 62
     5
420
      255
176
     1
290
     0
176
     1
 90
       50
176
     1
 90
       50
176
     1
 90
       50
176
     1
290
     0
176
     1
 90
       50
176
     1
 62
   256
176
     0
 40
1.0
176
     0
 90
        2
176
     1
  1
strokes_ogs.tif
176
     1
290
     0
176
     1
 40
1.0
176
     1
 40
1.0
176
     1
1001
ACAD
1000
AcDbSavedByObjectVersion
1070
     0
  0
VISUALSTYLE
  5
2B
102
{ACAD_REACTORS
330
29
102
}
330
29
100
AcDbVisualStyle
  2
FlatWithEdges
 70
     1
177
     3
291
     1
 70
    58
 90
        2
176
     1
 90
        1
176
     1
 90
        1
176
     1
 90
        2
176
     1
 40
0.6
176
     1
 40
30.0
176
     1
 62
     7
420
 16777215
176
     1
 90
        1
176
     1
 90
        0
176
     1
 62
     7
176
     1
 62
   257
176
     1
 90
        1
176
     1
 90
        1
176
     1
 40
1.0
176
     1
 90
        0
176
     1
 62
   257
176
     1
 40
1.0
176
     1
 90
        1
176
     1
 90
        6
176
     1
 90
        2
176
     1
 62
     7
176
     1
 90
        5
176
     1
 90
        0
176
     1
 90
        0
176
     1
290
     0
176
     1
 90
       13
176
     1
 40
0.0
176
     1
 90
        0
176
     1
290
     0
176
     1
290
     1
176
     1
290
     1
176
     1
290
     0
176
     1
290
     0
176
     1
290
     0
176
     1
290
     0
176
     1
290
     0
176
     1
290
     0
176
     1
 90
       50
176
     1
 40
0.0
176
     1
 40
1.0
176
     1
 90
        0
176
     1
 62
    18
420
        0
176
     1
 90
       50
176
     1
 90
        3
176
     1
 62
     5
420
      255
176
     1
290
     0
176
     1
 90
       50
176
     1
 90
       50
176
     1
 90
       50
176
     1
290
     0
176
     1
 90
       50
176
     1
 62
   256
176
     0
 40
1.0
176
     0
 90
        2
176
     1
  1
strokes_ogs.tif
176
     1
290
     0
176
     1
 40
1.0
176
     1
 40
1.0
176
     1
1001
ACAD
1000
AcDbSavedByObjectVersion
1070
     0
  0
VISUALSTYLE
  5
2C
102
{ACAD_REACTORS
330
29
102
}
330
29
100
AcDbVisualStyle
  2
Gouraud
 70
     2
177
     3
291
     1
 70
    58
 90
        2
176
     1
 90
        2
176
     1
 90
        1
176
     1
 90
        2
176
     1
 40
0.6
176
     1
 40
30.0
176
     1
 62
     7
420
 16777215
176
     1
 90
        0
176
     1
 90
        0
176
     1
 62
     7
176
     1
 62
   257
176
     1
 90
        1
176
     1
 90
        1
176
     1
 40
1.0
176
     1
 90
        0
176
     1
 62
     7
176
     1
 40
1.0
176
     1
 90
        1
176
     1
 90
        6
176
     1
 90
        2
176
     1
 62
     7
176
     1
 90
        5
176
     1
 90
        0
176
     1
 90
        0
176
     1
290
     0
176
     1
 90
       13
176
     1
 40
0.0
176
     1
 90
        0
176
     1
290
     0
176
     1
290
     1
176
     1
290
     1
176
     1
290
     0
176
     1
290
     0
176
     1
290
     0
176
     1
290
     0
176
     1
290
     0
176
     1
290
     0
176
     1
 90
       50
176
     1
 40
0.0
176
     1
 40
1.0
176
     1
 90
        0
176
     1
 62
    18
420
        0
176
     1
 90
       50
176
     1
 90
        3
176
     1
 62
     5
420
      255
176
     1
290
     0
176
     1
 90
       50
176
     1
 90
       50
176
     1
 90
       50
176
     1
290
     0
176
     1
 90
       50
176
     1
 62
   256
176
     0
 40
1.0
176
     0
 90
        2
176
     1
  1
strokes_ogs.tif
176
     1
290
     0
176
     1
 40
1.0
176
     1
 40
1.0
176
     1
1001
ACAD
1000
AcDbSavedByObjectVersion
1070
     0
  0
VISUALSTYLE
  5
2D
102
{ACAD_REACTORS
330
29
102
}
330
29
100
AcDbVisualStyle
  2
GouraudWithEdges
 70
     3
177
     3
291
     1
 70
    58
 90
        2
176
     1
 90
        2
176
     1
 90
        1
176
     1
 90
        2
176
     1
 40
0.6
176
     1
 40
30.0
176
     1
 62
     7
420
 16777215
176
     1
 90
        1
176
     1
 90
        0
176
     1
 62
     7
176
     1
 62
   257
176
     1
 90
        1
176
     1
 90
        1
176
     1
 40
1.0
176
     1
 90
        0
176
     1
 62
   257
176
     1
 40
1.0
176
     1
 90
        1
176
     1
 90
        6
176
     1
 90
        2
176
     1
 62
     7
176
     1
 90
        5
176
     1
 90
        0
176
     1
 90
        0
176
     1
290
     0
176
     1
 90
       13
176
     1
 40
0.0
176
     1
 90
        0
176
     1
290
     0
176
     1
290
     1
176
     1
290
     1
176
     1
290
     0
176
     1
290
     0
176
     1
290
     0
176
     1
290
     0
176
     1
290
     0
176
     1
290
     0
176
     1
 90
       50
176
     1
 40
0.0
176
     1
 40
1.0
176
     1
 90
        0
176
     1
 62
    18
420
        0
176
     1
 90
       50
176
     1
 90
        3
176
     1
 62
     5
420
      255
176
     1
290
     0
176
     1
 90
       50
176
     1
 90
       50
176
     1
 90
       50
176
     1
290
     0
176
     1
 90
       50
176
     1
 62
   256
176
     0
 40
1.0
176
     0
 90
        2
176
     1
  1
strokes_ogs.tif
176
     1
290
     0
176
     1
 40
1.0
176
     1
 40
1.0
176
     1
1001
ACAD
1000
AcDbSavedByObjectVersion
1070
     0
  0
VISUALSTYLE
  5
31
102
{ACAD_REACTORS
330
29
102
}
330
29
100
AcDbVisualStyle
  2
Hidden
 70
     6
177
     3
291
     0
 70
    58
 90
        1
176
     1
 90
        2
176
     1
 90
        2
176
     1
 90
        0
176
     1
 40
0.6
176
     1
 40
30.0
176
     1
 62
     7
420
 16777215
176
     1
 90
        2
176
     1
 90
        2
176
     1
 62
     7
176
     1
 62
   257
176
     1
 90
        2
176
     1
 90
        1
176
     1
 40
40.0
176
     1
 90
        0
176
     1
 62
   257
176
     1
 40
1.0
176
     1
 90
        1
176
     1
 90
        6
176
     1
 90
        2
176
     1
 62
     7
176
     1
 90
        3
176
     1
 90
        0
176
     1
 90
        0
176
     1
290
     0
176
     1
 90
        1
176
     1
 40
0.0
176
     1
 90
        0
176
     1
290
     0
176
     1
290
     1
176
     1
290
     1
176
     1
290
     0
176
     1
290
     0
176
     1
290
     0
176
     1
290
     0
176
     1
290
     0
176
     1
290
     0
176
     1
 90
       50
176
     1
 40
0.0
176
     1
 40
1.0
176
     1
 90
        0
176
     1
 62
    18
420
        0
176
     1
 90
       50
176
     1
 90
        3
176
     1
 62
     5
420
      255
176
     1
290
     0
176
     1
 90
       50
176
     1
 90
       50
176
     1
 90
       50
176
     1
290
     0
176
     1
 90
       50
176
     1
 62
   256
176
     0
 40
1.0
176
     0
 90
        2
176
     1
  1
strokes_ogs.tif
176
     1
290
     0
176
     1
 40
1.0
176
     1
 40
1.0
176
     1
1001
ACAD
1000
AcDbSavedByObjectVersion
1070
     0
  0
VISUALSTYLE
  5
3F
102
{ACAD_REACTORS
330
29
102
}
330
29
100
AcDbVisualStyle
  2
JitterOff
 70
    20
177
     3
291
     1
 70
    58
 90
        2
176
     0
 90
        2
176
     0
 90
        0
176
     0
 90
        0
176
     0
 40
0.6
176
     0
 40
30.0
176
     0
 62
     7
420
 16777215
176
     0
 90
        1
176
     0
 90
        4
176
     0
 62
     7
176
     0
 62
   257
176
     0
 90
        1
176
     0
 90
        1
176
     0
 40
1.0
176
     0
 90
       10
176
     2
 62
     7
176
     0
 40
1.0
176
     0
 90
        1
176
     0
 90
        6
176
     0
 90
        2
176
     0
 62
     7
176
     0
 90
        5
176
     0
 90
        0
176
     0
 90
        0
176
     0
290
     0
176
     0
 90
        1
176
     0
 40
0.0
176
     0
 90
        0
176
     0
290
     0
176
     0
290
     1
176
     0
290
     1
176
     0
290
     0
176
     0
290
     0
176
     0
290
     0
176
     0
290
     0
176
     0
290
     0
176
     0
290
     0
176
     0
 90
       50
176
     0
 40
0.0
176
     0
 40
1.0
176
     0
 90
        0
176
     0
 62
    18
420
        0
176
     0
 90
       50
176
     0
 90
        3
176
     0
 62
     5
420
      255
176
     0
290
     0
176
     0
 90
       50
176
     0
 90
       50
176
     0
 90
       50
176
     0
290
     0
176
     0
 90
       50
176
     0
 62
   256
176
     0
 40
1.0
176
     0
 90
        2
176
     0
  1
strokes_ogs.tif
176
     0
290
     0
176
     0
 40
1.0
176
     0
 40
1.0
176
     0
1001
ACAD
1000
AcDbSavedByObjectVersion
1070
     0
  0
VISUALSTYLE
  5
37
102
{ACAD_REACTORS
330
29
102
}
330
29
100
AcDbVisualStyle
  2
Linepattern
 70
    14
177
     3
291
     1
 70
    58
 90
        2
176
     1
 90
        2
176
     1
 90
        0
176
     1
 90
        0
176
     1
 40
0.6
176
     1
 40
30.0
176
     1
 62
     7
420
 16777215
176
     1
 90
        1
176
     1
 90
        4
176
     1
 62
     7
176
     1
 62
   257
176
     1
 90
        7
176
     1
 90
        7
176
     1
 40
1.0
176
     1
 90
        8
176
     1
 62
     7
176
     1
 40
1.0
176
     1
 90
        1
176
     1
 90
        6
176
     1
 90
        2
176
     1
 62
     7
176
     1
 90
        5
176
     1
 90
        0
176
     1
 90
        0
176
     1
290
     0
176
     1
 90
        1
176
     1
 40
0.0
176
     1
 90
        0
176
     1
290
     0
176
     1
290
     1
176
     1
290
     1
176
     1
290
     0
176
     1
290
     0
176
     1
290
     0
176
     1
290
     0
176
     1
290
     0
176
     1
290
     0
176
     1
 90
       50
176
     1
 40
0.0
176
     1
 40
1.0
176
     1
 90
        0
176
     1
 62
    18
420
        0
176
     1
 90
       50
176
     1
 90
        3
176
     1
 62
     5
420
      255
176
     1
290
     0
176
     1
 90
       50
176
     1
 90
       50
176
     1
 90
       50
176
     1
290
     0
176
     1
 90
       50
176
     1
 62
   256
176
     0
 40
1.0
176
     0
 90
        2
176
     1
  1
strokes_ogs.tif
176
     1
290
     0
176
     1
 40
1.0
176
     1
 40
1.0
176
     1
1001
ACAD
1000
AcDbSavedByObjectVersion
1070
     0
  0
VISUALSTYLE
  5
40
102
{ACAD_REACTORS
330
29
102
}
330
29
100
AcDbVisualStyle
  2
OverhangOff
 70
    21
177
     3
291
     1
 70
    58
 90
        2
176
     0
 90
        2
176
     0
 90
        0
176
     0
 90
        0
176
     0
 40
0.6
176
     0
 40
30.0
176
     0
 62
     7
420
 16777215
176
     0
 90
        1
176
     0
 90
        4
176
     0
 62
     7
176
     0
 62
   257
176
     0
 90
        1
176
     0
 90
        1
176
     0
 40
1.0
176
     0
 90
        9
176
     2
 62
     7
176
     0
 40
1.0
176
     0
 90
        1
176
     0
 90
        6
176
     0
 90
        2
176
     0
 62
     7
176
     0
 90
        5
176
     0
 90
        0
176
     0
 90
        0
176
     0
290
     0
176
     0
 90
        1
176
     0
 40
0.0
176
     0
 90
        0
176
     0
290
     0
176
     0
290
     1
176
     0
290
     1
176
     0
290
     0
176
     0
290
     0
176
     0
290
     0
176
     0
290
     0
176
     0
290
     0
176
     0
290
     0
176
     0
 90
       50
176
     0
 40
0.0
176
     0
 40
1.0
176
     0
 90
        0
176
     0
 62
    18
420
        0
176
     0
 90
       50
176
     0
 90
        3
176
     0
 62
     5
420
      255
176
     0
290
     0
176
     0
 90
       50
176
     0
 90
       50
176
     0
 90
       50
176
     0
290
     0
176
     0
 90
       50
176
     0
 62
   256
176
     0
 40
1.0
176
     0
 90
        2
176
     0
  1
strokes_ogs.tif
176
     0
290
     0
176
     0
 40
1.0
176
     0
 40
1.0
176
     0
1001
ACAD
1000
AcDbSavedByObjectVersion
1070
     0
  0
VISUALSTYLE
  5
33
102
{ACAD_REACTORS
330
29
102
}
330
29
100
AcDbVisualStyle
  2
Realistic
 70
     8
177
     3
291
     0
 70
    58
 90
        2
176
     1
 90
        3
176
     1
 90
        0
176
     1
 90
        2
176
     1
 40
0.6
176
     1
 40
30.0
176
     1
 62
     7
420
 16777215
176
     1
 90
        0
176
     1
 90
        0
176
     1
 62
     7
176
     1
 62
   257
176
     1
 90
        1
176
     1
 90
        1
176
     1
 40
1.0
176
     1
 90
        8
176
     1
 62
   257
176
     1
 40
1.0
176
     1
 90
        1
176
     1
 90
        6
176
     1
 90
        2
176
     1
 62
     7
176
     1
 90
        3
176
     1
 90
        0
176
     1
 90
        0
176
     1
290
     0
176
     1
 90
       13
176
     1
 40
0.0
176
     1
 90
        0
176
     1
290
     0
176
     1
290
     1
176
     1
290
     1
176
     1
290
     0
176
     1
290
     0
176
     1
290
     0
176
     1
290
     0
176
     1
290
     0
176
     1
290
     0
176
     1
 90
       50
176
     1
 40
0.0
176
     1
 40
1.0
176
     1
 90
        0
176
     1
 62
    18
420
        0
176
     1
 90
       50
176
     1
 90
        3
176
     1
 62
     5
420
      255
176
     1
290
     0
176
     1
 90
       50
176
     1
 90
       50
176
     1
 90
       50
176
     1
290
     0
176
     1
 90
       50
176
     1
 62
   256
176
     0
 40
1.0
176
     0
 90
        2
176
     1
  1
strokes_ogs.tif
176
     1
290
     0
176
     1
 40
1.0
176
     1
 40
1.0
176
     1
1001
ACAD
1000
AcDbSavedByObjectVersion
1070
     0
  0
VISUALSTYLE
  5
3E
102
{ACAD_REACTORS
330
29
102
}
330
29
100
AcDbVisualStyle
  2
Shaded
 70
    27
177
     3
291
     0
 70
    58
 90
        2
176
     1
 90
        2
176
     1
 90
        1
176
     1
 90
        2
176
     1
 40
0.6
176
     1
 40
30.0
176
     1
 62
     7
420
 16777215
176
     1
 90
        0
176
     1
 90
        4
176
     1
 62
     7
176
     1
 62
   257
176
     1
 90
        1
176
     1
 90
        1
176
     1
 40
1.0
176
     1
 90
        8
176
     1
 62
   257
176
     1
 40
1.0
176
     1
 90
        1
176
     1
 90
        6
176
     1
 90
        2
176
     1
 62
     8
420
  7895160
176
     1
 90
        3
176
     1
 90
        0
176
     1
 90
        0
176
     1
290
     0
176
     1
 90
        5
176
     1
 40
0.0
176
     1
 90
        0
176
     1
290
     0
176
     1
290
     1
176
     1
290
     1
176
     1
290
     0
176
     1
290
     0
176
     1
290
     0
176
     1
290
     0
176
     1
290
     0
176
     1
290
     0
176
     1
 90
       50
176
     1
 40
0.0
176
     1
 40
1.0
176
     1
 90
        0
176
     1
 62
    18
420
        0
176
     1
 90
       50
176
     1
 90
        3
176
     1
 62
     5
420
      255
176
     1
290
     0
176
     1
 90
       50
176
     1
 90
       50
176
     1
 90
       50
176
     1
290
     0
176
     1
 90
       50
176
     1
 62
   256
176
     0
 40
1.0
176
     0
 90
        2
176
     1
  1
strokes_ogs.tif
176
     1
290
     0
176
     1
 40
1.0
176
     1
 40
1.0
176
     1
1001
ACAD
1000
AcDbSavedByObjectVersion
1070
     0
  0
VISUALSTYLE
  5
3D
102
{ACAD_REACTORS
330
29
102
}
330
29
100
AcDbVisualStyle
  2
Shaded with edges
 70
    26
177
     3
291
     0
 70
    58
 90
        2
176
     1
 90
        2
176
     1
 90
        1
176
     1
 90
        2
176
     1
 40
0.6
176
     1
 40
30.0
176
     1
 62
     7
420
 16777215
176
     1
 90
        1
176
     1
 90
        2
176
     1
 62
     7
176
     1
 62
   257
176
     1
 90
        2
176
     1
 90
        1
176
     1
 40
1.0
176
     1
 90
        8
176
     1
 62
   257
176
     1
 40
1.0
176
     1
 90
        1
176
     1
 90
        6
176
     1
 90
        2
176
     1
 62
     7
176
     1
 90
        3
176
     1
 90
        0
176
     1
 90
        0
176
     1
290
     0
176
     1
 90
        5
176
     1
 40
0.0
176
     1
 90
        0
176
     1
290
     0
176
     1
290
     1
176
     1
290
     1
176
     1
290
     0
176
     1
290
     0
176
     1
290
     0
176
     1
290
     0
176
     1
290
     0
176
     1
290
     0
176
     1
 90
       50
176
     1
 40
0.0
176
     1
 40
1.0
176
     1
 90
        0
176
     1
 62
    18
420
        0
176
     1
 90
       50
176
     1
 90
        3
176
     1
 62
     5
420
      255
176
     1
290
     0
176
     1
 90
       50
176
     1
 90
       50
176
     1
 90
       50
176
     1
290
     0
176
     1
 90
       50
176
     1
 62
   256
176
     0
 40
1.0
176
     0
 90
        2
176
     1
  1
strokes_ogs.tif
176
     1
290
     0
176
     1
 40
1.0
176
     1
 40
1.0
176
     1
1001
ACAD
1000
AcDbSavedByObjectVersion
1070
     0
  0
VISUALSTYLE
  5
3A
102
{ACAD_REACTORS
330
29
102
}
330
29
100
AcDbVisualStyle
  2
Shades of Gray
 70
    23
177
     3
291
     0
 70
    58
 90
        2
176
     1
 90
        2
176
     1
 90
        3
176
     1
 90
        0
176
     1
 40
0.6
176
     1
 40
30.0
176
     1
 62
     7
420
 16777215
176
     1
 90
        2
176
     1
 90
        2
176
     1
 62
     7
176
     1
 62
     7
176
     1
 90
        1
176
     1
 90
        1
176
     1
 40
40.0
176
     1
 90
        8
176
     1
 62
     7
176
     1
 40
1.0
176
     1
 90
        1
176
     1
 90
        6
176
     1
 90
        2
176
     1
 62
     7
176
     1
 90
        3
176
     1
 90
        0
176
     1
 90
        0
176
     1
290
     0
176
     1
 90
        1
176
     1
 40
0.0
176
     1
 90
        0
176
     1
290
     0
176
     1
290
     1
176
     1
290
     1
176
     1
290
     0
176
     1
290
     0
176
     1
290
     0
176
     1
290
     0
176
     1
290
     0
176
     1
290
     0
176
     1
 90
       50
176
     1
 40
0.0
176
     1
 40
1.0
176
     1
 90
        0
176
     1
 62
    18
420
        0
176
     1
 90
       50
176
     1
 90
        3
176
     1
 62
     5
420
      255
176
     1
290
     0
176
     1
 90
       50
176
     1
 90
       50
176
     1
 90
       50
176
     1
290
     0
176
     1
 90
       50
176
     1
 62
   256
176
     0
 40
1.0
176
     0
 90
        2
176
     1
  1
strokes_ogs.tif
176
     1
290
     0
176
     1
 40
1.0
176
     1
 40
1.0
176
     1
1001
ACAD
1000
AcDbSavedByObjectVersion
1070
     0
  0
VISUALSTYLE
  5
3B
102
{ACAD_REACTORS
330
29
102
}
330
29
100
AcDbVisualStyle
  2
Sketchy
 70
    24
177
     3
291
     0
 70
    58
 90
        1
176
     1
 90
        2
176
     1
 90
        2
176
     1
 90
        0
176
     1
 40
0.6
176
     1
 40
30.0
176
     1
 62
     7
420
 16777215
176
     1
 90
        2
176
     1
 90
        2
176
     1
 62
     7
176
     1
 62
     7
176
     1
 90
        1
176
     1
 90
        1
176
     1
 40
40.0
176
     1
 90
       11
176
     1
 62
     7
176
     1
 40
1.0
176
     1
 90
        1
176
     1
 90
        6
176
     1
 90
        2
176
     1
 62
     7
176
     1
 90
        6
176
     1
 90
        0
176
     1
 90
        0
176
     1
290
     0
176
     1
 90
        1
176
     1
 40
0.0
176
     1
 90
        0
176
     1
290
     0
176
     1
290
     1
176
     1
290
     1
176
     1
290
     0
176
     1
290
     0
176
     1
290
     0
176
     1
290
     0
176
     1
290
     0
176
     1
290
     0
176
     1
 90
       50
176
     1
 40
0.0
176
     1
 40
1.0
176
     1
 90
        0
176
     1
 62
    18
420
        0
176
     1
 90
       50
176
     1
 90
        3
176
     1
 62
     5
420
      255
176
     1
290
     0
176
     1
 90
       50
176
     1
 90
       50
176
     1
 90
       50
176
     1
290
     0
176
     1
 90
       50
176
     1
 62
   256
176
     0
 40
1.0
176
     0
 90
        2
176
     1
  1
strokes_ogs.tif
176
     1
290
     0
176
     1
 40
1.0
176
     1
 40
1.0
176
     1
1001
ACAD
1000
AcDbSavedByObjectVersion
1070
     0
  0
VISUALSTYLE
  5
36
102
{ACAD_REACTORS
330
29
102
}
330
29
100
AcDbVisualStyle
  2
Thicken
 70
    13
177
     3
291
     1
 70
    58
 90
        2
176
     1
 90
        2
176
     1
 90
        0
176
     1
 90
        0
176
     1
 40
0.6
176
     1
 40
30.0
176
     1
 62
     7
420
 16777215
176
     1
 90
        1
176
     1
 90
        4
176
     1
 62
     7
176
     1
 62
   257
176
     1
 90
        1
176
     1
 90
        1
176
     1
 40
1.0
176
     1
 90
       12
176
     1
 62
     7
176
     1
 40
1.0
176
     1
 90
        1
176
     1
 90
        6
176
     1
 90
        2
176
     1
 62
     7
176
     1
 90
        5
176
     1
 90
        0
176
     1
 90
        0
176
     1
290
     0
176
     1
 90
        1
176
     1
 40
0.0
176
     1
 90
        0
176
     1
290
     0
176
     1
290
     1
176
     1
290
     1
176
     1
290
     0
176
     1
290
     0
176
     1
290
     0
176
     1
290
     0
176
     1
290
     0
176
     1
290
     0
176
     1
 90
       50
176
     1
 40
0.0
176
     1
 40
1.0
176
     1
 90
        0
176
     1
 62
    18
420
        0
176
     1
 90
       50
176
     1
 90
        3
176
     1
 62
     5
420
      255
176
     1
290
     0
176
     1
 90
       50
176
     1
 90
       50
176
     1
 90
       50
176
     1
290
     0
176
     1
 90
       50
176
     1
 62
   256
176
     0
 40
1.0
176
     0
 90
        2
176
     1
  1
strokes_ogs.tif
176
     1
290
     0
176
     1
 40
1.0
176
     1
 40
1.0
176
     1
1001
ACAD
1000
AcDbSavedByObjectVersion
1070
     0
  0
VISUALSTYLE
  5
30
102
{ACAD_REACTORS
330
29
102
}
330
29
100
AcDbVisualStyle
  2
Wireframe
 70
     5
177
     3
291
     0
 70
    58
 90
        0
176
     1
 90
        2
176
     1
 90
        0
176
     1
 90
        0
176
     1
 40
0.6
176
     1
 40
30.0
176
     1
 62
     7
420
 16777215
176
     1
 90
        1
176
     1
 90
        4
176
     1
 62
     7
176
     1
 62
   257
176
     1
 90
        1
176
     1
 90
        1
176
     1
 40
1.0
176
     1
 90
        0
176
     1
 62
   257
176
     1
 40
1.0
176
     1
 90
        1
176
     1
 90
        6
176
     1
 90
        2
176
     1
 62
     7
176
     1
 90
        3
176
     1
 90
        0
176
     1
 90
        0
176
     1
290
     0
176
     1
 90
        1
176
     1
 40
0.0
176
     1
 90
        0
176
     1
290
     0
176
     1
290
     1
176
     1
290
     1
176
     1
290
     0
176
     1
290
     0
176
     1
290
     0
176
     1
290
     0
176
     1
290
     0
176
     1
290
     0
176
     1
 90
       50
176
     1
 40
0.0
176
     1
 40
1.0
176
     1
 90
        0
176
     1
 62
    18
420
        0
176
     1
 90
       50
176
     1
 90
        3
176
     1
 62
     5
420
      255
176
     1
290
     0
176
     1
 90
       50
176
     1
 90
       50
176
     1
 90
       50
176
     1
290
     0
176
     1
 90
       50
176
     1
 62
   256
176
     0
 40
1.0
176
     0
 90
        2
176
     1
  1
strokes_ogs.tif
176
     1
290
     0
176
     1
 40
1.0
176
     1
 40
1.0
176
     1
1001
ACAD
1000
AcDbSavedByObjectVersion
1070
     0
  0
VISUALSTYLE
  5
3C
102
{ACAD_REACTORS
330
29
102
}
330
29
100
AcDbVisualStyle
  2
X-Ray
 70
    25
177
     3
291
     0
 70
    58
 90
        2
176
     1
 90
        2
176
     1
 90
        1
176
     1
 90
        1
176
     1
 40
0.5
176
     1
 40
30.0
176
     1
 62
     7
420
 16777215
176
     1
 90
        1
176
     1
 90
        0
176
     1
 62
     7
176
     1
 62
   257
176
     1
 90
        1
176
     1
 90
        1
176
     1
 40
1.0
176
     1
 90
        8
176
     1
 62
     7
176
     1
 40
1.0
176
     1
 90
        1
176
     1
 90
        6
176
     1
 90
        2
176
     1
 62
     7
176
     1
 90
        3
176
     1
 90
        0
176
     1
 90
        0
176
     1
290
     0
176
     1
 90
       13
176
     1
 40
0.0
176
     1
 90
        0
176
     1
290
     0
176
     1
290
     1
176
     1
290
     1
176
     1
290
     0
176
     1
290
     0
176
     1
290
     0
176
     1
290
     0
176
     1
290
     0
176
     1
290
     0
176
     1
 90
       50
176
     1
 40
0.0
176
     1
 40
1.0
176
     1
 90
        0
176
     1
 62
    18
420
        0
176
     1
 90
       50
176
     1
 90
        3
176
     1
 62
     5
420
      255
176
     1
290
     0
176
     1
 90
       50
176
     1
 90
       50
176
     1
 90
       50
176
     1
290
     0
176
     1
 90
       50
176
     1
 62
   256
176
     0
 40
1.0
176
     0
 90
        2
176
     1
  1
strokes_ogs.tif
176
     1
290
     0
176
     1
 40
1.0
176
     1
 40
1.0
176
     1
1001
ACAD
1000
AcDbSavedByObjectVersion
1070
     0
  0
DICTIONARYVAR
  5
310
102
{ACAD_REACTORS
330
30B
102
}
330
30B
100
DictionaryVariables
280
     0
  1
0
  0
DICTIONARYVAR
  5
311
102
{ACAD_REACTORS
330
30B
102
}
330
30B
100
DictionaryVariables
280
     0
  1
1:1
  0
DICTIONARYVAR
  5
30D
102
{ACAD_REACTORS
330
30B
102
}
330
30B
100
DictionaryVariables
280
     0
  1
STANDARD
  0
DICTIONARYVAR
  5
30C
102
{ACAD_REACTORS
330
30B
102
}
330
30B
100
DictionaryVariables
280
     0
  1
STANDARD
  0
DICTIONARYVAR
  5
30E
102
{ACAD_REACTORS
330
30B
102
}
330
30B
100
DictionaryVariables
280
     0
  1
Imperial24
  0
DICTIONARYVAR
  5
30F
102
{ACAD_REACTORS
330
30B
102
}
330
30B
100
DictionaryVariables
280
     0
  1
Imperial24
  0
DICTIONARY
  5
317
330
6B
100
AcDbDictionary
280
     1
281
     1
  3
ACAD_XREC_ROUNDTRIP
360
318
  0
DICTIONARY
  5
1A
330
19
100
AcDbDictionary
280
     1
281
     1
  3
BUMPTILE
360
1C
  3
DIFFUSETILE
360
1B
  3
OPACITYTILE
360
1F
  3
REFLECTIONTILE
360
1E
  3
REFRACTIONTILE
360
20
  3
SPECULARTILE
360
1D
  0
DICTIONARY
  5
12
330
11
100
AcDbDictionary
280
     1
281
     1
  3
BUMPTILE
360
14
  3
DIFFUSETILE
360
13
  3
OPACITYTILE
360
17
  3
REFLECTIONTILE
360
16
  3
REFRACTIONTILE
360
18
  3
SPECULARTILE
360
15
  0
DICTIONARY
  5
22
330
21
100
AcDbDictionary
280
     1
281
     1
  3
BUMPTILE
360
24
  3
DIFFUSETILE
360
23
  3
OPACITYTILE
360
27
  3
REFLECTIONTILE
360
26
  3
REFRACTIONTILE
360
28
  3
SPECULARTILE
360
25
  0
DICTIONARY
  5
315
330
69
100
AcDbDictionary
280
     1
281
     1
  3
ACAD_XREC_ROUNDTRIP
360
316
  0
DICTIONARY
  5
312
330
65
100
AcDbDictionary
280
     1
281
     1
  3
ACAD_ROUNDTRIP_2008_TABLESTYLE_CELLSTYLEMAP
360
313
  0
XRECORD
  5
318
102
{ACAD_REACTORS
330
317
102
}
330
317
100
AcDbXrecord
280
     1
102
DISPLAYNAME
  1
Imperial24
102
FLAGS
 90
        0
  0
XRECORD
  5
1C
102
{ACAD_REACTORS
330
1A
102
}
330
1A
100
AcDbXrecord
280
     1
270
     1
271
     1
  0
XRECORD
  5
1B
102
{ACAD_REACTORS
330
1A
102
}
330
1A
100
AcDbXrecord
280
     1
270
     1
271
     1
  0
XRECORD
  5
1F
102
{ACAD_REACTORS
330
1A
102
}
330
1A
100
AcDbXrecord
280
     1
270
     1
271
     1
  0
XRECORD
  5
1E
102
{ACAD_REACTORS
330
1A
102
}
330
1A
100
AcDbXrecord
280
     1
270
     1
271
     1
  0
XRECORD
  5
20
102
{ACAD_REACTORS
330
1A
102
}
330
1A
100
AcDbXrecord
280
     1
270
     1
271
     1
  0
XRECORD
  5
1D
102
{ACAD_REACTORS
330
1A
102
}
330
1A
100
AcDbXrecord
280
     1
270
     1
271
     1
  0
XRECORD
  5
14
102
{ACAD_REACTORS
330
12
102
}
330
12
100
AcDbXrecord
280
     1
270
     1
271
     1
  0
XRECORD
  5
13
102
{ACAD_REACTORS
330
12
102
}
330
12
100
AcDbXrecord
280
     1
270
     1
271
     1
  0
XRECORD
  5
17
102
{ACAD_REACTORS
330
12
102
}
330
12
100
AcDbXrecord
280
     1
270
     1
271
     1
  0
XRECORD
  5
16
102
{ACAD_REACTORS
330
12
102
}
330
12
100
AcDbXrecord
280
     1
270
     1
271
     1
  0
XRECORD
  5
18
102
{ACAD_REACTORS
330
12
102
}
330
12
100
AcDbXrecord
280
     1
270
     1
271
     1
  0
XRECORD
  5
15
102
{ACAD_REACTORS
330
12
102
}
330
12
100
AcDbXrecord
280
     1
270
     1
271
     1
  0
XRECORD
  5
24
102
{ACAD_REACTORS
330
22
102
}
330
22
100
AcDbXrecord
280
     1
270
     1
271
     1
  0
XRECORD
  5
23
102
{ACAD_REACTORS
330
22
102
}
330
22
100
AcDbXrecord
280
     1
270
     1
271
     1
  0
XRECORD
  5
27
102
{ACAD_REACTORS
330
22
102
}
330
22
100
AcDbXrecord
280
     1
270
     1
271
     1
  0
XRECORD
  5
26
102
{ACAD_REACTORS
330
22
102
}
330
22
100
AcDbXrecord
280
     1
270
     1
271
     1
  0
XRECORD
  5
28
102
{ACAD_REACTORS
330
22
102
}
330
22
100
AcDbXrecord
280
     1
270
     1
271
     1
  0
XRECORD
  5
25
102
{ACAD_REACTORS
330
22
102
}
330
22
100
AcDbXrecord
280
     1
270
     1
271
     1
  0
XRECORD
  5
316
102
{ACAD_REACTORS
330
315
102
}
330
315
100
AcDbXrecord
280
     1
102
DISPLAYNAME
  1
Imperial24
102
FLAGS
 90
        0
  0
CELLSTYLEMAP
  5
313
102
{ACAD_REACTORS
330
312
102
}
330
312
100
AcDbCellStyleMap
 90
        3
300
CELLSTYLE
  1
TABLEFORMAT_BEGIN
 90
        5
170
     1
 91
        0
 92
    32768
 62
   257
 93
        1
300
CONTENTFORMAT
  1
CONTENTFORMAT_BEGIN
 90
        0
 91
        0
 92
      512
 93
        0
300

 40
0.0
140
1.0
 94
        5
 62
     0
340
55
144
0.25
309
CONTENTFORMAT_END
171
     0
 94
        0
309
TABLEFORMAT_END
  1
CELLSTYLE_BEGIN
 90
        1
 91
        1
300
_TITLE
309
CELLSTYLE_END
300
CELLSTYLE
  1
TABLEFORMAT_BEGIN
 90
        5
170
     1
 91
        0
 92
        0
 62
   257
 93
        1
300
CONTENTFORMAT
  1
CONTENTFORMAT_BEGIN
 90
        0
 91
        0
 92
      512
 93
        0
300

 40
0.0
140
1.0
 94
        5
 62
     0
340
55
144
0.18
309
CONTENTFORMAT_END
171
     0
 94
        0
309
TABLEFORMAT_END
  1
CELLSTYLE_BEGIN
 90
        2
 91
        1
300
_HEADER
309
CELLSTYLE_END
300
CELLSTYLE
  1
TABLEFORMAT_BEGIN
 90
        5
170
     1
 91
        0
 92
        0
 62
   257
 93
        1
300
CONTENTFORMAT
  1
CONTENTFORMAT_BEGIN
 90
        0
 91
        0
 92
      512
 93
        0
300

 40
0.0
140
1.0
 94
        2
 62
     0
340
55
144
0.18
309
CONTENTFORMAT_END
171
     0
 94
        0
309
TABLEFORMAT_END
  1
CELLSTYLE_BEGIN
 90
        3
 91
        2
300
_DATA
309
CELLSTYLE_END
  0
ENDSEC
  0
EOF
