  0
SECTION
  2
HEADER
  9
$ACADVER
  1
AC1027
  9
$ACADMAINTVER
 70
   125
  9
$DWGCODEPAGE
  3
ANSI_1252
  9
$LASTSAVEDBY
  1
Administrator
  9
$REQUIREDVERSIONS
160
                 0
  9
$INSBASE
 10
0.0
 20
0.0
 30
0.0
  9
$EXTMIN
 10
0.0
 20
0.0
 30
-1.663542
  9
$EXTMAX
 10
17.0
 20
11.0
 30
1.722427
  9
$LIMMIN
 10
0.0
 20
0.0
  9
$LIMMAX
 10
17.0
 20
11.0
  9
$ORTHOMODE
 70
     0
  9
$REGENMODE
 70
     1
  9
$FILLMODE
 70
     1
  9
$QTEXTMODE
 70
     0
  9
$MIRRTEXT
 70
     0
  9
$LTSCALE
 40
0.75
  9
$ATTMODE
 70
     1
  9
$TEXTSIZE
 40
0.12
  9
$TRACEWID
 40
0.05
  9
$TEXTSTYLE
  7
Standard
  9
$CLAYER
  8
Titleblock
  9
$CELTYPE
  6
ByLayer
  9
$CECOLOR
 62
   256
  9
$CELTSCALE
 40
1.0
  9
$DISPSILH
 70
     0
  9
$DIMSCALE
 40
1.0
  9
$DIMASZ
 40
0.12
  9
$DIMEXO
 40
0.07
  9
$DIMDLI
 40
0.36
  9
$DIMRND
 40
0.0
  9
$DIMDLE
 40
0.0
  9
$DIMEXE
 40
0.07
  9
$DIMTP
 40
0.01
  9
$DIMTM
 40
0.01
  9
$DIMTXT
 40
0.12
  9
$DIMCEN
 40
0.0
  9
$DIMTSZ
 40
0.0
  9
$DIMTOL
 70
     0
  9
$DIMLIM
 70
     0
  9
$DIMTIH
 70
     1
  9
$DIMTOH
 70
     1
  9
$DIMSE1
 70
     0
  9
$DIMSE2
 70
     0
  9
$DIMTAD
 70
     0
  9
$DIMZIN
 70
    12
  9
$DIMBLK
  1

  9
$DIMASO
 70
     1
  9
$DIMSHO
 70
     1
  9
$DIMPOST
  1
in
  9
$DIMAPOST
  1
mm
  9
$DIMALT
 70
     0
  9
$DIMALTD
 70
     2
  9
$DIMALTF
 40
25.4
  9
$DIMLFAC
 40
1.0
  9
$DIMTOFL
 70
     0
  9
$DIMTVP
 40
0.0
  9
$DIMTIX
 70
     0
  9
$DIMSOXD
 70
     0
  9
$DIMSAH
 70
     0
  9
$DIMBLK1
  1

  9
$DIMBLK2
  1

  9
$DIMSTYLE
  2
Standard
  9
$DIMCLRD
 70
   256
  9
$DIMCLRE
 70
   256
  9
$DIMCLRT
 70
   256
  9
$DIMTFAC
 40
1.0
  9
$DIMGAP
 40
0.05
  9
$DIMJUST
 70
     0
  9
$DIMSD1
 70
     0
  9
$DIMSD2
 70
     0
  9
$DIMTOLJ
 70
     1
  9
$DIMTZIN
 70
    12
  9
$DIMALTZ
 70
    12
  9
$DIMALTTZ
 70
    12
  9
$DIMUPT
 70
     0
  9
$DIMDEC
 70
     2
  9
$DIMTDEC
 70
     2
  9
$DIMALTU
 70
     2
  9
$DIMALTTD
 70
     2
  9
$DIMTXSTY
  7
Standard
  9
$DIMAUNIT
 70
     0
  9
$DIMADEC
 70
     2
  9
$DIMALTRND
 40
0.0
  9
$DIMAZIN
 70
     3
  9
$DIMDSEP
 70
    46
  9
$DIMATFIT
 70
     3
  9
$DIMFRAC
 70
     0
  9
$DIMLDRBLK
  1

  9
$DIMLUNIT
 70
     2
  9
$DIMLWD
 70
    -2
  9
$DIMLWE
 70
    -2
  9
$DIMTMOVE
 70
     0
  9
$DIMFXL
 40
1.0
  9
$DIMFXLON
 70
     0
  9
$DIMJOGANG
 40
0.785398
  9
$DIMTFILL
 70
     0
  9
$DIMTFILLCLR
 70
     0
  9
$DIMARCSYM
 70
     1
  9
$DIMLTYPE
  6

  9
$DIMLTEX1
  6

  9
$DIMLTEX2
  6

  9
$DIMTXTDIRECTION
 70
     0
  9
$LUNITS
 70
     2
  9
$LUPREC
 70
     4
  9
$SKETCHINC
 40
0.1
  9
$FILLETRAD
 40
0.0
  9
$AUNITS
 70
     0
  9
$AUPREC
 70
     0
  9
$MENU
  1
.
  9
$ELEVATION
 40
0.0
  9
$PELEVATION
 40
0.0
  9
$THICKNESS
 40
0.0
  9
$LIMCHECK
 70
     0
  9
$CHAMFERA
 40
0.0
  9
$CHAMFERB
 40
0.0
  9
$CHAMFERC
 40
0.0
  9
$CHAMFERD
 40
0.0
  9
$SKPOLY
 70
     0
  9
$TDCREATE
 40
2459467.613715278
  9
$TDUCREATE
 40
2459467.905381945
  9
$TDUPDATE
 40
2459467.613715278
  9
$TDUUPDATE
 40
2459467.905381945
  9
$TDINDWG
 40
0.0000000000
  9
$TDUSRTIMER
 40
0.0000000000
  9
$USRTIMER
 70
     1
  9
$ANGBASE
 50
0.0
  9
$ANGDIR
 70
     0
  9
$PDMODE
 70
     0
  9
$PDSIZE
 40
0.0
  9
$PLINEWID
 40
0.0
  9
$SPLFRAME
 70
     0
  9
$SPLINETYPE
 70
     6
  9
$SPLINESEGS
 70
     8
  9
$HANDSEED
  5
396
  9
$SURFTAB1
 70
     6
  9
$SURFTAB2
 70
     6
  9
$SURFTYPE
 70
     6
  9
$SURFU
 70
     6
  9
$SURFV
 70
     6
  9
$UCSBASE
  2

  9
$UCSNAME
  2

  9
$UCSORG
 10
0.0
 20
0.0
 30
0.0
  9
$UCSXDIR
 10
1.0
 20
0.0
 30
0.0
  9
$UCSYDIR
 10
0.0
 20
1.0
 30
0.0
  9
$UCSORTHOREF
  2

  9
$UCSORTHOVIEW
 70
     0
  9
$UCSORGTOP
 10
0.0
 20
0.0
 30
0.0
  9
$UCSORGBOTTOM
 10
0.0
 20
0.0
 30
0.0
  9
$UCSORGLEFT
 10
0.0
 20
0.0
 30
0.0
  9
$UCSORGRIGHT
 10
0.0
 20
0.0
 30
0.0
  9
$UCSORGFRONT
 10
0.0
 20
0.0
 30
0.0
  9
$UCSORGBACK
 10
0.0
 20
0.0
 30
0.0
  9
$PUCSBASE
  2

  9
$PUCSNAME
  2

  9
$PUCSORG
 10
0.0
 20
0.0
 30
0.0
  9
$PUCSXDIR
 10
1.0
 20
0.0
 30
0.0
  9
$PUCSYDIR
 10
0.0
 20
1.0
 30
0.0
  9
$PUCSORTHOREF
  2

  9
$PUCSORTHOVIEW
 70
     0
  9
$PUCSORGTOP
 10
0.0
 20
0.0
 30
0.0
  9
$PUCSORGBOTTOM
 10
0.0
 20
0.0
 30
0.0
  9
$PUCSORGLEFT
 10
0.0
 20
0.0
 30
0.0
  9
$PUCSORGRIGHT
 10
0.0
 20
0.0
 30
0.0
  9
$PUCSORGFRONT
 10
0.0
 20
0.0
 30
0.0
  9
$PUCSORGBACK
 10
0.0
 20
0.0
 30
0.0
  9
$USERI1
 70
     0
  9
$USERI2
 70
     0
  9
$USERI3
 70
     0
  9
$USERI4
 70
     0
  9
$USERI5
 70
     0
  9
$USERR1
 40
0.0
  9
$USERR2
 40
0.0
  9
$USERR3
 40
0.0
  9
$USERR4
 40
0.0
  9
$USERR5
 40
0.0
  9
$WORLDVIEW
 70
     1
  9
$SHADEDGE
 70
     3
  9
$SHADEDIF
 70
    70
  9
$TILEMODE
 70
     1
  9
$MAXACTVP
 70
    64
  9
$PINSBASE
 10
0.0
 20
0.0
 30
0.0
  9
$PLIMCHECK
 70
     0
  9
$PEXTMIN
 10
1.000000E+20
 20
1.000000E+20
 30
1.000000E+20
  9
$PEXTMAX
 10
-1.000000E+20
 20
-1.000000E+20
 30
-1.000000E+20
  9
$PLIMMIN
 10
0.0
 20
0.0
  9
$PLIMMAX
 10
12.0
 20
9.0
  9
$UNITMODE
 70
     0
  9
$VISRETAIN
 70
     1
  9
$PLINEGEN
 70
     0
  9
$PSLTSCALE
 70
     1
  9
$TREEDEPTH
 70
  3020
  9
$CMLSTYLE
  2
Standard
  9
$CMLJUST
 70
     0
  9
$CMLSCALE
 40
1.0
  9
$PROXYGRAPHICS
 70
     1
  9
$MEASUREMENT
 70
     0
  9
$CELWEIGHT
370
    -1
  9
$ENDCAPS
280
     0
  9
$JOINSTYLE
280
     0
  9
$LWDISPLAY
290
     0
  9
$INSUNITS
 70
     1
  9
$HYPERLINKBASE
  1

  9
$STYLESHEET
  1

  9
$XEDIT
290
     1
  9
$CEPSNTYPE
380
     0
  9
$PSTYLEMODE
290
     1
  9
$FINGERPRINTGUID
  2
{B0EC3DF8-AD64-4A41-8CF7-F88490694E11}
  9
$VERSIONGUID
  2
{EAB3F81C-CAEB-444F-BFBA-67BF535749AA}
  9
$EXTNAMES
290
     1
  9
$PSVPSCALE
 40
0.0
  9
$OLESTARTUP
290
     0
  9
$SORTENTS
280
   127
  9
$INDEXCTL
280
     0
  9
$HIDETEXT
280
     1
  9
$XCLIPFRAME
280
     0
  9
$HALOGAP
280
     0
  9
$OBSCOLOR
 70
   257
  9
$OBSLTYPE
280
     0
  9
$INTERSECTIONDISPLAY
280
     0
  9
$INTERSECTIONCOLOR
 70
   257
  9
$DIMASSOC
280
     2
  9
$PROJECTNAME
  1

  9
$CAMERADISPLAY
290
     0
  9
$LENSLENGTH
 40
50.0
  9
$CAMERAHEIGHT
 40
0.0
  9
$STEPSPERSEC
 40
2.0
  9
$STEPSIZE
 40
6.0
  9
$3DDWFPREC
 40
2.0
  9
$PSOLWIDTH
 40
0.25
  9
$PSOLHEIGHT
 40
4.0
  9
$LOFTANG1
 40
1.570796
  9
$LOFTANG2
 40
1.570796
  9
$LOFTMAG1
 40
0.0
  9
$LOFTMAG2
 40
0.0
  9
$LOFTPARAM
 70
     7
  9
$LOFTNORMALS
280
     1
  9
$LATITUDE
 40
37.795
  9
$LONGITUDE
 40
-122.394
  9
$NORTHDIRECTION
 40
0.0
  9
$TIMEZONE
 70
 -8000
  9
$LIGHTGLYPHDISPLAY
280
     1
  9
$TILEMODELIGHTSYNCH
280
     1
  9
$CMATERIAL
347
11
  9
$SOLIDHIST
280
     0
  9
$SHOWHIST
280
     1
  9
$DWFFRAME
280
     2
  9
$DGNFRAME
280
     0
  9
$REALWORLDSCALE
290
     1
  9
$INTERFERECOLOR
 62
     1
  9
$INTERFEREOBJVS
345
33
  9
$INTERFEREVPVS
346
30
  9
$CSHADOW
280
     0
  9
$SHADOWPLANELOCATION
 40
0.0
  0
ENDSEC
  0
SECTION
  2
CLASSES
  0
CLASS
  1
ACDBDICTIONARYWDFLT
  2
AcDbDictionaryWithDefault
  3
ObjectDBX Classes
 90
        0
 91
        1
280
     0
281
     0
  0
CLASS
  1
MATERIAL
  2
AcDbMaterial
  3
ObjectDBX Classes
 90
     1153
 91
        3
280
     0
281
     0
  0
CLASS
  1
VISUALSTYLE
  2
AcDbVisualStyle
  3
ObjectDBX Classes
 90
     4095
 91
       24
280
     0
281
     0
  0
CLASS
  1
SCALE
  2
AcDbScale
  3
ObjectDBX Classes
 90
     1153
 91
       33
280
     0
281
     0
  0
CLASS
  1
TABLESTYLE
  2
AcDbTableStyle
  3
ObjectDBX Classes
 90
     4095
 91
        1
280
     0
281
     0
  0
CLASS
  1
MLEADERSTYLE
  2
AcDbMLeaderStyle
  3
ACDB_MLEADERSTYLE_CLASS
 90
     4095
 91
        1
280
     0
281
     0
  0
CLASS
  1
ACDBSECTIONVIEWSTYLE
  2
AcDbSectionViewStyle
  3
ObjectDBX Classes
 90
     1025
 91
        1
280
     0
281
     0
  0
CLASS
  1
ACDBDETAILVIEWSTYLE
  2
AcDbDetailViewStyle
  3
ObjectDBX Classes
 90
     1025
 91
        1
280
     0
281
     0
  0
CLASS
  1
ACMESCOPE
  2
AcMeScope
  3
AcMeServices
 90
     1024
 91
        1
280
     0
281
     0
  0
CLASS
  1
ACMECOMMANDHISTORY
  2
AcMeCommandHistory
  3
AcMeServices
 90
     1024
 91
        1
280
     0
281
     0
  0
CLASS
  1
ACIMSYSVARMAN
  2
AcImSysVarManager
  3
AcMeServices
 90
     1024
 91
        1
280
     0
281
     0
  0
CLASS
  1
ACIMINTSYSVAR
  2
AcImIntSysVar
  3
AcMeServices
 90
     1024
 91
        1
280
     0
281
     0
  0
CLASS
  1
ACMESTATEMGR
  2
AcMeStateMgr
  3
AcMeServices
 90
     1024
 91
        1
280
     0
281
     0
  0
CLASS
  1
ACGREFMASTER
  2
AcGrefMaster
  3
AcAttribServices
 90
     1024
 91
        1
280
     0
281
     0
  0
CLASS
  1
SORTENTSTABLE
  2
AcDbSortentsTable
  3
ObjectDBX Classes
 90
        0
 91
        6
280
     0
281
     0
  0
CLASS
  1
IMAGE
  2
AcDbRasterImage
  3
ISM
 90
     2175
 91
        1
280
     0
281
     1
  0
CLASS
  1
IMAGEDEF
  2
AcDbRasterImageDef
  3
ISM
 90
        0
 91
        1
280
     0
281
     0
  0
CLASS
  1
IMAGEDEF_REACTOR
  2
AcDbRasterImageDefReactor
  3
ISM
 90
        1
 91
        2
280
     0
281
     0
  0
CLASS
  1
RASTERVARIABLES
  2
AcDbRasterVariables
  3
ISM
 90
        0
 91
        1
280
     0
281
     0
  0
CLASS
  1
DICTIONARYVAR
  2
AcDbDictionaryVar
  3
ObjectDBX Classes
 90
        0
 91
        6
280
     0
281
     0
  0
CLASS
  1
CELLSTYLEMAP
  2
AcDbCellStyleMap
  3
ObjectDBX Classes
 90
     1152
 91
        1
280
     0
281
     0
  0
ENDSEC
  0
SECTION
  2
TABLES
  0
TABLE
  2
VPORT
  5
8
330
0
100
AcDbSymbolTable
 70
     1
1001
ACAD
1000
DbSaveVer
1071
      246
  0
VPORT
  5
57
330
8
100
AcDbSymbolTableRecord
100
AcDbViewportTableRecord
  2
*Active
 70
     0
 10
0.0
 20
0.0
 11
1.0
 21
1.0
 12
8.5
 22
5.5
 13
0.0
 23
0.0
 14
0.5
 24
0.5
 15
0.0
 25
0.0
 16
0.0
 26
0.0
 36
1.0
 17
0.0
 27
0.0
 37
0.0
 40
11.0
 41
1.7981
 42
50.0
 43
0.0
 44
0.0
 50
0.0
 51
0.0
 71
     0
 72
 20000
 73
     1
 74
     0
 75
     0
 76
     0
 77
     0
 78
     0
281
     0
 65
     1
110
0.0
120
0.0
130
0.0
111
1.0
121
0.0
131
0.0
112
0.0
122
1.0
132
0.0
 79
     0
146
0.0
348
2F
 60
     3
 61
     5
292
     1
282
     1
141
0.0
142
0.0
 63
   250
421
  3355443
  0
ENDTAB
  0
TABLE
  2
LTYPE
  5
5
330
0
100
AcDbSymbolTable
 70
    10
  0
LTYPE
  5
5B
330
5
100
AcDbSymbolTableRecord
100
AcDbLinetypeTableRecord
  2
ByBlock
 70
     0
  3

 72
    65
 73
     0
 40
0.0
  0
LTYPE
  5
5C
330
5
100
AcDbSymbolTableRecord
100
AcDbLinetypeTableRecord
  2
ByLayer
 70
     0
  3

 72
    65
 73
     0
 40
0.0
  0
LTYPE
  5
5D
330
5
100
AcDbSymbolTableRecord
100
AcDbLinetypeTableRecord
  2
Continuous
 70
     0
  3
Solid line
 72
    65
 73
     0
 40
0.0
  0
LTYPE
  5
81
330
5
100
AcDbSymbolTableRecord
100
AcDbLinetypeTableRecord
  2
HIDDEN
 70
     0
  3
Hidden __ __ __ __ __ __ __ __ __ __ __ __ __ _
 72
    65
 73
     2
 40
0.375
 49
0.25
 74
     0
 49
-0.125
 74
     0
  0
LTYPE
  5
82
330
5
100
AcDbSymbolTableRecord
100
AcDbLinetypeTableRecord
  2
PHANTOM2
 70
     0
  3
Phantom (.5x) ___ _ _ ___ _ _ ___ _ _ ___ _ _
 72
    65
 73
     6
 40
1.25
 49
0.625
 74
     0
 49
-0.125
 74
     0
 49
0.125
 74
     0
 49
-0.125
 74
     0
 49
0.125
 74
     0
 49
-0.125
 74
     0
  0
LTYPE
  5
83
330
5
100
AcDbSymbolTableRecord
100
AcDbLinetypeTableRecord
  2
CENTER
 70
     0
  3
Center ____ _ ____ _ ____ _ ____ _ ____ _ ____
 72
    65
 73
     4
 40
2.0
 49
1.25
 74
     0
 49
-0.25
 74
     0
 49
0.25
 74
     0
 49
-0.25
 74
     0
  0
LTYPE
  5
9C
330
5
100
AcDbSymbolTableRecord
100
AcDbLinetypeTableRecord
  2
CENTER2
 70
     0
  3
Center (.5x) ___ _ ___ _ ___ _ ___ _ ___ _ ___
 72
    65
 73
     4
 40
1.125
 49
0.75
 74
     0
 49
-0.125
 74
     0
 49
0.125
 74
     0
 49
-0.125
 74
     0
  0
LTYPE
  5
9D
330
5
100
AcDbSymbolTableRecord
100
AcDbLinetypeTableRecord
  2
HIDDEN2
 70
     0
  3
Hidden (.5x) _ _ _ _ _ _ _ _ _ _ _ _ _ _ _ _ _
 72
    65
 73
     2
 40
0.1875
 49
0.125
 74
     0
 49
-0.0625
 74
     0
  0
LTYPE
  5
9E
330
5
100
AcDbSymbolTableRecord
100
AcDbLinetypeTableRecord
  2
Amconstr
 70
     0
  3
_______________________
 72
    65
 73
     2
 40
9999.0
 49
9999.0
 74
     0
 49
0.0
 74
     0
  0
LTYPE
  5
9F
330
5
100
AcDbSymbolTableRecord
100
AcDbLinetypeTableRecord
  2
Amzigzag2
 70
     0
  3
/\/-/\/-/\/-/\/-/\/-/\/
 72
    65
 73
     2
 40
0.4401
 49
0.0001
 74
     4
 75
   136
340
99
 46
0.0016
 50
0.0
 44
0.0
 45
0.0
 49
-0.44
 74
     0
  0
LTYPE
  5
A0
330
5
100
AcDbSymbolTableRecord
100
AcDbLinetypeTableRecord
  2
ACANSTGB
 70
     0
  3
__ . . __ . .
 72
    65
 73
     6
 40
0.354331
 49
0.15748
 74
     0
 49
-0.03937
 74
     0
 49
0.03937
 74
     0
 49
-0.03937
 74
     0
 49
0.03937
 74
     0
 49
-0.03937
 74
     0
  0
LTYPE
  5
A1
330
5
100
AcDbSymbolTableRecord
100
AcDbLinetypeTableRecord
  2
ACANSTGL
 70
     0
  3
_ _ _ _ _
 72
    65
 73
     2
 40
0.11811
 49
0.07874
 74
     0
 49
-0.03937
 74
     0
  0
ENDTAB
  0
TABLE
  2
LAYER
  5
2
330
0
100
AcDbSymbolTable
 70
    10
  0
LAYER
  5
54
330
2
100
AcDbSymbolTableRecord
100
AcDbLayerTableRecord
  2
0
 70
     0
 62
     7
  6
Continuous
370
    -3
390
F
347
21
348
0
1001
AcAecLayerStandard
1000

1000

  0
LAYER
  5
79
330
2
100
AcDbSymbolTableRecord
100
AcDbLayerTableRecord
  2
Defpoints
 70
     0
 62
     7
  6
Continuous
290
     0
370
    -3
390
F
347
21
348
0
1001
AcAecLayerStandard
1000

1000

  0
LAYER
  5
BB
330
2
100
AcDbSymbolTableRecord
100
AcDbLayerTableRecord
  2
Visible
 70
     0
 62
     7
  6
Continuous
370
    25
390
F
347
21
348
0
  0
LAYER
  5
102
330
2
100
AcDbSymbolTableRecord
100
AcDbLayerTableRecord
  2
Hidden
 70
     0
 62
     7
  6
HIDDEN2
370
    13
390
F
347
21
348
0
  0
LAYER
  5
12C
330
2
100
AcDbSymbolTableRecord
100
AcDbLayerTableRecord
  2
Titleblock
 70
     0
 62
     7
  6
Continuous
370
    -3
390
F
347
21
348
0
1001
AcAecLayerStandard
1000

1000

1001
AcCmTransparency
1071
        0
  0
LAYER
  5
151
330
2
100
AcDbSymbolTableRecord
100
AcDbLayerTableRecord
  2
Border
 70
     0
 62
     7
  6
Continuous
370
    -3
390
F
347
21
348
0
1001
AcAecLayerStandard
1000

1000

1001
AcCmTransparency
1071
        0
  0
LAYER
  5
172
330
2
100
AcDbSymbolTableRecord
100
AcDbLayerTableRecord
  2
Dimensions
 70
     0
 62
     7
  6
Continuous
370
    13
390
F
347
21
348
0
  0
ENDTAB
  0
TABLE
  2
STYLE
  5
3
330
0
100
AcDbSymbolTable
 70
     4
  0
STYLE
  5
55
330
3
100
AcDbSymbolTableRecord
100
AcDbTextStyleTableRecord
  2
Standard
 70
     0
 40
0.0
 41
1.0
 50
0.0
 71
     0
 42
0.12
  3
arial.ttf
  4

1001
ACAD
1000
Arial
1071
       34
  0
STYLE
  5
5A
330
3
100
AcDbSymbolTableRecord
100
AcDbTextStyleTableRecord
  2
Annotative
 70
     0
 40
0.0
 41
1.0
 50
0.0
 71
     0
 42
0.2
  3
txt
  4

1001
AcadAnnotative
1000
AnnotativeData
1002
{
1070
     1
1070
     1
1002
}
  0
STYLE
  5
99
330
3
100
AcDbSymbolTableRecord
100
AcDbTextStyleTableRecord
  2

 70
     1
 40
0.0
 41
1.0
 50
0.0
 71
     0
 42
0.12
  3
genltshp.shx
  4

  0
STYLE
  5
9A
330
3
100
AcDbSymbolTableRecord
100
AcDbTextStyleTableRecord
  2
ACANSGDT
 70
     0
 40
0.0
 41
1.0
 50
0.0
 71
     0
 42
0.12
  3
amgdt.shx
  4

  0
ENDTAB
  0
TABLE
  2
VIEW
  5
6
330
0
100
AcDbSymbolTable
 70
     0
  0
ENDTAB
  0
TABLE
  2
UCS
  5
7
330
0
100
AcDbSymbolTable
 70
     0
  0
ENDTAB
  0
TABLE
  2
APPID
  5
9
330
0
100
AcDbSymbolTable
 70
    26
  0
APPID
  5
56
330
9
100
AcDbSymbolTableRecord
100
AcDbRegAppTableRecord
  2
ACAD
 70
     0
  0
APPID
  5
5E
330
9
100
AcDbSymbolTableRecord
100
AcDbRegAppTableRecord
  2
AcadAnnotative
 70
     0
  0
APPID
  5
78
330
9
100
AcDbSymbolTableRecord
100
AcDbRegAppTableRecord
  2
ACAD_PSEXT
 70
     0
  0
APPID
  5
7A
330
9
100
AcDbSymbolTableRecord
100
AcDbRegAppTableRecord
  2
MCAD_NO_VIS
 70
     0
  0
APPID
  5
7B
330
9
100
AcDbSymbolTableRecord
100
AcDbRegAppTableRecord
  2
ACAD_TEMP_GRAPHIC
 70
     0
  0
APPID
  5
84
330
9
100
AcDbSymbolTableRecord
100
AcDbRegAppTableRecord
  2
ACAD_DSTYLE_DIMJAG
 70
     0
  0
APPID
  5
85
330
9
100
AcDbSymbolTableRecord
100
AcDbRegAppTableRecord
  2
ACAD_DSTYLE_DIMTALN
 70
     0
  0
APPID
  5
86
330
9
100
AcDbSymbolTableRecord
100
AcDbRegAppTableRecord
  2
ACAD_NAV_VCDISPLAY
 70
     0
  0
APPID
  5
87
330
9
100
AcDbSymbolTableRecord
100
AcDbRegAppTableRecord
  2
AcAecLayerStandard
 70
     0
  0
APPID
  5
88
330
9
100
AcDbSymbolTableRecord
100
AcDbRegAppTableRecord
  2
AcCmTransparency
 70
     0
  0
APPID
  5
89
330
9
100
AcDbSymbolTableRecord
100
AcDbRegAppTableRecord
  2
ACAD_DSTYLE_DIMBREAK
 70
     0
  0
APPID
  5
8A
330
9
100
AcDbSymbolTableRecord
100
AcDbRegAppTableRecord
  2
ACAD_DSTYLE_DIMRADIAL_EXTENSION
 70
     0
  0
APPID
  5
8B
330
9
100
AcDbSymbolTableRecord
100
AcDbRegAppTableRecord
  2
FUSIONTITLEBLOCK
 70
     0
  0
APPID
  5
8C
330
9
100
AcDbSymbolTableRecord
100
AcDbRegAppTableRecord
  2
FUSIONCURRENTTITLEBLOCK
 70
     0
  0
APPID
  5
8D
330
9
100
AcDbSymbolTableRecord
100
AcDbRegAppTableRecord
  2
AcSynergy
 70
     0
  0
APPID
  5
8E
330
9
100
AcDbSymbolTableRecord
100
AcDbRegAppTableRecord
  2
ACAD_VIEW_EDGE_ID
 70
     0
  0
APPID
  5
8F
330
9
100
AcDbSymbolTableRecord
100
AcDbRegAppTableRecord
  2
GENIUS_GENSCREG_15
 70
     0
  0
APPID
  5
90
330
9
100
AcDbSymbolTableRecord
100
AcDbRegAppTableRecord
  2
GENIUS_GENOBJ-N-SDF_13
 70
     0
  0
APPID
  5
91
330
9
100
AcDbSymbolTableRecord
100
AcDbRegAppTableRecord
  2
GENIUS_GENODEF_13
 70
     0
  0
APPID
  5
92
330
9
100
AcDbSymbolTableRecord
100
AcDbRegAppTableRecord
  2
ACAD_DIMASSOC_CALC_DIMLFAC
 70
     0
  0
APPID
  5
93
330
9
100
AcDbSymbolTableRecord
100
AcDbRegAppTableRecord
  2
ACAD_DIMASSOC_DIMLFAC
 70
     0
  0
APPID
  5
94
330
9
100
AcDbSymbolTableRecord
100
AcDbRegAppTableRecord
  2
ACAD_DIMASSOC_OVERRIDDEN_DIMLFAC
 70
     0
  0
APPID
  5
95
330
9
100
AcDbSymbolTableRecord
100
AcDbRegAppTableRecord
  2
FD_ATT_APPNAME
 70
     0
  0
APPID
  5
96
330
9
100
AcDbSymbolTableRecord
100
AcDbRegAppTableRecord
  2
ACAD_TC
 70
     0
  0
APPID
  5
97
330
9
100
AcDbSymbolTableRecord
100
AcDbRegAppTableRecord
  2
ACAD_DSTYLE_DIMJAG_POSITION
 70
     0
  0
APPID
  5
98
330
9
100
AcDbSymbolTableRecord
100
AcDbRegAppTableRecord
  2
ACATTRIBSERVICES
 70
     0
  0
ENDTAB
  0
TABLE
  2
DIMSTYLE
  5
A
330
0
100
AcDbSymbolTable
 70
     2
100
AcDbDimStyleTable
 71
     1
340
58
  0
DIMSTYLE
105
58
102
{ACAD_REACTORS
330
171
330
180
330
18A
330
194
330
1A3
330
1AD
330
1BB
102
}
330
A
100
AcDbSymbolTableRecord
100
AcDbDimStyleTableRecord
  2
Standard
 70
     0
  3
in
  4
mm
 41
0.12
 42
0.07
 43
0.36
 44
0.07
 47
0.01
 48
0.01
 78
    12
 79
     3
 90
        1
140
0.12
141
0.0
147
0.05
176
   256
177
   256
178
   256
179
     2
271
     2
272
     2
284
    12
285
    12
286
    12
340
55
  0
DIMSTYLE
105
59
330
A
100
AcDbSymbolTableRecord
100
AcDbDimStyleTableRecord
  2
Annotative
 70
     0
  3
in
  4
mm
 40
0.0
 41
0.12
 42
0.07
 43
0.36
 44
0.07
 78
    12
 79
     3
140
0.12
147
0.05
179
     2
271
     2
272
     2
284
    12
285
    12
286
    12
340
55
1001
AcadAnnotative
1000
AnnotativeData
1002
{
1070
     1
1070
     1
1002
}
  0
ENDTAB
  0
TABLE
  2
BLOCK_RECORD
  5
1
330
0
100
AcDbSymbolTable
 70
    20
  0
BLOCK_RECORD
  5
70
102
{ACAD_XDICTIONARY
360
B4
102
}
330
1
100
AcDbSymbolTableRecord
100
AcDbBlockTableRecord
  2
*Model_Space
340
73
 70
     0
280
     1
281
     0
  0
BLOCK_RECORD
  5
6C
330
1
100
AcDbSymbolTableRecord
100
AcDbBlockTableRecord
  2
*Paper_Space
340
6F
 70
     0
280
     1
281
     0
  0
BLOCK_RECORD
  5
74
330
1
100
AcDbSymbolTableRecord
100
AcDbBlockTableRecord
  2
*Paper_Space0
340
77
 70
     0
280
     1
281
     0
  0
BLOCK_RECORD
  5
12D
102
{ACAD_XDICTIONARY
360
12E
102
}
330
1
100
AcDbSymbolTableRecord
100
AcDbBlockTableRecord
  2
Shower
340
0
102
{BLKREFS
331
12B
102
}
 70
     1
280
     1
281
     0
1001
FUSIONTITLEBLOCK
1000
TitleBlock
  0
BLOCK_RECORD
  5
152
330
1
100
AcDbSymbolTableRecord
100
AcDbBlockTableRecord
  2
ANSI_B_SHEET
340
0
310
2800000020000000200000000100080000000000000400000000000000000000000000000000000000000000000080000080000000808000800000008000800080800000C0C0C000C0DCC000F0CAA6000020400000206000002080000020A0000020C0000020E00000400000004020000040400000406000004080000040A0
310
000040C0000040E00000600000006020000060400000606000006080000060A0000060C0000060E00000800000008020000080400000806000008080000080A0000080C0000080E00000A0000000A0200000A0400000A0600000A0800000A0A00000A0C00000A0E00000C0000000C0200000C0400000C0600000C0800000C0
310
A00000C0C00000C0E00000E0000000E0200000E0400000E0600000E0800000E0A00000E0C00000E0E00040000000400020004000400040006000400080004000A0004000C0004000E00040200000402020004020400040206000402080004020A0004020C0004020E000404000004040200040404000404060004040800040
310
40A0004040C0004040E00040600000406020004060400040606000406080004060A0004060C0004060E00040800000408020004080400040806000408080004080A0004080C0004080E00040A0000040A0200040A0400040A0600040A0800040A0A00040A0C00040A0E00040C0000040C0200040C0400040C0600040C08000
310
40C0A00040C0C00040C0E00040E0000040E0200040E0400040E0600040E0800040E0A00040E0C00040E0E00080000000800020008000400080006000800080008000A0008000C0008000E00080200000802020008020400080206000802080008020A0008020C0008020E00080400000804020008040400080406000804080
310
008040A0008040C0008040E00080600000806020008060400080606000806080008060A0008060C0008060E00080800000808020008080400080806000808080008080A0008080C0008080E00080A0000080A0200080A0400080A0600080A0800080A0A00080A0C00080A0E00080C0000080C0200080C0400080C0600080C0
310
800080C0A00080C0C00080C0E00080E0000080E0200080E0400080E0600080E0800080E0A00080E0C00080E0E000C0000000C0002000C0004000C0006000C0008000C000A000C000C000C000E000C0200000C0202000C0204000C0206000C0208000C020A000C020C000C020E000C0400000C0402000C0404000C0406000C0
310
408000C040A000C040C000C040E000C0600000C0602000C0604000C0606000C0608000C060A000C060C000C060E000C0800000C0802000C0804000C0806000C0808000C080A000C080C000C080E000C0A00000C0A02000C0A04000C0A06000C0A08000C0A0A000C0A0C000C0A0E000C0C00000C0C02000C0C04000C0C06000
310
C0C08000C0C0A000F0FBFF00A4A0A000808080000000FF0000FF000000FFFF00FF000000FF00FF00FFFF0000FFFFFF0049494949494949494949494949494949494949494949494949494949494949494949494949494949494949494949494949494949494949494949494949494949494949494949494949494949494949
310
494949494949494949494949494949494949494949494949494949494949494949494949494949494949494949494949494949494949494949494949494949494949494949494949494949494949494949494949494949494949494949494949494949494949494949494949494949494949FFFF4949494949494949494949
310
494949494949494949494949494949FFFF4949FFFFFFFFFFFFFFFFFFFFFFFFFFFFFFFFFFFFFFFFFFFFFFFFFFFFFFFFFFFF494949FF4949494949494949494949494949494949494949494949494949FF49494949FF4949494949494949494949494949494949494949494949494949FF49494949FF49494949494949494949
310
49494949494949494949494949494949FF49494949FF4949494949494949494949494949494949494949494949494949FF49494949FF4949494949494949494949494949494949494949494949494949FF49494949FF4949494949494949494949494949494949494949494949494949FF49494949FF494949494949494949
310
4949494949494949494949494949494949FF49494949FF4949494949494949494949494949494949494949494949494949FF49494949FF4949494949494949494949494949494949494949494949494949FF49494949FF4949494949494949494949494949494949494949494949494949FF49494949FF4949494949494949
310
494949494949494949494949494949494949FF49494949FF4949494949494949494949494949494949494949494949494949FF49494949FF4949494949494949494949494949494949494949494949494949FF49494949FF4949494949494949494949494949494949494949494949494949FF49494949FF49494949494949
310
49494949494949494949494949494949494949FF49494949FF4949494949494949494949494949494949494949494949494949FF494949FFFFFFFFFFFFFFFFFFFFFFFFFFFFFFFFFFFFFFFFFFFFFFFFFFFFFFFFFFFF4949FFFF4949494949494949494949494949494949494949494949494949FFFF49494949494949494949
310
49494949494949494949494949494949494949494949494949494949494949494949494949494949494949494949494949494949494949494949494949494949494949494949494949494949494949494949494949494949494949494949494949494949494949494949494949494949494949494949494949494949494949
310
4949494949494949494949494949494949494949494949494949494949494949494949494949494949494949494949494949494949494949
102
{BLKREFS
331
150
102
}
 70
     1
280
     1
281
     0
  0
BLOCK_RECORD
  5
173
330
1
100
AcDbSymbolTableRecord
100
AcDbBlockTableRecord
  2
*D6
340
0
 70
     0
280
     1
281
     0
  0
BLOCK_RECORD
  5
181
330
1
100
AcDbSymbolTableRecord
100
AcDbBlockTableRecord
  2
*D7
340
0
 70
     0
280
     1
281
     0
  0
BLOCK_RECORD
  5
18B
330
1
100
AcDbSymbolTableRecord
100
AcDbBlockTableRecord
  2
*D8
340
0
 70
     0
280
     1
281
     0
  0
BLOCK_RECORD
  5
195
330
1
100
AcDbSymbolTableRecord
100
AcDbBlockTableRecord
  2
*D9
340
0
 70
     0
280
     1
281
     0
  0
BLOCK_RECORD
  5
1A4
330
1
100
AcDbSymbolTableRecord
100
AcDbBlockTableRecord
  2
*D10
340
0
 70
     0
280
     1
281
     0
  0
BLOCK_RECORD
  5
1AE
330
1
100
AcDbSymbolTableRecord
100
AcDbBlockTableRecord
  2
*D11
340
0
 70
     0
280
     1
281
     0
  0
BLOCK_RECORD
  5
1BC
330
1
100
AcDbSymbolTableRecord
100
AcDbBlockTableRecord
  2
*D12
340
0
 70
     0
280
     1
281
     0
  0
BLOCK_RECORD
  5
1C6
330
1
100
AcDbSymbolTableRecord
100
AcDbBlockTableRecord
  2
*D13
340
0
 70
     0
280
     1
281
     0
  0
BLOCK_RECORD
  5
1D3
330
1
100
AcDbSymbolTableRecord
100
AcDbBlockTableRecord
  2
*D14
340
0
 70
     0
280
     1
281
     0
  0
BLOCK_RECORD
  5
1DC
330
1
100
AcDbSymbolTableRecord
100
AcDbBlockTableRecord
  2
*D15
340
0
 70
     0
280
     1
281
     0
  0
BLOCK_RECORD
  5
1E5
330
1
100
AcDbSymbolTableRecord
100
AcDbBlockTableRecord
  2
*D16
340
0
 70
     0
280
     1
281
     0
  0
BLOCK_RECORD
  5
1F3
330
1
100
AcDbSymbolTableRecord
100
AcDbBlockTableRecord
  2
*D17
340
0
 70
     0
280
     1
281
     0
  0
BLOCK_RECORD
  5
1FC
330
1
100
AcDbSymbolTableRecord
100
AcDbBlockTableRecord
  2
*D18
340
0
 70
     0
280
     1
281
     0
  0
BLOCK_RECORD
  5
209
330
1
100
AcDbSymbolTableRecord
100
AcDbBlockTableRecord
  2
*D19
340
0
 70
     0
280
     1
281
     0
  0
ENDTAB
  0
ENDSEC
  0
SECTION
  2
BLOCKS
  0
BLOCK
  5
71
330
70
100
AcDbEntity
  8
0
100
AcDbBlockBegin
  2
*Model_Space
 70
     0
 10
0.0
 20
0.0
 30
0.0
  3
*Model_Space
  1

  0
ENDBLK
  5
72
330
70
100
AcDbEntity
  8
0
100
AcDbBlockEnd
  0
BLOCK
  5
6D
330
6C
100
AcDbEntity
 67
     1
  8
0
100
AcDbBlockBegin
  2
*Paper_Space
 70
     0
 10
0.0
 20
0.0
 30
0.0
  3
*Paper_Space
  1

  0
ENDBLK
  5
6E
330
6C
100
AcDbEntity
 67
     1
  8
0
100
AcDbBlockEnd
  0
BLOCK
  5
75
330
74
100
AcDbEntity
 67
     1
  8
0
100
AcDbBlockBegin
  2
*Paper_Space0
 70
     0
 10
0.0
 20
0.0
 30
0.0
  3
*Paper_Space0
  1

  0
ENDBLK
  5
76
330
74
100
AcDbEntity
 67
     1
  8
0
100
AcDbBlockEnd
  0
BLOCK
  5
130
330
12D
100
AcDbEntity
  8
0
100
AcDbBlockBegin
  2
Shower
 70
     2
 10
0.0
 20
0.0
 30
0.0
  3
Shower
  1

  0
LWPOLYLINE
  5
131
330
12D
100
AcDbEntity
  8
Titleblock
100
AcDbPolyline
 90
        4
 70
     1
 43
0.0
 10
0.0
 20
0.0
 10
-4.9375
 20
0.0
 10
-4.9375
 20
2.5
 10
0.0
 20
2.5
  0
IMAGE
  5
132
330
12D
100
AcDbEntity
  8
Titleblock
  6
Continuous
160
               140
310
8C0000000100000084000000060000000500000000000000008013C000B87FA8928AB03F000000000000000000000000008013C035B4911D6523F03F000000000000000001000000008001C035B4911D6523F03F000000000000000001000000008001C000B87FA8928AB03F000000000000000000000000008013C000B87F
310
A8928AB03F0000000000000000
370
     0
100
AcDbRasterImage
 90
        0
 10
-4.875
 20
0.064614
 30
0.0
 11
0.0028349156118143
 21
0.0
 31
0.0
 12
0.0
 22
0.0028349156118143
 32
0.0
 13
948.0
 23
333.0
340
133
 70
    15
280
     0
281
    50
282
    50
283
     0
290
     0
360
135
 71
     1
 91
        2
 14
-0.5
 24
-0.5
 14
947.5
 24
332.5
  0
LWPOLYLINE
  5
137
330
12D
100
AcDbEntity
  8
Titleblock
  6
Continuous
370
    25
100
AcDbPolyline
 90
        4
 70
     1
 43
0.0
 10
0.0
 20
1.0625
 10
-4.9375
 20
1.061638
 10
-4.9375
 20
0.0
 10
0.0
 20
0.0
  0
LWPOLYLINE
  5
138
330
12D
100
AcDbEntity
  8
Titleblock
  6
Continuous
370
    25
100
AcDbPolyline
 90
        4
 70
     1
 43
0.0
 10
-1.75
 20
2.5
 10
0.0
 20
2.5
 10
0.0
 20
2.5
 10
-1.75
 20
2.5
  0
ATTDEF
  5
139
330
12D
100
AcDbEntity
  8
Titleblock
  6
Continuous
370
    25
100
AcDbText
 10
-3.6875
 20
2.3125
 30
0.0
 40
0.12
  1

100
AcDbAttributeDefinition
280
     0
  3

  2
PROJECT
 70
     0
280
     1
  0
MTEXT
  5
13A
330
12D
100
AcDbEntity
  8
Titleblock
  6
Continuous
370
    25
100
AcDbMText
 10
-4.875
 20
1.653875
 30
0.0
 40
0.12
 41
0.6875
 46
0.0
 71
     1
 72
     5
  1
Description:
 73
     1
 44
1.0
1001
ACAD
1000
ACAD_MTEXT_COLUMN_INFO_BEGIN
1070
    75
1070
     2
1070
    79
1070
     0
1070
    76
1070
     1
1070
    78
1070
     0
1070
    48
1040
0.6875
1070
    49
1040
0.6
1070
    50
1070
     1
1040
0.0
1000
ACAD_MTEXT_COLUMN_INFO_END
  0
ATTDEF
  5
13B
330
12D
100
AcDbEntity
  8
Titleblock
  6
Continuous
370
    25
100
AcDbText
 10
-1.6875
 20
0.6875
 30
0.0
 40
0.12
  1

100
AcDbAttributeDefinition
280
     0
  3

  2
DRAWN_DATE
 70
     0
280
     1
  0
ATTDEF
  5
13C
330
12D
100
AcDbEntity
  8
Titleblock
  6
Continuous
370
    25
100
AcDbText
 10
-4.3125
 20
1.8125
 30
0.0
 40
0.3048
  1

100
AcDbAttributeDefinition
280
     0
  3

  2
TITLE_1
 70
     0
280
     1
  0
ATTDEF
  5
13D
330
12D
100
AcDbEntity
  8
Titleblock
  6
Continuous
370
    25
100
AcDbText
 10
-1.6875
 20
0.91994
 30
0.0
 40
0.12
  1

100
AcDbAttributeDefinition
280
     0
  3

  2
SCALE
 70
     0
280
     1
  0
LWPOLYLINE
  5
13E
330
12D
100
AcDbEntity
  8
Titleblock
  6
Continuous
370
    25
100
AcDbPolyline
 90
        4
 70
     1
 43
0.0
 10
0.0
 20
1.0625
 10
0.0
 20
1.0625
 10
0.0
 20
0.0
 10
0.0
 20
0.0
  0
LWPOLYLINE
  5
13F
330
12D
100
AcDbEntity
  8
Titleblock
  6
Continuous
370
    25
100
AcDbPolyline
 90
        4
 70
     1
 43
0.0
 10
0.0
 20
1.0625
 10
0.0
 20
1.0625
 10
0.0
 20
0.0
 10
0.0
 20
0.0
  0
LINE
  5
140
330
12D
100
AcDbEntity
  8
Titleblock
  6
Continuous
370
    25
100
AcDbLine
 10
-2.125
 20
1.062165
 30
0.0
 11
-2.125
 21
0.0
 31
0.0
  0
LWPOLYLINE
  5
141
330
12D
100
AcDbEntity
  8
Titleblock
  6
Continuous
370
    25
100
AcDbPolyline
 90
        4
 70
     1
 43
0.0
 10
-4.9375
 20
2.5
 10
0.0
 20
2.5
 10
0.0
 20
2.5
 10
-4.9375
 20
2.5
  0
LINE
  5
142
330
12D
100
AcDbEntity
  8
Titleblock
  6
Continuous
370
    25
100
AcDbLine
 10
-4.9375
 20
2.25
 30
0.0
 11
0.0
 21
2.25
 31
0.0
  0
LINE
  5
143
330
12D
100
AcDbEntity
  8
Titleblock
  6
Continuous
370
    25
100
AcDbLine
 10
-4.9375
 20
1.6875
 30
0.0
 11
0.0
 21
1.6875
 31
0.0
  0
MTEXT
  5
144
330
12D
100
AcDbEntity
  8
Titleblock
100
AcDbMText
 10
-4.875
 20
2.467284
 30
0.0
 40
0.12
 41
0.375
 46
0.0
 71
     1
 72
     5
  1
Project:
 73
     1
 44
1.0
1001
ACAD
1000
ACAD_MTEXT_COLUMN_INFO_BEGIN
1070
    75
1070
     2
1070
    79
1070
     0
1070
    76
1070
     1
1070
    78
1070
     0
1070
    48
1040
0.375
1070
    49
1040
0.6
1070
    50
1070
     1
1040
0.0
1000
ACAD_MTEXT_COLUMN_INFO_END
  0
MTEXT
  5
145
330
12D
100
AcDbEntity
  8
Titleblock
100
AcDbMText
 10
-2.0625
 20
1.045477
 30
0.0
 40
0.075
 41
0.375
 46
0.0
 71
     1
 72
     5
  1
Scale:
 73
     1
 44
1.0
1001
ACAD
1000
ACAD_MTEXT_COLUMN_INFO_BEGIN
1070
    75
1070
     2
1070
    79
1070
     0
1070
    76
1070
     1
1070
    78
1070
     0
1070
    48
1040
0.375
1070
    49
1040
0.6
1070
    50
1070
     1
1040
0.0
1000
ACAD_MTEXT_COLUMN_INFO_END
  0
MTEXT
  5
146
330
12D
100
AcDbEntity
  8
Titleblock
100
AcDbMText
 10
-2.0625
 20
0.857735
 30
0.0
 40
0.075
 41
0.375
 46
0.0
 71
     1
 72
     5
  1
Date Drawn:
 73
     1
 44
1.0
1001
ACAD
1000
ACAD_MTEXT_COLUMN_INFO_BEGIN
1070
    75
1070
     2
1070
    79
1070
     0
1070
    76
1070
     1
1070
    78
1070
     0
1070
    48
1040
0.375
1070
    49
1040
0.6
1070
    50
1070
     1
1040
0.0
1000
ACAD_MTEXT_COLUMN_INFO_END
  0
LINE
  5
147
330
12D
100
AcDbEntity
  8
Titleblock
100
AcDbLine
 10
-2.125
 20
0.875
 30
0.0
 11
0.0
 21
0.875
 31
0.0
  0
LINE
  5
148
330
12D
100
AcDbEntity
  8
Titleblock
100
AcDbLine
 10
-2.125
 20
0.625
 30
0.0
 11
0.0
 21
0.625
 31
0.0
  0
MTEXT
  5
149
330
12D
100
AcDbEntity
  8
Titleblock
100
AcDbMText
 10
-4.875
 20
2.220603
 30
0.0
 40
0.12
 41
0.625
 46
0.0
 71
     1
 72
     5
  1
Title:
 73
     1
 44
1.0
1001
ACAD
1000
ACAD_MTEXT_COLUMN_INFO_BEGIN
1070
    75
1070
     2
1070
    79
1070
     0
1070
    76
1070
     1
1070
    78
1070
     0
1070
    48
1040
0.625
1070
    49
1040
0.6
1070
    50
1070
     1
1040
0.0
1000
ACAD_MTEXT_COLUMN_INFO_END
  0
ENDBLK
  5
14A
330
12D
100
AcDbEntity
  8
0
100
AcDbBlockEnd
  0
BLOCK
  5
153
330
152
100
AcDbEntity
  8
0
100
AcDbBlockBegin
  2
ANSI_B_SHEET
 70
     0
 10
0.0
 20
0.0
 30
0.0
  3
ANSI_B_SHEET
  1

  0
LINE
  5
154
330
152
100
AcDbEntity
  8
Border
100
AcDbLine
 10
0.0
 20
0.0
 30
0.0
 11
0.5
 21
0.0
 31
0.0
  0
LINE
  5
155
330
152
100
AcDbEntity
  8
Border
100
AcDbLine
 10
16.5
 20
0.0
 30
0.0
 11
17.0
 21
0.0
 31
0.0
  0
LINE
  5
156
330
152
100
AcDbEntity
  8
Border
100
AcDbLine
 10
0.62
 20
0.38
 30
0.0
 11
16.38
 21
0.38
 31
0.0
  0
LINE
  5
157
330
152
100
AcDbEntity
  8
Border
100
AcDbLine
 10
17.0
 20
0.0
 30
0.0
 11
17.0
 21
0.5
 31
0.0
  0
LINE
  5
158
330
152
100
AcDbEntity
  8
Border
100
AcDbLine
 10
17.0
 20
10.5
 30
0.0
 11
17.0
 21
11.0
 31
0.0
  0
LINE
  5
159
330
152
100
AcDbEntity
  8
Border
100
AcDbLine
 10
16.38
 20
0.38
 30
0.0
 11
16.38
 21
10.62
 31
0.0
  0
LINE
  5
15A
330
152
100
AcDbEntity
  8
Border
100
AcDbLine
 10
17.0
 20
11.0
 30
0.0
 11
16.5
 21
11.0
 31
0.0
  0
LINE
  5
15B
330
152
100
AcDbEntity
  8
Border
100
AcDbLine
 10
0.5
 20
11.0
 30
0.0
 11
0.0
 21
11.0
 31
0.0
  0
LINE
  5
15C
330
152
100
AcDbEntity
  8
Border
100
AcDbLine
 10
16.38
 20
10.62
 30
0.0
 11
0.62
 21
10.62
 31
0.0
  0
LINE
  5
15D
330
152
100
AcDbEntity
  8
Border
100
AcDbLine
 10
0.0
 20
11.0
 30
0.0
 11
0.0
 21
10.5
 31
0.0
  0
LINE
  5
15E
330
152
100
AcDbEntity
  8
Border
100
AcDbLine
 10
0.0
 20
0.5
 30
0.0
 11
0.0
 21
0.0
 31
0.0
  0
LINE
  5
15F
330
152
100
AcDbEntity
  8
Border
100
AcDbLine
 10
0.62
 20
10.62
 30
0.0
 11
0.62
 21
0.38
 31
0.0
  0
LINE
  5
160
330
152
100
AcDbEntity
  8
Border
100
AcDbLine
 10
8.413397
 20
0.23
 30
0.0
 11
8.586603
 21
0.23
 31
0.0
  0
LINE
  5
161
330
152
100
AcDbEntity
  8
Border
100
AcDbLine
 10
8.5
 20
0.38
 30
0.0
 11
8.5
 21
0.13
 31
0.0
  0
LINE
  5
162
330
152
100
AcDbEntity
  8
Border
100
AcDbLine
 10
8.5
 20
0.38
 30
0.0
 11
8.413397
 21
0.23
 31
0.0
  0
LINE
  5
163
330
152
100
AcDbEntity
  8
Border
100
AcDbLine
 10
8.5
 20
0.38
 30
0.0
 11
8.586603
 21
0.23
 31
0.0
  0
LINE
  5
164
330
152
100
AcDbEntity
  8
Border
100
AcDbLine
 10
0.47
 20
5.586603
 30
0.0
 11
0.47
 21
5.413397
 31
0.0
  0
LINE
  5
165
330
152
100
AcDbEntity
  8
Border
100
AcDbLine
 10
0.62
 20
5.5
 30
0.0
 11
0.37
 21
5.5
 31
0.0
  0
LINE
  5
166
330
152
100
AcDbEntity
  8
Border
100
AcDbLine
 10
0.62
 20
5.5
 30
0.0
 11
0.47
 21
5.586603
 31
0.0
  0
LINE
  5
167
330
152
100
AcDbEntity
  8
Border
100
AcDbLine
 10
0.62
 20
5.5
 30
0.0
 11
0.47
 21
5.413397
 31
0.0
  0
LINE
  5
168
330
152
100
AcDbEntity
  8
Border
100
AcDbLine
 10
16.53
 20
5.586603
 30
0.0
 11
16.53
 21
5.413397
 31
0.0
  0
LINE
  5
169
330
152
100
AcDbEntity
  8
Border
100
AcDbLine
 10
16.38
 20
5.5
 30
0.0
 11
16.63
 21
5.5
 31
0.0
  0
LINE
  5
16A
330
152
100
AcDbEntity
  8
Border
100
AcDbLine
 10
16.38
 20
5.5
 30
0.0
 11
16.53
 21
5.586603
 31
0.0
  0
LINE
  5
16B
330
152
100
AcDbEntity
  8
Border
100
AcDbLine
 10
16.38
 20
5.5
 30
0.0
 11
16.53
 21
5.413397
 31
0.0
  0
LINE
  5
16C
330
152
100
AcDbEntity
  8
Border
100
AcDbLine
 10
8.413397
 20
10.77
 30
0.0
 11
8.586603
 21
10.77
 31
0.0
  0
LINE
  5
16D
330
152
100
AcDbEntity
  8
Border
100
AcDbLine
 10
8.5
 20
10.62
 30
0.0
 11
8.5
 21
10.87
 31
0.0
  0
LINE
  5
16E
330
152
100
AcDbEntity
  8
Border
100
AcDbLine
 10
8.5
 20
10.62
 30
0.0
 11
8.413397
 21
10.77
 31
0.0
  0
LINE
  5
16F
330
152
100
AcDbEntity
  8
Border
100
AcDbLine
 10
8.5
 20
10.62
 30
0.0
 11
8.586603
 21
10.77
 31
0.0
  0
ENDBLK
  5
170
330
152
100
AcDbEntity
  8
0
100
AcDbBlockEnd
  0
BLOCK
  5
174
330
173
100
AcDbEntity
  8
0
100
AcDbBlockBegin
  2
*D6
 70
     1
 10
0.0
 20
0.0
 30
0.0
  3
*D6
  1

  0
LINE
  5
175
330
173
100
AcDbEntity
  8
Dimensions
440
 16777216
370
    -2
100
AcDbLine
 10
9.821497
 20
7.088093
 30
0.0
 11
10.500319
 21
7.088093
 31
0.0
  0
LINE
  5
176
330
173
100
AcDbEntity
  8
Dimensions
440
 16777216
370
    -2
100
AcDbLine
 10
8.506536
 20
5.119589
 30
0.0
 11
10.500319
 21
5.119589
 31
0.0
  0
LINE
  5
177
330
173
100
AcDbEntity
  8
Dimensions
440
 16777216
370
    -2
100
AcDbLine
 10
10.430319
 20
6.968093
 30
0.0
 11
10.430319
 21
6.21511
 31
0.0
  0
LINE
  5
178
330
173
100
AcDbEntity
  8
Dimensions
440
 16777216
370
    -2
100
AcDbLine
 10
10.430319
 20
5.239589
 30
0.0
 11
10.430319
 21
5.992573
 31
0.0
  0
SOLID
  5
179
330
173
100
AcDbEntity
  8
Dimensions
440
 16777216
100
AcDbTrace
 10
10.410319
 20
6.968093
 30
0.0
 11
10.450319
 21
6.968093
 31
0.0
 12
10.430319
 22
7.088093
 32
0.0
 13
10.430319
 23
7.088093
 33
0.0
  0
SOLID
  5
17A
330
173
100
AcDbEntity
  8
Dimensions
440
 16777216
100
AcDbTrace
 10
10.410319
 20
5.239589
 30
0.0
 11
10.450319
 21
5.239589
 31
0.0
 12
10.430319
 22
5.119589
 32
0.0
 13
10.430319
 23
5.119589
 33
0.0
  0
MTEXT
  5
17B
330
173
100
AcDbEntity
  8
Dimensions
440
 16777216
100
AcDbMText
 10
10.430319
 20
6.103841
 30
0.0
 40
0.12
 41
0.0
 46
0.0
 71
     5
 72
     1
  1
\A1;1.97in
 73
     1
 44
1.0
  0
POINT
  5
17C
330
173
100
AcDbEntity
  8
Defpoints
 62
     0
440
 16777216
100
AcDbPoint
 10
9.751497
 20
7.088093
 30
0.0
  0
POINT
  5
17D
330
173
100
AcDbEntity
  8
Defpoints
 62
     0
440
 16777216
100
AcDbPoint
 10
8.436536
 20
5.119589
 30
0.0
  0
POINT
  5
17E
330
173
100
AcDbEntity
  8
Defpoints
 62
     0
440
 16777216
100
AcDbPoint
 10
10.430319
 20
5.119589
 30
0.0
  0
ENDBLK
  5
17F
330
173
100
AcDbEntity
  8
0
100
AcDbBlockEnd
  0
BLOCK
  5
182
330
181
100
AcDbEntity
  8
0
100
AcDbBlockBegin
  2
*D7
 70
     1
 10
0.0
 20
0.0
 30
0.0
  3
*D7
  1

  0
LINE
  5
183
330
181
100
AcDbEntity
  8
Dimensions
440
 16777216
370
    -2
100
AcDbLine
 10
9.574577
 20
3.871473
 30
0.0
 11
9.454577
 21
3.871473
 31
0.0
  0
LINE
  5
184
330
181
100
AcDbEntity
  8
Dimensions
440
 16777216
370
    -2
100
AcDbLine
 10
9.454577
 20
3.871473
 30
0.0
 11
9.258921
 21
4.111348
 31
0.0
  0
MTEXT
  5
185
330
181
100
AcDbEntity
  8
Dimensions
440
 16777216
100
AcDbMText
 10
9.908983
 20
3.871473
 30
0.0
 40
0.12
 41
0.0
 46
0.0
 71
     5
 72
     1
  1
\A1;∅2.36in
 73
     1
 44
1.0
  0
SOLID
  5
186
330
181
100
AcDbEntity
  8
Dimensions
440
 16777216
100
AcDbTrace
 10
9.274419
 20
4.123989
 30
0.0
 11
9.243422
 21
4.098706
 31
0.0
 12
9.183073
 22
4.204337
 32
0.0
 13
9.183073
 23
4.204337
 33
0.0
  0
POINT
  5
187
330
181
100
AcDbEntity
  8
Defpoints
 62
     0
440
 16777216
100
AcDbPoint
 10
9.183073
 20
4.204337
 30
0.0
  0
POINT
  5
188
330
181
100
AcDbEntity
  8
Defpoints
 62
     0
440
 16777216
100
AcDbPoint
 10
7.69
 20
6.034842
 30
0.0
  0
ENDBLK
  5
189
330
181
100
AcDbEntity
  8
0
100
AcDbBlockEnd
  0
BLOCK
  5
18C
330
18B
100
AcDbEntity
  8
0
100
AcDbBlockBegin
  2
*D8
 70
     1
 10
0.0
 20
0.0
 30
0.0
  3
*D8
  1

  0
LINE
  5
18D
330
18B
100
AcDbEntity
  8
Dimensions
440
 16777216
370
    -2
100
AcDbLine
 10
7.739244
 20
3.61341
 30
0.0
 11
7.859244
 21
3.61341
 31
0.0
  0
LINE
  5
18E
330
18B
100
AcDbEntity
  8
Dimensions
440
 16777216
370
    -2
100
AcDbLine
 10
7.859244
 20
3.61341
 30
0.0
 11
8.295103
 21
4.126366
 31
0.0
  0
MTEXT
  5
18F
330
18B
100
AcDbEntity
  8
Dimensions
440
 16777216
100
AcDbMText
 10
7.498071
 20
3.61341
 30
0.0
 40
0.12
 41
0.0
 46
0.0
 71
     5
 72
     1
  1
\A1;∅.2in
 73
     1
 44
1.0
  0
SOLID
  5
190
330
18B
100
AcDbEntity
  8
Dimensions
440
 16777216
100
AcDbTrace
 10
8.279862
 20
4.139317
 30
0.0
 11
8.310344
 21
4.113416
 31
0.0
 12
8.372805
 22
4.217813
 32
0.0
 13
8.372805
 23
4.217813
 33
0.0
  0
POINT
  5
191
330
18B
100
AcDbEntity
  8
Defpoints
 62
     0
440
 16777216
100
AcDbPoint
 10
8.372805
 20
4.217813
 30
0.0
  0
POINT
  5
192
330
18B
100
AcDbEntity
  8
Defpoints
 62
     0
440
 16777216
100
AcDbPoint
 10
8.500268
 20
4.367823
 30
0.0
  0
ENDBLK
  5
193
330
18B
100
AcDbEntity
  8
0
100
AcDbBlockEnd
  0
BLOCK
  5
196
330
195
100
AcDbEntity
  8
0
100
AcDbBlockBegin
  2
*D9
 70
     1
 10
0.0
 20
0.0
 30
0.0
  3
*D9
  1

  0
LINE
  5
197
330
195
100
AcDbEntity
  8
Dimensions
440
 16777216
370
    -2
100
AcDbLine
 10
4.604999
 20
4.843999
 30
0.0
 11
6.23942
 21
4.843999
 31
0.0
  0
LINE
  5
198
330
195
100
AcDbEntity
  8
Dimensions
440
 16777216
370
    -2
100
AcDbLine
 10
4.604999
 20
5.39518
 30
0.0
 11
6.23942
 21
5.39518
 31
0.0
  0
LINE
  5
199
330
195
100
AcDbEntity
  8
Dimensions
440
 16777216
370
    -2
100
AcDbLine
 10
6.16942
 20
4.963999
 30
0.0
 11
6.16942
 21
5.27518
 31
0.0
  0
LINE
  5
19A
330
195
100
AcDbEntity
  8
Dimensions
440
 16777216
370
    -2
100
AcDbLine
 10
6.16942
 20
5.39518
 30
0.0
 11
6.16942
 21
5.51518
 31
0.0
  0
LINE
  5
19B
330
195
100
AcDbEntity
  8
Dimensions
440
 16777216
370
    -2
100
AcDbLine
 10
6.16942
 20
5.51518
 30
0.0
 11
6.28942
 21
5.51518
 31
0.0
  0
SOLID
  5
19C
330
195
100
AcDbEntity
  8
Dimensions
440
 16777216
100
AcDbTrace
 10
6.14942
 20
4.963999
 30
0.0
 11
6.18942
 21
4.963999
 31
0.0
 12
6.16942
 22
4.843999
 32
0.0
 13
6.16942
 23
4.843999
 33
0.0
  0
SOLID
  5
19D
330
195
100
AcDbEntity
  8
Dimensions
440
 16777216
100
AcDbTrace
 10
6.14942
 20
5.27518
 30
0.0
 11
6.18942
 21
5.27518
 31
0.0
 12
6.16942
 22
5.39518
 32
0.0
 13
6.16942
 23
5.39518
 33
0.0
  0
MTEXT
  5
19E
330
195
100
AcDbEntity
  8
Dimensions
440
 16777216
100
AcDbMText
 10
6.507797
 20
5.51518
 30
0.0
 40
0.12
 41
0.0
 46
0.0
 71
     5
 72
     1
  1
\A1;.55in
 73
     1
 44
1.0
  0
POINT
  5
19F
330
195
100
AcDbEntity
  8
Defpoints
 62
     0
440
 16777216
100
AcDbPoint
 10
4.534999
 20
4.843999
 30
0.0
  0
POINT
  5
1A0
330
195
100
AcDbEntity
  8
Defpoints
 62
     0
440
 16777216
100
AcDbPoint
 10
4.534999
 20
5.39518
 30
0.0
  0
POINT
  5
1A1
330
195
100
AcDbEntity
  8
Defpoints
 62
     0
440
 16777216
100
AcDbPoint
 10
6.16942
 20
5.39518
 30
0.0
  0
ENDBLK
  5
1A2
330
195
100
AcDbEntity
  8
0
100
AcDbBlockEnd
  0
BLOCK
  5
1A5
330
1A4
100
AcDbEntity
  8
0
100
AcDbBlockBegin
  2
*D10
 70
     1
 10
0.0
 20
0.0
 30
0.0
  3
*D10
  1

  0
LINE
  5
1A6
330
1A4
100
AcDbEntity
  8
Dimensions
440
 16777216
370
    -2
100
AcDbLine
 10
3.849881
 20
7.831619
 30
0.0
 11
4.257666
 21
7.83306
 31
0.0
  0
MTEXT
  5
1A7
330
1A4
100
AcDbEntity
  8
Dimensions
440
 16777216
100
AcDbMText
 10
3.562091
 20
7.831619
 30
0.0
 40
0.12
 41
0.0
 46
0.0
 71
     5
 72
     1
  1
\A1;∅1.5in
 73
     1
 44
1.0
  0
SOLID
  5
1A8
330
1A4
100
AcDbEntity
  8
Dimensions
440
 16777216
100
AcDbTrace
 10
4.257596
 20
7.853059
 30
0.0
 11
4.257737
 21
7.81306
 31
0.0
 12
4.377665
 22
7.833483
 32
0.0
 13
4.377665
 23
7.833483
 33
0.0
  0
ARC
  5
1A9
330
1A4
100
AcDbEntity
  8
Dimensions
440
 16777216
370
    -2
100
AcDbCircle
 10
5.125692
 20
7.836125
 30
0.0
 40
0.7480314960619472
100
AcDbArc
 50
174.840651
 51
223.498811
  0
POINT
  5
1AA
330
1A4
100
AcDbEntity
  8
Defpoints
 62
     0
440
 16777216
100
AcDbPoint
 10
4.377665
 20
7.833483
 30
0.0
  0
POINT
  5
1AB
330
1A4
100
AcDbEntity
  8
Defpoints
 62
     0
440
 16777216
100
AcDbPoint
 10
5.873719
 20
7.838766
 30
0.0
  0
ENDBLK
  5
1AC
330
1A4
100
AcDbEntity
  8
0
100
AcDbBlockEnd
  0
BLOCK
  5
1AF
330
1AE
100
AcDbEntity
  8
0
100
AcDbBlockBegin
  2
*D11
 70
     1
 10
0.0
 20
0.0
 30
0.0
  3
*D11
  1

  0
LINE
  5
1B0
330
1AE
100
AcDbEntity
  8
Dimensions
440
 16777216
370
    -2
100
AcDbLine
 10
12.938952
 20
4.230701
 30
0.0
 11
12.95049
 21
3.150763
 31
0.0
  0
LINE
  5
1B1
330
1AE
100
AcDbEntity
  8
Dimensions
440
 16777216
370
    -2
100
AcDbLine
 10
14.668473
 20
4.24918
 30
0.0
 11
14.680012
 21
3.169241
 31
0.0
  0
LINE
  5
1B2
330
1AE
100
AcDbEntity
  8
Dimensions
440
 16777216
370
    -2
100
AcDbLine
 10
13.069736
 20
3.222041
 30
0.0
 11
13.551024
 21
3.227183
 31
0.0
  0
LINE
  5
1B3
330
1AE
100
AcDbEntity
  8
Dimensions
440
 16777216
370
    -2
100
AcDbLine
 10
14.559271
 20
3.237955
 30
0.0
 11
14.077982
 21
3.232813
 31
0.0
  0
SOLID
  5
1B4
330
1AE
100
AcDbEntity
  8
Dimensions
440
 16777216
100
AcDbTrace
 10
13.069522
 20
3.24204
 30
0.0
 11
13.069949
 21
3.202042
 31
0.0
 12
12.949743
 22
3.220759
 32
0.0
 13
12.949743
 23
3.220759
 33
0.0
  0
SOLID
  5
1B5
330
1AE
100
AcDbEntity
  8
Dimensions
440
 16777216
100
AcDbTrace
 10
14.559057
 20
3.257954
 30
0.0
 11
14.559484
 21
3.217957
 31
0.0
 12
14.679264
 22
3.239237
 32
0.0
 13
14.679264
 23
3.239237
 33
0.0
  0
MTEXT
  5
1B6
330
1AE
100
AcDbEntity
  8
Dimensions
440
 16777216
100
AcDbMText
 10
13.814503
 20
3.229998
 30
0.0
 40
0.12
 41
0.0
 46
0.0
 71
     5
 72
     1
  1
\A1;1.73in
 73
     1
 44
1.0
  0
POINT
  5
1B7
330
1AE
100
AcDbEntity
  8
Defpoints
 62
     0
440
 16777216
100
AcDbPoint
 10
12.938204
 20
4.300697
 30
0.0
  0
POINT
  5
1B8
330
1AE
100
AcDbEntity
  8
Defpoints
 62
     0
440
 16777216
100
AcDbPoint
 10
14.667725
 20
4.319176
 30
0.0
  0
POINT
  5
1B9
330
1AE
100
AcDbEntity
  8
Defpoints
 62
     0
440
 16777216
100
AcDbPoint
 10
14.679264
 20
3.239237
 30
0.0
  0
ENDBLK
  5
1BA
330
1AE
100
AcDbEntity
  8
0
100
AcDbBlockEnd
  0
BLOCK
  5
1BD
330
1BC
100
AcDbEntity
  8
0
100
AcDbBlockBegin
  2
*D12
 70
     1
 10
0.0
 20
0.0
 30
0.0
  3
*D12
  1

  0
LINE
  5
1BE
330
1BC
100
AcDbEntity
  8
Dimensions
440
 16777216
370
    -2
100
AcDbLine
 10
12.347696
 20
4.847501
 30
0.0
 11
12.467696
 21
4.847501
 31
0.0
  0
LINE
  5
1BF
330
1BC
100
AcDbEntity
  8
Dimensions
440
 16777216
370
    -2
100
AcDbLine
 10
12.467696
 20
4.847501
 30
0.0
 11
12.752533
 21
4.497556
 31
0.0
  0
MTEXT
  5
1C0
330
1BC
100
AcDbEntity
  8
Dimensions
440
 16777216
100
AcDbMText
 10
12.059906
 20
4.847501
 30
0.0
 40
0.12
 41
0.0
 46
0.0
 71
     5
 72
     1
  1
\A1;∅.22in
 73
     1
 44
1.0
  0
SOLID
  5
1C1
330
1BC
100
AcDbEntity
  8
Dimensions
440
 16777216
100
AcDbTrace
 10
12.768045
 20
4.510181
 30
0.0
 11
12.737022
 21
4.48493
 31
0.0
 12
12.828286
 22
4.404488
 32
0.0
 13
12.828286
 23
4.404488
 33
0.0
  0
POINT
  5
1C2
330
1BC
100
AcDbEntity
  8
Defpoints
 62
     0
440
 16777216
100
AcDbPoint
 10
12.828286
 20
4.404488
 30
0.0
  0
POINT
  5
1C3
330
1BC
100
AcDbEntity
  8
Defpoints
 62
     0
440
 16777216
100
AcDbPoint
 10
12.967165
 20
4.233864
 30
0.0
  0
ENDBLK
  5
1C4
330
1BC
100
AcDbEntity
  8
0
100
AcDbBlockEnd
  0
BLOCK
  5
1C7
330
1C6
100
AcDbEntity
  8
0
100
AcDbBlockBegin
  2
*D13
 70
     1
 10
0.0
 20
0.0
 30
0.0
  3
*D13
  1

  0
LINE
  5
35F
330
1C6
100
AcDbEntity
  8
Dimensions
440
 16777216
370
    -2
100
AcDbLine
 10
9.821497
 20
7.088093
 30
0.0
 11
10.500319
 21
7.088093
 31
0.0
  0
LINE
  5
360
330
1C6
100
AcDbEntity
  8
Dimensions
440
 16777216
370
    -2
100
AcDbLine
 10
8.506536
 20
5.119589
 30
0.0
 11
10.500319
 21
5.119589
 31
0.0
  0
LINE
  5
361
330
1C6
100
AcDbEntity
  8
Dimensions
440
 16777216
370
    -2
100
AcDbLine
 10
10.430319
 20
6.968093
 30
0.0
 11
10.430319
 21
6.21511
 31
0.0
  0
LINE
  5
362
330
1C6
100
AcDbEntity
  8
Dimensions
440
 16777216
370
    -2
100
AcDbLine
 10
10.430319
 20
5.239589
 30
0.0
 11
10.430319
 21
5.992573
 31
0.0
  0
SOLID
  5
363
330
1C6
100
AcDbEntity
  8
Dimensions
440
 16777216
100
AcDbTrace
 10
10.410319
 20
6.968093
 30
0.0
 11
10.450319
 21
6.968093
 31
0.0
 12
10.430319
 22
7.088093
 32
0.0
 13
10.430319
 23
7.088093
 33
0.0
  0
SOLID
  5
364
330
1C6
100
AcDbEntity
  8
Dimensions
440
 16777216
100
AcDbTrace
 10
10.410319
 20
5.239589
 30
0.0
 11
10.450319
 21
5.239589
 31
0.0
 12
10.430319
 22
5.119589
 32
0.0
 13
10.430319
 23
5.119589
 33
0.0
  0
MTEXT
  5
365
330
1C6
100
AcDbEntity
  8
Dimensions
440
 16777216
100
AcDbMText
 10
10.430319
 20
6.103841
 30
0.0
 40
0.12
 41
0.0
 46
0.0
 71
     5
 72
     1
  1
\A1;1.97in
 73
     1
 44
1.0
  0
POINT
  5
366
330
1C6
100
AcDbEntity
  8
Defpoints
 62
     0
440
 16777216
100
AcDbPoint
 10
9.751497
 20
7.088093
 30
0.0
  0
POINT
  5
367
330
1C6
100
AcDbEntity
  8
Defpoints
 62
     0
440
 16777216
100
AcDbPoint
 10
8.436536
 20
5.119589
 30
0.0
  0
POINT
  5
368
330
1C6
100
AcDbEntity
  8
Defpoints
 62
     0
440
 16777216
100
AcDbPoint
 10
10.430319
 20
5.119589
 30
0.0
  0
ENDBLK
  5
1C8
330
1C6
100
AcDbEntity
  8
0
100
AcDbBlockEnd
  0
BLOCK
  5
1D4
330
1D3
100
AcDbEntity
  8
0
100
AcDbBlockBegin
  2
*D14
 70
     1
 10
0.0
 20
0.0
 30
0.0
  3
*D14
  1

  0
LINE
  5
369
330
1D3
100
AcDbEntity
  8
Dimensions
440
 16777216
370
    -2
100
AcDbLine
 10
9.574577
 20
3.871473
 30
0.0
 11
9.454577
 21
3.871473
 31
0.0
  0
LINE
  5
36A
330
1D3
100
AcDbEntity
  8
Dimensions
440
 16777216
370
    -2
100
AcDbLine
 10
9.454577
 20
3.871473
 30
0.0
 11
9.258921
 21
4.111348
 31
0.0
  0
MTEXT
  5
36B
330
1D3
100
AcDbEntity
  8
Dimensions
440
 16777216
100
AcDbMText
 10
9.908983
 20
3.871473
 30
0.0
 40
0.12
 41
0.0
 46
0.0
 71
     5
 72
     1
  1
\A1;∅2.36in
 73
     1
 44
1.0
  0
SOLID
  5
36C
330
1D3
100
AcDbEntity
  8
Dimensions
440
 16777216
100
AcDbTrace
 10
9.274419
 20
4.123989
 30
0.0
 11
9.243422
 21
4.098706
 31
0.0
 12
9.183073
 22
4.204337
 32
0.0
 13
9.183073
 23
4.204337
 33
0.0
  0
POINT
  5
36D
330
1D3
100
AcDbEntity
  8
Defpoints
 62
     0
440
 16777216
100
AcDbPoint
 10
9.183073
 20
4.204337
 30
0.0
  0
POINT
  5
36E
330
1D3
100
AcDbEntity
  8
Defpoints
 62
     0
440
 16777216
100
AcDbPoint
 10
7.69
 20
6.034842
 30
0.0
  0
ENDBLK
  5
1D5
330
1D3
100
AcDbEntity
  8
0
100
AcDbBlockEnd
  0
BLOCK
  5
1DD
330
1DC
100
AcDbEntity
  8
0
100
AcDbBlockBegin
  2
*D15
 70
     1
 10
0.0
 20
0.0
 30
0.0
  3
*D15
  1

  0
LINE
  5
36F
330
1DC
100
AcDbEntity
  8
Dimensions
440
 16777216
370
    -2
100
AcDbLine
 10
7.739244
 20
3.61341
 30
0.0
 11
7.859244
 21
3.61341
 31
0.0
  0
LINE
  5
370
330
1DC
100
AcDbEntity
  8
Dimensions
440
 16777216
370
    -2
100
AcDbLine
 10
7.859244
 20
3.61341
 30
0.0
 11
8.295103
 21
4.126366
 31
0.0
  0
MTEXT
  5
371
330
1DC
100
AcDbEntity
  8
Dimensions
440
 16777216
100
AcDbMText
 10
7.498071
 20
3.61341
 30
0.0
 40
0.12
 41
0.0
 46
0.0
 71
     5
 72
     1
  1
\A1;∅.2in
 73
     1
 44
1.0
  0
SOLID
  5
372
330
1DC
100
AcDbEntity
  8
Dimensions
440
 16777216
100
AcDbTrace
 10
8.279862
 20
4.139317
 30
0.0
 11
8.310344
 21
4.113416
 31
0.0
 12
8.372805
 22
4.217813
 32
0.0
 13
8.372805
 23
4.217813
 33
0.0
  0
POINT
  5
373
330
1DC
100
AcDbEntity
  8
Defpoints
 62
     0
440
 16777216
100
AcDbPoint
 10
8.372805
 20
4.217813
 30
0.0
  0
POINT
  5
374
330
1DC
100
AcDbEntity
  8
Defpoints
 62
     0
440
 16777216
100
AcDbPoint
 10
8.500268
 20
4.367823
 30
0.0
  0
ENDBLK
  5
1DE
330
1DC
100
AcDbEntity
  8
0
100
AcDbBlockEnd
  0
BLOCK
  5
1E6
330
1E5
100
AcDbEntity
  8
0
100
AcDbBlockBegin
  2
*D16
 70
     1
 10
0.0
 20
0.0
 30
0.0
  3
*D16
  1

  0
LINE
  5
375
330
1E5
100
AcDbEntity
  8
Dimensions
440
 16777216
370
    -2
100
AcDbLine
 10
4.604999
 20
4.843999
 30
0.0
 11
6.23942
 21
4.843999
 31
0.0
  0
LINE
  5
376
330
1E5
100
AcDbEntity
  8
Dimensions
440
 16777216
370
    -2
100
AcDbLine
 10
4.604999
 20
5.39518
 30
0.0
 11
6.23942
 21
5.39518
 31
0.0
  0
LINE
  5
377
330
1E5
100
AcDbEntity
  8
Dimensions
440
 16777216
370
    -2
100
AcDbLine
 10
6.16942
 20
4.963999
 30
0.0
 11
6.16942
 21
5.27518
 31
0.0
  0
LINE
  5
378
330
1E5
100
AcDbEntity
  8
Dimensions
440
 16777216
370
    -2
100
AcDbLine
 10
6.16942
 20
5.39518
 30
0.0
 11
6.16942
 21
5.51518
 31
0.0
  0
LINE
  5
379
330
1E5
100
AcDbEntity
  8
Dimensions
440
 16777216
370
    -2
100
AcDbLine
 10
6.16942
 20
5.51518
 30
0.0
 11
6.28942
 21
5.51518
 31
0.0
  0
SOLID
  5
37A
330
1E5
100
AcDbEntity
  8
Dimensions
440
 16777216
100
AcDbTrace
 10
6.14942
 20
4.963999
 30
0.0
 11
6.18942
 21
4.963999
 31
0.0
 12
6.16942
 22
4.843999
 32
0.0
 13
6.16942
 23
4.843999
 33
0.0
  0
SOLID
  5
37B
330
1E5
100
AcDbEntity
  8
Dimensions
440
 16777216
100
AcDbTrace
 10
6.14942
 20
5.27518
 30
0.0
 11
6.18942
 21
5.27518
 31
0.0
 12
6.16942
 22
5.39518
 32
0.0
 13
6.16942
 23
5.39518
 33
0.0
  0
MTEXT
  5
37C
330
1E5
100
AcDbEntity
  8
Dimensions
440
 16777216
100
AcDbMText
 10
6.507797
 20
5.51518
 30
0.0
 40
0.12
 41
0.0
 46
0.0
 71
     5
 72
     1
  1
\A1;.55in
 73
     1
 44
1.0
  0
POINT
  5
37D
330
1E5
100
AcDbEntity
  8
Defpoints
 62
     0
440
 16777216
100
AcDbPoint
 10
4.534999
 20
4.843999
 30
0.0
  0
POINT
  5
37E
330
1E5
100
AcDbEntity
  8
Defpoints
 62
     0
440
 16777216
100
AcDbPoint
 10
4.534999
 20
5.39518
 30
0.0
  0
POINT
  5
37F
330
1E5
100
AcDbEntity
  8
Defpoints
 62
     0
440
 16777216
100
AcDbPoint
 10
6.16942
 20
5.39518
 30
0.0
  0
ENDBLK
  5
1E7
330
1E5
100
AcDbEntity
  8
0
100
AcDbBlockEnd
  0
BLOCK
  5
1F4
330
1F3
100
AcDbEntity
  8
0
100
AcDbBlockBegin
  2
*D17
 70
     1
 10
0.0
 20
0.0
 30
0.0
  3
*D17
  1

  0
LINE
  5
380
330
1F3
100
AcDbEntity
  8
Dimensions
440
 16777216
370
    -2
100
AcDbLine
 10
3.849881
 20
7.831619
 30
0.0
 11
4.257666
 21
7.83306
 31
0.0
  0
MTEXT
  5
381
330
1F3
100
AcDbEntity
  8
Dimensions
440
 16777216
100
AcDbMText
 10
3.562091
 20
7.831619
 30
0.0
 40
0.12
 41
0.0
 46
0.0
 71
     5
 72
     1
  1
\A1;∅1.5in
 73
     1
 44
1.0
  0
SOLID
  5
382
330
1F3
100
AcDbEntity
  8
Dimensions
440
 16777216
100
AcDbTrace
 10
4.257596
 20
7.853059
 30
0.0
 11
4.257737
 21
7.81306
 31
0.0
 12
4.377665
 22
7.833483
 32
0.0
 13
4.377665
 23
7.833483
 33
0.0
  0
ARC
  5
383
330
1F3
100
AcDbEntity
  8
Dimensions
440
 16777216
370
    -2
100
AcDbCircle
 10
5.125692
 20
7.836125
 30
0.0
 40
0.7480314960619499
100
AcDbArc
 50
174.840651
 51
223.498811
  0
POINT
  5
384
330
1F3
100
AcDbEntity
  8
Defpoints
 62
     0
440
 16777216
100
AcDbPoint
 10
4.377665
 20
7.833483
 30
0.0
  0
POINT
  5
385
330
1F3
100
AcDbEntity
  8
Defpoints
 62
     0
440
 16777216
100
AcDbPoint
 10
5.873719
 20
7.838766
 30
0.0
  0
ENDBLK
  5
1F5
330
1F3
100
AcDbEntity
  8
0
100
AcDbBlockEnd
  0
BLOCK
  5
1FD
330
1FC
100
AcDbEntity
  8
0
100
AcDbBlockBegin
  2
*D18
 70
     1
 10
0.0
 20
0.0
 30
0.0
  3
*D18
  1

  0
LINE
  5
386
330
1FC
100
AcDbEntity
  8
Dimensions
440
 16777216
370
    -2
100
AcDbLine
 10
12.938952
 20
4.230701
 30
0.0
 11
12.95049
 21
3.150763
 31
0.0
  0
LINE
  5
387
330
1FC
100
AcDbEntity
  8
Dimensions
440
 16777216
370
    -2
100
AcDbLine
 10
14.668473
 20
4.24918
 30
0.0
 11
14.680012
 21
3.169241
 31
0.0
  0
LINE
  5
388
330
1FC
100
AcDbEntity
  8
Dimensions
440
 16777216
370
    -2
100
AcDbLine
 10
13.069736
 20
3.222041
 30
0.0
 11
13.551024
 21
3.227183
 31
0.0
  0
LINE
  5
389
330
1FC
100
AcDbEntity
  8
Dimensions
440
 16777216
370
    -2
100
AcDbLine
 10
14.559271
 20
3.237955
 30
0.0
 11
14.077982
 21
3.232813
 31
0.0
  0
SOLID
  5
38A
330
1FC
100
AcDbEntity
  8
Dimensions
440
 16777216
100
AcDbTrace
 10
13.069522
 20
3.24204
 30
0.0
 11
13.069949
 21
3.202042
 31
0.0
 12
12.949743
 22
3.220759
 32
0.0
 13
12.949743
 23
3.220759
 33
0.0
  0
SOLID
  5
38B
330
1FC
100
AcDbEntity
  8
Dimensions
440
 16777216
100
AcDbTrace
 10
14.559057
 20
3.257954
 30
0.0
 11
14.559484
 21
3.217957
 31
0.0
 12
14.679264
 22
3.239237
 32
0.0
 13
14.679264
 23
3.239237
 33
0.0
  0
MTEXT
  5
38C
330
1FC
100
AcDbEntity
  8
Dimensions
440
 16777216
100
AcDbMText
 10
13.814503
 20
3.229998
 30
0.0
 40
0.12
 41
0.0
 46
0.0
 71
     5
 72
     1
  1
\A1;1.73in
 73
     1
 44
1.0
  0
POINT
  5
38D
330
1FC
100
AcDbEntity
  8
Defpoints
 62
     0
440
 16777216
100
AcDbPoint
 10
12.938204
 20
4.300697
 30
0.0
  0
POINT
  5
38E
330
1FC
100
AcDbEntity
  8
Defpoints
 62
     0
440
 16777216
100
AcDbPoint
 10
14.667725
 20
4.319176
 30
0.0
  0
POINT
  5
38F
330
1FC
100
AcDbEntity
  8
Defpoints
 62
     0
440
 16777216
100
AcDbPoint
 10
14.679264
 20
3.239237
 30
0.0
  0
ENDBLK
  5
1FE
330
1FC
100
AcDbEntity
  8
0
100
AcDbBlockEnd
  0
BLOCK
  5
20A
330
209
100
AcDbEntity
  8
0
100
AcDbBlockBegin
  2
*D19
 70
     1
 10
0.0
 20
0.0
 30
0.0
  3
*D19
  1

  0
LINE
  5
390
330
209
100
AcDbEntity
  8
Dimensions
440
 16777216
370
    -2
100
AcDbLine
 10
12.347696
 20
4.847501
 30
0.0
 11
12.467696
 21
4.847501
 31
0.0
  0
LINE
  5
391
330
209
100
AcDbEntity
  8
Dimensions
440
 16777216
370
    -2
100
AcDbLine
 10
12.467696
 20
4.847501
 30
0.0
 11
12.752533
 21
4.497556
 31
0.0
  0
MTEXT
  5
392
330
209
100
AcDbEntity
  8
Dimensions
440
 16777216
100
AcDbMText
 10
12.059906
 20
4.847501
 30
0.0
 40
0.12
 41
0.0
 46
0.0
 71
     5
 72
     1
  1
\A1;∅.22in
 73
     1
 44
1.0
  0
SOLID
  5
393
330
209
100
AcDbEntity
  8
Dimensions
440
 16777216
100
AcDbTrace
 10
12.768045
 20
4.510181
 30
0.0
 11
12.737022
 21
4.48493
 31
0.0
 12
12.828286
 22
4.404488
 32
0.0
 13
12.828286
 23
4.404488
 33
0.0
  0
POINT
  5
394
330
209
100
AcDbEntity
  8
Defpoints
 62
     0
440
 16777216
100
AcDbPoint
 10
12.828286
 20
4.404488
 30
0.0
  0
POINT
  5
395
330
209
100
AcDbEntity
  8
Defpoints
 62
     0
440
 16777216
100
AcDbPoint
 10
12.967165
 20
4.233864
 30
0.0
  0
ENDBLK
  5
20B
330
209
100
AcDbEntity
  8
0
100
AcDbBlockEnd
  0
ENDSEC
  0
SECTION
  2
ENTITIES
  0
INSERT
  5
12B
330
70
100
AcDbEntity
  8
Titleblock
100
AcDbBlockReference
 66
     1
  2
Shower
 10
16.38
 20
0.38
 30
0.0
  0
ATTRIB
  5
14B
330
12B
100
AcDbEntity
  8
Titleblock
  6
Continuous
370
    25
100
AcDbText
 10
12.6925
 20
2.6925
 30
0.0
 40
0.12
  1
Railing Products and Mock Ups
100
AcDbAttribute
280
     0
  2
PROJECT
 70
     0
280
     1
1001
FD_ATT_APPNAME
1005
139
  0
ATTRIB
  5
14C
330
12B
100
AcDbEntity
  8
Titleblock
  6
Continuous
370
    25
100
AcDbText
 10
14.6925
 20
1.0675
 30
0.0
 40
0.12
  1
9/9/2021
100
AcDbAttribute
280
     0
  2
DRAWN_DATE
 70
     0
280
     1
1001
FD_ATT_APPNAME
1005
13B
  0
ATTRIB
  5
14D
330
12B
100
AcDbEntity
  8
Titleblock
  6
Continuous
370
    25
100
AcDbText
 10
12.0675
 20
2.1925
 30
0.0
 40
0.3048
  1
R13-0100-038-12
100
AcDbAttribute
280
     0
  2
TITLE_1
 70
     0
280
     1
1001
FD_ATT_APPNAME
1005
13C
  0
ATTRIB
  5
14E
330
12B
100
AcDbEntity
  8
Titleblock
  6
Continuous
370
    25
100
AcDbText
 10
14.6925
 20
1.29994
 30
0.0
 40
0.12
  1
1:1
100
AcDbAttribute
280
     0
  2
SCALE
 70
     0
280
     1
1001
FD_ATT_APPNAME
1005
13D
  0
SEQEND
  5
14F
330
12B
100
AcDbEntity
  8
Titleblock
  0
INSERT
  5
150
330
70
100
AcDbEntity
  8
Border
100
AcDbBlockReference
  2
ANSI_B_SHEET
 10
0.0
 20
0.0
 30
0.0
  0
DIMENSION
  5
171
330
70
100
AcDbEntity
  8
Dimensions
100
AcDbDimension
280
     0
  2
*D13
 10
10.430319
 20
5.119589
 30
0.0
 11
10.430319
 21
6.103841
 31
0.0
 70
    32
 71
     5
 42
1.968504
 73
     0
 74
     0
 75
     0
  3
Standard
100
AcDbAlignedDimension
 13
9.751497
 23
7.088093
 33
0.0
 14
8.436536
 24
5.119589
 34
0.0
 50
90.0
100
AcDbRotatedDimension
1001
ACAD_DIMASSOC_CALC_DIMLFAC
1040
-1.0
1001
ACAD_DIMASSOC_DIMLFAC
1040
-1.0
1001
ACAD_DIMASSOC_OVERRIDDEN_DIMLFAC
1040
0.0
1001
ACAD_TC
1000
DSTYLE_TC
1002
{
1070
   177
1004
18000000020000008C8C8CC2000000000000000000000000
1070
   176
1004
18000000020000008C8C8CC2000000000000000000000000
1002
}
1001
ACAD_DSTYLE_DIMJAG_POSITION
1070
   387
1070
     0
1070
   389
1010
0.0
1020
0.0
1030
0.0
1001
ACAD
1000
DSTYLE
1002
{
1070
   177
1070
   256
1070
   176
1070
   256
1070
   144
1040
1.0
1002
}
  0
DIMENSION
  5
180
330
70
100
AcDbEntity
  8
Dimensions
100
AcDbDimension
280
     0
  2
*D14
 10
7.69
 20
6.034842
 30
0.0
 11
9.908983
 21
3.871473
 31
0.0
 70
   163
 71
     5
 42
2.362205
 73
     0
 74
     0
 75
     0
  3
Standard
100
AcDbDiametricDimension
 15
9.183073
 25
4.204337
 35
0.0
 40
0.0
1001
ACAD_DIMASSOC_CALC_DIMLFAC
1040
-1.0
1001
ACAD_DIMASSOC_DIMLFAC
1040
-1.0
1001
ACAD_DIMASSOC_OVERRIDDEN_DIMLFAC
1040
0.0
1001
ACAD_TC
1000
DSTYLE_TC
1002
{
1070
   176
1004
18000000020000008C8C8CC2000000000000000000000000
1070
   177
1004
18000000020000008C8C8CC2000000000000000000000000
1002
}
1001
ACAD_DSTYLE_DIMJAG_POSITION
1070
   387
1070
     0
1070
   389
1010
0.0
1020
0.0
1030
0.0
1001
ACAD_DSTYLE_DIMRADIAL_EXTENSION
1070
   387
1070
     1
1070
   388
1040
0.0
1070
   390
1040
0.0
1001
ACAD
1000
DSTYLE
1002
{
1070
   144
1040
1.0
1070
   176
1070
   256
1070
   177
1070
   256
1002
}
  0
DIMENSION
  5
18A
330
70
100
AcDbEntity
  8
Dimensions
100
AcDbDimension
280
     0
  2
*D15
 10
8.500268
 20
4.367823
 30
0.0
 11
7.498071
 21
3.61341
 31
0.0
 70
   163
 71
     5
 42
0.19685
 73
     0
 74
     0
 75
     0
  3
Standard
100
AcDbDiametricDimension
 15
8.372805
 25
4.217813
 35
0.0
 40
0.0
1001
ACAD_DIMASSOC_CALC_DIMLFAC
1040
-1.0
1001
ACAD_DIMASSOC_DIMLFAC
1040
-1.0
1001
ACAD_DIMASSOC_OVERRIDDEN_DIMLFAC
1040
0.0
1001
ACAD_TC
1000
DSTYLE_TC
1002
{
1070
   176
1004
18000000020000008C8C8CC2000000000000000000000000
1070
   177
1004
18000000020000008C8C8CC2000000000000000000000000
1002
}
1001
ACAD_DSTYLE_DIMJAG_POSITION
1070
   387
1070
     0
1070
   389
1010
0.0
1020
0.0
1030
0.0
1001
ACAD_DSTYLE_DIMRADIAL_EXTENSION
1070
   387
1070
     1
1070
   388
1040
0.0
1070
   390
1040
0.0
1001
ACAD
1000
DSTYLE
1002
{
1070
   144
1040
1.0
1070
   176
1070
   256
1070
   177
1070
   256
1002
}
  0
DIMENSION
  5
194
330
70
100
AcDbEntity
  8
Dimensions
100
AcDbDimension
280
     0
  2
*D16
 10
6.16942
 20
5.39518
 30
0.0
 11
6.507797
 21
5.51518
 31
0.0
 70
    32
 71
     5
 42
0.551181
 73
     0
 74
     0
 75
     0
  3
Standard
100
AcDbAlignedDimension
 13
4.534999
 23
4.843999
 33
0.0
 14
4.534999
 24
5.39518
 34
0.0
 50
90.0
100
AcDbRotatedDimension
1001
ACAD_DIMASSOC_CALC_DIMLFAC
1040
-1.0
1001
ACAD_DIMASSOC_DIMLFAC
1040
-1.0
1001
ACAD_DIMASSOC_OVERRIDDEN_DIMLFAC
1040
0.0
1001
ACAD_TC
1000
DSTYLE_TC
1002
{
1070
   176
1004
18000000020000008C8C8CC2000000000000000000000000
1070
   177
1004
18000000020000008C8C8CC2000000000000000000000000
1002
}
1001
ACAD_DSTYLE_DIMJAG_POSITION
1070
   387
1070
     0
1070
   389
1010
0.0
1020
0.0
1030
0.0
1001
ACAD
1000
DSTYLE
1002
{
1070
   144
1040
1.0
1070
   176
1070
   256
1070
   177
1070
   256
1002
}
  0
DIMENSION
  5
1A3
330
70
100
AcDbEntity
  8
Dimensions
100
AcDbDimension
280
     0
  2
*D17
 10
5.873719
 20
7.838766
 30
0.0
 11
3.849881
 21
7.831619
 31
0.0
 70
   163
 71
     5
 42
1.496063
 73
     0
 74
     0
 75
     0
  3
Standard
100
AcDbDiametricDimension
 15
4.377665
 25
7.833483
 35
0.0
 40
0.0
1001
ACAD_DIMASSOC_CALC_DIMLFAC
1040
-1.0
1001
ACAD_DIMASSOC_DIMLFAC
1040
-1.0
1001
ACAD_DIMASSOC_OVERRIDDEN_DIMLFAC
1040
0.0
1001
ACAD_DSTYLE_DIMJAG_POSITION
1070
   387
1070
     0
1070
   389
1010
0.0
1020
0.0
1030
0.0
1001
ACAD_DSTYLE_DIMRADIAL_EXTENSION
1070
   387
1070
     1
1070
   388
1040
3.994369
1070
   390
1040
4.712389
1001
ACAD
1000
DSTYLE
1002
{
1070
   144
1040
1.0
1070
   288
1070
     1
1002
}
  0
DIMENSION
  5
1AD
330
70
100
AcDbEntity
  8
Dimensions
100
AcDbDimension
280
     0
  2
*D18
 10
14.679264
 20
3.239237
 30
0.0
 11
13.814503
 21
3.229998
 31
0.0
 70
    33
 71
     5
 42
1.72962
 73
     0
 74
     0
 75
     0
  3
Standard
100
AcDbAlignedDimension
 13
12.938204
 23
4.300697
 33
0.0
 14
14.667725
 24
4.319176
 34
0.0
1001
ACAD_DIMASSOC_CALC_DIMLFAC
1040
-1.0
1001
ACAD_DIMASSOC_DIMLFAC
1040
-1.0
1001
ACAD_DIMASSOC_OVERRIDDEN_DIMLFAC
1040
0.0
1001
ACAD_TC
1000
DSTYLE_TC
1002
{
1070
   176
1004
18000000020000008C8C8CC2000000000000000000000000
1070
   177
1004
18000000020000008C8C8CC2000000000000000000000000
1002
}
1001
ACAD
1000
DSTYLE
1002
{
1070
   144
1040
1.0
1070
   176
1070
   256
1070
   177
1070
   256
1002
}
  0
DIMENSION
  5
1BB
330
70
100
AcDbEntity
  8
Dimensions
100
AcDbDimension
280
     0
  2
*D19
 10
12.967165
 20
4.233864
 30
0.0
 11
12.059906
 21
4.847501
 31
0.0
 70
   163
 71
     5
 42
0.22
 73
     0
 74
     0
 75
     0
  3
Standard
100
AcDbDiametricDimension
 15
12.828286
 25
4.404488
 35
0.0
 40
0.0
1001
ACAD_DIMASSOC_CALC_DIMLFAC
1040
-1.0
1001
ACAD_DIMASSOC_DIMLFAC
1040
-1.0
1001
ACAD_DIMASSOC_OVERRIDDEN_DIMLFAC
1040
0.0
1001
ACAD_TC
1000
DSTYLE_TC
1002
{
1070
   176
1004
18000000020000008C8C8CC2000000000000000000000000
1070
   177
1004
18000000020000008C8C8CC2000000000000000000000000
1002
}
1001
ACAD_DSTYLE_DIMJAG_POSITION
1070
   387
1070
     0
1070
   389
1010
0.0
1020
0.0
1030
0.0
1001
ACAD_DSTYLE_DIMRADIAL_EXTENSION
1070
   387
1070
     1
1070
   388
1040
0.0
1070
   390
1040
0.0
1001
ACAD
1000
DSTYLE
1002
{
1070
   144
1040
1.0
1070
   176
1070
   256
1070
   177
1070
   256
1002
}
  0
SPLINE
  5
2B8
330
70
100
AcDbEntity
  8
Visible
100
AcDbSpline
 70
     0
 71
     3
 72
    14
 73
    10
 74
     0
 42
0.000000001
 43
0.0000000001
 40
0.0
 40
0.0
 40
0.0
 40
0.0
 40
0.1053747362721841
 40
0.1053747362721841
 40
0.2107494725443681
 40
0.2107494725443681
 40
0.3161223775341868
 40
0.3161223775341868
 40
0.4211335589284436
 40
0.4211335589284436
 40
0.4211335589284436
 40
0.4211335589284436
 10
7.552711723716129
 20
6.996827320608388
 30
1.340158645616611
 10
7.566540429263113
 20
6.996827320608388
 30
1.340158645616611
 10
7.581280098387651
 20
6.996450744397729
 30
1.337391772500268
 10
7.608377190201281
 20
6.995094591390961
 30
1.326160997929036
 10
7.620735961707396
 20
6.994135041894374
 30
1.317697941463848
 10
7.640251142625857
 20
6.992337475292075
 30
1.29818267659175
 10
7.648714201361144
 20
6.991382131652809
 30
1.285823896956571
 10
7.659925644955364
 20
6.990039088293896
 30
1.258773271818427
 10
7.662692694417273
 20
6.98966833741157
 30
1.244088293016829
 10
7.662711625900556
 20
6.98966810307944
 30
1.230301088606211
1001
ACAD_VIEW_EDGE_ID
1071
        0
1071
       -1
1071
        2
1071
        0
  0
SPLINE
  5
2B9
330
70
100
AcDbEntity
  8
Visible
100
AcDbSpline
 70
     0
 71
     3
 72
    14
 73
    10
 74
     0
 42
0.000000001
 43
0.0000000001
 40
1.264855538530624
 40
1.264855538530624
 40
1.264855538530624
 40
1.264855538530624
 40
1.369866719924881
 40
1.369866719924881
 40
1.4752396249147
 40
1.4752396249147
 40
1.580614361186884
 40
1.580614361186884
 40
1.685989097459068
 40
1.685989097459068
 40
1.685989097459068
 40
1.685989097459068
 10
7.442711821531702
 20
6.98966810307944
 30
1.230301088606211
 10
7.442730753014984
 20
6.98966833741157
 30
1.244088293016829
 10
7.445497802476893
 20
6.990039088293896
 30
1.258773271818427
 10
7.456709246071113
 20
6.99138213165281
 30
1.285823896956571
 10
7.465172304806401
 20
6.992337475292075
 30
1.29818267659175
 10
7.484687485724862
 20
6.994135041894375
 30
1.317697941463848
 10
7.497046257232796
 20
6.995094591390961
 30
1.326160997929036
 10
7.524143349044607
 20
6.996450744397728
 30
1.337391772500268
 10
7.538883018169144
 20
6.996827320608388
 30
1.340158645616611
 10
7.552711723716129
 20
6.996827320608388
 30
1.340158645616611
1001
ACAD_VIEW_EDGE_ID
1071
        0
1071
       -1
1071
        2
1071
        0
  0
SPLINE
  5
2BA
330
70
100
AcDbEntity
  8
Visible
100
AcDbSpline
 70
     0
 71
     3
 72
    14
 73
    10
 74
     0
 42
0.000000001
 43
0.0000000001
 40
0.0
 40
0.0
 40
0.0
 40
0.0
 40
0.1053747362721841
 40
0.1053747362721841
 40
0.2107494725443683
 40
0.2107494725443683
 40
0.3161223775341866
 40
0.3161223775341866
 40
0.4211335589284419
 40
0.4211335589284419
 40
0.4211335589284419
 40
0.4211335589284419
 10
9.322711723716565
 20
6.996827320608387
 30
1.340158645616611
 10
9.33654042926355
 20
6.996827320608387
 30
1.340158645616611
 10
9.351280098388087
 20
6.996450744397728
 30
1.337391772500268
 10
9.378377190199898
 20
6.995094591390961
 30
1.326160997929036
 10
9.390735961707832
 20
6.994135041894374
 30
1.317697941463848
 10
9.410251142626293
 20
6.992337475292075
 30
1.29818267659175
 10
9.418714201361581
 20
6.991382131652809
 30
1.285823896956571
 10
9.429925644955801
 20
6.990039088293896
 30
1.258773271818427
 10
9.43269269441771
 20
6.98966833741157
 30
1.244088293016829
 10
9.432711625900992
 20
6.98966810307944
 30
1.230301088606211
1001
ACAD_VIEW_EDGE_ID
1071
        2
1071
       -1
1071
        2
1071
        0
  0
SPLINE
  5
2BB
330
70
100
AcDbEntity
  8
Visible
100
AcDbSpline
 70
     0
 71
     3
 72
    14
 73
    10
 74
     0
 42
0.000000001
 43
0.0000000001
 40
1.264855538530625
 40
1.264855538530625
 40
1.264855538530625
 40
1.264855538530625
 40
1.36986671992488
 40
1.36986671992488
 40
1.475239624914698
 40
1.475239624914698
 40
1.580614361186882
 40
1.580614361186882
 40
1.685989097459066
 40
1.685989097459066
 40
1.685989097459066
 40
1.685989097459066
 10
9.212711821532138
 20
6.98966810307944
 30
1.230301088606211
 10
9.212730753015421
 20
6.98966833741157
 30
1.244088293016829
 10
9.215497802477329
 20
6.990039088293896
 30
1.258773271818427
 10
9.22670924607155
 20
6.991382131652809
 30
1.285823896956571
 10
9.235172304806837
 20
6.992337475292075
 30
1.29818267659175
 10
9.254687485725298
 20
6.994135041894374
 30
1.317697941463848
 10
9.267046257231413
 20
6.995094591390961
 30
1.326160997929036
 10
9.294143349045043
 20
6.996450744397728
 30
1.337391772500268
 10
9.308883018169581
 20
6.996827320608387
 30
1.340158645616611
 10
9.322711723716565
 20
6.996827320608387
 30
1.340158645616611
1001
ACAD_VIEW_EDGE_ID
1071
        2
1071
       -1
1071
        2
1071
        0
  0
SPLINE
  5
2BC
330
70
100
AcDbEntity
  8
Visible
100
AcDbSpline
 70
     0
 71
     3
 72
    18
 73
    14
 74
     0
 42
0.000000001
 43
0.0000000001
 40
1.959048293727359
 40
1.959048293727359
 40
1.959048293727359
 40
1.959048293727359
 40
2.202665695710927
 40
2.202665695710927
 40
2.446283097694495
 40
2.446283097694495
 40
2.933517901661631
 40
2.933517901661631
 40
3.425807244558175
 40
3.425807244558175
 40
3.671951916006447
 40
3.671951916006447
 40
3.918096587454719
 40
3.918096587454719
 40
3.918096587454719
 40
3.918096587454719
 10
9.75149697998313
 20
7.088093298714903
 30
1.230301088613487
 10
9.75149697998313
 20
7.088093298714903
 30
1.262271876275917
 10
9.748331300383142
 20
7.09018843163302
 30
1.295020350900813
 10
9.735362379482467
 20
7.098624506138083
 30
1.359541039955729
 10
9.725564406022385
 20
7.104960610042831
 30
1.391314945560225
 10
9.68736943625845
 20
7.128910292769074
 30
1.48189677098162
 10
9.649738458949286
 20
7.151690901414048
 30
1.535904866721466
 10
9.564535107641859
 20
7.19646784118766
 30
1.621108218028894
 10
9.510626617253365
 20
7.221912481487631
 30
1.658446307228587
 10
9.420523211711042
 20
7.250869008670653
 30
1.696434463630794
 10
9.388929847573308
 20
7.258940952463753
 30
1.706202617104281
 10
9.324508573232378
 20
7.269910526850434
 30
1.71920277213394
 10
9.2916734460523
 20
7.272774872681273
 30
1.722427072865684
 10
9.259370995730932
 20
7.272774872681273
 30
1.722427072865684
1001
ACAD_VIEW_EDGE_ID
1071
        7
1071
       -1
1071
        2
1071
        0
  0
SPLINE
  5
2BD
330
70
100
AcDbEntity
  8
Visible
100
AcDbSpline
 70
     0
 71
     3
 72
    18
 73
    14
 74
     0
 42
0.000000001
 43
0.0000000001
 40
-3.877121348660507
 40
-3.877121348660507
 40
-3.877121348660507
 40
-3.877121348660507
 40
-3.634128957969365
 40
-3.634128957969365
 40
-3.391136567278224
 40
-3.391136567278224
 40
-2.905151785895941
 40
-2.905151785895941
 40
-2.421856230113097
 40
-2.421856230113097
 40
-2.180208452221675
 40
-2.180208452221675
 40
-1.938560674330253
 40
-1.938560674330253
 40
-1.938560674330253
 40
-1.938560674330253
 10
9.259370995730932
 20
7.147429689087505
 30
1.722427072865684
 10
9.291259760913817
 20
7.147429689087505
 30
1.722427072865684
 10
9.323867973584128
 20
7.145147936172153
 30
1.719280829971467
 10
9.388108254423059
 20
7.136223058904491
 30
1.706418475700047
 10
9.419744397757312
 20
7.129599970440239
 30
1.696708824019879
 10
9.510135426189663
 20
7.105501513970679
 30
1.658759568266759
 10
9.564390849151095
 20
7.083883170366548
 30
1.621252476519657
 10
9.650084630016863
 20
7.045236860373219
 30
1.53555869565389
 10
9.687759220478255
 20
7.025342117079621
 30
1.481234580995078
 10
9.725817103430017
 20
7.004403267500616
 30
1.390582230718791
 10
9.735539809251349
 20
6.998861374800071
 30
1.358852926259714
 10
9.748382159819811
 20
6.991491611636387
 30
1.294569240408236
 10
9.75149697998313
 20
6.989668101864508
 30
1.262013395424219
 10
9.75149697998313
 20
6.989668101864508
 30
1.230301088613487
1001
ACAD_VIEW_EDGE_ID
1071
        9
1071
       -1
1071
        2
1071
        0
  0
SPLINE
  5
2BE
330
70
100
AcDbEntity
  8
Visible
100
AcDbSpline
 70
     0
 71
     3
 72
    18
 73
    14
 74
     0
 42
0.000000001
 43
0.0000000001
 40
1.938560674330254
 40
1.938560674330254
 40
1.938560674330254
 40
1.938560674330254
 40
2.180208452221676
 40
2.180208452221676
 40
2.421856230113097
 40
2.421856230113097
 40
2.905151785895941
 40
2.905151785895941
 40
3.391136567278225
 40
3.391136567278225
 40
3.634128957969366
 40
3.634128957969366
 40
3.877121348660508
 40
3.877121348660508
 40
3.877121348660508
 40
3.877121348660508
 10
7.121575720140754
 20
6.989668101864509
 30
1.230301088613487
 10
7.121575720140754
 20
6.989668101864509
 30
1.262013395424219
 10
7.124690540304072
 20
6.991491611636387
 30
1.294569240408236
 10
7.137532890872535
 20
6.998861374800071
 30
1.358852926259714
 10
7.147255596693867
 20
7.004403267500617
 30
1.390582230718791
 10
7.185313479645628
 20
7.025342117079622
 30
1.481234580995078
 10
7.222988070107021
 20
7.04523686037322
 30
1.53555869565389
 10
7.308681850972789
 20
7.083883170366548
 30
1.621252476519657
 10
7.362937273934221
 20
7.105501513970679
 30
1.658759568266759
 10
7.453328302364752
 20
7.129599970440239
 30
1.696708824019879
 10
7.484964445700825
 20
7.136223058904491
 30
1.706418475700047
 10
7.549204726539755
 20
7.145147936172153
 30
1.719280829971467
 10
7.581812939210067
 20
7.147429689087505
 30
1.722427072865684
 10
7.613701704392951
 20
7.147429689087505
 30
1.722427072865684
1001
ACAD_VIEW_EDGE_ID
1071
       10
1071
       -1
1071
        2
1071
        0
  0
SPLINE
  5
2BF
330
70
100
AcDbEntity
  8
Visible
100
AcDbSpline
 70
     0
 71
     3
 72
    18
 73
    14
 74
     0
 42
0.000000001
 43
0.0000000001
 40
-3.918096587454718
 40
-3.918096587454718
 40
-3.918096587454718
 40
-3.918096587454718
 40
-3.671951916006447
 40
-3.671951916006447
 40
-3.425807244558175
 40
-3.425807244558175
 40
-2.933517901661632
 40
-2.933517901661632
 40
-2.446283097694496
 40
-2.446283097694496
 40
-2.202665695710928
 40
-2.202665695710928
 40
-1.959048293727359
 40
-1.959048293727359
 40
-1.959048293727359
 40
-1.959048293727359
 10
7.613701704392951
 20
7.272774872681274
 30
1.722427072865684
 10
7.581399254071584
 20
7.272774872681274
 30
1.722427072865684
 10
7.548564126891506
 20
7.269910526850434
 30
1.71920277213394
 10
7.484142852550576
 20
7.258940952463754
 30
1.706202617104281
 10
7.452549488412842
 20
7.250869008670654
 30
1.696434463630794
 10
7.362446082870519
 20
7.221912481487632
 30
1.658446307228587
 10
7.308537592482025
 20
7.19646784118766
 30
1.621108218028894
 10
7.223334241174597
 20
7.151690901414049
 30
1.535904866721466
 10
7.185703263865434
 20
7.128910292769074
 30
1.48189677098162
 10
7.147508294099679
 20
7.104960610042832
 30
1.391314945560225
 10
7.137710320641417
 20
7.098624506138084
 30
1.359541039955729
 10
7.124741399740742
 20
7.090188431633021
 30
1.295020350900813
 10
7.121575720140754
 20
7.088093298714904
 30
1.262271876275917
 10
7.121575720140754
 20
7.088093298714904
 30
1.230301088613487
1001
ACAD_VIEW_EDGE_ID
1071
       12
1071
       -1
1071
        2
1071
        0
  0
SPLINE
  5
2C0
330
70
100
AcDbEntity
  8
Visible
100
AcDbSpline
 70
     0
 71
     3
 72
    14
 73
    10
 74
     0
 42
0.000000001
 43
0.0000000001
 40
0.0
 40
0.0
 40
0.0
 40
0.0
 40
0.2658424788022427
 40
0.2658424788022427
 40
0.5316849576044854
 40
0.5316849576044854
 40
0.7974108285105342
 40
0.7974108285105342
 40
1.062774924606672
 40
1.062774924606672
 40
1.062774924606672
 40
1.062774924606672
 10
8.436536350061942
 20
7.035739092334407
 30
1.505749196798205
 10
8.471423814471563
 20
7.035739092334407
 30
1.505749196798205
 10
8.508445857038168
 20
7.033219894530445
 30
1.4987246295168
 10
8.576260586396529
 20
7.024336578780435
 30
1.470524647636921
 10
8.607077918239156
 20
7.018123145038372
 30
1.44936123964544
 10
8.655730143353139
 20
7.006622039352357
 30
1.40070848050891
 10
8.676900953294534
 20
7.000557300100084
 30
1.369887276048757
 10
8.70508688501286
 20
6.992028553241237
 30
1.302104274902376
 10
8.712107771012597
 20
6.989668676485947
 30
1.265131623158595
 10
8.71212686220133
 20
6.98966810303878
 30
1.230301088613487
1001
ACAD_VIEW_EDGE_ID
1071
       16
1071
       -1
1071
        2
1071
        0
  0
SPLINE
  5
2C1
330
70
100
AcDbEntity
  8
Visible
100
AcDbSpline
 70
     0
 71
     3
 72
    14
 73
    10
 74
     0
 42
0.000000001
 43
0.0000000001
 40
3.189825890742708
 40
3.189825890742708
 40
3.189825890742708
 40
3.189825890742708
 40
3.455189986838847
 40
3.455189986838847
 40
3.720915857744896
 40
3.720915857744896
 40
3.986758336547138
 40
3.986758336547138
 40
4.252600815349381
 40
4.252600815349381
 40
4.252600815349381
 40
4.252600815349381
 10
8.160945837920735
 20
6.98966810303878
 30
1.230301088613487
 10
8.160964929109468
 20
6.989668676485947
 30
1.265131623158595
 10
8.167985815111023
 20
6.992028553241237
 30
1.302104274902376
 10
8.19617174682935
 20
7.000557300100084
 30
1.369887276048757
 10
8.217342556770745
 20
7.006622039352357
 30
1.40070848050891
 10
8.265994781884728
 20
7.018123145038372
 30
1.44936123964544
 10
8.296812113725536
 20
7.024336578780435
 30
1.470524647636921
 10
8.364626843085716
 20
7.033219894530445
 30
1.4987246295168
 10
8.401648885652321
 20
7.035739092334407
 30
1.505749196798205
 10
8.436536350061942
 20
7.035739092334407
 30
1.505749196798205
1001
ACAD_VIEW_EDGE_ID
1071
       16
1071
       -1
1071
        2
1071
        0
  0
LINE
  5
2C2
330
70
100
AcDbEntity
  8
Visible
100
AcDbLine
 10
9.259371
 20
7.14743
 30
1.722427
 11
7.613702
 21
7.14743
 31
1.722427
210
0.0
220
1.0
230
0.0
  0
LINE
  5
2C3
330
70
100
AcDbEntity
  8
Visible
100
AcDbLine
 10
7.613702
 20
7.272775
 30
1.722427
 11
9.259371
 21
7.272775
 31
1.722427
210
0.0
220
1.0
230
0.0
  0
ARC
  5
2C4
330
70
100
AcDbEntity
  8
Visible
100
AcDbCircle
 10
-8.436536
 20
5.119589
 30
-0.639607
 40
0.2755905511811024
210
-0.0000000000000002
220
-0.0000000000000003
230
-1.0
100
AcDbArc
 50
180.0
 51
360.0
  0
ARC
  5
2C5
330
70
100
AcDbEntity
  8
Visible
100
AcDbCircle
 10
8.436536
 20
5.119589
 30
-1.565117
 40
1.181102362204724
100
AcDbArc
 50
103.493399
 51
76.506601
  0
ARC
  5
2C6
330
70
100
AcDbEntity
  8
Visible
100
AcDbCircle
 10
-8.436536
 20
5.119589
 30
1.525747
 40
1.141732283464567
210
0.0000000000000001
220
-0.0000000000000002
230
-1.0
100
AcDbArc
 50
103.967963
 51
76.032037
  0
CIRCLE
  5
2C7
330
70
100
AcDbEntity
  8
Visible
100
AcDbCircle
 10
-9.152542
 20
5.532975
 30
1.525747
 40
0.1968503937007874
210
0.0000000000000001
220
-0.0000000000000002
230
-1.0
  0
CIRCLE
  5
2C8
330
70
100
AcDbEntity
  8
Visible
100
AcDbCircle
 10
-7.720531
 20
5.532975
 30
1.525747
 40
0.1968503937007875
210
0.0000000000000001
220
-0.0000000000000002
230
-1.0
  0
CIRCLE
  5
2C9
330
70
100
AcDbEntity
  8
Visible
100
AcDbCircle
 10
-8.436536
 20
4.292818
 30
1.525747
 40
0.1968503937007874
210
0.0000000000000001
220
-0.0000000000000002
230
-1.0
  0
CIRCLE
  5
2CA
330
70
100
AcDbEntity
  8
Visible
100
AcDbCircle
 10
8.436536
 20
4.292818
 30
-1.663542
 40
0.0984251968503937
  0
CIRCLE
  5
2CB
330
70
100
AcDbEntity
  8
Visible
100
AcDbCircle
 10
7.720531
 20
5.532975
 30
-1.663542
 40
0.0984251968503938
  0
CIRCLE
  5
2CC
330
70
100
AcDbEntity
  8
Visible
100
AcDbCircle
 10
9.152542
 20
5.532975
 30
-1.663542
 40
0.0984251968503937
  0
LINE
  5
2CD
330
70
100
AcDbEntity
  8
Visible
100
AcDbLine
 10
9.751497
 20
7.088093
 30
1.230301
 11
9.751497
 21
6.989668
 31
1.230301
210
0.0
220
1.0
230
0.0
  0
LINE
  5
2CE
330
70
100
AcDbEntity
  8
Visible
100
AcDbLine
 10
7.121576
 20
7.088093
 30
1.230301
 11
7.121576
 21
6.989668
 31
1.230301
210
0.0
220
1.0
230
0.0
  0
LINE
  5
2CF
330
70
100
AcDbEntity
  8
Visible
100
AcDbLine
 10
7.121576
 20
6.989668
 30
1.230301
 11
7.442712
 21
6.989668
 31
1.230301
210
0.0
220
1.0
230
0.0
  0
LINE
  5
2D0
330
70
100
AcDbEntity
  8
Visible
100
AcDbLine
 10
7.662712
 20
6.989668
 30
1.230301
 11
8.160946
 21
6.989668
 31
1.230301
210
0.0
220
1.0
230
0.0
  0
LINE
  5
2D1
330
70
100
AcDbEntity
  8
Visible
100
AcDbLine
 10
8.712127
 20
6.989668
 30
1.230301
 11
9.212712
 21
6.989668
 31
1.230301
210
0.0
220
1.0
230
0.0
  0
LINE
  5
2D2
330
70
100
AcDbEntity
  8
Visible
100
AcDbLine
 10
9.432712
 20
6.989668
 30
1.230301
 11
9.751497
 21
6.989668
 31
1.230301
210
0.0
220
1.0
230
0.0
  0
ARC
  5
2D3
330
70
100
AcDbEntity
  8
Visible
100
AcDbCircle
 10
-5.710141
 20
0.639607
 30
-8.160946
 40
0.5905511811023623
210
-1.0
220
-0.0000000000000003
230
-0.0000000000000001
100
AcDbArc
 50
0.0
 51
90.0
  0
ARC
  5
2D4
330
70
100
AcDbEntity
  8
Visible
100
AcDbCircle
 10
5.710141
 20
0.639607
 30
8.712127
 40
0.5905511811023623
210
1.0
220
0.0000000000000002
230
0.0000000000000001
100
AcDbArc
 50
90.0
 51
180.0
  0
LINE
  5
2D5
330
70
100
AcDbEntity
  8
Visible
100
AcDbLine
 10
8.160946
 20
5.710141
 30
1.230159
 11
8.160946
 21
6.989668
 31
1.230159
210
0.0
220
1.0
230
0.0
  0
LINE
  5
2D6
330
70
100
AcDbEntity
  8
Visible
100
AcDbLine
 10
8.712127
 20
5.710141
 30
1.230159
 11
8.712127
 21
6.989668
 31
1.230159
210
0.0
220
1.0
230
0.0
  0
SPLINE
  5
2D7
330
70
100
AcDbEntity
  8
Visible
100
AcDbSpline
 70
     0
 71
     3
 72
    18
 73
    14
 74
     0
 42
0.000000001
 43
0.0000000001
 40
1.938560674330254
 40
1.938560674330254
 40
1.938560674330254
 40
1.938560674330254
 40
2.180208452221676
 40
2.180208452221676
 40
2.421856230113097
 40
2.421856230113097
 40
2.905151785895941
 40
2.905151785895941
 40
3.391136567278225
 40
3.391136567278225
 40
3.634128957969366
 40
3.634128957969366
 40
3.877121348660508
 40
3.877121348660508
 40
3.877121348660508
 40
3.877121348660508
 10
5.125692298541252
 20
6.989668120178739
 30
1.314960629923007
 10
5.157404605351985
 20
6.989668120178739
 30
1.314960629923007
 10
5.189960450336002
 20
6.991491629950617
 30
1.311845809759688
 10
5.25424413618748
 20
6.998861393114301
 30
1.299003459191226
 10
5.285973440646557
 20
7.004403285814847
 30
1.289280753369894
 10
5.376625790922844
 20
7.025342135393852
 30
1.251222870418132
 10
5.430949905581655
 20
7.04523687868745
 30
1.213548279956739
 10
5.516643686449242
 20
7.083883188680778
 30
1.127854499090972
 10
5.554150778196344
 20
7.105501532284909
 30
1.073599076129539
 10
5.592100033949463
 20
7.129599988754469
 30
0.9832080476990086
 10
5.601809685629632
 20
7.136223077218721
 30
0.951571904362936
 10
5.614672039901051
 20
7.145147954486383
 30
0.8873316235240054
 10
5.617818282795269
 20
7.147429707401736
 30
0.854723410853694
 10
5.617818282795269
 20
7.147429707401736
 30
0.8228346456708095
1001
ACAD_VIEW_EDGE_ID
1071
       10
1071
       -1
1071
        2
1071
        0
  0
LINE
  5
2D8
330
70
100
AcDbEntity
  8
Visible
100
AcDbLine
 10
5.617818
 20
7.272775
 30
0.822835
 11
5.617818
 21
7.14743
 31
0.822835
210
0.0
220
1.0
230
0.0
  0
SPLINE
  5
2D9
330
70
100
AcDbEntity
  8
Visible
100
AcDbSpline
 70
     0
 71
     3
 72
    18
 73
    14
 74
     0
 42
0.000000001
 43
0.0000000001
 40
-3.918096587454718
 40
-3.918096587454718
 40
-3.918096587454718
 40
-3.918096587454718
 40
-3.671951916006447
 40
-3.671951916006447
 40
-3.425807244558175
 40
-3.425807244558175
 40
-2.933517901661632
 40
-2.933517901661632
 40
-2.446283097694496
 40
-2.446283097694496
 40
-2.202665695710928
 40
-2.202665695710928
 40
-1.959048293727359
 40
-1.959048293727359
 40
-1.959048293727359
 40
-1.959048293727359
 10
5.617818282795269
 20
7.272774890995505
 30
0.8228346456708095
 10
5.617818282795269
 20
7.272774890995505
 30
0.8551370959921769
 10
5.614593982063524
 20
7.269910545164664
 30
0.8879722231722553
 10
5.601593827033866
 20
7.258940970777984
 30
0.9523934975131851
 10
5.591825673560379
 20
7.250869026984884
 30
0.9839868616509193
 10
5.553837517158171
 20
7.221912499801862
 30
1.074090267193241
 10
5.516499427958478
 20
7.19646785950189
 30
1.127998757581735
 10
5.431296076649232
 20
7.151690919728279
 30
1.213202108889163
 10
5.377287980909386
 20
7.128910311083304
 30
1.250833086198326
 10
5.286706155487991
 20
7.104960628357062
 30
1.289028055964081
 10
5.254932249883495
 20
7.098624524452314
 30
1.298826029422343
 10
5.190411560828579
 20
7.090188449947251
 30
1.311794950323019
 10
5.157663086203683
 20
7.088093317029134
 30
1.314960629923007
 10
5.125692298541252
 20
7.088093317029134
 30
1.314960629923007
1001
ACAD_VIEW_EDGE_ID
1071
       12
1071
       -1
1071
        2
1071
        0
  0
SPLINE
  5
2DA
330
70
100
AcDbEntity
  8
Visible
100
AcDbSpline
 70
     0
 71
     3
 72
    18
 73
    14
 74
     0
 42
0.000000001
 43
0.0000000001
 40
-1.959048293727359
 40
-1.959048293727359
 40
-1.959048293727359
 40
-1.959048293727359
 40
-1.715430891743792
 40
-1.715430891743792
 40
-1.471813489760224
 40
-1.471813489760224
 40
-0.9845786857930889
 40
-0.9845786857930889
 40
-0.4922893428965445
 40
-0.4922893428965445
 40
-0.2461446714482722
 40
-0.2461446714482722
 40
0.0
 40
0.0
 40
0.0
 40
0.0
 10
5.125692298541252
 20
7.088093317029134
 30
1.314960629923007
 10
5.093721510880641
 20
7.088093317029134
 30
1.314960629923007
 10
5.060973036255745
 20
7.090188449947251
 30
1.311794950323019
 10
4.996452347200829
 20
7.098624524452314
 30
1.298826029422343
 10
4.964678441596333
 20
7.104960628357062
 30
1.289028055964081
 10
4.874096616174938
 20
7.128910311083304
 30
1.250833086198326
 10
4.820088520435092
 20
7.151690919728279
 30
1.213202108889163
 10
4.734885169129483
 20
7.19646785950189
 30
1.127998757581735
 10
4.69754707992979
 20
7.221912499801861
 30
1.074090267193241
 10
4.659558923527583
 20
7.250869026984884
 30
0.9839868616509193
 10
4.649790770052277
 20
7.258940970777984
 30
0.9523934975131851
 10
4.636790615024438
 20
7.269910545164664
 30
0.8879722231722553
 10
4.633566314292693
 20
7.272774890995505
 30
0.8551370959921769
 10
4.633566314292693
 20
7.272774890995505
 30
0.8228346456708095
1001
ACAD_VIEW_EDGE_ID
1071
       13
1071
       -1
1071
        2
1071
        0
  0
LINE
  5
2DB
330
70
100
AcDbEntity
  8
Visible
100
AcDbLine
 10
4.633566
 20
7.272775
 30
0.822835
 11
4.633566
 21
7.14743
 31
0.822835
210
0.0
220
1.0
230
0.0
  0
SPLINE
  5
2DC
330
70
100
AcDbEntity
  8
Visible
100
AcDbSpline
 70
     0
 71
     3
 72
    18
 73
    14
 74
     0
 42
0.000000001
 43
0.0000000001
 40
0.0
 40
0.0
 40
0.0
 40
0.0
 40
0.2429923906911418
 40
0.2429923906911418
 40
0.4859847813822836
 40
0.4859847813822836
 40
0.971969562764567
 40
0.971969562764567
 40
1.45526511854741
 40
1.45526511854741
 40
1.696912896438832
 40
1.696912896438832
 40
1.938560674330254
 40
1.938560674330254
 40
1.938560674330254
 40
1.938560674330254
 10
4.633566314292693
 20
7.147429707401736
 30
0.8228346456708095
 10
4.633566314292693
 20
7.147429707401736
 30
0.854723410853694
 10
4.63671255718691
 20
7.145147954486383
 30
0.8873316235240054
 10
4.649574911456511
 20
7.136223077218721
 30
0.951571904362936
 10
4.659284563138498
 20
7.129599988754469
 30
0.9832080476990086
 10
4.697233818889799
 20
7.105501532284909
 30
1.073599076129539
 10
4.73474091063872
 20
7.083883188680778
 30
1.127854499090972
 10
4.820434691502669
 20
7.04523687868745
 30
1.213548279956739
 10
4.87475880616148
 20
7.025342135393852
 30
1.251222870418132
 10
4.965411156437767
 20
7.004403285814847
 30
1.289280753369894
 10
4.997140460896844
 20
6.998861393114301
 30
1.299003459191226
 10
5.061424146748322
 20
6.991491629950617
 30
1.311845809759688
 10
5.093979991732339
 20
6.989668120178739
 30
1.314960629923007
 10
5.125692298541252
 20
6.989668120178739
 30
1.314960629923007
1001
ACAD_VIEW_EDGE_ID
1071
       15
1071
       -1
1071
        2
1071
        0
  0
ARC
  5
2DD
330
70
100
AcDbEntity
  8
Visible
100
AcDbCircle
 10
5.119589
 20
0.0
 30
2.172794
 40
1.181102362204724
210
1.0
220
0.0000000000000003
230
0.0000000000002969
100
AcDbArc
 50
0.0
 51
180.0
  0
ARC
  5
2DE
330
70
100
AcDbEntity
  8
Visible
100
AcDbCircle
 10
5.119589
 20
0.0
 30
2.330274
 40
1.181102362204724
210
1.0
220
0.0000000000000001
230
0.0000000000002969
100
AcDbArc
 50
0.0
 51
180.0
  0
ARC
  5
2DF
330
70
100
AcDbEntity
  8
Visible
100
AcDbCircle
 10
-5.119589
 20
0.0
 30
-2.369644
 40
1.141732283464566
210
-1.0
220
-0.0000000000000003
230
-0.0000000000002969
100
AcDbArc
 50
0.0
 51
180.0
  0
ARC
  5
2E0
330
70
100
AcDbEntity
  8
Visible
100
AcDbCircle
 10
-4.534999
 20
5.710141
 30
0.0
 40
0.8661417322834646
210
0.0000000000002969
220
0.0000000000000002
230
-1.0
100
AcDbArc
 50
180.0
 51
270.0
  0
ARC
  5
2E1
330
70
100
AcDbEntity
  8
Visible
100
AcDbCircle
 10
4.534999
 20
5.710141
 30
0.0
 40
0.3149606299212598
100
AcDbArc
 50
270.0
 51
0.0
  0
LINE
  5
2E2
330
70
100
AcDbEntity
  8
Visible
100
AcDbLine
 10
2.330274
 20
3.938487
 30
0.0
 11
2.172794
 21
3.938487
 31
0.0
210
0.0
220
1.0
230
0.0
  0
LINE
  5
2E3
330
70
100
AcDbEntity
  8
Visible
100
AcDbLine
 10
2.330274
 20
6.300692
 30
0.0
 11
2.172794
 21
6.300692
 31
0.0
210
0.0
220
1.0
230
0.0
  0
LINE
  5
2E4
330
70
100
AcDbEntity
  8
Visible
100
AcDbLine
 10
2.369644
 20
3.977857
 30
0.0
 11
2.330274
 21
3.938487
 31
0.0
210
0.0
220
1.0
230
0.0
  0
LINE
  5
2E5
330
70
100
AcDbEntity
  8
Visible
100
AcDbLine
 10
2.369644
 20
6.261322
 30
0.0
 11
2.330274
 21
6.300692
 31
0.0
210
0.0
220
1.0
230
0.0
  0
LINE
  5
2E6
330
70
100
AcDbEntity
  8
Visible
100
AcDbLine
 10
2.566495
 20
5.39518
 30
0.0
 11
4.534999
 21
5.39518
 31
0.0
210
0.0
220
1.0
230
0.0
  0
LINE
  5
2E7
330
70
100
AcDbEntity
  8
Visible
100
AcDbLine
 10
2.566495
 20
4.843999
 30
0.0
 11
4.534999
 21
4.843999
 31
0.0
210
0.0
220
1.0
230
0.0
  0
ARC
  5
2E8
330
70
100
AcDbEntity
  8
Visible
100
AcDbCircle
 10
-2.566495
 20
4.647148
 30
0.0
 40
0.1968503937007874
210
0.0000000000002969
220
0.0
230
-1.0
100
AcDbArc
 50
0.0
 51
90.0
  0
ARC
  5
2E9
330
70
100
AcDbEntity
  8
Visible
100
AcDbCircle
 10
-2.566495
 20
5.59203
 30
0.0
 40
0.1968503937007874
210
0.0000000000002969
220
0.0
230
-1.0
100
AcDbArc
 50
270.0
 51
360.0
  0
LINE
  5
2EA
330
70
100
AcDbEntity
  8
Visible
100
AcDbLine
 10
4.849959
 20
5.710141
 30
0.0
 11
4.849959
 21
7.035837
 31
0.0
210
0.0
220
1.0
230
0.0
  0
LINE
  5
2EB
330
70
100
AcDbEntity
  8
Visible
100
AcDbLine
 10
5.40114
 20
5.710141
 30
0.0
 11
5.40114
 21
7.035739
 31
0.0
210
0.0
220
1.0
230
0.0
  0
SPLINE
  5
2EC
330
70
100
AcDbEntity
  8
Visible
100
AcDbSpline
 70
     3
 71
     3
 72
    38
 73
    34
 74
     0
 42
0.000000001
 43
0.0000000001
 40
0.0
 40
0.0
 40
0.0
 40
0.0
 40
0.1054113349297225
 40
0.1054113349297225
 40
0.210822669859445
 40
0.210822669859445
 40
0.3162312825224884
 40
0.3162312825224884
 40
0.4216398951855318
 40
0.4216398951855318
 40
0.5270508161915629
 40
0.5270508161915629
 40
0.632461737197594
 40
0.632461737197594
 40
0.7378733242800511
 40
0.7378733242800511
 40
0.843284911362508
 40
0.843284911362508
 40
0.9486964984449651
 40
0.9486964984449651
 40
1.054108085527422
 40
1.054108085527422
 40
1.159519006533453
 40
1.159519006533453
 40
1.264929927539484
 40
1.264929927539484
 40
1.370338540202527
 40
1.370338540202527
 40
1.475747152865571
 40
1.475747152865571
 40
1.581158487795294
 40
1.581158487795294
 40
1.686569822725016
 40
1.686569822725016
 40
1.686569822725016
 40
1.686569822725016
 10
12.89772535008524
 20
4.20917581870708
 30
1.490488204388315
 10
12.88389184156403
 20
4.20917581870708
 30
1.490488204388315
 10
12.86915015613885
 20
4.211944558312097
 30
1.490060714629805
 10
12.84205440982623
 20
4.223176695371876
 30
1.48852282563269
 10
12.82969860795128
 20
4.231639015195469
 30
1.487435315763063
 10
12.81018842343837
 20
4.251149307277955
 30
1.485399322909066
 10
12.80172607346503
 20
4.263505134276783
 30
1.484317711928179
 10
12.79049398692223
 20
4.290600986623758
 30
1.48279466379964
 10
12.78772535008465
 20
4.305342667688819
 30
1.482374648510933
 10
12.78772535008465
 20
4.333009272657363
 30
1.482379916890988
 10
12.79049409539039
 20
4.347751093802799
 30
1.482805563626827
 10
12.80172636390671
 20
4.37484702243637
 30
1.484339002254914
 10
12.81018878170471
 20
4.387202796111523
 30
1.485425374133909
 10
12.82969891822176
 20
4.406712824778878
 30
1.487468903388092
 10
12.84205458115684
 20
4.415175026182623
 30
1.488559699445967
 10
12.86915015269369
 20
4.426407064556769
 30
1.490101974361484
 10
12.88389180847298
 20
4.429175818706426
 30
1.490530558065229
 10
12.91155889169749
 20
4.429175818706426
 30
1.490530558065229
 10
12.9263005474786
 20
4.426407064556769
 30
1.490101974361484
 10
12.95339611901545
 20
4.415175026182623
 30
1.488559699445967
 10
12.96575178194871
 20
4.406712824778878
 30
1.487468903388092
 10
12.98526191846576
 20
4.387202796111523
 30
1.485425374133909
 10
12.99372433626376
 20
4.37484702243637
 30
1.484339002254913
 10
13.00495660478009
 20
4.347751093802799
 30
1.482805563626826
 10
13.00772535008582
 20
4.333009272657363
 30
1.482379916890987
 10
13.00772535008582
 20
4.305342667688819
 30
1.482374648510933
 10
13.00495671325007
 20
4.290600986623758
 30
1.48279466379964
 10
12.99372462670726
 20
4.263505134276783
 30
1.484317711928179
 10
12.98526227673392
 20
4.251149307277955
 30
1.485399322909066
 10
12.96575209221919
 20
4.231639015195469
 30
1.487435315763063
 10
12.95339629034424
 20
4.223176695371876
 30
1.48852282563269
 10
12.92630054403344
 20
4.211944558312097
 30
1.490060714629804
 10
12.91155885860644
 20
4.20917581870708
 30
1.490488204388315
 10
12.89772535008524
 20
4.20917581870708
 30
1.490488204388315
1001
ACAD_VIEW_EDGE_ID
1071
        1
1071
       -1
1071
        2
1071
        0
  0
SPLINE
  5
2ED
330
70
100
AcDbEntity
  8
Visible
100
AcDbSpline
 70
     3
 71
     3
 72
    38
 73
    34
 74
     0
 42
0.000000001
 43
0.0000000001
 40
0.0
 40
0.0
 40
0.0
 40
0.0
 40
0.1054113349297223
 40
0.1054113349297223
 40
0.2108226698594445
 40
0.2108226698594445
 40
0.316231282522488
 40
0.316231282522488
 40
0.4216398951855315
 40
0.4216398951855315
 40
0.5270508161915624
 40
0.5270508161915624
 40
0.6324617371975933
 40
0.6324617371975933
 40
0.7378733242800503
 40
0.7378733242800503
 40
0.8432849113625072
 40
0.8432849113625072
 40
0.9486964984449643
 40
0.9486964984449643
 40
1.054108085527421
 40
1.054108085527421
 40
1.159519006533452
 40
1.159519006533452
 40
1.264929927539483
 40
1.264929927539483
 40
1.370338540202526
 40
1.370338540202526
 40
1.47574715286557
 40
1.47574715286557
 40
1.581158487795292
 40
1.581158487795292
 40
1.686569822725014
 40
1.686569822725014
 40
1.686569822725014
 40
1.686569822725014
 10
14.66772535008567
 20
4.20917581870708
 30
1.490488204388315
 10
14.65389184156447
 20
4.20917581870708
 30
1.490488204388315
 10
14.63915015613747
 20
4.211944558312097
 30
1.490060714629804
 10
14.61205440982667
 20
4.223176695371876
 30
1.48852282563269
 10
14.59969860795172
 20
4.231639015195469
 30
1.487435315763063
 10
14.58018842343699
 20
4.251149307277955
 30
1.485399322909066
 10
14.57172607346365
 20
4.263505134276783
 30
1.484317711928178
 10
14.56049398692085
 20
4.290600986623758
 30
1.48279466379964
 10
14.55772535008509
 20
4.305342667688819
 30
1.482374648510933
 10
14.55772535008509
 20
4.333009272657363
 30
1.482379916890987
 10
14.56049409539082
 20
4.347751093802799
 30
1.482805563626826
 10
14.57172636390714
 20
4.37484702243637
 30
1.484339002254913
 10
14.58018878170515
 20
4.387202796111523
 30
1.485425374133909
 10
14.5996989182222
 20
4.406712824778878
 30
1.487468903388092
 10
14.61205458115546
 20
4.415175026182623
 30
1.488559699445967
 10
14.63915015269231
 20
4.426407064556769
 30
1.490101974361484
 10
14.65389180847342
 20
4.429175818706426
 30
1.490530558065229
 10
14.68155889169793
 20
4.429175818706426
 30
1.490530558065229
 10
14.69630054747904
 20
4.426407064556769
 30
1.490101974361484
 10
14.72339611901407
 20
4.415175026182623
 30
1.488559699445967
 10
14.73575178194915
 20
4.406712824778878
 30
1.487468903388091
 10
14.7552619184662
 20
4.387202796111523
 30
1.485425374133908
 10
14.7637243362642
 20
4.37484702243637
 30
1.484339002254913
 10
14.77495660478053
 20
4.347751093802799
 30
1.482805563626826
 10
14.77772535008625
 20
4.333009272657363
 30
1.482379916890987
 10
14.77772535008625
 20
4.305342667688819
 30
1.482374648510932
 10
14.77495671324868
 20
4.290600986623758
 30
1.482794663799639
 10
14.76372462670588
 20
4.263505134276783
 30
1.484317711928178
 10
14.75526227673254
 20
4.251149307277955
 30
1.485399322909065
 10
14.73575209221962
 20
4.231639015195469
 30
1.487435315763062
 10
14.72339629034468
 20
4.223176695371876
 30
1.48852282563269
 10
14.69630054403387
 20
4.211944558312097
 30
1.490060714629805
 10
14.68155885860688
 20
4.20917581870708
 30
1.490488204388315
 10
14.66772535008567
 20
4.20917581870708
 30
1.490488204388315
1001
ACAD_VIEW_EDGE_ID
1071
        3
1071
       -1
1071
        2
1071
        0
  0
SPLINE
  5
2EE
330
70
100
AcDbEntity
  8
Visible
100
AcDbSpline
 70
     0
 71
     3
 72
    18
 73
    14
 74
     0
 42
0.000000001
 43
0.0000000001
 40
0.0
 40
0.0
 40
0.0
 40
0.0
 40
0.2461446714482719
 40
0.2461446714482719
 40
0.4922893428965439
 40
0.4922893428965439
 40
0.9845786857930876
 40
0.9845786857930876
 40
1.471813489760223
 40
1.471813489760223
 40
1.715430891743791
 40
1.715430891743791
 40
1.959048293727359
 40
1.959048293727359
 40
1.959048293727359
 40
1.959048293727359
 10
14.60438462210004
 20
4.811159359960583
 30
1.667058843076219
 10
14.63668707242141
 20
4.811159359960583
 30
1.667058843076219
 10
14.66952219960148
 20
4.807935059228839
 30
1.66419449724538
 10
14.73394347394242
 20
4.794934904200999
 30
1.653224922858698
 10
14.76553683808015
 20
4.785166750725693
 30
1.645152979065598
 10
14.85564024362247
 20
4.747178594323486
 30
1.616196451882577
 10
14.90954873401097
 20
4.709840505123793
 30
1.590751811582605
 10
14.99475208531839
 20
4.624637153816365
 30
1.545974871808994
 10
15.03238306262756
 20
4.570629058076519
 30
1.523194263164019
 10
15.07057803239149
 20
4.480047232655124
 30
1.499244580437777
 10
15.08037600585157
 20
4.448273327050628
 30
1.492908476533029
 10
15.09334492675225
 20
4.383752637995712
 30
1.484472402027966
 10
15.09651060635224
 20
4.351004163370816
 30
1.482377269109848
 10
15.09651060635224
 20
4.319033375710205
 30
1.482377269109848
1001
ACAD_VIEW_EDGE_ID
1071
        6
1071
       -1
1071
        2
1071
        0
  0
SPLINE
  5
2EF
330
70
100
AcDbEntity
  8
Visible
100
AcDbSpline
 70
     0
 71
     3
 72
    18
 73
    14
 74
     0
 42
0.000000001
 43
0.0000000001
 40
1.959048293727359
 40
1.959048293727359
 40
1.959048293727359
 40
1.959048293727359
 40
2.202665695710927
 40
2.202665695710927
 40
2.446283097694495
 40
2.446283097694495
 40
2.933517901661631
 40
2.933517901661631
 40
3.425807244558175
 40
3.425807244558175
 40
3.671951916006447
 40
3.671951916006447
 40
3.918096587454719
 40
3.918096587454719
 40
3.918096587454719
 40
3.918096587454719
 10
15.09651060635224
 20
4.319033375710205
 30
1.482377269109848
 10
15.09651060635224
 20
4.287062588047774
 30
1.482377269109848
 10
15.09334492675225
 20
4.254314113422879
 30
1.484472402027966
 10
15.08037600585157
 20
4.189793424367962
 30
1.492908476533029
 10
15.07057803239149
 20
4.158019518763467
 30
1.499244580437777
 10
15.03238306262756
 20
4.067437693342071
 30
1.523194263164019
 10
14.99475208531839
 20
4.013429597602225
 30
1.545974871808994
 10
14.90954873401097
 20
3.928226246294798
 30
1.590751811582605
 10
14.85564024362247
 20
3.890888157095105
 30
1.616196451882577
 10
14.76553683808015
 20
3.852900000692898
 30
1.645152979065598
 10
14.73394347394242
 20
3.84313184721941
 30
1.653224922858698
 10
14.66952219960148
 20
3.830131692189752
 30
1.66419449724538
 10
14.63668707242141
 20
3.826907391458007
 30
1.667058843076219
 10
14.60438462210004
 20
3.826907391458007
 30
1.667058843076219
1001
ACAD_VIEW_EDGE_ID
1071
        7
1071
       -1
1071
        2
1071
        0
  0
SPLINE
  5
2F0
330
70
100
AcDbEntity
  8
Visible
100
AcDbSpline
 70
     0
 71
     3
 72
    18
 73
    14
 74
     0
 42
0.000000001
 43
0.0000000001
 40
-3.918096587454718
 40
-3.918096587454718
 40
-3.918096587454718
 40
-3.918096587454718
 40
-3.671951916006447
 40
-3.671951916006447
 40
-3.425807244558175
 40
-3.425807244558175
 40
-2.933517901661632
 40
-2.933517901661632
 40
-2.446283097694496
 40
-2.446283097694496
 40
-2.202665695710928
 40
-2.202665695710928
 40
-1.959048293727359
 40
-1.959048293727359
 40
-1.959048293727359
 40
-1.959048293727359
 10
12.95871533076206
 20
3.826907391458007
 30
1.66705884307622
 10
12.92641288044069
 20
3.826907391458007
 30
1.66705884307622
 10
12.89357775326061
 20
3.830131692189752
 30
1.66419449724538
 10
12.82915647891968
 20
3.84313184721941
 30
1.653224922858699
 10
12.79756311478195
 20
3.852900000692898
 30
1.6451529790656
 10
12.70745970923963
 20
3.890888157095105
 30
1.616196451882577
 10
12.65355121885113
 20
3.928226246294798
 30
1.590751811582605
 10
12.5683478675437
 20
4.013429597602225
 30
1.545974871808995
 10
12.53071689023454
 20
4.067437693342071
 30
1.52319426316402
 10
12.49252192046879
 20
4.158019518763467
 30
1.499244580437778
 10
12.48272394701053
 20
4.189793424367962
 30
1.49290847653303
 10
12.46975502610985
 20
4.254314113422879
 30
1.484472402027966
 10
12.46658934650986
 20
4.287062588047774
 30
1.482377269109849
 10
12.46658934650986
 20
4.319033375710205
 30
1.482377269109849
1001
ACAD_VIEW_EDGE_ID
1071
       12
1071
       -1
1071
        2
1071
        0
  0
SPLINE
  5
2F1
330
70
100
AcDbEntity
  8
Visible
100
AcDbSpline
 70
     0
 71
     3
 72
    18
 73
    14
 74
     0
 42
0.000000001
 43
0.0000000001
 40
-1.959048293727359
 40
-1.959048293727359
 40
-1.959048293727359
 40
-1.959048293727359
 40
-1.715430891743792
 40
-1.715430891743792
 40
-1.471813489760224
 40
-1.471813489760224
 40
-0.9845786857930889
 40
-0.9845786857930889
 40
-0.4922893428965445
 40
-0.4922893428965445
 40
-0.2461446714482722
 40
-0.2461446714482722
 40
0.0
 40
0.0
 40
0.0
 40
0.0
 10
12.46658934650986
 20
4.319033375710205
 30
1.482377269109849
 10
12.46658934650986
 20
4.351004163370816
 30
1.482377269109849
 10
12.46975502610985
 20
4.383752637995712
 30
1.484472402027966
 10
12.48272394701053
 20
4.448273327050628
 30
1.49290847653303
 10
12.49252192046879
 20
4.480047232655124
 30
1.499244580437778
 10
12.53071689023454
 20
4.570629058076519
 30
1.523194263164019
 10
12.5683478675437
 20
4.624637153816365
 30
1.545974871808995
 10
12.65355121885113
 20
4.709840505123793
 30
1.590751811582605
 10
12.70745970923963
 20
4.747178594323486
 30
1.616196451882577
 10
12.79756311478195
 20
4.785166750725693
 30
1.6451529790656
 10
12.82915647891968
 20
4.794934904200999
 30
1.653224922858699
 10
12.89357775326061
 20
4.807935059228839
 30
1.66419449724538
 10
12.92641288044069
 20
4.811159359960583
 30
1.66705884307622
 10
12.95871533076206
 20
4.811159359960583
 30
1.66705884307622
1001
ACAD_VIEW_EDGE_ID
1071
       13
1071
       -1
1071
        2
1071
        0
  0
SPLINE
  5
2F2
330
70
100
AcDbEntity
  8
Hidden
100
AcDbSpline
 70
     3
 71
     3
 72
    38
 73
    34
 74
     0
 42
0.000000001
 43
0.0000000001
 40
0.0
 40
0.0
 40
0.0
 40
0.0
 40
0.2658424788022427
 40
0.2658424788022427
 40
0.5316849576044854
 40
0.5316849576044854
 40
0.7974108285105342
 40
0.7974108285105342
 40
1.063136699416582
 40
1.063136699416582
 40
1.328874290780239
 40
1.328874290780239
 40
1.594611882143897
 40
1.594611882143897
 40
1.860456144909293
 40
1.860456144909293
 40
2.12630040767469
 40
2.12630040767469
 40
2.392144670440087
 40
2.392144670440087
 40
2.657988933205484
 40
2.657988933205484
 40
2.923726524569141
 40
2.923726524569141
 40
3.189464115932798
 40
3.189464115932798
 40
3.455189986838847
 40
3.455189986838847
 40
3.720915857744896
 40
3.720915857744896
 40
3.986758336547138
 40
3.986758336547138
 40
4.252600815349381
 40
4.252600815349381
 40
4.252600815349381
 40
4.252600815349381
 10
13.78154997643105
 20
4.043585267525486
 30
1.430023062729352
 10
13.81643744084067
 20
4.043585267525486
 30
1.430023062729352
 10
13.85345948340727
 20
4.050609834806891
 30
1.42750386492539
 10
13.92127421276564
 20
4.078809816686771
 30
1.418620549175381
 10
13.95209154460826
 20
4.099973224678251
 30
1.412407115433318
 10
14.00074376972225
 20
4.148625983814781
 30
1.400906009747302
 10
14.02191457966364
 20
4.179447188274934
 30
1.39484127049503
 10
14.05011971144267
 20
4.247276362732009
 30
1.386306713912848
 10
14.05714052761141
 20
4.284303657665077
 30
1.383946215905246
 10
14.05714052761141
 20
4.354049517867679
 30
1.38395795284302
 10
14.05011915634714
 20
4.391077529891845
 30
1.386331105397662
 10
14.02191309880436
 20
4.45890709003288
 30
1.394889286072448
 10
14.00074194692933
 20
4.489728010590624
 30
1.400965015461387
 10
13.95208999688475
 20
4.538379426037863
 30
1.412483704965289
 10
13.92127338417231
 20
4.559542223529206
 30
1.418705000848371
 10
13.85345956693163
 20
4.587741709634428
 30
1.427599106286465
 10
13.81643767495734
 20
4.59476636988802
 30
1.430121161308359
 10
13.74666227790476
 20
4.59476636988802
 30
1.430121161308359
 10
13.70964038593047
 20
4.587741709634428
 30
1.427599106286464
 10
13.64182656868979
 20
4.559542223529206
 30
1.418705000848371
 10
13.61100995597735
 20
4.538379426037863
 30
1.412483704965289
 10
13.56235800593276
 20
4.489728010590624
 30
1.400965015461387
 10
13.54118685405592
 20
4.45890709003288
 30
1.394889286072448
 10
13.51298079651497
 20
4.391077529891845
 30
1.386331105397662
 10
13.50595942524887
 20
4.354049517867679
 30
1.38395795284302
 10
13.50595942524887
 20
4.284303657665077
 30
1.383946215905246
 10
13.51298024141942
 20
4.247276362732009
 30
1.386306713912848
 10
13.54118537319846
 20
4.179447188274934
 30
1.39484127049503
 10
13.56235618313985
 20
4.148625983814781
 30
1.400906009747302
 10
13.61100840825384
 20
4.099973224678251
 30
1.412407115433318
 10
13.64182574009464
 20
4.078809816686771
 30
1.418620549175381
 10
13.70964046945482
 20
4.050609834806891
 30
1.42750386492539
 10
13.74666251202143
 20
4.043585267525486
 30
1.430023062729352
 10
13.78154997643105
 20
4.043585267525486
 30
1.430023062729352
1001
ACAD_VIEW_EDGE_ID
1071
       16
1071
       -1
1071
        2
1071
        0
  0
LINE
  5
2F3
330
70
100
AcDbEntity
  8
Visible
100
AcDbLine
 10
14.604385
 20
4.811159
 30
1.667059
 11
12.958715
 21
4.811159
 31
1.667059
  0
LINE
  5
2F4
330
70
100
AcDbEntity
  8
Visible
100
AcDbLine
 10
12.958715
 20
3.826907
 30
1.667059
 11
14.604385
 21
3.826907
 31
1.667059
  0
ARC
  5
2F5
330
70
100
AcDbEntity
  8
Visible
100
AcDbCircle
 10
13.78155
 20
-0.486127
 30
-7.271932
 40
1.181102362204724
210
0.0
220
-1.0
230
0.0000000000000003
100
AcDbArc
 50
0.0
 51
180.0
  0
ARC
  5
2F6
330
70
100
AcDbEntity
  8
Visible
100
AcDbCircle
 10
13.78155
 20
-0.486127
 30
-7.114451
 40
1.181102362204724
210
0.0000000000000001
220
-1.0
230
0.0000000000000001
100
AcDbArc
 50
0.0
 51
180.0
  0
ARC
  5
2F7
330
70
100
AcDbEntity
  8
Visible
100
AcDbCircle
 10
-13.78155
 20
-0.486127
 30
7.075081
 40
1.141732283464566
210
-0.0000000000000002
220
1.0
230
-0.0000000000000002
100
AcDbArc
 50
0.0
 51
180.0
  0
ARC
  5
2F8
330
70
100
AcDbEntity
  8
Hidden
100
AcDbCircle
 10
13.78155
 20
-1.312898
 30
-7.212877
 40
0.0984251968503937
210
0.0
220
-1.0
230
0.0
100
AcDbArc
 50
0.0
 51
180.0
  0
ARC
  5
2F9
330
70
100
AcDbEntity
  8
Hidden
100
AcDbCircle
 10
13.065545
 20
-0.072741
 30
-7.212877
 40
0.0984251968503938
210
0.0
220
-1.0
230
0.0
100
AcDbArc
 50
360.0
 51
180.0
  0
ARC
  5
2FA
330
70
100
AcDbEntity
  8
Hidden
100
AcDbCircle
 10
14.497555
 20
-0.072741
 30
-7.212877
 40
0.0984251968503937
210
0.0
220
-1.0
230
0.0
100
AcDbArc
 50
360.0
 51
180.0
  0
ARC
  5
2FB
330
70
100
AcDbEntity
  8
Visible
100
AcDbCircle
 10
-4.909727
 20
0.104425
 30
-13.505959
 40
0.5905511811023623
210
-1.0
220
0.0
230
-0.0000000000000001
100
AcDbArc
 50
270.0
 51
279.608084
  0
ARC
  5
2FC
330
70
100
AcDbEntity
  8
Hidden
100
AcDbCircle
 10
-4.909727
 20
0.104425
 30
-13.505959
 40
0.5905511811023623
210
-1.0
220
0.0
230
-0.0000000000000002
100
AcDbArc
 50
279.608084
 51
0.0
  0
ARC
  5
2FD
330
70
100
AcDbEntity
  8
Hidden
100
AcDbCircle
 10
4.909727
 20
0.104425
 30
14.057141
 40
0.5905511811023623
210
1.0
220
0.0
230
0.0000000000000002
100
AcDbArc
 50
180.0
 51
260.391916
  0
ARC
  5
2FE
330
70
100
AcDbEntity
  8
Visible
100
AcDbCircle
 10
4.909727
 20
0.104425
 30
14.057141
 40
0.5905511811023623
210
1.0
220
0.0
230
0.0000000000000003
100
AcDbArc
 50
260.391916
 51
270.0
  0
LINE
  5
2FF
330
70
100
AcDbEntity
  8
Visible
100
AcDbLine
 10
12.600448
 20
7.114451
 30
-0.486127
 11
12.600448
 21
7.271932
 31
-0.486127
  0
LINE
  5
300
330
70
100
AcDbEntity
  8
Visible
100
AcDbLine
 10
14.962652
 20
7.114451
 30
-0.486127
 11
14.962652
 21
7.271932
 31
-0.486127
  0
LINE
  5
301
330
70
100
AcDbEntity
  8
Visible
100
AcDbLine
 10
12.639818
 20
7.075081
 30
-0.486127
 11
12.600448
 21
7.114451
 31
-0.486127
  0
LINE
  5
302
330
70
100
AcDbEntity
  8
Visible
100
AcDbLine
 10
14.923282
 20
7.075081
 30
-0.486127
 11
14.962652
 21
7.114451
 31
-0.486127
  0
LINE
  5
303
330
70
100
AcDbEntity
  8
Visible
100
AcDbLine
 10
14.057141
 20
6.878231
 30
-0.486127
 11
14.057141
 21
4.909727
 31
-0.486127
  0
LINE
  5
304
330
70
100
AcDbEntity
  8
Visible
100
AcDbLine
 10
13.505959
 20
6.878231
 30
-0.486127
 11
13.505959
 21
4.909727
 31
-0.486127
  0
ARC
  5
305
330
70
100
AcDbEntity
  8
Visible
100
AcDbCircle
 10
-13.309109
 20
6.878231
 30
0.486127
 40
0.1968503937007874
210
0.0
220
0.0
230
-1.0
100
AcDbArc
 50
90.0
 51
180.0
  0
ARC
  5
306
330
70
100
AcDbEntity
  8
Visible
100
AcDbCircle
 10
-14.253991
 20
6.878231
 30
0.486127
 40
0.1968503937007874
210
0.0
220
0.0
230
-1.0
100
AcDbArc
 50
0.0
 51
90.0
  0
LINE
  5
307
330
70
100
AcDbEntity
  8
Hidden
100
AcDbLine
 10
13.9784
 20
7.114451
 30
-1.312898
 11
13.9784
 21
7.075081
 31
-1.312898
  0
LINE
  5
308
330
70
100
AcDbEntity
  8
Hidden
100
AcDbLine
 10
13.5847
 20
7.114451
 30
-1.312898
 11
13.5847
 21
7.075081
 31
-1.312898
  0
LINE
  5
309
330
70
100
AcDbEntity
  8
Hidden
100
AcDbLine
 10
13.879975
 20
7.271932
 30
-1.312898
 11
13.879975
 21
7.212877
 31
-1.312898
  0
LINE
  5
30A
330
70
100
AcDbEntity
  8
Hidden
100
AcDbLine
 10
13.683125
 20
7.271932
 30
-1.312898
 11
13.683125
 21
7.212877
 31
-1.312898
  0
LINE
  5
30B
330
70
100
AcDbEntity
  8
Hidden
100
AcDbLine
 10
13.879975
 20
7.212877
 30
-1.312898
 11
13.9784
 21
7.114451
 31
-1.312898
  0
LINE
  5
30C
330
70
100
AcDbEntity
  8
Hidden
100
AcDbLine
 10
13.683125
 20
7.212877
 30
-1.312898
 11
13.5847
 21
7.114451
 31
-1.312898
  0
LINE
  5
30D
330
70
100
AcDbEntity
  8
Hidden
100
AcDbLine
 10
13.262395
 20
7.114451
 30
-0.072741
 11
13.262395
 21
7.075081
 31
-0.072741
  0
LINE
  5
30E
330
70
100
AcDbEntity
  8
Hidden
100
AcDbLine
 10
12.868694
 20
7.114451
 30
-0.072741
 11
12.868694
 21
7.075081
 31
-0.072741
  0
LINE
  5
30F
330
70
100
AcDbEntity
  8
Hidden
100
AcDbLine
 10
13.16397
 20
7.271932
 30
-0.072741
 11
13.16397
 21
7.212877
 31
-0.072741
  0
LINE
  5
310
330
70
100
AcDbEntity
  8
Hidden
100
AcDbLine
 10
12.96712
 20
7.271932
 30
-0.072741
 11
12.96712
 21
7.212877
 31
-0.072741
  0
LINE
  5
311
330
70
100
AcDbEntity
  8
Hidden
100
AcDbLine
 10
13.16397
 20
7.212877
 30
-0.072741
 11
13.262395
 21
7.114451
 31
-0.072741
  0
LINE
  5
312
330
70
100
AcDbEntity
  8
Hidden
100
AcDbLine
 10
12.96712
 20
7.212877
 30
-0.072741
 11
12.868694
 21
7.114451
 31
-0.072741
  0
LINE
  5
313
330
70
100
AcDbEntity
  8
Hidden
100
AcDbLine
 10
14.694406
 20
7.114451
 30
-0.072741
 11
14.694406
 21
7.075081
 31
-0.072741
  0
LINE
  5
314
330
70
100
AcDbEntity
  8
Hidden
100
AcDbLine
 10
14.300705
 20
7.114451
 30
-0.072741
 11
14.300705
 21
7.075081
 31
-0.072741
  0
LINE
  5
315
330
70
100
AcDbEntity
  8
Hidden
100
AcDbLine
 10
14.59598
 20
7.271932
 30
-0.072741
 11
14.59598
 21
7.212877
 31
-0.072741
  0
LINE
  5
316
330
70
100
AcDbEntity
  8
Hidden
100
AcDbLine
 10
14.39913
 20
7.271932
 30
-0.072741
 11
14.39913
 21
7.212877
 31
-0.072741
  0
LINE
  5
317
330
70
100
AcDbEntity
  8
Hidden
100
AcDbLine
 10
14.59598
 20
7.212877
 30
-0.072741
 11
14.694406
 21
7.114451
 31
-0.072741
  0
LINE
  5
318
330
70
100
AcDbEntity
  8
Hidden
100
AcDbLine
 10
14.39913
 20
7.212877
 30
-0.072741
 11
14.300705
 21
7.114451
 31
-0.072741
  0
ENDSEC
  0
SECTION
  2
OBJECTS
  0
DICTIONARY
  5
C
330
0
100
AcDbDictionary
281
     1
  3
ACAD_COLOR
350
63
  3
ACAD_DETAILVIEWSTYLE
350
6A
  3
ACAD_GROUP
350
D
  3
ACAD_IMAGE_DICT
350
134
  3
ACAD_IMAGE_VARS
350
136
  3
ACAD_LAYOUT
350
62
  3
ACAD_MATERIAL
350
10
  3
ACAD_MLEADERSTYLE
350
66
  3
ACAD_MLINESTYLE
350
5F
  3
ACAD_PLOTSETTINGS
350
61
  3
ACAD_PLOTSTYLENAME
350
E
  3
ACAD_SCALELIST
350
42
  3
ACAD_SECTIONVIEWSTYLE
350
68
  3
ACAD_TABLESTYLE
350
64
  3
ACAD_VISUALSTYLE
350
29
  3
ACDB_RECOMPOSE_DATA
350
35A
  3
AcDbVariableDictionary
350
351
  0
DICTIONARY
  5
B4
330
70
100
AcDbDictionary
280
     1
281
     1
  3
ACAD_SORTENTS
360
12A
  0
DICTIONARY
  5
12E
330
12D
100
AcDbDictionary
280
     1
281
     1
  3
ACAD_SORTENTS
360
2B7
  0
IMAGEDEF_REACTOR
  5
135
330
132
100
AcDbRasterImageDefReactor
 90
        2
330
132
  0
DICTIONARY
  5
63
102
{ACAD_REACTORS
330
C
102
}
330
C
100
AcDbDictionary
281
     1
  0
DICTIONARY
  5
6A
102
{ACAD_REACTORS
330
C
102
}
330
C
100
AcDbDictionary
281
     1
  3
Imperial24
350
6B
  0
DICTIONARY
  5
D
102
{ACAD_REACTORS
330
C
102
}
330
C
100
AcDbDictionary
281
     1
  0
DICTIONARY
  5
134
102
{ACAD_REACTORS
330
C
102
}
330
C
100
AcDbDictionary
281
     1
  3
morse_logo-16 (1)_01-2018(B)_1_1
350
133
  0
RASTERVARIABLES
  5
136
102
{ACAD_REACTORS
330
C
102
}
330
C
100
AcDbRasterVariables
 90
        0
 70
     0
 71
     1
 72
     5
  0
DICTIONARY
  5
62
102
{ACAD_REACTORS
330
C
102
}
330
C
100
AcDbDictionary
281
     1
  3
Model
350
73
  3
Sheet1
350
6F
  3
Sheet2
350
77
  0
DICTIONARY
  5
10
102
{ACAD_REACTORS
330
C
102
}
330
C
100
AcDbDictionary
281
     1
  3
ByBlock
350
19
  3
ByLayer
350
11
  3
Global
350
21
  0
DICTIONARY
  5
66
102
{ACAD_REACTORS
330
C
102
}
330
C
100
AcDbDictionary
281
     1
  3
Standard
350
67
  0
DICTIONARY
  5
5F
102
{ACAD_REACTORS
330
C
102
}
330
C
100
AcDbDictionary
281
     1
  3
Standard
350
60
  0
DICTIONARY
  5
61
102
{ACAD_REACTORS
330
C
102
}
330
C
100
AcDbDictionary
281
     1
  0
ACDBDICTIONARYWDFLT
  5
E
102
{ACAD_REACTORS
330
C
102
}
330
C
100
AcDbDictionary
281
     1
  3
Normal
350
F
100
AcDbDictionaryWithDefault
340
F
  0
DICTIONARY
  5
42
102
{ACAD_REACTORS
330
C
102
}
330
C
100
AcDbDictionary
281
     1
  3
*A1
350
A4
  3
*A10
350
AD
  3
*A11
350
AE
  3
*A12
350
AF
  3
*A13
350
B0
  3
*A14
350
B1
  3
*A15
350
B2
  3
*A16
350
B3
  3
*A2
350
A5
  3
*A3
350
A6
  3
*A4
350
A7
  3
*A5
350
A8
  3
*A6
350
A9
  3
*A7
350
AA
  3
*A8
350
AB
  3
*A9
350
AC
  3
A0
350
43
  3
A1
350
44
  3
A2
350
45
  3
A3
350
46
  3
A4
350
47
  3
A5
350
48
  3
A6
350
49
  3
A7
350
4A
  3
A8
350
4B
  3
A9
350
4C
  3
B0
350
4D
  3
B1
350
4E
  3
B2
350
4F
  3
B3
350
50
  3
B4
350
51
  3
B5
350
52
  3
B6
350
53
  0
DICTIONARY
  5
68
102
{ACAD_REACTORS
330
C
102
}
330
C
100
AcDbDictionary
281
     1
  3
Imperial24
350
69
  0
DICTIONARY
  5
64
102
{ACAD_REACTORS
330
C
102
}
330
C
100
AcDbDictionary
281
     1
  3
Standard
350
65
  0
DICTIONARY
  5
29
102
{ACAD_REACTORS
330
C
102
}
330
C
100
AcDbDictionary
281
     1
  3
2dWireframe
350
2F
  3
Basic
350
2E
  3
Brighten
350
35
  3
ColorChange
350
39
  3
Conceptual
350
32
  3
Dim
350
34
  3
EdgeColorOff
350
41
  3
Facepattern
350
38
  3
Flat
350
2A
  3
FlatWithEdges
350
2B
  3
Gouraud
350
2C
  3
GouraudWithEdges
350
2D
  3
Hidden
350
31
  3
JitterOff
350
3F
  3
Linepattern
350
37
  3
OverhangOff
350
40
  3
Realistic
350
33
  3
Shaded
350
3E
  3
Shaded with edges
350
3D
  3
Shades of Gray
350
3A
  3
Sketchy
350
3B
  3
Thicken
350
36
  3
Wireframe
350
30
  3
X-Ray
350
3C
  0
XRECORD
  5
35A
102
{ACAD_REACTORS
330
C
102
}
330
C
100
AcDbXrecord
280
     1
 90
        1
330
65
330
13A
330
144
330
145
330
146
330
149
  0
DICTIONARY
  5
351
102
{ACAD_REACTORS
330
C
102
}
330
C
100
AcDbDictionary
281
     1
  3
ANNOALLVISIBLE
350
356
  3
CANNOSCALE
350
357
  3
CMLEADERSTYLE
350
353
  3
CTABLESTYLE
350
352
  3
CVIEWDETAILSTYLE
350
354
  3
CVIEWSECTIONSTYLE
350
355
  0
SORTENTSTABLE
  5
12A
102
{ACAD_REACTORS
330
B4
102
}
330
B4
100
AcDbSortentsTable
330
70
  0
SORTENTSTABLE
  5
2B7
102
{ACAD_REACTORS
330
12E
102
}
330
12E
100
AcDbSortentsTable
330
12D
  0
ACDBDETAILVIEWSTYLE
  5
6B
102
{ACAD_XDICTIONARY
360
35D
102
}
102
{ACAD_REACTORS
330
6A
102
}
330
6A
100
AcDbModelDocViewStyle
 70
     0
  3
Imperial24
290
     0
100
AcDbDetailViewStyle
 70
     0
 71
     0
 90
        3
 71
     1
340
55
 62
   256
 40
0.24
340
0
 62
   256
 40
0.24
300

 40
0.36
280
     3
 71
     2
340
5D
 90
       25
 62
   256
 71
     3
340
55
 62
   256
 40
0.24
 90
        1
 40
0.75
 90
        1
300
%<\AcVar ViewType \f "%tc1">% %<\AcVar ViewDetailId>%\PSCALE %<\AcVar ViewScale \f "%sn">%
 71
     4
340
5D
 90
       25
 62
   256
340
5D
 90
       25
 62
   256
280
     0
  0
IMAGEDEF
  5
133
102
{ACAD_REACTORS
330
134
330
135
330
319
102
}
330
134
100
AcDbRasterImageDef
 90
        0
  1
morse_logo-16 (1)_01-2018(B)_1_1.jpg
 10
948.0
 20
333.0
 11
0.264583
 21
0.264583
280
     1
281
     5
  0
LAYOUT
  5
73
102
{ACAD_REACTORS
330
62
102
}
330
62
100
AcDbPlotSettings
  1

  2
AutoCAD PDF (High Quality Print).pc3
  4
ANSI_full_bleed_B_(17.00_x_11.00_Inches)
  6

 40
0.0
 41
0.0
 42
0.0
 43
0.0
 44
431.799988
 45
279.399994
 46
0.0
 47
0.0
 48
0.0
 49
0.0
140
0.0
141
0.0
142
1.0
143
2.127479
 70
 11952
 72
     0
 73
     0
 74
     0
  7

 75
     0
147
0.47004
 76
     0
 77
     2
 78
   300
148
283.978883
149
66.104061
100
AcDbLayout
  1
Model
 70
     1
 71
     0
 10
0.0
 20
0.0
 11
12.0
 21
9.0
 12
0.0
 22
0.0
 32
0.0
 14
0.0
 24
0.0
 34
0.0
 15
0.0
 25
0.0
 35
0.0
146
0.0
 13
0.0
 23
0.0
 33
0.0
 16
1.0
 26
0.0
 36
0.0
 17
0.0
 27
1.0
 37
0.0
 76
     0
330
70
1001
ACAD_PSEXT
1000
AutoCAD PDF (High Quality Print).pc3
1000
DWG To PDF
1000
File
1000

1070
     0
  0
LAYOUT
  5
6F
102
{ACAD_REACTORS
330
62
102
}
330
62
100
AcDbPlotSettings
  1

  2
None
  4

  6

 40
0.0
 41
0.0
 42
0.0
 43
0.0
 44
0.0
 45
0.0
 46
0.0
 47
0.0
 48
0.0
 49
0.0
140
0.0
141
0.0
142
1.0
143
1.0
 70
   688
 72
     0
 73
     0
 74
     5
  7

 75
    16
147
1.0
 76
     0
 77
     2
 78
   300
148
0.0
149
0.0
100
AcDbLayout
  1
Sheet1
 70
     1
 71
     1
 10
0.0
 20
0.0
 11
12.0
 21
9.0
 12
0.0
 22
0.0
 32
0.0
 14
0.0
 24
0.0
 34
0.0
 15
0.0
 25
0.0
 35
0.0
146
0.0
 13
0.0
 23
0.0
 33
0.0
 16
1.0
 26
0.0
 36
0.0
 17
0.0
 27
1.0
 37
0.0
 76
     0
330
6C
  0
LAYOUT
  5
77
102
{ACAD_REACTORS
330
62
102
}
330
62
100
AcDbPlotSettings
  1

  2
None
  4

  6

 40
0.0
 41
0.0
 42
0.0
 43
0.0
 44
0.0
 45
0.0
 46
0.0
 47
0.0
 48
0.0
 49
0.0
140
0.0
141
0.0
142
1.0
143
1.0
 70
   688
 72
     0
 73
     0
 74
     5
  7

 75
    16
147
1.0
 76
     0
 77
     2
 78
   300
148
0.0
149
0.0
100
AcDbLayout
  1
Sheet2
 70
     1
 71
     2
 10
0.0
 20
0.0
 11
12.0
 21
9.0
 12
0.0
 22
0.0
 32
0.0
 14
0.0
 24
0.0
 34
0.0
 15
0.0
 25
0.0
 35
0.0
146
0.0
 13
0.0
 23
0.0
 33
0.0
 16
1.0
 26
0.0
 36
0.0
 17
0.0
 27
1.0
 37
0.0
 76
     0
330
74
  0
MATERIAL
  5
19
102
{ACAD_XDICTIONARY
360
1A
102
}
102
{ACAD_REACTORS
330
10
102
}
330
10
100
AcDbMaterial
  1
ByBlock
 72
     0
 43
0.020833
 43
0.0
 43
0.0
 43
0.0
 43
0.0
 43
0.020833
 43
0.0
 43
0.0
 43
0.0
 43
0.0
 43
1.0
 43
0.0
 43
0.0
 43
0.0
 43
0.0
 43
1.0
 77
     0
 47
0.020833
 47
0.0
 47
0.0
 47
0.0
 47
0.0
 47
0.020833
 47
0.0
 47
0.0
 47
0.0
 47
0.0
 47
1.0
 47
0.0
 47
0.0
 47
0.0
 47
0.0
 47
1.0
171
     0
 49
0.020833
 49
0.0
 49
0.0
 49
0.0
 49
0.0
 49
0.020833
 49
0.0
 49
0.0
 49
0.0
 49
0.0
 49
1.0
 49
0.0
 49
0.0
 49
0.0
 49
0.0
 49
1.0
175
     0
142
0.020833
142
0.0
142
0.0
142
0.0
142
0.0
142
0.020833
142
0.0
142
0.0
142
0.0
142
0.0
142
1.0
142
0.0
142
0.0
142
0.0
142
0.0
142
1.0
179
     0
144
0.020833
144
0.0
144
0.0
144
0.0
144
0.0
144
0.020833
144
0.0
144
0.0
144
0.0
144
0.0
144
1.0
144
0.0
144
0.0
144
0.0
144
0.0
144
1.0
147
0.020833
147
0.0
147
0.0
147
0.0
147
0.0
147
0.020833
147
0.0
147
0.0
147
0.0
147
0.0
147
1.0
147
0.0
147
0.0
147
0.0
147
0.0
147
1.0
  0
MATERIAL
  5
11
102
{ACAD_XDICTIONARY
360
12
102
}
102
{ACAD_REACTORS
330
10
102
}
330
10
100
AcDbMaterial
  1
ByLayer
 72
     0
 43
0.020833
 43
0.0
 43
0.0
 43
0.0
 43
0.0
 43
0.020833
 43
0.0
 43
0.0
 43
0.0
 43
0.0
 43
1.0
 43
0.0
 43
0.0
 43
0.0
 43
0.0
 43
1.0
 77
     0
 47
0.020833
 47
0.0
 47
0.0
 47
0.0
 47
0.0
 47
0.020833
 47
0.0
 47
0.0
 47
0.0
 47
0.0
 47
1.0
 47
0.0
 47
0.0
 47
0.0
 47
0.0
 47
1.0
171
     0
 49
0.020833
 49
0.0
 49
0.0
 49
0.0
 49
0.0
 49
0.020833
 49
0.0
 49
0.0
 49
0.0
 49
0.0
 49
1.0
 49
0.0
 49
0.0
 49
0.0
 49
0.0
 49
1.0
175
     0
142
0.020833
142
0.0
142
0.0
142
0.0
142
0.0
142
0.020833
142
0.0
142
0.0
142
0.0
142
0.0
142
1.0
142
0.0
142
0.0
142
0.0
142
0.0
142
1.0
179
     0
144
0.020833
144
0.0
144
0.0
144
0.0
144
0.0
144
0.020833
144
0.0
144
0.0
144
0.0
144
0.0
144
1.0
144
0.0
144
0.0
144
0.0
144
0.0
144
1.0
147
0.020833
147
0.0
147
0.0
147
0.0
147
0.0
147
0.020833
147
0.0
147
0.0
147
0.0
147
0.0
147
1.0
147
0.0
147
0.0
147
0.0
147
0.0
147
1.0
  0
MATERIAL
  5
21
102
{ACAD_XDICTIONARY
360
22
102
}
102
{ACAD_REACTORS
330
10
102
}
330
10
100
AcDbMaterial
  1
Global
 72
     0
 43
0.020833
 43
0.0
 43
0.0
 43
0.0
 43
0.0
 43
0.020833
 43
0.0
 43
0.0
 43
0.0
 43
0.0
 43
1.0
 43
0.0
 43
0.0
 43
0.0
 43
0.0
 43
1.0
 77
     0
 47
0.020833
 47
0.0
 47
0.0
 47
0.0
 47
0.0
 47
0.020833
 47
0.0
 47
0.0
 47
0.0
 47
0.0
 47
1.0
 47
0.0
 47
0.0
 47
0.0
 47
0.0
 47
1.0
171
     0
 49
0.020833
 49
0.0
 49
0.0
 49
0.0
 49
0.0
 49
0.020833
 49
0.0
 49
0.0
 49
0.0
 49
0.0
 49
1.0
 49
0.0
 49
0.0
 49
0.0
 49
0.0
 49
1.0
175
     0
142
0.020833
142
0.0
142
0.0
142
0.0
142
0.0
142
0.020833
142
0.0
142
0.0
142
0.0
142
0.0
142
1.0
142
0.0
142
0.0
142
0.0
142
0.0
142
1.0
179
     0
144
0.020833
144
0.0
144
0.0
144
0.0
144
0.0
144
0.020833
144
0.0
144
0.0
144
0.0
144
0.0
144
1.0
144
0.0
144
0.0
144
0.0
144
0.0
144
1.0
147
0.020833
147
0.0
147
0.0
147
0.0
147
0.0
147
0.020833
147
0.0
147
0.0
147
0.0
147
0.0
147
1.0
147
0.0
147
0.0
147
0.0
147
0.0
147
1.0
  0
MLEADERSTYLE
  5
67
102
{ACAD_REACTORS
330
66
102
}
330
66
100
AcDbMLeaderStyle
179
     2
170
     2
171
     1
172
     0
 90
        2
 40
0.0
 41
0.0
173
     1
 91
-1056964608
340
5B
 92
       -2
290
     1
 42
0.09
291
     1
 43
0.36
  3
Standard
 44
0.18
300

342
55
174
     1
178
     6
175
     1
176
     0
 93
-1056964608
 45
0.18
292
     0
297
     0
 46
0.18
 94
-1056964608
 47
1.0
 49
1.0
140
1.0
293
     1
141
0.0
294
     1
177
     0
142
1.0
295
     0
296
     0
143
0.125
271
     0
272
     9
273
     9
298
     1
  0
MLINESTYLE
  5
60
102
{ACAD_REACTORS
330
5F
102
}
330
5F
100
AcDbMlineStyle
  2
STANDARD
 70
     0
  3

 62
   256
 51
90.0
 52
90.0
 71
     0
  0
ACDBPLACEHOLDER
  5
F
102
{ACAD_REACTORS
330
E
102
}
330
E
  0
SCALE
  5
A4
102
{ACAD_REACTORS
330
42
102
}
330
42
100
AcDbScale
 70
     0
300
1:2
140
1.0
141
2.0
290
     0
  0
SCALE
  5
AD
102
{ACAD_REACTORS
330
42
102
}
330
42
100
AcDbScale
 70
     0
300
1:50
140
1.0
141
50.0
290
     0
  0
SCALE
  5
AE
102
{ACAD_REACTORS
330
42
102
}
330
42
100
AcDbScale
 70
     0
300
1:100
140
1.0
141
100.0
290
     0
  0
SCALE
  5
AF
102
{ACAD_REACTORS
330
42
102
}
330
42
100
AcDbScale
 70
     0
300
2:1
140
2.0
141
1.0
290
     0
  0
SCALE
  5
B0
102
{ACAD_REACTORS
330
42
102
}
330
42
100
AcDbScale
 70
     0
300
4:1
140
4.0
141
1.0
290
     0
  0
SCALE
  5
B1
102
{ACAD_REACTORS
330
42
102
}
330
42
100
AcDbScale
 70
     0
300
8:1
140
8.0
141
1.0
290
     0
  0
SCALE
  5
B2
102
{ACAD_REACTORS
330
42
102
}
330
42
100
AcDbScale
 70
     0
300
10:1
140
10.0
141
1.0
290
     0
  0
SCALE
  5
B3
102
{ACAD_REACTORS
330
42
102
}
330
42
100
AcDbScale
 70
     0
300
100:1
140
100.0
141
1.0
290
     0
  0
SCALE
  5
A5
102
{ACAD_REACTORS
330
42
102
}
330
42
100
AcDbScale
 70
     0
300
1:4
140
1.0
141
4.0
290
     0
  0
SCALE
  5
A6
102
{ACAD_REACTORS
330
42
102
}
330
42
100
AcDbScale
 70
     0
300
1:5
140
1.0
141
5.0
290
     0
  0
SCALE
  5
A7
102
{ACAD_REACTORS
330
42
102
}
330
42
100
AcDbScale
 70
     0
300
1:8
140
1.0
141
8.0
290
     0
  0
SCALE
  5
A8
102
{ACAD_REACTORS
330
42
102
}
330
42
100
AcDbScale
 70
     0
300
1:10
140
1.0
141
10.0
290
     0
  0
SCALE
  5
A9
102
{ACAD_REACTORS
330
42
102
}
330
42
100
AcDbScale
 70
     0
300
1:16
140
1.0
141
16.0
290
     0
  0
SCALE
  5
AA
102
{ACAD_REACTORS
330
42
102
}
330
42
100
AcDbScale
 70
     0
300
1:20
140
1.0
141
20.0
290
     0
  0
SCALE
  5
AB
102
{ACAD_REACTORS
330
42
102
}
330
42
100
AcDbScale
 70
     0
300
1:30
140
1.0
141
30.0
290
     0
  0
SCALE
  5
AC
102
{ACAD_REACTORS
330
42
102
}
330
42
100
AcDbScale
 70
     0
300
1:40
140
1.0
141
40.0
290
     0
  0
SCALE
  5
43
102
{ACAD_REACTORS
330
42
102
}
330
42
100
AcDbScale
 70
     0
300
1:1
140
1.0
141
1.0
290
     1
  0
SCALE
  5
44
102
{ACAD_REACTORS
330
42
102
}
330
42
100
AcDbScale
 70
     0
300
1/128" = 1'-0"
140
0.007813
141
12.0
290
     0
  0
SCALE
  5
45
102
{ACAD_REACTORS
330
42
102
}
330
42
100
AcDbScale
 70
     0
300
1/64" = 1'-0"
140
0.015625
141
12.0
290
     0
  0
SCALE
  5
46
102
{ACAD_REACTORS
330
42
102
}
330
42
100
AcDbScale
 70
     0
300
1/32" = 1'-0"
140
0.03125
141
12.0
290
     0
  0
SCALE
  5
47
102
{ACAD_REACTORS
330
42
102
}
330
42
100
AcDbScale
 70
     0
300
1/16" = 1'-0"
140
0.0625
141
12.0
290
     0
  0
SCALE
  5
48
102
{ACAD_REACTORS
330
42
102
}
330
42
100
AcDbScale
 70
     0
300
3/32" = 1'-0"
140
0.09375
141
12.0
290
     0
  0
SCALE
  5
49
102
{ACAD_REACTORS
330
42
102
}
330
42
100
AcDbScale
 70
     0
300
1/8" = 1'-0"
140
0.125
141
12.0
290
     0
  0
SCALE
  5
4A
102
{ACAD_REACTORS
330
42
102
}
330
42
100
AcDbScale
 70
     0
300
3/16" = 1'-0"
140
0.1875
141
12.0
290
     0
  0
SCALE
  5
4B
102
{ACAD_REACTORS
330
42
102
}
330
42
100
AcDbScale
 70
     0
300
1/4" = 1'-0"
140
0.25
141
12.0
290
     0
  0
SCALE
  5
4C
102
{ACAD_REACTORS
330
42
102
}
330
42
100
AcDbScale
 70
     0
300
3/8" = 1'-0"
140
0.375
141
12.0
290
     0
  0
SCALE
  5
4D
102
{ACAD_REACTORS
330
42
102
}
330
42
100
AcDbScale
 70
     0
300
1/2" = 1'-0"
140
0.5
141
12.0
290
     0
  0
SCALE
  5
4E
102
{ACAD_REACTORS
330
42
102
}
330
42
100
AcDbScale
 70
     0
300
3/4" = 1'-0"
140
0.75
141
12.0
290
     0
  0
SCALE
  5
4F
102
{ACAD_REACTORS
330
42
102
}
330
42
100
AcDbScale
 70
     0
300
1" = 1'-0"
140
1.0
141
12.0
290
     0
  0
SCALE
  5
50
102
{ACAD_REACTORS
330
42
102
}
330
42
100
AcDbScale
 70
     0
300
1-1/2" = 1'-0"
140
1.5
141
12.0
290
     0
  0
SCALE
  5
51
102
{ACAD_REACTORS
330
42
102
}
330
42
100
AcDbScale
 70
     0
300
3" = 1'-0"
140
3.0
141
12.0
290
     0
  0
SCALE
  5
52
102
{ACAD_REACTORS
330
42
102
}
330
42
100
AcDbScale
 70
     0
300
6" = 1'-0"
140
6.0
141
12.0
290
     0
  0
SCALE
  5
53
102
{ACAD_REACTORS
330
42
102
}
330
42
100
AcDbScale
 70
     0
300
1'-0" = 1'-0"
140
12.0
141
12.0
290
     0
  0
ACDBSECTIONVIEWSTYLE
  5
69
102
{ACAD_XDICTIONARY
360
35B
102
}
102
{ACAD_REACTORS
330
68
102
}
330
68
100
AcDbModelDocViewStyle
 70
     0
  3
Imperial24
290
     0
100
AcDbSectionViewStyle
 70
     0
 71
     0
 90
       78
 71
     1
340
55
 62
   256
 40
0.24
340
0
340
0
 62
   256
 40
0.24
300
I, O, Q, S, X, Z
 40
0.48
 90
        3
 40
0.18
 90
        1
 71
     2
340
5D
 90
       25
 62
   256
340
5D
 90
       50
 62
   256
 40
0.24
 40
0.0
 40
0.24
 71
     3
340
55
 62
   256
 40
0.24
 90
        1
 40
0.75
 90
        1
300
%<\AcVar ViewType \f "%tc1">% %<\AcVar ViewSectionStartId>%-%<\AcVar ViewSectionEndId>%\PSCALE %<\AcVar ViewScale \f "%sn">%
 71
     4
 62
   256
 62
   257
300
ANSI31
 40
1.0
 90
        0
290
     0
290
     0
 90
        6
 40
0.0
 40
1.570796
 40
0.261799
 40
1.308997
 40
-0.261799
 40
1.832596
  0
TABLESTYLE
  5
65
102
{ACAD_XDICTIONARY
360
358
102
}
102
{ACAD_REACTORS
330
64
102
}
330
64
100
AcDbTableStyle
280
     0
  3
Standard
 70
     0
 71
     0
 40
0.06
 41
0.06
280
     0
281
     0
  7
Standard
140
0.18
170
     2
 62
     0
 63
     7
283
     0
 90
      512
 91
        0
  1

274
    -2
284
     1
 64
     0
275
    -2
285
     1
 65
     0
276
    -2
286
     1
 66
     0
277
    -2
287
     1
 67
     0
278
    -2
288
     1
 68
     0
279
    -2
289
     1
 69
     0
  7
Standard
140
0.25
170
     5
 62
     0
 63
     7
283
     0
 90
      512
 91
        0
  1

274
    -2
284
     1
 64
     0
275
    -2
285
     1
 65
     0
276
    -2
286
     1
 66
     0
277
    -2
287
     1
 67
     0
278
    -2
288
     1
 68
     0
279
    -2
289
     1
 69
     0
  7
Standard
140
0.18
170
     5
 62
     0
 63
     7
283
     0
 90
      512
 91
        0
  1

274
    -2
284
     1
 64
     0
275
    -2
285
     1
 65
     0
276
    -2
286
     1
 66
     0
277
    -2
287
     1
 67
     0
278
    -2
288
     1
 68
     0
279
    -2
289
     1
 69
     0
  0
VISUALSTYLE
  5
2F
102
{ACAD_REACTORS
330
29
102
}
330
29
100
AcDbVisualStyle
  2
2dWireframe
 70
     4
177
     3
291
     0
 70
    58
 90
        0
176
     1
 90
        2
176
     1
 90
        0
176
     1
 90
        0
176
     1
 40
0.6
176
     1
 40
30.0
176
     1
 62
     7
420
 16777215
176
     1
 90
        1
176
     1
 90
        4
176
     1
 62
     7
176
     1
 62
   257
176
     1
 90
        1
176
     1
 90
        1
176
     1
 40
1.0
176
     1
 90
        0
176
     1
 62
   257
176
     1
 40
1.0
176
     1
 90
        1
176
     1
 90
        6
176
     1
 90
        2
176
     1
 62
     7
176
     1
 90
        5
176
     1
 90
        0
176
     1
 90
        0
176
     1
290
     0
176
     1
 90
        1
176
     1
 40
0.0
176
     1
 90
        0
176
     1
290
     1
176
     1
290
     1
176
     1
290
     0
176
     1
290
     0
176
     1
290
     0
176
     1
290
     0
176
     1
290
     0
176
     1
290
     0
176
     1
290
     0
176
     1
 90
       50
176
     1
 40
0.0
176
     1
 40
1.0
176
     1
 90
        0
176
     1
 62
    18
420
        0
176
     1
 90
       50
176
     1
 90
        3
176
     1
 62
     5
420
      255
176
     1
290
     0
176
     1
 90
       50
176
     1
 90
       50
176
     1
 90
       50
176
     1
290
     0
176
     1
 90
       50
176
     1
 62
   256
176
     0
 40
1.0
176
     0
 90
        2
176
     1
  1
strokes_ogs.tif
176
     1
290
     0
176
     1
 40
1.0
176
     1
 40
1.0
176
     1
1001
ACAD
1000
AcDbSavedByObjectVersion
1070
     0
  0
VISUALSTYLE
  5
2E
102
{ACAD_REACTORS
330
29
102
}
330
29
100
AcDbVisualStyle
  2
Basic
 70
     7
177
     3
291
     1
 70
    58
 90
        1
176
     1
 90
        0
176
     1
 90
        1
176
     1
 90
        0
176
     1
 40
0.6
176
     1
 40
30.0
176
     1
 62
     7
420
 16777215
176
     1
 90
        0
176
     1
 90
        4
176
     1
 62
     7
176
     1
 62
   257
176
     1
 90
        1
176
     1
 90
        1
176
     1
 40
1.0
176
     1
 90
        8
176
     1
 62
     7
176
     1
 40
1.0
176
     1
 90
        1
176
     1
 90
        6
176
     1
 90
        2
176
     1
 62
     7
176
     1
 90
        5
176
     1
 90
        0
176
     1
 90
        0
176
     1
290
     0
176
     1
 90
        1
176
     1
 40
0.0
176
     1
 90
        0
176
     1
290
     0
176
     1
290
     1
176
     1
290
     1
176
     1
290
     0
176
     1
290
     0
176
     1
290
     0
176
     1
290
     0
176
     1
290
     0
176
     1
290
     0
176
     1
 90
       50
176
     1
 40
0.0
176
     1
 40
1.0
176
     1
 90
        0
176
     1
 62
    18
420
        0
176
     1
 90
       50
176
     1
 90
        3
176
     1
 62
     5
420
      255
176
     1
290
     0
176
     1
 90
       50
176
     1
 90
       50
176
     1
 90
       50
176
     1
290
     0
176
     1
 90
       50
176
     1
 62
   256
176
     0
 40
1.0
176
     0
 90
        2
176
     1
  1
strokes_ogs.tif
176
     1
290
     0
176
     1
 40
1.0
176
     1
 40
1.0
176
     1
1001
ACAD
1000
AcDbSavedByObjectVersion
1070
     0
  0
VISUALSTYLE
  5
35
102
{ACAD_REACTORS
330
29
102
}
330
29
100
AcDbVisualStyle
  2
Brighten
 70
    12
177
     3
291
     1
 70
    58
 90
        2
176
     1
 90
        2
176
     1
 90
        0
176
     1
 90
        0
176
     1
 40
0.6
176
     1
 40
30.0
176
     1
 62
     7
420
 16777215
176
     1
 90
        1
176
     1
 90
        4
176
     1
 62
     7
176
     1
 62
   257
176
     1
 90
        1
176
     1
 90
        1
176
     1
 40
1.0
176
     1
 90
        8
176
     1
 62
     7
176
     1
 40
1.0
176
     1
 90
        1
176
     1
 90
        6
176
     1
 90
        2
176
     1
 62
     7
176
     1
 90
        5
176
     1
 90
        0
176
     1
 90
        0
176
     1
290
     0
176
     1
 90
        1
176
     1
 40
50.0
176
     1
 90
        0
176
     1
290
     0
176
     1
290
     1
176
     1
290
     1
176
     1
290
     0
176
     1
290
     0
176
     1
290
     0
176
     1
290
     0
176
     1
290
     0
176
     1
290
     0
176
     1
 90
       50
176
     1
 40
0.0
176
     1
 40
1.0
176
     1
 90
        0
176
     1
 62
    18
420
        0
176
     1
 90
       50
176
     1
 90
        3
176
     1
 62
     5
420
      255
176
     1
290
     0
176
     1
 90
       50
176
     1
 90
       50
176
     1
 90
       50
176
     1
290
     0
176
     1
 90
       50
176
     1
 62
   256
176
     0
 40
1.0
176
     0
 90
        2
176
     1
  1
strokes_ogs.tif
176
     1
290
     0
176
     1
 40
1.0
176
     1
 40
1.0
176
     1
1001
ACAD
1000
AcDbSavedByObjectVersion
1070
     0
  0
VISUALSTYLE
  5
39
102
{ACAD_REACTORS
330
29
102
}
330
29
100
AcDbVisualStyle
  2
ColorChange
 70
    16
177
     3
291
     1
 70
    58
 90
        2
176
     1
 90
        2
176
     1
 90
        3
176
     1
 90
        0
176
     1
 40
0.6
176
     1
 40
30.0
176
     1
 62
     8
420
  8421504
176
     1
 90
        1
176
     1
 90
        4
176
     1
 62
     7
176
     1
 62
   257
176
     1
 90
        1
176
     1
 90
        1
176
     1
 40
1.0
176
     1
 90
        8
176
     1
 62
     8
420
  8421504
176
     1
 40
1.0
176
     1
 90
        1
176
     1
 90
        6
176
     1
 90
        2
176
     1
 62
     7
176
     1
 90
        5
176
     1
 90
        0
176
     1
 90
        0
176
     1
290
     0
176
     1
 90
        1
176
     1
 40
0.0
176
     1
 90
        0
176
     1
290
     0
176
     1
290
     1
176
     1
290
     1
176
     1
290
     0
176
     1
290
     0
176
     1
290
     0
176
     1
290
     0
176
     1
290
     0
176
     1
290
     0
176
     1
 90
       50
176
     1
 40
0.0
176
     1
 40
1.0
176
     1
 90
        0
176
     1
 62
    18
420
        0
176
     1
 90
       50
176
     1
 90
        3
176
     1
 62
     5
420
      255
176
     1
290
     0
176
     1
 90
       50
176
     1
 90
       50
176
     1
 90
       50
176
     1
290
     0
176
     1
 90
       50
176
     1
 62
   256
176
     0
 40
1.0
176
     0
 90
        2
176
     1
  1
strokes_ogs.tif
176
     1
290
     0
176
     1
 40
1.0
176
     1
 40
1.0
176
     1
1001
ACAD
1000
AcDbSavedByObjectVersion
1070
     0
  0
VISUALSTYLE
  5
32
102
{ACAD_REACTORS
330
29
102
}
330
29
100
AcDbVisualStyle
  2
Conceptual
 70
     9
177
     3
291
     0
 70
    58
 90
        3
176
     1
 90
        2
176
     1
 90
        0
176
     1
 90
        0
176
     1
 40
0.6
176
     1
 40
30.0
176
     1
 62
     7
420
 16777215
176
     1
 90
        2
176
     1
 90
        2
176
     1
 62
     7
176
     1
 62
   257
176
     1
 90
        1
176
     1
 90
        1
176
     1
 40
179.0
176
     1
 90
        8
176
     1
 62
     7
176
     1
 40
1.0
176
     1
 90
        1
176
     1
 90
        6
176
     1
 90
        2
176
     1
 62
     7
176
     1
 90
        3
176
     1
 90
        0
176
     1
 90
        0
176
     1
290
     0
176
     1
 90
        1
176
     1
 40
0.0
176
     1
 90
        0
176
     1
290
     0
176
     1
290
     1
176
     1
290
     1
176
     1
290
     0
176
     1
290
     0
176
     1
290
     0
176
     1
290
     0
176
     1
290
     0
176
     1
290
     0
176
     1
 90
       50
176
     1
 40
0.0
176
     1
 40
1.0
176
     1
 90
        0
176
     1
 62
    18
420
        0
176
     1
 90
       50
176
     1
 90
        3
176
     1
 62
     5
420
      255
176
     1
290
     0
176
     1
 90
       50
176
     1
 90
       50
176
     1
 90
       50
176
     1
290
     0
176
     1
 90
       50
176
     1
 62
   256
176
     0
 40
1.0
176
     0
 90
        2
176
     1
  1
strokes_ogs.tif
176
     1
290
     0
176
     1
 40
1.0
176
     1
 40
1.0
176
     1
1001
ACAD
1000
AcDbSavedByObjectVersion
1070
     0
  0
VISUALSTYLE
  5
34
102
{ACAD_REACTORS
330
29
102
}
330
29
100
AcDbVisualStyle
  2
Dim
 70
    11
177
     3
291
     1
 70
    58
 90
        2
176
     1
 90
        2
176
     1
 90
        0
176
     1
 90
        0
176
     1
 40
0.6
176
     1
 40
30.0
176
     1
 62
     7
420
 16777215
176
     1
 90
        1
176
     1
 90
        4
176
     1
 62
     7
176
     1
 62
   257
176
     1
 90
        1
176
     1
 90
        1
176
     1
 40
1.0
176
     1
 90
        8
176
     1
 62
     7
176
     1
 40
1.0
176
     1
 90
        1
176
     1
 90
        6
176
     1
 90
        2
176
     1
 62
     7
176
     1
 90
        5
176
     1
 90
        0
176
     1
 90
        0
176
     1
290
     0
176
     1
 90
        1
176
     1
 40
-50.0
176
     1
 90
        0
176
     1
290
     0
176
     1
290
     1
176
     1
290
     1
176
     1
290
     0
176
     1
290
     0
176
     1
290
     0
176
     1
290
     0
176
     1
290
     0
176
     1
290
     0
176
     1
 90
       50
176
     1
 40
0.0
176
     1
 40
1.0
176
     1
 90
        0
176
     1
 62
    18
420
        0
176
     1
 90
       50
176
     1
 90
        3
176
     1
 62
     5
420
      255
176
     1
290
     0
176
     1
 90
       50
176
     1
 90
       50
176
     1
 90
       50
176
     1
290
     0
176
     1
 90
       50
176
     1
 62
   256
176
     0
 40
1.0
176
     0
 90
        2
176
     1
  1
strokes_ogs.tif
176
     1
290
     0
176
     1
 40
1.0
176
     1
 40
1.0
176
     1
1001
ACAD
1000
AcDbSavedByObjectVersion
1070
     0
  0
VISUALSTYLE
  5
41
102
{ACAD_REACTORS
330
29
102
}
330
29
100
AcDbVisualStyle
  2
EdgeColorOff
 70
    22
177
     3
291
     1
 70
    58
 90
        2
176
     0
 90
        2
176
     0
 90
        0
176
     0
 90
        0
176
     0
 40
0.6
176
     0
 40
30.0
176
     0
 62
     7
420
 16777215
176
     0
 90
        1
176
     0
 90
        4
176
     0
 62
     7
176
     0
 62
   257
176
     0
 90
        1
176
     0
 90
        1
176
     0
 40
1.0
176
     0
 90
        8
176
     2
 62
     7
176
     0
 40
1.0
176
     0
 90
        1
176
     0
 90
        6
176
     0
 90
        2
176
     0
 62
     7
176
     0
 90
        5
176
     0
 90
        0
176
     0
 90
        0
176
     0
290
     0
176
     0
 90
        1
176
     0
 40
0.0
176
     0
 90
        0
176
     0
290
     0
176
     0
290
     1
176
     0
290
     1
176
     0
290
     0
176
     0
290
     0
176
     0
290
     0
176
     0
290
     0
176
     0
290
     0
176
     0
290
     0
176
     0
 90
       50
176
     0
 40
0.0
176
     0
 40
1.0
176
     0
 90
        0
176
     0
 62
    18
420
        0
176
     0
 90
       50
176
     0
 90
        3
176
     0
 62
     5
420
      255
176
     0
290
     0
176
     0
 90
       50
176
     0
 90
       50
176
     0
 90
       50
176
     0
290
     0
176
     0
 90
       50
176
     0
 62
   256
176
     0
 40
1.0
176
     0
 90
        2
176
     0
  1
strokes_ogs.tif
176
     0
290
     0
176
     0
 40
1.0
176
     0
 40
1.0
176
     0
1001
ACAD
1000
AcDbSavedByObjectVersion
1070
     0
  0
VISUALSTYLE
  5
38
102
{ACAD_REACTORS
330
29
102
}
330
29
100
AcDbVisualStyle
  2
Facepattern
 70
    15
177
     3
291
     1
 70
    58
 90
        2
176
     1
 90
        2
176
     1
 90
        0
176
     1
 90
        0
176
     1
 40
0.6
176
     1
 40
30.0
176
     1
 62
     7
420
 16777215
176
     1
 90
        1
176
     1
 90
        4
176
     1
 62
     7
176
     1
 62
   257
176
     1
 90
        1
176
     1
 90
        1
176
     1
 40
1.0
176
     1
 90
        8
176
     1
 62
     7
176
     1
 40
1.0
176
     1
 90
        1
176
     1
 90
        6
176
     1
 90
        2
176
     1
 62
     7
176
     1
 90
        5
176
     1
 90
        0
176
     1
 90
        0
176
     1
290
     0
176
     1
 90
        1
176
     1
 40
0.0
176
     1
 90
        0
176
     1
290
     0
176
     1
290
     1
176
     1
290
     1
176
     1
290
     0
176
     1
290
     0
176
     1
290
     0
176
     1
290
     0
176
     1
290
     0
176
     1
290
     0
176
     1
 90
       50
176
     1
 40
0.0
176
     1
 40
1.0
176
     1
 90
        0
176
     1
 62
    18
420
        0
176
     1
 90
       50
176
     1
 90
        3
176
     1
 62
     5
420
      255
176
     1
290
     0
176
     1
 90
       50
176
     1
 90
       50
176
     1
 90
       50
176
     1
290
     0
176
     1
 90
       50
176
     1
 62
   256
176
     0
 40
1.0
176
     0
 90
        2
176
     1
  1
strokes_ogs.tif
176
     1
290
     0
176
     1
 40
1.0
176
     1
 40
1.0
176
     1
1001
ACAD
1000
AcDbSavedByObjectVersion
1070
     0
  0
VISUALSTYLE
  5
2A
102
{ACAD_REACTORS
330
29
102
}
330
29
100
AcDbVisualStyle
  2
Flat
 70
     0
177
     3
291
     1
 70
    58
 90
        2
176
     1
 90
        1
176
     1
 90
        1
176
     1
 90
        2
176
     1
 40
0.6
176
     1
 40
30.0
176
     1
 62
     7
420
 16777215
176
     1
 90
        0
176
     1
 90
        0
176
     1
 62
     7
176
     1
 62
   257
176
     1
 90
        1
176
     1
 90
        1
176
     1
 40
1.0
176
     1
 90
        8
176
     1
 62
     7
176
     1
 40
1.0
176
     1
 90
        1
176
     1
 90
        6
176
     1
 90
        2
176
     1
 62
     7
176
     1
 90
        5
176
     1
 90
        0
176
     1
 90
        0
176
     1
290
     0
176
     1
 90
       13
176
     1
 40
0.0
176
     1
 90
        0
176
     1
290
     0
176
     1
290
     1
176
     1
290
     1
176
     1
290
     0
176
     1
290
     0
176
     1
290
     0
176
     1
290
     0
176
     1
290
     0
176
     1
290
     0
176
     1
 90
       50
176
     1
 40
0.0
176
     1
 40
1.0
176
     1
 90
        0
176
     1
 62
    18
420
        0
176
     1
 90
       50
176
     1
 90
        3
176
     1
 62
     5
420
      255
176
     1
290
     0
176
     1
 90
       50
176
     1
 90
       50
176
     1
 90
       50
176
     1
290
     0
176
     1
 90
       50
176
     1
 62
   256
176
     0
 40
1.0
176
     0
 90
        2
176
     1
  1
strokes_ogs.tif
176
     1
290
     0
176
     1
 40
1.0
176
     1
 40
1.0
176
     1
1001
ACAD
1000
AcDbSavedByObjectVersion
1070
     0
  0
VISUALSTYLE
  5
2B
102
{ACAD_REACTORS
330
29
102
}
330
29
100
AcDbVisualStyle
  2
FlatWithEdges
 70
     1
177
     3
291
     1
 70
    58
 90
        2
176
     1
 90
        1
176
     1
 90
        1
176
     1
 90
        2
176
     1
 40
0.6
176
     1
 40
30.0
176
     1
 62
     7
420
 16777215
176
     1
 90
        1
176
     1
 90
        0
176
     1
 62
     7
176
     1
 62
   257
176
     1
 90
        1
176
     1
 90
        1
176
     1
 40
1.0
176
     1
 90
        0
176
     1
 62
   257
176
     1
 40
1.0
176
     1
 90
        1
176
     1
 90
        6
176
     1
 90
        2
176
     1
 62
     7
176
     1
 90
        5
176
     1
 90
        0
176
     1
 90
        0
176
     1
290
     0
176
     1
 90
       13
176
     1
 40
0.0
176
     1
 90
        0
176
     1
290
     0
176
     1
290
     1
176
     1
290
     1
176
     1
290
     0
176
     1
290
     0
176
     1
290
     0
176
     1
290
     0
176
     1
290
     0
176
     1
290
     0
176
     1
 90
       50
176
     1
 40
0.0
176
     1
 40
1.0
176
     1
 90
        0
176
     1
 62
    18
420
        0
176
     1
 90
       50
176
     1
 90
        3
176
     1
 62
     5
420
      255
176
     1
290
     0
176
     1
 90
       50
176
     1
 90
       50
176
     1
 90
       50
176
     1
290
     0
176
     1
 90
       50
176
     1
 62
   256
176
     0
 40
1.0
176
     0
 90
        2
176
     1
  1
strokes_ogs.tif
176
     1
290
     0
176
     1
 40
1.0
176
     1
 40
1.0
176
     1
1001
ACAD
1000
AcDbSavedByObjectVersion
1070
     0
  0
VISUALSTYLE
  5
2C
102
{ACAD_REACTORS
330
29
102
}
330
29
100
AcDbVisualStyle
  2
Gouraud
 70
     2
177
     3
291
     1
 70
    58
 90
        2
176
     1
 90
        2
176
     1
 90
        1
176
     1
 90
        2
176
     1
 40
0.6
176
     1
 40
30.0
176
     1
 62
     7
420
 16777215
176
     1
 90
        0
176
     1
 90
        0
176
     1
 62
     7
176
     1
 62
   257
176
     1
 90
        1
176
     1
 90
        1
176
     1
 40
1.0
176
     1
 90
        0
176
     1
 62
     7
176
     1
 40
1.0
176
     1
 90
        1
176
     1
 90
        6
176
     1
 90
        2
176
     1
 62
     7
176
     1
 90
        5
176
     1
 90
        0
176
     1
 90
        0
176
     1
290
     0
176
     1
 90
       13
176
     1
 40
0.0
176
     1
 90
        0
176
     1
290
     0
176
     1
290
     1
176
     1
290
     1
176
     1
290
     0
176
     1
290
     0
176
     1
290
     0
176
     1
290
     0
176
     1
290
     0
176
     1
290
     0
176
     1
 90
       50
176
     1
 40
0.0
176
     1
 40
1.0
176
     1
 90
        0
176
     1
 62
    18
420
        0
176
     1
 90
       50
176
     1
 90
        3
176
     1
 62
     5
420
      255
176
     1
290
     0
176
     1
 90
       50
176
     1
 90
       50
176
     1
 90
       50
176
     1
290
     0
176
     1
 90
       50
176
     1
 62
   256
176
     0
 40
1.0
176
     0
 90
        2
176
     1
  1
strokes_ogs.tif
176
     1
290
     0
176
     1
 40
1.0
176
     1
 40
1.0
176
     1
1001
ACAD
1000
AcDbSavedByObjectVersion
1070
     0
  0
VISUALSTYLE
  5
2D
102
{ACAD_REACTORS
330
29
102
}
330
29
100
AcDbVisualStyle
  2
GouraudWithEdges
 70
     3
177
     3
291
     1
 70
    58
 90
        2
176
     1
 90
        2
176
     1
 90
        1
176
     1
 90
        2
176
     1
 40
0.6
176
     1
 40
30.0
176
     1
 62
     7
420
 16777215
176
     1
 90
        1
176
     1
 90
        0
176
     1
 62
     7
176
     1
 62
   257
176
     1
 90
        1
176
     1
 90
        1
176
     1
 40
1.0
176
     1
 90
        0
176
     1
 62
   257
176
     1
 40
1.0
176
     1
 90
        1
176
     1
 90
        6
176
     1
 90
        2
176
     1
 62
     7
176
     1
 90
        5
176
     1
 90
        0
176
     1
 90
        0
176
     1
290
     0
176
     1
 90
       13
176
     1
 40
0.0
176
     1
 90
        0
176
     1
290
     0
176
     1
290
     1
176
     1
290
     1
176
     1
290
     0
176
     1
290
     0
176
     1
290
     0
176
     1
290
     0
176
     1
290
     0
176
     1
290
     0
176
     1
 90
       50
176
     1
 40
0.0
176
     1
 40
1.0
176
     1
 90
        0
176
     1
 62
    18
420
        0
176
     1
 90
       50
176
     1
 90
        3
176
     1
 62
     5
420
      255
176
     1
290
     0
176
     1
 90
       50
176
     1
 90
       50
176
     1
 90
       50
176
     1
290
     0
176
     1
 90
       50
176
     1
 62
   256
176
     0
 40
1.0
176
     0
 90
        2
176
     1
  1
strokes_ogs.tif
176
     1
290
     0
176
     1
 40
1.0
176
     1
 40
1.0
176
     1
1001
ACAD
1000
AcDbSavedByObjectVersion
1070
     0
  0
VISUALSTYLE
  5
31
102
{ACAD_REACTORS
330
29
102
}
330
29
100
AcDbVisualStyle
  2
Hidden
 70
     6
177
     3
291
     0
 70
    58
 90
        1
176
     1
 90
        2
176
     1
 90
        2
176
     1
 90
        0
176
     1
 40
0.6
176
     1
 40
30.0
176
     1
 62
     7
420
 16777215
176
     1
 90
        2
176
     1
 90
        2
176
     1
 62
     7
176
     1
 62
   257
176
     1
 90
        2
176
     1
 90
        1
176
     1
 40
40.0
176
     1
 90
        0
176
     1
 62
   257
176
     1
 40
1.0
176
     1
 90
        1
176
     1
 90
        6
176
     1
 90
        2
176
     1
 62
     7
176
     1
 90
        3
176
     1
 90
        0
176
     1
 90
        0
176
     1
290
     0
176
     1
 90
        1
176
     1
 40
0.0
176
     1
 90
        0
176
     1
290
     0
176
     1
290
     1
176
     1
290
     1
176
     1
290
     0
176
     1
290
     0
176
     1
290
     0
176
     1
290
     0
176
     1
290
     0
176
     1
290
     0
176
     1
 90
       50
176
     1
 40
0.0
176
     1
 40
1.0
176
     1
 90
        0
176
     1
 62
    18
420
        0
176
     1
 90
       50
176
     1
 90
        3
176
     1
 62
     5
420
      255
176
     1
290
     0
176
     1
 90
       50
176
     1
 90
       50
176
     1
 90
       50
176
     1
290
     0
176
     1
 90
       50
176
     1
 62
   256
176
     0
 40
1.0
176
     0
 90
        2
176
     1
  1
strokes_ogs.tif
176
     1
290
     0
176
     1
 40
1.0
176
     1
 40
1.0
176
     1
1001
ACAD
1000
AcDbSavedByObjectVersion
1070
     0
  0
VISUALSTYLE
  5
3F
102
{ACAD_REACTORS
330
29
102
}
330
29
100
AcDbVisualStyle
  2
JitterOff
 70
    20
177
     3
291
     1
 70
    58
 90
        2
176
     0
 90
        2
176
     0
 90
        0
176
     0
 90
        0
176
     0
 40
0.6
176
     0
 40
30.0
176
     0
 62
     7
420
 16777215
176
     0
 90
        1
176
     0
 90
        4
176
     0
 62
     7
176
     0
 62
   257
176
     0
 90
        1
176
     0
 90
        1
176
     0
 40
1.0
176
     0
 90
       10
176
     2
 62
     7
176
     0
 40
1.0
176
     0
 90
        1
176
     0
 90
        6
176
     0
 90
        2
176
     0
 62
     7
176
     0
 90
        5
176
     0
 90
        0
176
     0
 90
        0
176
     0
290
     0
176
     0
 90
        1
176
     0
 40
0.0
176
     0
 90
        0
176
     0
290
     0
176
     0
290
     1
176
     0
290
     1
176
     0
290
     0
176
     0
290
     0
176
     0
290
     0
176
     0
290
     0
176
     0
290
     0
176
     0
290
     0
176
     0
 90
       50
176
     0
 40
0.0
176
     0
 40
1.0
176
     0
 90
        0
176
     0
 62
    18
420
        0
176
     0
 90
       50
176
     0
 90
        3
176
     0
 62
     5
420
      255
176
     0
290
     0
176
     0
 90
       50
176
     0
 90
       50
176
     0
 90
       50
176
     0
290
     0
176
     0
 90
       50
176
     0
 62
   256
176
     0
 40
1.0
176
     0
 90
        2
176
     0
  1
strokes_ogs.tif
176
     0
290
     0
176
     0
 40
1.0
176
     0
 40
1.0
176
     0
1001
ACAD
1000
AcDbSavedByObjectVersion
1070
     0
  0
VISUALSTYLE
  5
37
102
{ACAD_REACTORS
330
29
102
}
330
29
100
AcDbVisualStyle
  2
Linepattern
 70
    14
177
     3
291
     1
 70
    58
 90
        2
176
     1
 90
        2
176
     1
 90
        0
176
     1
 90
        0
176
     1
 40
0.6
176
     1
 40
30.0
176
     1
 62
     7
420
 16777215
176
     1
 90
        1
176
     1
 90
        4
176
     1
 62
     7
176
     1
 62
   257
176
     1
 90
        7
176
     1
 90
        7
176
     1
 40
1.0
176
     1
 90
        8
176
     1
 62
     7
176
     1
 40
1.0
176
     1
 90
        1
176
     1
 90
        6
176
     1
 90
        2
176
     1
 62
     7
176
     1
 90
        5
176
     1
 90
        0
176
     1
 90
        0
176
     1
290
     0
176
     1
 90
        1
176
     1
 40
0.0
176
     1
 90
        0
176
     1
290
     0
176
     1
290
     1
176
     1
290
     1
176
     1
290
     0
176
     1
290
     0
176
     1
290
     0
176
     1
290
     0
176
     1
290
     0
176
     1
290
     0
176
     1
 90
       50
176
     1
 40
0.0
176
     1
 40
1.0
176
     1
 90
        0
176
     1
 62
    18
420
        0
176
     1
 90
       50
176
     1
 90
        3
176
     1
 62
     5
420
      255
176
     1
290
     0
176
     1
 90
       50
176
     1
 90
       50
176
     1
 90
       50
176
     1
290
     0
176
     1
 90
       50
176
     1
 62
   256
176
     0
 40
1.0
176
     0
 90
        2
176
     1
  1
strokes_ogs.tif
176
     1
290
     0
176
     1
 40
1.0
176
     1
 40
1.0
176
     1
1001
ACAD
1000
AcDbSavedByObjectVersion
1070
     0
  0
VISUALSTYLE
  5
40
102
{ACAD_REACTORS
330
29
102
}
330
29
100
AcDbVisualStyle
  2
OverhangOff
 70
    21
177
     3
291
     1
 70
    58
 90
        2
176
     0
 90
        2
176
     0
 90
        0
176
     0
 90
        0
176
     0
 40
0.6
176
     0
 40
30.0
176
     0
 62
     7
420
 16777215
176
     0
 90
        1
176
     0
 90
        4
176
     0
 62
     7
176
     0
 62
   257
176
     0
 90
        1
176
     0
 90
        1
176
     0
 40
1.0
176
     0
 90
        9
176
     2
 62
     7
176
     0
 40
1.0
176
     0
 90
        1
176
     0
 90
        6
176
     0
 90
        2
176
     0
 62
     7
176
     0
 90
        5
176
     0
 90
        0
176
     0
 90
        0
176
     0
290
     0
176
     0
 90
        1
176
     0
 40
0.0
176
     0
 90
        0
176
     0
290
     0
176
     0
290
     1
176
     0
290
     1
176
     0
290
     0
176
     0
290
     0
176
     0
290
     0
176
     0
290
     0
176
     0
290
     0
176
     0
290
     0
176
     0
 90
       50
176
     0
 40
0.0
176
     0
 40
1.0
176
     0
 90
        0
176
     0
 62
    18
420
        0
176
     0
 90
       50
176
     0
 90
        3
176
     0
 62
     5
420
      255
176
     0
290
     0
176
     0
 90
       50
176
     0
 90
       50
176
     0
 90
       50
176
     0
290
     0
176
     0
 90
       50
176
     0
 62
   256
176
     0
 40
1.0
176
     0
 90
        2
176
     0
  1
strokes_ogs.tif
176
     0
290
     0
176
     0
 40
1.0
176
     0
 40
1.0
176
     0
1001
ACAD
1000
AcDbSavedByObjectVersion
1070
     0
  0
VISUALSTYLE
  5
33
102
{ACAD_REACTORS
330
29
102
}
330
29
100
AcDbVisualStyle
  2
Realistic
 70
     8
177
     3
291
     0
 70
    58
 90
        2
176
     1
 90
        3
176
     1
 90
        0
176
     1
 90
        2
176
     1
 40
0.6
176
     1
 40
30.0
176
     1
 62
     7
420
 16777215
176
     1
 90
        0
176
     1
 90
        0
176
     1
 62
     7
176
     1
 62
   257
176
     1
 90
        1
176
     1
 90
        1
176
     1
 40
1.0
176
     1
 90
        8
176
     1
 62
   257
176
     1
 40
1.0
176
     1
 90
        1
176
     1
 90
        6
176
     1
 90
        2
176
     1
 62
     7
176
     1
 90
        3
176
     1
 90
        0
176
     1
 90
        0
176
     1
290
     0
176
     1
 90
       13
176
     1
 40
0.0
176
     1
 90
        0
176
     1
290
     0
176
     1
290
     1
176
     1
290
     1
176
     1
290
     0
176
     1
290
     0
176
     1
290
     0
176
     1
290
     0
176
     1
290
     0
176
     1
290
     0
176
     1
 90
       50
176
     1
 40
0.0
176
     1
 40
1.0
176
     1
 90
        0
176
     1
 62
    18
420
        0
176
     1
 90
       50
176
     1
 90
        3
176
     1
 62
     5
420
      255
176
     1
290
     0
176
     1
 90
       50
176
     1
 90
       50
176
     1
 90
       50
176
     1
290
     0
176
     1
 90
       50
176
     1
 62
   256
176
     0
 40
1.0
176
     0
 90
        2
176
     1
  1
strokes_ogs.tif
176
     1
290
     0
176
     1
 40
1.0
176
     1
 40
1.0
176
     1
1001
ACAD
1000
AcDbSavedByObjectVersion
1070
     0
  0
VISUALSTYLE
  5
3E
102
{ACAD_REACTORS
330
29
102
}
330
29
100
AcDbVisualStyle
  2
Shaded
 70
    27
177
     3
291
     0
 70
    58
 90
        2
176
     1
 90
        2
176
     1
 90
        1
176
     1
 90
        2
176
     1
 40
0.6
176
     1
 40
30.0
176
     1
 62
     7
420
 16777215
176
     1
 90
        0
176
     1
 90
        4
176
     1
 62
     7
176
     1
 62
   257
176
     1
 90
        1
176
     1
 90
        1
176
     1
 40
1.0
176
     1
 90
        8
176
     1
 62
   257
176
     1
 40
1.0
176
     1
 90
        1
176
     1
 90
        6
176
     1
 90
        2
176
     1
 62
     8
420
  7895160
176
     1
 90
        3
176
     1
 90
        0
176
     1
 90
        0
176
     1
290
     0
176
     1
 90
        5
176
     1
 40
0.0
176
     1
 90
        0
176
     1
290
     0
176
     1
290
     1
176
     1
290
     1
176
     1
290
     0
176
     1
290
     0
176
     1
290
     0
176
     1
290
     0
176
     1
290
     0
176
     1
290
     0
176
     1
 90
       50
176
     1
 40
0.0
176
     1
 40
1.0
176
     1
 90
        0
176
     1
 62
    18
420
        0
176
     1
 90
       50
176
     1
 90
        3
176
     1
 62
     5
420
      255
176
     1
290
     0
176
     1
 90
       50
176
     1
 90
       50
176
     1
 90
       50
176
     1
290
     0
176
     1
 90
       50
176
     1
 62
   256
176
     0
 40
1.0
176
     0
 90
        2
176
     1
  1
strokes_ogs.tif
176
     1
290
     0
176
     1
 40
1.0
176
     1
 40
1.0
176
     1
1001
ACAD
1000
AcDbSavedByObjectVersion
1070
     0
  0
VISUALSTYLE
  5
3D
102
{ACAD_REACTORS
330
29
102
}
330
29
100
AcDbVisualStyle
  2
Shaded with edges
 70
    26
177
     3
291
     0
 70
    58
 90
        2
176
     1
 90
        2
176
     1
 90
        1
176
     1
 90
        2
176
     1
 40
0.6
176
     1
 40
30.0
176
     1
 62
     7
420
 16777215
176
     1
 90
        1
176
     1
 90
        2
176
     1
 62
     7
176
     1
 62
   257
176
     1
 90
        2
176
     1
 90
        1
176
     1
 40
1.0
176
     1
 90
        8
176
     1
 62
   257
176
     1
 40
1.0
176
     1
 90
        1
176
     1
 90
        6
176
     1
 90
        2
176
     1
 62
     7
176
     1
 90
        3
176
     1
 90
        0
176
     1
 90
        0
176
     1
290
     0
176
     1
 90
        5
176
     1
 40
0.0
176
     1
 90
        0
176
     1
290
     0
176
     1
290
     1
176
     1
290
     1
176
     1
290
     0
176
     1
290
     0
176
     1
290
     0
176
     1
290
     0
176
     1
290
     0
176
     1
290
     0
176
     1
 90
       50
176
     1
 40
0.0
176
     1
 40
1.0
176
     1
 90
        0
176
     1
 62
    18
420
        0
176
     1
 90
       50
176
     1
 90
        3
176
     1
 62
     5
420
      255
176
     1
290
     0
176
     1
 90
       50
176
     1
 90
       50
176
     1
 90
       50
176
     1
290
     0
176
     1
 90
       50
176
     1
 62
   256
176
     0
 40
1.0
176
     0
 90
        2
176
     1
  1
strokes_ogs.tif
176
     1
290
     0
176
     1
 40
1.0
176
     1
 40
1.0
176
     1
1001
ACAD
1000
AcDbSavedByObjectVersion
1070
     0
  0
VISUALSTYLE
  5
3A
102
{ACAD_REACTORS
330
29
102
}
330
29
100
AcDbVisualStyle
  2
Shades of Gray
 70
    23
177
     3
291
     0
 70
    58
 90
        2
176
     1
 90
        2
176
     1
 90
        3
176
     1
 90
        0
176
     1
 40
0.6
176
     1
 40
30.0
176
     1
 62
     7
420
 16777215
176
     1
 90
        2
176
     1
 90
        2
176
     1
 62
     7
176
     1
 62
     7
176
     1
 90
        1
176
     1
 90
        1
176
     1
 40
40.0
176
     1
 90
        8
176
     1
 62
     7
176
     1
 40
1.0
176
     1
 90
        1
176
     1
 90
        6
176
     1
 90
        2
176
     1
 62
     7
176
     1
 90
        3
176
     1
 90
        0
176
     1
 90
        0
176
     1
290
     0
176
     1
 90
        1
176
     1
 40
0.0
176
     1
 90
        0
176
     1
290
     0
176
     1
290
     1
176
     1
290
     1
176
     1
290
     0
176
     1
290
     0
176
     1
290
     0
176
     1
290
     0
176
     1
290
     0
176
     1
290
     0
176
     1
 90
       50
176
     1
 40
0.0
176
     1
 40
1.0
176
     1
 90
        0
176
     1
 62
    18
420
        0
176
     1
 90
       50
176
     1
 90
        3
176
     1
 62
     5
420
      255
176
     1
290
     0
176
     1
 90
       50
176
     1
 90
       50
176
     1
 90
       50
176
     1
290
     0
176
     1
 90
       50
176
     1
 62
   256
176
     0
 40
1.0
176
     0
 90
        2
176
     1
  1
strokes_ogs.tif
176
     1
290
     0
176
     1
 40
1.0
176
     1
 40
1.0
176
     1
1001
ACAD
1000
AcDbSavedByObjectVersion
1070
     0
  0
VISUALSTYLE
  5
3B
102
{ACAD_REACTORS
330
29
102
}
330
29
100
AcDbVisualStyle
  2
Sketchy
 70
    24
177
     3
291
     0
 70
    58
 90
        1
176
     1
 90
        2
176
     1
 90
        2
176
     1
 90
        0
176
     1
 40
0.6
176
     1
 40
30.0
176
     1
 62
     7
420
 16777215
176
     1
 90
        2
176
     1
 90
        2
176
     1
 62
     7
176
     1
 62
     7
176
     1
 90
        1
176
     1
 90
        1
176
     1
 40
40.0
176
     1
 90
       11
176
     1
 62
     7
176
     1
 40
1.0
176
     1
 90
        1
176
     1
 90
        6
176
     1
 90
        2
176
     1
 62
     7
176
     1
 90
        6
176
     1
 90
        0
176
     1
 90
        0
176
     1
290
     0
176
     1
 90
        1
176
     1
 40
0.0
176
     1
 90
        0
176
     1
290
     0
176
     1
290
     1
176
     1
290
     1
176
     1
290
     0
176
     1
290
     0
176
     1
290
     0
176
     1
290
     0
176
     1
290
     0
176
     1
290
     0
176
     1
 90
       50
176
     1
 40
0.0
176
     1
 40
1.0
176
     1
 90
        0
176
     1
 62
    18
420
        0
176
     1
 90
       50
176
     1
 90
        3
176
     1
 62
     5
420
      255
176
     1
290
     0
176
     1
 90
       50
176
     1
 90
       50
176
     1
 90
       50
176
     1
290
     0
176
     1
 90
       50
176
     1
 62
   256
176
     0
 40
1.0
176
     0
 90
        2
176
     1
  1
strokes_ogs.tif
176
     1
290
     0
176
     1
 40
1.0
176
     1
 40
1.0
176
     1
1001
ACAD
1000
AcDbSavedByObjectVersion
1070
     0
  0
VISUALSTYLE
  5
36
102
{ACAD_REACTORS
330
29
102
}
330
29
100
AcDbVisualStyle
  2
Thicken
 70
    13
177
     3
291
     1
 70
    58
 90
        2
176
     1
 90
        2
176
     1
 90
        0
176
     1
 90
        0
176
     1
 40
0.6
176
     1
 40
30.0
176
     1
 62
     7
420
 16777215
176
     1
 90
        1
176
     1
 90
        4
176
     1
 62
     7
176
     1
 62
   257
176
     1
 90
        1
176
     1
 90
        1
176
     1
 40
1.0
176
     1
 90
       12
176
     1
 62
     7
176
     1
 40
1.0
176
     1
 90
        1
176
     1
 90
        6
176
     1
 90
        2
176
     1
 62
     7
176
     1
 90
        5
176
     1
 90
        0
176
     1
 90
        0
176
     1
290
     0
176
     1
 90
        1
176
     1
 40
0.0
176
     1
 90
        0
176
     1
290
     0
176
     1
290
     1
176
     1
290
     1
176
     1
290
     0
176
     1
290
     0
176
     1
290
     0
176
     1
290
     0
176
     1
290
     0
176
     1
290
     0
176
     1
 90
       50
176
     1
 40
0.0
176
     1
 40
1.0
176
     1
 90
        0
176
     1
 62
    18
420
        0
176
     1
 90
       50
176
     1
 90
        3
176
     1
 62
     5
420
      255
176
     1
290
     0
176
     1
 90
       50
176
     1
 90
       50
176
     1
 90
       50
176
     1
290
     0
176
     1
 90
       50
176
     1
 62
   256
176
     0
 40
1.0
176
     0
 90
        2
176
     1
  1
strokes_ogs.tif
176
     1
290
     0
176
     1
 40
1.0
176
     1
 40
1.0
176
     1
1001
ACAD
1000
AcDbSavedByObjectVersion
1070
     0
  0
VISUALSTYLE
  5
30
102
{ACAD_REACTORS
330
29
102
}
330
29
100
AcDbVisualStyle
  2
Wireframe
 70
     5
177
     3
291
     0
 70
    58
 90
        0
176
     1
 90
        2
176
     1
 90
        0
176
     1
 90
        0
176
     1
 40
0.6
176
     1
 40
30.0
176
     1
 62
     7
420
 16777215
176
     1
 90
        1
176
     1
 90
        4
176
     1
 62
     7
176
     1
 62
   257
176
     1
 90
        1
176
     1
 90
        1
176
     1
 40
1.0
176
     1
 90
        0
176
     1
 62
   257
176
     1
 40
1.0
176
     1
 90
        1
176
     1
 90
        6
176
     1
 90
        2
176
     1
 62
     7
176
     1
 90
        3
176
     1
 90
        0
176
     1
 90
        0
176
     1
290
     0
176
     1
 90
        1
176
     1
 40
0.0
176
     1
 90
        0
176
     1
290
     0
176
     1
290
     1
176
     1
290
     1
176
     1
290
     0
176
     1
290
     0
176
     1
290
     0
176
     1
290
     0
176
     1
290
     0
176
     1
290
     0
176
     1
 90
       50
176
     1
 40
0.0
176
     1
 40
1.0
176
     1
 90
        0
176
     1
 62
    18
420
        0
176
     1
 90
       50
176
     1
 90
        3
176
     1
 62
     5
420
      255
176
     1
290
     0
176
     1
 90
       50
176
     1
 90
       50
176
     1
 90
       50
176
     1
290
     0
176
     1
 90
       50
176
     1
 62
   256
176
     0
 40
1.0
176
     0
 90
        2
176
     1
  1
strokes_ogs.tif
176
     1
290
     0
176
     1
 40
1.0
176
     1
 40
1.0
176
     1
1001
ACAD
1000
AcDbSavedByObjectVersion
1070
     0
  0
VISUALSTYLE
  5
3C
102
{ACAD_REACTORS
330
29
102
}
330
29
100
AcDbVisualStyle
  2
X-Ray
 70
    25
177
     3
291
     0
 70
    58
 90
        2
176
     1
 90
        2
176
     1
 90
        1
176
     1
 90
        1
176
     1
 40
0.5
176
     1
 40
30.0
176
     1
 62
     7
420
 16777215
176
     1
 90
        1
176
     1
 90
        0
176
     1
 62
     7
176
     1
 62
   257
176
     1
 90
        1
176
     1
 90
        1
176
     1
 40
1.0
176
     1
 90
        8
176
     1
 62
     7
176
     1
 40
1.0
176
     1
 90
        1
176
     1
 90
        6
176
     1
 90
        2
176
     1
 62
     7
176
     1
 90
        3
176
     1
 90
        0
176
     1
 90
        0
176
     1
290
     0
176
     1
 90
       13
176
     1
 40
0.0
176
     1
 90
        0
176
     1
290
     0
176
     1
290
     1
176
     1
290
     1
176
     1
290
     0
176
     1
290
     0
176
     1
290
     0
176
     1
290
     0
176
     1
290
     0
176
     1
290
     0
176
     1
 90
       50
176
     1
 40
0.0
176
     1
 40
1.0
176
     1
 90
        0
176
     1
 62
    18
420
        0
176
     1
 90
       50
176
     1
 90
        3
176
     1
 62
     5
420
      255
176
     1
290
     0
176
     1
 90
       50
176
     1
 90
       50
176
     1
 90
       50
176
     1
290
     0
176
     1
 90
       50
176
     1
 62
   256
176
     0
 40
1.0
176
     0
 90
        2
176
     1
  1
strokes_ogs.tif
176
     1
290
     0
176
     1
 40
1.0
176
     1
 40
1.0
176
     1
1001
ACAD
1000
AcDbSavedByObjectVersion
1070
     0
  0
DICTIONARYVAR
  5
356
102
{ACAD_REACTORS
330
351
102
}
330
351
100
DictionaryVariables
280
     0
  1
0
  0
DICTIONARYVAR
  5
357
102
{ACAD_REACTORS
330
351
102
}
330
351
100
DictionaryVariables
280
     0
  1
1:1
  0
DICTIONARYVAR
  5
353
102
{ACAD_REACTORS
330
351
102
}
330
351
100
DictionaryVariables
280
     0
  1
STANDARD
  0
DICTIONARYVAR
  5
352
102
{ACAD_REACTORS
330
351
102
}
330
351
100
DictionaryVariables
280
     0
  1
STANDARD
  0
DICTIONARYVAR
  5
354
102
{ACAD_REACTORS
330
351
102
}
330
351
100
DictionaryVariables
280
     0
  1
Imperial24
  0
DICTIONARYVAR
  5
355
102
{ACAD_REACTORS
330
351
102
}
330
351
100
DictionaryVariables
280
     0
  1
Imperial24
  0
DICTIONARY
  5
35D
330
6B
100
AcDbDictionary
280
     1
281
     1
  3
ACAD_XREC_ROUNDTRIP
360
35E
  0
DICTIONARY
  5
1A
330
19
100
AcDbDictionary
280
     1
281
     1
  3
BUMPTILE
360
1C
  3
DIFFUSETILE
360
1B
  3
OPACITYTILE
360
1F
  3
REFLECTIONTILE
360
1E
  3
REFRACTIONTILE
360
20
  3
SPECULARTILE
360
1D
  0
DICTIONARY
  5
12
330
11
100
AcDbDictionary
280
     1
281
     1
  3
BUMPTILE
360
14
  3
DIFFUSETILE
360
13
  3
OPACITYTILE
360
17
  3
REFLECTIONTILE
360
16
  3
REFRACTIONTILE
360
18
  3
SPECULARTILE
360
15
  0
DICTIONARY
  5
22
330
21
100
AcDbDictionary
280
     1
281
     1
  3
BUMPTILE
360
24
  3
DIFFUSETILE
360
23
  3
OPACITYTILE
360
27
  3
REFLECTIONTILE
360
26
  3
REFRACTIONTILE
360
28
  3
SPECULARTILE
360
25
  0
DICTIONARY
  5
35B
330
69
100
AcDbDictionary
280
     1
281
     1
  3
ACAD_XREC_ROUNDTRIP
360
35C
  0
DICTIONARY
  5
358
330
65
100
AcDbDictionary
280
     1
281
     1
  3
ACAD_ROUNDTRIP_2008_TABLESTYLE_CELLSTYLEMAP
360
359
  0
XRECORD
  5
35E
102
{ACAD_REACTORS
330
35D
102
}
330
35D
100
AcDbXrecord
280
     1
102
DISPLAYNAME
  1
Imperial24
102
FLAGS
 90
        0
  0
XRECORD
  5
1C
102
{ACAD_REACTORS
330
1A
102
}
330
1A
100
AcDbXrecord
280
     1
270
     1
271
     1
  0
XRECORD
  5
1B
102
{ACAD_REACTORS
330
1A
102
}
330
1A
100
AcDbXrecord
280
     1
270
     1
271
     1
  0
XRECORD
  5
1F
102
{ACAD_REACTORS
330
1A
102
}
330
1A
100
AcDbXrecord
280
     1
270
     1
271
     1
  0
XRECORD
  5
1E
102
{ACAD_REACTORS
330
1A
102
}
330
1A
100
AcDbXrecord
280
     1
270
     1
271
     1
  0
XRECORD
  5
20
102
{ACAD_REACTORS
330
1A
102
}
330
1A
100
AcDbXrecord
280
     1
270
     1
271
     1
  0
XRECORD
  5
1D
102
{ACAD_REACTORS
330
1A
102
}
330
1A
100
AcDbXrecord
280
     1
270
     1
271
     1
  0
XRECORD
  5
14
102
{ACAD_REACTORS
330
12
102
}
330
12
100
AcDbXrecord
280
     1
270
     1
271
     1
  0
XRECORD
  5
13
102
{ACAD_REACTORS
330
12
102
}
330
12
100
AcDbXrecord
280
     1
270
     1
271
     1
  0
XRECORD
  5
17
102
{ACAD_REACTORS
330
12
102
}
330
12
100
AcDbXrecord
280
     1
270
     1
271
     1
  0
XRECORD
  5
16
102
{ACAD_REACTORS
330
12
102
}
330
12
100
AcDbXrecord
280
     1
270
     1
271
     1
  0
XRECORD
  5
18
102
{ACAD_REACTORS
330
12
102
}
330
12
100
AcDbXrecord
280
     1
270
     1
271
     1
  0
XRECORD
  5
15
102
{ACAD_REACTORS
330
12
102
}
330
12
100
AcDbXrecord
280
     1
270
     1
271
     1
  0
XRECORD
  5
24
102
{ACAD_REACTORS
330
22
102
}
330
22
100
AcDbXrecord
280
     1
270
     1
271
     1
  0
XRECORD
  5
23
102
{ACAD_REACTORS
330
22
102
}
330
22
100
AcDbXrecord
280
     1
270
     1
271
     1
  0
XRECORD
  5
27
102
{ACAD_REACTORS
330
22
102
}
330
22
100
AcDbXrecord
280
     1
270
     1
271
     1
  0
XRECORD
  5
26
102
{ACAD_REACTORS
330
22
102
}
330
22
100
AcDbXrecord
280
     1
270
     1
271
     1
  0
XRECORD
  5
28
102
{ACAD_REACTORS
330
22
102
}
330
22
100
AcDbXrecord
280
     1
270
     1
271
     1
  0
XRECORD
  5
25
102
{ACAD_REACTORS
330
22
102
}
330
22
100
AcDbXrecord
280
     1
270
     1
271
     1
  0
XRECORD
  5
35C
102
{ACAD_REACTORS
330
35B
102
}
330
35B
100
AcDbXrecord
280
     1
102
DISPLAYNAME
  1
Imperial24
102
FLAGS
 90
        0
  0
CELLSTYLEMAP
  5
359
102
{ACAD_REACTORS
330
358
102
}
330
358
100
AcDbCellStyleMap
 90
        3
300
CELLSTYLE
  1
TABLEFORMAT_BEGIN
 90
        5
170
     1
 91
        0
 92
    32768
 62
   257
 93
        1
300
CONTENTFORMAT
  1
CONTENTFORMAT_BEGIN
 90
        0
 91
        0
 92
      512
 93
        0
300

 40
0.0
140
1.0
 94
        5
 62
     0
340
55
144
0.25
309
CONTENTFORMAT_END
171
     0
 94
        0
309
TABLEFORMAT_END
  1
CELLSTYLE_BEGIN
 90
        1
 91
        1
300
_TITLE
309
CELLSTYLE_END
300
CELLSTYLE
  1
TABLEFORMAT_BEGIN
 90
        5
170
     1
 91
        0
 92
        0
 62
   257
 93
        1
300
CONTENTFORMAT
  1
CONTENTFORMAT_BEGIN
 90
        0
 91
        0
 92
      512
 93
        0
300

 40
0.0
140
1.0
 94
        5
 62
     0
340
55
144
0.18
309
CONTENTFORMAT_END
171
     0
 94
        0
309
TABLEFORMAT_END
  1
CELLSTYLE_BEGIN
 90
        2
 91
        1
300
_HEADER
309
CELLSTYLE_END
300
CELLSTYLE
  1
TABLEFORMAT_BEGIN
 90
        5
170
     1
 91
        0
 92
        0
 62
   257
 93
        1
300
CONTENTFORMAT
  1
CONTENTFORMAT_BEGIN
 90
        0
 91
        0
 92
      512
 93
        0
300

 40
0.0
140
1.0
 94
        2
 62
     0
340
55
144
0.18
309
CONTENTFORMAT_END
171
     0
 94
        0
309
TABLEFORMAT_END
  1
CELLSTYLE_BEGIN
 90
        3
 91
        2
300
_DATA
309
CELLSTYLE_END
  0
ENDSEC
  0
EOF
