  0
SECTION
  2
HEADER
  9
$ACADVER
  1
AC1027
  9
$ACADMAINTVER
 70
   125
  9
$DWGCODEPAGE
  3
ANSI_1252
  9
$LASTSAVEDBY
  1
Administrator
  9
$REQUIREDVERSIONS
160
                 0
  9
$INSBASE
 10
0.0
 20
0.0
 30
0.0
  9
$EXTMIN
 10
0.0
 20
0.0
 30
-1.518613
  9
$EXTMAX
 10
17.0
 20
11.0
 30
2.702588
  9
$LIMMIN
 10
0.0
 20
0.0
  9
$LIMMAX
 10
17.0
 20
11.0
  9
$ORTHOMODE
 70
     0
  9
$REGENMODE
 70
     1
  9
$FILLMODE
 70
     1
  9
$QTEXTMODE
 70
     0
  9
$MIRRTEXT
 70
     0
  9
$LTSCALE
 40
0.75
  9
$ATTMODE
 70
     1
  9
$TEXTSIZE
 40
0.12
  9
$TRACEWID
 40
0.05
  9
$TEXTSTYLE
  7
Standard
  9
$CLAYER
  8
Titleblock
  9
$CELTYPE
  6
ByLayer
  9
$CECOLOR
 62
   256
  9
$CELTSCALE
 40
1.0
  9
$DISPSILH
 70
     0
  9
$DIMSCALE
 40
1.0
  9
$DIMASZ
 40
0.12
  9
$DIMEXO
 40
0.07
  9
$DIMDLI
 40
0.36
  9
$DIMRND
 40
0.0
  9
$DIMDLE
 40
0.0
  9
$DIMEXE
 40
0.07
  9
$DIMTP
 40
0.01
  9
$DIMTM
 40
0.01
  9
$DIMTXT
 40
0.12
  9
$DIMCEN
 40
0.0
  9
$DIMTSZ
 40
0.0
  9
$DIMTOL
 70
     0
  9
$DIMLIM
 70
     0
  9
$DIMTIH
 70
     1
  9
$DIMTOH
 70
     1
  9
$DIMSE1
 70
     0
  9
$DIMSE2
 70
     0
  9
$DIMTAD
 70
     0
  9
$DIMZIN
 70
    12
  9
$DIMBLK
  1

  9
$DIMASO
 70
     1
  9
$DIMSHO
 70
     1
  9
$DIMPOST
  1
in
  9
$DIMAPOST
  1
mm
  9
$DIMALT
 70
     0
  9
$DIMALTD
 70
     2
  9
$DIMALTF
 40
25.4
  9
$DIMLFAC
 40
1.0
  9
$DIMTOFL
 70
     0
  9
$DIMTVP
 40
0.0
  9
$DIMTIX
 70
     0
  9
$DIMSOXD
 70
     0
  9
$DIMSAH
 70
     0
  9
$DIMBLK1
  1

  9
$DIMBLK2
  1

  9
$DIMSTYLE
  2
Standard
  9
$DIMCLRD
 70
   256
  9
$DIMCLRE
 70
   256
  9
$DIMCLRT
 70
   256
  9
$DIMTFAC
 40
1.0
  9
$DIMGAP
 40
0.05
  9
$DIMJUST
 70
     0
  9
$DIMSD1
 70
     0
  9
$DIMSD2
 70
     0
  9
$DIMTOLJ
 70
     1
  9
$DIMTZIN
 70
    12
  9
$DIMALTZ
 70
    12
  9
$DIMALTTZ
 70
    12
  9
$DIMUPT
 70
     0
  9
$DIMDEC
 70
     2
  9
$DIMTDEC
 70
     2
  9
$DIMALTU
 70
     2
  9
$DIMALTTD
 70
     2
  9
$DIMTXSTY
  7
Standard
  9
$DIMAUNIT
 70
     0
  9
$DIMADEC
 70
     2
  9
$DIMALTRND
 40
0.0
  9
$DIMAZIN
 70
     3
  9
$DIMDSEP
 70
    46
  9
$DIMATFIT
 70
     3
  9
$DIMFRAC
 70
     0
  9
$DIMLDRBLK
  1

  9
$DIMLUNIT
 70
     2
  9
$DIMLWD
 70
    -2
  9
$DIMLWE
 70
    -2
  9
$DIMTMOVE
 70
     0
  9
$DIMFXL
 40
1.0
  9
$DIMFXLON
 70
     0
  9
$DIMJOGANG
 40
0.785398
  9
$DIMTFILL
 70
     0
  9
$DIMTFILLCLR
 70
     0
  9
$DIMARCSYM
 70
     1
  9
$DIMLTYPE
  6

  9
$DIMLTEX1
  6

  9
$DIMLTEX2
  6

  9
$DIMTXTDIRECTION
 70
     0
  9
$LUNITS
 70
     2
  9
$LUPREC
 70
     4
  9
$SKETCHINC
 40
0.1
  9
$FILLETRAD
 40
0.0
  9
$AUNITS
 70
     0
  9
$AUPREC
 70
     0
  9
$MENU
  1
.
  9
$ELEVATION
 40
0.0
  9
$PELEVATION
 40
0.0
  9
$THICKNESS
 40
0.0
  9
$LIMCHECK
 70
     0
  9
$CHAMFERA
 40
0.0
  9
$CHAMFERB
 40
0.0
  9
$CHAMFERC
 40
0.0
  9
$CHAMFERD
 40
0.0
  9
$SKPOLY
 70
     0
  9
$TDCREATE
 40
2459467.632870371
  9
$TDUCREATE
 40
2459467.924537037
  9
$TDUPDATE
 40
2459467.632870371
  9
$TDUUPDATE
 40
2459467.924537037
  9
$TDINDWG
 40
0.0000000000
  9
$TDUSRTIMER
 40
0.0000000000
  9
$USRTIMER
 70
     1
  9
$ANGBASE
 50
0.0
  9
$ANGDIR
 70
     0
  9
$PDMODE
 70
     0
  9
$PDSIZE
 40
0.0
  9
$PLINEWID
 40
0.0
  9
$SPLFRAME
 70
     0
  9
$SPLINETYPE
 70
     6
  9
$SPLINESEGS
 70
     8
  9
$HANDSEED
  5
357
  9
$SURFTAB1
 70
     6
  9
$SURFTAB2
 70
     6
  9
$SURFTYPE
 70
     6
  9
$SURFU
 70
     6
  9
$SURFV
 70
     6
  9
$UCSBASE
  2

  9
$UCSNAME
  2

  9
$UCSORG
 10
0.0
 20
0.0
 30
0.0
  9
$UCSXDIR
 10
1.0
 20
0.0
 30
0.0
  9
$UCSYDIR
 10
0.0
 20
1.0
 30
0.0
  9
$UCSORTHOREF
  2

  9
$UCSORTHOVIEW
 70
     0
  9
$UCSORGTOP
 10
0.0
 20
0.0
 30
0.0
  9
$UCSORGBOTTOM
 10
0.0
 20
0.0
 30
0.0
  9
$UCSORGLEFT
 10
0.0
 20
0.0
 30
0.0
  9
$UCSORGRIGHT
 10
0.0
 20
0.0
 30
0.0
  9
$UCSORGFRONT
 10
0.0
 20
0.0
 30
0.0
  9
$UCSORGBACK
 10
0.0
 20
0.0
 30
0.0
  9
$PUCSBASE
  2

  9
$PUCSNAME
  2

  9
$PUCSORG
 10
0.0
 20
0.0
 30
0.0
  9
$PUCSXDIR
 10
1.0
 20
0.0
 30
0.0
  9
$PUCSYDIR
 10
0.0
 20
1.0
 30
0.0
  9
$PUCSORTHOREF
  2

  9
$PUCSORTHOVIEW
 70
     0
  9
$PUCSORGTOP
 10
0.0
 20
0.0
 30
0.0
  9
$PUCSORGBOTTOM
 10
0.0
 20
0.0
 30
0.0
  9
$PUCSORGLEFT
 10
0.0
 20
0.0
 30
0.0
  9
$PUCSORGRIGHT
 10
0.0
 20
0.0
 30
0.0
  9
$PUCSORGFRONT
 10
0.0
 20
0.0
 30
0.0
  9
$PUCSORGBACK
 10
0.0
 20
0.0
 30
0.0
  9
$USERI1
 70
     0
  9
$USERI2
 70
     0
  9
$USERI3
 70
     0
  9
$USERI4
 70
     0
  9
$USERI5
 70
     0
  9
$USERR1
 40
0.0
  9
$USERR2
 40
0.0
  9
$USERR3
 40
0.0
  9
$USERR4
 40
0.0
  9
$USERR5
 40
0.0
  9
$WORLDVIEW
 70
     1
  9
$SHADEDGE
 70
     3
  9
$SHADEDIF
 70
    70
  9
$TILEMODE
 70
     1
  9
$MAXACTVP
 70
    64
  9
$PINSBASE
 10
0.0
 20
0.0
 30
0.0
  9
$PLIMCHECK
 70
     0
  9
$PEXTMIN
 10
1.000000E+20
 20
1.000000E+20
 30
1.000000E+20
  9
$PEXTMAX
 10
-1.000000E+20
 20
-1.000000E+20
 30
-1.000000E+20
  9
$PLIMMIN
 10
0.0
 20
0.0
  9
$PLIMMAX
 10
12.0
 20
9.0
  9
$UNITMODE
 70
     0
  9
$VISRETAIN
 70
     1
  9
$PLINEGEN
 70
     0
  9
$PSLTSCALE
 70
     1
  9
$TREEDEPTH
 70
  3020
  9
$CMLSTYLE
  2
Standard
  9
$CMLJUST
 70
     0
  9
$CMLSCALE
 40
1.0
  9
$PROXYGRAPHICS
 70
     1
  9
$MEASUREMENT
 70
     0
  9
$CELWEIGHT
370
    -1
  9
$ENDCAPS
280
     0
  9
$JOINSTYLE
280
     0
  9
$LWDISPLAY
290
     0
  9
$INSUNITS
 70
     1
  9
$HYPERLINKBASE
  1

  9
$STYLESHEET
  1

  9
$XEDIT
290
     1
  9
$CEPSNTYPE
380
     0
  9
$PSTYLEMODE
290
     1
  9
$FINGERPRINTGUID
  2
{08D443DC-6D56-6048-A695-3DC65408C6DB}
  9
$VERSIONGUID
  2
{CFC0574D-6A9E-B644-A8D9-757E7205D804}
  9
$EXTNAMES
290
     1
  9
$PSVPSCALE
 40
0.0
  9
$OLESTARTUP
290
     0
  9
$SORTENTS
280
   127
  9
$INDEXCTL
280
     0
  9
$HIDETEXT
280
     1
  9
$XCLIPFRAME
280
     0
  9
$HALOGAP
280
     0
  9
$OBSCOLOR
 70
   257
  9
$OBSLTYPE
280
     0
  9
$INTERSECTIONDISPLAY
280
     0
  9
$INTERSECTIONCOLOR
 70
   257
  9
$DIMASSOC
280
     2
  9
$PROJECTNAME
  1

  9
$CAMERADISPLAY
290
     0
  9
$LENSLENGTH
 40
50.0
  9
$CAMERAHEIGHT
 40
0.0
  9
$STEPSPERSEC
 40
2.0
  9
$STEPSIZE
 40
6.0
  9
$3DDWFPREC
 40
2.0
  9
$PSOLWIDTH
 40
0.25
  9
$PSOLHEIGHT
 40
4.0
  9
$LOFTANG1
 40
1.570796
  9
$LOFTANG2
 40
1.570796
  9
$LOFTMAG1
 40
0.0
  9
$LOFTMAG2
 40
0.0
  9
$LOFTPARAM
 70
     7
  9
$LOFTNORMALS
280
     1
  9
$LATITUDE
 40
37.795
  9
$LONGITUDE
 40
-122.394
  9
$NORTHDIRECTION
 40
0.0
  9
$TIMEZONE
 70
 -8000
  9
$LIGHTGLYPHDISPLAY
280
     1
  9
$TILEMODELIGHTSYNCH
280
     1
  9
$CMATERIAL
347
11
  9
$SOLIDHIST
280
     0
  9
$SHOWHIST
280
     1
  9
$DWFFRAME
280
     2
  9
$DGNFRAME
280
     0
  9
$REALWORLDSCALE
290
     1
  9
$INTERFERECOLOR
 62
     1
  9
$INTERFEREOBJVS
345
33
  9
$INTERFEREVPVS
346
30
  9
$CSHADOW
280
     0
  9
$SHADOWPLANELOCATION
 40
0.0
  0
ENDSEC
  0
SECTION
  2
CLASSES
  0
CLASS
  1
ACDBDICTIONARYWDFLT
  2
AcDbDictionaryWithDefault
  3
ObjectDBX Classes
 90
        0
 91
        1
280
     0
281
     0
  0
CLASS
  1
MATERIAL
  2
AcDbMaterial
  3
ObjectDBX Classes
 90
     1153
 91
        3
280
     0
281
     0
  0
CLASS
  1
VISUALSTYLE
  2
AcDbVisualStyle
  3
ObjectDBX Classes
 90
     4095
 91
       24
280
     0
281
     0
  0
CLASS
  1
SCALE
  2
AcDbScale
  3
ObjectDBX Classes
 90
     1153
 91
       33
280
     0
281
     0
  0
CLASS
  1
TABLESTYLE
  2
AcDbTableStyle
  3
ObjectDBX Classes
 90
     4095
 91
        1
280
     0
281
     0
  0
CLASS
  1
MLEADERSTYLE
  2
AcDbMLeaderStyle
  3
ACDB_MLEADERSTYLE_CLASS
 90
     4095
 91
        1
280
     0
281
     0
  0
CLASS
  1
ACDBSECTIONVIEWSTYLE
  2
AcDbSectionViewStyle
  3
ObjectDBX Classes
 90
     1025
 91
        1
280
     0
281
     0
  0
CLASS
  1
ACDBDETAILVIEWSTYLE
  2
AcDbDetailViewStyle
  3
ObjectDBX Classes
 90
     1025
 91
        1
280
     0
281
     0
  0
CLASS
  1
ACMESCOPE
  2
AcMeScope
  3
AcMeServices
 90
     1024
 91
        1
280
     0
281
     0
  0
CLASS
  1
ACMECOMMANDHISTORY
  2
AcMeCommandHistory
  3
AcMeServices
 90
     1024
 91
        1
280
     0
281
     0
  0
CLASS
  1
ACIMSYSVARMAN
  2
AcImSysVarManager
  3
AcMeServices
 90
     1024
 91
        1
280
     0
281
     0
  0
CLASS
  1
ACIMINTSYSVAR
  2
AcImIntSysVar
  3
AcMeServices
 90
     1024
 91
        1
280
     0
281
     0
  0
CLASS
  1
ACMESTATEMGR
  2
AcMeStateMgr
  3
AcMeServices
 90
     1024
 91
        1
280
     0
281
     0
  0
CLASS
  1
ACGREFMASTER
  2
AcGrefMaster
  3
AcAttribServices
 90
     1024
 91
        1
280
     0
281
     0
  0
CLASS
  1
SORTENTSTABLE
  2
AcDbSortentsTable
  3
ObjectDBX Classes
 90
        0
 91
        6
280
     0
281
     0
  0
CLASS
  1
IMAGE
  2
AcDbRasterImage
  3
ISM
 90
     2175
 91
        1
280
     0
281
     1
  0
CLASS
  1
IMAGEDEF
  2
AcDbRasterImageDef
  3
ISM
 90
        0
 91
        1
280
     0
281
     0
  0
CLASS
  1
IMAGEDEF_REACTOR
  2
AcDbRasterImageDefReactor
  3
ISM
 90
        1
 91
        2
280
     0
281
     0
  0
CLASS
  1
RASTERVARIABLES
  2
AcDbRasterVariables
  3
ISM
 90
        0
 91
        1
280
     0
281
     0
  0
CLASS
  1
DICTIONARYVAR
  2
AcDbDictionaryVar
  3
ObjectDBX Classes
 90
        0
 91
        6
280
     0
281
     0
  0
CLASS
  1
CELLSTYLEMAP
  2
AcDbCellStyleMap
  3
ObjectDBX Classes
 90
     1152
 91
        1
280
     0
281
     0
  0
ENDSEC
  0
SECTION
  2
TABLES
  0
TABLE
  2
VPORT
  5
8
330
0
100
AcDbSymbolTable
 70
     1
1001
ACAD
1000
DbSaveVer
1071
      246
  0
VPORT
  5
57
330
8
100
AcDbSymbolTableRecord
100
AcDbViewportTableRecord
  2
*Active
 70
     0
 10
0.0
 20
0.0
 11
1.0
 21
1.0
 12
8.5
 22
5.5
 13
0.0
 23
0.0
 14
0.5
 24
0.5
 15
0.0
 25
0.0
 16
0.0
 26
0.0
 36
1.0
 17
0.0
 27
0.0
 37
0.0
 40
11.0
 41
1.7981
 42
50.0
 43
0.0
 44
0.0
 50
0.0
 51
0.0
 71
     0
 72
 20000
 73
     1
 74
     0
 75
     0
 76
     0
 77
     0
 78
     0
281
     0
 65
     1
110
0.0
120
0.0
130
0.0
111
1.0
121
0.0
131
0.0
112
0.0
122
1.0
132
0.0
 79
     0
146
0.0
348
2F
 60
     3
 61
     5
292
     1
282
     1
141
0.0
142
0.0
 63
   250
421
  3355443
  0
ENDTAB
  0
TABLE
  2
LTYPE
  5
5
330
0
100
AcDbSymbolTable
 70
    10
  0
LTYPE
  5
5B
330
5
100
AcDbSymbolTableRecord
100
AcDbLinetypeTableRecord
  2
ByBlock
 70
     0
  3

 72
    65
 73
     0
 40
0.0
  0
LTYPE
  5
5C
330
5
100
AcDbSymbolTableRecord
100
AcDbLinetypeTableRecord
  2
ByLayer
 70
     0
  3

 72
    65
 73
     0
 40
0.0
  0
LTYPE
  5
5D
330
5
100
AcDbSymbolTableRecord
100
AcDbLinetypeTableRecord
  2
Continuous
 70
     0
  3
Solid line
 72
    65
 73
     0
 40
0.0
  0
LTYPE
  5
81
330
5
100
AcDbSymbolTableRecord
100
AcDbLinetypeTableRecord
  2
HIDDEN
 70
     0
  3
Hidden __ __ __ __ __ __ __ __ __ __ __ __ __ _
 72
    65
 73
     2
 40
0.375
 49
0.25
 74
     0
 49
-0.125
 74
     0
  0
LTYPE
  5
82
330
5
100
AcDbSymbolTableRecord
100
AcDbLinetypeTableRecord
  2
PHANTOM2
 70
     0
  3
Phantom (.5x) ___ _ _ ___ _ _ ___ _ _ ___ _ _
 72
    65
 73
     6
 40
1.25
 49
0.625
 74
     0
 49
-0.125
 74
     0
 49
0.125
 74
     0
 49
-0.125
 74
     0
 49
0.125
 74
     0
 49
-0.125
 74
     0
  0
LTYPE
  5
83
330
5
100
AcDbSymbolTableRecord
100
AcDbLinetypeTableRecord
  2
CENTER
 70
     0
  3
Center ____ _ ____ _ ____ _ ____ _ ____ _ ____
 72
    65
 73
     4
 40
2.0
 49
1.25
 74
     0
 49
-0.25
 74
     0
 49
0.25
 74
     0
 49
-0.25
 74
     0
  0
LTYPE
  5
9C
330
5
100
AcDbSymbolTableRecord
100
AcDbLinetypeTableRecord
  2
CENTER2
 70
     0
  3
Center (.5x) ___ _ ___ _ ___ _ ___ _ ___ _ ___
 72
    65
 73
     4
 40
1.125
 49
0.75
 74
     0
 49
-0.125
 74
     0
 49
0.125
 74
     0
 49
-0.125
 74
     0
  0
LTYPE
  5
9D
330
5
100
AcDbSymbolTableRecord
100
AcDbLinetypeTableRecord
  2
HIDDEN2
 70
     0
  3
Hidden (.5x) _ _ _ _ _ _ _ _ _ _ _ _ _ _ _ _ _
 72
    65
 73
     2
 40
0.1875
 49
0.125
 74
     0
 49
-0.0625
 74
     0
  0
LTYPE
  5
9E
330
5
100
AcDbSymbolTableRecord
100
AcDbLinetypeTableRecord
  2
Amconstr
 70
     0
  3
_______________________
 72
    65
 73
     2
 40
9999.0
 49
9999.0
 74
     0
 49
0.0
 74
     0
  0
LTYPE
  5
9F
330
5
100
AcDbSymbolTableRecord
100
AcDbLinetypeTableRecord
  2
Amzigzag2
 70
     0
  3
/\/-/\/-/\/-/\/-/\/-/\/
 72
    65
 73
     2
 40
0.4401
 49
0.0001
 74
     4
 75
   136
340
99
 46
0.0016
 50
0.0
 44
0.0
 45
0.0
 49
-0.44
 74
     0
  0
LTYPE
  5
A0
330
5
100
AcDbSymbolTableRecord
100
AcDbLinetypeTableRecord
  2
ACANSTGB
 70
     0
  3
__ . . __ . .
 72
    65
 73
     6
 40
0.354331
 49
0.15748
 74
     0
 49
-0.03937
 74
     0
 49
0.03937
 74
     0
 49
-0.03937
 74
     0
 49
0.03937
 74
     0
 49
-0.03937
 74
     0
  0
LTYPE
  5
A1
330
5
100
AcDbSymbolTableRecord
100
AcDbLinetypeTableRecord
  2
ACANSTGL
 70
     0
  3
_ _ _ _ _
 72
    65
 73
     2
 40
0.11811
 49
0.07874
 74
     0
 49
-0.03937
 74
     0
  0
ENDTAB
  0
TABLE
  2
LAYER
  5
2
330
0
100
AcDbSymbolTable
 70
    11
  0
LAYER
  5
54
330
2
100
AcDbSymbolTableRecord
100
AcDbLayerTableRecord
  2
0
 70
     0
 62
     7
  6
Continuous
370
    -3
390
F
347
21
348
0
1001
AcAecLayerStandard
1000

1000

  0
LAYER
  5
79
330
2
100
AcDbSymbolTableRecord
100
AcDbLayerTableRecord
  2
Defpoints
 70
     0
 62
     7
  6
Continuous
290
     0
370
    -3
390
F
347
21
348
0
1001
AcAecLayerStandard
1000

1000

  0
LAYER
  5
BB
330
2
100
AcDbSymbolTableRecord
100
AcDbLayerTableRecord
  2
Visible
 70
     0
 62
     7
  6
Continuous
370
    25
390
F
347
21
348
0
  0
LAYER
  5
116
330
2
100
AcDbSymbolTableRecord
100
AcDbLayerTableRecord
  2
Titleblock
 70
     0
 62
     7
  6
Continuous
370
    -3
390
F
347
21
348
0
1001
AcAecLayerStandard
1000

1000

1001
AcCmTransparency
1071
        0
  0
LAYER
  5
13B
330
2
100
AcDbSymbolTableRecord
100
AcDbLayerTableRecord
  2
Border
 70
     0
 62
     7
  6
Continuous
370
    -3
390
F
347
21
348
0
1001
AcAecLayerStandard
1000

1000

1001
AcCmTransparency
1071
        0
  0
LAYER
  5
15C
330
2
100
AcDbSymbolTableRecord
100
AcDbLayerTableRecord
  2
Dimensions
 70
     0
 62
     7
  6
Continuous
370
    13
390
F
347
21
348
0
  0
LAYER
  5
16B
330
2
100
AcDbSymbolTableRecord
100
AcDbLayerTableRecord
  2
Annotations
 70
     0
 62
     7
  6
Continuous
370
    13
390
F
347
21
348
0
  0
LAYER
  5
185
330
2
100
AcDbSymbolTableRecord
100
AcDbLayerTableRecord
  2
Center Lines
 70
     0
 62
     7
  6
CENTER2
370
    13
390
F
347
21
348
0
  0
ENDTAB
  0
TABLE
  2
STYLE
  5
3
330
0
100
AcDbSymbolTable
 70
     4
  0
STYLE
  5
55
330
3
100
AcDbSymbolTableRecord
100
AcDbTextStyleTableRecord
  2
Standard
 70
     0
 40
0.0
 41
1.0
 50
0.0
 71
     0
 42
0.12
  3
arial.ttf
  4

1001
ACAD
1000
Arial
1071
       34
  0
STYLE
  5
5A
330
3
100
AcDbSymbolTableRecord
100
AcDbTextStyleTableRecord
  2
Annotative
 70
     0
 40
0.0
 41
1.0
 50
0.0
 71
     0
 42
0.2
  3
txt
  4

1001
AcadAnnotative
1000
AnnotativeData
1002
{
1070
     1
1070
     1
1002
}
  0
STYLE
  5
99
330
3
100
AcDbSymbolTableRecord
100
AcDbTextStyleTableRecord
  2

 70
     1
 40
0.0
 41
1.0
 50
0.0
 71
     0
 42
0.12
  3
genltshp.shx
  4

  0
STYLE
  5
9A
330
3
100
AcDbSymbolTableRecord
100
AcDbTextStyleTableRecord
  2
ACANSGDT
 70
     0
 40
0.0
 41
1.0
 50
0.0
 71
     0
 42
0.12
  3
amgdt.shx
  4

  0
ENDTAB
  0
TABLE
  2
VIEW
  5
6
330
0
100
AcDbSymbolTable
 70
     0
  0
ENDTAB
  0
TABLE
  2
UCS
  5
7
330
0
100
AcDbSymbolTable
 70
     0
  0
ENDTAB
  0
TABLE
  2
APPID
  5
9
330
0
100
AcDbSymbolTable
 70
    26
  0
APPID
  5
56
330
9
100
AcDbSymbolTableRecord
100
AcDbRegAppTableRecord
  2
ACAD
 70
     0
  0
APPID
  5
5E
330
9
100
AcDbSymbolTableRecord
100
AcDbRegAppTableRecord
  2
AcadAnnotative
 70
     0
  0
APPID
  5
78
330
9
100
AcDbSymbolTableRecord
100
AcDbRegAppTableRecord
  2
ACAD_PSEXT
 70
     0
  0
APPID
  5
7A
330
9
100
AcDbSymbolTableRecord
100
AcDbRegAppTableRecord
  2
MCAD_NO_VIS
 70
     0
  0
APPID
  5
7B
330
9
100
AcDbSymbolTableRecord
100
AcDbRegAppTableRecord
  2
ACAD_TEMP_GRAPHIC
 70
     0
  0
APPID
  5
84
330
9
100
AcDbSymbolTableRecord
100
AcDbRegAppTableRecord
  2
ACAD_DSTYLE_DIMJAG
 70
     0
  0
APPID
  5
85
330
9
100
AcDbSymbolTableRecord
100
AcDbRegAppTableRecord
  2
ACAD_DSTYLE_DIMTALN
 70
     0
  0
APPID
  5
86
330
9
100
AcDbSymbolTableRecord
100
AcDbRegAppTableRecord
  2
ACAD_NAV_VCDISPLAY
 70
     0
  0
APPID
  5
87
330
9
100
AcDbSymbolTableRecord
100
AcDbRegAppTableRecord
  2
AcAecLayerStandard
 70
     0
  0
APPID
  5
88
330
9
100
AcDbSymbolTableRecord
100
AcDbRegAppTableRecord
  2
AcCmTransparency
 70
     0
  0
APPID
  5
89
330
9
100
AcDbSymbolTableRecord
100
AcDbRegAppTableRecord
  2
ACAD_DSTYLE_DIMBREAK
 70
     0
  0
APPID
  5
8A
330
9
100
AcDbSymbolTableRecord
100
AcDbRegAppTableRecord
  2
ACAD_DSTYLE_DIMRADIAL_EXTENSION
 70
     0
  0
APPID
  5
8B
330
9
100
AcDbSymbolTableRecord
100
AcDbRegAppTableRecord
  2
FUSIONTITLEBLOCK
 70
     0
  0
APPID
  5
8C
330
9
100
AcDbSymbolTableRecord
100
AcDbRegAppTableRecord
  2
FUSIONCURRENTTITLEBLOCK
 70
     0
  0
APPID
  5
8D
330
9
100
AcDbSymbolTableRecord
100
AcDbRegAppTableRecord
  2
AcSynergy
 70
     0
  0
APPID
  5
8E
330
9
100
AcDbSymbolTableRecord
100
AcDbRegAppTableRecord
  2
ACAD_VIEW_EDGE_ID
 70
     0
  0
APPID
  5
8F
330
9
100
AcDbSymbolTableRecord
100
AcDbRegAppTableRecord
  2
GENIUS_GENSCREG_15
 70
     0
  0
APPID
  5
90
330
9
100
AcDbSymbolTableRecord
100
AcDbRegAppTableRecord
  2
GENIUS_GENOBJ-N-SDF_13
 70
     0
  0
APPID
  5
91
330
9
100
AcDbSymbolTableRecord
100
AcDbRegAppTableRecord
  2
GENIUS_GENODEF_13
 70
     0
  0
APPID
  5
92
330
9
100
AcDbSymbolTableRecord
100
AcDbRegAppTableRecord
  2
ACAD_DIMASSOC_CALC_DIMLFAC
 70
     0
  0
APPID
  5
93
330
9
100
AcDbSymbolTableRecord
100
AcDbRegAppTableRecord
  2
ACAD_DIMASSOC_DIMLFAC
 70
     0
  0
APPID
  5
94
330
9
100
AcDbSymbolTableRecord
100
AcDbRegAppTableRecord
  2
ACAD_DIMASSOC_OVERRIDDEN_DIMLFAC
 70
     0
  0
APPID
  5
95
330
9
100
AcDbSymbolTableRecord
100
AcDbRegAppTableRecord
  2
FD_ATT_APPNAME
 70
     0
  0
APPID
  5
96
330
9
100
AcDbSymbolTableRecord
100
AcDbRegAppTableRecord
  2
ACAD_TC
 70
     0
  0
APPID
  5
97
330
9
100
AcDbSymbolTableRecord
100
AcDbRegAppTableRecord
  2
ACAD_DSTYLE_DIMJAG_POSITION
 70
     0
  0
APPID
  5
98
330
9
100
AcDbSymbolTableRecord
100
AcDbRegAppTableRecord
  2
ACATTRIBSERVICES
 70
     0
  0
ENDTAB
  0
TABLE
  2
DIMSTYLE
  5
A
330
0
100
AcDbSymbolTable
 70
     2
100
AcDbDimStyleTable
 71
     1
340
58
  0
DIMSTYLE
105
58
102
{ACAD_REACTORS
330
16C
330
176
330
18A
330
198
330
1A2
330
15B
102
}
330
A
100
AcDbSymbolTableRecord
100
AcDbDimStyleTableRecord
  2
Standard
 70
     0
  3
in
  4
mm
 41
0.12
 42
0.07
 43
0.36
 44
0.07
 47
0.01
 48
0.01
 78
    12
 79
     3
 90
        1
140
0.12
141
0.0
147
0.05
176
   256
177
   256
178
   256
179
     2
271
     2
272
     2
284
    12
285
    12
286
    12
340
55
  0
DIMSTYLE
105
59
330
A
100
AcDbSymbolTableRecord
100
AcDbDimStyleTableRecord
  2
Annotative
 70
     0
  3
in
  4
mm
 40
0.0
 41
0.12
 42
0.07
 43
0.36
 44
0.07
 78
    12
 79
     3
140
0.12
147
0.05
179
     2
271
     2
272
     2
284
    12
285
    12
286
    12
340
55
1001
AcadAnnotative
1000
AnnotativeData
1002
{
1070
     1
1070
     1
1002
}
  0
ENDTAB
  0
TABLE
  2
BLOCK_RECORD
  5
1
330
0
100
AcDbSymbolTable
 70
    19
  0
BLOCK_RECORD
  5
70
102
{ACAD_XDICTIONARY
360
B4
102
}
330
1
100
AcDbSymbolTableRecord
100
AcDbBlockTableRecord
  2
*Model_Space
340
73
 70
     0
280
     1
281
     0
  0
BLOCK_RECORD
  5
6C
330
1
100
AcDbSymbolTableRecord
100
AcDbBlockTableRecord
  2
*Paper_Space
340
6F
 70
     0
280
     1
281
     0
  0
BLOCK_RECORD
  5
74
330
1
100
AcDbSymbolTableRecord
100
AcDbBlockTableRecord
  2
*Paper_Space0
340
77
 70
     0
280
     1
281
     0
  0
BLOCK_RECORD
  5
117
102
{ACAD_XDICTIONARY
360
118
102
}
330
1
100
AcDbSymbolTableRecord
100
AcDbBlockTableRecord
  2
Shower
340
0
102
{BLKREFS
331
115
102
}
 70
     1
280
     1
281
     0
1001
FUSIONTITLEBLOCK
1000
TitleBlock
  0
BLOCK_RECORD
  5
13C
330
1
100
AcDbSymbolTableRecord
100
AcDbBlockTableRecord
  2
ANSI_B_SHEET
340
0
310
2800000020000000200000000100080000000000000400000000000000000000000000000000000000000000000080000080000000808000800000008000800080800000C0C0C000C0DCC000F0CAA6000020400000206000002080000020A0000020C0000020E00000400000004020000040400000406000004080000040A0
310
000040C0000040E00000600000006020000060400000606000006080000060A0000060C0000060E00000800000008020000080400000806000008080000080A0000080C0000080E00000A0000000A0200000A0400000A0600000A0800000A0A00000A0C00000A0E00000C0000000C0200000C0400000C0600000C0800000C0
310
A00000C0C00000C0E00000E0000000E0200000E0400000E0600000E0800000E0A00000E0C00000E0E00040000000400020004000400040006000400080004000A0004000C0004000E00040200000402020004020400040206000402080004020A0004020C0004020E000404000004040200040404000404060004040800040
310
40A0004040C0004040E00040600000406020004060400040606000406080004060A0004060C0004060E00040800000408020004080400040806000408080004080A0004080C0004080E00040A0000040A0200040A0400040A0600040A0800040A0A00040A0C00040A0E00040C0000040C0200040C0400040C0600040C08000
310
40C0A00040C0C00040C0E00040E0000040E0200040E0400040E0600040E0800040E0A00040E0C00040E0E00080000000800020008000400080006000800080008000A0008000C0008000E00080200000802020008020400080206000802080008020A0008020C0008020E00080400000804020008040400080406000804080
310
008040A0008040C0008040E00080600000806020008060400080606000806080008060A0008060C0008060E00080800000808020008080400080806000808080008080A0008080C0008080E00080A0000080A0200080A0400080A0600080A0800080A0A00080A0C00080A0E00080C0000080C0200080C0400080C0600080C0
310
800080C0A00080C0C00080C0E00080E0000080E0200080E0400080E0600080E0800080E0A00080E0C00080E0E000C0000000C0002000C0004000C0006000C0008000C000A000C000C000C000E000C0200000C0202000C0204000C0206000C0208000C020A000C020C000C020E000C0400000C0402000C0404000C0406000C0
310
408000C040A000C040C000C040E000C0600000C0602000C0604000C0606000C0608000C060A000C060C000C060E000C0800000C0802000C0804000C0806000C0808000C080A000C080C000C080E000C0A00000C0A02000C0A04000C0A06000C0A08000C0A0A000C0A0C000C0A0E000C0C00000C0C02000C0C04000C0C06000
310
C0C08000C0C0A000F0FBFF00A4A0A000808080000000FF0000FF000000FFFF00FF000000FF00FF00FFFF0000FFFFFF0049494949494949494949494949494949494949494949494949494949494949494949494949494949494949494949494949494949494949494949494949494949494949494949494949494949494949
310
494949494949494949494949494949494949494949494949494949494949494949494949494949494949494949494949494949494949494949494949494949494949494949494949494949494949494949494949494949494949494949494949494949494949494949494949494949494949FFFF4949494949494949494949
310
494949494949494949494949494949FFFF4949FFFFFFFFFFFFFFFFFFFFFFFFFFFFFFFFFFFFFFFFFFFFFFFFFFFFFFFFFFFF494949FF4949494949494949494949494949494949494949494949494949FF49494949FF4949494949494949494949494949494949494949494949494949FF49494949FF49494949494949494949
310
49494949494949494949494949494949FF49494949FF4949494949494949494949494949494949494949494949494949FF49494949FF4949494949494949494949494949494949494949494949494949FF49494949FF4949494949494949494949494949494949494949494949494949FF49494949FF494949494949494949
310
4949494949494949494949494949494949FF49494949FF4949494949494949494949494949494949494949494949494949FF49494949FF4949494949494949494949494949494949494949494949494949FF49494949FF4949494949494949494949494949494949494949494949494949FF49494949FF4949494949494949
310
494949494949494949494949494949494949FF49494949FF4949494949494949494949494949494949494949494949494949FF49494949FF4949494949494949494949494949494949494949494949494949FF49494949FF4949494949494949494949494949494949494949494949494949FF49494949FF49494949494949
310
49494949494949494949494949494949494949FF49494949FF4949494949494949494949494949494949494949494949494949FF494949FFFFFFFFFFFFFFFFFFFFFFFFFFFFFFFFFFFFFFFFFFFFFFFFFFFFFFFFFFFF4949FFFF4949494949494949494949494949494949494949494949494949FFFF49494949494949494949
310
49494949494949494949494949494949494949494949494949494949494949494949494949494949494949494949494949494949494949494949494949494949494949494949494949494949494949494949494949494949494949494949494949494949494949494949494949494949494949494949494949494949494949
310
4949494949494949494949494949494949494949494949494949494949494949494949494949494949494949494949494949494949494949
102
{BLKREFS
331
13A
102
}
 70
     1
280
     1
281
     0
  0
BLOCK_RECORD
  5
15D
330
1
100
AcDbSymbolTableRecord
100
AcDbBlockTableRecord
  2
*D6
340
0
 70
     0
280
     1
281
     0
  0
BLOCK_RECORD
  5
16D
330
1
100
AcDbSymbolTableRecord
100
AcDbBlockTableRecord
  2
*D7
340
0
 70
     0
280
     1
281
     0
  0
BLOCK_RECORD
  5
177
330
1
100
AcDbSymbolTableRecord
100
AcDbBlockTableRecord
  2
*D8
340
0
 70
     0
280
     1
281
     0
  0
BLOCK_RECORD
  5
186
330
1
100
AcDbSymbolTableRecord
100
AcDbBlockTableRecord
  2
*U9
340
0
102
{BLKREFS
331
184
102
}
 70
     0
280
     1
281
     0
  0
BLOCK_RECORD
  5
18B
330
1
100
AcDbSymbolTableRecord
100
AcDbBlockTableRecord
  2
*D10
340
0
 70
     0
280
     1
281
     0
  0
BLOCK_RECORD
  5
199
330
1
100
AcDbSymbolTableRecord
100
AcDbBlockTableRecord
  2
*D11
340
0
 70
     0
280
     1
281
     0
  0
BLOCK_RECORD
  5
1A3
330
1
100
AcDbSymbolTableRecord
100
AcDbBlockTableRecord
  2
*D12
340
0
 70
     0
280
     1
281
     0
  0
BLOCK_RECORD
  5
1B1
330
1
100
AcDbSymbolTableRecord
100
AcDbBlockTableRecord
  2
*D13
340
0
 70
     0
280
     1
281
     0
  0
BLOCK_RECORD
  5
1BE
330
1
100
AcDbSymbolTableRecord
100
AcDbBlockTableRecord
  2
*D14
340
0
 70
     0
280
     1
281
     0
  0
BLOCK_RECORD
  5
1C7
330
1
100
AcDbSymbolTableRecord
100
AcDbBlockTableRecord
  2
*D15
340
0
 70
     0
280
     1
281
     0
  0
BLOCK_RECORD
  5
1D4
330
1
100
AcDbSymbolTableRecord
100
AcDbBlockTableRecord
  2
*D16
340
0
 70
     0
280
     1
281
     0
  0
BLOCK_RECORD
  5
1E1
330
1
100
AcDbSymbolTableRecord
100
AcDbBlockTableRecord
  2
*D17
340
0
 70
     0
280
     1
281
     0
  0
BLOCK_RECORD
  5
1EA
330
1
100
AcDbSymbolTableRecord
100
AcDbBlockTableRecord
  2
*D18
340
0
 70
     0
280
     1
281
     0
  0
ENDTAB
  0
ENDSEC
  0
SECTION
  2
BLOCKS
  0
BLOCK
  5
71
330
70
100
AcDbEntity
  8
0
100
AcDbBlockBegin
  2
*Model_Space
 70
     0
 10
0.0
 20
0.0
 30
0.0
  3
*Model_Space
  1

  0
ENDBLK
  5
72
330
70
100
AcDbEntity
  8
0
100
AcDbBlockEnd
  0
BLOCK
  5
6D
330
6C
100
AcDbEntity
 67
     1
  8
0
100
AcDbBlockBegin
  2
*Paper_Space
 70
     0
 10
0.0
 20
0.0
 30
0.0
  3
*Paper_Space
  1

  0
ENDBLK
  5
6E
330
6C
100
AcDbEntity
 67
     1
  8
0
100
AcDbBlockEnd
  0
BLOCK
  5
75
330
74
100
AcDbEntity
 67
     1
  8
0
100
AcDbBlockBegin
  2
*Paper_Space0
 70
     0
 10
0.0
 20
0.0
 30
0.0
  3
*Paper_Space0
  1

  0
ENDBLK
  5
76
330
74
100
AcDbEntity
 67
     1
  8
0
100
AcDbBlockEnd
  0
BLOCK
  5
11A
330
117
100
AcDbEntity
  8
0
100
AcDbBlockBegin
  2
Shower
 70
     2
 10
0.0
 20
0.0
 30
0.0
  3
Shower
  1

  0
LWPOLYLINE
  5
11B
330
117
100
AcDbEntity
  8
Titleblock
100
AcDbPolyline
 90
        4
 70
     1
 43
0.0
 10
0.0
 20
0.0
 10
-4.9375
 20
0.0
 10
-4.9375
 20
2.5
 10
0.0
 20
2.5
  0
IMAGE
  5
11C
330
117
100
AcDbEntity
  8
Titleblock
  6
Continuous
160
               140
310
8C0000000100000084000000060000000500000000000000008013C000B87FA8928AB03F000000000000000000000000008013C035B4911D6523F03F000000000000000001000000008001C035B4911D6523F03F000000000000000001000000008001C000B87FA8928AB03F000000000000000000000000008013C000B87F
310
A8928AB03F0000000000000000
370
     0
100
AcDbRasterImage
 90
        0
 10
-4.875
 20
0.064614
 30
0.0
 11
0.0028349156118143
 21
0.0
 31
0.0
 12
0.0
 22
0.0028349156118143
 32
0.0
 13
948.0
 23
333.0
340
11D
 70
    15
280
     0
281
    50
282
    50
283
     0
290
     0
360
11F
 71
     1
 91
        2
 14
-0.5
 24
-0.5
 14
947.5
 24
332.5
  0
LWPOLYLINE
  5
121
330
117
100
AcDbEntity
  8
Titleblock
  6
Continuous
370
    25
100
AcDbPolyline
 90
        4
 70
     1
 43
0.0
 10
0.0
 20
1.0625
 10
-4.9375
 20
1.061638
 10
-4.9375
 20
0.0
 10
0.0
 20
0.0
  0
LWPOLYLINE
  5
122
330
117
100
AcDbEntity
  8
Titleblock
  6
Continuous
370
    25
100
AcDbPolyline
 90
        4
 70
     1
 43
0.0
 10
-1.75
 20
2.5
 10
0.0
 20
2.5
 10
0.0
 20
2.5
 10
-1.75
 20
2.5
  0
ATTDEF
  5
123
330
117
100
AcDbEntity
  8
Titleblock
  6
Continuous
370
    25
100
AcDbText
 10
-3.6875
 20
2.3125
 30
0.0
 40
0.12
  1

100
AcDbAttributeDefinition
280
     0
  3

  2
PROJECT
 70
     0
280
     1
  0
MTEXT
  5
124
330
117
100
AcDbEntity
  8
Titleblock
  6
Continuous
370
    25
100
AcDbMText
 10
-4.875
 20
1.653875
 30
0.0
 40
0.12
 41
0.6875
 46
0.0
 71
     1
 72
     5
  1
Description:
 73
     1
 44
1.0
1001
ACAD
1000
ACAD_MTEXT_COLUMN_INFO_BEGIN
1070
    75
1070
     2
1070
    79
1070
     0
1070
    76
1070
     1
1070
    78
1070
     0
1070
    48
1040
0.6875
1070
    49
1040
0.6
1070
    50
1070
     1
1040
0.0
1000
ACAD_MTEXT_COLUMN_INFO_END
  0
ATTDEF
  5
125
330
117
100
AcDbEntity
  8
Titleblock
  6
Continuous
370
    25
100
AcDbText
 10
-1.6875
 20
0.6875
 30
0.0
 40
0.12
  1

100
AcDbAttributeDefinition
280
     0
  3

  2
DRAWN_DATE
 70
     0
280
     1
  0
ATTDEF
  5
126
330
117
100
AcDbEntity
  8
Titleblock
  6
Continuous
370
    25
100
AcDbText
 10
-4.3125
 20
1.8125
 30
0.0
 40
0.3048
  1

100
AcDbAttributeDefinition
280
     0
  3

  2
TITLE_1
 70
     0
280
     1
  0
ATTDEF
  5
127
330
117
100
AcDbEntity
  8
Titleblock
  6
Continuous
370
    25
100
AcDbText
 10
-1.6875
 20
0.91994
 30
0.0
 40
0.12
  1

100
AcDbAttributeDefinition
280
     0
  3

  2
SCALE
 70
     0
280
     1
  0
LWPOLYLINE
  5
128
330
117
100
AcDbEntity
  8
Titleblock
  6
Continuous
370
    25
100
AcDbPolyline
 90
        4
 70
     1
 43
0.0
 10
0.0
 20
1.0625
 10
0.0
 20
1.0625
 10
0.0
 20
0.0
 10
0.0
 20
0.0
  0
LWPOLYLINE
  5
129
330
117
100
AcDbEntity
  8
Titleblock
  6
Continuous
370
    25
100
AcDbPolyline
 90
        4
 70
     1
 43
0.0
 10
0.0
 20
1.0625
 10
0.0
 20
1.0625
 10
0.0
 20
0.0
 10
0.0
 20
0.0
  0
LINE
  5
12A
330
117
100
AcDbEntity
  8
Titleblock
  6
Continuous
370
    25
100
AcDbLine
 10
-2.125
 20
1.062165
 30
0.0
 11
-2.125
 21
0.0
 31
0.0
  0
LWPOLYLINE
  5
12B
330
117
100
AcDbEntity
  8
Titleblock
  6
Continuous
370
    25
100
AcDbPolyline
 90
        4
 70
     1
 43
0.0
 10
-4.9375
 20
2.5
 10
0.0
 20
2.5
 10
0.0
 20
2.5
 10
-4.9375
 20
2.5
  0
LINE
  5
12C
330
117
100
AcDbEntity
  8
Titleblock
  6
Continuous
370
    25
100
AcDbLine
 10
-4.9375
 20
2.25
 30
0.0
 11
0.0
 21
2.25
 31
0.0
  0
LINE
  5
12D
330
117
100
AcDbEntity
  8
Titleblock
  6
Continuous
370
    25
100
AcDbLine
 10
-4.9375
 20
1.6875
 30
0.0
 11
0.0
 21
1.6875
 31
0.0
  0
MTEXT
  5
12E
330
117
100
AcDbEntity
  8
Titleblock
100
AcDbMText
 10
-4.875
 20
2.467284
 30
0.0
 40
0.12
 41
0.375
 46
0.0
 71
     1
 72
     5
  1
Project:
 73
     1
 44
1.0
1001
ACAD
1000
ACAD_MTEXT_COLUMN_INFO_BEGIN
1070
    75
1070
     2
1070
    79
1070
     0
1070
    76
1070
     1
1070
    78
1070
     0
1070
    48
1040
0.375
1070
    49
1040
0.6
1070
    50
1070
     1
1040
0.0
1000
ACAD_MTEXT_COLUMN_INFO_END
  0
MTEXT
  5
12F
330
117
100
AcDbEntity
  8
Titleblock
100
AcDbMText
 10
-2.0625
 20
1.045477
 30
0.0
 40
0.075
 41
0.375
 46
0.0
 71
     1
 72
     5
  1
Scale:
 73
     1
 44
1.0
1001
ACAD
1000
ACAD_MTEXT_COLUMN_INFO_BEGIN
1070
    75
1070
     2
1070
    79
1070
     0
1070
    76
1070
     1
1070
    78
1070
     0
1070
    48
1040
0.375
1070
    49
1040
0.6
1070
    50
1070
     1
1040
0.0
1000
ACAD_MTEXT_COLUMN_INFO_END
  0
MTEXT
  5
130
330
117
100
AcDbEntity
  8
Titleblock
100
AcDbMText
 10
-2.0625
 20
0.857735
 30
0.0
 40
0.075
 41
0.375
 46
0.0
 71
     1
 72
     5
  1
Date Drawn:
 73
     1
 44
1.0
1001
ACAD
1000
ACAD_MTEXT_COLUMN_INFO_BEGIN
1070
    75
1070
     2
1070
    79
1070
     0
1070
    76
1070
     1
1070
    78
1070
     0
1070
    48
1040
0.375
1070
    49
1040
0.6
1070
    50
1070
     1
1040
0.0
1000
ACAD_MTEXT_COLUMN_INFO_END
  0
LINE
  5
131
330
117
100
AcDbEntity
  8
Titleblock
100
AcDbLine
 10
-2.125
 20
0.875
 30
0.0
 11
0.0
 21
0.875
 31
0.0
  0
LINE
  5
132
330
117
100
AcDbEntity
  8
Titleblock
100
AcDbLine
 10
-2.125
 20
0.625
 30
0.0
 11
0.0
 21
0.625
 31
0.0
  0
MTEXT
  5
133
330
117
100
AcDbEntity
  8
Titleblock
100
AcDbMText
 10
-4.875
 20
2.220603
 30
0.0
 40
0.12
 41
0.625
 46
0.0
 71
     1
 72
     5
  1
Title:
 73
     1
 44
1.0
1001
ACAD
1000
ACAD_MTEXT_COLUMN_INFO_BEGIN
1070
    75
1070
     2
1070
    79
1070
     0
1070
    76
1070
     1
1070
    78
1070
     0
1070
    48
1040
0.625
1070
    49
1040
0.6
1070
    50
1070
     1
1040
0.0
1000
ACAD_MTEXT_COLUMN_INFO_END
  0
ENDBLK
  5
134
330
117
100
AcDbEntity
  8
0
100
AcDbBlockEnd
  0
BLOCK
  5
13D
330
13C
100
AcDbEntity
  8
0
100
AcDbBlockBegin
  2
ANSI_B_SHEET
 70
     0
 10
0.0
 20
0.0
 30
0.0
  3
ANSI_B_SHEET
  1

  0
LINE
  5
13E
330
13C
100
AcDbEntity
  8
Border
100
AcDbLine
 10
0.0
 20
0.0
 30
0.0
 11
0.5
 21
0.0
 31
0.0
  0
LINE
  5
13F
330
13C
100
AcDbEntity
  8
Border
100
AcDbLine
 10
16.5
 20
0.0
 30
0.0
 11
17.0
 21
0.0
 31
0.0
  0
LINE
  5
140
330
13C
100
AcDbEntity
  8
Border
100
AcDbLine
 10
0.62
 20
0.38
 30
0.0
 11
16.38
 21
0.38
 31
0.0
  0
LINE
  5
141
330
13C
100
AcDbEntity
  8
Border
100
AcDbLine
 10
17.0
 20
0.0
 30
0.0
 11
17.0
 21
0.5
 31
0.0
  0
LINE
  5
142
330
13C
100
AcDbEntity
  8
Border
100
AcDbLine
 10
17.0
 20
10.5
 30
0.0
 11
17.0
 21
11.0
 31
0.0
  0
LINE
  5
143
330
13C
100
AcDbEntity
  8
Border
100
AcDbLine
 10
16.38
 20
0.38
 30
0.0
 11
16.38
 21
10.62
 31
0.0
  0
LINE
  5
144
330
13C
100
AcDbEntity
  8
Border
100
AcDbLine
 10
17.0
 20
11.0
 30
0.0
 11
16.5
 21
11.0
 31
0.0
  0
LINE
  5
145
330
13C
100
AcDbEntity
  8
Border
100
AcDbLine
 10
0.5
 20
11.0
 30
0.0
 11
0.0
 21
11.0
 31
0.0
  0
LINE
  5
146
330
13C
100
AcDbEntity
  8
Border
100
AcDbLine
 10
16.38
 20
10.62
 30
0.0
 11
0.62
 21
10.62
 31
0.0
  0
LINE
  5
147
330
13C
100
AcDbEntity
  8
Border
100
AcDbLine
 10
0.0
 20
11.0
 30
0.0
 11
0.0
 21
10.5
 31
0.0
  0
LINE
  5
148
330
13C
100
AcDbEntity
  8
Border
100
AcDbLine
 10
0.0
 20
0.5
 30
0.0
 11
0.0
 21
0.0
 31
0.0
  0
LINE
  5
149
330
13C
100
AcDbEntity
  8
Border
100
AcDbLine
 10
0.62
 20
10.62
 30
0.0
 11
0.62
 21
0.38
 31
0.0
  0
LINE
  5
14A
330
13C
100
AcDbEntity
  8
Border
100
AcDbLine
 10
8.413397
 20
0.23
 30
0.0
 11
8.586603
 21
0.23
 31
0.0
  0
LINE
  5
14B
330
13C
100
AcDbEntity
  8
Border
100
AcDbLine
 10
8.5
 20
0.38
 30
0.0
 11
8.5
 21
0.13
 31
0.0
  0
LINE
  5
14C
330
13C
100
AcDbEntity
  8
Border
100
AcDbLine
 10
8.5
 20
0.38
 30
0.0
 11
8.413397
 21
0.23
 31
0.0
  0
LINE
  5
14D
330
13C
100
AcDbEntity
  8
Border
100
AcDbLine
 10
8.5
 20
0.38
 30
0.0
 11
8.586603
 21
0.23
 31
0.0
  0
LINE
  5
14E
330
13C
100
AcDbEntity
  8
Border
100
AcDbLine
 10
0.47
 20
5.586603
 30
0.0
 11
0.47
 21
5.413397
 31
0.0
  0
LINE
  5
14F
330
13C
100
AcDbEntity
  8
Border
100
AcDbLine
 10
0.62
 20
5.5
 30
0.0
 11
0.37
 21
5.5
 31
0.0
  0
LINE
  5
150
330
13C
100
AcDbEntity
  8
Border
100
AcDbLine
 10
0.62
 20
5.5
 30
0.0
 11
0.47
 21
5.586603
 31
0.0
  0
LINE
  5
151
330
13C
100
AcDbEntity
  8
Border
100
AcDbLine
 10
0.62
 20
5.5
 30
0.0
 11
0.47
 21
5.413397
 31
0.0
  0
LINE
  5
152
330
13C
100
AcDbEntity
  8
Border
100
AcDbLine
 10
16.53
 20
5.586603
 30
0.0
 11
16.53
 21
5.413397
 31
0.0
  0
LINE
  5
153
330
13C
100
AcDbEntity
  8
Border
100
AcDbLine
 10
16.38
 20
5.5
 30
0.0
 11
16.63
 21
5.5
 31
0.0
  0
LINE
  5
154
330
13C
100
AcDbEntity
  8
Border
100
AcDbLine
 10
16.38
 20
5.5
 30
0.0
 11
16.53
 21
5.586603
 31
0.0
  0
LINE
  5
155
330
13C
100
AcDbEntity
  8
Border
100
AcDbLine
 10
16.38
 20
5.5
 30
0.0
 11
16.53
 21
5.413397
 31
0.0
  0
LINE
  5
156
330
13C
100
AcDbEntity
  8
Border
100
AcDbLine
 10
8.413397
 20
10.77
 30
0.0
 11
8.586603
 21
10.77
 31
0.0
  0
LINE
  5
157
330
13C
100
AcDbEntity
  8
Border
100
AcDbLine
 10
8.5
 20
10.62
 30
0.0
 11
8.5
 21
10.87
 31
0.0
  0
LINE
  5
158
330
13C
100
AcDbEntity
  8
Border
100
AcDbLine
 10
8.5
 20
10.62
 30
0.0
 11
8.413397
 21
10.77
 31
0.0
  0
LINE
  5
159
330
13C
100
AcDbEntity
  8
Border
100
AcDbLine
 10
8.5
 20
10.62
 30
0.0
 11
8.586603
 21
10.77
 31
0.0
  0
ENDBLK
  5
15A
330
13C
100
AcDbEntity
  8
0
100
AcDbBlockEnd
  0
BLOCK
  5
15E
330
15D
100
AcDbEntity
  8
0
100
AcDbBlockBegin
  2
*D6
 70
     1
 10
0.0
 20
0.0
 30
0.0
  3
*D6
  1

  0
LINE
  5
15F
330
15D
100
AcDbEntity
  8
Dimensions
440
 16777216
370
    -2
100
AcDbLine
 10
9.766155
 20
7.526572
 30
0.0
 11
10.444978
 21
7.526572
 31
0.0
  0
LINE
  5
160
330
15D
100
AcDbEntity
  8
Dimensions
440
 16777216
370
    -2
100
AcDbLine
 10
8.492307
 20
4.82248
 30
0.0
 11
10.444978
 21
4.82248
 31
0.0
  0
LINE
  5
161
330
15D
100
AcDbEntity
  8
Dimensions
440
 16777216
370
    -2
100
AcDbLine
 10
10.374978
 20
7.406572
 30
0.0
 11
10.374978
 21
6.284772
 31
0.0
  0
LINE
  5
162
330
15D
100
AcDbEntity
  8
Dimensions
440
 16777216
370
    -2
100
AcDbLine
 10
10.374978
 20
4.94248
 30
0.0
 11
10.374978
 21
6.06428
 31
0.0
  0
SOLID
  5
163
330
15D
100
AcDbEntity
  8
Dimensions
440
 16777216
100
AcDbTrace
 10
10.354978
 20
7.406572
 30
0.0
 11
10.394978
 21
7.406572
 31
0.0
 12
10.374978
 22
7.526572
 32
0.0
 13
10.374978
 23
7.526572
 33
0.0
  0
SOLID
  5
164
330
15D
100
AcDbEntity
  8
Dimensions
440
 16777216
100
AcDbTrace
 10
10.354978
 20
4.94248
 30
0.0
 11
10.394978
 21
4.94248
 31
0.0
 12
10.374978
 22
4.82248
 32
0.0
 13
10.374978
 23
4.82248
 33
0.0
  0
MTEXT
  5
165
330
15D
100
AcDbEntity
  8
Dimensions
440
 16777216
100
AcDbMText
 10
10.374978
 20
6.174526
 30
0.0
 40
0.12
 41
0.0
 46
0.0
 71
     5
 72
     1
  1
\A1;**2.7in
 73
     1
 44
1.0
  0
POINT
  5
166
330
15D
100
AcDbEntity
  8
Defpoints
 62
     0
440
 16777216
100
AcDbPoint
 10
9.696155
 20
7.526572
 30
0.0
  0
POINT
  5
167
330
15D
100
AcDbEntity
  8
Defpoints
 62
     0
440
 16777216
100
AcDbPoint
 10
8.422307
 20
4.82248
 30
0.0
  0
POINT
  5
168
330
15D
100
AcDbEntity
  8
Defpoints
 62
     0
440
 16777216
100
AcDbPoint
 10
10.374978
 20
4.82248
 30
0.0
  0
ENDBLK
  5
169
330
15D
100
AcDbEntity
  8
0
100
AcDbBlockEnd
  0
BLOCK
  5
16E
330
16D
100
AcDbEntity
  8
0
100
AcDbBlockBegin
  2
*D7
 70
     1
 10
0.0
 20
0.0
 30
0.0
  3
*D7
  1

  0
LINE
  5
16F
330
16D
100
AcDbEntity
  8
Dimensions
440
 16777216
370
    -2
100
AcDbLine
 10
7.273404
 20
4.109165
 30
0.0
 11
7.45002
 21
4.109165
 31
0.0
  0
LINE
  5
170
330
16D
100
AcDbEntity
  8
Dimensions
440
 16777216
370
    -2
100
AcDbLine
 10
7.45002
 20
4.109165
 30
0.0
 11
7.928759
 21
4.46039
 31
0.0
  0
MTEXT
  5
171
330
16D
100
AcDbEntity
  8
Dimensions
440
 16777216
100
AcDbMText
 10
6.985614
 20
4.109165
 30
0.0
 40
0.12
 41
0.0
 46
0.0
 71
     5
 72
     1
  1
\A1;∅.98in
 73
     1
 44
1.0
  0
SOLID
  5
172
330
16D
100
AcDbEntity
  8
Dimensions
440
 16777216
100
AcDbTrace
 10
7.916928
 20
4.476516
 30
0.0
 11
7.94059
 21
4.444265
 31
0.0
 12
8.025513
 22
4.531374
 32
0.0
 13
8.025513
 23
4.531374
 33
0.0
  0
POINT
  5
173
330
16D
100
AcDbEntity
  8
Defpoints
 62
     0
440
 16777216
100
AcDbPoint
 10
8.025513
 20
4.531374
 30
0.0
  0
POINT
  5
174
330
16D
100
AcDbEntity
  8
Defpoints
 62
     0
440
 16777216
100
AcDbPoint
 10
8.8191
 20
5.113587
 30
0.0
  0
ENDBLK
  5
175
330
16D
100
AcDbEntity
  8
0
100
AcDbBlockEnd
  0
BLOCK
  5
178
330
177
100
AcDbEntity
  8
0
100
AcDbBlockBegin
  2
*D8
 70
     1
 10
0.0
 20
0.0
 30
0.0
  3
*D8
  1

  0
LINE
  5
179
330
177
100
AcDbEntity
  8
Dimensions
440
 16777216
370
    -2
100
AcDbLine
 10
8.146716
 20
3.61381
 30
0.0
 11
8.146716
 21
2.934987
 31
0.0
  0
LINE
  5
17A
330
177
100
AcDbEntity
  8
Dimensions
440
 16777216
370
    -2
100
AcDbLine
 10
8.697897
 20
3.61381
 30
0.0
 11
8.697897
 21
2.934987
 31
0.0
  0
LINE
  5
17B
330
177
100
AcDbEntity
  8
Dimensions
440
 16777216
370
    -2
100
AcDbLine
 10
8.026716
 20
3.004987
 30
0.0
 11
7.906716
 21
3.004987
 31
0.0
  0
LINE
  5
17C
330
177
100
AcDbEntity
  8
Dimensions
440
 16777216
370
    -2
100
AcDbLine
 10
8.817897
 20
3.004987
 30
0.0
 11
8.937897
 21
3.004987
 31
0.0
  0
SOLID
  5
17D
330
177
100
AcDbEntity
  8
Dimensions
440
 16777216
100
AcDbTrace
 10
8.026716
 20
3.024987
 30
0.0
 11
8.026716
 21
2.984987
 31
0.0
 12
8.146716
 22
3.004987
 32
0.0
 13
8.146716
 23
3.004987
 33
0.0
  0
SOLID
  5
17E
330
177
100
AcDbEntity
  8
Dimensions
440
 16777216
100
AcDbTrace
 10
8.817897
 20
3.024987
 30
0.0
 11
8.817897
 21
2.984987
 31
0.0
 12
8.697897
 22
3.004987
 32
0.0
 13
8.697897
 23
3.004987
 33
0.0
  0
MTEXT
  5
17F
330
177
100
AcDbEntity
  8
Dimensions
440
 16777216
100
AcDbMText
 10
8.422307
 20
3.004987
 30
0.0
 40
0.12
 41
0.0
 46
0.0
 71
     5
 72
     1
  1
\A1;.55in
 73
     1
 44
1.0
  0
POINT
  5
180
330
177
100
AcDbEntity
  8
Defpoints
 62
     0
440
 16777216
100
AcDbPoint
 10
8.146716
 20
3.68381
 30
0.0
  0
POINT
  5
181
330
177
100
AcDbEntity
  8
Defpoints
 62
     0
440
 16777216
100
AcDbPoint
 10
8.697897
 20
3.68381
 30
0.0
  0
POINT
  5
182
330
177
100
AcDbEntity
  8
Defpoints
 62
     0
440
 16777216
100
AcDbPoint
 10
8.697897
 20
3.004987
 30
0.0
  0
ENDBLK
  5
183
330
177
100
AcDbEntity
  8
0
100
AcDbBlockEnd
  0
BLOCK
  5
187
330
186
100
AcDbEntity
  8
0
100
AcDbBlockBegin
  2
*U9
 70
     1
 10
0.0
 20
0.0
 30
0.0
  3
*U9
  1

  0
LINE
  5
188
330
186
100
AcDbEntity
  8
Center Lines
 62
     0
440
 16777216
 48
0.75
100
AcDbLine
 10
0.0
 20
-1.986428
 30
0.0
 11
0.0
 21
1.986428
 31
0.0
  0
ENDBLK
  5
189
330
186
100
AcDbEntity
  8
0
100
AcDbBlockEnd
  0
BLOCK
  5
18C
330
18B
100
AcDbEntity
  8
0
100
AcDbBlockBegin
  2
*D10
 70
     1
 10
0.0
 20
0.0
 30
0.0
  3
*D10
  1

  0
LINE
  5
18D
330
18B
100
AcDbEntity
  8
Dimensions
440
 16777216
370
    -2
100
AcDbLine
 10
5.263893
 20
7.606665
 30
0.0
 11
5.263893
 21
8.392536
 31
0.0
  0
LINE
  5
18E
330
18B
100
AcDbEntity
  8
Dimensions
440
 16777216
370
    -2
100
AcDbLine
 10
2.114287
 20
5.384606
 30
0.0
 11
2.114287
 21
8.392536
 31
0.0
  0
LINE
  5
18F
330
18B
100
AcDbEntity
  8
Dimensions
440
 16777216
370
    -2
100
AcDbLine
 10
5.143893
 20
8.322536
 30
0.0
 11
3.958176
 21
8.322536
 31
0.0
  0
LINE
  5
190
330
18B
100
AcDbEntity
  8
Dimensions
440
 16777216
370
    -2
100
AcDbLine
 10
2.234287
 20
8.322536
 30
0.0
 11
3.420004
 21
8.322536
 31
0.0
  0
SOLID
  5
191
330
18B
100
AcDbEntity
  8
Dimensions
440
 16777216
100
AcDbTrace
 10
5.143893
 20
8.342536
 30
0.0
 11
5.143893
 21
8.302536
 31
0.0
 12
5.263893
 22
8.322536
 32
0.0
 13
5.263893
 23
8.322536
 33
0.0
  0
SOLID
  5
192
330
18B
100
AcDbEntity
  8
Dimensions
440
 16777216
100
AcDbTrace
 10
2.234287
 20
8.342536
 30
0.0
 11
2.234287
 21
8.302536
 31
0.0
 12
2.114287
 22
8.322536
 32
0.0
 13
2.114287
 23
8.322536
 33
0.0
  0
MTEXT
  5
193
330
18B
100
AcDbEntity
  8
Dimensions
440
 16777216
100
AcDbMText
 10
3.68909
 20
8.322536
 30
0.0
 40
0.12
 41
0.0
 46
0.0
 71
     5
 72
     1
  1
\A1;3.15in
 73
     1
 44
1.0
  0
POINT
  5
194
330
18B
100
AcDbEntity
  8
Defpoints
 62
     0
440
 16777216
100
AcDbPoint
 10
5.263893
 20
7.536665
 30
0.0
  0
POINT
  5
195
330
18B
100
AcDbEntity
  8
Defpoints
 62
     0
440
 16777216
100
AcDbPoint
 10
2.114287
 20
5.314606
 30
0.0
  0
POINT
  5
196
330
18B
100
AcDbEntity
  8
Defpoints
 62
     0
440
 16777216
100
AcDbPoint
 10
2.114287
 20
8.322536
 30
0.0
  0
ENDBLK
  5
197
330
18B
100
AcDbEntity
  8
0
100
AcDbBlockEnd
  0
BLOCK
  5
19A
330
199
100
AcDbEntity
  8
0
100
AcDbBlockBegin
  2
*D11
 70
     1
 10
0.0
 20
0.0
 30
0.0
  3
*D11
  1

  0
LINE
  5
19B
330
199
100
AcDbEntity
  8
Dimensions
440
 16777216
370
    -2
100
AcDbLine
 10
5.966851
 20
8.533343
 30
0.0
 11
6.086523
 21
8.542203
 31
0.0
  0
MTEXT
  5
19C
330
199
100
AcDbEntity
  8
Dimensions
440
 16777216
100
AcDbMText
 10
5.679061
 20
8.533343
 30
0.0
 40
0.12
 41
0.0
 46
0.0
 71
     5
 72
     1
  1
\A1;∅1.9in
 73
     1
 44
1.0
  0
SOLID
  5
19D
330
199
100
AcDbEntity
  8
Dimensions
440
 16777216
100
AcDbTrace
 10
6.085046
 20
8.562149
 30
0.0
 11
6.088
 21
8.522258
 31
0.0
 12
6.206195
 22
8.551064
 32
0.0
 13
6.206195
 23
8.551064
 33
0.0
  0
ARC
  5
19E
330
199
100
AcDbEntity
  8
Dimensions
440
 16777216
370
    -2
100
AcDbCircle
 10
5.263893
 20
8.481296
 30
0.0
 40
0.9448818897637703
100
AcDbArc
 50
304.58597
 51
8.479055
  0
POINT
  5
19F
330
199
100
AcDbEntity
  8
Defpoints
 62
     0
440
 16777216
100
AcDbPoint
 10
6.206195
 20
8.551064
 30
0.0
  0
POINT
  5
1A0
330
199
100
AcDbEntity
  8
Defpoints
 62
     0
440
 16777216
100
AcDbPoint
 10
4.32159
 20
8.411529
 30
0.0
  0
ENDBLK
  5
1A1
330
199
100
AcDbEntity
  8
0
100
AcDbBlockEnd
  0
BLOCK
  5
1A4
330
1A3
100
AcDbEntity
  8
0
100
AcDbBlockBegin
  2
*D12
 70
     1
 10
0.0
 20
0.0
 30
0.0
  3
*D12
  1

  0
LINE
  5
1A5
330
1A3
100
AcDbEntity
  8
Dimensions
440
 16777216
370
    -2
100
AcDbLine
 10
7.139678
 20
7.592123
 30
0.0
 11
7.139678
 21
8.084232
 31
0.0
  0
LINE
  5
1A6
330
1A3
100
AcDbEntity
  8
Dimensions
440
 16777216
370
    -2
100
AcDbLine
 10
9.704935
 20
7.592123
 30
0.0
 11
9.704935
 21
8.084232
 31
0.0
  0
LINE
  5
1A7
330
1A3
100
AcDbEntity
  8
Dimensions
440
 16777216
370
    -2
100
AcDbLine
 10
7.259678
 20
8.014232
 30
0.0
 11
8.152156
 21
8.014232
 31
0.0
  0
LINE
  5
1A8
330
1A3
100
AcDbEntity
  8
Dimensions
440
 16777216
370
    -2
100
AcDbLine
 10
9.584935
 20
8.014232
 30
0.0
 11
8.692457
 21
8.014232
 31
0.0
  0
SOLID
  5
1A9
330
1A3
100
AcDbEntity
  8
Dimensions
440
 16777216
100
AcDbTrace
 10
7.259678
 20
8.034232
 30
0.0
 11
7.259678
 21
7.994232
 31
0.0
 12
7.139678
 22
8.014232
 32
0.0
 13
7.139678
 23
8.014232
 33
0.0
  0
SOLID
  5
1AA
330
1A3
100
AcDbEntity
  8
Dimensions
440
 16777216
100
AcDbTrace
 10
9.584935
 20
8.034232
 30
0.0
 11
9.584935
 21
7.994232
 31
0.0
 12
9.704935
 22
8.014232
 32
0.0
 13
9.704935
 23
8.014232
 33
0.0
  0
MTEXT
  5
1AB
330
1A3
100
AcDbEntity
  8
Dimensions
440
 16777216
100
AcDbMText
 10
8.422307
 20
8.014232
 30
0.0
 40
0.12
 41
0.0
 46
0.0
 71
     5
 72
     1
  1
\A1;2.57in
 73
     1
 44
1.0
  0
POINT
  5
1AC
330
1A3
100
AcDbEntity
  8
Defpoints
 62
     0
440
 16777216
100
AcDbPoint
 10
7.139678
 20
7.522123
 30
0.0
  0
POINT
  5
1AD
330
1A3
100
AcDbEntity
  8
Defpoints
 62
     0
440
 16777216
100
AcDbPoint
 10
9.704935
 20
7.522123
 30
0.0
  0
POINT
  5
1AE
330
1A3
100
AcDbEntity
  8
Defpoints
 62
     0
440
 16777216
100
AcDbPoint
 10
9.704935
 20
8.014232
 30
0.0
  0
ENDBLK
  5
1AF
330
1A3
100
AcDbEntity
  8
0
100
AcDbBlockEnd
  0
BLOCK
  5
1B2
330
1B1
100
AcDbEntity
  8
0
100
AcDbBlockBegin
  2
*D13
 70
     1
 10
0.0
 20
0.0
 30
0.0
  3
*D13
  1

  0
LINE
  5
323
330
1B1
100
AcDbEntity
  8
Dimensions
440
 16777216
370
    -2
100
AcDbLine
 10
9.766155
 20
7.526572
 30
0.0
 11
10.444978
 21
7.526572
 31
0.0
  0
LINE
  5
324
330
1B1
100
AcDbEntity
  8
Dimensions
440
 16777216
370
    -2
100
AcDbLine
 10
8.492307
 20
4.82248
 30
0.0
 11
10.444978
 21
4.82248
 31
0.0
  0
LINE
  5
325
330
1B1
100
AcDbEntity
  8
Dimensions
440
 16777216
370
    -2
100
AcDbLine
 10
10.374978
 20
7.406572
 30
0.0
 11
10.374978
 21
6.284772
 31
0.0
  0
LINE
  5
326
330
1B1
100
AcDbEntity
  8
Dimensions
440
 16777216
370
    -2
100
AcDbLine
 10
10.374978
 20
4.94248
 30
0.0
 11
10.374978
 21
6.06428
 31
0.0
  0
SOLID
  5
327
330
1B1
100
AcDbEntity
  8
Dimensions
440
 16777216
100
AcDbTrace
 10
10.354978
 20
7.406572
 30
0.0
 11
10.394978
 21
7.406572
 31
0.0
 12
10.374978
 22
7.526572
 32
0.0
 13
10.374978
 23
7.526572
 33
0.0
  0
SOLID
  5
328
330
1B1
100
AcDbEntity
  8
Dimensions
440
 16777216
100
AcDbTrace
 10
10.354978
 20
4.94248
 30
0.0
 11
10.394978
 21
4.94248
 31
0.0
 12
10.374978
 22
4.82248
 32
0.0
 13
10.374978
 23
4.82248
 33
0.0
  0
MTEXT
  5
329
330
1B1
100
AcDbEntity
  8
Dimensions
440
 16777216
100
AcDbMText
 10
10.374978
 20
6.174526
 30
0.0
 40
0.12
 41
0.0
 46
0.0
 71
     5
 72
     1
  1
\A1;**2.7in
 73
     1
 44
1.0
  0
POINT
  5
32A
330
1B1
100
AcDbEntity
  8
Defpoints
 62
     0
440
 16777216
100
AcDbPoint
 10
9.696155
 20
7.526572
 30
0.0
  0
POINT
  5
32B
330
1B1
100
AcDbEntity
  8
Defpoints
 62
     0
440
 16777216
100
AcDbPoint
 10
8.422307
 20
4.82248
 30
0.0
  0
POINT
  5
32C
330
1B1
100
AcDbEntity
  8
Defpoints
 62
     0
440
 16777216
100
AcDbPoint
 10
10.374978
 20
4.82248
 30
0.0
  0
ENDBLK
  5
1B3
330
1B1
100
AcDbEntity
  8
0
100
AcDbBlockEnd
  0
BLOCK
  5
1BF
330
1BE
100
AcDbEntity
  8
0
100
AcDbBlockBegin
  2
*D14
 70
     1
 10
0.0
 20
0.0
 30
0.0
  3
*D14
  1

  0
LINE
  5
32D
330
1BE
100
AcDbEntity
  8
Dimensions
440
 16777216
370
    -2
100
AcDbLine
 10
7.273404
 20
4.109165
 30
0.0
 11
7.45002
 21
4.109165
 31
0.0
  0
LINE
  5
32E
330
1BE
100
AcDbEntity
  8
Dimensions
440
 16777216
370
    -2
100
AcDbLine
 10
7.45002
 20
4.109165
 30
0.0
 11
7.928759
 21
4.46039
 31
0.0
  0
MTEXT
  5
32F
330
1BE
100
AcDbEntity
  8
Dimensions
440
 16777216
100
AcDbMText
 10
6.985614
 20
4.109165
 30
0.0
 40
0.12
 41
0.0
 46
0.0
 71
     5
 72
     1
  1
\A1;∅.98in
 73
     1
 44
1.0
  0
SOLID
  5
330
330
1BE
100
AcDbEntity
  8
Dimensions
440
 16777216
100
AcDbTrace
 10
7.916928
 20
4.476516
 30
0.0
 11
7.94059
 21
4.444265
 31
0.0
 12
8.025513
 22
4.531374
 32
0.0
 13
8.025513
 23
4.531374
 33
0.0
  0
POINT
  5
331
330
1BE
100
AcDbEntity
  8
Defpoints
 62
     0
440
 16777216
100
AcDbPoint
 10
8.025513
 20
4.531374
 30
0.0
  0
POINT
  5
332
330
1BE
100
AcDbEntity
  8
Defpoints
 62
     0
440
 16777216
100
AcDbPoint
 10
8.8191
 20
5.113587
 30
0.0
  0
ENDBLK
  5
1C0
330
1BE
100
AcDbEntity
  8
0
100
AcDbBlockEnd
  0
BLOCK
  5
1C8
330
1C7
100
AcDbEntity
  8
0
100
AcDbBlockBegin
  2
*D15
 70
     1
 10
0.0
 20
0.0
 30
0.0
  3
*D15
  1

  0
LINE
  5
333
330
1C7
100
AcDbEntity
  8
Dimensions
440
 16777216
370
    -2
100
AcDbLine
 10
8.146716
 20
3.61381
 30
0.0
 11
8.146716
 21
2.934987
 31
0.0
  0
LINE
  5
334
330
1C7
100
AcDbEntity
  8
Dimensions
440
 16777216
370
    -2
100
AcDbLine
 10
8.697897
 20
3.61381
 30
0.0
 11
8.697897
 21
2.934987
 31
0.0
  0
LINE
  5
335
330
1C7
100
AcDbEntity
  8
Dimensions
440
 16777216
370
    -2
100
AcDbLine
 10
8.026716
 20
3.004987
 30
0.0
 11
7.906716
 21
3.004987
 31
0.0
  0
LINE
  5
336
330
1C7
100
AcDbEntity
  8
Dimensions
440
 16777216
370
    -2
100
AcDbLine
 10
8.817897
 20
3.004987
 30
0.0
 11
8.937897
 21
3.004987
 31
0.0
  0
SOLID
  5
337
330
1C7
100
AcDbEntity
  8
Dimensions
440
 16777216
100
AcDbTrace
 10
8.026716
 20
3.024987
 30
0.0
 11
8.026716
 21
2.984987
 31
0.0
 12
8.146716
 22
3.004987
 32
0.0
 13
8.146716
 23
3.004987
 33
0.0
  0
SOLID
  5
338
330
1C7
100
AcDbEntity
  8
Dimensions
440
 16777216
100
AcDbTrace
 10
8.817897
 20
3.024987
 30
0.0
 11
8.817897
 21
2.984987
 31
0.0
 12
8.697897
 22
3.004987
 32
0.0
 13
8.697897
 23
3.004987
 33
0.0
  0
MTEXT
  5
339
330
1C7
100
AcDbEntity
  8
Dimensions
440
 16777216
100
AcDbMText
 10
8.422307
 20
3.004987
 30
0.0
 40
0.12
 41
0.0
 46
0.0
 71
     5
 72
     1
  1
\A1;.55in
 73
     1
 44
1.0
  0
POINT
  5
33A
330
1C7
100
AcDbEntity
  8
Defpoints
 62
     0
440
 16777216
100
AcDbPoint
 10
8.146716
 20
3.68381
 30
0.0
  0
POINT
  5
33B
330
1C7
100
AcDbEntity
  8
Defpoints
 62
     0
440
 16777216
100
AcDbPoint
 10
8.697897
 20
3.68381
 30
0.0
  0
POINT
  5
33C
330
1C7
100
AcDbEntity
  8
Defpoints
 62
     0
440
 16777216
100
AcDbPoint
 10
8.697897
 20
3.004987
 30
0.0
  0
ENDBLK
  5
1C9
330
1C7
100
AcDbEntity
  8
0
100
AcDbBlockEnd
  0
BLOCK
  5
1D5
330
1D4
100
AcDbEntity
  8
0
100
AcDbBlockBegin
  2
*D16
 70
     1
 10
0.0
 20
0.0
 30
0.0
  3
*D16
  1

  0
LINE
  5
33D
330
1D4
100
AcDbEntity
  8
Dimensions
440
 16777216
370
    -2
100
AcDbLine
 10
5.263893
 20
7.606665
 30
0.0
 11
5.263893
 21
8.392536
 31
0.0
  0
LINE
  5
33E
330
1D4
100
AcDbEntity
  8
Dimensions
440
 16777216
370
    -2
100
AcDbLine
 10
2.114287
 20
5.384606
 30
0.0
 11
2.114287
 21
8.392536
 31
0.0
  0
LINE
  5
33F
330
1D4
100
AcDbEntity
  8
Dimensions
440
 16777216
370
    -2
100
AcDbLine
 10
5.143893
 20
8.322536
 30
0.0
 11
3.958176
 21
8.322536
 31
0.0
  0
LINE
  5
340
330
1D4
100
AcDbEntity
  8
Dimensions
440
 16777216
370
    -2
100
AcDbLine
 10
2.234287
 20
8.322536
 30
0.0
 11
3.420004
 21
8.322536
 31
0.0
  0
SOLID
  5
341
330
1D4
100
AcDbEntity
  8
Dimensions
440
 16777216
100
AcDbTrace
 10
5.143893
 20
8.342536
 30
0.0
 11
5.143893
 21
8.302536
 31
0.0
 12
5.263893
 22
8.322536
 32
0.0
 13
5.263893
 23
8.322536
 33
0.0
  0
SOLID
  5
342
330
1D4
100
AcDbEntity
  8
Dimensions
440
 16777216
100
AcDbTrace
 10
2.234287
 20
8.342536
 30
0.0
 11
2.234287
 21
8.302536
 31
0.0
 12
2.114287
 22
8.322536
 32
0.0
 13
2.114287
 23
8.322536
 33
0.0
  0
MTEXT
  5
343
330
1D4
100
AcDbEntity
  8
Dimensions
440
 16777216
100
AcDbMText
 10
3.68909
 20
8.322536
 30
0.0
 40
0.12
 41
0.0
 46
0.0
 71
     5
 72
     1
  1
\A1;3.15in
 73
     1
 44
1.0
  0
POINT
  5
344
330
1D4
100
AcDbEntity
  8
Defpoints
 62
     0
440
 16777216
100
AcDbPoint
 10
5.263893
 20
7.536665
 30
0.0
  0
POINT
  5
345
330
1D4
100
AcDbEntity
  8
Defpoints
 62
     0
440
 16777216
100
AcDbPoint
 10
2.114287
 20
5.314606
 30
0.0
  0
POINT
  5
346
330
1D4
100
AcDbEntity
  8
Defpoints
 62
     0
440
 16777216
100
AcDbPoint
 10
2.114287
 20
8.322536
 30
0.0
  0
ENDBLK
  5
1D6
330
1D4
100
AcDbEntity
  8
0
100
AcDbBlockEnd
  0
BLOCK
  5
1E2
330
1E1
100
AcDbEntity
  8
0
100
AcDbBlockBegin
  2
*D17
 70
     1
 10
0.0
 20
0.0
 30
0.0
  3
*D17
  1

  0
LINE
  5
347
330
1E1
100
AcDbEntity
  8
Dimensions
440
 16777216
370
    -2
100
AcDbLine
 10
5.966851
 20
8.533343
 30
0.0
 11
6.086523
 21
8.542203
 31
0.0
  0
MTEXT
  5
348
330
1E1
100
AcDbEntity
  8
Dimensions
440
 16777216
100
AcDbMText
 10
5.679061
 20
8.533343
 30
0.0
 40
0.12
 41
0.0
 46
0.0
 71
     5
 72
     1
  1
\A1;∅1.9in
 73
     1
 44
1.0
  0
SOLID
  5
349
330
1E1
100
AcDbEntity
  8
Dimensions
440
 16777216
100
AcDbTrace
 10
6.085046
 20
8.562149
 30
0.0
 11
6.088
 21
8.522258
 31
0.0
 12
6.206195
 22
8.551064
 32
0.0
 13
6.206195
 23
8.551064
 33
0.0
  0
ARC
  5
34A
330
1E1
100
AcDbEntity
  8
Dimensions
440
 16777216
370
    -2
100
AcDbCircle
 10
5.263893
 20
8.481296
 30
0.0
 40
0.9448818897637663
100
AcDbArc
 50
304.58597
 51
8.479055
  0
POINT
  5
34B
330
1E1
100
AcDbEntity
  8
Defpoints
 62
     0
440
 16777216
100
AcDbPoint
 10
6.206195
 20
8.551064
 30
0.0
  0
POINT
  5
34C
330
1E1
100
AcDbEntity
  8
Defpoints
 62
     0
440
 16777216
100
AcDbPoint
 10
4.32159
 20
8.411529
 30
0.0
  0
ENDBLK
  5
1E3
330
1E1
100
AcDbEntity
  8
0
100
AcDbBlockEnd
  0
BLOCK
  5
1EB
330
1EA
100
AcDbEntity
  8
0
100
AcDbBlockBegin
  2
*D18
 70
     1
 10
0.0
 20
0.0
 30
0.0
  3
*D18
  1

  0
LINE
  5
34D
330
1EA
100
AcDbEntity
  8
Dimensions
440
 16777216
370
    -2
100
AcDbLine
 10
7.139678
 20
7.592123
 30
0.0
 11
7.139678
 21
8.084232
 31
0.0
  0
LINE
  5
34E
330
1EA
100
AcDbEntity
  8
Dimensions
440
 16777216
370
    -2
100
AcDbLine
 10
9.704935
 20
7.592123
 30
0.0
 11
9.704935
 21
8.084232
 31
0.0
  0
LINE
  5
34F
330
1EA
100
AcDbEntity
  8
Dimensions
440
 16777216
370
    -2
100
AcDbLine
 10
7.259678
 20
8.014232
 30
0.0
 11
8.152156
 21
8.014232
 31
0.0
  0
LINE
  5
350
330
1EA
100
AcDbEntity
  8
Dimensions
440
 16777216
370
    -2
100
AcDbLine
 10
9.584935
 20
8.014232
 30
0.0
 11
8.692457
 21
8.014232
 31
0.0
  0
SOLID
  5
351
330
1EA
100
AcDbEntity
  8
Dimensions
440
 16777216
100
AcDbTrace
 10
7.259678
 20
8.034232
 30
0.0
 11
7.259678
 21
7.994232
 31
0.0
 12
7.139678
 22
8.014232
 32
0.0
 13
7.139678
 23
8.014232
 33
0.0
  0
SOLID
  5
352
330
1EA
100
AcDbEntity
  8
Dimensions
440
 16777216
100
AcDbTrace
 10
9.584935
 20
8.034232
 30
0.0
 11
9.584935
 21
7.994232
 31
0.0
 12
9.704935
 22
8.014232
 32
0.0
 13
9.704935
 23
8.014232
 33
0.0
  0
MTEXT
  5
353
330
1EA
100
AcDbEntity
  8
Dimensions
440
 16777216
100
AcDbMText
 10
8.422307
 20
8.014232
 30
0.0
 40
0.12
 41
0.0
 46
0.0
 71
     5
 72
     1
  1
\A1;2.57in
 73
     1
 44
1.0
  0
POINT
  5
354
330
1EA
100
AcDbEntity
  8
Defpoints
 62
     0
440
 16777216
100
AcDbPoint
 10
7.139678
 20
7.522123
 30
0.0
  0
POINT
  5
355
330
1EA
100
AcDbEntity
  8
Defpoints
 62
     0
440
 16777216
100
AcDbPoint
 10
9.704935
 20
7.522123
 30
0.0
  0
POINT
  5
356
330
1EA
100
AcDbEntity
  8
Defpoints
 62
     0
440
 16777216
100
AcDbPoint
 10
9.704935
 20
8.014232
 30
0.0
  0
ENDBLK
  5
1EC
330
1EA
100
AcDbEntity
  8
0
100
AcDbBlockEnd
  0
ENDSEC
  0
SECTION
  2
ENTITIES
  0
INSERT
  5
115
330
70
100
AcDbEntity
  8
Titleblock
100
AcDbBlockReference
 66
     1
  2
Shower
 10
16.38
 20
0.38
 30
0.0
  0
ATTRIB
  5
135
330
115
100
AcDbEntity
  8
Titleblock
  6
Continuous
370
    25
100
AcDbText
 10
12.6925
 20
2.6925
 30
0.0
 40
0.12
  1
Railing Products and Mock Ups
100
AcDbAttribute
280
     0
  2
PROJECT
 70
     0
280
     1
1001
FD_ATT_APPNAME
1005
123
  0
ATTRIB
  5
136
330
115
100
AcDbEntity
  8
Titleblock
  6
Continuous
370
    25
100
AcDbText
 10
14.6925
 20
1.0675
 30
0.0
 40
0.12
  1
9/9/2021
100
AcDbAttribute
280
     0
  2
DRAWN_DATE
 70
     0
280
     1
1001
FD_ATT_APPNAME
1005
125
  0
ATTRIB
  5
137
330
115
100
AcDbEntity
  8
Titleblock
  6
Continuous
370
    25
100
AcDbText
 10
12.0675
 20
2.1925
 30
0.0
 40
0.3048
  1
R13-0131-048-12
100
AcDbAttribute
280
     0
  2
TITLE_1
 70
     0
280
     1
1001
FD_ATT_APPNAME
1005
126
  0
ATTRIB
  5
138
330
115
100
AcDbEntity
  8
Titleblock
  6
Continuous
370
    25
100
AcDbText
 10
14.6925
 20
1.29994
 30
0.0
 40
0.12
  1
1:1
100
AcDbAttribute
280
     0
  2
SCALE
 70
     0
280
     1
1001
FD_ATT_APPNAME
1005
127
  0
SEQEND
  5
139
330
115
100
AcDbEntity
  8
Titleblock
  0
INSERT
  5
13A
330
70
100
AcDbEntity
  8
Border
100
AcDbBlockReference
  2
ANSI_B_SHEET
 10
0.0
 20
0.0
 30
0.0
  0
DIMENSION
  5
15B
330
70
100
AcDbEntity
  8
Dimensions
100
AcDbDimension
280
     0
  2
*D13
 10
10.374978
 20
4.82248
 30
0.0
 11
10.374978
 21
6.174526
 31
0.0
 70
    32
  1
**<>
 71
     5
 42
2.704092
 73
     0
 74
     0
 75
     0
  3
Standard
100
AcDbAlignedDimension
 13
9.696155
 23
7.526572
 33
0.0
 14
8.422307
 24
4.82248
 34
0.0
 50
90.0
100
AcDbRotatedDimension
1001
ACAD_DIMASSOC_CALC_DIMLFAC
1040
-1.0
1001
ACAD_DIMASSOC_DIMLFAC
1040
-1.0
1001
ACAD_DIMASSOC_OVERRIDDEN_DIMLFAC
1040
0.0
1001
ACAD_TC
1000
DSTYLE_TC
1002
{
1070
   177
1004
18000000020000008C8C8CC2000000000000000000000000
1070
   176
1004
18000000020000008C8C8CC2000000000000000000000000
1002
}
1001
ACAD_DSTYLE_DIMJAG_POSITION
1070
   387
1070
     0
1070
   389
1010
0.0
1020
0.0
1030
0.0
1001
ACAD
1000
DSTYLE
1002
{
1070
   177
1070
   256
1070
   176
1070
   256
1070
   144
1040
1.0
1002
}
  0
MTEXT
  5
16A
330
70
100
AcDbEntity
  8
Annotations
100
AcDbMText
 10
8.884884
 20
4.181157
 30
0.0
 40
0.12
 41
2.663433
 46
0.0
 71
     1
 72
     5
  1
**riser is adjustable 1.18" - 3.15"
 73
     1
 44
1.0
1001
ACAD
1000
ACAD_MTEXT_COLUMN_INFO_BEGIN
1070
    75
1070
     2
1070
    79
1070
     0
1070
    76
1070
     1
1070
    78
1070
     0
1070
    48
1040
2.663433
1070
    49
1040
0.6
1070
    50
1070
     1
1040
0.0
1000
ACAD_MTEXT_COLUMN_INFO_END
  0
DIMENSION
  5
16C
330
70
100
AcDbEntity
  8
Dimensions
100
AcDbDimension
280
     0
  2
*D14
 10
8.8191
 20
5.113587
 30
0.0
 11
6.985614
 21
4.109165
 31
0.0
 70
   163
 71
     5
 42
0.984252
 73
     0
 74
     0
 75
     0
  3
Standard
100
AcDbDiametricDimension
 15
8.025513
 25
4.531374
 35
0.0
 40
0.0
1001
ACAD_DIMASSOC_CALC_DIMLFAC
1040
-1.0
1001
ACAD_DIMASSOC_DIMLFAC
1040
-1.0
1001
ACAD_DIMASSOC_OVERRIDDEN_DIMLFAC
1040
0.0
1001
ACAD_TC
1000
DSTYLE_TC
1002
{
1070
   176
1004
18000000020000008C8C8CC2000000000000000000000000
1070
   177
1004
18000000020000008C8C8CC2000000000000000000000000
1002
}
1001
ACAD_DSTYLE_DIMJAG_POSITION
1070
   387
1070
     0
1070
   389
1010
0.0
1020
0.0
1030
0.0
1001
ACAD_DSTYLE_DIMRADIAL_EXTENSION
1070
   387
1070
     1
1070
   388
1040
0.0
1070
   390
1040
0.0
1001
ACAD
1000
DSTYLE
1002
{
1070
   144
1040
1.0
1070
   176
1070
   256
1070
   177
1070
   256
1002
}
  0
DIMENSION
  5
176
330
70
100
AcDbEntity
  8
Dimensions
100
AcDbDimension
280
     0
  2
*D15
 10
8.697897
 20
3.004987
 30
0.0
 11
8.422307
 21
3.004987
 31
0.0
 70
    33
 71
     5
 42
0.551181
 73
     0
 74
     0
 75
     0
  3
Standard
100
AcDbAlignedDimension
 13
8.146716
 23
3.68381
 33
0.0
 14
8.697897
 24
3.68381
 34
0.0
1001
ACAD_DIMASSOC_CALC_DIMLFAC
1040
-1.0
1001
ACAD_DIMASSOC_DIMLFAC
1040
-1.0
1001
ACAD_DIMASSOC_OVERRIDDEN_DIMLFAC
1040
0.0
1001
ACAD_TC
1000
DSTYLE_TC
1002
{
1070
   176
1004
18000000020000008C8C8CC2000000000000000000000000
1070
   177
1004
18000000020000008C8C8CC2000000000000000000000000
1002
}
1001
ACAD_DSTYLE_DIMJAG_POSITION
1070
   387
1070
     0
1070
   389
1010
0.0
1020
0.0
1030
0.0
1001
ACAD
1000
DSTYLE
1002
{
1070
   144
1040
1.0
1070
   176
1070
   256
1070
   177
1070
   256
1002
}
  0
INSERT
  5
184
330
70
100
AcDbEntity
  8
Center Lines
 48
0.75
100
AcDbBlockReference
  2
*U9
 10
5.263893
 20
5.550238
 30
0.0
  0
DIMENSION
  5
18A
330
70
100
AcDbEntity
  8
Dimensions
100
AcDbDimension
280
     0
  2
*D16
 10
2.114287
 20
8.322536
 30
0.0
 11
3.68909
 21
8.322536
 31
0.0
 70
    32
 71
     5
 42
3.149606
 73
     0
 74
     0
 75
     0
  3
Standard
100
AcDbAlignedDimension
 13
5.263893
 23
7.536665
 33
0.0
 14
2.114287
 24
5.314606
 34
0.0
 50
180.0
100
AcDbRotatedDimension
1001
ACAD_DIMASSOC_CALC_DIMLFAC
1040
-1.0
1001
ACAD_DIMASSOC_DIMLFAC
1040
-1.0
1001
ACAD_DIMASSOC_OVERRIDDEN_DIMLFAC
1040
0.0
1001
ACAD_TC
1000
DSTYLE_TC
1002
{
1070
   176
1004
18000000020000008C8C8CC2000000000000000000000000
1070
   177
1004
18000000020000008C8C8CC2000000000000000000000000
1002
}
1001
ACAD_DSTYLE_DIMJAG_POSITION
1070
   387
1070
     0
1070
   389
1010
0.0
1020
0.0
1030
0.0
1001
ACAD
1000
DSTYLE
1002
{
1070
   144
1040
1.0
1070
   176
1070
   256
1070
   177
1070
   256
1002
}
  0
DIMENSION
  5
198
330
70
100
AcDbEntity
  8
Dimensions
100
AcDbDimension
280
     0
  2
*D17
 10
4.32159
 20
8.411529
 30
0.0
 11
5.966851
 21
8.533343
 31
0.0
 70
   163
 71
     5
 42
1.889764
 73
     0
 74
     0
 75
     0
  3
Standard
100
AcDbDiametricDimension
 15
6.206195
 25
8.551064
 35
0.0
 40
0.0
1001
ACAD_DIMASSOC_CALC_DIMLFAC
1040
-1.0
1001
ACAD_DIMASSOC_DIMLFAC
1040
-1.0
1001
ACAD_DIMASSOC_OVERRIDDEN_DIMLFAC
1040
0.0
1001
ACAD_DSTYLE_DIMJAG_POSITION
1070
   387
1070
     0
1070
   389
1010
0.0
1020
0.0
1030
0.0
1001
ACAD_DSTYLE_DIMRADIAL_EXTENSION
1070
   387
1070
     1
1070
   388
1040
4.182833
1070
   390
1040
5.241945
1001
ACAD
1000
DSTYLE
1002
{
1070
   272
1070
     1
1070
   271
1070
     1
1070
   144
1040
1.0
1070
   288
1070
     1
1002
}
  0
DIMENSION
  5
1A2
330
70
100
AcDbEntity
  8
Dimensions
100
AcDbDimension
280
     0
  2
*D18
 10
9.704935
 20
8.014232
 30
0.0
 11
8.422307
 21
8.014232
 31
0.0
 70
    33
 71
     5
 42
2.565257
 73
     0
 74
     0
 75
     0
  3
Standard
100
AcDbAlignedDimension
 13
7.139678
 23
7.522123
 33
0.0
 14
9.704935
 24
7.522123
 34
0.0
1001
ACAD_DIMASSOC_CALC_DIMLFAC
1040
-1.0
1001
ACAD_DIMASSOC_DIMLFAC
1040
-1.0
1001
ACAD_DIMASSOC_OVERRIDDEN_DIMLFAC
1040
0.0
1001
ACAD_TC
1000
DSTYLE_TC
1002
{
1070
   176
1004
18000000020000008C8C8CC2000000000000000000000000
1070
   177
1004
18000000020000008C8C8CC2000000000000000000000000
1002
}
1001
ACAD_DSTYLE_DIMJAG_POSITION
1070
   387
1070
     0
1070
   389
1010
0.0
1020
0.0
1030
0.0
1001
ACAD
1000
DSTYLE
1002
{
1070
   144
1040
1.0
1070
   176
1070
   256
1070
   177
1070
   256
1002
}
  0
CIRCLE
  5
294
330
70
100
AcDbEntity
  8
Visible
100
AcDbCircle
 10
8.422307
 20
4.82248
 30
1.790279
 40
0.4921259842519686
  0
SPLINE
  5
295
330
70
100
AcDbEntity
  8
Visible
100
AcDbSpline
 70
     0
 71
     3
 72
    14
 73
    10
 74
     0
 42
0.000000001
 43
0.0000000001
 40
0.0
 40
0.0
 40
0.0
 40
0.0
 40
0.1053305397834823
 40
0.1053305397834823
 40
0.2106610795669645
 40
0.2106610795669645
 40
0.3159911758533298
 40
0.3159911758533298
 40
0.4213212721396951
 40
0.4213212721396951
 40
0.4213212721510923
 40
0.4213212721510923
 10
7.537214582747765
 20
7.443804432914246
 30
1.506707466447551
 10
7.551037488230576
 20
7.443804432914246
 30
1.506707466447551
 10
7.565774690880061
 20
7.44349970541983
 30
1.503942850362363
 10
7.592873350173249
 20
7.442400737547797
 30
1.492713763786014
 10
7.605235687566164
 20
7.441622549872281
 30
1.484249853489018
 10
7.624756928691567
 20
7.440163119898073
 30
1.464728612363614
 10
7.633220871097364
 20
7.43938682373672
 30
1.45236625698817
 10
7.644449981520665
 20
7.438292187006706
 30
1.425267537304534
 10
7.647214582748347
 20
7.437989359271428
 30
1.410530313729395
 10
7.647214582748347
 20
7.437989359271428
 30
1.39670746644515
1001
ACAD_VIEW_EDGE_ID
1071
        0
1071
       -1
1071
        4
1071
        0
  0
SPLINE
  5
296
330
70
100
AcDbEntity
  8
Visible
100
AcDbSpline
 70
     0
 71
     3
 72
    14
 73
    10
 74
     0
 42
0.000000001
 43
0.0000000001
 40
1.263963816419085
 40
1.263963816419085
 40
1.26396381641976
 40
1.26396381641976
 40
1.36929391270545
 40
1.36929391270545
 40
1.474624008991815
 40
1.474624008991815
 40
1.579954548775297
 40
1.579954548775297
 40
1.68528508855878
 40
1.68528508855878
 40
1.68528508855878
 40
1.68528508855878
 10
7.427214582747183
 20
7.437989359271428
 30
1.396707466446969
 10
7.427214582747183
 20
7.437989359271432
 30
1.410530313729395
 10
7.429979183974865
 20
7.438292187006709
 30
1.425267537304534
 10
7.441208294396346
 20
7.43938682373672
 30
1.45236625698817
 10
7.449672236803962
 20
7.440163119898072
 30
1.464728612363614
 10
7.469193477927547
 20
7.441622549872281
 30
1.484249853489018
 10
7.48155581532228
 20
7.442400737547797
 30
1.492713763786014
 10
7.508654474613649
 20
7.44349970541983
 30
1.503942850362363
 10
7.523391677264953
 20
7.443804432914246
 30
1.506707466447551
 10
7.537214582747765
 20
7.443804432914246
 30
1.506707466447551
1001
ACAD_VIEW_EDGE_ID
1071
        0
1071
       -1
1071
        4
1071
        0
  0
SPLINE
  5
297
330
70
100
AcDbEntity
  8
Visible
100
AcDbSpline
 70
     0
 71
     3
 72
    14
 73
    10
 74
     0
 42
0.000000001
 43
0.0000000001
 40
0.0
 40
0.0
 40
0.0
 40
0.0
 40
0.105330539783482
 40
0.105330539783482
 40
0.210661079566964
 40
0.210661079566964
 40
0.3159911758533294
 40
0.3159911758533294
 40
0.4213212721396948
 40
0.4213212721396948
 40
0.4213212721510893
 40
0.4213212721510893
 10
9.231573273504181
 20
7.443804432914248
 30
1.506707466447551
 10
9.245396178986993
 20
7.443804432914248
 30
1.506707466447551
 10
9.260133381636478
 20
7.443499705419831
 30
1.503942850362363
 10
9.287232040929666
 20
7.442400737547798
 30
1.492713763786014
 10
9.2995943783244
 20
7.441622549872283
 30
1.484249853489018
 10
9.319115619447984
 20
7.440163119898075
 30
1.464728612363614
 10
9.327579561853781
 20
7.439386823736722
 30
1.45236625698817
 10
9.338808672277082
 20
7.438292187006708
 30
1.425267537304534
 10
9.341573273504764
 20
7.43798935927143
 30
1.410530313729395
 10
9.341573273504764
 20
7.43798935927143
 30
1.39670746644515
1001
ACAD_VIEW_EDGE_ID
1071
        2
1071
       -1
1071
        4
1071
        0
  0
SPLINE
  5
298
330
70
100
AcDbEntity
  8
Visible
100
AcDbSpline
 70
     0
 71
     3
 72
    14
 73
    10
 74
     0
 42
0.000000001
 43
0.0000000001
 40
1.263963816419084
 40
1.263963816419084
 40
1.26396381641976
 40
1.26396381641976
 40
1.369293912705449
 40
1.369293912705449
 40
1.474624008991814
 40
1.474624008991814
 40
1.579954548775296
 40
1.579954548775296
 40
1.685285088558778
 40
1.685285088558778
 40
1.685285088558778
 40
1.685285088558778
 10
9.121573273503599
 20
7.43798935927143
 30
1.396707466446969
 10
9.121573273503599
 20
7.437989359271433
 30
1.410530313729395
 10
9.124337874731281
 20
7.438292187006711
 30
1.425267537304534
 10
9.135566985154582
 20
7.439386823736722
 30
1.45236625698817
 10
9.144030927560379
 20
7.440163119898074
 30
1.464728612363614
 10
9.163552168683963
 20
7.441622549872282
 30
1.484249853489018
 10
9.175914506078697
 20
7.442400737547798
 30
1.492713763786014
 10
9.203013165371885
 20
7.443499705419831
 30
1.503942850362363
 10
9.21775036802137
 20
7.443804432914248
 30
1.506707466447551
 10
9.231573273504181
 20
7.443804432914248
 30
1.506707466447551
1001
ACAD_VIEW_EDGE_ID
1071
        2
1071
       -1
1071
        4
1071
        0
  0
ARC
  5
299
330
70
100
AcDbEntity
  8
Visible
100
AcDbCircle
 10
-8.422307
 20
1.396707
 30
3.68381
 40
0.2755905511811024
210
0.0
220
1.0
230
0.0
100
AcDbArc
 50
0.0
 51
180.0
  0
ARC
  5
29A
330
70
100
AcDbEntity
  8
Visible
100
AcDbCircle
 10
-8.422307
 20
4.091533
 30
-1.396707
 40
0.4921259842519685
210
-0.0000000000000001
220
0.0000000000000003
230
-1.0
100
AcDbArc
 50
235.944202
 51
304.055798
  0
ARC
  5
29B
330
70
100
AcDbEntity
  8
Visible
100
AcDbCircle
 10
-8.067976
 20
7.359249
 30
-1.396707
 40
0.078740157480315
210
0.0000000000000014
220
0.0
230
-1.0
100
AcDbArc
 50
90.0
 51
180.0
  0
ARC
  5
29C
330
70
100
AcDbEntity
  8
Visible
100
AcDbCircle
 10
8.776637
 20
7.359249
 30
1.396707
 40
0.078740157480315
100
AcDbArc
 50
90.0
 51
180.0
  0
LINE
  5
29D
330
70
100
AcDbEntity
  8
Visible
100
AcDbLine
 10
7.276637
 20
7.437989
 30
1.396707
 11
7.427215
 21
7.437989
 31
1.396707
210
0.0
220
1.0
230
0.0
  0
LINE
  5
29E
330
70
100
AcDbEntity
  8
Visible
100
AcDbLine
 10
7.647215
 20
7.437989
 30
1.396707
 11
8.067976
 21
7.437989
 31
1.396707
210
0.0
220
1.0
230
0.0
  0
LINE
  5
29F
330
70
100
AcDbEntity
  8
Visible
100
AcDbLine
 10
8.776637
 20
7.437989
 30
1.396707
 11
9.121573
 21
7.437989
 31
1.396707
210
0.0
220
1.0
230
0.0
  0
LINE
  5
2A0
330
70
100
AcDbEntity
  8
Visible
100
AcDbLine
 10
9.341573
 20
7.437989
 30
1.396707
 11
9.567976
 21
7.437989
 31
1.396707
210
0.0
220
1.0
230
0.0
  0
LINE
  5
2A1
330
70
100
AcDbEntity
  8
Visible
100
AcDbLine
 10
8.146716
 20
3.68381
 30
1.396707
 11
8.146716
 21
4.414757
 31
1.396707
210
0.0
220
1.0
230
0.0
  0
LINE
  5
2A2
330
70
100
AcDbEntity
  8
Visible
100
AcDbLine
 10
8.146716
 20
5.230203
 30
1.396707
 11
8.146716
 21
7.359249
 31
1.396707
210
0.0
220
1.0
230
0.0
  0
LINE
  5
2A3
330
70
100
AcDbEntity
  8
Visible
100
AcDbLine
 10
8.697897
 20
3.68381
 30
1.396707
 11
8.697897
 21
4.414757
 31
1.396707
210
0.0
220
1.0
230
0.0
  0
LINE
  5
2A4
330
70
100
AcDbEntity
  8
Visible
100
AcDbLine
 10
8.697897
 20
5.230203
 30
1.396707
 11
8.697897
 21
7.359249
 31
1.396707
210
0.0
220
1.0
230
0.0
  0
LINE
  5
2A5
330
70
100
AcDbEntity
  8
Visible
100
AcDbLine
 10
9.229393
 20
7.667182
 30
1.878986
 11
7.61522
 21
7.667182
 31
1.878986
210
0.0
220
1.0
230
0.0
  0
SPLINE
  5
2A6
330
70
100
AcDbEntity
  8
Visible
100
AcDbSpline
 70
     0
 71
     3
 72
    46
 73
    42
 74
     0
 42
0.000000001
 43
0.0000000001
 40
1.926560439700087
 40
1.926560439700087
 40
1.926560439700087
 40
1.926560439700087
 40
2.020102341794601
 40
2.020102341794601
 40
2.112758945562299
 40
2.112758945562299
 40
2.205754715653037
 40
2.205754715653037
 40
2.299614175707747
 40
2.299614175707747
 40
2.394403407560626
 40
2.394403407560626
 40
2.489596464051733
 40
2.489596464051733
 40
2.585493733832916
 40
2.585493733832916
 40
2.681752708164484
 40
2.681752708164484
 40
2.778011682496051
 40
2.778011682496051
 40
2.874270656827619
 40
2.874270656827619
 40
2.970529631159187
 40
2.970529631159187
 40
3.066788605490754
 40
3.066788605490754
 40
3.163047579822322
 40
3.163047579822322
 40
3.258277867290829
 40
3.258277867290829
 40
3.351553056886011
 40
3.351553056886011
 40
3.442466790244531
 40
3.442466790244531
 40
3.531434854438864
 40
3.531434854438864
 40
3.611511122412007
 40
3.611511122412007
 40
3.731625524371722
 40
3.731625524371722
 40
3.851739926331436
 40
3.851739926331436
 40
3.851739926331436
 40
3.851739926331436
 10
9.700914468661721
 20
7.535187559746271
 30
1.396707466446969
 10
9.700914468661721
 20
7.535187559746271
 30
1.409017378016869
 10
9.700479644403458
 20
7.535428062460686
 30
1.421358553181562
 10
9.69874297419301
 20
7.536384834945277
 30
1.445870100003958
 10
9.697449361188773
 20
7.537096572391378
 30
1.458040703657388
 10
9.694007011188659
 20
7.53897823481325
 30
1.482256751789464
 10
9.691855211520305
 20
7.540149772852847
 30
1.494301315649863
 10
9.686698006644292
 20
7.542931874210053
 30
1.518218898365375
 10
9.683693335331554
 20
7.544541911602963
 30
1.530062690419072
 10
9.676795977198707
 20
7.548193377718989
 30
1.553632358813047
 10
9.672891244530546
 20
7.550240738063497
 30
1.565358691290384
 10
9.664200833043651
 20
7.554727728432645
 30
1.588522448493677
 10
9.659411474922308
 20
7.55716893715807
 30
1.599958153343322
 10
9.648955880624271
 20
7.562398899148431
 30
1.622465670110614
 10
9.643283484214407
 20
7.565189984281221
 30
1.633533939157132
 10
9.631112134286013
 20
7.571044911595308
 30
1.655158311257764
 10
9.624610277258398
 20
7.574109593513791
 30
1.665712153744607
 10
9.610856562601838
 20
7.580421909237933
 30
1.686177038363894
 10
9.603624806308289
 20
7.583660919517374
 30
1.696064411116822
 10
9.588355372277874
 20
7.590289994425945
 30
1.71527796168084
 10
9.5803168452112
 20
7.593679830793738
 30
1.724599652125107
 10
9.563479171065409
 20
7.600523730221251
 30
1.742583861392631
 10
9.554680109817127
 20
7.603977633495302
 30
1.751246192523467
 10
9.536384202436238
 20
7.610856267168868
 30
1.767831199578722
 10
9.526887490026638
 20
7.614280821107167
 30
1.77575375305787
 10
9.507271601321917
 20
7.621005688406333
 30
1.790792369549308
 10
9.497152622043358
 20
7.624305826287529
 30
1.797908366386764
 10
9.476486134823062
 20
7.630656363715286
 30
1.811212020973471
 10
9.465959292347179
 20
7.633705951622907
 30
1.817403626811938
 10
9.444467434825128
 20
7.639507546876147
 30
1.828900798900576
 10
9.433539068009849
 20
7.642256504389042
 30
1.834205174476664
 10
9.411471738321779
 20
7.647356904549314
 30
1.84385401833606
 10
9.400345348702103
 20
7.649716454036589
 30
1.848219282443096
 10
9.377969153265439
 20
7.654000202036364
 30
1.856023386251763
 10
9.366727351769441
 20
7.655932509855774
 30
1.859480028009784
 10
9.34513440432056
 20
7.659197473936033
 30
1.865254824951989
 10
9.334806754446617
 20
7.660570810367099
 30
1.867652357612314
 10
9.308834552190091
 20
7.663535153591987
 30
1.872789632760031
 10
9.293104673304696
 20
7.664893826962954
 30
1.875106302853964
 10
9.26133939248757
 20
7.666719809245735
 30
1.878209292070096
 10
9.245344897839459
 20
7.667181649201201
 30
1.878986471587268
 10
9.229393115330822
 20
7.667181649201201
 30
1.878986471587268
1001
ACAD_VIEW_EDGE_ID
1071
   -14337
1071
       -1
1071
        4
1071
        0
  0
ARC
  5
2A7
330
70
100
AcDbEntity
  8
Visible
100
AcDbCircle
 10
9.696155
 20
7.526572
 30
1.396707
 40
0.0098425196850394
100
AcDbArc
 50
333.124406
 51
61.084905
  0
SPLINE
  5
2A8
330
70
100
AcDbEntity
  8
Visible
100
AcDbSpline
 70
     0
 71
     3
 72
    46
 73
    42
 74
     0
 42
0.000000001
 43
0.0000000001
 40
-1.925179486631348
 40
-1.925179486631348
 40
-1.925179486631348
 40
-1.925179486631348
 40
-1.831637584536835
 40
-1.831637584536835
 40
-1.738980980769124
 40
-1.738980980769124
 40
-1.645985210678369
 40
-1.645985210678369
 40
-1.552125750623659
 40
-1.552125750623659
 40
-1.457336518770764
 40
-1.457336518770764
 40
-1.362143462279641
 40
-1.362143462279641
 40
-1.266246192498453
 40
-1.266246192498453
 40
-1.169987218166886
 40
-1.169987218166886
 40
-1.073728243835318
 40
-1.073728243835318
 40
-0.9774692695037511
 40
-0.9774692695037511
 40
-0.8812102951721836
 40
-0.8812102951721836
 40
-0.7849513208406162
 40
-0.7849513208406162
 40
-0.6886923465090487
 40
-0.6886923465090487
 40
-0.5934620590405428
 40
-0.5934620590405428
 40
-0.5001868694453764
 40
-0.5001868694453764
 40
-0.4092731360868522
 40
-0.4092731360868522
 40
-0.3203050718925165
 40
-0.3203050718925165
 40
-0.2402288039193872
 40
-0.2402288039193872
 40
-0.1201144019596932
 40
-0.1201144019596932
 40
0.0000000000000009
 40
0.0000000000000009
 40
0.0000000000000009
 40
0.0000000000000009
 10
7.143698533654969
 20
7.535187559746267
 30
1.396707466446969
 10
7.143698533654969
 20
7.535187559746267
 30
1.409017378016869
 10
7.144133357913233
 20
7.535428062460684
 30
1.421358553181562
 10
7.145870028121862
 20
7.536384834945274
 30
1.445870100003958
 10
7.147163641127917
 20
7.537096572391376
 30
1.458040703657388
 10
7.150605991126212
 20
7.538978234813248
 30
1.482256751789464
 10
7.152757790796385
 20
7.540149772852846
 30
1.494301315649863
 10
7.15791499567058
 20
7.542931874210052
 30
1.518218898365375
 10
7.160919666985137
 20
7.544541911602962
 30
1.530062690419072
 10
7.167817025117983
 20
7.548193377718988
 30
1.553632358813047
 10
7.171721757786144
 20
7.550240738063496
 30
1.565358691290384
 10
7.18041216927304
 20
7.554727728432646
 30
1.588522448493677
 10
7.185201527392564
 20
7.557168937158071
 30
1.599958153343322
 10
7.19565712169242
 20
7.562398899148433
 30
1.622465670110614
 10
7.201329518102284
 20
7.565189984281223
 30
1.633533939157132
 10
7.213500868028859
 20
7.57104491159531
 30
1.655158311257764
 10
7.220002725058293
 20
7.574109593513795
 30
1.665712153744607
 10
7.233756439713033
 20
7.580421909237936
 30
1.686177038363894
 10
7.240988196008402
 20
7.583660919517377
 30
1.696064411116822
 10
7.256257630036998
 20
7.590289994425949
 30
1.71527796168084
 10
7.264296157105491
 20
7.593679830793742
 30
1.724599652125107
 10
7.281133831249462
 20
7.600523730221255
 30
1.742583861392631
 10
7.289932892499564
 20
7.603977633495307
 30
1.751246192523467
 10
7.308228799880453
 20
7.610856267168872
 30
1.767831199578722
 10
7.317725512288234
 20
7.614280821107171
 30
1.77575375305787
 10
7.337341400992954
 20
7.621005688406338
 30
1.790792369549308
 10
7.347460380273332
 20
7.624305826287534
 30
1.797908366386764
 10
7.368126867493629
 20
7.630656363715289
 30
1.811212020973471
 10
7.378653709969512
 20
7.633705951622911
 30
1.817403626811938
 10
7.400145567491563
 20
7.63950754687615
 30
1.828900798900576
 10
7.411073934306841
 20
7.642256504389044
 30
1.834205174476664
 10
7.433141263994912
 20
7.647356904549315
 30
1.84385401833606
 10
7.444267653614588
 20
7.64971645403659
 30
1.848219282443096
 10
7.466643849051251
 20
7.654000202036365
 30
1.856023386251763
 10
7.47788565054725
 20
7.655932509855775
 30
1.859480028009784
 10
7.49947859799613
 20
7.659197473936033
 30
1.865254824951989
 10
7.509806247870074
 20
7.660570810367099
 30
1.867652357612314
 10
7.53577845012478
 20
7.663535153591986
 30
1.872789632760031
 10
7.551508329011994
 20
7.664893826962952
 30
1.875106302853964
 10
7.583273609827301
 20
7.666719809245733
 30
1.878209292070096
 10
7.599268104477232
 20
7.667181649201198
 30
1.878986471587268
 10
7.61521988698405
 20
7.667181649201198
 30
1.878986471587268
1001
ACAD_VIEW_EDGE_ID
1071
   -16386
1071
       -1
1071
        4
1071
        0
  0
ARC
  5
2A9
330
70
100
AcDbEntity
  8
Visible
100
AcDbCircle
 10
7.148458
 20
7.526572
 30
1.396707
 40
0.0098425196850394
100
AcDbArc
 50
118.915095
 51
206.875594
  0
ARC
  5
2AA
330
70
100
AcDbEntity
  8
Visible
100
AcDbCircle
 10
9.567976
 20
7.591533
 30
1.396707
 40
0.1535433070866142
100
AcDbArc
 50
270.0
 51
333.124406
  0
ARC
  5
2AB
330
70
100
AcDbEntity
  8
Visible
100
AcDbCircle
 10
-7.276637
 20
7.591533
 30
-1.396707
 40
0.1535433070866142
210
0.0
220
0.0
230
-1.0
100
AcDbArc
 50
270.0
 51
333.124406
  0
SPLINE
  5
2AC
330
70
100
AcDbEntity
  8
Visible
100
AcDbSpline
 70
     0
 71
     3
 72
    22
 73
    18
 74
     0
 42
0.000000001
 43
0.0000000001
 40
1.082898440396906
 40
1.082898440396906
 40
1.082898440396906
 40
1.082898440396906
 40
1.35299590106326
 40
1.35299590106326
 40
1.623093361729614
 40
1.623093361729614
 40
1.894445121261714
 40
1.894445121261714
 40
2.165796880793813
 40
2.165796880793813
 40
2.437148640325913
 40
2.437148640325913
 40
2.708500399858012
 40
2.708500399858012
 40
2.978597860524367
 40
2.978597860524367
 40
3.24869532119072
 40
3.24869532119072
 40
3.24869532119072
 40
3.24869532119072
 10
4.9883022496997
 20
4.330354059289552
 30
0.0001273826383112
 10
4.9883022496997
 20
4.330354059289552
 30
0.0355732436182734
 10
4.995550159319464
 20
4.334524645234296
 30
0.0728581746225245
 10
5.023941990986713
 20
4.349543375749417
 30
0.1405593801155192
 10
5.045046627150441
 20
4.360242443672442
 30
0.1710251040494768
 10
5.09310641277807
 20
4.380967206037867
 30
0.2190848896789248
 10
5.123538388334054
 20
4.392515204189994
 30
0.2401101271971129
 10
5.191076152290406
 20
4.409596598081897
 30
0.2684346205642214
 10
5.22828233375003
 20
4.414757303832702
 30
0.2757179338186688
 10
5.299503268010084
 20
4.414757303832702
 30
0.2757179338186688
 10
5.336709449469708
 20
4.409596598081897
 30
0.2684346205642214
 10
5.40424721342606
 20
4.392515204189994
 30
0.2401101271971129
 10
5.434679188980226
 20
4.380967206037867
 30
0.2190848896789248
 10
5.482738974609674
 20
4.360242443672442
 30
0.1710251040494768
 10
5.503843610773401
 20
4.349543375749417
 30
0.1405593801155192
 10
5.532235442440651
 20
4.334524645234296
 30
0.0728581746225245
 10
5.539483352060415
 20
4.330354059289552
 30
0.0355732436182734
 10
5.539483352060415
 20
4.330354059289552
 30
0.0001273826383112
1001
ACAD_VIEW_EDGE_ID
1071
        0
1071
       -1
1071
        2
1071
        0
  0
SPLINE
  5
2AD
330
70
100
AcDbEntity
  8
Visible
100
AcDbSpline
 70
     0
 71
     3
 72
    22
 73
    18
 74
     0
 42
0.000000001
 43
0.0000000001
 40
1.082898440392949
 40
1.082898440392949
 40
1.082898440396907
 40
1.082898440396907
 40
1.352995901063261
 40
1.352995901063261
 40
1.623093361729615
 40
1.623093361729615
 40
1.894445121261714
 40
1.894445121261714
 40
2.165796880793814
 40
2.165796880793814
 40
2.437148640325914
 40
2.437148640325914
 40
2.708500399858013
 40
2.708500399858013
 40
2.978597860524367
 40
2.978597860524367
 40
3.248695321190721
 40
3.248695321190721
 40
3.248695321193412
 40
3.248695321193412
 10
5.539483352060415
 20
5.314606027793489
 30
0.0001273826364923
 10
5.539483352060415
 20
5.314606027793489
 30
0.0355732436182734
 10
5.532235442440651
 20
5.310435441848746
 30
0.0728581746225245
 10
5.503843610773401
 20
5.295416711333626
 30
0.1405593801155192
 10
5.482738974609674
 20
5.2847176434106
 30
0.1710251040494768
 10
5.434679188980226
 20
5.263992881045174
 30
0.2190848896789248
 10
5.40424721342606
 20
5.252444882893048
 30
0.2401101271971129
 10
5.336709449469708
 20
5.235363489001145
 30
0.2684346205642214
 10
5.299503268010084
 20
5.230202783250339
 30
0.2757179338186688
 10
5.22828233375003
 20
5.230202783250339
 30
0.2757179338186688
 10
5.191076152290406
 20
5.235363489001145
 30
0.2684346205642214
 10
5.123538388334054
 20
5.252444882893048
 30
0.2401101271971129
 10
5.09310641277807
 20
5.263992881045174
 30
0.2190848896789248
 10
5.045046627150441
 20
5.2847176434106
 30
0.1710251040494768
 10
5.023941990986713
 20
5.295416711333626
 30
0.1405593801155192
 10
4.995550159319464
 20
5.310435441848746
 30
0.0728581746225245
 10
4.9883022496997
 20
5.314606027793489
 30
0.0355732436182734
 10
4.9883022496997
 20
5.314606027793489
 30
0.0001273826364923
1001
ACAD_VIEW_EDGE_ID
1071
        2
1071
       -1
1071
        2
1071
        0
  0
ARC
  5
2AE
330
70
100
AcDbEntity
  8
Visible
100
AcDbCircle
 10
4.82248
 20
0.000127
 30
5.657464
 40
0.4921259842519682
210
1.0
220
0.0
230
0.0000000000002969
100
AcDbArc
 50
0.0
 51
180.0
  0
ARC
  5
2AF
330
70
100
AcDbEntity
  8
Visible
100
AcDbCircle
 10
4.82248
 20
0.000127
 30
2.311137
 40
0.4921259842519685
210
1.0
220
0.0
230
0.0000000000002969
100
AcDbArc
 50
0.0
 51
180.0
  0
ARC
  5
2B0
330
70
100
AcDbEntity
  8
Visible
100
AcDbCircle
 10
-4.161531
 20
4.82248
 30
-0.000127
 40
1.574803149606299
210
0.0000000000002969
220
0.0
230
-1.0
100
AcDbArc
 50
161.790043
 51
198.209957
  0
LINE
  5
2B1
330
70
100
AcDbEntity
  8
Visible
100
AcDbLine
 10
2.311137
 20
5.314606
 30
0.000127
 11
4.988302
 21
5.314606
 31
0.000127
210
0.0
220
1.0
230
0.0
  0
LINE
  5
2B2
330
70
100
AcDbEntity
  8
Visible
100
AcDbLine
 10
5.539483
 20
5.314606
 30
0.000127
 11
5.657464
 21
5.314606
 31
0.000127
210
0.0
220
1.0
230
0.0
  0
LINE
  5
2B3
330
70
100
AcDbEntity
  8
Visible
100
AcDbLine
 10
2.311137
 20
4.330354
 30
0.000127
 11
4.988302
 21
4.330354
 31
0.000127
210
0.0
220
1.0
230
0.0
  0
LINE
  5
2B4
330
70
100
AcDbEntity
  8
Visible
100
AcDbLine
 10
5.539483
 20
4.330354
 30
0.000127
 11
5.657464
 21
4.330354
 31
0.000127
210
0.0
220
1.0
230
0.0
  0
SPLINE
  5
2B5
330
70
100
AcDbEntity
  8
Visible
100
AcDbSpline
 70
     0
 71
     3
 72
    30
 73
    26
 74
     0
 42
0.000000001
 43
0.0000000001
 40
1.925374947770433
 40
1.925374947770433
 40
1.925374947779977
 40
1.925374947779977
 40
2.165657924485893
 40
2.165657924485893
 40
2.405940901191808
 40
2.405940901191808
 40
2.88650685460364
 40
2.88650685460364
 40
3.368628375081797
 40
3.368628375081797
 40
3.609689135320876
 40
3.609689135320876
 40
3.850749895559955
 40
3.850749895559955
 40
4.091810655799035
 40
4.091810655799035
 40
4.332871416038114
 40
4.332871416038114
 40
4.814992936516271
 40
4.814992936516271
 40
5.295558889928102
 40
5.295558889928102
 40
5.535841866634018
 40
5.535841866634018
 40
5.776124843288404
 40
5.776124843288404
 40
5.776124843339934
 40
5.776124843339934
 10
2.114286501668175
 20
5.314606027793489
 30
0.0001273826364923
 10
2.114286501668175
 20
5.314606027793489
 30
0.0316605816806259
 10
2.112676911296148
 20
5.311526254933844
 30
0.0640832697681617
 10
2.106154592851453
 20
5.298770643955531
 30
0.128204766779163
 10
2.101245803838537
 20
5.289099258668342
 30
0.1599048620282701
 10
2.082705084014378
 20
5.251132746113556
 30
0.250611371398918
 10
2.065104661280201
 20
5.213422524870845
 30
0.305156142632768
 10
2.031180282077912
 20
5.127369754407546
 30
0.3912089130972163
 10
2.01240903184771
 20
5.072870501745733
 30
0.4288179285249499
 10
1.991756697087112
 20
4.982317468353417
 30
0.466722159220808
 10
1.986131397703502
 20
4.950670186711707
 30
0.4763870004098863
 10
1.978587478368353
 20
4.886570448819383
 30
0.4891553531997488
 10
1.9766823204518
 20
4.854115313914103
 30
0.49225336688869
 10
1.9766823204518
 20
4.790844773168938
 30
0.49225336688869
 10
1.978587478368353
 20
4.758389638263659
 30
0.4891553531997488
 10
1.986131397703502
 20
4.694289900371335
 30
0.4763870004098863
 10
1.991756697087112
 20
4.662642618729624
 30
0.466722159220808
 10
2.01240903184771
 20
4.572089585337308
 30
0.4288179285249499
 10
2.031180282077912
 20
4.517590332675495
 30
0.3912089130972163
 10
2.065104661280201
 20
4.431537562212197
 30
0.305156142632768
 10
2.082705084014378
 20
4.393827340969485
 30
0.250611371398918
 10
2.101245803838537
 20
4.3558608284147
 30
0.1599048620282701
 10
2.106154592851453
 20
4.34618944312751
 30
0.128204766779163
 10
2.112676911294329
 20
4.333433832150566
 30
0.0640832697754377
 10
2.114286501666356
 20
4.330354059290873
 30
0.0316605816951778
 10
2.114286501668175
 20
4.330354059289552
 30
0.0001273826510442
1001
ACAD_VIEW_EDGE_ID
1071
        0
1071
       -1
1071
        3
1071
        0
  0
ARC
  5
2B6
330
70
100
AcDbEntity
  8
Visible
100
AcDbCircle
 10
4.82248
 20
0.000127
 30
2.308115
 40
0.4921259842519685
210
1.0
220
0.0
230
0.0000000000002969
100
AcDbArc
 50
0.0
 51
180.0
  0
LINE
  5
2B7
330
70
100
AcDbEntity
  8
Visible
100
AcDbLine
 10
2.114287
 20
5.314606
 30
0.000127
 11
2.308115
 21
5.314606
 31
0.000127
210
0.0
220
1.0
230
0.0
  0
LINE
  5
2B8
330
70
100
AcDbEntity
  8
Visible
100
AcDbLine
 10
2.114287
 20
4.330354
 30
0.000127
 11
2.308115
 21
4.330354
 31
0.000127
210
0.0
220
1.0
230
0.0
  0
ARC
  5
2B9
330
70
100
AcDbEntity
  8
Visible
100
AcDbCircle
 10
-5.263893
 20
0.000127
 30
3.68381
 40
0.2755905511811024
210
0.0
220
1.0
230
0.0
100
AcDbArc
 50
0.0
 51
180.0
  0
SPLINE
  5
2BA
330
70
100
AcDbEntity
  8
Visible
100
AcDbSpline
 70
     0
 71
     3
 72
    16
 73
    12
 74
     0
 42
0.000000001
 43
0.0000000001
 40
-2.713057740836204
 40
-2.713057740836204
 40
-2.713057740836204
 40
-2.713057740836204
 40
-1.883382335599278
 40
-1.883382335599278
 40
-1.049940887175051
 40
-1.049940887175051
 40
-0.5290399819099097
 40
-0.5290399819099097
 40
-0.203476916119196
 40
-0.203476916119196
 40
0.0
 40
0.0
 40
0.0
 40
0.0
 10
4.866882139602239
 20
7.516479241744288
 30
0.8072139968116971
 10
4.866882139602239
 20
7.516479241744288
 30
0.9160952835882198
 10
4.93258885297655
 20
7.486350884996314
 30
1.022557661617611
 10
5.139498711856504
 20
7.439995866043172
 30
1.146412948459328
 10
5.28265960124736
 20
7.431161962265361
 30
1.16260132244497
 10
5.477565183229671
 20
7.457306949023352
 30
1.100620403622087
 10
5.542448898380825
 20
7.474707975924958
 30
1.057805952608759
 10
5.616906498904427
 20
7.499064853719493
 30
0.9678220248715661
 10
5.637868703845015
 20
7.507235587202457
 30
0.9286968735268601
 10
5.657134405524629
 20
7.514904005773995
 30
0.8609315040193905
 10
5.660903462157875
 20
7.516479241744288
 30
0.8339170041763281
 10
5.660903462157875
 20
7.516479241744288
 30
0.8072139968116971
1001
ACAD_VIEW_EDGE_ID
1071
       10
1071
       -1
1071
        4
1071
        0
  0
ARC
  5
2BB
330
70
100
AcDbEntity
  8
Visible
100
AcDbCircle
 10
-5.746172
 20
7.657339
 30
-0.807214
 40
0.0098425196850395
210
0.0000000000002969
220
0.0
230
-1.0
100
AcDbArc
 50
59.658692
 51
180.451387
  0
ARC
  5
2BC
330
70
100
AcDbEntity
  8
Visible
100
AcDbCircle
 10
4.781614
 20
7.657339
 30
0.807214
 40
0.0098425196850393
100
AcDbArc
 50
59.658692
 51
180.451387
  0
SPLINE
  5
2BD
330
70
100
AcDbEntity
  8
Visible
100
AcDbSpline
 70
     0
 71
     3
 72
    29
 73
    25
 74
     0
 42
0.000000001
 43
0.0000000001
 40
0.0
 40
0.0
 40
0.0
 40
0.0
 40
0.315267714431367
 40
0.315267714431367
 40
0.315267714431367
 40
0.760903369534942
 40
0.760903369534942
 40
0.760903369534942
 40
1.248061815720205
 40
1.248061815720205
 40
1.248061815720205
 40
1.787775623102103
 40
1.787775623102103
 40
1.787775623102103
 40
2.410598074563843
 40
2.410598074563843
 40
2.410598074563843
 40
3.068649729818581
 40
3.068649729818581
 40
3.068649729818581
 40
3.743434134107807
 40
3.743434134107807
 40
3.743434134107807
 40
3.851739926331437
 40
3.851739926331437
 40
3.851739926331437
 40
3.851739926331437
 10
5.741199857513493
 20
7.665833521574831
 30
0.8072139968116971
 10
5.741199857513493
 20
7.665833521574831
 30
0.8485877126149716
 10
5.735902793629065
 20
7.662667723421596
 30
0.8899430314377241
 10
5.725409415397734
 20
7.656794037155508
 30
0.9298028369466919
 10
5.710576867473719
 20
7.64849149329439
 30
0.9861452714121696
 10
5.685497837039292
 20
7.634890647000836
 30
1.038712071625923
 10
5.651975580905855
 20
7.619789879278676
 30
1.084372577528483
 10
5.615329836733508
 20
7.603282074179413
 30
1.134287571656386
 10
5.568727443582247
 20
7.585203176795833
 30
1.175927378923006
 10
5.515004440949269
 20
7.570393183188958
 30
1.207293504443441
 10
5.455485722712182
 20
7.55398546594735
 30
1.2420434531723
 10
5.387691655641901
 20
7.541932351779244
 30
1.263833481274559
 10
5.317596549888548
 20
7.537941943075212
 30
1.271174460813199
 10
5.236707743630176
 20
7.533337065272593
 30
1.279645852149769
 10
5.153508901579698
 20
7.539833899145658
 30
1.268555759772425
 10
5.079242340090786
 20
7.554632527564836
 30
1.239441149675258
 10
5.000774979764173
 20
7.570268222623491
 30
1.208679706631301
 10
4.931600425070428
 20
7.595026067897637
 30
1.157612306620649
 10
4.880773990189481
 20
7.617570919220861
 30
1.09100434456559
 10
4.828655155275555
 20
7.640689034567054
 30
1.022702694326653
 10
4.796238456692663
 20
7.660210426145804
 30
0.9381119251211202
 10
4.788459311304904
 20
7.664739770414324
 30
0.8498413741963304
 10
4.787210725091426
 20
7.665466749603733
 30
0.8356735720262804
 10
4.786585744246622
 20
7.665833521574832
 30
0.82142735537127
 10
4.786585744246622
 20
7.665833521574832
 30
0.8072139968116971
1001
ACAD_VIEW_EDGE_ID
1071
       22
1071
       -1
1071
        4
1071
        0
  0
ARC
  5
2BE
330
70
100
AcDbEntity
  8
Visible
100
AcDbCircle
 10
-5.602475
 20
7.658471
 30
-0.807214
 40
0.1535433070866137
210
0.0000000000002924
220
0.0000000000000055
230
-1.0
100
AcDbArc
 50
180.451387
 51
247.633424
  0
ARC
  5
2BF
330
70
100
AcDbEntity
  8
Visible
100
AcDbCircle
 10
4.92531
 20
7.658471
 30
0.807214
 40
0.1535433070866145
100
AcDbArc
 50
180.451387
 51
247.633424
  0
ARC
  5
2C0
330
70
100
AcDbEntity
  8
Visible
100
AcDbCircle
 10
-5.263893
 20
4.091533
 30
-0.000127
 40
0.4921259842519685
210
0.0000000000002969
220
0.0
230
-1.0
100
AcDbArc
 50
235.944202
 51
304.055798
  0
ARC
  5
2C1
330
70
100
AcDbEntity
  8
Visible
100
AcDbCircle
 10
5.618224
 20
7.416665
 30
0.000127
 40
0.078740157480315
100
AcDbArc
 50
108.40848
 51
180.0
  0
ARC
  5
2C2
330
70
100
AcDbEntity
  8
Visible
100
AcDbCircle
 10
-4.909562
 20
7.416665
 30
-0.000127
 40
0.078740157480315
210
0.00000000000231
220
-0.00000000000067
230
-1.0
100
AcDbArc
 50
108.40848
 51
180.0
  0
LINE
  5
2C3
330
70
100
AcDbEntity
  8
Visible
100
AcDbLine
 10
4.988302
 20
3.68381
 30
0.000127
 11
4.988302
 21
4.330354
 31
0.000127
210
0.0
220
1.0
230
0.0
  0
LINE
  5
2C4
330
70
100
AcDbEntity
  8
Visible
100
AcDbLine
 10
4.988302
 20
5.314606
 30
0.000127
 11
4.988302
 21
7.416665
 31
0.000127
210
0.0
220
1.0
230
0.0
  0
LINE
  5
2C5
330
70
100
AcDbEntity
  8
Visible
100
AcDbLine
 10
5.539483
 20
3.68381
 30
0.000127
 11
5.539483
 21
4.330354
 31
0.000127
210
0.0
220
1.0
230
0.0
  0
LINE
  5
2C6
330
70
100
AcDbEntity
  8
Visible
100
AcDbLine
 10
5.539483
 20
5.314606
 30
0.000127
 11
5.539483
 21
7.416665
 31
0.000127
210
0.0
220
1.0
230
0.0
  0
SPLINE
  5
2C7
330
70
100
AcDbEntity
  8
Visible
100
AcDbSpline
 70
     0
 71
     3
 72
    22
 73
    18
 74
     0
 42
0.000000001
 43
0.0000000001
 40
0.5427035190641916
 40
0.5427035190641916
 40
0.5427035190641991
 40
0.5427035190641991
 40
0.812800979730553
 40
0.812800979730553
 40
1.082898440396907
 40
1.082898440396907
 40
1.352995901063261
 40
1.352995901063261
 40
1.623093361729615
 40
1.623093361729615
 40
1.894445121261714
 40
1.894445121261714
 40
2.165796880793814
 40
2.165796880793814
 40
2.437148640325914
 40
2.437148640325914
 40
2.708500399858013
 40
2.708500399858013
 40
2.70850039985802
 40
2.70850039985802
 10
14.52286235296859
 20
5.052008786053193
 30
0.5988894025758782
 10
14.52286235296859
 20
5.040875161117583
 30
0.6325413186623337
 10
14.51624306432703
 20
5.028557402147271
 30
0.6684925896934147
 10
14.4884471395292
 20
5.001590326115547
 30
0.7326429986715084
 10
14.46720775802103
 20
4.986815139226564
 30
0.7607619351110771
 10
14.41707974069348
 20
4.9578737149277
 30
0.801691289867449
 10
14.38559026710326
 20
4.942205883133283
 30
0.8166252833325415
 10
14.31764222890277
 20
4.913895156354556
 30
0.8306494927855965
 10
14.28117647756906
 20
4.901337755896747
 30
0.8298770095861982
 10
14.21320967692762
 20
4.884416058283932
 30
0.817911562455265
 10
14.17682393262319
 20
4.878827441999419
 30
0.8058133398753852
 10
14.10903908040953
 20
4.880889292970095
 30
0.7733116001836607
 10
14.07758025700539
 20
4.888891554160181
 30
0.753056089317397
 10
14.02721945142756
 20
4.917967378817593
 30
0.7119366637489293
 10
14.00606078840727
 20
4.940343837577529
 30
0.689230176854835
 10
13.97833281886168
 20
4.993426339960933
 30
0.6437460241450026
 10
13.97168125060606
 20
5.02386256023783
 30
0.6207044281673007
 10
13.97168125060606
 20
5.052008786052283
 30
0.5988894025758782
1001
ACAD_VIEW_EDGE_ID
1071
        2
1071
       -1
1071
        2
1071
        0
  0
CIRCLE
  5
2C8
330
70
100
AcDbEntity
  8
Visible
100
AcDbCircle
 10
11.179263
 20
-5.495796
 30
8.751209
 40
0.4921259842519687
210
0.7071067811865466
220
-0.4082482904638636
230
0.5773502691896267
  0
ARC
  5
2C9
330
70
100
AcDbEntity
  8
Visible
100
AcDbCircle
 10
11.179263
 20
-5.495796
 30
5.404882
 40
0.4921259842519687
210
0.7071067811865467
220
-0.4082482904638635
230
0.5773502691896266
100
AcDbArc
 50
360.0
 51
180.0
  0
LINE
  5
2CA
330
70
100
AcDbEntity
  8
Visible
100
AcDbLine
 10
12.405421
 20
6.314686
 30
-1.366789
 11
13.971681
 21
5.410405
 31
-0.087943
210
-0.0000000000000001
220
0.816496580927726
230
0.5773502691896259
  0
LINE
  5
2CB
330
70
100
AcDbEntity
  8
Visible
100
AcDbLine
 10
14.522862
 20
5.09218
 30
0.362094
 11
14.771632
 21
4.948553
 31
0.565214
210
-0.0000000000000001
220
0.816496580927726
230
0.5773502691896259
  0
LINE
  5
2CC
330
70
100
AcDbEntity
  8
Visible
100
AcDbLine
 10
11.913295
 20
5.462299
 30
-1.366789
 11
14.279506
 21
4.096166
 31
0.565214
210
-0.0000000000000001
220
0.816496580927726
230
0.5773502691896259
  0
SPLINE
  5
2CD
330
70
100
AcDbEntity
  8
Visible
100
AcDbSpline
 70
     0
 71
     3
 72
    30
 73
    26
 74
     0
 42
0.000000001
 43
0.0000000001
 40
0.9642430409563157
 40
0.9642430409563157
 40
0.9642430409563157
 40
0.9642430409563157
 40
1.444808994368146
 40
1.444808994368146
 40
1.685091971074062
 40
1.685091971074062
 40
1.925374947779977
 40
1.925374947779977
 40
2.165657924485893
 40
2.165657924485893
 40
2.405940901191808
 40
2.405940901191808
 40
2.88650685460364
 40
2.88650685460364
 40
3.368628375081797
 40
3.368628375081797
 40
3.609689135320876
 40
3.609689135320876
 40
3.850749895559955
 40
3.850749895559955
 40
4.091810655799035
 40
4.091810655799035
 40
4.332871416038114
 40
4.332871416038114
 40
4.81499293651627
 40
4.81499293651627
 40
4.814992936516271
 40
4.814992936516271
 10
12.21947531027152
 20
6.422041604142577
 30
-1.518613229805851
 10
12.2010749213471
 20
6.432665073640237
 30
-1.459233619243605
 10
12.17495132199682
 20
6.434002188248996
 30
-1.395808565699553
 10
12.12392240283705
 20
6.420401721381495
 30
-1.310814672269771
 10
12.10497808852259
 20
6.413352859985934
 30
-1.284094746188202
 10
12.06424931876725
 20
6.394927555845242
 30
-1.235944064887007
 10
12.04246116842322
 20
6.383548560354029
 30
-1.214517412066925
 10
11.99786649067144
 20
6.357801811149329
 30
-1.178106010154806
 10
11.97380203579294
 20
6.342707792672626
 30
-1.162094167582836
 10
11.92384931483619
 20
6.308778113741027
 30
-1.136203721765923
 10
11.89796292452255
 20
6.289943955750459
 30
-1.126319530798355
 10
11.82071346793353
 20
6.229482867847764
 30
-1.106574569021177
 10
11.76969911204768
 20
6.183610134019545
 30
-1.107016745854707
 10
11.68486245593184
 20
6.09206701453877
 30
-1.126602995318535
 10
11.64499558775904
 20
6.039878075639535
 30
-1.147192164706211
 10
11.60358984324219
 20
5.958898776459136
 30
-1.189512596149143
 10
11.59277808115738
 20
5.931409743167023
 30
-1.205451932175492
 10
11.57841513579777
 20
5.876939660312928
 30
-1.239443605041742
 10
11.57487735922703
 20
5.849953172300047
 30
-1.257492890314097
 10
11.57487735922703
 20
5.798292992108144
 30
-1.294022154044796
 10
11.57841513579777
 20
5.772280466753727
 30
-1.313448830520428
 10
11.59277808115738
 20
5.722076115953314
 30
-1.353473159510031
 10
11.60358984324219
 20
5.697885354732534
 30
-1.374076956632052
 10
11.64499558775904
 20
5.630992169598357
 30
-1.436318161599047
 10
11.68486245593184
 20
5.594184201574535
 30
-1.4786593086028
 10
11.72734932602023
 20
5.56965439569285
 30
-1.518613229807669
1001
ACAD_VIEW_EDGE_ID
1071
        0
1071
       -1
1071
        3
1071
        0
  0
ARC
  5
2CE
330
70
100
AcDbEntity
  8
Visible
100
AcDbCircle
 10
11.179263
 20
-5.495796
 30
5.40186
 40
0.4921259842519687
210
0.7071067811865467
220
-0.4082482904638635
230
0.5773502691896266
100
AcDbArc
 50
359.751238
 51
180.248762
  0
LINE
  5
2CF
330
70
100
AcDbEntity
  8
Visible
100
AcDbLine
 10
12.219475
 20
6.422042
 30
-1.518613
 11
12.403284
 21
6.315919
 31
-1.368534
210
-0.0000000000000001
220
0.816496580927726
230
0.5773502691896259
  0
LINE
  5
2D0
330
70
100
AcDbEntity
  8
Visible
100
AcDbLine
 10
11.727349
 20
5.569654
 30
-1.518613
 11
11.911158
 21
5.463532
 31
-1.368534
210
-0.0000000000000001
220
0.816496580927726
230
0.5773502691896259
  0
SPLINE
  5
2D1
330
70
100
AcDbEntity
  8
Visible
100
AcDbSpline
 70
     0
 71
     3
 72
    18
 73
    14
 74
     0
 42
0.000000001
 43
0.0000000001
 40
0.4085634639908557
 40
0.4085634639908557
 40
0.4085634639908557
 40
0.4085634639908557
 40
0.4213212721396951
 40
0.4213212721396951
 40
0.5266513684260604
 40
0.5266513684260604
 40
0.6319814647124256
 40
0.6319814647124256
 40
0.7373120044959079
 40
0.7373120044959079
 40
0.8426425442793901
 40
0.8426425442793901
 40
0.8824811870936219
 40
0.8824811870936219
 40
0.8824811870936219
 40
0.8824811870936219
 10
13.70269034776291
 20
6.500054692221056
 30
2.298548732413109
 10
13.70154760797712
 20
6.500773638405007
 30
2.29751677870081
 10
13.70038292591315
 20
6.501475556201512
 30
2.296516422125932
 10
13.68942482118862
 20
6.507802220913617
 30
2.287569167083347
 10
13.67704916218762
 20
6.512937281330778
 30
2.280831608022708
 10
13.6499472936105
 20
6.520309789328166
 30
2.272301273655102
 10
13.63522087722257
 20
6.522535152920681
 30
2.270498718677117
 10
13.60761367326839
 20
6.523726772505142
 30
2.271341320965802
 10
13.59288729229982
 20
6.522770633883737
 30
2.274041365761149
 10
13.56578548328824
 20
6.5171892114613
 30
2.283838157238278
 10
13.55340982857732
 20
6.512550232421745
 30
2.290926467814642
 10
13.53993868508158
 20
6.504772664098709
 30
2.301925610419857
 10
13.53642897998205
 20
6.502387825695223
 30
2.305222776754817
 10
13.53319013431363
 20
6.499799739372065
 30
2.308737494791785
1001
ACAD_VIEW_EDGE_ID
1071
        0
1071
       -1
1071
        4
1071
        0
  0
SPLINE
  5
2D2
330
70
100
AcDbEntity
  8
Visible
100
AcDbSpline
 70
     1
 71
     3
 72
    38
 73
    34
 74
     0
 42
0.000000001
 43
0.0000000001
 40
0.0
 40
0.0
 40
0.0
 40
0.0
 40
0.1053491931344002
 40
0.1053491931344002
 40
0.2106983862688004
 40
0.2106983862688004
 40
0.3160469185541582
 40
0.3160469185541582
 40
0.421395450839516
 40
0.421395450839516
 40
0.5267439831248739
 40
0.5267439831248739
 40
0.6320925154102318
 40
0.6320925154102318
 40
0.7374417085446319
 40
0.7374417085446319
 40
0.8427909016790319
 40
0.8427909016790319
 40
0.9481400948134316
 40
0.9481400948134316
 40
1.053489287947831
 40
1.053489287947831
 40
1.158837820233189
 40
1.158837820233189
 40
1.264186352518547
 40
1.264186352518547
 40
1.369534884803905
 40
1.369534884803905
 40
1.474883417089262
 40
1.474883417089262
 40
1.580232610223663
 40
1.580232610223663
 40
1.685581803358063
 40
1.685581803358063
 40
1.685581803358063
 40
1.685581803358063
 10
13.69919905023679
 20
6.49795407399597
 30
2.483102001348015
 10
13.68942304907458
 20
6.492309897093946
 30
2.491084072873491
 10
13.67704598724802
 20
6.48714689868575
 30
2.49780191791433
 10
13.64994417118331
 20
6.479676874603683
 30
2.506262068258365
 10
13.63521913649882
 20
6.477383677746729
 30
2.50801567610506
 10
13.60761555869002
 20
6.47606729736708
 30
2.507084854612912
 10
13.59289047125302
 20
6.476958288910282
 30
2.504339756264016
 10
13.56578856654167
 20
6.482449378234377
 30
2.494480240316988
 10
13.55341149821405
 20
6.487064138446839
 30
2.487374686255861
 10
13.53385961853772
 20
6.498352421441268
 30
2.471410643349372
 10
13.52539362488759
 20
6.505771408672444
 30
2.461497908570891
 10
13.51417308192893
 20
6.522405794826227
 30
2.440067277020716
 10
13.51141730430507
 20
6.531607385431925
 30
2.428539308817562
 10
13.51141730430689
 20
6.548860698888347
 30
2.406931903406075
 10
13.51417309693923
 20
6.558064340866621
 30
2.395405450348334
 10
13.52539360118434
 20
6.574703444602164
 30
2.373978263205572
 10
13.53385955721231
 20
6.582124520995421
 30
2.364067013651947
 10
13.55341155953764
 20
6.593412874801288
 30
2.348102870602815
 10
13.5657886213651
 20
6.598025520377632
 30
2.340995867341916
 10
13.592890437428
 20
6.603511818588231
 30
2.331133010979101
 10
13.60761547211431
 20
6.604400736968273
 30
2.328386428300291
 10
13.63521904992038
 20
6.603084356589533
 30
2.327455606809962
 10
13.6499441373592
 20
6.60079325022707
 30
2.32921067447387
 10
13.67704604207055
 20
6.593327972555925
 30
2.337674228452669
 10
13.68942311039908
 20
6.588167045343652
 30
2.344393584127828
 10
13.70897499007541
 20
6.576878762349224
 30
2.360357627032499
 10
13.71744098372463
 20
6.570005942117859
 30
2.370656560198767
 10
13.72866152668329
 20
6.555345744311125
 30
2.393483153715351
 10
13.73141730430533
 20
6.547544268523779
 30
2.406001152605313
 10
13.73141730430624
 20
6.532923715824836
 30
2.429470200999276
 10
13.72866151167208
 20
6.525124352325292
 30
2.441989628889132
 10
13.71744100742879
 20
6.510468974461218
 30
2.464819522050675
 10
13.7089750513999
 20
6.503598250898903
 30
2.475119929826178
 10
13.69919905023679
 20
6.49795407399597
 30
2.483102001348015
1001
ACAD_VIEW_EDGE_ID
1071
        1
1071
       -1
1071
        4
1071
        0
  0
SPLINE
  5
2D3
330
70
100
AcDbEntity
  8
Visible
100
AcDbSpline
 70
     0
 71
     3
 72
    18
 73
    14
 74
     0
 42
0.000000001
 43
0.0000000001
 40
0.4085634639908554
 40
0.4085634639908554
 40
0.4085634639908554
 40
0.4085634639908554
 40
0.4213212721396948
 40
0.4213212721396948
 40
0.5266513684260601
 40
0.5266513684260601
 40
0.6319814647124255
 40
0.6319814647124255
 40
0.7373120044959077
 40
0.7373120044959077
 40
0.8426425442793895
 40
0.8426425442793895
 40
0.8824811870936228
 40
0.8824811870936228
 40
0.8824811870936228
 40
0.8824811870936228
 10
14.90078286775977
 20
7.19177373115508
 30
1.320310286200765
 10
14.89964012797307
 20
7.192492677339032
 30
1.319278332490284
 10
14.89847544591001
 20
7.193194595135537
 30
1.318277975913588
 10
14.88751734118549
 20
7.199521259847642
 30
1.309330720871002
 10
14.87514168218357
 20
7.204656320264803
 30
1.302593161810364
 10
14.84803981360736
 20
7.212028828262191
 30
1.294062827442758
 10
14.83331339721852
 20
7.214254191854706
 30
1.292260272464773
 10
14.80570619326616
 20
7.215445811439167
 30
1.293102874751639
 10
14.79097981229668
 20
7.214489672817762
 30
1.295802919548805
 10
14.76387800328419
 20
7.208908250395325
 30
1.305599711025934
 10
14.75150234857418
 20
7.20426927135486
 30
1.312688021604117
 10
14.73803120507935
 20
7.196491703032734
 30
1.323687164207512
 10
14.73452149997891
 20
7.194106864629247
 30
1.326984330542472
 10
14.73128265430958
 20
7.19151877830518
 30
1.33049904857944
1001
ACAD_VIEW_EDGE_ID
1071
        2
1071
       -1
1071
        4
1071
        0
  0
SPLINE
  5
2D4
330
70
100
AcDbEntity
  8
Visible
100
AcDbSpline
 70
     1
 71
     3
 72
    38
 73
    34
 74
     0
 42
0.000000001
 43
0.0000000001
 40
0.0
 40
0.0
 40
0.0
 40
0.0
 40
0.1053491931344001
 40
0.1053491931344001
 40
0.2106983862688001
 40
0.2106983862688001
 40
0.3160469185541579
 40
0.3160469185541579
 40
0.4213954508395157
 40
0.4213954508395157
 40
0.5267439831248736
 40
0.5267439831248736
 40
0.6320925154102315
 40
0.6320925154102315
 40
0.7374417085446315
 40
0.7374417085446315
 40
0.8427909016790312
 40
0.8427909016790312
 40
0.9481400948134313
 40
0.9481400948134313
 40
1.053489287947831
 40
1.053489287947831
 40
1.158837820233189
 40
1.158837820233189
 40
1.264186352518546
 40
1.264186352518546
 40
1.369534884803904
 40
1.369534884803904
 40
1.474883417089262
 40
1.474883417089262
 40
1.580232610223662
 40
1.580232610223662
 40
1.685581803358062
 40
1.685581803358062
 40
1.685581803358062
 40
1.685581803358062
 10
14.89729157023365
 20
7.189673112929995
 30
1.50486355513749
 10
14.88751556907144
 20
7.184028936027061
 30
1.512845626661146
 10
14.87513850724398
 20
7.178865937618866
 30
1.519563471703804
 10
14.84803669117926
 20
7.171395913537708
 30
1.52802362204784
 10
14.83331165649568
 20
7.169102716680754
 30
1.529777229892715
 10
14.80570807868779
 20
7.167786336302015
 30
1.528846408400568
 10
14.79098299124897
 20
7.168677327843397
 30
1.526101310053491
 10
14.76388108653853
 20
7.174168417168402
 30
1.516241794106463
 10
14.75150401821
 20
7.178783177380864
 30
1.509136240043517
 10
14.73195213853367
 20
7.190071460375293
 30
1.493172197137027
 10
14.72348614488445
 20
7.197490447606469
 30
1.483259462358546
 10
14.71226560192488
 20
7.214124833759342
 30
1.46182883081019
 10
14.70950982430284
 20
7.22332642436595
 30
1.450300862603398
 10
14.70950982430375
 20
7.240579737822372
 30
1.428693457195549
 10
14.71226561693519
 20
7.249783379800646
 30
1.417167004137809
 10
14.72348612118029
 20
7.266422483536189
 30
1.395739816993227
 10
14.73195207720917
 20
7.273843559929446
 30
1.385828567439602
 10
14.75150407953359
 20
7.285131913735312
 30
1.36986442439047
 10
14.76388114136106
 20
7.289744559311657
 30
1.362757421129572
 10
14.79098295742395
 20
7.295230857522255
 30
1.352894564768575
 10
14.80570799211026
 20
7.296119775902297
 30
1.350147982089765
 10
14.83331156991724
 20
7.294803395523558
 30
1.349217160597618
 10
14.84803665735606
 20
7.292512289161095
 30
1.350972228261525
 10
14.8751385620665
 20
7.28504701148995
 30
1.359435782240325
 10
14.88751563039594
 20
7.279886084277677
 30
1.366155137915484
 10
14.90706751007227
 20
7.268597801283249
 30
1.382119180820154
 10
14.91553350372058
 20
7.261724981051884
 30
1.392418113986423
 10
14.92675404668015
 20
7.24706478324515
 30
1.415244707503006
 10
14.92950982430219
 20
7.239263307457804
 30
1.427762706392968
 10
14.92950982430219
 20
7.22464275475886
 30
1.451231754786931
 10
14.92675403166803
 20
7.216843391259317
 30
1.463751182678606
 10
14.91553352742474
 20
7.202188013395243
 30
1.486581075840149
 10
14.90706757139586
 20
7.195317289832019
 30
1.496881483613833
 10
14.89729157023365
 20
7.189673112929995
 30
1.50486355513749
1001
ACAD_VIEW_EDGE_ID
1071
        3
1071
       -1
1071
        4
1071
        0
  0
ARC
  5
2D5
330
70
100
AcDbEntity
  8
Visible
100
AcDbCircle
 10
-14.247272
 20
-2.427787
 30
2.880148
 40
0.2755905511811023
210
-0.0000000000000001
220
0.816496580927726
230
0.5773502691896259
100
AcDbArc
 50
0.0
 51
180.0
  0
LINE
  5
2D6
330
70
100
AcDbEntity
  8
Visible
100
AcDbLine
 10
13.971681
 20
3.753314
 30
-0.319426
 11
13.971681
 21
4.273889
 31
0.048675
210
-0.0000000000000001
220
0.816496580927726
230
0.5773502691896259
  0
LINE
  5
2D7
330
70
100
AcDbEntity
  8
Visible
100
AcDbLine
 10
13.971681
 20
5.052009
 30
0.598889
 11
13.971681
 21
6.386207
 31
1.54231
210
-0.0000000000000001
220
0.816496580927726
230
0.5773502691896259
  0
LINE
  5
2D8
330
70
100
AcDbEntity
  8
Visible
100
AcDbLine
 10
14.522862
 20
3.753314
 30
-0.319426
 11
14.522862
 21
4.11899
 31
-0.060854
210
-0.0000000000000001
220
0.816496580927726
230
0.5773502691896259
  0
LINE
  5
2D9
330
70
100
AcDbEntity
  8
Visible
100
AcDbLine
 10
14.522862
 20
5.052009
 30
0.598889
 11
14.522862
 21
6.703976
 31
1.767007
210
-0.0000000000000001
220
0.816496580927726
230
0.5773502691896259
  0
SPLINE
  5
2DA
330
70
100
AcDbEntity
  8
Visible
100
AcDbSpline
 70
     0
 71
     3
 72
    68
 73
    64
 74
     0
 42
0.000000001
 43
0.0000000001
 40
0.0
 40
0.0
 40
0.0
 40
0.0
 40
0.0837771467830744
 40
0.0837771467830744
 40
0.1678213418127029
 40
0.1678213418127029
 40
0.2529179927320009
 40
0.2529179927320009
 40
0.3391857908908439
 40
0.3391857908908439
 40
0.4269328041055746
 40
0.4269328041055746
 40
0.5166798548473889
 40
0.5166798548473889
 40
0.6088801159654095
 40
0.6088801159654095
 40
0.7034459377522165
 40
0.7034459377522165
 40
0.7994804038668808
 40
0.7994804038668808
 40
0.8968548729498373
 40
0.8968548729498373
 40
0.9953900654004803
 40
0.9953900654004803
 40
1.094887289887487
 40
1.094887289887487
 40
1.194321170101424
 40
1.194321170101424
 40
1.292915511292197
 40
1.292915511292197
 40
1.390716490748892
 40
1.390716490748892
 40
1.487895044941124
 40
1.487895044941124
 40
1.584410665887771
 40
1.584410665887771
 40
1.6796204444625
 40
1.6796204444625
 40
1.774049448522235
 40
1.774049448522235
 40
1.868272054370018
 40
1.868272054370018
 40
1.962878245734626
 40
1.962878245734626
 40
2.057401819893228
 40
2.057401819893228
 40
2.152346362179391
 40
2.152346362179391
 40
2.248438639487135
 40
2.248438639487135
 40
2.346432291340119
 40
2.346432291340119
 40
2.445910197280267
 40
2.445910197280267
 40
2.546895196163434
 40
2.546895196163434
 40
2.648831861631195
 40
2.648831861631195
 40
2.741334769379585
 40
2.741334769379585
 40
2.880089131002172
 40
2.880089131002172
 40
3.018843492624758
 40
3.018843492624758
 40
3.018843492624758
 40
3.018843492624758
 10
14.47202420487273
 20
7.532592537168056
 30
1.230276325446538
 10
14.48006581038979
 20
7.537235360278828
 30
1.223928719376999
 10
14.48839211246676
 20
7.541536849437761
 30
1.217659956224451
 10
14.50556188196541
 20
7.549429642739596
 30
1.20532240479406
 10
14.51440668389594
 20
7.553018543855614
 30
1.199254492523323
 10
14.53261211631369
 20
7.559490677815119
 30
1.187329095875611
 10
14.54197883835812
 20
7.562366898065192
 30
1.181473281914804
 10
14.56129406886183
 20
7.567420803962704
 30
1.16996214908795
 10
14.57123452524436
 20
7.569582786065438
 30
1.164320402833254
 10
14.5916365842825
 20
7.573176856728423
 30
1.15331804733978
 10
14.60210400374879
 20
7.574595770181076
 30
1.147964120749747
 10
14.62354254358186
 20
7.576695244011716
 30
1.137596834842042
 10
14.63451949019989
 20
7.577358307741633
 30
1.132594206366775
 10
14.65694481619565
 20
7.577942453325704
 30
1.123004003315145
 10
14.66836977280062
 20
7.577844555718911
 30
1.118441515553058
 10
14.69174777475408
 20
7.576906337621949
 30
1.10978045441152
 10
14.70371271010234
 20
7.576044522930715
 30
1.105696602478928
 10
14.727997578588
 20
7.573582715286647
 30
1.098145459369334
 10
14.74031996655438
 20
7.571971516867961
 30
1.094688939399929
 10
14.76521095451543
 20
7.568051067341002
 30
1.08849519137766
 10
14.77778040777528
 20
7.565732512421163
 30
1.085768832135727
 10
14.80303949363432
 20
7.56045983707645
 30
1.081126237806529
 10
14.8157285612281
 20
7.557498650166962
 30
1.07922013544703
 10
14.84109480068153
 20
7.55102161015202
 30
1.076288117004878
 10
14.85375356118064
 20
7.547507049152955
 30
1.075269540700901
 10
14.87907261421631
 20
7.539968851070625
 30
1.074159662986858
 10
14.89170455124739
 20
7.535952004211139
 30
1.074072493778658
 10
14.91670760917376
 20
7.527540378155208
 30
1.074870449039735
 10
14.92907980225781
 20
7.523149228958573
 30
1.075747438109829
 10
14.95346627805273
 20
7.51408387324318
 30
1.078468589030308
 10
14.96548241907684
 20
7.509412397476808
 30
1.080304879696996
 10
14.98908445501846
 20
7.499869893655159
 30
1.084922444062613
 10
15.00064971997134
 20
7.49501047069134
 30
1.087690685908455
 10
15.02337897441274
 20
7.48512607863995
 30
1.094164980322602
 10
15.0345646147637
 20
7.480093110841153
 30
1.09787262696409
 10
15.05639992335481
 20
7.469952376111905
 30
1.106188262927389
 10
15.067054526264
 20
7.464846698333531
 30
1.110783361089488
 10
15.08779960418204
 20
7.454605926075601
 30
1.120833876653705
 10
15.09789376962388
 20
7.449471561096288
 30
1.126281809389183
 10
15.1174991082128
 20
7.439205394208329
 30
1.13800169228125
 10
15.1270113238509
 20
7.434073749109302
 30
1.144271601164291
 10
15.14543879835063
 20
7.423833124809789
 30
1.157605552474706
 10
15.15438417562771
 20
7.418706617884708
 30
1.164694549201158
 10
15.17168819357747
 20
7.408465727946349
 30
1.17969021796307
 10
15.18003422162136
 20
7.403358586276226
 30
1.187586917485532
 10
15.19607532352555
 20
7.393184092588853
 30
1.204146101566948
 10
15.20376712379428
 20
7.388117152643644
 30
1.212811655255791
 10
15.21847628101776
 20
7.378017211695805
 30
1.230891286522819
 10
15.2254842194973
 20
7.372985493672786
 30
1.24031287586331
 10
15.23879593753944
 20
7.362939732185623
 30
1.259891563680866
 10
15.24509812730529
 20
7.357918164163493
 30
1.270077034576388
 10
15.25698431062327
 20
7.347831058467818
 30
1.291253821835198
 10
15.26254149209606
 20
7.342776866890744
 30
1.302234361168302
 10
15.27281038066056
 20
7.332635230095547
 30
1.324871050859655
 10
15.27750818043686
 20
7.327548529174237
 30
1.336534651632973
 10
15.28593670108447
 20
7.31733972701113
 30
1.36035188488131
 10
15.28965850627927
 20
7.312217234984018
 30
1.372508769469277
 10
15.29572195567315
 20
7.302411637387194
 30
1.395917688896588
 10
15.29815958240786
 20
7.297730595579196
 30
1.407149094435226
 10
15.30306022991252
 20
7.285957864295596
 30
1.435323006113321
 10
15.30495179331436
 20
7.278746893302923
 30
1.452486699512519
 10
15.30630149372635
 20
7.264170037217809
 30
1.486999220567668
 10
15.30574569001263
 20
7.256825724752161
 30
1.504339202958362
 10
15.30398535839166
 20
7.249605894664455
 30
1.521558675083724
1001
ACAD_VIEW_EDGE_ID
1071
   -14337
1071
       -1
1071
        4
1071
        0
  0
SPLINE
  5
2DB
330
70
100
AcDbEntity
  8
Visible
100
AcDbSpline
 70
     0
 71
     3
 72
    26
 73
    22
 74
     0
 42
0.000000001
 43
0.0000000001
 40
-3.851739926331437
 40
-3.851739926331437
 40
-3.851739926331437
 40
-3.851739926331437
 40
-3.712984233497441
 40
-3.712984233497441
 40
-3.574228540663446
 40
-3.574228540663446
 40
-3.43547284782945
 40
-3.43547284782945
 40
-3.296717154995454
 40
-3.296717154995454
 40
-3.157961462161459
 40
-3.157961462161459
 40
-3.019205769327463
 40
-3.019205769327463
 40
-2.880450076493467
 40
-2.880450076493467
 40
-2.741694383659472
 40
-2.741694383659472
 40
-2.602938690825476
 40
-2.602938690825476
 40
-2.464182997991481
 40
-2.464182997991481
 40
-2.464182997991481
 40
-2.464182997991481
 10
13.33063136909939
 20
6.873609076184038
 30
2.162219673351501
 10
13.31731247978795
 20
6.86591941185361
 30
2.172732880255352
 10
13.30469803616896
 20
6.85724362568726
 30
2.183524332920569
 10
13.28122864110563
 20
6.838164861354016
 30
2.205407113538967
 10
13.27038062467116
 20
6.827780776387953
 30
2.216484221051359
 10
13.25048595888009
 20
6.805400167373591
 30
2.238961175606164
 10
13.24147019143337
 20
6.79342479321076
 30
2.250335592765623
 10
13.22551556713396
 20
6.768297261187399
 30
2.27317989907533
 10
13.21857754725923
 20
6.755147672728526
 30
2.284648987017135
 10
13.20687761190246
 20
6.728137247710037
 30
2.307528856217686
 10
13.20208432029293
 20
6.714226240072093
 30
2.31898471565546
 10
13.19460604530767
 20
6.68572041329935
 30
2.342062250414528
 10
13.19193832272256
 20
6.671163233178049
 30
2.353652751420668
 10
13.18878182008146
 20
6.641855960997418
 30
2.376851432140028
 10
13.18829306258911
 20
6.627107447554408
 30
2.388459310979669
 10
13.18944935310472
 20
6.597833618289769
 30
2.411603778282369
 10
13.19108144419923
 20
6.583344305994614
 30
2.423111214480741
 10
13.19645413769675
 20
6.554584601993155
 30
2.446276674119872
 10
13.20019890594384
 20
6.540354354317969
 30
2.457904000662892
 10
13.2097436943607
 20
6.512576619714309
 30
2.481141299665978
 10
13.21554337218302
 20
6.499030584132015
 30
2.49275072436103
 10
13.22230103012615
 20
6.486001070406928
 30
2.504288933858333
1001
ACAD_VIEW_EDGE_ID
1071
   -16385
1071
       -1
1071
        4
1071
        0
  0
LINE
  5
2DC
330
70
100
AcDbEntity
  8
Visible
100
AcDbLine
 10
13.330631
 20
6.873609
 30
2.16222
 11
14.472024
 21
7.532593
 31
1.230276
210
-0.0000000000000001
220
0.816496580927726
230
0.5773502691896259
  0
SPLINE
  5
2DD
330
70
100
AcDbEntity
  8
Visible
100
AcDbSpline
 70
     0
 71
     3
 72
    16
 73
    12
 74
     0
 42
0.000000001
 43
0.0000000001
 40
2.123626261275689
 40
2.123626261275689
 40
2.123626261275689
 40
2.123626261275689
 40
2.241512557187792
 40
2.241512557187792
 40
2.359398853099895
 40
2.359398853099895
 40
2.477285149011998
 40
2.477285149011998
 40
2.5951714449241
 40
2.5951714449241
 40
2.713057740836203
 40
2.713057740836203
 40
2.713057740836203
 40
2.713057740836203
 10
15.30398535839166
 20
7.249605894664455
 30
1.521558675083724
 10
15.29872403302696
 20
7.228027076935177
 30
1.535683202508153
 10
15.29036954913616
 20
7.208349801410804
 30
1.549757307036998
 10
15.27098807822611
 20
7.174120369794763
 30
1.577335998666967
 10
15.26001159831256
 20
7.159438065126778
 30
1.590838163323496
 10
15.2372598675004
 20
7.133501979405082
 30
1.616834261010808
 10
15.22544594153922
 20
7.122191300025406
 30
1.629332911126766
 10
15.20087096206069
 20
7.101219263325219
 30
1.65332914830833
 10
15.18813921099562
 20
7.091619528125193
 30
1.664763070113622
 10
15.16180078764708
 20
7.073511249286639
 30
1.686061286949552
 10
15.14819001931144
 20
7.065008940149709
 30
1.695922671215157
 10
15.1341539802327
 20
7.056905229208496
 30
1.704854650830384
1001
ACAD_VIEW_EDGE_ID
1071
   -20481
1071
       -1
1071
        4
1071
        0
  0
LINE
  5
2DE
330
70
100
AcDbEntity
  8
Visible
100
AcDbLine
 10
13.992761
 20
6.397922
 30
2.636798
 11
15.134154
 21
7.056905
 31
1.704855
210
-0.0000000000000001
220
0.816496580927726
230
0.5773502691896259
  0
SPLINE
  5
2DF
330
70
100
AcDbEntity
  8
Visible
100
AcDbSpline
 70
     0
 71
     3
 72
    18
 73
    14
 74
     0
 42
0.000000001
 43
0.0000000001
 40
0.0
 40
0.0
 40
0.0
 40
0.0
 40
0.3326620818009322
 40
0.3326620818009322
 40
0.639480825634961
 40
0.639480825634961
 40
0.9711174246755662
 40
0.9711174246755662
 40
1.282482631847273
 40
1.282482631847273
 40
1.5388034351646
 40
1.5388034351646
 40
1.729380666005442
 40
1.729380666005442
 40
1.729380666005442
 40
1.729380666005442
 10
13.99276114445937
 20
6.397921768224478
 30
2.636797998735346
 10
13.95315299540496
 20
6.375053992705034
 30
2.662003056802859
 10
13.90856392041158
 20
6.354347024067465
 30
2.680340622040603
 10
13.81676977301439
 20
6.320514180550162
 30
2.699827569376793
 10
13.76891090357302
 20
6.306640648863321
 30
2.702587939862496
 10
13.66650450632759
 20
6.287505716719351
 30
2.69616711881099
 10
13.60992365607607
 20
6.282718245050091
 30
2.68594331364693
 10
13.50038237531888
 20
6.290629724039717
 30
2.656115992611375
 10
13.44589579462653
 20
6.302569585204764
 30
2.636774398988563
 10
13.35403628354587
 20
6.343986444709116
 30
2.596167970023088
 10
13.31475807339419
 20
6.370501612542284
 30
2.575515981698117
 10
13.2585275342465
 20
6.427608939769015
 30
2.538037402600821
 10
13.23799529831129
 20
6.455740781345411
 30
2.521288826867021
 10
13.22230103012615
 20
6.486001070406928
 30
2.504288933858333
1001
ACAD_VIEW_EDGE_ID
1071
   -26625
1071
       -1
1071
        4
1071
        0
  0
ENDSEC
  0
SECTION
  2
OBJECTS
  0
DICTIONARY
  5
C
330
0
100
AcDbDictionary
281
     1
  3
ACAD_COLOR
350
63
  3
ACAD_DETAILVIEWSTYLE
350
6A
  3
ACAD_GROUP
350
D
  3
ACAD_IMAGE_DICT
350
11E
  3
ACAD_IMAGE_VARS
350
120
  3
ACAD_LAYOUT
350
62
  3
ACAD_MATERIAL
350
10
  3
ACAD_MLEADERSTYLE
350
66
  3
ACAD_MLINESTYLE
350
5F
  3
ACAD_PLOTSETTINGS
350
61
  3
ACAD_PLOTSTYLENAME
350
E
  3
ACAD_SCALELIST
350
42
  3
ACAD_SECTIONVIEWSTYLE
350
68
  3
ACAD_TABLESTYLE
350
64
  3
ACAD_VISUALSTYLE
350
29
  3
ACDB_RECOMPOSE_DATA
350
31E
  3
AcDbVariableDictionary
350
315
  0
DICTIONARY
  5
B4
330
70
100
AcDbDictionary
280
     1
281
     1
  3
ACAD_SORTENTS
360
114
  0
DICTIONARY
  5
118
330
117
100
AcDbDictionary
280
     1
281
     1
  3
ACAD_SORTENTS
360
293
  0
IMAGEDEF_REACTOR
  5
11F
330
11C
100
AcDbRasterImageDefReactor
 90
        2
330
11C
  0
DICTIONARY
  5
63
102
{ACAD_REACTORS
330
C
102
}
330
C
100
AcDbDictionary
281
     1
  0
DICTIONARY
  5
6A
102
{ACAD_REACTORS
330
C
102
}
330
C
100
AcDbDictionary
281
     1
  3
Imperial24
350
6B
  0
DICTIONARY
  5
D
102
{ACAD_REACTORS
330
C
102
}
330
C
100
AcDbDictionary
281
     1
  0
DICTIONARY
  5
11E
102
{ACAD_REACTORS
330
C
102
}
330
C
100
AcDbDictionary
281
     1
  3
morse_logo-16 (1)_01-2018(B)_1_1
350
11D
  0
RASTERVARIABLES
  5
120
102
{ACAD_REACTORS
330
C
102
}
330
C
100
AcDbRasterVariables
 90
        0
 70
     0
 71
     1
 72
     5
  0
DICTIONARY
  5
62
102
{ACAD_REACTORS
330
C
102
}
330
C
100
AcDbDictionary
281
     1
  3
Model
350
73
  3
Sheet1
350
6F
  3
Sheet2
350
77
  0
DICTIONARY
  5
10
102
{ACAD_REACTORS
330
C
102
}
330
C
100
AcDbDictionary
281
     1
  3
ByBlock
350
19
  3
ByLayer
350
11
  3
Global
350
21
  0
DICTIONARY
  5
66
102
{ACAD_REACTORS
330
C
102
}
330
C
100
AcDbDictionary
281
     1
  3
Standard
350
67
  0
DICTIONARY
  5
5F
102
{ACAD_REACTORS
330
C
102
}
330
C
100
AcDbDictionary
281
     1
  3
Standard
350
60
  0
DICTIONARY
  5
61
102
{ACAD_REACTORS
330
C
102
}
330
C
100
AcDbDictionary
281
     1
  0
ACDBDICTIONARYWDFLT
  5
E
102
{ACAD_REACTORS
330
C
102
}
330
C
100
AcDbDictionary
281
     1
  3
Normal
350
F
100
AcDbDictionaryWithDefault
340
F
  0
DICTIONARY
  5
42
102
{ACAD_REACTORS
330
C
102
}
330
C
100
AcDbDictionary
281
     1
  3
*A1
350
A4
  3
*A10
350
AD
  3
*A11
350
AE
  3
*A12
350
AF
  3
*A13
350
B0
  3
*A14
350
B1
  3
*A15
350
B2
  3
*A16
350
B3
  3
*A2
350
A5
  3
*A3
350
A6
  3
*A4
350
A7
  3
*A5
350
A8
  3
*A6
350
A9
  3
*A7
350
AA
  3
*A8
350
AB
  3
*A9
350
AC
  3
A0
350
43
  3
A1
350
44
  3
A2
350
45
  3
A3
350
46
  3
A4
350
47
  3
A5
350
48
  3
A6
350
49
  3
A7
350
4A
  3
A8
350
4B
  3
A9
350
4C
  3
B0
350
4D
  3
B1
350
4E
  3
B2
350
4F
  3
B3
350
50
  3
B4
350
51
  3
B5
350
52
  3
B6
350
53
  0
DICTIONARY
  5
68
102
{ACAD_REACTORS
330
C
102
}
330
C
100
AcDbDictionary
281
     1
  3
Imperial24
350
69
  0
DICTIONARY
  5
64
102
{ACAD_REACTORS
330
C
102
}
330
C
100
AcDbDictionary
281
     1
  3
Standard
350
65
  0
DICTIONARY
  5
29
102
{ACAD_REACTORS
330
C
102
}
330
C
100
AcDbDictionary
281
     1
  3
2dWireframe
350
2F
  3
Basic
350
2E
  3
Brighten
350
35
  3
ColorChange
350
39
  3
Conceptual
350
32
  3
Dim
350
34
  3
EdgeColorOff
350
41
  3
Facepattern
350
38
  3
Flat
350
2A
  3
FlatWithEdges
350
2B
  3
Gouraud
350
2C
  3
GouraudWithEdges
350
2D
  3
Hidden
350
31
  3
JitterOff
350
3F
  3
Linepattern
350
37
  3
OverhangOff
350
40
  3
Realistic
350
33
  3
Shaded
350
3E
  3
Shaded with edges
350
3D
  3
Shades of Gray
350
3A
  3
Sketchy
350
3B
  3
Thicken
350
36
  3
Wireframe
350
30
  3
X-Ray
350
3C
  0
XRECORD
  5
31E
102
{ACAD_REACTORS
330
C
102
}
330
C
100
AcDbXrecord
280
     1
 90
        1
330
65
330
124
330
12E
330
12F
330
130
330
133
330
16A
  0
DICTIONARY
  5
315
102
{ACAD_REACTORS
330
C
102
}
330
C
100
AcDbDictionary
281
     1
  3
ANNOALLVISIBLE
350
31A
  3
CANNOSCALE
350
31B
  3
CMLEADERSTYLE
350
317
  3
CTABLESTYLE
350
316
  3
CVIEWDETAILSTYLE
350
318
  3
CVIEWSECTIONSTYLE
350
319
  0
SORTENTSTABLE
  5
114
102
{ACAD_REACTORS
330
B4
102
}
330
B4
100
AcDbSortentsTable
330
70
  0
SORTENTSTABLE
  5
293
102
{ACAD_REACTORS
330
118
102
}
330
118
100
AcDbSortentsTable
330
117
  0
ACDBDETAILVIEWSTYLE
  5
6B
102
{ACAD_XDICTIONARY
360
321
102
}
102
{ACAD_REACTORS
330
6A
102
}
330
6A
100
AcDbModelDocViewStyle
 70
     0
  3
Imperial24
290
     0
100
AcDbDetailViewStyle
 70
     0
 71
     0
 90
        3
 71
     1
340
55
 62
   256
 40
0.24
340
0
 62
   256
 40
0.24
300

 40
0.36
280
     3
 71
     2
340
5D
 90
       25
 62
   256
 71
     3
340
55
 62
   256
 40
0.24
 90
        1
 40
0.75
 90
        1
300
%<\AcVar ViewType \f "%tc1">% %<\AcVar ViewDetailId>%\PSCALE %<\AcVar ViewScale \f "%sn">%
 71
     4
340
5D
 90
       25
 62
   256
340
5D
 90
       25
 62
   256
280
     0
  0
IMAGEDEF
  5
11D
102
{ACAD_REACTORS
330
11E
330
11F
330
2E0
102
}
330
11E
100
AcDbRasterImageDef
 90
        0
  1
morse_logo-16 (1)_01-2018(B)_1_1.jpg
 10
948.0
 20
333.0
 11
0.264583
 21
0.264583
280
     1
281
     5
  0
LAYOUT
  5
73
102
{ACAD_REACTORS
330
62
102
}
330
62
100
AcDbPlotSettings
  1

  2
AutoCAD PDF (High Quality Print).pc3
  4
ANSI_full_bleed_B_(17.00_x_11.00_Inches)
  6

 40
0.0
 41
0.0
 42
0.0
 43
0.0
 44
431.799988
 45
279.399994
 46
0.0
 47
0.0
 48
0.0
 49
0.0
140
0.0
141
0.0
142
1.0
143
1.385862
 70
 11952
 72
     0
 73
     0
 74
     0
  7

 75
     0
147
0.721572
 76
     0
 77
     2
 78
   300
148
84.261204
149
51.886301
100
AcDbLayout
  1
Model
 70
     1
 71
     0
 10
0.0
 20
0.0
 11
12.0
 21
9.0
 12
0.0
 22
0.0
 32
0.0
 14
0.0
 24
0.0
 34
0.0
 15
0.0
 25
0.0
 35
0.0
146
0.0
 13
0.0
 23
0.0
 33
0.0
 16
1.0
 26
0.0
 36
0.0
 17
0.0
 27
1.0
 37
0.0
 76
     0
330
70
1001
ACAD_PSEXT
1000
AutoCAD PDF (High Quality Print).pc3
1000
DWG To PDF
1000
File
1000

1070
     0
  0
LAYOUT
  5
6F
102
{ACAD_REACTORS
330
62
102
}
330
62
100
AcDbPlotSettings
  1

  2
None
  4

  6

 40
0.0
 41
0.0
 42
0.0
 43
0.0
 44
0.0
 45
0.0
 46
0.0
 47
0.0
 48
0.0
 49
0.0
140
0.0
141
0.0
142
1.0
143
1.0
 70
   688
 72
     0
 73
     0
 74
     5
  7

 75
    16
147
1.0
 76
     0
 77
     2
 78
   300
148
0.0
149
0.0
100
AcDbLayout
  1
Sheet1
 70
     1
 71
     1
 10
0.0
 20
0.0
 11
12.0
 21
9.0
 12
0.0
 22
0.0
 32
0.0
 14
0.0
 24
0.0
 34
0.0
 15
0.0
 25
0.0
 35
0.0
146
0.0
 13
0.0
 23
0.0
 33
0.0
 16
1.0
 26
0.0
 36
0.0
 17
0.0
 27
1.0
 37
0.0
 76
     0
330
6C
  0
LAYOUT
  5
77
102
{ACAD_REACTORS
330
62
102
}
330
62
100
AcDbPlotSettings
  1

  2
None
  4

  6

 40
0.0
 41
0.0
 42
0.0
 43
0.0
 44
0.0
 45
0.0
 46
0.0
 47
0.0
 48
0.0
 49
0.0
140
0.0
141
0.0
142
1.0
143
1.0
 70
   688
 72
     0
 73
     0
 74
     5
  7

 75
    16
147
1.0
 76
     0
 77
     2
 78
   300
148
0.0
149
0.0
100
AcDbLayout
  1
Sheet2
 70
     1
 71
     2
 10
0.0
 20
0.0
 11
12.0
 21
9.0
 12
0.0
 22
0.0
 32
0.0
 14
0.0
 24
0.0
 34
0.0
 15
0.0
 25
0.0
 35
0.0
146
0.0
 13
0.0
 23
0.0
 33
0.0
 16
1.0
 26
0.0
 36
0.0
 17
0.0
 27
1.0
 37
0.0
 76
     0
330
74
  0
MATERIAL
  5
19
102
{ACAD_XDICTIONARY
360
1A
102
}
102
{ACAD_REACTORS
330
10
102
}
330
10
100
AcDbMaterial
  1
ByBlock
 72
     0
 43
0.020833
 43
0.0
 43
0.0
 43
0.0
 43
0.0
 43
0.020833
 43
0.0
 43
0.0
 43
0.0
 43
0.0
 43
1.0
 43
0.0
 43
0.0
 43
0.0
 43
0.0
 43
1.0
 77
     0
 47
0.020833
 47
0.0
 47
0.0
 47
0.0
 47
0.0
 47
0.020833
 47
0.0
 47
0.0
 47
0.0
 47
0.0
 47
1.0
 47
0.0
 47
0.0
 47
0.0
 47
0.0
 47
1.0
171
     0
 49
0.020833
 49
0.0
 49
0.0
 49
0.0
 49
0.0
 49
0.020833
 49
0.0
 49
0.0
 49
0.0
 49
0.0
 49
1.0
 49
0.0
 49
0.0
 49
0.0
 49
0.0
 49
1.0
175
     0
142
0.020833
142
0.0
142
0.0
142
0.0
142
0.0
142
0.020833
142
0.0
142
0.0
142
0.0
142
0.0
142
1.0
142
0.0
142
0.0
142
0.0
142
0.0
142
1.0
179
     0
144
0.020833
144
0.0
144
0.0
144
0.0
144
0.0
144
0.020833
144
0.0
144
0.0
144
0.0
144
0.0
144
1.0
144
0.0
144
0.0
144
0.0
144
0.0
144
1.0
147
0.020833
147
0.0
147
0.0
147
0.0
147
0.0
147
0.020833
147
0.0
147
0.0
147
0.0
147
0.0
147
1.0
147
0.0
147
0.0
147
0.0
147
0.0
147
1.0
  0
MATERIAL
  5
11
102
{ACAD_XDICTIONARY
360
12
102
}
102
{ACAD_REACTORS
330
10
102
}
330
10
100
AcDbMaterial
  1
ByLayer
 72
     0
 43
0.020833
 43
0.0
 43
0.0
 43
0.0
 43
0.0
 43
0.020833
 43
0.0
 43
0.0
 43
0.0
 43
0.0
 43
1.0
 43
0.0
 43
0.0
 43
0.0
 43
0.0
 43
1.0
 77
     0
 47
0.020833
 47
0.0
 47
0.0
 47
0.0
 47
0.0
 47
0.020833
 47
0.0
 47
0.0
 47
0.0
 47
0.0
 47
1.0
 47
0.0
 47
0.0
 47
0.0
 47
0.0
 47
1.0
171
     0
 49
0.020833
 49
0.0
 49
0.0
 49
0.0
 49
0.0
 49
0.020833
 49
0.0
 49
0.0
 49
0.0
 49
0.0
 49
1.0
 49
0.0
 49
0.0
 49
0.0
 49
0.0
 49
1.0
175
     0
142
0.020833
142
0.0
142
0.0
142
0.0
142
0.0
142
0.020833
142
0.0
142
0.0
142
0.0
142
0.0
142
1.0
142
0.0
142
0.0
142
0.0
142
0.0
142
1.0
179
     0
144
0.020833
144
0.0
144
0.0
144
0.0
144
0.0
144
0.020833
144
0.0
144
0.0
144
0.0
144
0.0
144
1.0
144
0.0
144
0.0
144
0.0
144
0.0
144
1.0
147
0.020833
147
0.0
147
0.0
147
0.0
147
0.0
147
0.020833
147
0.0
147
0.0
147
0.0
147
0.0
147
1.0
147
0.0
147
0.0
147
0.0
147
0.0
147
1.0
  0
MATERIAL
  5
21
102
{ACAD_XDICTIONARY
360
22
102
}
102
{ACAD_REACTORS
330
10
102
}
330
10
100
AcDbMaterial
  1
Global
 72
     0
 43
0.020833
 43
0.0
 43
0.0
 43
0.0
 43
0.0
 43
0.020833
 43
0.0
 43
0.0
 43
0.0
 43
0.0
 43
1.0
 43
0.0
 43
0.0
 43
0.0
 43
0.0
 43
1.0
 77
     0
 47
0.020833
 47
0.0
 47
0.0
 47
0.0
 47
0.0
 47
0.020833
 47
0.0
 47
0.0
 47
0.0
 47
0.0
 47
1.0
 47
0.0
 47
0.0
 47
0.0
 47
0.0
 47
1.0
171
     0
 49
0.020833
 49
0.0
 49
0.0
 49
0.0
 49
0.0
 49
0.020833
 49
0.0
 49
0.0
 49
0.0
 49
0.0
 49
1.0
 49
0.0
 49
0.0
 49
0.0
 49
0.0
 49
1.0
175
     0
142
0.020833
142
0.0
142
0.0
142
0.0
142
0.0
142
0.020833
142
0.0
142
0.0
142
0.0
142
0.0
142
1.0
142
0.0
142
0.0
142
0.0
142
0.0
142
1.0
179
     0
144
0.020833
144
0.0
144
0.0
144
0.0
144
0.0
144
0.020833
144
0.0
144
0.0
144
0.0
144
0.0
144
1.0
144
0.0
144
0.0
144
0.0
144
0.0
144
1.0
147
0.020833
147
0.0
147
0.0
147
0.0
147
0.0
147
0.020833
147
0.0
147
0.0
147
0.0
147
0.0
147
1.0
147
0.0
147
0.0
147
0.0
147
0.0
147
1.0
  0
MLEADERSTYLE
  5
67
102
{ACAD_REACTORS
330
66
102
}
330
66
100
AcDbMLeaderStyle
179
     2
170
     2
171
     1
172
     0
 90
        2
 40
0.0
 41
0.0
173
     1
 91
-1056964608
340
5B
 92
       -2
290
     1
 42
0.09
291
     1
 43
0.36
  3
Standard
 44
0.18
300

342
55
174
     1
178
     6
175
     1
176
     0
 93
-1056964608
 45
0.18
292
     0
297
     0
 46
0.18
 94
-1056964608
 47
1.0
 49
1.0
140
1.0
293
     1
141
0.0
294
     1
177
     0
142
1.0
295
     0
296
     0
143
0.125
271
     0
272
     9
273
     9
298
     1
  0
MLINESTYLE
  5
60
102
{ACAD_REACTORS
330
5F
102
}
330
5F
100
AcDbMlineStyle
  2
STANDARD
 70
     0
  3

 62
   256
 51
90.0
 52
90.0
 71
     0
  0
ACDBPLACEHOLDER
  5
F
102
{ACAD_REACTORS
330
E
102
}
330
E
  0
SCALE
  5
A4
102
{ACAD_REACTORS
330
42
102
}
330
42
100
AcDbScale
 70
     0
300
1:2
140
1.0
141
2.0
290
     0
  0
SCALE
  5
AD
102
{ACAD_REACTORS
330
42
102
}
330
42
100
AcDbScale
 70
     0
300
1:50
140
1.0
141
50.0
290
     0
  0
SCALE
  5
AE
102
{ACAD_REACTORS
330
42
102
}
330
42
100
AcDbScale
 70
     0
300
1:100
140
1.0
141
100.0
290
     0
  0
SCALE
  5
AF
102
{ACAD_REACTORS
330
42
102
}
330
42
100
AcDbScale
 70
     0
300
2:1
140
2.0
141
1.0
290
     0
  0
SCALE
  5
B0
102
{ACAD_REACTORS
330
42
102
}
330
42
100
AcDbScale
 70
     0
300
4:1
140
4.0
141
1.0
290
     0
  0
SCALE
  5
B1
102
{ACAD_REACTORS
330
42
102
}
330
42
100
AcDbScale
 70
     0
300
8:1
140
8.0
141
1.0
290
     0
  0
SCALE
  5
B2
102
{ACAD_REACTORS
330
42
102
}
330
42
100
AcDbScale
 70
     0
300
10:1
140
10.0
141
1.0
290
     0
  0
SCALE
  5
B3
102
{ACAD_REACTORS
330
42
102
}
330
42
100
AcDbScale
 70
     0
300
100:1
140
100.0
141
1.0
290
     0
  0
SCALE
  5
A5
102
{ACAD_REACTORS
330
42
102
}
330
42
100
AcDbScale
 70
     0
300
1:4
140
1.0
141
4.0
290
     0
  0
SCALE
  5
A6
102
{ACAD_REACTORS
330
42
102
}
330
42
100
AcDbScale
 70
     0
300
1:5
140
1.0
141
5.0
290
     0
  0
SCALE
  5
A7
102
{ACAD_REACTORS
330
42
102
}
330
42
100
AcDbScale
 70
     0
300
1:8
140
1.0
141
8.0
290
     0
  0
SCALE
  5
A8
102
{ACAD_REACTORS
330
42
102
}
330
42
100
AcDbScale
 70
     0
300
1:10
140
1.0
141
10.0
290
     0
  0
SCALE
  5
A9
102
{ACAD_REACTORS
330
42
102
}
330
42
100
AcDbScale
 70
     0
300
1:16
140
1.0
141
16.0
290
     0
  0
SCALE
  5
AA
102
{ACAD_REACTORS
330
42
102
}
330
42
100
AcDbScale
 70
     0
300
1:20
140
1.0
141
20.0
290
     0
  0
SCALE
  5
AB
102
{ACAD_REACTORS
330
42
102
}
330
42
100
AcDbScale
 70
     0
300
1:30
140
1.0
141
30.0
290
     0
  0
SCALE
  5
AC
102
{ACAD_REACTORS
330
42
102
}
330
42
100
AcDbScale
 70
     0
300
1:40
140
1.0
141
40.0
290
     0
  0
SCALE
  5
43
102
{ACAD_REACTORS
330
42
102
}
330
42
100
AcDbScale
 70
     0
300
1:1
140
1.0
141
1.0
290
     1
  0
SCALE
  5
44
102
{ACAD_REACTORS
330
42
102
}
330
42
100
AcDbScale
 70
     0
300
1/128" = 1'-0"
140
0.007813
141
12.0
290
     0
  0
SCALE
  5
45
102
{ACAD_REACTORS
330
42
102
}
330
42
100
AcDbScale
 70
     0
300
1/64" = 1'-0"
140
0.015625
141
12.0
290
     0
  0
SCALE
  5
46
102
{ACAD_REACTORS
330
42
102
}
330
42
100
AcDbScale
 70
     0
300
1/32" = 1'-0"
140
0.03125
141
12.0
290
     0
  0
SCALE
  5
47
102
{ACAD_REACTORS
330
42
102
}
330
42
100
AcDbScale
 70
     0
300
1/16" = 1'-0"
140
0.0625
141
12.0
290
     0
  0
SCALE
  5
48
102
{ACAD_REACTORS
330
42
102
}
330
42
100
AcDbScale
 70
     0
300
3/32" = 1'-0"
140
0.09375
141
12.0
290
     0
  0
SCALE
  5
49
102
{ACAD_REACTORS
330
42
102
}
330
42
100
AcDbScale
 70
     0
300
1/8" = 1'-0"
140
0.125
141
12.0
290
     0
  0
SCALE
  5
4A
102
{ACAD_REACTORS
330
42
102
}
330
42
100
AcDbScale
 70
     0
300
3/16" = 1'-0"
140
0.1875
141
12.0
290
     0
  0
SCALE
  5
4B
102
{ACAD_REACTORS
330
42
102
}
330
42
100
AcDbScale
 70
     0
300
1/4" = 1'-0"
140
0.25
141
12.0
290
     0
  0
SCALE
  5
4C
102
{ACAD_REACTORS
330
42
102
}
330
42
100
AcDbScale
 70
     0
300
3/8" = 1'-0"
140
0.375
141
12.0
290
     0
  0
SCALE
  5
4D
102
{ACAD_REACTORS
330
42
102
}
330
42
100
AcDbScale
 70
     0
300
1/2" = 1'-0"
140
0.5
141
12.0
290
     0
  0
SCALE
  5
4E
102
{ACAD_REACTORS
330
42
102
}
330
42
100
AcDbScale
 70
     0
300
3/4" = 1'-0"
140
0.75
141
12.0
290
     0
  0
SCALE
  5
4F
102
{ACAD_REACTORS
330
42
102
}
330
42
100
AcDbScale
 70
     0
300
1" = 1'-0"
140
1.0
141
12.0
290
     0
  0
SCALE
  5
50
102
{ACAD_REACTORS
330
42
102
}
330
42
100
AcDbScale
 70
     0
300
1-1/2" = 1'-0"
140
1.5
141
12.0
290
     0
  0
SCALE
  5
51
102
{ACAD_REACTORS
330
42
102
}
330
42
100
AcDbScale
 70
     0
300
3" = 1'-0"
140
3.0
141
12.0
290
     0
  0
SCALE
  5
52
102
{ACAD_REACTORS
330
42
102
}
330
42
100
AcDbScale
 70
     0
300
6" = 1'-0"
140
6.0
141
12.0
290
     0
  0
SCALE
  5
53
102
{ACAD_REACTORS
330
42
102
}
330
42
100
AcDbScale
 70
     0
300
1'-0" = 1'-0"
140
12.0
141
12.0
290
     0
  0
ACDBSECTIONVIEWSTYLE
  5
69
102
{ACAD_XDICTIONARY
360
31F
102
}
102
{ACAD_REACTORS
330
68
102
}
330
68
100
AcDbModelDocViewStyle
 70
     0
  3
Imperial24
290
     0
100
AcDbSectionViewStyle
 70
     0
 71
     0
 90
       78
 71
     1
340
55
 62
   256
 40
0.24
340
0
340
0
 62
   256
 40
0.24
300
I, O, Q, S, X, Z
 40
0.48
 90
        3
 40
0.18
 90
        1
 71
     2
340
5D
 90
       25
 62
   256
340
5D
 90
       50
 62
   256
 40
0.24
 40
0.0
 40
0.24
 71
     3
340
55
 62
   256
 40
0.24
 90
        1
 40
0.75
 90
        1
300
%<\AcVar ViewType \f "%tc1">% %<\AcVar ViewSectionStartId>%-%<\AcVar ViewSectionEndId>%\PSCALE %<\AcVar ViewScale \f "%sn">%
 71
     4
 62
   256
 62
   257
300
ANSI31
 40
1.0
 90
        0
290
     0
290
     0
 90
        6
 40
0.0
 40
1.570796
 40
0.261799
 40
1.308997
 40
-0.261799
 40
1.832596
  0
TABLESTYLE
  5
65
102
{ACAD_XDICTIONARY
360
31C
102
}
102
{ACAD_REACTORS
330
64
102
}
330
64
100
AcDbTableStyle
280
     0
  3
Standard
 70
     0
 71
     0
 40
0.06
 41
0.06
280
     0
281
     0
  7
Standard
140
0.18
170
     2
 62
     0
 63
     7
283
     0
 90
      512
 91
        0
  1

274
    -2
284
     1
 64
     0
275
    -2
285
     1
 65
     0
276
    -2
286
     1
 66
     0
277
    -2
287
     1
 67
     0
278
    -2
288
     1
 68
     0
279
    -2
289
     1
 69
     0
  7
Standard
140
0.25
170
     5
 62
     0
 63
     7
283
     0
 90
      512
 91
        0
  1

274
    -2
284
     1
 64
     0
275
    -2
285
     1
 65
     0
276
    -2
286
     1
 66
     0
277
    -2
287
     1
 67
     0
278
    -2
288
     1
 68
     0
279
    -2
289
     1
 69
     0
  7
Standard
140
0.18
170
     5
 62
     0
 63
     7
283
     0
 90
      512
 91
        0
  1

274
    -2
284
     1
 64
     0
275
    -2
285
     1
 65
     0
276
    -2
286
     1
 66
     0
277
    -2
287
     1
 67
     0
278
    -2
288
     1
 68
     0
279
    -2
289
     1
 69
     0
  0
VISUALSTYLE
  5
2F
102
{ACAD_REACTORS
330
29
102
}
330
29
100
AcDbVisualStyle
  2
2dWireframe
 70
     4
177
     3
291
     0
 70
    58
 90
        0
176
     1
 90
        2
176
     1
 90
        0
176
     1
 90
        0
176
     1
 40
0.6
176
     1
 40
30.0
176
     1
 62
     7
420
 16777215
176
     1
 90
        1
176
     1
 90
        4
176
     1
 62
     7
176
     1
 62
   257
176
     1
 90
        1
176
     1
 90
        1
176
     1
 40
1.0
176
     1
 90
        0
176
     1
 62
   257
176
     1
 40
1.0
176
     1
 90
        1
176
     1
 90
        6
176
     1
 90
        2
176
     1
 62
     7
176
     1
 90
        5
176
     1
 90
        0
176
     1
 90
        0
176
     1
290
     0
176
     1
 90
        1
176
     1
 40
0.0
176
     1
 90
        0
176
     1
290
     1
176
     1
290
     1
176
     1
290
     0
176
     1
290
     0
176
     1
290
     0
176
     1
290
     0
176
     1
290
     0
176
     1
290
     0
176
     1
290
     0
176
     1
 90
       50
176
     1
 40
0.0
176
     1
 40
1.0
176
     1
 90
        0
176
     1
 62
    18
420
        0
176
     1
 90
       50
176
     1
 90
        3
176
     1
 62
     5
420
      255
176
     1
290
     0
176
     1
 90
       50
176
     1
 90
       50
176
     1
 90
       50
176
     1
290
     0
176
     1
 90
       50
176
     1
 62
   256
176
     0
 40
1.0
176
     0
 90
        2
176
     1
  1
strokes_ogs.tif
176
     1
290
     0
176
     1
 40
1.0
176
     1
 40
1.0
176
     1
1001
ACAD
1000
AcDbSavedByObjectVersion
1070
     0
  0
VISUALSTYLE
  5
2E
102
{ACAD_REACTORS
330
29
102
}
330
29
100
AcDbVisualStyle
  2
Basic
 70
     7
177
     3
291
     1
 70
    58
 90
        1
176
     1
 90
        0
176
     1
 90
        1
176
     1
 90
        0
176
     1
 40
0.6
176
     1
 40
30.0
176
     1
 62
     7
420
 16777215
176
     1
 90
        0
176
     1
 90
        4
176
     1
 62
     7
176
     1
 62
   257
176
     1
 90
        1
176
     1
 90
        1
176
     1
 40
1.0
176
     1
 90
        8
176
     1
 62
     7
176
     1
 40
1.0
176
     1
 90
        1
176
     1
 90
        6
176
     1
 90
        2
176
     1
 62
     7
176
     1
 90
        5
176
     1
 90
        0
176
     1
 90
        0
176
     1
290
     0
176
     1
 90
        1
176
     1
 40
0.0
176
     1
 90
        0
176
     1
290
     0
176
     1
290
     1
176
     1
290
     1
176
     1
290
     0
176
     1
290
     0
176
     1
290
     0
176
     1
290
     0
176
     1
290
     0
176
     1
290
     0
176
     1
 90
       50
176
     1
 40
0.0
176
     1
 40
1.0
176
     1
 90
        0
176
     1
 62
    18
420
        0
176
     1
 90
       50
176
     1
 90
        3
176
     1
 62
     5
420
      255
176
     1
290
     0
176
     1
 90
       50
176
     1
 90
       50
176
     1
 90
       50
176
     1
290
     0
176
     1
 90
       50
176
     1
 62
   256
176
     0
 40
1.0
176
     0
 90
        2
176
     1
  1
strokes_ogs.tif
176
     1
290
     0
176
     1
 40
1.0
176
     1
 40
1.0
176
     1
1001
ACAD
1000
AcDbSavedByObjectVersion
1070
     0
  0
VISUALSTYLE
  5
35
102
{ACAD_REACTORS
330
29
102
}
330
29
100
AcDbVisualStyle
  2
Brighten
 70
    12
177
     3
291
     1
 70
    58
 90
        2
176
     1
 90
        2
176
     1
 90
        0
176
     1
 90
        0
176
     1
 40
0.6
176
     1
 40
30.0
176
     1
 62
     7
420
 16777215
176
     1
 90
        1
176
     1
 90
        4
176
     1
 62
     7
176
     1
 62
   257
176
     1
 90
        1
176
     1
 90
        1
176
     1
 40
1.0
176
     1
 90
        8
176
     1
 62
     7
176
     1
 40
1.0
176
     1
 90
        1
176
     1
 90
        6
176
     1
 90
        2
176
     1
 62
     7
176
     1
 90
        5
176
     1
 90
        0
176
     1
 90
        0
176
     1
290
     0
176
     1
 90
        1
176
     1
 40
50.0
176
     1
 90
        0
176
     1
290
     0
176
     1
290
     1
176
     1
290
     1
176
     1
290
     0
176
     1
290
     0
176
     1
290
     0
176
     1
290
     0
176
     1
290
     0
176
     1
290
     0
176
     1
 90
       50
176
     1
 40
0.0
176
     1
 40
1.0
176
     1
 90
        0
176
     1
 62
    18
420
        0
176
     1
 90
       50
176
     1
 90
        3
176
     1
 62
     5
420
      255
176
     1
290
     0
176
     1
 90
       50
176
     1
 90
       50
176
     1
 90
       50
176
     1
290
     0
176
     1
 90
       50
176
     1
 62
   256
176
     0
 40
1.0
176
     0
 90
        2
176
     1
  1
strokes_ogs.tif
176
     1
290
     0
176
     1
 40
1.0
176
     1
 40
1.0
176
     1
1001
ACAD
1000
AcDbSavedByObjectVersion
1070
     0
  0
VISUALSTYLE
  5
39
102
{ACAD_REACTORS
330
29
102
}
330
29
100
AcDbVisualStyle
  2
ColorChange
 70
    16
177
     3
291
     1
 70
    58
 90
        2
176
     1
 90
        2
176
     1
 90
        3
176
     1
 90
        0
176
     1
 40
0.6
176
     1
 40
30.0
176
     1
 62
     8
420
  8421504
176
     1
 90
        1
176
     1
 90
        4
176
     1
 62
     7
176
     1
 62
   257
176
     1
 90
        1
176
     1
 90
        1
176
     1
 40
1.0
176
     1
 90
        8
176
     1
 62
     8
420
  8421504
176
     1
 40
1.0
176
     1
 90
        1
176
     1
 90
        6
176
     1
 90
        2
176
     1
 62
     7
176
     1
 90
        5
176
     1
 90
        0
176
     1
 90
        0
176
     1
290
     0
176
     1
 90
        1
176
     1
 40
0.0
176
     1
 90
        0
176
     1
290
     0
176
     1
290
     1
176
     1
290
     1
176
     1
290
     0
176
     1
290
     0
176
     1
290
     0
176
     1
290
     0
176
     1
290
     0
176
     1
290
     0
176
     1
 90
       50
176
     1
 40
0.0
176
     1
 40
1.0
176
     1
 90
        0
176
     1
 62
    18
420
        0
176
     1
 90
       50
176
     1
 90
        3
176
     1
 62
     5
420
      255
176
     1
290
     0
176
     1
 90
       50
176
     1
 90
       50
176
     1
 90
       50
176
     1
290
     0
176
     1
 90
       50
176
     1
 62
   256
176
     0
 40
1.0
176
     0
 90
        2
176
     1
  1
strokes_ogs.tif
176
     1
290
     0
176
     1
 40
1.0
176
     1
 40
1.0
176
     1
1001
ACAD
1000
AcDbSavedByObjectVersion
1070
     0
  0
VISUALSTYLE
  5
32
102
{ACAD_REACTORS
330
29
102
}
330
29
100
AcDbVisualStyle
  2
Conceptual
 70
     9
177
     3
291
     0
 70
    58
 90
        3
176
     1
 90
        2
176
     1
 90
        0
176
     1
 90
        0
176
     1
 40
0.6
176
     1
 40
30.0
176
     1
 62
     7
420
 16777215
176
     1
 90
        2
176
     1
 90
        2
176
     1
 62
     7
176
     1
 62
   257
176
     1
 90
        1
176
     1
 90
        1
176
     1
 40
179.0
176
     1
 90
        8
176
     1
 62
     7
176
     1
 40
1.0
176
     1
 90
        1
176
     1
 90
        6
176
     1
 90
        2
176
     1
 62
     7
176
     1
 90
        3
176
     1
 90
        0
176
     1
 90
        0
176
     1
290
     0
176
     1
 90
        1
176
     1
 40
0.0
176
     1
 90
        0
176
     1
290
     0
176
     1
290
     1
176
     1
290
     1
176
     1
290
     0
176
     1
290
     0
176
     1
290
     0
176
     1
290
     0
176
     1
290
     0
176
     1
290
     0
176
     1
 90
       50
176
     1
 40
0.0
176
     1
 40
1.0
176
     1
 90
        0
176
     1
 62
    18
420
        0
176
     1
 90
       50
176
     1
 90
        3
176
     1
 62
     5
420
      255
176
     1
290
     0
176
     1
 90
       50
176
     1
 90
       50
176
     1
 90
       50
176
     1
290
     0
176
     1
 90
       50
176
     1
 62
   256
176
     0
 40
1.0
176
     0
 90
        2
176
     1
  1
strokes_ogs.tif
176
     1
290
     0
176
     1
 40
1.0
176
     1
 40
1.0
176
     1
1001
ACAD
1000
AcDbSavedByObjectVersion
1070
     0
  0
VISUALSTYLE
  5
34
102
{ACAD_REACTORS
330
29
102
}
330
29
100
AcDbVisualStyle
  2
Dim
 70
    11
177
     3
291
     1
 70
    58
 90
        2
176
     1
 90
        2
176
     1
 90
        0
176
     1
 90
        0
176
     1
 40
0.6
176
     1
 40
30.0
176
     1
 62
     7
420
 16777215
176
     1
 90
        1
176
     1
 90
        4
176
     1
 62
     7
176
     1
 62
   257
176
     1
 90
        1
176
     1
 90
        1
176
     1
 40
1.0
176
     1
 90
        8
176
     1
 62
     7
176
     1
 40
1.0
176
     1
 90
        1
176
     1
 90
        6
176
     1
 90
        2
176
     1
 62
     7
176
     1
 90
        5
176
     1
 90
        0
176
     1
 90
        0
176
     1
290
     0
176
     1
 90
        1
176
     1
 40
-50.0
176
     1
 90
        0
176
     1
290
     0
176
     1
290
     1
176
     1
290
     1
176
     1
290
     0
176
     1
290
     0
176
     1
290
     0
176
     1
290
     0
176
     1
290
     0
176
     1
290
     0
176
     1
 90
       50
176
     1
 40
0.0
176
     1
 40
1.0
176
     1
 90
        0
176
     1
 62
    18
420
        0
176
     1
 90
       50
176
     1
 90
        3
176
     1
 62
     5
420
      255
176
     1
290
     0
176
     1
 90
       50
176
     1
 90
       50
176
     1
 90
       50
176
     1
290
     0
176
     1
 90
       50
176
     1
 62
   256
176
     0
 40
1.0
176
     0
 90
        2
176
     1
  1
strokes_ogs.tif
176
     1
290
     0
176
     1
 40
1.0
176
     1
 40
1.0
176
     1
1001
ACAD
1000
AcDbSavedByObjectVersion
1070
     0
  0
VISUALSTYLE
  5
41
102
{ACAD_REACTORS
330
29
102
}
330
29
100
AcDbVisualStyle
  2
EdgeColorOff
 70
    22
177
     3
291
     1
 70
    58
 90
        2
176
     0
 90
        2
176
     0
 90
        0
176
     0
 90
        0
176
     0
 40
0.6
176
     0
 40
30.0
176
     0
 62
     7
420
 16777215
176
     0
 90
        1
176
     0
 90
        4
176
     0
 62
     7
176
     0
 62
   257
176
     0
 90
        1
176
     0
 90
        1
176
     0
 40
1.0
176
     0
 90
        8
176
     2
 62
     7
176
     0
 40
1.0
176
     0
 90
        1
176
     0
 90
        6
176
     0
 90
        2
176
     0
 62
     7
176
     0
 90
        5
176
     0
 90
        0
176
     0
 90
        0
176
     0
290
     0
176
     0
 90
        1
176
     0
 40
0.0
176
     0
 90
        0
176
     0
290
     0
176
     0
290
     1
176
     0
290
     1
176
     0
290
     0
176
     0
290
     0
176
     0
290
     0
176
     0
290
     0
176
     0
290
     0
176
     0
290
     0
176
     0
 90
       50
176
     0
 40
0.0
176
     0
 40
1.0
176
     0
 90
        0
176
     0
 62
    18
420
        0
176
     0
 90
       50
176
     0
 90
        3
176
     0
 62
     5
420
      255
176
     0
290
     0
176
     0
 90
       50
176
     0
 90
       50
176
     0
 90
       50
176
     0
290
     0
176
     0
 90
       50
176
     0
 62
   256
176
     0
 40
1.0
176
     0
 90
        2
176
     0
  1
strokes_ogs.tif
176
     0
290
     0
176
     0
 40
1.0
176
     0
 40
1.0
176
     0
1001
ACAD
1000
AcDbSavedByObjectVersion
1070
     0
  0
VISUALSTYLE
  5
38
102
{ACAD_REACTORS
330
29
102
}
330
29
100
AcDbVisualStyle
  2
Facepattern
 70
    15
177
     3
291
     1
 70
    58
 90
        2
176
     1
 90
        2
176
     1
 90
        0
176
     1
 90
        0
176
     1
 40
0.6
176
     1
 40
30.0
176
     1
 62
     7
420
 16777215
176
     1
 90
        1
176
     1
 90
        4
176
     1
 62
     7
176
     1
 62
   257
176
     1
 90
        1
176
     1
 90
        1
176
     1
 40
1.0
176
     1
 90
        8
176
     1
 62
     7
176
     1
 40
1.0
176
     1
 90
        1
176
     1
 90
        6
176
     1
 90
        2
176
     1
 62
     7
176
     1
 90
        5
176
     1
 90
        0
176
     1
 90
        0
176
     1
290
     0
176
     1
 90
        1
176
     1
 40
0.0
176
     1
 90
        0
176
     1
290
     0
176
     1
290
     1
176
     1
290
     1
176
     1
290
     0
176
     1
290
     0
176
     1
290
     0
176
     1
290
     0
176
     1
290
     0
176
     1
290
     0
176
     1
 90
       50
176
     1
 40
0.0
176
     1
 40
1.0
176
     1
 90
        0
176
     1
 62
    18
420
        0
176
     1
 90
       50
176
     1
 90
        3
176
     1
 62
     5
420
      255
176
     1
290
     0
176
     1
 90
       50
176
     1
 90
       50
176
     1
 90
       50
176
     1
290
     0
176
     1
 90
       50
176
     1
 62
   256
176
     0
 40
1.0
176
     0
 90
        2
176
     1
  1
strokes_ogs.tif
176
     1
290
     0
176
     1
 40
1.0
176
     1
 40
1.0
176
     1
1001
ACAD
1000
AcDbSavedByObjectVersion
1070
     0
  0
VISUALSTYLE
  5
2A
102
{ACAD_REACTORS
330
29
102
}
330
29
100
AcDbVisualStyle
  2
Flat
 70
     0
177
     3
291
     1
 70
    58
 90
        2
176
     1
 90
        1
176
     1
 90
        1
176
     1
 90
        2
176
     1
 40
0.6
176
     1
 40
30.0
176
     1
 62
     7
420
 16777215
176
     1
 90
        0
176
     1
 90
        0
176
     1
 62
     7
176
     1
 62
   257
176
     1
 90
        1
176
     1
 90
        1
176
     1
 40
1.0
176
     1
 90
        8
176
     1
 62
     7
176
     1
 40
1.0
176
     1
 90
        1
176
     1
 90
        6
176
     1
 90
        2
176
     1
 62
     7
176
     1
 90
        5
176
     1
 90
        0
176
     1
 90
        0
176
     1
290
     0
176
     1
 90
       13
176
     1
 40
0.0
176
     1
 90
        0
176
     1
290
     0
176
     1
290
     1
176
     1
290
     1
176
     1
290
     0
176
     1
290
     0
176
     1
290
     0
176
     1
290
     0
176
     1
290
     0
176
     1
290
     0
176
     1
 90
       50
176
     1
 40
0.0
176
     1
 40
1.0
176
     1
 90
        0
176
     1
 62
    18
420
        0
176
     1
 90
       50
176
     1
 90
        3
176
     1
 62
     5
420
      255
176
     1
290
     0
176
     1
 90
       50
176
     1
 90
       50
176
     1
 90
       50
176
     1
290
     0
176
     1
 90
       50
176
     1
 62
   256
176
     0
 40
1.0
176
     0
 90
        2
176
     1
  1
strokes_ogs.tif
176
     1
290
     0
176
     1
 40
1.0
176
     1
 40
1.0
176
     1
1001
ACAD
1000
AcDbSavedByObjectVersion
1070
     0
  0
VISUALSTYLE
  5
2B
102
{ACAD_REACTORS
330
29
102
}
330
29
100
AcDbVisualStyle
  2
FlatWithEdges
 70
     1
177
     3
291
     1
 70
    58
 90
        2
176
     1
 90
        1
176
     1
 90
        1
176
     1
 90
        2
176
     1
 40
0.6
176
     1
 40
30.0
176
     1
 62
     7
420
 16777215
176
     1
 90
        1
176
     1
 90
        0
176
     1
 62
     7
176
     1
 62
   257
176
     1
 90
        1
176
     1
 90
        1
176
     1
 40
1.0
176
     1
 90
        0
176
     1
 62
   257
176
     1
 40
1.0
176
     1
 90
        1
176
     1
 90
        6
176
     1
 90
        2
176
     1
 62
     7
176
     1
 90
        5
176
     1
 90
        0
176
     1
 90
        0
176
     1
290
     0
176
     1
 90
       13
176
     1
 40
0.0
176
     1
 90
        0
176
     1
290
     0
176
     1
290
     1
176
     1
290
     1
176
     1
290
     0
176
     1
290
     0
176
     1
290
     0
176
     1
290
     0
176
     1
290
     0
176
     1
290
     0
176
     1
 90
       50
176
     1
 40
0.0
176
     1
 40
1.0
176
     1
 90
        0
176
     1
 62
    18
420
        0
176
     1
 90
       50
176
     1
 90
        3
176
     1
 62
     5
420
      255
176
     1
290
     0
176
     1
 90
       50
176
     1
 90
       50
176
     1
 90
       50
176
     1
290
     0
176
     1
 90
       50
176
     1
 62
   256
176
     0
 40
1.0
176
     0
 90
        2
176
     1
  1
strokes_ogs.tif
176
     1
290
     0
176
     1
 40
1.0
176
     1
 40
1.0
176
     1
1001
ACAD
1000
AcDbSavedByObjectVersion
1070
     0
  0
VISUALSTYLE
  5
2C
102
{ACAD_REACTORS
330
29
102
}
330
29
100
AcDbVisualStyle
  2
Gouraud
 70
     2
177
     3
291
     1
 70
    58
 90
        2
176
     1
 90
        2
176
     1
 90
        1
176
     1
 90
        2
176
     1
 40
0.6
176
     1
 40
30.0
176
     1
 62
     7
420
 16777215
176
     1
 90
        0
176
     1
 90
        0
176
     1
 62
     7
176
     1
 62
   257
176
     1
 90
        1
176
     1
 90
        1
176
     1
 40
1.0
176
     1
 90
        0
176
     1
 62
     7
176
     1
 40
1.0
176
     1
 90
        1
176
     1
 90
        6
176
     1
 90
        2
176
     1
 62
     7
176
     1
 90
        5
176
     1
 90
        0
176
     1
 90
        0
176
     1
290
     0
176
     1
 90
       13
176
     1
 40
0.0
176
     1
 90
        0
176
     1
290
     0
176
     1
290
     1
176
     1
290
     1
176
     1
290
     0
176
     1
290
     0
176
     1
290
     0
176
     1
290
     0
176
     1
290
     0
176
     1
290
     0
176
     1
 90
       50
176
     1
 40
0.0
176
     1
 40
1.0
176
     1
 90
        0
176
     1
 62
    18
420
        0
176
     1
 90
       50
176
     1
 90
        3
176
     1
 62
     5
420
      255
176
     1
290
     0
176
     1
 90
       50
176
     1
 90
       50
176
     1
 90
       50
176
     1
290
     0
176
     1
 90
       50
176
     1
 62
   256
176
     0
 40
1.0
176
     0
 90
        2
176
     1
  1
strokes_ogs.tif
176
     1
290
     0
176
     1
 40
1.0
176
     1
 40
1.0
176
     1
1001
ACAD
1000
AcDbSavedByObjectVersion
1070
     0
  0
VISUALSTYLE
  5
2D
102
{ACAD_REACTORS
330
29
102
}
330
29
100
AcDbVisualStyle
  2
GouraudWithEdges
 70
     3
177
     3
291
     1
 70
    58
 90
        2
176
     1
 90
        2
176
     1
 90
        1
176
     1
 90
        2
176
     1
 40
0.6
176
     1
 40
30.0
176
     1
 62
     7
420
 16777215
176
     1
 90
        1
176
     1
 90
        0
176
     1
 62
     7
176
     1
 62
   257
176
     1
 90
        1
176
     1
 90
        1
176
     1
 40
1.0
176
     1
 90
        0
176
     1
 62
   257
176
     1
 40
1.0
176
     1
 90
        1
176
     1
 90
        6
176
     1
 90
        2
176
     1
 62
     7
176
     1
 90
        5
176
     1
 90
        0
176
     1
 90
        0
176
     1
290
     0
176
     1
 90
       13
176
     1
 40
0.0
176
     1
 90
        0
176
     1
290
     0
176
     1
290
     1
176
     1
290
     1
176
     1
290
     0
176
     1
290
     0
176
     1
290
     0
176
     1
290
     0
176
     1
290
     0
176
     1
290
     0
176
     1
 90
       50
176
     1
 40
0.0
176
     1
 40
1.0
176
     1
 90
        0
176
     1
 62
    18
420
        0
176
     1
 90
       50
176
     1
 90
        3
176
     1
 62
     5
420
      255
176
     1
290
     0
176
     1
 90
       50
176
     1
 90
       50
176
     1
 90
       50
176
     1
290
     0
176
     1
 90
       50
176
     1
 62
   256
176
     0
 40
1.0
176
     0
 90
        2
176
     1
  1
strokes_ogs.tif
176
     1
290
     0
176
     1
 40
1.0
176
     1
 40
1.0
176
     1
1001
ACAD
1000
AcDbSavedByObjectVersion
1070
     0
  0
VISUALSTYLE
  5
31
102
{ACAD_REACTORS
330
29
102
}
330
29
100
AcDbVisualStyle
  2
Hidden
 70
     6
177
     3
291
     0
 70
    58
 90
        1
176
     1
 90
        2
176
     1
 90
        2
176
     1
 90
        0
176
     1
 40
0.6
176
     1
 40
30.0
176
     1
 62
     7
420
 16777215
176
     1
 90
        2
176
     1
 90
        2
176
     1
 62
     7
176
     1
 62
   257
176
     1
 90
        2
176
     1
 90
        1
176
     1
 40
40.0
176
     1
 90
        0
176
     1
 62
   257
176
     1
 40
1.0
176
     1
 90
        1
176
     1
 90
        6
176
     1
 90
        2
176
     1
 62
     7
176
     1
 90
        3
176
     1
 90
        0
176
     1
 90
        0
176
     1
290
     0
176
     1
 90
        1
176
     1
 40
0.0
176
     1
 90
        0
176
     1
290
     0
176
     1
290
     1
176
     1
290
     1
176
     1
290
     0
176
     1
290
     0
176
     1
290
     0
176
     1
290
     0
176
     1
290
     0
176
     1
290
     0
176
     1
 90
       50
176
     1
 40
0.0
176
     1
 40
1.0
176
     1
 90
        0
176
     1
 62
    18
420
        0
176
     1
 90
       50
176
     1
 90
        3
176
     1
 62
     5
420
      255
176
     1
290
     0
176
     1
 90
       50
176
     1
 90
       50
176
     1
 90
       50
176
     1
290
     0
176
     1
 90
       50
176
     1
 62
   256
176
     0
 40
1.0
176
     0
 90
        2
176
     1
  1
strokes_ogs.tif
176
     1
290
     0
176
     1
 40
1.0
176
     1
 40
1.0
176
     1
1001
ACAD
1000
AcDbSavedByObjectVersion
1070
     0
  0
VISUALSTYLE
  5
3F
102
{ACAD_REACTORS
330
29
102
}
330
29
100
AcDbVisualStyle
  2
JitterOff
 70
    20
177
     3
291
     1
 70
    58
 90
        2
176
     0
 90
        2
176
     0
 90
        0
176
     0
 90
        0
176
     0
 40
0.6
176
     0
 40
30.0
176
     0
 62
     7
420
 16777215
176
     0
 90
        1
176
     0
 90
        4
176
     0
 62
     7
176
     0
 62
   257
176
     0
 90
        1
176
     0
 90
        1
176
     0
 40
1.0
176
     0
 90
       10
176
     2
 62
     7
176
     0
 40
1.0
176
     0
 90
        1
176
     0
 90
        6
176
     0
 90
        2
176
     0
 62
     7
176
     0
 90
        5
176
     0
 90
        0
176
     0
 90
        0
176
     0
290
     0
176
     0
 90
        1
176
     0
 40
0.0
176
     0
 90
        0
176
     0
290
     0
176
     0
290
     1
176
     0
290
     1
176
     0
290
     0
176
     0
290
     0
176
     0
290
     0
176
     0
290
     0
176
     0
290
     0
176
     0
290
     0
176
     0
 90
       50
176
     0
 40
0.0
176
     0
 40
1.0
176
     0
 90
        0
176
     0
 62
    18
420
        0
176
     0
 90
       50
176
     0
 90
        3
176
     0
 62
     5
420
      255
176
     0
290
     0
176
     0
 90
       50
176
     0
 90
       50
176
     0
 90
       50
176
     0
290
     0
176
     0
 90
       50
176
     0
 62
   256
176
     0
 40
1.0
176
     0
 90
        2
176
     0
  1
strokes_ogs.tif
176
     0
290
     0
176
     0
 40
1.0
176
     0
 40
1.0
176
     0
1001
ACAD
1000
AcDbSavedByObjectVersion
1070
     0
  0
VISUALSTYLE
  5
37
102
{ACAD_REACTORS
330
29
102
}
330
29
100
AcDbVisualStyle
  2
Linepattern
 70
    14
177
     3
291
     1
 70
    58
 90
        2
176
     1
 90
        2
176
     1
 90
        0
176
     1
 90
        0
176
     1
 40
0.6
176
     1
 40
30.0
176
     1
 62
     7
420
 16777215
176
     1
 90
        1
176
     1
 90
        4
176
     1
 62
     7
176
     1
 62
   257
176
     1
 90
        7
176
     1
 90
        7
176
     1
 40
1.0
176
     1
 90
        8
176
     1
 62
     7
176
     1
 40
1.0
176
     1
 90
        1
176
     1
 90
        6
176
     1
 90
        2
176
     1
 62
     7
176
     1
 90
        5
176
     1
 90
        0
176
     1
 90
        0
176
     1
290
     0
176
     1
 90
        1
176
     1
 40
0.0
176
     1
 90
        0
176
     1
290
     0
176
     1
290
     1
176
     1
290
     1
176
     1
290
     0
176
     1
290
     0
176
     1
290
     0
176
     1
290
     0
176
     1
290
     0
176
     1
290
     0
176
     1
 90
       50
176
     1
 40
0.0
176
     1
 40
1.0
176
     1
 90
        0
176
     1
 62
    18
420
        0
176
     1
 90
       50
176
     1
 90
        3
176
     1
 62
     5
420
      255
176
     1
290
     0
176
     1
 90
       50
176
     1
 90
       50
176
     1
 90
       50
176
     1
290
     0
176
     1
 90
       50
176
     1
 62
   256
176
     0
 40
1.0
176
     0
 90
        2
176
     1
  1
strokes_ogs.tif
176
     1
290
     0
176
     1
 40
1.0
176
     1
 40
1.0
176
     1
1001
ACAD
1000
AcDbSavedByObjectVersion
1070
     0
  0
VISUALSTYLE
  5
40
102
{ACAD_REACTORS
330
29
102
}
330
29
100
AcDbVisualStyle
  2
OverhangOff
 70
    21
177
     3
291
     1
 70
    58
 90
        2
176
     0
 90
        2
176
     0
 90
        0
176
     0
 90
        0
176
     0
 40
0.6
176
     0
 40
30.0
176
     0
 62
     7
420
 16777215
176
     0
 90
        1
176
     0
 90
        4
176
     0
 62
     7
176
     0
 62
   257
176
     0
 90
        1
176
     0
 90
        1
176
     0
 40
1.0
176
     0
 90
        9
176
     2
 62
     7
176
     0
 40
1.0
176
     0
 90
        1
176
     0
 90
        6
176
     0
 90
        2
176
     0
 62
     7
176
     0
 90
        5
176
     0
 90
        0
176
     0
 90
        0
176
     0
290
     0
176
     0
 90
        1
176
     0
 40
0.0
176
     0
 90
        0
176
     0
290
     0
176
     0
290
     1
176
     0
290
     1
176
     0
290
     0
176
     0
290
     0
176
     0
290
     0
176
     0
290
     0
176
     0
290
     0
176
     0
290
     0
176
     0
 90
       50
176
     0
 40
0.0
176
     0
 40
1.0
176
     0
 90
        0
176
     0
 62
    18
420
        0
176
     0
 90
       50
176
     0
 90
        3
176
     0
 62
     5
420
      255
176
     0
290
     0
176
     0
 90
       50
176
     0
 90
       50
176
     0
 90
       50
176
     0
290
     0
176
     0
 90
       50
176
     0
 62
   256
176
     0
 40
1.0
176
     0
 90
        2
176
     0
  1
strokes_ogs.tif
176
     0
290
     0
176
     0
 40
1.0
176
     0
 40
1.0
176
     0
1001
ACAD
1000
AcDbSavedByObjectVersion
1070
     0
  0
VISUALSTYLE
  5
33
102
{ACAD_REACTORS
330
29
102
}
330
29
100
AcDbVisualStyle
  2
Realistic
 70
     8
177
     3
291
     0
 70
    58
 90
        2
176
     1
 90
        3
176
     1
 90
        0
176
     1
 90
        2
176
     1
 40
0.6
176
     1
 40
30.0
176
     1
 62
     7
420
 16777215
176
     1
 90
        0
176
     1
 90
        0
176
     1
 62
     7
176
     1
 62
   257
176
     1
 90
        1
176
     1
 90
        1
176
     1
 40
1.0
176
     1
 90
        8
176
     1
 62
   257
176
     1
 40
1.0
176
     1
 90
        1
176
     1
 90
        6
176
     1
 90
        2
176
     1
 62
     7
176
     1
 90
        3
176
     1
 90
        0
176
     1
 90
        0
176
     1
290
     0
176
     1
 90
       13
176
     1
 40
0.0
176
     1
 90
        0
176
     1
290
     0
176
     1
290
     1
176
     1
290
     1
176
     1
290
     0
176
     1
290
     0
176
     1
290
     0
176
     1
290
     0
176
     1
290
     0
176
     1
290
     0
176
     1
 90
       50
176
     1
 40
0.0
176
     1
 40
1.0
176
     1
 90
        0
176
     1
 62
    18
420
        0
176
     1
 90
       50
176
     1
 90
        3
176
     1
 62
     5
420
      255
176
     1
290
     0
176
     1
 90
       50
176
     1
 90
       50
176
     1
 90
       50
176
     1
290
     0
176
     1
 90
       50
176
     1
 62
   256
176
     0
 40
1.0
176
     0
 90
        2
176
     1
  1
strokes_ogs.tif
176
     1
290
     0
176
     1
 40
1.0
176
     1
 40
1.0
176
     1
1001
ACAD
1000
AcDbSavedByObjectVersion
1070
     0
  0
VISUALSTYLE
  5
3E
102
{ACAD_REACTORS
330
29
102
}
330
29
100
AcDbVisualStyle
  2
Shaded
 70
    27
177
     3
291
     0
 70
    58
 90
        2
176
     1
 90
        2
176
     1
 90
        1
176
     1
 90
        2
176
     1
 40
0.6
176
     1
 40
30.0
176
     1
 62
     7
420
 16777215
176
     1
 90
        0
176
     1
 90
        4
176
     1
 62
     7
176
     1
 62
   257
176
     1
 90
        1
176
     1
 90
        1
176
     1
 40
1.0
176
     1
 90
        8
176
     1
 62
   257
176
     1
 40
1.0
176
     1
 90
        1
176
     1
 90
        6
176
     1
 90
        2
176
     1
 62
     8
420
  7895160
176
     1
 90
        3
176
     1
 90
        0
176
     1
 90
        0
176
     1
290
     0
176
     1
 90
        5
176
     1
 40
0.0
176
     1
 90
        0
176
     1
290
     0
176
     1
290
     1
176
     1
290
     1
176
     1
290
     0
176
     1
290
     0
176
     1
290
     0
176
     1
290
     0
176
     1
290
     0
176
     1
290
     0
176
     1
 90
       50
176
     1
 40
0.0
176
     1
 40
1.0
176
     1
 90
        0
176
     1
 62
    18
420
        0
176
     1
 90
       50
176
     1
 90
        3
176
     1
 62
     5
420
      255
176
     1
290
     0
176
     1
 90
       50
176
     1
 90
       50
176
     1
 90
       50
176
     1
290
     0
176
     1
 90
       50
176
     1
 62
   256
176
     0
 40
1.0
176
     0
 90
        2
176
     1
  1
strokes_ogs.tif
176
     1
290
     0
176
     1
 40
1.0
176
     1
 40
1.0
176
     1
1001
ACAD
1000
AcDbSavedByObjectVersion
1070
     0
  0
VISUALSTYLE
  5
3D
102
{ACAD_REACTORS
330
29
102
}
330
29
100
AcDbVisualStyle
  2
Shaded with edges
 70
    26
177
     3
291
     0
 70
    58
 90
        2
176
     1
 90
        2
176
     1
 90
        1
176
     1
 90
        2
176
     1
 40
0.6
176
     1
 40
30.0
176
     1
 62
     7
420
 16777215
176
     1
 90
        1
176
     1
 90
        2
176
     1
 62
     7
176
     1
 62
   257
176
     1
 90
        2
176
     1
 90
        1
176
     1
 40
1.0
176
     1
 90
        8
176
     1
 62
   257
176
     1
 40
1.0
176
     1
 90
        1
176
     1
 90
        6
176
     1
 90
        2
176
     1
 62
     7
176
     1
 90
        3
176
     1
 90
        0
176
     1
 90
        0
176
     1
290
     0
176
     1
 90
        5
176
     1
 40
0.0
176
     1
 90
        0
176
     1
290
     0
176
     1
290
     1
176
     1
290
     1
176
     1
290
     0
176
     1
290
     0
176
     1
290
     0
176
     1
290
     0
176
     1
290
     0
176
     1
290
     0
176
     1
 90
       50
176
     1
 40
0.0
176
     1
 40
1.0
176
     1
 90
        0
176
     1
 62
    18
420
        0
176
     1
 90
       50
176
     1
 90
        3
176
     1
 62
     5
420
      255
176
     1
290
     0
176
     1
 90
       50
176
     1
 90
       50
176
     1
 90
       50
176
     1
290
     0
176
     1
 90
       50
176
     1
 62
   256
176
     0
 40
1.0
176
     0
 90
        2
176
     1
  1
strokes_ogs.tif
176
     1
290
     0
176
     1
 40
1.0
176
     1
 40
1.0
176
     1
1001
ACAD
1000
AcDbSavedByObjectVersion
1070
     0
  0
VISUALSTYLE
  5
3A
102
{ACAD_REACTORS
330
29
102
}
330
29
100
AcDbVisualStyle
  2
Shades of Gray
 70
    23
177
     3
291
     0
 70
    58
 90
        2
176
     1
 90
        2
176
     1
 90
        3
176
     1
 90
        0
176
     1
 40
0.6
176
     1
 40
30.0
176
     1
 62
     7
420
 16777215
176
     1
 90
        2
176
     1
 90
        2
176
     1
 62
     7
176
     1
 62
     7
176
     1
 90
        1
176
     1
 90
        1
176
     1
 40
40.0
176
     1
 90
        8
176
     1
 62
     7
176
     1
 40
1.0
176
     1
 90
        1
176
     1
 90
        6
176
     1
 90
        2
176
     1
 62
     7
176
     1
 90
        3
176
     1
 90
        0
176
     1
 90
        0
176
     1
290
     0
176
     1
 90
        1
176
     1
 40
0.0
176
     1
 90
        0
176
     1
290
     0
176
     1
290
     1
176
     1
290
     1
176
     1
290
     0
176
     1
290
     0
176
     1
290
     0
176
     1
290
     0
176
     1
290
     0
176
     1
290
     0
176
     1
 90
       50
176
     1
 40
0.0
176
     1
 40
1.0
176
     1
 90
        0
176
     1
 62
    18
420
        0
176
     1
 90
       50
176
     1
 90
        3
176
     1
 62
     5
420
      255
176
     1
290
     0
176
     1
 90
       50
176
     1
 90
       50
176
     1
 90
       50
176
     1
290
     0
176
     1
 90
       50
176
     1
 62
   256
176
     0
 40
1.0
176
     0
 90
        2
176
     1
  1
strokes_ogs.tif
176
     1
290
     0
176
     1
 40
1.0
176
     1
 40
1.0
176
     1
1001
ACAD
1000
AcDbSavedByObjectVersion
1070
     0
  0
VISUALSTYLE
  5
3B
102
{ACAD_REACTORS
330
29
102
}
330
29
100
AcDbVisualStyle
  2
Sketchy
 70
    24
177
     3
291
     0
 70
    58
 90
        1
176
     1
 90
        2
176
     1
 90
        2
176
     1
 90
        0
176
     1
 40
0.6
176
     1
 40
30.0
176
     1
 62
     7
420
 16777215
176
     1
 90
        2
176
     1
 90
        2
176
     1
 62
     7
176
     1
 62
     7
176
     1
 90
        1
176
     1
 90
        1
176
     1
 40
40.0
176
     1
 90
       11
176
     1
 62
     7
176
     1
 40
1.0
176
     1
 90
        1
176
     1
 90
        6
176
     1
 90
        2
176
     1
 62
     7
176
     1
 90
        6
176
     1
 90
        0
176
     1
 90
        0
176
     1
290
     0
176
     1
 90
        1
176
     1
 40
0.0
176
     1
 90
        0
176
     1
290
     0
176
     1
290
     1
176
     1
290
     1
176
     1
290
     0
176
     1
290
     0
176
     1
290
     0
176
     1
290
     0
176
     1
290
     0
176
     1
290
     0
176
     1
 90
       50
176
     1
 40
0.0
176
     1
 40
1.0
176
     1
 90
        0
176
     1
 62
    18
420
        0
176
     1
 90
       50
176
     1
 90
        3
176
     1
 62
     5
420
      255
176
     1
290
     0
176
     1
 90
       50
176
     1
 90
       50
176
     1
 90
       50
176
     1
290
     0
176
     1
 90
       50
176
     1
 62
   256
176
     0
 40
1.0
176
     0
 90
        2
176
     1
  1
strokes_ogs.tif
176
     1
290
     0
176
     1
 40
1.0
176
     1
 40
1.0
176
     1
1001
ACAD
1000
AcDbSavedByObjectVersion
1070
     0
  0
VISUALSTYLE
  5
36
102
{ACAD_REACTORS
330
29
102
}
330
29
100
AcDbVisualStyle
  2
Thicken
 70
    13
177
     3
291
     1
 70
    58
 90
        2
176
     1
 90
        2
176
     1
 90
        0
176
     1
 90
        0
176
     1
 40
0.6
176
     1
 40
30.0
176
     1
 62
     7
420
 16777215
176
     1
 90
        1
176
     1
 90
        4
176
     1
 62
     7
176
     1
 62
   257
176
     1
 90
        1
176
     1
 90
        1
176
     1
 40
1.0
176
     1
 90
       12
176
     1
 62
     7
176
     1
 40
1.0
176
     1
 90
        1
176
     1
 90
        6
176
     1
 90
        2
176
     1
 62
     7
176
     1
 90
        5
176
     1
 90
        0
176
     1
 90
        0
176
     1
290
     0
176
     1
 90
        1
176
     1
 40
0.0
176
     1
 90
        0
176
     1
290
     0
176
     1
290
     1
176
     1
290
     1
176
     1
290
     0
176
     1
290
     0
176
     1
290
     0
176
     1
290
     0
176
     1
290
     0
176
     1
290
     0
176
     1
 90
       50
176
     1
 40
0.0
176
     1
 40
1.0
176
     1
 90
        0
176
     1
 62
    18
420
        0
176
     1
 90
       50
176
     1
 90
        3
176
     1
 62
     5
420
      255
176
     1
290
     0
176
     1
 90
       50
176
     1
 90
       50
176
     1
 90
       50
176
     1
290
     0
176
     1
 90
       50
176
     1
 62
   256
176
     0
 40
1.0
176
     0
 90
        2
176
     1
  1
strokes_ogs.tif
176
     1
290
     0
176
     1
 40
1.0
176
     1
 40
1.0
176
     1
1001
ACAD
1000
AcDbSavedByObjectVersion
1070
     0
  0
VISUALSTYLE
  5
30
102
{ACAD_REACTORS
330
29
102
}
330
29
100
AcDbVisualStyle
  2
Wireframe
 70
     5
177
     3
291
     0
 70
    58
 90
        0
176
     1
 90
        2
176
     1
 90
        0
176
     1
 90
        0
176
     1
 40
0.6
176
     1
 40
30.0
176
     1
 62
     7
420
 16777215
176
     1
 90
        1
176
     1
 90
        4
176
     1
 62
     7
176
     1
 62
   257
176
     1
 90
        1
176
     1
 90
        1
176
     1
 40
1.0
176
     1
 90
        0
176
     1
 62
   257
176
     1
 40
1.0
176
     1
 90
        1
176
     1
 90
        6
176
     1
 90
        2
176
     1
 62
     7
176
     1
 90
        3
176
     1
 90
        0
176
     1
 90
        0
176
     1
290
     0
176
     1
 90
        1
176
     1
 40
0.0
176
     1
 90
        0
176
     1
290
     0
176
     1
290
     1
176
     1
290
     1
176
     1
290
     0
176
     1
290
     0
176
     1
290
     0
176
     1
290
     0
176
     1
290
     0
176
     1
290
     0
176
     1
 90
       50
176
     1
 40
0.0
176
     1
 40
1.0
176
     1
 90
        0
176
     1
 62
    18
420
        0
176
     1
 90
       50
176
     1
 90
        3
176
     1
 62
     5
420
      255
176
     1
290
     0
176
     1
 90
       50
176
     1
 90
       50
176
     1
 90
       50
176
     1
290
     0
176
     1
 90
       50
176
     1
 62
   256
176
     0
 40
1.0
176
     0
 90
        2
176
     1
  1
strokes_ogs.tif
176
     1
290
     0
176
     1
 40
1.0
176
     1
 40
1.0
176
     1
1001
ACAD
1000
AcDbSavedByObjectVersion
1070
     0
  0
VISUALSTYLE
  5
3C
102
{ACAD_REACTORS
330
29
102
}
330
29
100
AcDbVisualStyle
  2
X-Ray
 70
    25
177
     3
291
     0
 70
    58
 90
        2
176
     1
 90
        2
176
     1
 90
        1
176
     1
 90
        1
176
     1
 40
0.5
176
     1
 40
30.0
176
     1
 62
     7
420
 16777215
176
     1
 90
        1
176
     1
 90
        0
176
     1
 62
     7
176
     1
 62
   257
176
     1
 90
        1
176
     1
 90
        1
176
     1
 40
1.0
176
     1
 90
        8
176
     1
 62
     7
176
     1
 40
1.0
176
     1
 90
        1
176
     1
 90
        6
176
     1
 90
        2
176
     1
 62
     7
176
     1
 90
        3
176
     1
 90
        0
176
     1
 90
        0
176
     1
290
     0
176
     1
 90
       13
176
     1
 40
0.0
176
     1
 90
        0
176
     1
290
     0
176
     1
290
     1
176
     1
290
     1
176
     1
290
     0
176
     1
290
     0
176
     1
290
     0
176
     1
290
     0
176
     1
290
     0
176
     1
290
     0
176
     1
 90
       50
176
     1
 40
0.0
176
     1
 40
1.0
176
     1
 90
        0
176
     1
 62
    18
420
        0
176
     1
 90
       50
176
     1
 90
        3
176
     1
 62
     5
420
      255
176
     1
290
     0
176
     1
 90
       50
176
     1
 90
       50
176
     1
 90
       50
176
     1
290
     0
176
     1
 90
       50
176
     1
 62
   256
176
     0
 40
1.0
176
     0
 90
        2
176
     1
  1
strokes_ogs.tif
176
     1
290
     0
176
     1
 40
1.0
176
     1
 40
1.0
176
     1
1001
ACAD
1000
AcDbSavedByObjectVersion
1070
     0
  0
DICTIONARYVAR
  5
31A
102
{ACAD_REACTORS
330
315
102
}
330
315
100
DictionaryVariables
280
     0
  1
0
  0
DICTIONARYVAR
  5
31B
102
{ACAD_REACTORS
330
315
102
}
330
315
100
DictionaryVariables
280
     0
  1
1:1
  0
DICTIONARYVAR
  5
317
102
{ACAD_REACTORS
330
315
102
}
330
315
100
DictionaryVariables
280
     0
  1
STANDARD
  0
DICTIONARYVAR
  5
316
102
{ACAD_REACTORS
330
315
102
}
330
315
100
DictionaryVariables
280
     0
  1
STANDARD
  0
DICTIONARYVAR
  5
318
102
{ACAD_REACTORS
330
315
102
}
330
315
100
DictionaryVariables
280
     0
  1
Imperial24
  0
DICTIONARYVAR
  5
319
102
{ACAD_REACTORS
330
315
102
}
330
315
100
DictionaryVariables
280
     0
  1
Imperial24
  0
DICTIONARY
  5
321
330
6B
100
AcDbDictionary
280
     1
281
     1
  3
ACAD_XREC_ROUNDTRIP
360
322
  0
DICTIONARY
  5
1A
330
19
100
AcDbDictionary
280
     1
281
     1
  3
BUMPTILE
360
1C
  3
DIFFUSETILE
360
1B
  3
OPACITYTILE
360
1F
  3
REFLECTIONTILE
360
1E
  3
REFRACTIONTILE
360
20
  3
SPECULARTILE
360
1D
  0
DICTIONARY
  5
12
330
11
100
AcDbDictionary
280
     1
281
     1
  3
BUMPTILE
360
14
  3
DIFFUSETILE
360
13
  3
OPACITYTILE
360
17
  3
REFLECTIONTILE
360
16
  3
REFRACTIONTILE
360
18
  3
SPECULARTILE
360
15
  0
DICTIONARY
  5
22
330
21
100
AcDbDictionary
280
     1
281
     1
  3
BUMPTILE
360
24
  3
DIFFUSETILE
360
23
  3
OPACITYTILE
360
27
  3
REFLECTIONTILE
360
26
  3
REFRACTIONTILE
360
28
  3
SPECULARTILE
360
25
  0
DICTIONARY
  5
31F
330
69
100
AcDbDictionary
280
     1
281
     1
  3
ACAD_XREC_ROUNDTRIP
360
320
  0
DICTIONARY
  5
31C
330
65
100
AcDbDictionary
280
     1
281
     1
  3
ACAD_ROUNDTRIP_2008_TABLESTYLE_CELLSTYLEMAP
360
31D
  0
XRECORD
  5
322
102
{ACAD_REACTORS
330
321
102
}
330
321
100
AcDbXrecord
280
     1
102
DISPLAYNAME
  1
Imperial24
102
FLAGS
 90
        0
  0
XRECORD
  5
1C
102
{ACAD_REACTORS
330
1A
102
}
330
1A
100
AcDbXrecord
280
     1
270
     1
271
     1
  0
XRECORD
  5
1B
102
{ACAD_REACTORS
330
1A
102
}
330
1A
100
AcDbXrecord
280
     1
270
     1
271
     1
  0
XRECORD
  5
1F
102
{ACAD_REACTORS
330
1A
102
}
330
1A
100
AcDbXrecord
280
     1
270
     1
271
     1
  0
XRECORD
  5
1E
102
{ACAD_REACTORS
330
1A
102
}
330
1A
100
AcDbXrecord
280
     1
270
     1
271
     1
  0
XRECORD
  5
20
102
{ACAD_REACTORS
330
1A
102
}
330
1A
100
AcDbXrecord
280
     1
270
     1
271
     1
  0
XRECORD
  5
1D
102
{ACAD_REACTORS
330
1A
102
}
330
1A
100
AcDbXrecord
280
     1
270
     1
271
     1
  0
XRECORD
  5
14
102
{ACAD_REACTORS
330
12
102
}
330
12
100
AcDbXrecord
280
     1
270
     1
271
     1
  0
XRECORD
  5
13
102
{ACAD_REACTORS
330
12
102
}
330
12
100
AcDbXrecord
280
     1
270
     1
271
     1
  0
XRECORD
  5
17
102
{ACAD_REACTORS
330
12
102
}
330
12
100
AcDbXrecord
280
     1
270
     1
271
     1
  0
XRECORD
  5
16
102
{ACAD_REACTORS
330
12
102
}
330
12
100
AcDbXrecord
280
     1
270
     1
271
     1
  0
XRECORD
  5
18
102
{ACAD_REACTORS
330
12
102
}
330
12
100
AcDbXrecord
280
     1
270
     1
271
     1
  0
XRECORD
  5
15
102
{ACAD_REACTORS
330
12
102
}
330
12
100
AcDbXrecord
280
     1
270
     1
271
     1
  0
XRECORD
  5
24
102
{ACAD_REACTORS
330
22
102
}
330
22
100
AcDbXrecord
280
     1
270
     1
271
     1
  0
XRECORD
  5
23
102
{ACAD_REACTORS
330
22
102
}
330
22
100
AcDbXrecord
280
     1
270
     1
271
     1
  0
XRECORD
  5
27
102
{ACAD_REACTORS
330
22
102
}
330
22
100
AcDbXrecord
280
     1
270
     1
271
     1
  0
XRECORD
  5
26
102
{ACAD_REACTORS
330
22
102
}
330
22
100
AcDbXrecord
280
     1
270
     1
271
     1
  0
XRECORD
  5
28
102
{ACAD_REACTORS
330
22
102
}
330
22
100
AcDbXrecord
280
     1
270
     1
271
     1
  0
XRECORD
  5
25
102
{ACAD_REACTORS
330
22
102
}
330
22
100
AcDbXrecord
280
     1
270
     1
271
     1
  0
XRECORD
  5
320
102
{ACAD_REACTORS
330
31F
102
}
330
31F
100
AcDbXrecord
280
     1
102
DISPLAYNAME
  1
Imperial24
102
FLAGS
 90
        0
  0
CELLSTYLEMAP
  5
31D
102
{ACAD_REACTORS
330
31C
102
}
330
31C
100
AcDbCellStyleMap
 90
        3
300
CELLSTYLE
  1
TABLEFORMAT_BEGIN
 90
        5
170
     1
 91
        0
 92
    32768
 62
   257
 93
        1
300
CONTENTFORMAT
  1
CONTENTFORMAT_BEGIN
 90
        0
 91
        0
 92
      512
 93
        0
300

 40
0.0
140
1.0
 94
        5
 62
     0
340
55
144
0.25
309
CONTENTFORMAT_END
171
     0
 94
        0
309
TABLEFORMAT_END
  1
CELLSTYLE_BEGIN
 90
        1
 91
        1
300
_TITLE
309
CELLSTYLE_END
300
CELLSTYLE
  1
TABLEFORMAT_BEGIN
 90
        5
170
     1
 91
        0
 92
        0
 62
   257
 93
        1
300
CONTENTFORMAT
  1
CONTENTFORMAT_BEGIN
 90
        0
 91
        0
 92
      512
 93
        0
300

 40
0.0
140
1.0
 94
        5
 62
     0
340
55
144
0.18
309
CONTENTFORMAT_END
171
     0
 94
        0
309
TABLEFORMAT_END
  1
CELLSTYLE_BEGIN
 90
        2
 91
        1
300
_HEADER
309
CELLSTYLE_END
300
CELLSTYLE
  1
TABLEFORMAT_BEGIN
 90
        5
170
     1
 91
        0
 92
        0
 62
   257
 93
        1
300
CONTENTFORMAT
  1
CONTENTFORMAT_BEGIN
 90
        0
 91
        0
 92
      512
 93
        0
300

 40
0.0
140
1.0
 94
        2
 62
     0
340
55
144
0.18
309
CONTENTFORMAT_END
171
     0
 94
        0
309
TABLEFORMAT_END
  1
CELLSTYLE_BEGIN
 90
        3
 91
        2
300
_DATA
309
CELLSTYLE_END
  0
ENDSEC
  0
EOF
