  0
SECTION
  2
HEADER
  9
$ACADVER
  1
AC1027
  9
$ACADMAINTVER
 70
   125
  9
$DWGCODEPAGE
  3
ANSI_1252
  9
$LASTSAVEDBY
  1
Administrator
  9
$REQUIREDVERSIONS
160
                 0
  9
$INSBASE
 10
0.0
 20
0.0
 30
0.0
  9
$EXTMIN
 10
0.0
 20
0.0
 30
-1.219491
  9
$EXTMAX
 10
17.0
 20
11.0
 30
2.216781
  9
$LIMMIN
 10
0.0
 20
0.0
  9
$LIMMAX
 10
17.0
 20
11.0
  9
$ORTHOMODE
 70
     0
  9
$REGENMODE
 70
     1
  9
$FILLMODE
 70
     1
  9
$QTEXTMODE
 70
     0
  9
$MIRRTEXT
 70
     0
  9
$LTSCALE
 40
0.75
  9
$ATTMODE
 70
     1
  9
$TEXTSIZE
 40
0.12
  9
$TRACEWID
 40
0.05
  9
$TEXTSTYLE
  7
Standard
  9
$CLAYER
  8
Titleblock
  9
$CELTYPE
  6
ByLayer
  9
$CECOLOR
 62
   256
  9
$CELTSCALE
 40
1.0
  9
$DISPSILH
 70
     0
  9
$DIMSCALE
 40
1.0
  9
$DIMASZ
 40
0.12
  9
$DIMEXO
 40
0.07
  9
$DIMDLI
 40
0.36
  9
$DIMRND
 40
0.0
  9
$DIMDLE
 40
0.0
  9
$DIMEXE
 40
0.07
  9
$DIMTP
 40
0.01
  9
$DIMTM
 40
0.01
  9
$DIMTXT
 40
0.12
  9
$DIMCEN
 40
0.0
  9
$DIMTSZ
 40
0.0
  9
$DIMTOL
 70
     0
  9
$DIMLIM
 70
     0
  9
$DIMTIH
 70
     1
  9
$DIMTOH
 70
     1
  9
$DIMSE1
 70
     0
  9
$DIMSE2
 70
     0
  9
$DIMTAD
 70
     0
  9
$DIMZIN
 70
    12
  9
$DIMBLK
  1

  9
$DIMASO
 70
     1
  9
$DIMSHO
 70
     1
  9
$DIMPOST
  1
in
  9
$DIMAPOST
  1
mm
  9
$DIMALT
 70
     0
  9
$DIMALTD
 70
     2
  9
$DIMALTF
 40
25.4
  9
$DIMLFAC
 40
1.0
  9
$DIMTOFL
 70
     0
  9
$DIMTVP
 40
0.0
  9
$DIMTIX
 70
     0
  9
$DIMSOXD
 70
     0
  9
$DIMSAH
 70
     0
  9
$DIMBLK1
  1

  9
$DIMBLK2
  1

  9
$DIMSTYLE
  2
Standard
  9
$DIMCLRD
 70
   256
  9
$DIMCLRE
 70
   256
  9
$DIMCLRT
 70
   256
  9
$DIMTFAC
 40
1.0
  9
$DIMGAP
 40
0.05
  9
$DIMJUST
 70
     0
  9
$DIMSD1
 70
     0
  9
$DIMSD2
 70
     0
  9
$DIMTOLJ
 70
     1
  9
$DIMTZIN
 70
    12
  9
$DIMALTZ
 70
    12
  9
$DIMALTTZ
 70
    12
  9
$DIMUPT
 70
     0
  9
$DIMDEC
 70
     2
  9
$DIMTDEC
 70
     2
  9
$DIMALTU
 70
     2
  9
$DIMALTTD
 70
     2
  9
$DIMTXSTY
  7
Standard
  9
$DIMAUNIT
 70
     0
  9
$DIMADEC
 70
     2
  9
$DIMALTRND
 40
0.0
  9
$DIMAZIN
 70
     3
  9
$DIMDSEP
 70
    46
  9
$DIMATFIT
 70
     3
  9
$DIMFRAC
 70
     0
  9
$DIMLDRBLK
  1

  9
$DIMLUNIT
 70
     2
  9
$DIMLWD
 70
    -2
  9
$DIMLWE
 70
    -2
  9
$DIMTMOVE
 70
     0
  9
$DIMFXL
 40
1.0
  9
$DIMFXLON
 70
     0
  9
$DIMJOGANG
 40
0.785398
  9
$DIMTFILL
 70
     0
  9
$DIMTFILLCLR
 70
     0
  9
$DIMARCSYM
 70
     1
  9
$DIMLTYPE
  6

  9
$DIMLTEX1
  6

  9
$DIMLTEX2
  6

  9
$DIMTXTDIRECTION
 70
     0
  9
$LUNITS
 70
     2
  9
$LUPREC
 70
     4
  9
$SKETCHINC
 40
0.1
  9
$FILLETRAD
 40
0.0
  9
$AUNITS
 70
     0
  9
$AUPREC
 70
     0
  9
$MENU
  1
.
  9
$ELEVATION
 40
0.0
  9
$PELEVATION
 40
0.0
  9
$THICKNESS
 40
0.0
  9
$LIMCHECK
 70
     0
  9
$CHAMFERA
 40
0.0
  9
$CHAMFERB
 40
0.0
  9
$CHAMFERC
 40
0.0
  9
$CHAMFERD
 40
0.0
  9
$SKPOLY
 70
     0
  9
$TDCREATE
 40
2459467.530995370
  9
$TDUCREATE
 40
2459467.822662037
  9
$TDUPDATE
 40
2459467.530995370
  9
$TDUUPDATE
 40
2459467.822662037
  9
$TDINDWG
 40
0.0000000000
  9
$TDUSRTIMER
 40
0.0000000000
  9
$USRTIMER
 70
     1
  9
$ANGBASE
 50
0.0
  9
$ANGDIR
 70
     0
  9
$PDMODE
 70
     0
  9
$PDSIZE
 40
0.0
  9
$PLINEWID
 40
0.0
  9
$SPLFRAME
 70
     0
  9
$SPLINETYPE
 70
     6
  9
$SPLINESEGS
 70
     8
  9
$HANDSEED
  5
429
  9
$SURFTAB1
 70
     6
  9
$SURFTAB2
 70
     6
  9
$SURFTYPE
 70
     6
  9
$SURFU
 70
     6
  9
$SURFV
 70
     6
  9
$UCSBASE
  2

  9
$UCSNAME
  2

  9
$UCSORG
 10
0.0
 20
0.0
 30
0.0
  9
$UCSXDIR
 10
1.0
 20
0.0
 30
0.0
  9
$UCSYDIR
 10
0.0
 20
1.0
 30
0.0
  9
$UCSORTHOREF
  2

  9
$UCSORTHOVIEW
 70
     0
  9
$UCSORGTOP
 10
0.0
 20
0.0
 30
0.0
  9
$UCSORGBOTTOM
 10
0.0
 20
0.0
 30
0.0
  9
$UCSORGLEFT
 10
0.0
 20
0.0
 30
0.0
  9
$UCSORGRIGHT
 10
0.0
 20
0.0
 30
0.0
  9
$UCSORGFRONT
 10
0.0
 20
0.0
 30
0.0
  9
$UCSORGBACK
 10
0.0
 20
0.0
 30
0.0
  9
$PUCSBASE
  2

  9
$PUCSNAME
  2

  9
$PUCSORG
 10
0.0
 20
0.0
 30
0.0
  9
$PUCSXDIR
 10
1.0
 20
0.0
 30
0.0
  9
$PUCSYDIR
 10
0.0
 20
1.0
 30
0.0
  9
$PUCSORTHOREF
  2

  9
$PUCSORTHOVIEW
 70
     0
  9
$PUCSORGTOP
 10
0.0
 20
0.0
 30
0.0
  9
$PUCSORGBOTTOM
 10
0.0
 20
0.0
 30
0.0
  9
$PUCSORGLEFT
 10
0.0
 20
0.0
 30
0.0
  9
$PUCSORGRIGHT
 10
0.0
 20
0.0
 30
0.0
  9
$PUCSORGFRONT
 10
0.0
 20
0.0
 30
0.0
  9
$PUCSORGBACK
 10
0.0
 20
0.0
 30
0.0
  9
$USERI1
 70
     0
  9
$USERI2
 70
     0
  9
$USERI3
 70
     0
  9
$USERI4
 70
     0
  9
$USERI5
 70
     0
  9
$USERR1
 40
0.0
  9
$USERR2
 40
0.0
  9
$USERR3
 40
0.0
  9
$USERR4
 40
0.0
  9
$USERR5
 40
0.0
  9
$WORLDVIEW
 70
     1
  9
$SHADEDGE
 70
     3
  9
$SHADEDIF
 70
    70
  9
$TILEMODE
 70
     1
  9
$MAXACTVP
 70
    64
  9
$PINSBASE
 10
0.0
 20
0.0
 30
0.0
  9
$PLIMCHECK
 70
     0
  9
$PEXTMIN
 10
1.000000E+20
 20
1.000000E+20
 30
1.000000E+20
  9
$PEXTMAX
 10
-1.000000E+20
 20
-1.000000E+20
 30
-1.000000E+20
  9
$PLIMMIN
 10
0.0
 20
0.0
  9
$PLIMMAX
 10
12.0
 20
9.0
  9
$UNITMODE
 70
     0
  9
$VISRETAIN
 70
     1
  9
$PLINEGEN
 70
     0
  9
$PSLTSCALE
 70
     1
  9
$TREEDEPTH
 70
  3020
  9
$CMLSTYLE
  2
Standard
  9
$CMLJUST
 70
     0
  9
$CMLSCALE
 40
1.0
  9
$PROXYGRAPHICS
 70
     1
  9
$MEASUREMENT
 70
     0
  9
$CELWEIGHT
370
    -1
  9
$ENDCAPS
280
     0
  9
$JOINSTYLE
280
     0
  9
$LWDISPLAY
290
     0
  9
$INSUNITS
 70
     1
  9
$HYPERLINKBASE
  1

  9
$STYLESHEET
  1

  9
$XEDIT
290
     1
  9
$CEPSNTYPE
380
     0
  9
$PSTYLEMODE
290
     1
  9
$FINGERPRINTGUID
  2
{480508A3-6CC8-8D41-8DC3-A9CD116582C9}
  9
$VERSIONGUID
  2
{3598A125-9584-9641-98B4-96078C6516D4}
  9
$EXTNAMES
290
     1
  9
$PSVPSCALE
 40
0.0
  9
$OLESTARTUP
290
     0
  9
$SORTENTS
280
   127
  9
$INDEXCTL
280
     0
  9
$HIDETEXT
280
     1
  9
$XCLIPFRAME
280
     0
  9
$HALOGAP
280
     0
  9
$OBSCOLOR
 70
   257
  9
$OBSLTYPE
280
     0
  9
$INTERSECTIONDISPLAY
280
     0
  9
$INTERSECTIONCOLOR
 70
   257
  9
$DIMASSOC
280
     2
  9
$PROJECTNAME
  1

  9
$CAMERADISPLAY
290
     0
  9
$LENSLENGTH
 40
50.0
  9
$CAMERAHEIGHT
 40
0.0
  9
$STEPSPERSEC
 40
2.0
  9
$STEPSIZE
 40
6.0
  9
$3DDWFPREC
 40
2.0
  9
$PSOLWIDTH
 40
0.25
  9
$PSOLHEIGHT
 40
4.0
  9
$LOFTANG1
 40
1.570796
  9
$LOFTANG2
 40
1.570796
  9
$LOFTMAG1
 40
0.0
  9
$LOFTMAG2
 40
0.0
  9
$LOFTPARAM
 70
     7
  9
$LOFTNORMALS
280
     1
  9
$LATITUDE
 40
37.795
  9
$LONGITUDE
 40
-122.394
  9
$NORTHDIRECTION
 40
0.0
  9
$TIMEZONE
 70
 -8000
  9
$LIGHTGLYPHDISPLAY
280
     1
  9
$TILEMODELIGHTSYNCH
280
     1
  9
$CMATERIAL
347
11
  9
$SOLIDHIST
280
     0
  9
$SHOWHIST
280
     1
  9
$DWFFRAME
280
     2
  9
$DGNFRAME
280
     0
  9
$REALWORLDSCALE
290
     1
  9
$INTERFERECOLOR
 62
     1
  9
$INTERFEREOBJVS
345
33
  9
$INTERFEREVPVS
346
30
  9
$CSHADOW
280
     0
  9
$SHADOWPLANELOCATION
 40
0.0
  0
ENDSEC
  0
SECTION
  2
CLASSES
  0
CLASS
  1
ACDBDICTIONARYWDFLT
  2
AcDbDictionaryWithDefault
  3
ObjectDBX Classes
 90
        0
 91
        1
280
     0
281
     0
  0
CLASS
  1
MATERIAL
  2
AcDbMaterial
  3
ObjectDBX Classes
 90
     1153
 91
        3
280
     0
281
     0
  0
CLASS
  1
VISUALSTYLE
  2
AcDbVisualStyle
  3
ObjectDBX Classes
 90
     4095
 91
       24
280
     0
281
     0
  0
CLASS
  1
SCALE
  2
AcDbScale
  3
ObjectDBX Classes
 90
     1153
 91
       33
280
     0
281
     0
  0
CLASS
  1
TABLESTYLE
  2
AcDbTableStyle
  3
ObjectDBX Classes
 90
     4095
 91
        1
280
     0
281
     0
  0
CLASS
  1
MLEADERSTYLE
  2
AcDbMLeaderStyle
  3
ACDB_MLEADERSTYLE_CLASS
 90
     4095
 91
        1
280
     0
281
     0
  0
CLASS
  1
ACDBSECTIONVIEWSTYLE
  2
AcDbSectionViewStyle
  3
ObjectDBX Classes
 90
     1025
 91
        1
280
     0
281
     0
  0
CLASS
  1
ACDBDETAILVIEWSTYLE
  2
AcDbDetailViewStyle
  3
ObjectDBX Classes
 90
     1025
 91
        1
280
     0
281
     0
  0
CLASS
  1
ACMESCOPE
  2
AcMeScope
  3
AcMeServices
 90
     1024
 91
        1
280
     0
281
     0
  0
CLASS
  1
ACMECOMMANDHISTORY
  2
AcMeCommandHistory
  3
AcMeServices
 90
     1024
 91
        1
280
     0
281
     0
  0
CLASS
  1
ACIMSYSVARMAN
  2
AcImSysVarManager
  3
AcMeServices
 90
     1024
 91
        1
280
     0
281
     0
  0
CLASS
  1
ACIMINTSYSVAR
  2
AcImIntSysVar
  3
AcMeServices
 90
     1024
 91
        1
280
     0
281
     0
  0
CLASS
  1
ACMESTATEMGR
  2
AcMeStateMgr
  3
AcMeServices
 90
     1024
 91
        1
280
     0
281
     0
  0
CLASS
  1
ACGREFMASTER
  2
AcGrefMaster
  3
AcAttribServices
 90
     1024
 91
        1
280
     0
281
     0
  0
CLASS
  1
SORTENTSTABLE
  2
AcDbSortentsTable
  3
ObjectDBX Classes
 90
        0
 91
        6
280
     0
281
     0
  0
CLASS
  1
IMAGE
  2
AcDbRasterImage
  3
ISM
 90
     2175
 91
        1
280
     0
281
     1
  0
CLASS
  1
IMAGEDEF
  2
AcDbRasterImageDef
  3
ISM
 90
        0
 91
        1
280
     0
281
     0
  0
CLASS
  1
IMAGEDEF_REACTOR
  2
AcDbRasterImageDefReactor
  3
ISM
 90
        1
 91
        2
280
     0
281
     0
  0
CLASS
  1
RASTERVARIABLES
  2
AcDbRasterVariables
  3
ISM
 90
        0
 91
        1
280
     0
281
     0
  0
CLASS
  1
DICTIONARYVAR
  2
AcDbDictionaryVar
  3
ObjectDBX Classes
 90
        0
 91
        6
280
     0
281
     0
  0
CLASS
  1
CELLSTYLEMAP
  2
AcDbCellStyleMap
  3
ObjectDBX Classes
 90
     1152
 91
        1
280
     0
281
     0
  0
ENDSEC
  0
SECTION
  2
TABLES
  0
TABLE
  2
VPORT
  5
8
330
0
100
AcDbSymbolTable
 70
     1
1001
ACAD
1000
DbSaveVer
1071
      246
  0
VPORT
  5
57
330
8
100
AcDbSymbolTableRecord
100
AcDbViewportTableRecord
  2
*Active
 70
     0
 10
0.0
 20
0.0
 11
1.0
 21
1.0
 12
8.5
 22
5.5
 13
0.0
 23
0.0
 14
0.5
 24
0.5
 15
0.0
 25
0.0
 16
0.0
 26
0.0
 36
1.0
 17
0.0
 27
0.0
 37
0.0
 40
11.0
 41
1.7981
 42
50.0
 43
0.0
 44
0.0
 50
0.0
 51
0.0
 71
     0
 72
 20000
 73
     1
 74
     0
 75
     0
 76
     0
 77
     0
 78
     0
281
     0
 65
     1
110
0.0
120
0.0
130
0.0
111
1.0
121
0.0
131
0.0
112
0.0
122
1.0
132
0.0
 79
     0
146
0.0
348
2F
 60
     3
 61
     5
292
     1
282
     1
141
0.0
142
0.0
 63
   250
421
  3355443
  0
ENDTAB
  0
TABLE
  2
LTYPE
  5
5
330
0
100
AcDbSymbolTable
 70
    10
  0
LTYPE
  5
5B
330
5
100
AcDbSymbolTableRecord
100
AcDbLinetypeTableRecord
  2
ByBlock
 70
     0
  3

 72
    65
 73
     0
 40
0.0
  0
LTYPE
  5
5C
330
5
100
AcDbSymbolTableRecord
100
AcDbLinetypeTableRecord
  2
ByLayer
 70
     0
  3

 72
    65
 73
     0
 40
0.0
  0
LTYPE
  5
5D
330
5
100
AcDbSymbolTableRecord
100
AcDbLinetypeTableRecord
  2
Continuous
 70
     0
  3
Solid line
 72
    65
 73
     0
 40
0.0
  0
LTYPE
  5
81
330
5
100
AcDbSymbolTableRecord
100
AcDbLinetypeTableRecord
  2
HIDDEN
 70
     0
  3
Hidden __ __ __ __ __ __ __ __ __ __ __ __ __ _
 72
    65
 73
     2
 40
0.375
 49
0.25
 74
     0
 49
-0.125
 74
     0
  0
LTYPE
  5
82
330
5
100
AcDbSymbolTableRecord
100
AcDbLinetypeTableRecord
  2
PHANTOM2
 70
     0
  3
Phantom (.5x) ___ _ _ ___ _ _ ___ _ _ ___ _ _
 72
    65
 73
     6
 40
1.25
 49
0.625
 74
     0
 49
-0.125
 74
     0
 49
0.125
 74
     0
 49
-0.125
 74
     0
 49
0.125
 74
     0
 49
-0.125
 74
     0
  0
LTYPE
  5
83
330
5
100
AcDbSymbolTableRecord
100
AcDbLinetypeTableRecord
  2
CENTER
 70
     0
  3
Center ____ _ ____ _ ____ _ ____ _ ____ _ ____
 72
    65
 73
     4
 40
2.0
 49
1.25
 74
     0
 49
-0.25
 74
     0
 49
0.25
 74
     0
 49
-0.25
 74
     0
  0
LTYPE
  5
9C
330
5
100
AcDbSymbolTableRecord
100
AcDbLinetypeTableRecord
  2
CENTER2
 70
     0
  3
Center (.5x) ___ _ ___ _ ___ _ ___ _ ___ _ ___
 72
    65
 73
     4
 40
1.125
 49
0.75
 74
     0
 49
-0.125
 74
     0
 49
0.125
 74
     0
 49
-0.125
 74
     0
  0
LTYPE
  5
9D
330
5
100
AcDbSymbolTableRecord
100
AcDbLinetypeTableRecord
  2
HIDDEN2
 70
     0
  3
Hidden (.5x) _ _ _ _ _ _ _ _ _ _ _ _ _ _ _ _ _
 72
    65
 73
     2
 40
0.1875
 49
0.125
 74
     0
 49
-0.0625
 74
     0
  0
LTYPE
  5
9E
330
5
100
AcDbSymbolTableRecord
100
AcDbLinetypeTableRecord
  2
Amconstr
 70
     0
  3
_______________________
 72
    65
 73
     2
 40
9999.0
 49
9999.0
 74
     0
 49
0.0
 74
     0
  0
LTYPE
  5
9F
330
5
100
AcDbSymbolTableRecord
100
AcDbLinetypeTableRecord
  2
Amzigzag2
 70
     0
  3
/\/-/\/-/\/-/\/-/\/-/\/
 72
    65
 73
     2
 40
0.4401
 49
0.0001
 74
     4
 75
   136
340
99
 46
0.0016
 50
0.0
 44
0.0
 45
0.0
 49
-0.44
 74
     0
  0
LTYPE
  5
A0
330
5
100
AcDbSymbolTableRecord
100
AcDbLinetypeTableRecord
  2
ACANSTGB
 70
     0
  3
__ . . __ . .
 72
    65
 73
     6
 40
0.354331
 49
0.15748
 74
     0
 49
-0.03937
 74
     0
 49
0.03937
 74
     0
 49
-0.03937
 74
     0
 49
0.03937
 74
     0
 49
-0.03937
 74
     0
  0
LTYPE
  5
A1
330
5
100
AcDbSymbolTableRecord
100
AcDbLinetypeTableRecord
  2
ACANSTGL
 70
     0
  3
_ _ _ _ _
 72
    65
 73
     2
 40
0.11811
 49
0.07874
 74
     0
 49
-0.03937
 74
     0
  0
ENDTAB
  0
TABLE
  2
LAYER
  5
2
330
0
100
AcDbSymbolTable
 70
    10
  0
LAYER
  5
54
330
2
100
AcDbSymbolTableRecord
100
AcDbLayerTableRecord
  2
0
 70
     0
 62
     7
  6
Continuous
370
    -3
390
F
347
21
348
0
1001
AcAecLayerStandard
1000

1000

  0
LAYER
  5
79
330
2
100
AcDbSymbolTableRecord
100
AcDbLayerTableRecord
  2
Defpoints
 70
     0
 62
     7
  6
Continuous
290
     0
370
    -3
390
F
347
21
348
0
1001
AcAecLayerStandard
1000

1000

  0
LAYER
  5
BB
330
2
100
AcDbSymbolTableRecord
100
AcDbLayerTableRecord
  2
Visible
 70
     0
 62
     7
  6
Continuous
370
    25
390
F
347
21
348
0
  0
LAYER
  5
129
330
2
100
AcDbSymbolTableRecord
100
AcDbLayerTableRecord
  2
Titleblock
 70
     0
 62
     7
  6
Continuous
370
    -3
390
F
347
21
348
0
1001
AcAecLayerStandard
1000

1000

1001
AcCmTransparency
1071
        0
  0
LAYER
  5
14E
330
2
100
AcDbSymbolTableRecord
100
AcDbLayerTableRecord
  2
Border
 70
     0
 62
     7
  6
Continuous
370
    -3
390
F
347
21
348
0
1001
AcAecLayerStandard
1000

1000

1001
AcCmTransparency
1071
        0
  0
LAYER
  5
16F
330
2
100
AcDbSymbolTableRecord
100
AcDbLayerTableRecord
  2
Dimensions
 70
     0
 62
     7
  6
Continuous
370
    13
390
F
347
21
348
0
  0
LAYER
  5
18C
330
2
100
AcDbSymbolTableRecord
100
AcDbLayerTableRecord
  2
Annotations
 70
     0
 62
     7
  6
Continuous
370
    13
390
F
347
21
348
0
  0
ENDTAB
  0
TABLE
  2
STYLE
  5
3
330
0
100
AcDbSymbolTable
 70
     4
  0
STYLE
  5
55
330
3
100
AcDbSymbolTableRecord
100
AcDbTextStyleTableRecord
  2
Standard
 70
     0
 40
0.0
 41
1.0
 50
0.0
 71
     0
 42
0.12
  3
arial.ttf
  4

1001
ACAD
1000
Arial
1071
       34
  0
STYLE
  5
5A
330
3
100
AcDbSymbolTableRecord
100
AcDbTextStyleTableRecord
  2
Annotative
 70
     0
 40
0.0
 41
1.0
 50
0.0
 71
     0
 42
0.2
  3
txt
  4

1001
AcadAnnotative
1000
AnnotativeData
1002
{
1070
     1
1070
     1
1002
}
  0
STYLE
  5
99
330
3
100
AcDbSymbolTableRecord
100
AcDbTextStyleTableRecord
  2

 70
     1
 40
0.0
 41
1.0
 50
0.0
 71
     0
 42
0.12
  3
genltshp.shx
  4

  0
STYLE
  5
9A
330
3
100
AcDbSymbolTableRecord
100
AcDbTextStyleTableRecord
  2
ACANSGDT
 70
     0
 40
0.0
 41
1.0
 50
0.0
 71
     0
 42
0.12
  3
amgdt.shx
  4

  0
ENDTAB
  0
TABLE
  2
VIEW
  5
6
330
0
100
AcDbSymbolTable
 70
     0
  0
ENDTAB
  0
TABLE
  2
UCS
  5
7
330
0
100
AcDbSymbolTable
 70
     0
  0
ENDTAB
  0
TABLE
  2
APPID
  5
9
330
0
100
AcDbSymbolTable
 70
    26
  0
APPID
  5
56
330
9
100
AcDbSymbolTableRecord
100
AcDbRegAppTableRecord
  2
ACAD
 70
     0
  0
APPID
  5
5E
330
9
100
AcDbSymbolTableRecord
100
AcDbRegAppTableRecord
  2
AcadAnnotative
 70
     0
  0
APPID
  5
78
330
9
100
AcDbSymbolTableRecord
100
AcDbRegAppTableRecord
  2
ACAD_PSEXT
 70
     0
  0
APPID
  5
7A
330
9
100
AcDbSymbolTableRecord
100
AcDbRegAppTableRecord
  2
MCAD_NO_VIS
 70
     0
  0
APPID
  5
7B
330
9
100
AcDbSymbolTableRecord
100
AcDbRegAppTableRecord
  2
ACAD_TEMP_GRAPHIC
 70
     0
  0
APPID
  5
84
330
9
100
AcDbSymbolTableRecord
100
AcDbRegAppTableRecord
  2
ACAD_DSTYLE_DIMJAG
 70
     0
  0
APPID
  5
85
330
9
100
AcDbSymbolTableRecord
100
AcDbRegAppTableRecord
  2
ACAD_DSTYLE_DIMTALN
 70
     0
  0
APPID
  5
86
330
9
100
AcDbSymbolTableRecord
100
AcDbRegAppTableRecord
  2
ACAD_NAV_VCDISPLAY
 70
     0
  0
APPID
  5
87
330
9
100
AcDbSymbolTableRecord
100
AcDbRegAppTableRecord
  2
AcAecLayerStandard
 70
     0
  0
APPID
  5
88
330
9
100
AcDbSymbolTableRecord
100
AcDbRegAppTableRecord
  2
AcCmTransparency
 70
     0
  0
APPID
  5
89
330
9
100
AcDbSymbolTableRecord
100
AcDbRegAppTableRecord
  2
ACAD_DSTYLE_DIMBREAK
 70
     0
  0
APPID
  5
8A
330
9
100
AcDbSymbolTableRecord
100
AcDbRegAppTableRecord
  2
ACAD_DSTYLE_DIMRADIAL_EXTENSION
 70
     0
  0
APPID
  5
8B
330
9
100
AcDbSymbolTableRecord
100
AcDbRegAppTableRecord
  2
FUSIONTITLEBLOCK
 70
     0
  0
APPID
  5
8C
330
9
100
AcDbSymbolTableRecord
100
AcDbRegAppTableRecord
  2
FUSIONCURRENTTITLEBLOCK
 70
     0
  0
APPID
  5
8D
330
9
100
AcDbSymbolTableRecord
100
AcDbRegAppTableRecord
  2
AcSynergy
 70
     0
  0
APPID
  5
8E
330
9
100
AcDbSymbolTableRecord
100
AcDbRegAppTableRecord
  2
ACAD_VIEW_EDGE_ID
 70
     0
  0
APPID
  5
8F
330
9
100
AcDbSymbolTableRecord
100
AcDbRegAppTableRecord
  2
GENIUS_GENSCREG_15
 70
     0
  0
APPID
  5
90
330
9
100
AcDbSymbolTableRecord
100
AcDbRegAppTableRecord
  2
GENIUS_GENOBJ-N-SDF_13
 70
     0
  0
APPID
  5
91
330
9
100
AcDbSymbolTableRecord
100
AcDbRegAppTableRecord
  2
GENIUS_GENODEF_13
 70
     0
  0
APPID
  5
92
330
9
100
AcDbSymbolTableRecord
100
AcDbRegAppTableRecord
  2
ACAD_DIMASSOC_CALC_DIMLFAC
 70
     0
  0
APPID
  5
93
330
9
100
AcDbSymbolTableRecord
100
AcDbRegAppTableRecord
  2
ACAD_DIMASSOC_DIMLFAC
 70
     0
  0
APPID
  5
94
330
9
100
AcDbSymbolTableRecord
100
AcDbRegAppTableRecord
  2
ACAD_DIMASSOC_OVERRIDDEN_DIMLFAC
 70
     0
  0
APPID
  5
95
330
9
100
AcDbSymbolTableRecord
100
AcDbRegAppTableRecord
  2
FD_ATT_APPNAME
 70
     0
  0
APPID
  5
96
330
9
100
AcDbSymbolTableRecord
100
AcDbRegAppTableRecord
  2
ACAD_TC
 70
     0
  0
APPID
  5
97
330
9
100
AcDbSymbolTableRecord
100
AcDbRegAppTableRecord
  2
ACAD_DSTYLE_DIMJAG_POSITION
 70
     0
  0
APPID
  5
98
330
9
100
AcDbSymbolTableRecord
100
AcDbRegAppTableRecord
  2
ACATTRIBSERVICES
 70
     0
  0
ENDTAB
  0
TABLE
  2
DIMSTYLE
  5
A
330
0
100
AcDbSymbolTable
 70
     2
100
AcDbDimStyleTable
 71
     1
340
58
  0
DIMSTYLE
105
58
102
{ACAD_REACTORS
330
16E
330
17D
330
18D
330
197
330
1A1
330
1AF
330
1BD
330
1C7
330
1D1
102
}
330
A
100
AcDbSymbolTableRecord
100
AcDbDimStyleTableRecord
  2
Standard
 70
     0
  3
in
  4
mm
 41
0.12
 42
0.07
 43
0.36
 44
0.07
 47
0.01
 48
0.01
 78
    12
 79
     3
 90
        1
140
0.12
141
0.0
147
0.05
176
   256
177
   256
178
   256
179
     2
271
     2
272
     2
284
    12
285
    12
286
    12
340
55
  0
DIMSTYLE
105
59
330
A
100
AcDbSymbolTableRecord
100
AcDbDimStyleTableRecord
  2
Annotative
 70
     0
  3
in
  4
mm
 40
0.0
 41
0.12
 42
0.07
 43
0.36
 44
0.07
 78
    12
 79
     3
140
0.12
147
0.05
179
     2
271
     2
272
     2
284
    12
285
    12
286
    12
340
55
1001
AcadAnnotative
1000
AnnotativeData
1002
{
1070
     1
1070
     1
1002
}
  0
ENDTAB
  0
TABLE
  2
BLOCK_RECORD
  5
1
330
0
100
AcDbSymbolTable
 70
    24
  0
BLOCK_RECORD
  5
70
102
{ACAD_XDICTIONARY
360
B4
102
}
330
1
100
AcDbSymbolTableRecord
100
AcDbBlockTableRecord
  2
*Model_Space
340
73
 70
     0
280
     1
281
     0
  0
BLOCK_RECORD
  5
6C
330
1
100
AcDbSymbolTableRecord
100
AcDbBlockTableRecord
  2
*Paper_Space
340
6F
 70
     0
280
     1
281
     0
  0
BLOCK_RECORD
  5
74
330
1
100
AcDbSymbolTableRecord
100
AcDbBlockTableRecord
  2
*Paper_Space0
340
77
 70
     0
280
     1
281
     0
  0
BLOCK_RECORD
  5
12A
102
{ACAD_XDICTIONARY
360
12B
102
}
330
1
100
AcDbSymbolTableRecord
100
AcDbBlockTableRecord
  2
Shower
340
0
102
{BLKREFS
331
128
102
}
 70
     1
280
     1
281
     0
1001
FUSIONTITLEBLOCK
1000
TitleBlock
  0
BLOCK_RECORD
  5
14F
330
1
100
AcDbSymbolTableRecord
100
AcDbBlockTableRecord
  2
ANSI_B_SHEET
340
0
310
2800000020000000200000000100080000000000000400000000000000000000000000000000000000000000000080000080000000808000800000008000800080800000C0C0C000C0DCC000F0CAA6000020400000206000002080000020A0000020C0000020E00000400000004020000040400000406000004080000040A0
310
000040C0000040E00000600000006020000060400000606000006080000060A0000060C0000060E00000800000008020000080400000806000008080000080A0000080C0000080E00000A0000000A0200000A0400000A0600000A0800000A0A00000A0C00000A0E00000C0000000C0200000C0400000C0600000C0800000C0
310
A00000C0C00000C0E00000E0000000E0200000E0400000E0600000E0800000E0A00000E0C00000E0E00040000000400020004000400040006000400080004000A0004000C0004000E00040200000402020004020400040206000402080004020A0004020C0004020E000404000004040200040404000404060004040800040
310
40A0004040C0004040E00040600000406020004060400040606000406080004060A0004060C0004060E00040800000408020004080400040806000408080004080A0004080C0004080E00040A0000040A0200040A0400040A0600040A0800040A0A00040A0C00040A0E00040C0000040C0200040C0400040C0600040C08000
310
40C0A00040C0C00040C0E00040E0000040E0200040E0400040E0600040E0800040E0A00040E0C00040E0E00080000000800020008000400080006000800080008000A0008000C0008000E00080200000802020008020400080206000802080008020A0008020C0008020E00080400000804020008040400080406000804080
310
008040A0008040C0008040E00080600000806020008060400080606000806080008060A0008060C0008060E00080800000808020008080400080806000808080008080A0008080C0008080E00080A0000080A0200080A0400080A0600080A0800080A0A00080A0C00080A0E00080C0000080C0200080C0400080C0600080C0
310
800080C0A00080C0C00080C0E00080E0000080E0200080E0400080E0600080E0800080E0A00080E0C00080E0E000C0000000C0002000C0004000C0006000C0008000C000A000C000C000C000E000C0200000C0202000C0204000C0206000C0208000C020A000C020C000C020E000C0400000C0402000C0404000C0406000C0
310
408000C040A000C040C000C040E000C0600000C0602000C0604000C0606000C0608000C060A000C060C000C060E000C0800000C0802000C0804000C0806000C0808000C080A000C080C000C080E000C0A00000C0A02000C0A04000C0A06000C0A08000C0A0A000C0A0C000C0A0E000C0C00000C0C02000C0C04000C0C06000
310
C0C08000C0C0A000F0FBFF00A4A0A000808080000000FF0000FF000000FFFF00FF000000FF00FF00FFFF0000FFFFFF0049494949494949494949494949494949494949494949494949494949494949494949494949494949494949494949494949494949494949494949494949494949494949494949494949494949494949
310
494949494949494949494949494949494949494949494949494949494949494949494949494949494949494949494949494949494949494949494949494949494949494949494949494949494949494949494949494949494949494949494949494949494949494949494949494949494949FFFF4949494949494949494949
310
494949494949494949494949494949FFFF4949FFFFFFFFFFFFFFFFFFFFFFFFFFFFFFFFFFFFFFFFFFFFFFFFFFFFFFFFFFFF494949FF4949494949494949494949494949494949494949494949494949FF49494949FF4949494949494949494949494949494949494949494949494949FF49494949FF49494949494949494949
310
49494949494949494949494949494949FF49494949FF4949494949494949494949494949494949494949494949494949FF49494949FF4949494949494949494949494949494949494949494949494949FF49494949FF4949494949494949494949494949494949494949494949494949FF49494949FF494949494949494949
310
4949494949494949494949494949494949FF49494949FF4949494949494949494949494949494949494949494949494949FF49494949FF4949494949494949494949494949494949494949494949494949FF49494949FF4949494949494949494949494949494949494949494949494949FF49494949FF4949494949494949
310
494949494949494949494949494949494949FF49494949FF4949494949494949494949494949494949494949494949494949FF49494949FF4949494949494949494949494949494949494949494949494949FF49494949FF4949494949494949494949494949494949494949494949494949FF49494949FF49494949494949
310
49494949494949494949494949494949494949FF49494949FF4949494949494949494949494949494949494949494949494949FF494949FFFFFFFFFFFFFFFFFFFFFFFFFFFFFFFFFFFFFFFFFFFFFFFFFFFFFFFFFFFF4949FFFF4949494949494949494949494949494949494949494949494949FFFF49494949494949494949
310
49494949494949494949494949494949494949494949494949494949494949494949494949494949494949494949494949494949494949494949494949494949494949494949494949494949494949494949494949494949494949494949494949494949494949494949494949494949494949494949494949494949494949
310
4949494949494949494949494949494949494949494949494949494949494949494949494949494949494949494949494949494949494949
102
{BLKREFS
331
14D
102
}
 70
     1
280
     1
281
     0
  0
BLOCK_RECORD
  5
170
330
1
100
AcDbSymbolTableRecord
100
AcDbBlockTableRecord
  2
*D6
340
0
 70
     0
280
     1
281
     0
  0
BLOCK_RECORD
  5
17E
330
1
100
AcDbSymbolTableRecord
100
AcDbBlockTableRecord
  2
*D7
340
0
 70
     0
280
     1
281
     0
  0
BLOCK_RECORD
  5
18E
330
1
100
AcDbSymbolTableRecord
100
AcDbBlockTableRecord
  2
*D8
340
0
 70
     0
280
     1
281
     0
  0
BLOCK_RECORD
  5
198
330
1
100
AcDbSymbolTableRecord
100
AcDbBlockTableRecord
  2
*D9
340
0
 70
     0
280
     1
281
     0
  0
BLOCK_RECORD
  5
1A2
330
1
100
AcDbSymbolTableRecord
100
AcDbBlockTableRecord
  2
*D10
340
0
 70
     0
280
     1
281
     0
  0
BLOCK_RECORD
  5
1B0
330
1
100
AcDbSymbolTableRecord
100
AcDbBlockTableRecord
  2
*D11
340
0
 70
     0
280
     1
281
     0
  0
BLOCK_RECORD
  5
1BE
330
1
100
AcDbSymbolTableRecord
100
AcDbBlockTableRecord
  2
*D12
340
0
 70
     0
280
     1
281
     0
  0
BLOCK_RECORD
  5
1C8
330
1
100
AcDbSymbolTableRecord
100
AcDbBlockTableRecord
  2
*D13
340
0
 70
     0
280
     1
281
     0
  0
BLOCK_RECORD
  5
1D2
330
1
100
AcDbSymbolTableRecord
100
AcDbBlockTableRecord
  2
*D14
340
0
 70
     0
280
     1
281
     0
  0
BLOCK_RECORD
  5
1E0
330
1
100
AcDbSymbolTableRecord
100
AcDbBlockTableRecord
  2
*D15
340
0
 70
     0
280
     1
281
     0
  0
BLOCK_RECORD
  5
1ED
330
1
100
AcDbSymbolTableRecord
100
AcDbBlockTableRecord
  2
*D16
340
0
 70
     0
280
     1
281
     0
  0
BLOCK_RECORD
  5
1FA
330
1
100
AcDbSymbolTableRecord
100
AcDbBlockTableRecord
  2
*D17
340
0
 70
     0
280
     1
281
     0
  0
BLOCK_RECORD
  5
203
330
1
100
AcDbSymbolTableRecord
100
AcDbBlockTableRecord
  2
*D18
340
0
 70
     0
280
     1
281
     0
  0
BLOCK_RECORD
  5
20C
330
1
100
AcDbSymbolTableRecord
100
AcDbBlockTableRecord
  2
*D19
340
0
 70
     0
280
     1
281
     0
  0
BLOCK_RECORD
  5
219
330
1
100
AcDbSymbolTableRecord
100
AcDbBlockTableRecord
  2
*D20
340
0
 70
     0
280
     1
281
     0
  0
BLOCK_RECORD
  5
226
330
1
100
AcDbSymbolTableRecord
100
AcDbBlockTableRecord
  2
*D21
340
0
 70
     0
280
     1
281
     0
  0
BLOCK_RECORD
  5
22F
330
1
100
AcDbSymbolTableRecord
100
AcDbBlockTableRecord
  2
*D22
340
0
 70
     0
280
     1
281
     0
  0
BLOCK_RECORD
  5
238
330
1
100
AcDbSymbolTableRecord
100
AcDbBlockTableRecord
  2
*D23
340
0
 70
     0
280
     1
281
     0
  0
ENDTAB
  0
ENDSEC
  0
SECTION
  2
BLOCKS
  0
BLOCK
  5
71
330
70
100
AcDbEntity
  8
0
100
AcDbBlockBegin
  2
*Model_Space
 70
     0
 10
0.0
 20
0.0
 30
0.0
  3
*Model_Space
  1

  0
ENDBLK
  5
72
330
70
100
AcDbEntity
  8
0
100
AcDbBlockEnd
  0
BLOCK
  5
6D
330
6C
100
AcDbEntity
 67
     1
  8
0
100
AcDbBlockBegin
  2
*Paper_Space
 70
     0
 10
0.0
 20
0.0
 30
0.0
  3
*Paper_Space
  1

  0
ENDBLK
  5
6E
330
6C
100
AcDbEntity
 67
     1
  8
0
100
AcDbBlockEnd
  0
BLOCK
  5
75
330
74
100
AcDbEntity
 67
     1
  8
0
100
AcDbBlockBegin
  2
*Paper_Space0
 70
     0
 10
0.0
 20
0.0
 30
0.0
  3
*Paper_Space0
  1

  0
ENDBLK
  5
76
330
74
100
AcDbEntity
 67
     1
  8
0
100
AcDbBlockEnd
  0
BLOCK
  5
12D
330
12A
100
AcDbEntity
  8
0
100
AcDbBlockBegin
  2
Shower
 70
     2
 10
0.0
 20
0.0
 30
0.0
  3
Shower
  1

  0
LWPOLYLINE
  5
12E
330
12A
100
AcDbEntity
  8
Titleblock
100
AcDbPolyline
 90
        4
 70
     1
 43
0.0
 10
0.0
 20
0.0
 10
-4.9375
 20
0.0
 10
-4.9375
 20
2.5
 10
0.0
 20
2.5
  0
IMAGE
  5
12F
330
12A
100
AcDbEntity
  8
Titleblock
  6
Continuous
160
               140
310
8C0000000100000084000000060000000500000000000000008013C000B87FA8928AB03F000000000000000000000000008013C035B4911D6523F03F000000000000000001000000008001C035B4911D6523F03F000000000000000001000000008001C000B87FA8928AB03F000000000000000000000000008013C000B87F
310
A8928AB03F0000000000000000
370
     0
100
AcDbRasterImage
 90
        0
 10
-4.875
 20
0.064614
 30
0.0
 11
0.0028349156118143
 21
0.0
 31
0.0
 12
0.0
 22
0.0028349156118143
 32
0.0
 13
948.0
 23
333.0
340
130
 70
    15
280
     0
281
    50
282
    50
283
     0
290
     0
360
132
 71
     1
 91
        2
 14
-0.5
 24
-0.5
 14
947.5
 24
332.5
  0
LWPOLYLINE
  5
134
330
12A
100
AcDbEntity
  8
Titleblock
  6
Continuous
370
    25
100
AcDbPolyline
 90
        4
 70
     1
 43
0.0
 10
0.0
 20
1.0625
 10
-4.9375
 20
1.061638
 10
-4.9375
 20
0.0
 10
0.0
 20
0.0
  0
LWPOLYLINE
  5
135
330
12A
100
AcDbEntity
  8
Titleblock
  6
Continuous
370
    25
100
AcDbPolyline
 90
        4
 70
     1
 43
0.0
 10
-1.75
 20
2.5
 10
0.0
 20
2.5
 10
0.0
 20
2.5
 10
-1.75
 20
2.5
  0
ATTDEF
  5
136
330
12A
100
AcDbEntity
  8
Titleblock
  6
Continuous
370
    25
100
AcDbText
 10
-3.6875
 20
2.3125
 30
0.0
 40
0.12
  1

100
AcDbAttributeDefinition
280
     0
  3

  2
PROJECT
 70
     0
280
     1
  0
MTEXT
  5
137
330
12A
100
AcDbEntity
  8
Titleblock
  6
Continuous
370
    25
100
AcDbMText
 10
-4.875
 20
1.653875
 30
0.0
 40
0.12
 41
0.6875
 46
0.0
 71
     1
 72
     5
  1
Description:
 73
     1
 44
1.0
1001
ACAD
1000
ACAD_MTEXT_COLUMN_INFO_BEGIN
1070
    75
1070
     2
1070
    79
1070
     0
1070
    76
1070
     1
1070
    78
1070
     0
1070
    48
1040
0.6875
1070
    49
1040
0.6
1070
    50
1070
     1
1040
0.0
1000
ACAD_MTEXT_COLUMN_INFO_END
  0
ATTDEF
  5
138
330
12A
100
AcDbEntity
  8
Titleblock
  6
Continuous
370
    25
100
AcDbText
 10
-1.6875
 20
0.6875
 30
0.0
 40
0.12
  1

100
AcDbAttributeDefinition
280
     0
  3

  2
DRAWN_DATE
 70
     0
280
     1
  0
ATTDEF
  5
139
330
12A
100
AcDbEntity
  8
Titleblock
  6
Continuous
370
    25
100
AcDbText
 10
-4.3125
 20
1.8125
 30
0.0
 40
0.3048
  1

100
AcDbAttributeDefinition
280
     0
  3

  2
TITLE_1
 70
     0
280
     1
  0
ATTDEF
  5
13A
330
12A
100
AcDbEntity
  8
Titleblock
  6
Continuous
370
    25
100
AcDbText
 10
-1.6875
 20
0.91994
 30
0.0
 40
0.12
  1

100
AcDbAttributeDefinition
280
     0
  3

  2
SCALE
 70
     0
280
     1
  0
LWPOLYLINE
  5
13B
330
12A
100
AcDbEntity
  8
Titleblock
  6
Continuous
370
    25
100
AcDbPolyline
 90
        4
 70
     1
 43
0.0
 10
0.0
 20
1.0625
 10
0.0
 20
1.0625
 10
0.0
 20
0.0
 10
0.0
 20
0.0
  0
LWPOLYLINE
  5
13C
330
12A
100
AcDbEntity
  8
Titleblock
  6
Continuous
370
    25
100
AcDbPolyline
 90
        4
 70
     1
 43
0.0
 10
0.0
 20
1.0625
 10
0.0
 20
1.0625
 10
0.0
 20
0.0
 10
0.0
 20
0.0
  0
LINE
  5
13D
330
12A
100
AcDbEntity
  8
Titleblock
  6
Continuous
370
    25
100
AcDbLine
 10
-2.125
 20
1.062165
 30
0.0
 11
-2.125
 21
0.0
 31
0.0
  0
LWPOLYLINE
  5
13E
330
12A
100
AcDbEntity
  8
Titleblock
  6
Continuous
370
    25
100
AcDbPolyline
 90
        4
 70
     1
 43
0.0
 10
-4.9375
 20
2.5
 10
0.0
 20
2.5
 10
0.0
 20
2.5
 10
-4.9375
 20
2.5
  0
LINE
  5
13F
330
12A
100
AcDbEntity
  8
Titleblock
  6
Continuous
370
    25
100
AcDbLine
 10
-4.9375
 20
2.25
 30
0.0
 11
0.0
 21
2.25
 31
0.0
  0
LINE
  5
140
330
12A
100
AcDbEntity
  8
Titleblock
  6
Continuous
370
    25
100
AcDbLine
 10
-4.9375
 20
1.6875
 30
0.0
 11
0.0
 21
1.6875
 31
0.0
  0
MTEXT
  5
141
330
12A
100
AcDbEntity
  8
Titleblock
100
AcDbMText
 10
-4.875
 20
2.467284
 30
0.0
 40
0.12
 41
0.375
 46
0.0
 71
     1
 72
     5
  1
Project:
 73
     1
 44
1.0
1001
ACAD
1000
ACAD_MTEXT_COLUMN_INFO_BEGIN
1070
    75
1070
     2
1070
    79
1070
     0
1070
    76
1070
     1
1070
    78
1070
     0
1070
    48
1040
0.375
1070
    49
1040
0.6
1070
    50
1070
     1
1040
0.0
1000
ACAD_MTEXT_COLUMN_INFO_END
  0
MTEXT
  5
142
330
12A
100
AcDbEntity
  8
Titleblock
100
AcDbMText
 10
-2.0625
 20
1.045477
 30
0.0
 40
0.075
 41
0.375
 46
0.0
 71
     1
 72
     5
  1
Scale:
 73
     1
 44
1.0
1001
ACAD
1000
ACAD_MTEXT_COLUMN_INFO_BEGIN
1070
    75
1070
     2
1070
    79
1070
     0
1070
    76
1070
     1
1070
    78
1070
     0
1070
    48
1040
0.375
1070
    49
1040
0.6
1070
    50
1070
     1
1040
0.0
1000
ACAD_MTEXT_COLUMN_INFO_END
  0
MTEXT
  5
143
330
12A
100
AcDbEntity
  8
Titleblock
100
AcDbMText
 10
-2.0625
 20
0.857735
 30
0.0
 40
0.075
 41
0.375
 46
0.0
 71
     1
 72
     5
  1
Date Drawn:
 73
     1
 44
1.0
1001
ACAD
1000
ACAD_MTEXT_COLUMN_INFO_BEGIN
1070
    75
1070
     2
1070
    79
1070
     0
1070
    76
1070
     1
1070
    78
1070
     0
1070
    48
1040
0.375
1070
    49
1040
0.6
1070
    50
1070
     1
1040
0.0
1000
ACAD_MTEXT_COLUMN_INFO_END
  0
LINE
  5
144
330
12A
100
AcDbEntity
  8
Titleblock
100
AcDbLine
 10
-2.125
 20
0.875
 30
0.0
 11
0.0
 21
0.875
 31
0.0
  0
LINE
  5
145
330
12A
100
AcDbEntity
  8
Titleblock
100
AcDbLine
 10
-2.125
 20
0.625
 30
0.0
 11
0.0
 21
0.625
 31
0.0
  0
MTEXT
  5
146
330
12A
100
AcDbEntity
  8
Titleblock
100
AcDbMText
 10
-4.875
 20
2.220603
 30
0.0
 40
0.12
 41
0.625
 46
0.0
 71
     1
 72
     5
  1
Title:
 73
     1
 44
1.0
1001
ACAD
1000
ACAD_MTEXT_COLUMN_INFO_BEGIN
1070
    75
1070
     2
1070
    79
1070
     0
1070
    76
1070
     1
1070
    78
1070
     0
1070
    48
1040
0.625
1070
    49
1040
0.6
1070
    50
1070
     1
1040
0.0
1000
ACAD_MTEXT_COLUMN_INFO_END
  0
ENDBLK
  5
147
330
12A
100
AcDbEntity
  8
0
100
AcDbBlockEnd
  0
BLOCK
  5
150
330
14F
100
AcDbEntity
  8
0
100
AcDbBlockBegin
  2
ANSI_B_SHEET
 70
     0
 10
0.0
 20
0.0
 30
0.0
  3
ANSI_B_SHEET
  1

  0
LINE
  5
151
330
14F
100
AcDbEntity
  8
Border
100
AcDbLine
 10
0.0
 20
0.0
 30
0.0
 11
0.5
 21
0.0
 31
0.0
  0
LINE
  5
152
330
14F
100
AcDbEntity
  8
Border
100
AcDbLine
 10
16.5
 20
0.0
 30
0.0
 11
17.0
 21
0.0
 31
0.0
  0
LINE
  5
153
330
14F
100
AcDbEntity
  8
Border
100
AcDbLine
 10
0.62
 20
0.38
 30
0.0
 11
16.38
 21
0.38
 31
0.0
  0
LINE
  5
154
330
14F
100
AcDbEntity
  8
Border
100
AcDbLine
 10
17.0
 20
0.0
 30
0.0
 11
17.0
 21
0.5
 31
0.0
  0
LINE
  5
155
330
14F
100
AcDbEntity
  8
Border
100
AcDbLine
 10
17.0
 20
10.5
 30
0.0
 11
17.0
 21
11.0
 31
0.0
  0
LINE
  5
156
330
14F
100
AcDbEntity
  8
Border
100
AcDbLine
 10
16.38
 20
0.38
 30
0.0
 11
16.38
 21
10.62
 31
0.0
  0
LINE
  5
157
330
14F
100
AcDbEntity
  8
Border
100
AcDbLine
 10
17.0
 20
11.0
 30
0.0
 11
16.5
 21
11.0
 31
0.0
  0
LINE
  5
158
330
14F
100
AcDbEntity
  8
Border
100
AcDbLine
 10
0.5
 20
11.0
 30
0.0
 11
0.0
 21
11.0
 31
0.0
  0
LINE
  5
159
330
14F
100
AcDbEntity
  8
Border
100
AcDbLine
 10
16.38
 20
10.62
 30
0.0
 11
0.62
 21
10.62
 31
0.0
  0
LINE
  5
15A
330
14F
100
AcDbEntity
  8
Border
100
AcDbLine
 10
0.0
 20
11.0
 30
0.0
 11
0.0
 21
10.5
 31
0.0
  0
LINE
  5
15B
330
14F
100
AcDbEntity
  8
Border
100
AcDbLine
 10
0.0
 20
0.5
 30
0.0
 11
0.0
 21
0.0
 31
0.0
  0
LINE
  5
15C
330
14F
100
AcDbEntity
  8
Border
100
AcDbLine
 10
0.62
 20
10.62
 30
0.0
 11
0.62
 21
0.38
 31
0.0
  0
LINE
  5
15D
330
14F
100
AcDbEntity
  8
Border
100
AcDbLine
 10
8.413397
 20
0.23
 30
0.0
 11
8.586603
 21
0.23
 31
0.0
  0
LINE
  5
15E
330
14F
100
AcDbEntity
  8
Border
100
AcDbLine
 10
8.5
 20
0.38
 30
0.0
 11
8.5
 21
0.13
 31
0.0
  0
LINE
  5
15F
330
14F
100
AcDbEntity
  8
Border
100
AcDbLine
 10
8.5
 20
0.38
 30
0.0
 11
8.413397
 21
0.23
 31
0.0
  0
LINE
  5
160
330
14F
100
AcDbEntity
  8
Border
100
AcDbLine
 10
8.5
 20
0.38
 30
0.0
 11
8.586603
 21
0.23
 31
0.0
  0
LINE
  5
161
330
14F
100
AcDbEntity
  8
Border
100
AcDbLine
 10
0.47
 20
5.586603
 30
0.0
 11
0.47
 21
5.413397
 31
0.0
  0
LINE
  5
162
330
14F
100
AcDbEntity
  8
Border
100
AcDbLine
 10
0.62
 20
5.5
 30
0.0
 11
0.37
 21
5.5
 31
0.0
  0
LINE
  5
163
330
14F
100
AcDbEntity
  8
Border
100
AcDbLine
 10
0.62
 20
5.5
 30
0.0
 11
0.47
 21
5.586603
 31
0.0
  0
LINE
  5
164
330
14F
100
AcDbEntity
  8
Border
100
AcDbLine
 10
0.62
 20
5.5
 30
0.0
 11
0.47
 21
5.413397
 31
0.0
  0
LINE
  5
165
330
14F
100
AcDbEntity
  8
Border
100
AcDbLine
 10
16.53
 20
5.586603
 30
0.0
 11
16.53
 21
5.413397
 31
0.0
  0
LINE
  5
166
330
14F
100
AcDbEntity
  8
Border
100
AcDbLine
 10
16.38
 20
5.5
 30
0.0
 11
16.63
 21
5.5
 31
0.0
  0
LINE
  5
167
330
14F
100
AcDbEntity
  8
Border
100
AcDbLine
 10
16.38
 20
5.5
 30
0.0
 11
16.53
 21
5.586603
 31
0.0
  0
LINE
  5
168
330
14F
100
AcDbEntity
  8
Border
100
AcDbLine
 10
16.38
 20
5.5
 30
0.0
 11
16.53
 21
5.413397
 31
0.0
  0
LINE
  5
169
330
14F
100
AcDbEntity
  8
Border
100
AcDbLine
 10
8.413397
 20
10.77
 30
0.0
 11
8.586603
 21
10.77
 31
0.0
  0
LINE
  5
16A
330
14F
100
AcDbEntity
  8
Border
100
AcDbLine
 10
8.5
 20
10.62
 30
0.0
 11
8.5
 21
10.87
 31
0.0
  0
LINE
  5
16B
330
14F
100
AcDbEntity
  8
Border
100
AcDbLine
 10
8.5
 20
10.62
 30
0.0
 11
8.413397
 21
10.77
 31
0.0
  0
LINE
  5
16C
330
14F
100
AcDbEntity
  8
Border
100
AcDbLine
 10
8.5
 20
10.62
 30
0.0
 11
8.586603
 21
10.77
 31
0.0
  0
ENDBLK
  5
16D
330
14F
100
AcDbEntity
  8
0
100
AcDbBlockEnd
  0
BLOCK
  5
171
330
170
100
AcDbEntity
  8
0
100
AcDbBlockBegin
  2
*D6
 70
     1
 10
0.0
 20
0.0
 30
0.0
  3
*D6
  1

  0
LINE
  5
172
330
170
100
AcDbEntity
  8
Dimensions
440
 16777216
370
    -2
100
AcDbLine
 10
7.238399
 20
8.029083
 30
0.0
 11
7.238399
 21
8.712355
 31
0.0
  0
LINE
  5
173
330
170
100
AcDbEntity
  8
Dimensions
440
 16777216
370
    -2
100
AcDbLine
 10
9.804719
 20
8.033533
 30
0.0
 11
9.804719
 21
8.712355
 31
0.0
  0
LINE
  5
174
330
170
100
AcDbEntity
  8
Dimensions
440
 16777216
370
    -2
100
AcDbLine
 10
7.358399
 20
8.642355
 30
0.0
 11
8.251409
 21
8.642355
 31
0.0
  0
LINE
  5
175
330
170
100
AcDbEntity
  8
Dimensions
440
 16777216
370
    -2
100
AcDbLine
 10
9.684719
 20
8.642355
 30
0.0
 11
8.791709
 21
8.642355
 31
0.0
  0
SOLID
  5
176
330
170
100
AcDbEntity
  8
Dimensions
440
 16777216
100
AcDbTrace
 10
7.358399
 20
8.662355
 30
0.0
 11
7.358399
 21
8.622355
 31
0.0
 12
7.238399
 22
8.642355
 32
0.0
 13
7.238399
 23
8.642355
 33
0.0
  0
SOLID
  5
177
330
170
100
AcDbEntity
  8
Dimensions
440
 16777216
100
AcDbTrace
 10
9.684719
 20
8.662355
 30
0.0
 11
9.684719
 21
8.622355
 31
0.0
 12
9.804719
 22
8.642355
 32
0.0
 13
9.804719
 23
8.642355
 33
0.0
  0
MTEXT
  5
178
330
170
100
AcDbEntity
  8
Dimensions
440
 16777216
100
AcDbMText
 10
8.521559
 20
8.642355
 30
0.0
 40
0.12
 41
0.0
 46
0.0
 71
     5
 72
     1
  1
\A1;2.57in
 73
     1
 44
1.0
  0
POINT
  5
179
330
170
100
AcDbEntity
  8
Defpoints
 62
     0
440
 16777216
100
AcDbPoint
 10
7.238399
 20
7.959083
 30
0.0
  0
POINT
  5
17A
330
170
100
AcDbEntity
  8
Defpoints
 62
     0
440
 16777216
100
AcDbPoint
 10
9.804719
 20
7.963533
 30
0.0
  0
POINT
  5
17B
330
170
100
AcDbEntity
  8
Defpoints
 62
     0
440
 16777216
100
AcDbPoint
 10
9.804719
 20
8.642355
 30
0.0
  0
ENDBLK
  5
17C
330
170
100
AcDbEntity
  8
0
100
AcDbBlockEnd
  0
BLOCK
  5
17F
330
17E
100
AcDbEntity
  8
0
100
AcDbBlockBegin
  2
*D7
 70
     1
 10
0.0
 20
0.0
 30
0.0
  3
*D7
  1

  0
LINE
  5
180
330
17E
100
AcDbEntity
  8
Dimensions
440
 16777216
370
    -2
100
AcDbLine
 10
9.869635
 20
7.972148
 30
0.0
 11
10.589635
 21
7.972148
 31
0.0
  0
LINE
  5
181
330
17E
100
AcDbEntity
  8
Dimensions
440
 16777216
370
    -2
100
AcDbLine
 10
8.581986
 20
5.580392
 30
0.0
 11
10.589635
 21
5.580392
 31
0.0
  0
LINE
  5
182
330
17E
100
AcDbEntity
  8
Dimensions
440
 16777216
370
    -2
100
AcDbLine
 10
10.519635
 20
7.852148
 30
0.0
 11
10.519635
 21
6.88758
 31
0.0
  0
LINE
  5
183
330
17E
100
AcDbEntity
  8
Dimensions
440
 16777216
370
    -2
100
AcDbLine
 10
10.519635
 20
5.700392
 30
0.0
 11
10.519635
 21
6.66496
 31
0.0
  0
SOLID
  5
184
330
17E
100
AcDbEntity
  8
Dimensions
440
 16777216
100
AcDbTrace
 10
10.499635
 20
7.852148
 30
0.0
 11
10.539635
 21
7.852148
 31
0.0
 12
10.519635
 22
7.972148
 32
0.0
 13
10.519635
 23
7.972148
 33
0.0
  0
SOLID
  5
185
330
17E
100
AcDbEntity
  8
Dimensions
440
 16777216
100
AcDbTrace
 10
10.499635
 20
5.700392
 30
0.0
 11
10.539635
 21
5.700392
 31
0.0
 12
10.519635
 22
5.580392
 32
0.0
 13
10.519635
 23
5.580392
 33
0.0
  0
MTEXT
  5
186
330
17E
100
AcDbEntity
  8
Dimensions
440
 16777216
100
AcDbMText
 10
10.519635
 20
6.77627
 30
0.0
 40
0.12
 41
0.0
 46
0.0
 71
     5
 72
     1
  1
\A1;**2.39in
 73
     1
 44
1.0
  0
POINT
  5
187
330
17E
100
AcDbEntity
  8
Defpoints
 62
     0
440
 16777216
100
AcDbPoint
 10
9.799635
 20
7.972148
 30
0.0
  0
POINT
  5
188
330
17E
100
AcDbEntity
  8
Defpoints
 62
     0
440
 16777216
100
AcDbPoint
 10
8.511986
 20
5.580392
 30
0.0
  0
POINT
  5
189
330
17E
100
AcDbEntity
  8
Defpoints
 62
     0
440
 16777216
100
AcDbPoint
 10
10.519635
 20
5.580392
 30
0.0
  0
ENDBLK
  5
18A
330
17E
100
AcDbEntity
  8
0
100
AcDbBlockEnd
  0
BLOCK
  5
18F
330
18E
100
AcDbEntity
  8
0
100
AcDbBlockBegin
  2
*D8
 70
     1
 10
0.0
 20
0.0
 30
0.0
  3
*D8
  1

  0
LINE
  5
190
330
18E
100
AcDbEntity
  8
Dimensions
440
 16777216
370
    -2
100
AcDbLine
 10
6.943691
 20
5.047917
 30
0.0
 11
7.063691
 21
5.047917
 31
0.0
  0
LINE
  5
191
330
18E
100
AcDbEntity
  8
Dimensions
440
 16777216
370
    -2
100
AcDbLine
 10
7.063691
 20
5.047917
 30
0.0
 11
7.93746
 21
5.369164
 31
0.0
  0
MTEXT
  5
192
330
18E
100
AcDbEntity
  8
Dimensions
440
 16777216
100
AcDbMText
 10
6.655901
 20
5.047917
 30
0.0
 40
0.12
 41
0.0
 46
0.0
 71
     5
 72
     1
  1
\A1;∅.98in
 73
     1
 44
1.0
  0
SOLID
  5
193
330
18E
100
AcDbEntity
  8
Dimensions
440
 16777216
100
AcDbTrace
 10
7.930558
 20
5.387935
 30
0.0
 11
7.944361
 21
5.350392
 31
0.0
 12
8.050089
 22
5.410573
 32
0.0
 13
8.050089
 23
5.410573
 33
0.0
  0
POINT
  5
194
330
18E
100
AcDbEntity
  8
Defpoints
 62
     0
440
 16777216
100
AcDbPoint
 10
8.050089
 20
5.410573
 30
0.0
  0
POINT
  5
195
330
18E
100
AcDbEntity
  8
Defpoints
 62
     0
440
 16777216
100
AcDbPoint
 10
8.973884
 20
5.750212
 30
0.0
  0
ENDBLK
  5
196
330
18E
100
AcDbEntity
  8
0
100
AcDbBlockEnd
  0
BLOCK
  5
199
330
198
100
AcDbEntity
  8
0
100
AcDbBlockBegin
  2
*D9
 70
     1
 10
0.0
 20
0.0
 30
0.0
  3
*D9
  1

  0
LINE
  5
19A
330
198
100
AcDbEntity
  8
Dimensions
440
 16777216
370
    -2
100
AcDbLine
 10
6.57859
 20
4.483177
 30
0.0
 11
6.69859
 21
4.483177
 31
0.0
  0
LINE
  5
19B
330
198
100
AcDbEntity
  8
Dimensions
440
 16777216
370
    -2
100
AcDbLine
 10
6.69859
 20
4.483177
 30
0.0
 11
7.567214
 21
5.008747
 31
0.0
  0
MTEXT
  5
19C
330
198
100
AcDbEntity
  8
Dimensions
440
 16777216
100
AcDbMText
 10
6.244183
 20
4.483177
 30
0.0
 40
0.12
 41
0.0
 46
0.0
 71
     5
 72
     1
  1
\A1;∅1.97in
 73
     1
 44
1.0
  0
SOLID
  5
19D
330
198
100
AcDbEntity
  8
Dimensions
440
 16777216
100
AcDbTrace
 10
7.55686
 20
5.025859
 30
0.0
 11
7.577567
 21
4.991636
 31
0.0
 12
7.669883
 22
5.070869
 32
0.0
 13
7.669883
 23
5.070869
 33
0.0
  0
POINT
  5
19E
330
198
100
AcDbEntity
  8
Defpoints
 62
     0
440
 16777216
100
AcDbPoint
 10
7.669883
 20
5.070869
 30
0.0
  0
POINT
  5
19F
330
198
100
AcDbEntity
  8
Defpoints
 62
     0
440
 16777216
100
AcDbPoint
 10
9.354089
 20
6.089916
 30
0.0
  0
ENDBLK
  5
1A0
330
198
100
AcDbEntity
  8
0
100
AcDbBlockEnd
  0
BLOCK
  5
1A3
330
1A2
100
AcDbEntity
  8
0
100
AcDbBlockBegin
  2
*D10
 70
     1
 10
0.0
 20
0.0
 30
0.0
  3
*D10
  1

  0
LINE
  5
1A4
330
1A2
100
AcDbEntity
  8
Dimensions
440
 16777216
370
    -2
100
AcDbLine
 10
8.245437
 20
4.05077
 30
0.0
 11
8.245437
 21
3.571541
 31
0.0
  0
LINE
  5
1A5
330
1A2
100
AcDbEntity
  8
Dimensions
440
 16777216
370
    -2
100
AcDbLine
 10
8.796618
 20
4.05077
 30
0.0
 11
8.796618
 21
3.571541
 31
0.0
  0
LINE
  5
1A6
330
1A2
100
AcDbEntity
  8
Dimensions
440
 16777216
370
    -2
100
AcDbLine
 10
8.125437
 20
3.641541
 30
0.0
 11
8.005437
 21
3.641541
 31
0.0
  0
LINE
  5
1A7
330
1A2
100
AcDbEntity
  8
Dimensions
440
 16777216
370
    -2
100
AcDbLine
 10
8.916618
 20
3.641541
 30
0.0
 11
9.036618
 21
3.641541
 31
0.0
  0
SOLID
  5
1A8
330
1A2
100
AcDbEntity
  8
Dimensions
440
 16777216
100
AcDbTrace
 10
8.125437
 20
3.661541
 30
0.0
 11
8.125437
 21
3.621541
 31
0.0
 12
8.245437
 22
3.641541
 32
0.0
 13
8.245437
 23
3.641541
 33
0.0
  0
SOLID
  5
1A9
330
1A2
100
AcDbEntity
  8
Dimensions
440
 16777216
100
AcDbTrace
 10
8.916618
 20
3.661541
 30
0.0
 11
8.916618
 21
3.621541
 31
0.0
 12
8.796618
 22
3.641541
 32
0.0
 13
8.796618
 23
3.641541
 33
0.0
  0
MTEXT
  5
1AA
330
1A2
100
AcDbEntity
  8
Dimensions
440
 16777216
100
AcDbMText
 10
8.521027
 20
3.641541
 30
0.0
 40
0.12
 41
0.0
 46
0.0
 71
     5
 72
     1
  1
\A1;.55in
 73
     1
 44
1.0
  0
POINT
  5
1AB
330
1A2
100
AcDbEntity
  8
Defpoints
 62
     0
440
 16777216
100
AcDbPoint
 10
8.245437
 20
4.12077
 30
0.0
  0
POINT
  5
1AC
330
1A2
100
AcDbEntity
  8
Defpoints
 62
     0
440
 16777216
100
AcDbPoint
 10
8.796618
 20
4.12077
 30
0.0
  0
POINT
  5
1AD
330
1A2
100
AcDbEntity
  8
Defpoints
 62
     0
440
 16777216
100
AcDbPoint
 10
8.796618
 20
3.641541
 30
0.0
  0
ENDBLK
  5
1AE
330
1A2
100
AcDbEntity
  8
0
100
AcDbBlockEnd
  0
BLOCK
  5
1B1
330
1B0
100
AcDbEntity
  8
0
100
AcDbBlockBegin
  2
*D11
 70
     1
 10
0.0
 20
0.0
 30
0.0
  3
*D11
  1

  0
LINE
  5
1B2
330
1B0
100
AcDbEntity
  8
Dimensions
440
 16777216
370
    -2
100
AcDbLine
 10
1.764431
 20
6.595274
 30
0.0
 11
1.764431
 21
8.763375
 31
0.0
  0
LINE
  5
1B3
330
1B0
100
AcDbEntity
  8
Dimensions
440
 16777216
370
    -2
100
AcDbLine
 10
4.994015
 20
8.043375
 30
0.0
 11
4.994015
 21
8.763375
 31
0.0
  0
LINE
  5
1B4
330
1B0
100
AcDbEntity
  8
Dimensions
440
 16777216
370
    -2
100
AcDbLine
 10
1.884431
 20
8.693375
 30
0.0
 11
3.110137
 21
8.693375
 31
0.0
  0
LINE
  5
1B5
330
1B0
100
AcDbEntity
  8
Dimensions
440
 16777216
370
    -2
100
AcDbLine
 10
4.874015
 20
8.693375
 30
0.0
 11
3.648309
 21
8.693375
 31
0.0
  0
SOLID
  5
1B6
330
1B0
100
AcDbEntity
  8
Dimensions
440
 16777216
100
AcDbTrace
 10
1.884431
 20
8.713375
 30
0.0
 11
1.884431
 21
8.673375
 31
0.0
 12
1.764431
 22
8.693375
 32
0.0
 13
1.764431
 23
8.693375
 33
0.0
  0
SOLID
  5
1B7
330
1B0
100
AcDbEntity
  8
Dimensions
440
 16777216
100
AcDbTrace
 10
4.874015
 20
8.713375
 30
0.0
 11
4.874015
 21
8.673375
 31
0.0
 12
4.994015
 22
8.693375
 32
0.0
 13
4.994015
 23
8.693375
 33
0.0
  0
MTEXT
  5
1B8
330
1B0
100
AcDbEntity
  8
Dimensions
440
 16777216
100
AcDbMText
 10
3.379223
 20
8.693375
 30
0.0
 40
0.12
 41
0.0
 46
0.0
 71
     5
 72
     1
  1
\A1;3.23in
 73
     1
 44
1.0
  0
POINT
  5
1B9
330
1B0
100
AcDbEntity
  8
Defpoints
 62
     0
440
 16777216
100
AcDbPoint
 10
1.764431
 20
6.525274
 30
0.0
  0
POINT
  5
1BA
330
1B0
100
AcDbEntity
  8
Defpoints
 62
     0
440
 16777216
100
AcDbPoint
 10
4.994015
 20
7.973375
 30
0.0
  0
POINT
  5
1BB
330
1B0
100
AcDbEntity
  8
Defpoints
 62
     0
440
 16777216
100
AcDbPoint
 10
4.994015
 20
8.693375
 30
0.0
  0
ENDBLK
  5
1BC
330
1B0
100
AcDbEntity
  8
0
100
AcDbBlockEnd
  0
BLOCK
  5
1BF
330
1BE
100
AcDbEntity
  8
0
100
AcDbBlockBegin
  2
*D12
 70
     1
 10
0.0
 20
0.0
 30
0.0
  3
*D12
  1

  0
LINE
  5
1C0
330
1BE
100
AcDbEntity
  8
Dimensions
440
 16777216
370
    -2
100
AcDbLine
 10
5.616893
 20
9.03169
 30
0.0
 11
5.805549
 21
9.066046
 31
0.0
  0
MTEXT
  5
1C1
330
1BE
100
AcDbEntity
  8
Dimensions
440
 16777216
100
AcDbMText
 10
5.329104
 20
9.03169
 30
0.0
 40
0.12
 41
0.0
 46
0.0
 71
     5
 72
     1
  1
\A1;∅1.9in
 73
     1
 44
1.0
  0
SOLID
  5
1C2
330
1BE
100
AcDbEntity
  8
Dimensions
440
 16777216
100
AcDbTrace
 10
5.801966
 20
9.085722
 30
0.0
 11
5.809132
 21
9.04637
 31
0.0
 12
5.923608
 22
9.087546
 32
0.0
 13
5.923608
 23
9.087546
 33
0.0
  0
ARC
  5
1C3
330
1BE
100
AcDbEntity
  8
Dimensions
440
 16777216
370
    -2
100
AcDbCircle
 10
4.994015
 20
8.918257
 30
0.0
 40
0.9448818897637703
100
AcDbArc
 50
304.58597
 51
14.565725
  0
POINT
  5
1C4
330
1BE
100
AcDbEntity
  8
Defpoints
 62
     0
440
 16777216
100
AcDbPoint
 10
5.923608
 20
9.087546
 30
0.0
  0
POINT
  5
1C5
330
1BE
100
AcDbEntity
  8
Defpoints
 62
     0
440
 16777216
100
AcDbPoint
 10
4.064422
 20
8.748968
 30
0.0
  0
ENDBLK
  5
1C6
330
1BE
100
AcDbEntity
  8
0
100
AcDbBlockEnd
  0
BLOCK
  5
1C9
330
1C8
100
AcDbEntity
  8
0
100
AcDbBlockBegin
  2
*D13
 70
     1
 10
0.0
 20
0.0
 30
0.0
  3
*D13
  1

  0
LINE
  5
1CA
330
1C8
100
AcDbEntity
  8
Dimensions
440
 16777216
370
    -2
100
AcDbLine
 10
12.460797
 20
4.965334
 30
0.0
 11
12.580797
 21
4.965334
 31
0.0
  0
LINE
  5
1CB
330
1C8
100
AcDbEntity
  8
Dimensions
440
 16777216
370
    -2
100
AcDbLine
 10
12.580797
 20
4.965334
 30
0.0
 11
12.816936
 21
4.489599
 31
0.0
  0
MTEXT
  5
1CC
330
1C8
100
AcDbEntity
  8
Dimensions
440
 16777216
100
AcDbMText
 10
12.173007
 20
4.965334
 30
0.0
 40
0.12
 41
0.0
 46
0.0
 71
     5
 72
     1
  1
\A1;∅.22in
 73
     1
 44
1.0
  0
SOLID
  5
1CD
330
1C8
100
AcDbEntity
  8
Dimensions
440
 16777216
100
AcDbTrace
 10
12.83485
 20
4.498491
 30
0.0
 11
12.799021
 21
4.480707
 31
0.0
 12
12.870289
 22
4.382112
 32
0.0
 13
12.870289
 23
4.382112
 33
0.0
  0
POINT
  5
1CE
330
1C8
100
AcDbEntity
  8
Defpoints
 62
     0
440
 16777216
100
AcDbPoint
 10
12.870289
 20
4.382112
 30
0.0
  0
POINT
  5
1CF
330
1C8
100
AcDbEntity
  8
Defpoints
 62
     0
440
 16777216
100
AcDbPoint
 10
12.968102
 20
4.185053
 30
0.0
  0
ENDBLK
  5
1D0
330
1C8
100
AcDbEntity
  8
0
100
AcDbBlockEnd
  0
BLOCK
  5
1D3
330
1D2
100
AcDbEntity
  8
0
100
AcDbBlockBegin
  2
*D14
 70
     1
 10
0.0
 20
0.0
 30
0.0
  3
*D14
  1

  0
LINE
  5
1D4
330
1D2
100
AcDbEntity
  8
Dimensions
440
 16777216
370
    -2
100
AcDbLine
 10
12.919196
 20
4.213583
 30
0.0
 11
12.919196
 21
3.493583
 31
0.0
  0
LINE
  5
1D5
330
1D2
100
AcDbEntity
  8
Dimensions
440
 16777216
370
    -2
100
AcDbLine
 10
14.613554
 20
4.213583
 30
0.0
 11
14.613554
 21
3.493583
 31
0.0
  0
LINE
  5
1D6
330
1D2
100
AcDbEntity
  8
Dimensions
440
 16777216
370
    -2
100
AcDbLine
 10
13.039196
 20
3.563583
 30
0.0
 11
13.549513
 21
3.563583
 31
0.0
  0
LINE
  5
1D7
330
1D2
100
AcDbEntity
  8
Dimensions
440
 16777216
370
    -2
100
AcDbLine
 10
14.493554
 20
3.563583
 30
0.0
 11
13.983237
 21
3.563583
 31
0.0
  0
SOLID
  5
1D8
330
1D2
100
AcDbEntity
  8
Dimensions
440
 16777216
100
AcDbTrace
 10
13.039196
 20
3.583583
 30
0.0
 11
13.039196
 21
3.543583
 31
0.0
 12
12.919196
 22
3.563583
 32
0.0
 13
12.919196
 23
3.563583
 33
0.0
  0
SOLID
  5
1D9
330
1D2
100
AcDbEntity
  8
Dimensions
440
 16777216
100
AcDbTrace
 10
14.493554
 20
3.583583
 30
0.0
 11
14.493554
 21
3.543583
 31
0.0
 12
14.613554
 22
3.563583
 32
0.0
 13
14.613554
 23
3.563583
 33
0.0
  0
MTEXT
  5
1DA
330
1D2
100
AcDbEntity
  8
Dimensions
440
 16777216
100
AcDbMText
 10
13.766375
 20
3.563583
 30
0.0
 40
0.12
 41
0.0
 46
0.0
 71
     5
 72
     1
  1
\A1;1.7in
 73
     1
 44
1.0
  0
POINT
  5
1DB
330
1D2
100
AcDbEntity
  8
Defpoints
 62
     0
440
 16777216
100
AcDbPoint
 10
12.919196
 20
4.283583
 30
0.0
  0
POINT
  5
1DC
330
1D2
100
AcDbEntity
  8
Defpoints
 62
     0
440
 16777216
100
AcDbPoint
 10
14.613554
 20
4.283583
 30
0.0
  0
POINT
  5
1DD
330
1D2
100
AcDbEntity
  8
Defpoints
 62
     0
440
 16777216
100
AcDbPoint
 10
14.613554
 20
3.563583
 30
0.0
  0
ENDBLK
  5
1DE
330
1D2
100
AcDbEntity
  8
0
100
AcDbBlockEnd
  0
BLOCK
  5
1E1
330
1E0
100
AcDbEntity
  8
0
100
AcDbBlockBegin
  2
*D15
 70
     1
 10
0.0
 20
0.0
 30
0.0
  3
*D15
  1

  0
LINE
  5
3DF
330
1E0
100
AcDbEntity
  8
Dimensions
440
 16777216
370
    -2
100
AcDbLine
 10
7.238399
 20
8.029083
 30
0.0
 11
7.238399
 21
8.712355
 31
0.0
  0
LINE
  5
3E0
330
1E0
100
AcDbEntity
  8
Dimensions
440
 16777216
370
    -2
100
AcDbLine
 10
9.804719
 20
8.033533
 30
0.0
 11
9.804719
 21
8.712355
 31
0.0
  0
LINE
  5
3E1
330
1E0
100
AcDbEntity
  8
Dimensions
440
 16777216
370
    -2
100
AcDbLine
 10
7.358399
 20
8.642355
 30
0.0
 11
8.251409
 21
8.642355
 31
0.0
  0
LINE
  5
3E2
330
1E0
100
AcDbEntity
  8
Dimensions
440
 16777216
370
    -2
100
AcDbLine
 10
9.684719
 20
8.642355
 30
0.0
 11
8.791709
 21
8.642355
 31
0.0
  0
SOLID
  5
3E3
330
1E0
100
AcDbEntity
  8
Dimensions
440
 16777216
100
AcDbTrace
 10
7.358399
 20
8.662355
 30
0.0
 11
7.358399
 21
8.622355
 31
0.0
 12
7.238399
 22
8.642355
 32
0.0
 13
7.238399
 23
8.642355
 33
0.0
  0
SOLID
  5
3E4
330
1E0
100
AcDbEntity
  8
Dimensions
440
 16777216
100
AcDbTrace
 10
9.684719
 20
8.662355
 30
0.0
 11
9.684719
 21
8.622355
 31
0.0
 12
9.804719
 22
8.642355
 32
0.0
 13
9.804719
 23
8.642355
 33
0.0
  0
MTEXT
  5
3E5
330
1E0
100
AcDbEntity
  8
Dimensions
440
 16777216
100
AcDbMText
 10
8.521559
 20
8.642355
 30
0.0
 40
0.12
 41
0.0
 46
0.0
 71
     5
 72
     1
  1
\A1;2.57in
 73
     1
 44
1.0
  0
POINT
  5
3E6
330
1E0
100
AcDbEntity
  8
Defpoints
 62
     0
440
 16777216
100
AcDbPoint
 10
7.238399
 20
7.959083
 30
0.0
  0
POINT
  5
3E7
330
1E0
100
AcDbEntity
  8
Defpoints
 62
     0
440
 16777216
100
AcDbPoint
 10
9.804719
 20
7.963533
 30
0.0
  0
POINT
  5
3E8
330
1E0
100
AcDbEntity
  8
Defpoints
 62
     0
440
 16777216
100
AcDbPoint
 10
9.804719
 20
8.642355
 30
0.0
  0
ENDBLK
  5
1E2
330
1E0
100
AcDbEntity
  8
0
100
AcDbBlockEnd
  0
BLOCK
  5
1EE
330
1ED
100
AcDbEntity
  8
0
100
AcDbBlockBegin
  2
*D16
 70
     1
 10
0.0
 20
0.0
 30
0.0
  3
*D16
  1

  0
LINE
  5
3E9
330
1ED
100
AcDbEntity
  8
Dimensions
440
 16777216
370
    -2
100
AcDbLine
 10
9.869635
 20
7.972148
 30
0.0
 11
10.589635
 21
7.972148
 31
0.0
  0
LINE
  5
3EA
330
1ED
100
AcDbEntity
  8
Dimensions
440
 16777216
370
    -2
100
AcDbLine
 10
8.581986
 20
5.580392
 30
0.0
 11
10.589635
 21
5.580392
 31
0.0
  0
LINE
  5
3EB
330
1ED
100
AcDbEntity
  8
Dimensions
440
 16777216
370
    -2
100
AcDbLine
 10
10.519635
 20
7.852148
 30
0.0
 11
10.519635
 21
6.88758
 31
0.0
  0
LINE
  5
3EC
330
1ED
100
AcDbEntity
  8
Dimensions
440
 16777216
370
    -2
100
AcDbLine
 10
10.519635
 20
5.700392
 30
0.0
 11
10.519635
 21
6.66496
 31
0.0
  0
SOLID
  5
3ED
330
1ED
100
AcDbEntity
  8
Dimensions
440
 16777216
100
AcDbTrace
 10
10.499635
 20
7.852148
 30
0.0
 11
10.539635
 21
7.852148
 31
0.0
 12
10.519635
 22
7.972148
 32
0.0
 13
10.519635
 23
7.972148
 33
0.0
  0
SOLID
  5
3EE
330
1ED
100
AcDbEntity
  8
Dimensions
440
 16777216
100
AcDbTrace
 10
10.499635
 20
5.700392
 30
0.0
 11
10.539635
 21
5.700392
 31
0.0
 12
10.519635
 22
5.580392
 32
0.0
 13
10.519635
 23
5.580392
 33
0.0
  0
MTEXT
  5
3EF
330
1ED
100
AcDbEntity
  8
Dimensions
440
 16777216
100
AcDbMText
 10
10.519635
 20
6.77627
 30
0.0
 40
0.12
 41
0.0
 46
0.0
 71
     5
 72
     1
  1
\A1;**2.39in
 73
     1
 44
1.0
  0
POINT
  5
3F0
330
1ED
100
AcDbEntity
  8
Defpoints
 62
     0
440
 16777216
100
AcDbPoint
 10
9.799635
 20
7.972148
 30
0.0
  0
POINT
  5
3F1
330
1ED
100
AcDbEntity
  8
Defpoints
 62
     0
440
 16777216
100
AcDbPoint
 10
8.511986
 20
5.580392
 30
0.0
  0
POINT
  5
3F2
330
1ED
100
AcDbEntity
  8
Defpoints
 62
     0
440
 16777216
100
AcDbPoint
 10
10.519635
 20
5.580392
 30
0.0
  0
ENDBLK
  5
1EF
330
1ED
100
AcDbEntity
  8
0
100
AcDbBlockEnd
  0
BLOCK
  5
1FB
330
1FA
100
AcDbEntity
  8
0
100
AcDbBlockBegin
  2
*D17
 70
     1
 10
0.0
 20
0.0
 30
0.0
  3
*D17
  1

  0
LINE
  5
3F3
330
1FA
100
AcDbEntity
  8
Dimensions
440
 16777216
370
    -2
100
AcDbLine
 10
6.943691
 20
5.047917
 30
0.0
 11
7.063691
 21
5.047917
 31
0.0
  0
LINE
  5
3F4
330
1FA
100
AcDbEntity
  8
Dimensions
440
 16777216
370
    -2
100
AcDbLine
 10
7.063691
 20
5.047917
 30
0.0
 11
7.93746
 21
5.369164
 31
0.0
  0
MTEXT
  5
3F5
330
1FA
100
AcDbEntity
  8
Dimensions
440
 16777216
100
AcDbMText
 10
6.655901
 20
5.047917
 30
0.0
 40
0.12
 41
0.0
 46
0.0
 71
     5
 72
     1
  1
\A1;∅.98in
 73
     1
 44
1.0
  0
SOLID
  5
3F6
330
1FA
100
AcDbEntity
  8
Dimensions
440
 16777216
100
AcDbTrace
 10
7.930558
 20
5.387935
 30
0.0
 11
7.944361
 21
5.350392
 31
0.0
 12
8.050089
 22
5.410573
 32
0.0
 13
8.050089
 23
5.410573
 33
0.0
  0
POINT
  5
3F7
330
1FA
100
AcDbEntity
  8
Defpoints
 62
     0
440
 16777216
100
AcDbPoint
 10
8.050089
 20
5.410573
 30
0.0
  0
POINT
  5
3F8
330
1FA
100
AcDbEntity
  8
Defpoints
 62
     0
440
 16777216
100
AcDbPoint
 10
8.973884
 20
5.750212
 30
0.0
  0
ENDBLK
  5
1FC
330
1FA
100
AcDbEntity
  8
0
100
AcDbBlockEnd
  0
BLOCK
  5
204
330
203
100
AcDbEntity
  8
0
100
AcDbBlockBegin
  2
*D18
 70
     1
 10
0.0
 20
0.0
 30
0.0
  3
*D18
  1

  0
LINE
  5
3F9
330
203
100
AcDbEntity
  8
Dimensions
440
 16777216
370
    -2
100
AcDbLine
 10
6.57859
 20
4.483177
 30
0.0
 11
6.69859
 21
4.483177
 31
0.0
  0
LINE
  5
3FA
330
203
100
AcDbEntity
  8
Dimensions
440
 16777216
370
    -2
100
AcDbLine
 10
6.69859
 20
4.483177
 30
0.0
 11
7.567214
 21
5.008747
 31
0.0
  0
MTEXT
  5
3FB
330
203
100
AcDbEntity
  8
Dimensions
440
 16777216
100
AcDbMText
 10
6.244183
 20
4.483177
 30
0.0
 40
0.12
 41
0.0
 46
0.0
 71
     5
 72
     1
  1
\A1;∅1.97in
 73
     1
 44
1.0
  0
SOLID
  5
3FC
330
203
100
AcDbEntity
  8
Dimensions
440
 16777216
100
AcDbTrace
 10
7.55686
 20
5.025859
 30
0.0
 11
7.577567
 21
4.991636
 31
0.0
 12
7.669883
 22
5.070869
 32
0.0
 13
7.669883
 23
5.070869
 33
0.0
  0
POINT
  5
3FD
330
203
100
AcDbEntity
  8
Defpoints
 62
     0
440
 16777216
100
AcDbPoint
 10
7.669883
 20
5.070869
 30
0.0
  0
POINT
  5
3FE
330
203
100
AcDbEntity
  8
Defpoints
 62
     0
440
 16777216
100
AcDbPoint
 10
9.354089
 20
6.089916
 30
0.0
  0
ENDBLK
  5
205
330
203
100
AcDbEntity
  8
0
100
AcDbBlockEnd
  0
BLOCK
  5
20D
330
20C
100
AcDbEntity
  8
0
100
AcDbBlockBegin
  2
*D19
 70
     1
 10
0.0
 20
0.0
 30
0.0
  3
*D19
  1

  0
LINE
  5
3FF
330
20C
100
AcDbEntity
  8
Dimensions
440
 16777216
370
    -2
100
AcDbLine
 10
8.245437
 20
4.05077
 30
0.0
 11
8.245437
 21
3.571541
 31
0.0
  0
LINE
  5
400
330
20C
100
AcDbEntity
  8
Dimensions
440
 16777216
370
    -2
100
AcDbLine
 10
8.796618
 20
4.05077
 30
0.0
 11
8.796618
 21
3.571541
 31
0.0
  0
LINE
  5
401
330
20C
100
AcDbEntity
  8
Dimensions
440
 16777216
370
    -2
100
AcDbLine
 10
8.125437
 20
3.641541
 30
0.0
 11
8.005437
 21
3.641541
 31
0.0
  0
LINE
  5
402
330
20C
100
AcDbEntity
  8
Dimensions
440
 16777216
370
    -2
100
AcDbLine
 10
8.916618
 20
3.641541
 30
0.0
 11
9.036618
 21
3.641541
 31
0.0
  0
SOLID
  5
403
330
20C
100
AcDbEntity
  8
Dimensions
440
 16777216
100
AcDbTrace
 10
8.125437
 20
3.661541
 30
0.0
 11
8.125437
 21
3.621541
 31
0.0
 12
8.245437
 22
3.641541
 32
0.0
 13
8.245437
 23
3.641541
 33
0.0
  0
SOLID
  5
404
330
20C
100
AcDbEntity
  8
Dimensions
440
 16777216
100
AcDbTrace
 10
8.916618
 20
3.661541
 30
0.0
 11
8.916618
 21
3.621541
 31
0.0
 12
8.796618
 22
3.641541
 32
0.0
 13
8.796618
 23
3.641541
 33
0.0
  0
MTEXT
  5
405
330
20C
100
AcDbEntity
  8
Dimensions
440
 16777216
100
AcDbMText
 10
8.521027
 20
3.641541
 30
0.0
 40
0.12
 41
0.0
 46
0.0
 71
     5
 72
     1
  1
\A1;.55in
 73
     1
 44
1.0
  0
POINT
  5
406
330
20C
100
AcDbEntity
  8
Defpoints
 62
     0
440
 16777216
100
AcDbPoint
 10
8.245437
 20
4.12077
 30
0.0
  0
POINT
  5
407
330
20C
100
AcDbEntity
  8
Defpoints
 62
     0
440
 16777216
100
AcDbPoint
 10
8.796618
 20
4.12077
 30
0.0
  0
POINT
  5
408
330
20C
100
AcDbEntity
  8
Defpoints
 62
     0
440
 16777216
100
AcDbPoint
 10
8.796618
 20
3.641541
 30
0.0
  0
ENDBLK
  5
20E
330
20C
100
AcDbEntity
  8
0
100
AcDbBlockEnd
  0
BLOCK
  5
21A
330
219
100
AcDbEntity
  8
0
100
AcDbBlockBegin
  2
*D20
 70
     1
 10
0.0
 20
0.0
 30
0.0
  3
*D20
  1

  0
LINE
  5
409
330
219
100
AcDbEntity
  8
Dimensions
440
 16777216
370
    -2
100
AcDbLine
 10
1.764431
 20
6.595274
 30
0.0
 11
1.764431
 21
8.763375
 31
0.0
  0
LINE
  5
40A
330
219
100
AcDbEntity
  8
Dimensions
440
 16777216
370
    -2
100
AcDbLine
 10
4.994015
 20
8.043375
 30
0.0
 11
4.994015
 21
8.763375
 31
0.0
  0
LINE
  5
40B
330
219
100
AcDbEntity
  8
Dimensions
440
 16777216
370
    -2
100
AcDbLine
 10
1.884431
 20
8.693375
 30
0.0
 11
3.110137
 21
8.693375
 31
0.0
  0
LINE
  5
40C
330
219
100
AcDbEntity
  8
Dimensions
440
 16777216
370
    -2
100
AcDbLine
 10
4.874015
 20
8.693375
 30
0.0
 11
3.648309
 21
8.693375
 31
0.0
  0
SOLID
  5
40D
330
219
100
AcDbEntity
  8
Dimensions
440
 16777216
100
AcDbTrace
 10
1.884431
 20
8.713375
 30
0.0
 11
1.884431
 21
8.673375
 31
0.0
 12
1.764431
 22
8.693375
 32
0.0
 13
1.764431
 23
8.693375
 33
0.0
  0
SOLID
  5
40E
330
219
100
AcDbEntity
  8
Dimensions
440
 16777216
100
AcDbTrace
 10
4.874015
 20
8.713375
 30
0.0
 11
4.874015
 21
8.673375
 31
0.0
 12
4.994015
 22
8.693375
 32
0.0
 13
4.994015
 23
8.693375
 33
0.0
  0
MTEXT
  5
40F
330
219
100
AcDbEntity
  8
Dimensions
440
 16777216
100
AcDbMText
 10
3.379223
 20
8.693375
 30
0.0
 40
0.12
 41
0.0
 46
0.0
 71
     5
 72
     1
  1
\A1;3.23in
 73
     1
 44
1.0
  0
POINT
  5
410
330
219
100
AcDbEntity
  8
Defpoints
 62
     0
440
 16777216
100
AcDbPoint
 10
1.764431
 20
6.525274
 30
0.0
  0
POINT
  5
411
330
219
100
AcDbEntity
  8
Defpoints
 62
     0
440
 16777216
100
AcDbPoint
 10
4.994015
 20
7.973375
 30
0.0
  0
POINT
  5
412
330
219
100
AcDbEntity
  8
Defpoints
 62
     0
440
 16777216
100
AcDbPoint
 10
4.994015
 20
8.693375
 30
0.0
  0
ENDBLK
  5
21B
330
219
100
AcDbEntity
  8
0
100
AcDbBlockEnd
  0
BLOCK
  5
227
330
226
100
AcDbEntity
  8
0
100
AcDbBlockBegin
  2
*D21
 70
     1
 10
0.0
 20
0.0
 30
0.0
  3
*D21
  1

  0
LINE
  5
413
330
226
100
AcDbEntity
  8
Dimensions
440
 16777216
370
    -2
100
AcDbLine
 10
5.616893
 20
9.03169
 30
0.0
 11
5.805549
 21
9.066046
 31
0.0
  0
MTEXT
  5
414
330
226
100
AcDbEntity
  8
Dimensions
440
 16777216
100
AcDbMText
 10
5.329104
 20
9.03169
 30
0.0
 40
0.12
 41
0.0
 46
0.0
 71
     5
 72
     1
  1
\A1;∅1.9in
 73
     1
 44
1.0
  0
SOLID
  5
415
330
226
100
AcDbEntity
  8
Dimensions
440
 16777216
100
AcDbTrace
 10
5.801966
 20
9.085722
 30
0.0
 11
5.809132
 21
9.04637
 31
0.0
 12
5.923608
 22
9.087546
 32
0.0
 13
5.923608
 23
9.087546
 33
0.0
  0
ARC
  5
416
330
226
100
AcDbEntity
  8
Dimensions
440
 16777216
370
    -2
100
AcDbCircle
 10
4.994015
 20
8.918257
 30
0.0
 40
0.9448818897637703
100
AcDbArc
 50
304.58597
 51
14.565725
  0
POINT
  5
417
330
226
100
AcDbEntity
  8
Defpoints
 62
     0
440
 16777216
100
AcDbPoint
 10
5.923608
 20
9.087546
 30
0.0
  0
POINT
  5
418
330
226
100
AcDbEntity
  8
Defpoints
 62
     0
440
 16777216
100
AcDbPoint
 10
4.064422
 20
8.748968
 30
0.0
  0
ENDBLK
  5
228
330
226
100
AcDbEntity
  8
0
100
AcDbBlockEnd
  0
BLOCK
  5
230
330
22F
100
AcDbEntity
  8
0
100
AcDbBlockBegin
  2
*D22
 70
     1
 10
0.0
 20
0.0
 30
0.0
  3
*D22
  1

  0
LINE
  5
419
330
22F
100
AcDbEntity
  8
Dimensions
440
 16777216
370
    -2
100
AcDbLine
 10
12.460797
 20
4.965334
 30
0.0
 11
12.580797
 21
4.965334
 31
0.0
  0
LINE
  5
41A
330
22F
100
AcDbEntity
  8
Dimensions
440
 16777216
370
    -2
100
AcDbLine
 10
12.580797
 20
4.965334
 30
0.0
 11
12.816936
 21
4.489599
 31
0.0
  0
MTEXT
  5
41B
330
22F
100
AcDbEntity
  8
Dimensions
440
 16777216
100
AcDbMText
 10
12.173007
 20
4.965334
 30
0.0
 40
0.12
 41
0.0
 46
0.0
 71
     5
 72
     1
  1
\A1;∅.22in
 73
     1
 44
1.0
  0
SOLID
  5
41C
330
22F
100
AcDbEntity
  8
Dimensions
440
 16777216
100
AcDbTrace
 10
12.83485
 20
4.498491
 30
0.0
 11
12.799021
 21
4.480707
 31
0.0
 12
12.870289
 22
4.382112
 32
0.0
 13
12.870289
 23
4.382112
 33
0.0
  0
POINT
  5
41D
330
22F
100
AcDbEntity
  8
Defpoints
 62
     0
440
 16777216
100
AcDbPoint
 10
12.870289
 20
4.382112
 30
0.0
  0
POINT
  5
41E
330
22F
100
AcDbEntity
  8
Defpoints
 62
     0
440
 16777216
100
AcDbPoint
 10
12.968102
 20
4.185053
 30
0.0
  0
ENDBLK
  5
231
330
22F
100
AcDbEntity
  8
0
100
AcDbBlockEnd
  0
BLOCK
  5
239
330
238
100
AcDbEntity
  8
0
100
AcDbBlockBegin
  2
*D23
 70
     1
 10
0.0
 20
0.0
 30
0.0
  3
*D23
  1

  0
LINE
  5
41F
330
238
100
AcDbEntity
  8
Dimensions
440
 16777216
370
    -2
100
AcDbLine
 10
12.919196
 20
4.213583
 30
0.0
 11
12.919196
 21
3.493583
 31
0.0
  0
LINE
  5
420
330
238
100
AcDbEntity
  8
Dimensions
440
 16777216
370
    -2
100
AcDbLine
 10
14.613554
 20
4.213583
 30
0.0
 11
14.613554
 21
3.493583
 31
0.0
  0
LINE
  5
421
330
238
100
AcDbEntity
  8
Dimensions
440
 16777216
370
    -2
100
AcDbLine
 10
13.039196
 20
3.563583
 30
0.0
 11
13.549513
 21
3.563583
 31
0.0
  0
LINE
  5
422
330
238
100
AcDbEntity
  8
Dimensions
440
 16777216
370
    -2
100
AcDbLine
 10
14.493554
 20
3.563583
 30
0.0
 11
13.983237
 21
3.563583
 31
0.0
  0
SOLID
  5
423
330
238
100
AcDbEntity
  8
Dimensions
440
 16777216
100
AcDbTrace
 10
13.039196
 20
3.583583
 30
0.0
 11
13.039196
 21
3.543583
 31
0.0
 12
12.919196
 22
3.563583
 32
0.0
 13
12.919196
 23
3.563583
 33
0.0
  0
SOLID
  5
424
330
238
100
AcDbEntity
  8
Dimensions
440
 16777216
100
AcDbTrace
 10
14.493554
 20
3.583583
 30
0.0
 11
14.493554
 21
3.543583
 31
0.0
 12
14.613554
 22
3.563583
 32
0.0
 13
14.613554
 23
3.563583
 33
0.0
  0
MTEXT
  5
425
330
238
100
AcDbEntity
  8
Dimensions
440
 16777216
100
AcDbMText
 10
13.766375
 20
3.563583
 30
0.0
 40
0.12
 41
0.0
 46
0.0
 71
     5
 72
     1
  1
\A1;1.7in
 73
     1
 44
1.0
  0
POINT
  5
426
330
238
100
AcDbEntity
  8
Defpoints
 62
     0
440
 16777216
100
AcDbPoint
 10
12.919196
 20
4.283583
 30
0.0
  0
POINT
  5
427
330
238
100
AcDbEntity
  8
Defpoints
 62
     0
440
 16777216
100
AcDbPoint
 10
14.613554
 20
4.283583
 30
0.0
  0
POINT
  5
428
330
238
100
AcDbEntity
  8
Defpoints
 62
     0
440
 16777216
100
AcDbPoint
 10
14.613554
 20
3.563583
 30
0.0
  0
ENDBLK
  5
23A
330
238
100
AcDbEntity
  8
0
100
AcDbBlockEnd
  0
ENDSEC
  0
SECTION
  2
ENTITIES
  0
INSERT
  5
128
330
70
100
AcDbEntity
  8
Titleblock
100
AcDbBlockReference
 66
     1
  2
Shower
 10
16.38
 20
0.38
 30
0.0
  0
ATTRIB
  5
148
330
128
100
AcDbEntity
  8
Titleblock
  6
Continuous
370
    25
100
AcDbText
 10
12.6925
 20
2.6925
 30
0.0
 40
0.12
  1
Railing Products and Mock Ups
100
AcDbAttribute
280
     0
  2
PROJECT
 70
     0
280
     1
1001
FD_ATT_APPNAME
1005
136
  0
ATTRIB
  5
149
330
128
100
AcDbEntity
  8
Titleblock
  6
Continuous
370
    25
100
AcDbText
 10
14.6925
 20
1.0675
 30
0.0
 40
0.12
  1
9/9/2021
100
AcDbAttribute
280
     0
  2
DRAWN_DATE
 70
     0
280
     1
1001
FD_ATT_APPNAME
1005
138
  0
ATTRIB
  5
14A
330
128
100
AcDbEntity
  8
Titleblock
  6
Continuous
370
    25
100
AcDbText
 10
12.0675
 20
2.1925
 30
0.0
 40
0.3048
  1
R13-0150-048-12
100
AcDbAttribute
280
     0
  2
TITLE_1
 70
     0
280
     1
1001
FD_ATT_APPNAME
1005
139
  0
ATTRIB
  5
14B
330
128
100
AcDbEntity
  8
Titleblock
  6
Continuous
370
    25
100
AcDbText
 10
14.6925
 20
1.29994
 30
0.0
 40
0.12
  1
1:1
100
AcDbAttribute
280
     0
  2
SCALE
 70
     0
280
     1
1001
FD_ATT_APPNAME
1005
13A
  0
SEQEND
  5
14C
330
128
100
AcDbEntity
  8
Titleblock
  0
INSERT
  5
14D
330
70
100
AcDbEntity
  8
Border
100
AcDbBlockReference
  2
ANSI_B_SHEET
 10
0.0
 20
0.0
 30
0.0
  0
DIMENSION
  5
16E
330
70
100
AcDbEntity
  8
Dimensions
100
AcDbDimension
280
     0
  2
*D15
 10
9.804719
 20
8.642355
 30
0.0
 11
8.521559
 21
8.642355
 31
0.0
 70
    32
 71
     5
 42
2.56632
 73
     0
 74
     0
 75
     0
  3
Standard
100
AcDbAlignedDimension
 13
7.238399
 23
7.959083
 33
0.0
 14
9.804719
 24
7.963533
 34
0.0
100
AcDbRotatedDimension
1001
ACAD_DIMASSOC_CALC_DIMLFAC
1040
-1.0
1001
ACAD_DIMASSOC_DIMLFAC
1040
-1.0
1001
ACAD_DIMASSOC_OVERRIDDEN_DIMLFAC
1040
0.0
1001
ACAD_TC
1000
DSTYLE_TC
1002
{
1070
   177
1004
18000000020000008C8C8CC2000000000000000000000000
1070
   176
1004
18000000020000008C8C8CC2000000000000000000000000
1002
}
1001
ACAD_DSTYLE_DIMJAG_POSITION
1070
   387
1070
     0
1070
   389
1010
0.0
1020
0.0
1030
0.0
1001
ACAD
1000
DSTYLE
1002
{
1070
   177
1070
   256
1070
   176
1070
   256
1070
   144
1040
1.0
1002
}
  0
DIMENSION
  5
17D
330
70
100
AcDbEntity
  8
Dimensions
100
AcDbDimension
280
     0
  2
*D16
 10
10.519635
 20
5.580392
 30
0.0
 11
10.519635
 21
6.77627
 31
0.0
 70
    32
  1
**<>
 71
     5
 42
2.391756
 73
     0
 74
     0
 75
     0
  3
Standard
100
AcDbAlignedDimension
 13
9.799635
 23
7.972148
 33
0.0
 14
8.511986
 24
5.580392
 34
0.0
 50
90.0
100
AcDbRotatedDimension
1001
ACAD_DIMASSOC_CALC_DIMLFAC
1040
-1.0
1001
ACAD_DIMASSOC_DIMLFAC
1040
-1.0
1001
ACAD_DIMASSOC_OVERRIDDEN_DIMLFAC
1040
0.0
1001
ACAD_TC
1000
DSTYLE_TC
1002
{
1070
   177
1004
18000000020000008C8C8CC2000000000000000000000000
1070
   176
1004
18000000020000008C8C8CC2000000000000000000000000
1002
}
1001
ACAD_DSTYLE_DIMJAG_POSITION
1070
   387
1070
     0
1070
   389
1010
0.0
1020
0.0
1030
0.0
1001
ACAD
1000
DSTYLE
1002
{
1070
   170
1070
     0
1070
    48
1040
0.01
1070
   147
1040
0.05
1070
    72
1070
     0
1070
    71
1070
     0
1070
   177
1070
   256
1070
   176
1070
   256
1070
   144
1040
1.0
1002
}
  0
MTEXT
  5
18B
102
{ACAD_XDICTIONARY
360
3D8
102
}
330
70
100
AcDbEntity
  8
Annotations
100
AcDbMText
 10
9.030607
 20
4.48277
 30
0.0
 40
0.12
 41
2.795277
 46
0.0
 71
     1
 72
     5
  1
\pi-0.36,l0.36,t0.36;{\fSymbol|b0|i0|c2|p18;·^I}**riser is adjutable 1.18" - 3.15"
 73
     1
 44
1.0
1001
ACAD
1000
ACAD_MTEXT_COLUMN_INFO_BEGIN
1070
    75
1070
     2
1070
    79
1070
     0
1070
    76
1070
     1
1070
    78
1070
     0
1070
    48
1040
2.795277
1070
    49
1040
0.6
1070
    50
1070
     1
1040
0.261907
1000
ACAD_MTEXT_COLUMN_INFO_END
  0
DIMENSION
  5
18D
330
70
100
AcDbEntity
  8
Dimensions
100
AcDbDimension
280
     0
  2
*D17
 10
8.973884
 20
5.750212
 30
0.0
 11
6.655901
 21
5.047917
 31
0.0
 70
   163
 71
     5
 42
0.984252
 73
     0
 74
     0
 75
     0
  3
Standard
100
AcDbDiametricDimension
 15
8.050089
 25
5.410573
 35
0.0
 40
0.0
1001
ACAD_DIMASSOC_CALC_DIMLFAC
1040
-1.0
1001
ACAD_DIMASSOC_DIMLFAC
1040
-1.0
1001
ACAD_DIMASSOC_OVERRIDDEN_DIMLFAC
1040
0.0
1001
ACAD_TC
1000
DSTYLE_TC
1002
{
1070
   176
1004
18000000020000008C8C8CC2000000000000000000000000
1070
   177
1004
18000000020000008C8C8CC2000000000000000000000000
1002
}
1001
ACAD_DSTYLE_DIMJAG_POSITION
1070
   387
1070
     0
1070
   389
1010
0.0
1020
0.0
1030
0.0
1001
ACAD_DSTYLE_DIMRADIAL_EXTENSION
1070
   387
1070
     1
1070
   388
1040
0.0
1070
   390
1040
0.0
1001
ACAD
1000
DSTYLE
1002
{
1070
   144
1040
1.0
1070
   176
1070
   256
1070
   177
1070
   256
1002
}
  0
DIMENSION
  5
197
330
70
100
AcDbEntity
  8
Dimensions
100
AcDbDimension
280
     0
  2
*D18
 10
9.354089
 20
6.089916
 30
0.0
 11
6.244183
 21
4.483177
 31
0.0
 70
   163
 71
     5
 42
1.968504
 73
     0
 74
     0
 75
     0
  3
Standard
100
AcDbDiametricDimension
 15
7.669883
 25
5.070869
 35
0.0
 40
0.0
1001
ACAD_DIMASSOC_CALC_DIMLFAC
1040
-1.0
1001
ACAD_DIMASSOC_DIMLFAC
1040
-1.0
1001
ACAD_DIMASSOC_OVERRIDDEN_DIMLFAC
1040
0.0
1001
ACAD_TC
1000
DSTYLE_TC
1002
{
1070
   176
1004
18000000020000008C8C8CC2000000000000000000000000
1070
   177
1004
18000000020000008C8C8CC2000000000000000000000000
1002
}
1001
ACAD_DSTYLE_DIMJAG_POSITION
1070
   387
1070
     0
1070
   389
1010
0.0
1020
0.0
1030
0.0
1001
ACAD_DSTYLE_DIMRADIAL_EXTENSION
1070
   387
1070
     1
1070
   388
1040
0.0
1070
   390
1040
0.0
1001
ACAD
1000
DSTYLE
1002
{
1070
   144
1040
1.0
1070
   176
1070
   256
1070
   177
1070
   256
1002
}
  0
DIMENSION
  5
1A1
330
70
100
AcDbEntity
  8
Dimensions
100
AcDbDimension
280
     0
  2
*D19
 10
8.796618
 20
3.641541
 30
0.0
 11
8.521027
 21
3.641541
 31
0.0
 70
    32
 71
     5
 42
0.551181
 73
     0
 74
     0
 75
     0
  3
Standard
100
AcDbAlignedDimension
 13
8.245437
 23
4.12077
 33
0.0
 14
8.796618
 24
4.12077
 34
0.0
 50
180.0
100
AcDbRotatedDimension
1001
ACAD_DIMASSOC_CALC_DIMLFAC
1040
-1.0
1001
ACAD_DIMASSOC_DIMLFAC
1040
-1.0
1001
ACAD_DIMASSOC_OVERRIDDEN_DIMLFAC
1040
0.0
1001
ACAD_TC
1000
DSTYLE_TC
1002
{
1070
   176
1004
18000000020000008C8C8CC2000000000000000000000000
1070
   177
1004
18000000020000008C8C8CC2000000000000000000000000
1002
}
1001
ACAD_DSTYLE_DIMJAG_POSITION
1070
   387
1070
     0
1070
   389
1010
0.0
1020
0.0
1030
0.0
1001
ACAD
1000
DSTYLE
1002
{
1070
   144
1040
1.0
1070
   176
1070
   256
1070
   177
1070
   256
1002
}
  0
DIMENSION
  5
1AF
330
70
100
AcDbEntity
  8
Dimensions
100
AcDbDimension
280
     0
  2
*D20
 10
4.994015
 20
8.693375
 30
0.0
 11
3.379223
 21
8.693375
 31
0.0
 70
    32
 71
     5
 42
3.229583
 73
     0
 74
     0
 75
     0
  3
Standard
100
AcDbAlignedDimension
 13
1.764431
 23
6.525274
 33
0.0
 14
4.994015
 24
7.973375
 34
0.0
100
AcDbRotatedDimension
1001
ACAD_DIMASSOC_CALC_DIMLFAC
1040
-1.0
1001
ACAD_DIMASSOC_DIMLFAC
1040
-1.0
1001
ACAD_DIMASSOC_OVERRIDDEN_DIMLFAC
1040
0.0
1001
ACAD_TC
1000
DSTYLE_TC
1002
{
1070
   177
1004
18000000020000008C8C8CC2000000000000000000000000
1070
   176
1004
18000000020000008C8C8CC2000000000000000000000000
1002
}
1001
ACAD_DSTYLE_DIMJAG_POSITION
1070
   387
1070
     0
1070
   389
1010
0.0
1020
0.0
1030
0.0
1001
ACAD
1000
DSTYLE
1002
{
1070
   177
1070
   256
1070
   176
1070
   256
1070
   144
1040
1.0
1002
}
  0
DIMENSION
  5
1BD
330
70
100
AcDbEntity
  8
Dimensions
100
AcDbDimension
280
     0
  2
*D21
 10
4.064422
 20
8.748968
 30
0.0
 11
5.616893
 21
9.03169
 31
0.0
 70
   163
 71
     5
 42
1.889764
 73
     0
 74
     0
 75
     0
  3
Standard
100
AcDbDiametricDimension
 15
5.923608
 25
9.087546
 35
0.0
 40
0.0
1001
ACAD_DIMASSOC_CALC_DIMLFAC
1040
-1.0
1001
ACAD_DIMASSOC_DIMLFAC
1040
-1.0
1001
ACAD_DIMASSOC_OVERRIDDEN_DIMLFAC
1040
0.0
1001
ACAD_DSTYLE_DIMJAG_POSITION
1070
   387
1070
     0
1070
   389
1010
0.0
1020
0.0
1030
0.0
1001
ACAD_DSTYLE_DIMRADIAL_EXTENSION
1070
   387
1070
     1
1070
   388
1040
4.182833
1070
   390
1040
5.241945
1001
ACAD
1000
DSTYLE
1002
{
1070
   272
1070
     1
1070
   271
1070
     1
1070
   144
1040
1.0
1070
   288
1070
     1
1002
}
  0
DIMENSION
  5
1C7
330
70
100
AcDbEntity
  8
Dimensions
100
AcDbDimension
280
     0
  2
*D22
 10
12.968102
 20
4.185053
 30
0.0
 11
12.173007
 21
4.965334
 31
0.0
 70
   163
 71
     5
 42
0.22
 73
     0
 74
     0
 75
     0
  3
Standard
100
AcDbDiametricDimension
 15
12.870289
 25
4.382112
 35
0.0
 40
0.0
1001
ACAD_DIMASSOC_CALC_DIMLFAC
1040
-1.0
1001
ACAD_DIMASSOC_DIMLFAC
1040
-1.0
1001
ACAD_DIMASSOC_OVERRIDDEN_DIMLFAC
1040
0.0
1001
ACAD_TC
1000
DSTYLE_TC
1002
{
1070
   176
1004
18000000020000008C8C8CC2000000000000000000000000
1070
   177
1004
18000000020000008C8C8CC2000000000000000000000000
1002
}
1001
ACAD_DSTYLE_DIMJAG_POSITION
1070
   387
1070
     0
1070
   389
1010
0.0
1020
0.0
1030
0.0
1001
ACAD_DSTYLE_DIMRADIAL_EXTENSION
1070
   387
1070
     1
1070
   388
1040
0.0
1070
   390
1040
0.0
1001
ACAD
1000
DSTYLE
1002
{
1070
   144
1040
1.0
1070
   176
1070
   256
1070
   177
1070
   256
1002
}
  0
DIMENSION
  5
1D1
330
70
100
AcDbEntity
  8
Dimensions
100
AcDbDimension
280
     0
  2
*D23
 10
14.613554
 20
3.563583
 30
0.0
 11
13.766375
 21
3.563583
 31
0.0
 70
    33
 71
     5
 42
1.694359
 73
     0
 74
     0
 75
     0
  3
Standard
100
AcDbAlignedDimension
 13
12.919196
 23
4.283583
 33
0.0
 14
14.613554
 24
4.283583
 34
0.0
1001
ACAD_DIMASSOC_CALC_DIMLFAC
1040
-1.0
1001
ACAD_DIMASSOC_DIMLFAC
1040
-1.0
1001
ACAD_DIMASSOC_OVERRIDDEN_DIMLFAC
1040
0.0
1001
ACAD_TC
1000
DSTYLE_TC
1002
{
1070
   176
1004
18000000020000008C8C8CC2000000000000000000000000
1070
   177
1004
18000000020000008C8C8CC2000000000000000000000000
1002
}
1001
ACAD_DSTYLE_DIMJAG_POSITION
1070
   387
1070
     0
1070
   389
1010
0.0
1020
0.0
1030
0.0
1001
ACAD
1000
DSTYLE
1002
{
1070
   272
1070
     1
1070
   271
1070
     1
1070
   144
1040
1.0
1070
   176
1070
   256
1070
   177
1070
   256
1002
}
  0
CIRCLE
  5
324
330
70
100
AcDbEntity
  8
Visible
100
AcDbCircle
 10
8.511986
 20
5.580392
 30
2.126836
 40
0.4921259842519685
  0
ARC
  5
325
330
70
100
AcDbEntity
  8
Visible
100
AcDbCircle
 10
8.511986
 20
5.580392
 30
-1.219491
 40
0.9842519685039372
100
AcDbArc
 50
286.809199
 51
73.190801
  0
ARC
  5
326
330
70
100
AcDbEntity
  8
Visible
100
AcDbCircle
 10
8.511986
 20
5.580392
 30
-1.219491
 40
0.9842519685039372
100
AcDbArc
 50
105.71274
 51
254.28726
  0
SPLINE
  5
327
330
70
100
AcDbEntity
  8
Visible
100
AcDbSpline
 70
     0
 71
     3
 72
    14
 73
    10
 74
     0
 42
0.000000001
 43
0.0000000001
 40
0.0
 40
0.0
 40
0.0
 40
0.0
 40
0.1053305397834823
 40
0.1053305397834823
 40
0.2106610795669645
 40
0.2106610795669645
 40
0.3159911758533298
 40
0.3159911758533298
 40
0.4213212721396951
 40
0.4213212721396951
 40
0.4213212721510921
 40
0.4213212721510921
 10
7.635935157548374
 20
7.880764935183508
 30
1.844501907780795
 10
7.649758063031185
 20
7.880764935183508
 30
1.844501907780795
 10
7.66449526568067
 20
7.88046020768909
 30
1.841737291695608
 10
7.691593924973858
 20
7.879361239817058
 30
1.830508205119258
 10
7.703956262366773
 20
7.878583052141541
 30
1.822044294822262
 10
7.723477503492176
 20
7.877123622167333
 30
1.802523053696859
 10
7.731941445897973
 20
7.876347326005981
 30
1.790160698321415
 10
7.743170556321274
 20
7.875252689275967
 30
1.763061978637779
 10
7.745935157548956
 20
7.874949861540689
 30
1.74832475506264
 10
7.745935157548956
 20
7.874949861540689
 30
1.734501907778394
1001
ACAD_VIEW_EDGE_ID
1071
        0
1071
       -1
1071
        7
1071
        0
  0
SPLINE
  5
328
330
70
100
AcDbEntity
  8
Visible
100
AcDbSpline
 70
     0
 71
     3
 72
    14
 73
    10
 74
     0
 42
0.000000001
 43
0.0000000001
 40
1.263963816419085
 40
1.263963816419085
 40
1.26396381641976
 40
1.26396381641976
 40
1.36929391270545
 40
1.36929391270545
 40
1.474624008991815
 40
1.474624008991815
 40
1.579954548775297
 40
1.579954548775297
 40
1.68528508855878
 40
1.68528508855878
 40
1.68528508855878
 40
1.68528508855878
 10
7.525935157547792
 20
7.874949861540688
 30
1.734501907780213
 10
7.525935157547792
 20
7.874949861540693
 30
1.74832475506264
 10
7.528699758775474
 20
7.875252689275971
 30
1.763061978637779
 10
7.539928869196955
 20
7.876347326005981
 30
1.790160698321415
 10
7.548392811604571
 20
7.877123622167333
 30
1.802523053696859
 10
7.567914052728156
 20
7.878583052141541
 30
1.822044294822262
 10
7.58027639012289
 20
7.879361239817058
 30
1.830508205119258
 10
7.607375049414258
 20
7.88046020768909
 30
1.841737291695608
 10
7.622112252065562
 20
7.880764935183508
 30
1.844501907780795
 10
7.635935157548374
 20
7.880764935183508
 30
1.844501907780795
1001
ACAD_VIEW_EDGE_ID
1071
        0
1071
       -1
1071
        7
1071
        0
  0
SPLINE
  5
329
330
70
100
AcDbEntity
  8
Visible
100
AcDbSpline
 70
     0
 71
     3
 72
    14
 73
    10
 74
     0
 42
0.000000001
 43
0.0000000001
 40
0.0
 40
0.0
 40
0.0
 40
0.0
 40
0.105330539783482
 40
0.105330539783482
 40
0.210661079566964
 40
0.210661079566964
 40
0.3159911758533294
 40
0.3159911758533294
 40
0.4213212721396948
 40
0.4213212721396948
 40
0.4213212721510883
 40
0.4213212721510883
 10
9.330293848304791
 20
7.88076493518351
 30
1.844501907780795
 10
9.344116753787602
 20
7.88076493518351
 30
1.844501907780795
 10
9.358853956438906
 20
7.880460207689091
 30
1.841737291695608
 10
9.385952615730275
 20
7.879361239817059
 30
1.830508205119258
 10
9.398314953125009
 20
7.878583052141543
 30
1.822044294822262
 10
9.417836194248593
 20
7.877123622167335
 30
1.802523053696859
 10
9.426300136656209
 20
7.876347326005983
 30
1.790160698321415
 10
9.437529247077691
 20
7.875252689275969
 30
1.763061978637779
 10
9.440293848305373
 20
7.874949861540692
 30
1.74832475506264
 10
9.440293848305373
 20
7.874949861540692
 30
1.734501907778394
1001
ACAD_VIEW_EDGE_ID
1071
        2
1071
       -1
1071
        7
1071
        0
  0
SPLINE
  5
32A
330
70
100
AcDbEntity
  8
Visible
100
AcDbSpline
 70
     0
 71
     3
 72
    14
 73
    10
 74
     0
 42
0.000000001
 43
0.0000000001
 40
1.263963816419084
 40
1.263963816419084
 40
1.263963816419761
 40
1.263963816419761
 40
1.369293912705449
 40
1.369293912705449
 40
1.474624008991814
 40
1.474624008991814
 40
1.579954548775296
 40
1.579954548775296
 40
1.685285088558778
 40
1.685285088558778
 40
1.685285088558778
 40
1.685285088558778
 10
9.220293848304208
 20
7.874949861540691
 30
1.734501907780213
 10
9.220293848304208
 20
7.874949861540695
 30
1.74832475506264
 10
9.22305844953189
 20
7.875252689275971
 30
1.763061978637779
 10
9.234287559955191
 20
7.876347326005983
 30
1.790160698321415
 10
9.242751502360988
 20
7.877123622167335
 30
1.802523053696859
 10
9.262272743486391
 20
7.878583052141543
 30
1.822044294822262
 10
9.274635080879306
 20
7.879361239817059
 30
1.830508205119258
 10
9.301733740172494
 20
7.880460207689091
 30
1.841737291695608
 10
9.316470942821979
 20
7.88076493518351
 30
1.844501907780795
 10
9.330293848304791
 20
7.88076493518351
 30
1.844501907780795
1001
ACAD_VIEW_EDGE_ID
1071
        2
1071
       -1
1071
        7
1071
        0
  0
ARC
  5
32B
330
70
100
AcDbEntity
  8
Visible
100
AcDbCircle
 10
-8.521027
 20
1.734502
 30
4.12077
 40
0.2755905511811024
210
0.0
220
1.0
230
0.0
100
AcDbArc
 50
0.0
 51
180.0
  0
ARC
  5
32C
330
70
100
AcDbEntity
  8
Visible
100
AcDbCircle
 10
-8.521027
 20
4.528493
 30
-1.734502
 40
0.4921259842519685
210
0.0000000000000001
220
0.0
230
-1.0
100
AcDbArc
 50
235.944202
 51
304.055798
  0
ARC
  5
32D
330
70
100
AcDbEntity
  8
Visible
100
AcDbCircle
 10
-8.166696
 20
7.79621
 30
-1.734502
 40
0.078740157480315
210
-0.0000000000000093
220
0.0
230
-1.0
100
AcDbArc
 50
90.0
 51
180.0
  0
ARC
  5
32E
330
70
100
AcDbEntity
  8
Visible
100
AcDbCircle
 10
8.875358
 20
7.79621
 30
1.734502
 40
0.078740157480315
100
AcDbArc
 50
90.0
 51
180.0
  0
LINE
  5
32F
330
70
100
AcDbEntity
  8
Visible
100
AcDbLine
 10
7.375358
 20
7.87495
 30
1.734502
 11
7.525935
 21
7.87495
 31
1.734502
210
0.0
220
1.0
230
0.0
  0
LINE
  5
330
330
70
100
AcDbEntity
  8
Visible
100
AcDbLine
 10
7.745935
 20
7.87495
 30
1.734502
 11
8.166696
 21
7.87495
 31
1.734502
210
0.0
220
1.0
230
0.0
  0
LINE
  5
331
330
70
100
AcDbEntity
  8
Visible
100
AcDbLine
 10
8.875358
 20
7.87495
 30
1.734502
 11
9.220294
 21
7.87495
 31
1.734502
210
0.0
220
1.0
230
0.0
  0
LINE
  5
332
330
70
100
AcDbEntity
  8
Visible
100
AcDbLine
 10
9.440294
 20
7.87495
 30
1.734502
 11
9.666696
 21
7.87495
 31
1.734502
210
0.0
220
1.0
230
0.0
  0
LINE
  5
333
330
70
100
AcDbEntity
  8
Visible
100
AcDbLine
 10
8.245437
 20
4.12077
 30
1.734502
 11
8.245437
 21
5.166702
 31
1.734502
210
0.0
220
1.0
230
0.0
  0
LINE
  5
334
330
70
100
AcDbEntity
  8
Visible
100
AcDbLine
 10
8.245437
 20
5.994082
 30
1.734502
 11
8.245437
 21
7.79621
 31
1.734502
210
0.0
220
1.0
230
0.0
  0
LINE
  5
335
330
70
100
AcDbEntity
  8
Visible
100
AcDbLine
 10
8.796618
 20
4.12077
 30
1.734502
 11
8.796618
 21
5.178929
 31
1.734502
210
0.0
220
1.0
230
0.0
  0
LINE
  5
336
330
70
100
AcDbEntity
  8
Visible
100
AcDbLine
 10
8.796618
 20
5.981856
 30
1.734502
 11
8.796618
 21
7.79621
 31
1.734502
210
0.0
220
1.0
230
0.0
  0
LINE
  5
337
330
70
100
AcDbEntity
  8
Visible
100
AcDbLine
 10
9.328114
 20
8.104142
 30
2.216781
 11
7.71394
 21
8.104142
 31
2.216781
210
0.0
220
1.0
230
0.0
  0
SPLINE
  5
338
330
70
100
AcDbEntity
  8
Visible
100
AcDbSpline
 70
     0
 71
     3
 72
    46
 73
    42
 74
     0
 42
0.000000001
 43
0.0000000001
 40
1.926560439700086
 40
1.926560439700086
 40
1.926560439700086
 40
1.926560439700086
 40
2.020102341794599
 40
2.020102341794599
 40
2.11275894556227
 40
2.11275894556227
 40
2.205754715653
 40
2.205754715653
 40
2.299614175707727
 40
2.299614175707727
 40
2.394403407560683
 40
2.394403407560683
 40
2.48959646405179
 40
2.48959646405179
 40
2.585493733832974
 40
2.585493733832974
 40
2.681752708164542
 40
2.681752708164542
 40
2.77801168249611
 40
2.77801168249611
 40
2.874270656827677
 40
2.874270656827677
 40
2.970529631159245
 40
2.970529631159245
 40
3.066788605490812
 40
3.066788605490812
 40
3.16304757982238
 40
3.16304757982238
 40
3.258277867290893
 40
3.258277867290893
 40
3.351553056886076
 40
3.351553056886076
 40
3.442466790244598
 40
3.442466790244598
 40
3.531434854438925
 40
3.531434854438925
 40
3.611511122412053
 40
3.611511122412053
 40
3.731625524371745
 40
3.731625524371745
 40
3.851739926331436
 40
3.851739926331436
 40
3.851739926331436
 40
3.851739926331436
 10
9.79963504346233
 20
7.972148062015531
 30
1.734501907780213
 10
9.79963504346233
 20
7.972148062015531
 30
1.746811819350114
 10
9.799200219204067
 20
7.972388564729947
 30
1.759152994514806
 10
9.797463548993619
 20
7.973345337214538
 30
1.783664541335383
 10
9.796169935989382
 20
7.974057074660638
 30
1.795835144990633
 10
9.792727585991087
 20
7.975938737082509
 30
1.820051193122708
 10
9.790575786320914
 20
7.977110275122107
 30
1.832095756983108
 10
9.785418581444901
 20
7.979892376479313
 30
1.85601333969862
 10
9.782413910132163
 20
7.981502413872223
 30
1.867857131752316
 10
9.775516551999317
 20
7.985153879988251
 30
1.891426800146291
 10
9.771611819331155
 20
7.987201240332759
 30
1.903153132623629
 10
9.76292140784426
 20
7.99168823070191
 30
1.926316889826921
 10
9.758132049722917
 20
7.994129439427335
 30
1.937752594676567
 10
9.74767645542488
 20
7.999359401417697
 30
1.960260111443858
 10
9.742004059015016
 20
8.002150486550487
 30
1.971328380490376
 10
9.729832709088441
 20
8.008005413864573
 30
1.992952752591008
 10
9.723330852059007
 20
8.011070095783058
 30
2.003506595077851
 10
9.709577137402447
 20
8.017382411507199
 30
2.023971479697138
 10
9.702345381108898
 20
8.020621421786641
 30
2.033858852450066
 10
9.687075947078483
 20
8.027250496695213
 30
2.053072403014084
 10
9.679037420011809
 20
8.030640333063004
 30
2.062394093458351
 10
9.662199745866018
 20
8.037484232490518
 30
2.080378302725875
 10
9.653400684617736
 20
8.040938135764569
 30
2.089040633856711
 10
9.635104777236847
 20
8.047816769438135
 30
2.105625640911966
 10
9.625608064827247
 20
8.051241323376434
 30
2.113548194391114
 10
9.605992176122526
 20
8.057966190675601
 30
2.128586810882552
 10
9.595873196843967
 20
8.061266328556797
 30
2.135702807720008
 10
9.575206709623671
 20
8.067616865984554
 30
2.149006462306715
 10
9.564679867147788
 20
8.070666453892174
 30
2.155198068145182
 10
9.543188009625737
 20
8.076468049145415
 30
2.166695240233821
 10
9.532259642810458
 20
8.079217006658309
 30
2.171999615809909
 10
9.510192313122388
 20
8.084317406818581
 30
2.181648459669304
 10
9.499065923502712
 20
8.086676956305854
 30
2.186013723776341
 10
9.476689728066048
 20
8.090960704305629
 30
2.193817827585007
 10
9.46544792657005
 20
8.09289301212504
 30
2.197274469343028
 10
9.443854979121169
 20
8.096157976205297
 30
2.203049266285233
 10
9.433527329247226
 20
8.097531312636363
 30
2.205446798945558
 10
9.407555126992519
 20
8.10049565586125
 30
2.210584074093276
 10
9.391825248105305
 20
8.101854329232217
 30
2.212900744187209
 10
9.360059967289998
 20
8.103680311514997
 30
2.21600373340334
 10
9.344065472640068
 20
8.104142151470462
 30
2.216780912920512
 10
9.328113690131431
 20
8.104142151470462
 30
2.216780912920512
1001
ACAD_VIEW_EDGE_ID
1071
   -14337
1071
       -1
1071
        7
1071
        0
  0
ARC
  5
339
330
70
100
AcDbEntity
  8
Visible
100
AcDbCircle
 10
9.794876
 20
7.963533
 30
1.734502
 40
0.0098425196850394
100
AcDbArc
 50
333.124406
 51
61.084905
  0
SPLINE
  5
33A
330
70
100
AcDbEntity
  8
Visible
100
AcDbSpline
 70
     0
 71
     3
 72
    46
 73
    42
 74
     0
 42
0.000000001
 43
0.0000000001
 40
-1.925179486631346
 40
-1.925179486631346
 40
-1.925179486631346
 40
-1.925179486631346
 40
-1.831637584536832
 40
-1.831637584536832
 40
-1.738980980769226
 40
-1.738980980769226
 40
-1.645985210678509
 40
-1.645985210678509
 40
-1.552125750623866
 40
-1.552125750623866
 40
-1.457336518771036
 40
-1.457336518771036
 40
-1.362143462279945
 40
-1.362143462279945
 40
-1.266246192498773
 40
-1.266246192498773
 40
-1.169987218167205
 40
-1.169987218167205
 40
-1.073728243835638
 40
-1.073728243835638
 40
-0.9774692695040709
 40
-0.9774692695040709
 40
-0.8812102951725035
 40
-0.8812102951725035
 40
-0.7849513208409363
 40
-0.7849513208409363
 40
-0.6886923465093689
 40
-0.6886923465093689
 40
-0.5934620590408743
 40
-0.5934620590408743
 40
-0.5001868694456939
 40
-0.5001868694456939
 40
-0.4092731360871682
 40
-0.4092731360871682
 40
-0.3203050718928359
 40
-0.3203050718928359
 40
-0.2402288039196267
 40
-0.2402288039196267
 40
-0.1201144019598129
 40
-0.1201144019598129
 40
0.0000000000000009
 40
0.0000000000000009
 40
0.0000000000000009
 40
0.0000000000000009
 10
7.242419108455578
 20
7.972148062015529
 30
1.734501907780213
 10
7.242419108455578
 20
7.972148062015529
 30
1.746811819350114
 10
7.242853932713842
 20
7.972388564729945
 30
1.759152994514806
 10
7.244590602922471
 20
7.973345337214535
 30
1.783664541335383
 10
7.245884215928526
 20
7.974057074660635
 30
1.795835144990633
 10
7.249326565926821
 20
7.975938737082505
 30
1.820051193122708
 10
7.251478365596994
 20
7.977110275122102
 30
1.832095756983108
 10
7.256635570471189
 20
7.979892376479305
 30
1.85601333969862
 10
7.259640241785746
 20
7.981502413872213
 30
1.867857131752316
 10
7.266537599918592
 20
7.985153879988235
 30
1.891426800146291
 10
7.270442332586753
 20
7.987201240332741
 30
1.903153132623629
 10
7.279132744073649
 20
7.991688230701885
 30
1.926316889826921
 10
7.283922102194992
 20
7.994129439427309
 30
1.937752594674748
 10
7.294377696493029
 20
7.999359401417668
 30
1.960260111443858
 10
7.300050092902893
 20
8.002150486550457
 30
1.971328380490376
 10
7.312221442829468
 20
8.008005413864541
 30
1.992952752591008
 10
7.318723299858902
 20
8.011070095783026
 30
2.003506595077851
 10
7.332477014515461
 20
8.017382411507167
 30
2.023971479697138
 10
7.339708770809011
 20
8.020621421786605
 30
2.033858852450066
 10
7.354978204837607
 20
8.027250496695177
 30
2.053072403014084
 10
7.3630167319061
 20
8.030640333062969
 30
2.062394093458351
 10
7.379854406050071
 20
8.037484232490481
 30
2.080378302725875
 10
7.388653467300173
 20
8.040938135764534
 30
2.089040633856711
 10
7.406949374681062
 20
8.047816769438099
 30
2.105625640911966
 10
7.416446087088843
 20
8.051241323376398
 30
2.113548194391114
 10
7.436061975793563
 20
8.057966190675566
 30
2.128586810882552
 10
7.446180955073941
 20
8.061266328556762
 30
2.135702807720008
 10
7.466847442294238
 20
8.067616865984518
 30
2.149006462306715
 10
7.477374284770121
 20
8.07066645389214
 30
2.155198068145182
 10
7.498866142292172
 20
8.076468049145383
 30
2.166695240233821
 10
7.50979450910745
 20
8.079217006658277
 30
2.171999615809909
 10
7.531861838795521
 20
8.084317406818552
 30
2.181648459669304
 10
7.542988228415197
 20
8.086676956305828
 30
2.186013723776341
 10
7.56536442385186
 20
8.090960704305604
 30
2.193817827585007
 10
7.576606225347859
 20
8.092893012125017
 30
2.197274469343028
 10
7.598199172796739
 20
8.096157976205278
 30
2.203049266285233
 10
7.608526822670683
 20
8.097531312636347
 30
2.205446798945558
 10
7.634499024925389
 20
8.100495655861239
 30
2.210584074093276
 10
7.650228903812603
 20
8.10185432923221
 30
2.212900744187209
 10
7.68199418462791
 20
8.103680311514994
 30
2.21600373340334
 10
7.697988679277841
 20
8.10414215147046
 30
2.216780912920512
 10
7.713940461786478
 20
8.10414215147046
 30
2.216780912920512
1001
ACAD_VIEW_EDGE_ID
1071
   -16386
1071
       -1
1071
        7
1071
        0
  0
ARC
  5
33B
330
70
100
AcDbEntity
  8
Visible
100
AcDbCircle
 10
7.247178
 20
7.963533
 30
1.734502
 40
0.0098425196850394
100
AcDbArc
 50
118.915095
 51
206.875594
  0
ARC
  5
33C
330
70
100
AcDbEntity
  8
Visible
100
AcDbCircle
 10
9.666696
 20
8.028493
 30
1.734502
 40
0.1535433070866142
100
AcDbArc
 50
270.0
 51
333.124406
  0
ARC
  5
33D
330
70
100
AcDbEntity
  8
Visible
100
AcDbCircle
 10
-7.375358
 20
8.028493
 30
-1.734502
 40
0.1535433070866142
210
0.0000000000000015
220
0.0
230
-1.0
100
AcDbArc
 50
270.0
 51
333.124406
  0
ARC
  5
33E
330
70
100
AcDbEntity
  8
Visible
100
AcDbCircle
 10
5.580392
 20
0.009168
 30
1.764431
 40
0.9448818897637799
210
1.0
220
-0.000000000000002
230
0.000000000000297
100
AcDbArc
 50
0.0
 51
180.0
  0
LINE
  5
33F
330
70
100
AcDbEntity
  8
Visible
100
AcDbLine
 10
1.764431
 20
6.525274
 30
0.009168
 11
1.843171
 21
6.525274
 31
0.009168
210
0.0
220
1.0
230
0.0
  0
LINE
  5
340
330
70
100
AcDbEntity
  8
Visible
100
AcDbLine
 10
1.764431
 20
4.63551
 30
0.009168
 11
1.843171
 21
4.63551
 31
0.009168
210
0.0
220
1.0
230
0.0
  0
SPLINE
  5
341
330
70
100
AcDbEntity
  8
Visible
100
AcDbSpline
 70
     0
 71
     3
 72
    22
 73
    18
 74
     0
 42
0.000000001
 43
0.0000000001
 40
1.082898440392948
 40
1.082898440392948
 40
1.082898440396907
 40
1.082898440396907
 40
1.352995901063261
 40
1.352995901063261
 40
1.623093361729615
 40
1.623093361729615
 40
1.894445121261714
 40
1.894445121261714
 40
2.165796880793813
 40
2.165796880793813
 40
2.437148640325912
 40
2.437148640325912
 40
2.708500399858011
 40
2.708500399858011
 40
2.978597860524365
 40
2.978597860524365
 40
3.166248754845898
 40
3.166248754845898
 40
3.166248754845898
 40
3.166248754845898
 10
4.717187009393455
 20
5.088266165614284
 30
0.0091682260226662
 10
4.717187009393455
 20
5.088266165614284
 30
0.0446140870026284
 10
4.724434919015038
 20
5.092436751559028
 30
0.0818990180068795
 10
4.752826750682288
 20
5.107455482074149
 30
0.1496002234998741
 10
4.773931386846015
 20
5.118154549997173
 30
0.1800659474356507
 10
4.821991172473644
 20
5.138879312362599
 30
0.2281257330632798
 10
4.852423148029629
 20
5.150427310514726
 30
0.2491509705814678
 10
4.919960911984162
 20
5.167508704406628
 30
0.2774754639503953
 10
4.957167093445605
 20
5.172669410157434
 30
0.2847587772030238
 10
5.028388027705659
 20
5.172669410157434
 30
0.2847587772030238
 10
5.065594209165283
 20
5.167508704406628
 30
0.2774754639503953
 10
5.133131973121635
 20
5.150427310514726
 30
0.2491509705814678
 10
5.1635639486758
 20
5.138879312362599
 30
0.2281257330632798
 10
5.211623734305248
 20
5.118154549997173
 30
0.1800659474356507
 10
5.232728370467157
 20
5.107455482074148
 30
0.1496002234998741
 10
5.256786934751289
 20
5.094728966300283
 30
0.0922318288303359
 10
5.263295912067405
 20
5.091123381384736
 30
0.0670563516396214
 10
5.266350647469153
 20
5.089408303350804
 30
0.0419915911315911
1001
ACAD_VIEW_EDGE_ID
1071
        0
1071
       -1
1071
        3
1071
        0
  0
SPLINE
  5
342
330
70
100
AcDbEntity
  8
Visible
100
AcDbSpline
 70
     0
 71
     3
 72
    22
 73
    18
 74
     0
 42
0.000000001
 43
0.0000000001
 40
1.165345006741842
 40
1.165345006741842
 40
1.165345006741842
 40
1.165345006741842
 40
1.352995901063261
 40
1.352995901063261
 40
1.623093361729615
 40
1.623093361729615
 40
1.894445121261714
 40
1.894445121261714
 40
2.165796880793813
 40
2.165796880793813
 40
2.437148640325912
 40
2.437148640325912
 40
2.708500399858011
 40
2.708500399858011
 40
2.978597860524365
 40
2.978597860524365
 40
3.248695321190719
 40
3.248695321190719
 40
3.248695321193409
 40
3.248695321193409
 10
5.266350647469153
 20
6.071375996381698
 30
0.0419915911315911
 10
5.263295912067405
 20
6.069660918347764
 30
0.0670563516396214
 10
5.256786934751289
 20
6.06605533343222
 30
0.0922318288303359
 10
5.232728370467157
 20
6.053328817658357
 30
0.1496002234998741
 10
5.211623734305248
 20
6.042629749735333
 30
0.1800659474356507
 10
5.1635639486758
 20
6.021904987369905
 30
0.2281257330632798
 10
5.133131973121635
 20
6.010356989217779
 30
0.2491509705814678
 10
5.065594209165283
 20
5.993275595325878
 30
0.2774754639503953
 10
5.028388027705659
 20
5.988114889575071
 30
0.2847587772030238
 10
4.957167093445605
 20
5.988114889575071
 30
0.2847587772030238
 10
4.919960911984162
 20
5.993275595325878
 30
0.2774754639503953
 10
4.852423148029629
 20
6.01035698921778
 30
0.2491509705814678
 10
4.821991172473644
 20
6.021904987369906
 30
0.2281257330632798
 10
4.773931386846015
 20
6.042629749735333
 30
0.1800659474356507
 10
4.752826750682288
 20
6.053328817658357
 30
0.1496002234998741
 10
4.724434919015038
 20
6.068347548173478
 30
0.0818990180068795
 10
4.717187009393455
 20
6.072518134118221
 30
0.0446140870026284
 10
4.717187009393455
 20
6.072518134118221
 30
0.0091682260226662
1001
ACAD_VIEW_EDGE_ID
1071
        1
1071
       -1
1071
        3
1071
        0
  0
ARC
  5
343
330
70
100
AcDbEntity
  8
Visible
100
AcDbCircle
 10
5.580392
 20
0.009168
 30
5.386349
 40
0.4921259842519685
210
1.0
220
0.0
230
0.0000000000002969
100
AcDbArc
 50
0.0
 51
180.0
  0
ARC
  5
344
330
70
100
AcDbEntity
  8
Visible
100
AcDbCircle
 10
5.580392
 20
0.009168
 30
1.843171
 40
0.9842519685039372
210
1.0
220
-0.0000000000000004
230
0.0000000000002966
100
AcDbArc
 50
0.0
 51
180.0
  0
ARC
  5
345
330
70
100
AcDbEntity
  8
Visible
100
AcDbCircle
 10
5.580392
 20
0.009168
 30
2.040022
 40
0.9842519685039372
210
1.0
220
-0.0000000000000004
230
0.0000000000002966
100
AcDbArc
 50
0.0
 51
180.0
  0
ARC
  5
346
330
70
100
AcDbEntity
  8
Visible
100
AcDbCircle
 10
-3.890415
 20
5.580392
 30
-0.009168
 40
1.574803149606299
210
0.0000000000002969
220
0.0
230
-1.0
100
AcDbArc
 50
161.790043
 51
198.209957
  0
LINE
  5
347
330
70
100
AcDbEntity
  8
Visible
100
AcDbLine
 10
1.843171
 20
6.564644
 30
0.009168
 11
2.040022
 21
6.564644
 31
0.009168
210
0.0
220
1.0
230
0.0
  0
LINE
  5
348
330
70
100
AcDbEntity
  8
Visible
100
AcDbLine
 10
1.843171
 20
4.59614
 30
0.009168
 11
2.040022
 21
4.59614
 31
0.009168
210
0.0
220
1.0
230
0.0
  0
LINE
  5
349
330
70
100
AcDbEntity
  8
Visible
100
AcDbLine
 10
2.040022
 20
6.072518
 30
0.009168
 11
4.717187
 21
6.072518
 31
0.009168
210
0.0
220
1.0
230
0.0
  0
LINE
  5
34A
330
70
100
AcDbEntity
  8
Visible
100
AcDbLine
 10
5.269457
 20
6.072518
 30
0.009168
 11
5.386349
 21
6.072518
 31
0.009168
210
0.0
220
1.0
230
0.0
  0
LINE
  5
34B
330
70
100
AcDbEntity
  8
Visible
100
AcDbLine
 10
2.040022
 20
5.088266
 30
0.009168
 11
4.717187
 21
5.088266
 31
0.009168
210
0.0
220
1.0
230
0.0
  0
LINE
  5
34C
330
70
100
AcDbEntity
  8
Visible
100
AcDbLine
 10
5.269457
 20
5.088266
 30
0.009168
 11
5.386349
 21
5.088266
 31
0.009168
210
0.0
220
1.0
230
0.0
  0
LINE
  5
34D
330
70
100
AcDbEntity
  8
Visible
100
AcDbLine
 10
1.267266
 20
6.560488
 30
0.099523
 11
1.109785
 21
6.560488
 31
0.099523
210
0.0
220
1.0
230
0.0
  0
ARC
  5
34E
330
70
100
AcDbEntity
  8
Visible
100
AcDbCircle
 10
-5.580392
 20
0.009168
 30
-1.109785
 40
0.9842519685039489
210
-1.0
220
0.0
230
-0.0000000000002969
100
AcDbArc
 50
174.732832
 51
180.0
  0
ARC
  5
34F
330
70
100
AcDbEntity
  8
Visible
100
AcDbCircle
 10
-5.580392
 20
0.009168
 30
-1.267266
 40
0.9842519685039372
210
-1.0
220
0.0000000000000003
230
-0.0000000000002969
100
AcDbArc
 50
0.0
 51
174.732832
  0
ARC
  5
350
330
70
100
AcDbEntity
  8
Visible
100
AcDbCircle
 10
-5.580392
 20
0.009168
 30
-1.031045
 40
0.9842519685039368
210
-1.0
220
-0.0000000000000003
230
-0.0000000000002969
100
AcDbArc
 50
0.0
 51
180.0
  0
LINE
  5
351
330
70
100
AcDbEntity
  8
Visible
100
AcDbLine
 10
1.267266
 20
4.59614
 30
0.009168
 11
1.031045
 21
4.59614
 31
0.009168
210
0.0
220
1.0
230
0.0
  0
LINE
  5
352
330
70
100
AcDbEntity
  8
Visible
100
AcDbLine
 10
1.109785
 20
6.564644
 30
0.009168
 11
1.031045
 21
6.564644
 31
0.009168
210
0.0
220
1.0
230
0.0
  0
ARC
  5
353
330
70
100
AcDbEntity
  8
Visible
100
AcDbCircle
 10
5.580392
 20
0.009168
 30
1.35388
 40
0.9448818897637798
210
1.0
220
0.0000000000000003
230
0.0000000000002969
100
AcDbArc
 50
0.0
 51
180.0
  0
LINE
  5
354
330
70
100
AcDbEntity
  8
Visible
100
AcDbLine
 10
1.35388
 20
5.836298
 30
0.009168
 11
1.764431
 21
5.836298
 31
0.009168
210
0.0
220
1.0
230
0.0
  0
LINE
  5
355
330
70
100
AcDbEntity
  8
Visible
100
AcDbLine
 10
1.35388
 20
5.324487
 30
0.009168
 11
1.764431
 21
5.324487
 31
0.009168
210
0.0
220
1.0
230
0.0
  0
LINE
  5
356
330
70
100
AcDbEntity
  8
Visible
100
AcDbLine
 10
1.267266
 20
6.525274
 30
0.009168
 11
1.35388
 21
6.525274
 31
0.009168
210
0.0
220
1.0
230
0.0
  0
LINE
  5
357
330
70
100
AcDbEntity
  8
Visible
100
AcDbLine
 10
1.267266
 20
4.63551
 30
0.009168
 11
1.35388
 21
4.63551
 31
0.009168
210
0.0
220
1.0
230
0.0
  0
ARC
  5
358
330
70
100
AcDbEntity
  8
Visible
100
AcDbCircle
 10
-4.994015
 20
0.000127
 30
4.12077
 40
0.2755905511811028
210
0.0
220
1.0
230
0.0
100
AcDbArc
 50
0.0
 51
180.0
  0
SPLINE
  5
359
330
70
100
AcDbEntity
  8
Visible
100
AcDbSpline
 70
     0
 71
     3
 72
    16
 73
    12
 74
     0
 42
0.000000001
 43
0.0000000001
 40
-2.713057740836204
 40
-2.713057740836204
 40
-2.713057740836204
 40
-2.713057740836204
 40
-1.883382335599278
 40
-1.883382335599278
 40
-1.049940887175051
 40
-1.049940887175051
 40
-0.5290399819099097
 40
-0.5290399819099097
 40
-0.203476916119196
 40
-0.203476916119196
 40
0.0
 40
0.0
 40
0.0
 40
0.0
 10
4.59700388226156
 20
7.953439702337231
 30
0.8072139968135161
 10
4.59700388226156
 20
7.953439702337231
 30
0.9160952835900388
 10
4.662710595635871
 20
7.923311345589256
 30
1.022557661621249
 10
4.869620454515825
 20
7.876956326636115
 30
1.146412948462966
 10
5.012781343906681
 20
7.868122422858302
 30
1.162601322448608
 10
5.207686925888992
 20
7.894267409616293
 30
1.100620403625725
 10
5.272570641040147
 20
7.9116684365179
 30
1.057805952612397
 10
5.347028241563748
 20
7.936025314312434
 30
0.967822024875204
 10
5.367990446504336
 20
7.9441960477954
 30
0.9286968735304981
 10
5.387256148183951
 20
7.951864466366936
 30
0.8609315040230285
 10
5.391025204817196
 20
7.953439702337231
 30
0.8339170041799661
 10
5.391025204817196
 20
7.953439702337231
 30
0.8072139968135161
1001
ACAD_VIEW_EDGE_ID
1071
       10
1071
       -1
1071
        7
1071
        0
  0
ARC
  5
35A
330
70
100
AcDbEntity
  8
Visible
100
AcDbCircle
 10
-5.476294
 20
8.0943
 30
-0.807214
 40
0.0098425196850393
210
0.0000000000002969
220
0.0
230
-1.0
100
AcDbArc
 50
59.658692
 51
180.451387
  0
ARC
  5
35B
330
70
100
AcDbEntity
  8
Visible
100
AcDbCircle
 10
4.511736
 20
8.0943
 30
0.807214
 40
0.0098425196850393
100
AcDbArc
 50
59.658692
 51
180.451387
  0
SPLINE
  5
35C
330
70
100
AcDbEntity
  8
Visible
100
AcDbSpline
 70
     0
 71
     3
 72
    29
 73
    25
 74
     0
 42
0.000000001
 43
0.0000000001
 40
0.0
 40
0.0
 40
0.0
 40
0.0
 40
0.315267714431367
 40
0.315267714431367
 40
0.315267714431367
 40
0.760903369534942
 40
0.760903369534942
 40
0.760903369534942
 40
1.248061815720205
 40
1.248061815720205
 40
1.248061815720205
 40
1.787775623102103
 40
1.787775623102103
 40
1.787775623102103
 40
2.410598074563843
 40
2.410598074563843
 40
2.410598074563843
 40
3.068649729818581
 40
3.068649729818581
 40
3.068649729818581
 40
3.743434134107807
 40
3.743434134107807
 40
3.743434134107807
 40
3.851739926331437
 40
3.851739926331437
 40
3.851739926331437
 40
3.851739926331437
 10
5.471321600172814
 20
8.102793982167774
 30
0.8072139968135161
 10
5.471321600172814
 20
8.102793982167774
 30
0.8485877126186096
 10
5.466024536288387
 20
8.099628184014537
 30
0.8899430314413621
 10
5.455531158057056
 20
8.093754497748451
 30
0.9298028369485109
 10
5.44069861013304
 20
8.085451953887332
 30
0.9861452714158076
 10
5.415619579698613
 20
8.071851107593777
 30
1.038712071629561
 10
5.382097323565176
 20
8.056750339871619
 30
1.084372577532121
 10
5.345451579392829
 20
8.040242534772355
 30
1.134287571660024
 10
5.298849186241568
 20
8.022163637388775
 30
1.175927378926644
 10
5.24512618360859
 20
8.0073536437819
 30
1.207293504447079
 10
5.185607465371504
 20
7.990945926540293
 30
1.242043453175938
 10
5.117813398301223
 20
7.978892812372187
 30
1.263833481278197
 10
5.04771829254787
 20
7.974902403668155
 30
1.271174460816837
 10
4.966829486289498
 20
7.970297525865536
 30
1.279645852153407
 10
4.883630644239019
 20
7.976794359738599
 30
1.268555759776063
 10
4.809364082750107
 20
7.991592988157778
 30
1.239441149677077
 10
4.730896722423494
 20
8.007228683216434
 30
1.20867970663312
 10
4.661722167729749
 20
8.031986528490579
 30
1.157612306624287
 10
4.610895732848803
 20
8.054531379813804
 30
1.091004344569228
 10
4.558776897934876
 20
8.077649495159995
 30
1.022702694330291
 10
4.526360199351984
 20
8.097170886738746
 30
0.9381119251247582
 10
4.518581053964226
 20
8.101700231007267
 30
0.8498413741999684
 10
4.517332467750748
 20
8.102427210196674
 30
0.8356735720299184
 10
4.516707486905943
 20
8.102793982167774
 30
0.821427355373089
 10
4.516707486905943
 20
8.102793982167774
 30
0.8072139968135161
1001
ACAD_VIEW_EDGE_ID
1071
       22
1071
       -1
1071
        7
1071
        0
  0
ARC
  5
35D
330
70
100
AcDbEntity
  8
Visible
100
AcDbCircle
 10
-5.332597
 20
8.095432
 30
-0.807214
 40
0.1535433070866157
210
0.000000000000298
220
0.0000000000000017
230
-1.0
100
AcDbArc
 50
180.451387
 51
247.633424
  0
ARC
  5
35E
330
70
100
AcDbEntity
  8
Visible
100
AcDbCircle
 10
4.655432
 20
8.095432
 30
0.807214
 40
0.1535433070866129
100
AcDbArc
 50
180.451387
 51
247.633424
  0
ARC
  5
35F
330
70
100
AcDbEntity
  8
Visible
100
AcDbCircle
 10
-4.994015
 20
4.528493
 30
-0.000127
 40
0.4921259842519686
210
0.0000000000002969
220
0.0
230
-1.0
100
AcDbArc
 50
235.944202
 51
304.055798
  0
ARC
  5
360
330
70
100
AcDbEntity
  8
Visible
100
AcDbCircle
 10
5.348345
 20
7.853626
 30
0.000127
 40
0.078740157480315
100
AcDbArc
 50
108.40848
 51
180.0
  0
ARC
  5
361
330
70
100
AcDbEntity
  8
Visible
100
AcDbCircle
 10
-4.639684
 20
7.853626
 30
-0.000127
 40
0.078740157480315
210
0.0000000000023096
220
-0.0000000000006699
230
-1.0
100
AcDbArc
 50
108.40848
 51
180.0
  0
LINE
  5
362
330
70
100
AcDbEntity
  8
Visible
100
AcDbLine
 10
4.718424
 20
4.12077
 30
0.000127
 11
4.718424
 21
5.088958
 31
0.000127
210
0.0
220
1.0
230
0.0
  0
LINE
  5
363
330
70
100
AcDbEntity
  8
Visible
100
AcDbLine
 10
4.718424
 20
6.071826
 30
0.000127
 11
4.718424
 21
7.853626
 31
0.000127
210
0.0
220
1.0
230
0.0
  0
LINE
  5
364
330
70
100
AcDbEntity
  8
Visible
100
AcDbLine
 10
5.269605
 20
4.12077
 30
0.000127
 11
5.269605
 21
5.088266
 31
0.000127
210
0.0
220
1.0
230
0.0
  0
LINE
  5
365
330
70
100
AcDbEntity
  8
Visible
100
AcDbLine
 10
5.269605
 20
6.072518
 30
0.000127
 11
5.269605
 21
7.853626
 31
0.000127
210
0.0
220
1.0
230
0.0
  0
ARC
  5
366
330
70
100
AcDbEntity
  8
Visible
100
AcDbCircle
 10
13.795247
 20
-0.490476
 30
-7.513166
 40
0.9448818897637799
210
-0.0000000000000001
220
-1.0
230
-0.000000000000002
100
AcDbArc
 50
0.0
 51
180.0
  0
LINE
  5
367
330
70
100
AcDbEntity
  8
Visible
100
AcDbLine
 10
14.740129
 20
7.513166
 30
-0.490476
 11
14.740129
 21
7.434426
 31
-0.490476
  0
LINE
  5
368
330
70
100
AcDbEntity
  8
Visible
100
AcDbLine
 10
12.850365
 20
7.513166
 30
-0.490476
 11
12.850365
 21
7.434426
 31
-0.490476
  0
ARC
  5
369
330
70
100
AcDbEntity
  8
Visible
100
AcDbCircle
 10
13.795247
 20
-0.490476
 30
-7.434426
 40
0.9842519685039372
210
0.0000000000000002
220
-1.0
230
-0.0000000000000004
100
AcDbArc
 50
0.0
 51
180.0
  0
ARC
  5
36A
330
70
100
AcDbEntity
  8
Visible
100
AcDbCircle
 10
13.795247
 20
-0.490476
 30
-7.237575
 40
0.9842519685039372
210
0.0000000000000002
220
-1.0
230
-0.0000000000000004
100
AcDbArc
 50
0.0
 51
180.0
  0
LINE
  5
36B
330
70
100
AcDbEntity
  8
Visible
100
AcDbLine
 10
14.779499
 20
7.434426
 30
-0.490476
 11
14.779499
 21
7.237575
 31
-0.490476
  0
LINE
  5
36C
330
70
100
AcDbEntity
  8
Visible
100
AcDbLine
 10
12.810995
 20
7.434426
 30
-0.490476
 11
12.810995
 21
7.237575
 31
-0.490476
  0
LINE
  5
36D
330
70
100
AcDbEntity
  8
Visible
100
AcDbLine
 10
14.287373
 20
7.237575
 30
-0.490476
 11
14.287373
 21
4.775704
 31
-0.490476
  0
LINE
  5
36E
330
70
100
AcDbEntity
  8
Visible
100
AcDbLine
 10
13.303121
 20
7.237575
 30
-0.490476
 11
13.303121
 21
4.775704
 31
-0.490476
  0
LINE
  5
36F
330
70
100
AcDbEntity
  8
Visible
100
AcDbLine
 10
13.885601
 20
8.167812
 30
0.48962
 11
13.885601
 21
8.010331
 31
0.48962
  0
LINE
  5
370
330
70
100
AcDbEntity
  8
Visible
100
AcDbLine
 10
13.704892
 20
8.010331
 30
0.48962
 11
13.704892
 21
8.167812
 31
0.48962
  0
ARC
  5
371
330
70
100
AcDbEntity
  8
Visible
100
AcDbCircle
 10
-13.795247
 20
-0.490476
 30
8.167812
 40
0.9842519685039228
210
0.0
220
1.0
230
0.0
100
AcDbArc
 50
84.732832
 51
95.267168
  0
ARC
  5
372
330
70
100
AcDbEntity
  8
Visible
100
AcDbCircle
 10
-13.795247
 20
-0.490476
 30
8.010331
 40
0.984251968503937
210
0.0
220
1.0
230
0.0000000000000003
100
AcDbArc
 50
95.267168
 51
180.0
  0
ARC
  5
373
330
70
100
AcDbEntity
  8
Visible
100
AcDbCircle
 10
-13.795247
 20
-0.490476
 30
8.010331
 40
0.9842519685039366
210
0.0
220
1.0
230
0.0000000000000003
100
AcDbArc
 50
360.0
 51
84.732832
  0
ARC
  5
374
330
70
100
AcDbEntity
  8
Visible
100
AcDbCircle
 10
-13.795247
 20
-0.490476
 30
8.246552
 40
0.9842519685039368
210
0.0
220
1.0
230
-0.0000000000000002
100
AcDbArc
 50
0.0
 51
180.0
  0
LINE
  5
375
330
70
100
AcDbEntity
  8
Visible
100
AcDbLine
 10
12.810995
 20
8.010331
 30
-0.490476
 11
12.810995
 21
8.246552
 31
-0.490476
  0
LINE
  5
376
330
70
100
AcDbEntity
  8
Visible
100
AcDbLine
 10
14.779499
 20
8.010331
 30
-0.490476
 11
14.779499
 21
8.246552
 31
-0.490476
  0
ARC
  5
377
330
70
100
AcDbEntity
  8
Visible
100
AcDbCircle
 10
13.795247
 20
-0.490476
 30
-7.923717
 40
0.9448818897637798
210
0.0
220
-1.0
230
0.0000000000000003
100
AcDbArc
 50
360.0
 51
180.0
  0
ARC
  5
378
330
70
100
AcDbEntity
  8
Visible
100
AcDbCircle
 10
13.795247
 20
-0.490476
 30
-8.010331
 40
0.9448818897637838
210
0.0
220
-1.0
230
0.0000000000000003
100
AcDbArc
 50
84.512707
 51
95.487293
  0
LINE
  5
379
330
70
100
AcDbEntity
  8
Visible
100
AcDbLine
 10
14.051152
 20
7.923717
 30
-0.490476
 11
14.051152
 21
7.513166
 31
-0.490476
  0
LINE
  5
37A
330
70
100
AcDbEntity
  8
Visible
100
AcDbLine
 10
13.539341
 20
7.923717
 30
-0.490476
 11
13.539341
 21
7.513166
 31
-0.490476
  0
LINE
  5
37B
330
70
100
AcDbEntity
  8
Visible
100
AcDbLine
 10
14.740129
 20
8.010331
 30
-0.490476
 11
14.740129
 21
7.923717
 31
-0.490476
  0
LINE
  5
37C
330
70
100
AcDbEntity
  8
Visible
100
AcDbLine
 10
12.850365
 20
8.010331
 30
-0.490476
 11
12.850365
 21
7.923717
 31
-0.490476
  0
SPLINE
  5
37D
330
70
100
AcDbEntity
  8
Visible
100
AcDbSpline
 70
     3
 71
     3
 72
    38
 73
    34
 74
     0
 42
0.000000001
 43
0.0000000001
 40
0.0
 40
0.0
 40
0.0
 40
0.0
 40
0.1053491931344002
 40
0.1053491931344002
 40
0.2106983862688004
 40
0.2106983862688004
 40
0.3160469185541582
 40
0.3160469185541582
 40
0.421395450839516
 40
0.421395450839516
 40
0.5267439831248739
 40
0.5267439831248739
 40
0.6320925154102318
 40
0.6320925154102318
 40
0.7374417085446319
 40
0.7374417085446319
 40
0.8427909016790319
 40
0.8427909016790319
 40
0.9481400948134316
 40
0.9481400948134316
 40
1.053489287947831
 40
1.053489287947831
 40
1.158837820233189
 40
1.158837820233189
 40
1.264186352518547
 40
1.264186352518547
 40
1.369534884803905
 40
1.369534884803905
 40
1.474883417089262
 40
1.474883417089262
 40
1.580232610223663
 40
1.580232610223663
 40
1.685581803358063
 40
1.685581803358063
 40
1.685581803358063
 40
1.685581803358063
 10
12.91919557331312
 20
4.173582540970528
 30
1.908932059218692
 10
12.90537021988348
 20
4.173582540970528
 30
1.908932059218692
 10
12.8906319806174
 20
4.176348110402614
 30
1.908595038314472
 10
12.86353400805637
 20
4.187577893684647
 30
1.90738025927057
 10
12.85117319651908
 20
4.196041425904695
 30
1.906520317839583
 10
12.83165451946479
 20
4.215560102957169
 30
1.904908087721327
 10
12.82319093932892
 20
4.227920941182674
 30
1.904050696000191
 10
12.8119611207403
 20
4.255019003801862
 30
1.902841757472965
 10
12.80919557331253
 20
4.269757274267249
 30
1.902507299857559
 10
12.80919557331253
 20
4.297407807674971
 30
1.902507299857559
 10
12.8119611207403
 20
4.312146078140358
 30
1.902841757472965
 10
12.82319093932892
 20
4.339244140759547
 30
1.904050696000191
 10
12.83165451946479
 20
4.351604978985051
 30
1.904908087721327
 10
12.85117319651908
 20
4.371123656037525
 30
1.906520317839582
 10
12.86353400805637
 20
4.379587188259392
 30
1.907380259270569
 10
12.8906319806174
 20
4.390816971541426
 30
1.908595038314472
 10
12.90537021988348
 20
4.393582540971692
 30
1.908932059218692
 10
12.93302092674275
 20
4.393582540971692
 30
1.908932059218692
 10
12.94775916600883
 20
4.390816971541426
 30
1.908595038314472
 10
12.97485713856986
 20
4.379587188259392
 30
1.907380259270569
 10
12.98721795010715
 20
4.371123656037525
 30
1.906520317839582
 10
13.00673662715962
 20
4.351604978985051
 30
1.904908087721327
 10
13.01520020729731
 20
4.339244140759547
 30
1.904050696000191
 10
13.02643002588593
 20
4.312146078140358
 30
1.902841757472965
 10
13.0291955733137
 20
4.297407807674971
 30
1.902507299857559
 10
13.0291955733137
 20
4.269757274267249
 30
1.902507299857559
 10
13.02643002588593
 20
4.255019003801862
 30
1.902841757472965
 10
13.01520020729731
 20
4.227920941182674
 30
1.904050696000191
 10
13.00673662715962
 20
4.215560102957169
 30
1.904908087721327
 10
12.98721795010715
 20
4.196041425904695
 30
1.906520317839583
 10
12.97485713856986
 20
4.187577893684647
 30
1.907380259270569
 10
12.94775916600883
 20
4.176348110402614
 30
1.908595038314472
 10
12.93302092674275
 20
4.173582540970528
 30
1.908932059218692
 10
12.91919557331312
 20
4.173582540970528
 30
1.908932059218692
1001
ACAD_VIEW_EDGE_ID
1071
        1
1071
       -1
1071
        7
1071
        0
  0
SPLINE
  5
37E
330
70
100
AcDbEntity
  8
Visible
100
AcDbSpline
 70
     3
 71
     3
 72
    38
 73
    34
 74
     0
 42
0.000000001
 43
0.0000000001
 40
0.0
 40
0.0
 40
0.0
 40
0.0
 40
0.1053491931344001
 40
0.1053491931344001
 40
0.2106983862688001
 40
0.2106983862688001
 40
0.3160469185541579
 40
0.3160469185541579
 40
0.4213954508395157
 40
0.4213954508395157
 40
0.5267439831248736
 40
0.5267439831248736
 40
0.6320925154102315
 40
0.6320925154102315
 40
0.7374417085446315
 40
0.7374417085446315
 40
0.8427909016790312
 40
0.8427909016790312
 40
0.9481400948134313
 40
0.9481400948134313
 40
1.053489287947831
 40
1.053489287947831
 40
1.158837820233189
 40
1.158837820233189
 40
1.264186352518546
 40
1.264186352518546
 40
1.369534884803904
 40
1.369534884803904
 40
1.474883417089262
 40
1.474883417089262
 40
1.580232610223662
 40
1.580232610223662
 40
1.685581803358062
 40
1.685581803358062
 40
1.685581803358062
 40
1.685581803358062
 10
14.61355426406953
 20
4.173582540970528
 30
1.908932059218693
 10
14.5997289106399
 20
4.173582540970528
 30
1.908932059218693
 10
14.58499067137381
 20
4.176348110402614
 30
1.908595038314474
 10
14.55789269881279
 20
4.187577893684647
 30
1.907380259270571
 10
14.5455318872755
 20
4.196041425904695
 30
1.906520317839585
 10
14.52601321022302
 20
4.215560102957169
 30
1.904908087721329
 10
14.51754963008534
 20
4.227920941182674
 30
1.904050696000193
 10
14.50631981149672
 20
4.255019003801862
 30
1.902841757472967
 10
14.50355426406895
 20
4.269757274267249
 30
1.902507299857561
 10
14.50355426406895
 20
4.297407807674971
 30
1.902507299857561
 10
14.50631981149672
 20
4.312146078140358
 30
1.902841757472967
 10
14.51754963008534
 20
4.339244140759547
 30
1.904050696000193
 10
14.52601321022302
 20
4.351604978985051
 30
1.90490808772133
 10
14.5455318872755
 20
4.371123656037525
 30
1.906520317839585
 10
14.55789269881279
 20
4.379587188259392
 30
1.907380259270571
 10
14.58499067137381
 20
4.390816971541426
 30
1.908595038314474
 10
14.5997289106399
 20
4.393582540971692
 30
1.908932059218694
 10
14.62737961749917
 20
4.393582540971692
 30
1.908932059218694
 10
14.64211785676525
 20
4.390816971541426
 30
1.908595038314474
 10
14.66921582932627
 20
4.379587188259392
 30
1.907380259270571
 10
14.68157664086357
 20
4.371123656037525
 30
1.906520317839585
 10
14.70109531791786
 20
4.351604978985051
 30
1.90490808772133
 10
14.70955889805373
 20
4.339244140759547
 30
1.904050696000193
 10
14.72078871664234
 20
4.312146078140358
 30
1.902841757472968
 10
14.72355426407012
 20
4.297407807674971
 30
1.902507299857562
 10
14.72355426407012
 20
4.269757274267249
 30
1.902507299857562
 10
14.72078871664234
 20
4.255019003801862
 30
1.902841757472968
 10
14.70955889805373
 20
4.227920941182674
 30
1.904050696000193
 10
14.70109531791786
 20
4.215560102957169
 30
1.90490808772133
 10
14.68157664086357
 20
4.196041425904695
 30
1.906520317839585
 10
14.66921582932627
 20
4.187577893684647
 30
1.907380259270571
 10
14.64211785676525
 20
4.176348110402614
 30
1.908595038314474
 10
14.62737961749917
 20
4.173582540970528
 30
1.908932059218693
 10
14.61355426406953
 20
4.173582540970528
 30
1.908932059218693
1001
ACAD_VIEW_EDGE_ID
1071
        3
1071
       -1
1071
        7
1071
        0
  0
LINE
  5
37F
330
70
100
AcDbEntity
  8
Visible
100
AcDbLine
 10
14.611374
 20
3.791461
 30
2.023432
 11
12.997201
 21
3.791461
 31
2.023432
  0
SPLINE
  5
380
330
70
100
AcDbEntity
  8
Visible
100
AcDbSpline
 70
     0
 71
     3
 72
    86
 73
    82
 74
     0
 42
0.000000001
 43
0.0000000001
 40
0.0
 40
0.0
 40
0.0
 40
0.0
 40
0.0848090951305933
 40
0.0848090951305933
 40
0.1696735238252281
 40
0.1696735238252281
 40
0.2553126282512645
 40
0.2553126282512645
 40
0.3417915458342242
 40
0.3417915458342242
 40
0.429425456653909
 40
0.429425456653909
 40
0.5187415444252718
 40
0.5187415444252718
 40
0.6102157542739444
 40
0.6102157542739444
 40
0.7037874580936279
 40
0.7037874580936279
 40
0.7986721275596845
 40
0.7986721275596845
 40
0.8948355119720398
 40
0.8948355119720398
 40
0.992193170452753
 40
0.992193170452753
 40
1.090627302534826
 40
1.090627302534826
 40
1.189238981077168
 40
1.189238981077168
 40
1.287222328144321
 40
1.287222328144321
 40
1.384601371654374
 40
1.384601371654374
 40
1.481504026258521
 40
1.481504026258521
 40
1.577922216250977
 40
1.577922216250977
 40
1.673058007888538
 40
1.673058007888538
 40
1.767362979523617
 40
1.767362979523617
 40
1.861333484838337
 40
1.861333484838337
 40
1.955469490471503
 40
1.955469490471503
 40
2.049289175593979
 40
2.049289175593979
 40
2.143058142687108
 40
2.143058142687108
 40
2.237308128437848
 40
2.237308128437848
 40
2.33254535425544
 40
2.33254535425544
 40
2.428330130637964
 40
2.428330130637964
 40
2.524522406579981
 40
2.524522406579981
 40
2.621389037976731
 40
2.621389037976731
 40
2.719121607153542
 40
2.719121607153542
 40
2.817799239311641
 40
2.817799239311641
 40
2.916213241640038
 40
2.916213241640038
 40
3.013843244789569
 40
3.013843244789569
 40
3.110549327990065
 40
3.110549327990065
 40
3.206198516468347
 40
3.206198516468347
 40
3.30066813160688
 40
3.30066813160688
 40
3.392577405559996
 40
3.392577405559996
 40
3.482288113247169
 40
3.482288113247169
 40
3.570260445223187
 40
3.570260445223187
 40
3.711000185777312
 40
3.711000185777312
 40
3.851739926331436
 40
3.851739926331436
 40
3.851739926331436
 40
3.851739926331436
 10
14.61137410589617
 20
4.775704065796162
 30
2.023431873251899
 10
14.6227315817614
 20
4.775704065796162
 30
2.023431873251899
 10
14.63410956634288
 20
4.77530935532377
 30
2.023205102445357
 10
14.65680614475604
 20
4.7737290787245
 30
2.022301639923735
 10
14.66812439922796
 20
4.772542997430718
 30
2.021624680959279
 10
14.69068860275365
 20
4.769379780316739
 30
2.019833916616605
 10
14.70193870001458
 20
4.767396459748852
 30
2.018716689170709
 10
14.72441881333361
 20
4.762605035759406
 30
2.016048602649437
 10
14.73562977661458
 20
4.759791107204364
 30
2.01449483247285
 10
14.75793287840679
 20
4.753325663430587
 30
2.010978111616558
 10
14.76902116147357
 20
4.74966346245128
 30
2.009010061124418
 10
14.79103297179972
 20
4.741480234653863
 30
2.004693661231564
 10
14.80194901153481
 20
4.736944140075138
 30
2.002338886967046
 10
14.82355595723129
 20
4.726994568965892
 30
1.997288434577247
 10
14.83421025713687
 20
4.721577251570124
 30
1.994593038961433
 10
14.85531649003315
 20
4.709796993653071
 30
1.988885631956459
 10
14.86575865191116
 20
4.703411644537482
 30
1.985866422798008
 10
14.88624096860076
 20
4.689730428053735
 30
1.979598003686558
 10
14.89627319749888
 20
4.682423069920332
 30
1.976346312714822
 10
14.91582637262581
 20
4.666926740894268
 30
1.969696865175866
 10
14.92533842775628
 20
4.658727311298207
 30
1.966297911135081
 10
14.94374309435079
 20
4.641501370193509
 30
1.959448536798247
 10
14.95262641197041
 20
4.63246602865729
 30
1.955998190534689
 10
14.96967615329777
 20
4.613645865241778
 30
1.949144810658396
 10
14.97782201542941
 20
4.603872528121428
 30
1.945748220949137
 10
14.99339789332953
 20
4.583552269370557
 30
1.939062008763006
 10
15.00080817362504
 20
4.573021515496293
 30
1.935779672350401
 10
15.0147477975097
 20
4.551394618416452
 30
1.929452408553589
 10
15.02128231433562
 20
4.540302689574673
 30
1.926406264433128
 10
15.03343478983879
 20
4.517664543081991
 30
1.920627012903842
 10
15.03905808392483
 20
4.506121789196186
 30
1.917892212958495
 10
15.04937491103374
 20
4.482684834289102
 30
1.912794105403387
 10
15.05406614759886
 20
4.470812455569102
 30
1.910432544278727
 10
15.06254384112253
 20
4.446741099465725
 30
1.90611175535298
 10
15.06634604463943
 20
4.434506270283236
 30
1.904144618925507
 10
15.07300900596783
 20
4.409853409973948
 30
1.900665333674042
 10
15.07588150049196
 20
4.397440248983912
 30
1.899147593275314
 10
15.08070325562039
 20
4.372503737477018
 30
1.896584188962423
 10
15.08266033144173
 20
4.359982574762398
 30
1.895534568180413
 10
15.08567092421981
 20
4.334890189753423
 30
1.893914653688261
 10
15.08672766876953
 20
4.322319602873903
 30
1.893342661464803
 10
15.0879547659606
 20
4.297178243195958
 30
1.892678123629703
 10
15.08812667819438
 20
4.284582487012812
 30
1.892584726261436
 10
15.08758025805036
 20
4.259358119767057
 30
1.892880948733055
 10
15.08686346083414
 20
4.246753125908071
 30
1.893269737889514
 10
15.08454147465272
 20
4.221642276055717
 30
1.894523041186964
 10
15.08293676694302
 20
4.209136654764733
 30
1.89538728028116
 10
15.07884416818524
 20
4.184274488794471
 30
1.897574690706065
 10
15.07635186633888
 20
4.171919310549128
 30
1.898900116308706
 10
15.07048604136616
 20
4.147409633256756
 30
1.901987217742019
 10
15.06710674894748
 20
4.13525913821104
 30
1.903751770143693
 10
15.05942048859833
 20
4.111105842388496
 30
1.90771111748589
 10
15.0551141847518
 20
4.09913253986997
 30
1.909905165771971
 10
15.04559864032489
 20
4.075522538578297
 30
1.914671652968767
 10
15.0403856602079
 20
4.063887760550642
 30
1.917245582816642
 10
15.02906825928403
 20
4.041037530918401
 30
1.922719783740396
 10
15.02295793458324
 20
4.029825811961927
 30
1.925622088361457
 10
15.00986940061921
 20
4.007911219137895
 30
1.931688277221605
 10
15.00288408574306
 20
3.997213968596042
 30
1.934854100493668
 10
14.98808529523012
 20
3.976422137373447
 30
1.941369803681227
 10
14.98025618868814
 20
3.966317355110732
 30
1.944725486216078
 10
14.96374375924643
 20
3.946731427757185
 30
1.951563439678268
 10
14.95508051136858
 20
3.93727466985365
 30
1.955037318309823
 10
14.93704968236125
 20
3.919174899076097
 30
1.961981008724247
 10
14.92768839468772
 20
3.910526178457075
 30
1.965450446473075
 10
14.90836797056727
 20
3.894117444209769
 30
1.972282122787632
 10
14.89841551575955
 20
3.886349891177815
 30
1.97564488190484
 10
14.8780292467818
 20
3.871753144721878
 30
1.982166861082071
 10
14.86760426628825
 20
3.864915931502764
 30
1.985327138428011
 10
14.84638197970162
 20
3.852197834421531
 30
1.99136331806807
 10
14.83551208396238
 20
3.846259548281523
 30
1.994264570291197
 10
14.81351317485496
 20
3.835373393851114
 30
1.999702882722043
 10
14.80239940083993
 20
3.830403208256029
 30
2.002247459714915
 10
14.78001205544569
 20
3.821426581294872
 30
2.006925284819227
 10
14.76874891745319
 20
3.817399993198705
 30
2.00906675718394
 10
14.74613841986502
 20
3.810270091385973
 30
2.012910219128116
 10
14.73479720108844
 20
3.807150387825458
 30
2.014619830416599
 10
14.70506355639554
 20
3.800132893258705
 30
2.01850261272813
 10
14.68656640758672
 20
3.796894184468328
 30
2.020335075226133
 10
14.6491285010652
 20
3.792551139329589
 30
2.022803818358284
 10
14.63022170949443
 20
3.791461016146058
 30
2.023431873251899
 10
14.61137410589617
 20
3.791461016146058
 30
2.023431873251899
1001
ACAD_VIEW_EDGE_ID
1071
   -14337
1071
       -1
1071
        7
1071
        0
  0
SPLINE
  5
381
330
70
100
AcDbEntity
  8
Visible
100
AcDbSpline
 70
     0
 71
     3
 72
    86
 73
    82
 74
     0
 42
0.000000001
 43
0.0000000001
 40
-3.851739926331437
 40
-3.851739926331437
 40
-3.851739926331437
 40
-3.851739926331437
 40
-3.766930831200876
 40
-3.766930831200876
 40
-3.682066402506234
 40
-3.682066402506234
 40
-3.596427298080196
 40
-3.596427298080196
 40
-3.509948380497241
 40
-3.509948380497241
 40
-3.422314469677551
 40
-3.422314469677551
 40
-3.332998381906197
 40
-3.332998381906197
 40
-3.241524172057538
 40
-3.241524172057538
 40
-3.147952468237853
 40
-3.147952468237853
 40
-3.053067798771801
 40
-3.053067798771801
 40
-2.9569044143595
 40
-2.9569044143595
 40
-2.8595467558788
 40
-2.8595467558788
 40
-2.761112623796739
 40
-2.761112623796739
 40
-2.662500945254377
 40
-2.662500945254377
 40
-2.564517598187197
 40
-2.564517598187197
 40
-2.467138554677134
 40
-2.467138554677134
 40
-2.370235900072962
 40
-2.370235900072962
 40
-2.273817710080471
 40
-2.273817710080471
 40
-2.178681918442893
 40
-2.178681918442893
 40
-2.084376946807818
 40
-2.084376946807818
 40
-1.990406441493091
 40
-1.990406441493091
 40
-1.896270435859922
 40
-1.896270435859922
 40
-1.802450750737454
 40
-1.802450750737454
 40
-1.70868178364432
 40
-1.70868178364432
 40
-1.614431797893578
 40
-1.614431797893578
 40
-1.519194572076012
 40
-1.519194572076012
 40
-1.423409795693487
 40
-1.423409795693487
 40
-1.327217519751474
 40
-1.327217519751474
 40
-1.230350888354723
 40
-1.230350888354723
 40
-1.132618319177927
 40
-1.132618319177927
 40
-1.033940687019818
 40
-1.033940687019818
 40
-0.9355266846914112
 40
-0.9355266846914112
 40
-0.8378966815418582
 40
-0.8378966815418582
 40
-0.7411905983413566
 40
-0.7411905983413566
 40
-0.6455414098630678
 40
-0.6455414098630678
 40
-0.5510717947245072
 40
-0.5510717947245072
 40
-0.4591625207713884
 40
-0.4591625207713884
 40
-0.3694518130842137
 40
-0.3694518130842137
 40
-0.2814794811082001
 40
-0.2814794811082001
 40
-0.1407397405540996
 40
-0.1407397405540996
 40
0.0000000000000009
 40
0.0000000000000009
 40
0.0000000000000009
 40
0.0000000000000009
 10
12.99720087755122
 20
4.775704065796162
 30
2.023431873251897
 10
12.985843401686
 20
4.775704065796162
 30
2.023431873251897
 10
12.97446541710451
 20
4.77530935532377
 30
2.023205102445356
 10
12.95176883869135
 20
4.7737290787245
 30
2.022301639923734
 10
12.94045058421761
 20
4.772542997430718
 30
2.021624680959277
 10
12.91788638069374
 20
4.769379780316739
 30
2.019833916616604
 10
12.90663628343281
 20
4.767396459748852
 30
2.018716689170707
 10
12.88415617011378
 20
4.762605035759406
 30
2.016048602649436
 10
12.87294520683281
 20
4.759791107204364
 30
2.01449483247285
 10
12.8506421050406
 20
4.753325663430587
 30
2.010978111616558
 10
12.83955382197382
 20
4.74966346245128
 30
2.009010061124417
 10
12.81754201164767
 20
4.741480234653863
 30
2.004693661231564
 10
12.80662597191258
 20
4.736944140075138
 30
2.002338886967046
 10
12.7850190262161
 20
4.726994568965892
 30
1.997288434577248
 10
12.77436472631052
 20
4.721577251570124
 30
1.994593038961434
 10
12.75325849341425
 20
4.709796993653071
 30
1.988885631956461
 10
12.74281633153623
 20
4.703411644537482
 30
1.985866422798011
 10
12.72233401484664
 20
4.689730428053735
 30
1.979598003686561
 10
12.71230178594851
 20
4.682423069920332
 30
1.976346312714825
 10
12.69274861082158
 20
4.666926740894268
 30
1.969696865175871
 10
12.68323655569111
 20
4.658727311298207
 30
1.966297911135088
 10
12.6648318890966
 20
4.641501370193509
 30
1.959448536798256
 10
12.65594857147698
 20
4.63246602865729
 30
1.955998190534699
 10
12.63889883014963
 20
4.613645865241778
 30
1.949144810658406
 10
12.63075296801799
 20
4.603872528121428
 30
1.945748220949148
 10
12.61517709011787
 20
4.583552269370557
 30
1.939062008763016
 10
12.60776680982235
 20
4.573021515496293
 30
1.93577967235041
 10
12.5938271859377
 20
4.551394618416452
 30
1.929452408553596
 10
12.58729266910995
 20
4.540302689574673
 30
1.926406264433134
 10
12.5751401936086
 20
4.517664543081991
 30
1.920627012903846
 10
12.56951689952075
 20
4.506121789196186
 30
1.917892212958499
 10
12.55920007241366
 20
4.482684834289102
 30
1.912794105403389
 10
12.55450883584854
 20
4.470812455569102
 30
1.910432544278728
 10
12.54603114232486
 20
4.446741099465725
 30
1.906111755352979
 10
12.54222893880796
 20
4.434506270283236
 30
1.904144618925506
 10
12.53556597747956
 20
4.409853409973948
 30
1.900665333674039
 10
12.53269348295544
 20
4.397440248983912
 30
1.899147593275311
 10
12.527871727827
 20
4.372503737477018
 30
1.89658418896242
 10
12.52591465200566
 20
4.359982574762398
 30
1.89553456818041
 10
12.52290405922758
 20
4.334890189753423
 30
1.893914653688258
 10
12.52184731467787
 20
4.322319602873903
 30
1.8933426614648
 10
12.52062021748679
 20
4.297178243195958
 30
1.8926781236297
 10
12.52044830525301
 20
4.284582487012812
 30
1.892584726261433
 10
12.52099472539703
 20
4.259358119767057
 30
1.892880948733053
 10
12.52171152261326
 20
4.246753125908071
 30
1.893269737889512
 10
12.52403350879467
 20
4.221642276055717
 30
1.894523041186961
 10
12.52563821650438
 20
4.209136654764733
 30
1.895387280281157
 10
12.52973081526215
 20
4.184274488794471
 30
1.897574690706062
 10
12.53222311710851
 20
4.171919310549128
 30
1.898900116308703
 10
12.53808894208123
 20
4.147409633256756
 30
1.901987217742016
 10
12.54146823449991
 20
4.13525913821104
 30
1.90375177014369
 10
12.54915449484906
 20
4.111105842388496
 30
1.907711117485886
 10
12.55346079869559
 20
4.09913253986997
 30
1.909905165771967
 10
12.5629763431225
 20
4.075522538578297
 30
1.914671652968763
 10
12.56818932323949
 20
4.063887760550642
 30
1.917245582816638
 10
12.57950672416336
 20
4.041037530918401
 30
1.922719783740391
 10
12.58561704886415
 20
4.029825811961927
 30
1.925622088361453
 10
12.59870558282819
 20
4.007911219137895
 30
1.931688277221601
 10
12.60569089770433
 20
3.997213968596042
 30
1.934854100493662
 10
12.62048968821728
 20
3.976422137373447
 30
1.941369803681222
 10
12.62831879475925
 20
3.966317355110732
 30
1.944725486216073
 10
12.64483122420097
 20
3.946731427757185
 30
1.951563439678263
 10
12.65349447207882
 20
3.93727466985365
 30
1.955037318309819
 10
12.67152530108615
 20
3.919174899076097
 30
1.961981008724243
 10
12.68088658875967
 20
3.910526178457075
 30
1.965450446473073
 10
12.70020701288013
 20
3.894117444209769
 30
1.97228212278763
 10
12.71015946768784
 20
3.886349891177815
 30
1.975644881904839
 10
12.73054573666559
 20
3.871753144721878
 30
1.982166861082071
 10
12.74097071715914
 20
3.864915931502764
 30
1.985327138428011
 10
12.76219300374578
 20
3.852197834421531
 30
1.99136331806807
 10
12.77306289948319
 20
3.846259548281523
 30
1.994264570291198
 10
12.79506180859243
 20
3.835373393851114
 30
1.999702882722045
 10
12.80617558260746
 20
3.830403208256029
 30
2.002247459714917
 10
12.82856292799988
 20
3.821426581294872
 30
2.006925284819228
 10
12.8398260659942
 20
3.817399993198705
 30
2.009066757183941
 10
12.86243656358237
 20
3.810270091385973
 30
2.012910219128117
 10
12.87377778235895
 20
3.807150387825458
 30
2.014619830416599
 10
12.90351142705185
 20
3.800132893258705
 30
2.018502612728129
 10
12.92200857586067
 20
3.796894184468328
 30
2.020335075226131
 10
12.95944648238219
 20
3.792551139329589
 30
2.022803818358283
 10
12.97835327395296
 20
3.791461016146058
 30
2.023431873251898
 10
12.99720087755122
 20
3.791461016146058
 30
2.023431873251898
1001
ACAD_VIEW_EDGE_ID
1071
   -16385
1071
       -1
1071
        7
1071
        0
  0
LINE
  5
382
330
70
100
AcDbEntity
  8
Visible
100
AcDbLine
 10
12.997201
 20
4.775704
 30
2.023432
 11
14.611374
 21
4.775704
 31
2.023432
  0
ENDSEC
  0
SECTION
  2
OBJECTS
  0
DICTIONARY
  5
C
330
0
100
AcDbDictionary
281
     1
  3
ACAD_COLOR
350
63
  3
ACAD_DETAILVIEWSTYLE
350
6A
  3
ACAD_GROUP
350
D
  3
ACAD_IMAGE_DICT
350
131
  3
ACAD_IMAGE_VARS
350
133
  3
ACAD_LAYOUT
350
62
  3
ACAD_MATERIAL
350
10
  3
ACAD_MLEADERSTYLE
350
66
  3
ACAD_MLINESTYLE
350
5F
  3
ACAD_PLOTSETTINGS
350
61
  3
ACAD_PLOTSTYLENAME
350
E
  3
ACAD_SCALELIST
350
42
  3
ACAD_SECTIONVIEWSTYLE
350
68
  3
ACAD_TABLESTYLE
350
64
  3
ACAD_VISUALSTYLE
350
29
  3
ACDB_RECOMPOSE_DATA
350
3DA
  3
AcDbVariableDictionary
350
3CF
  0
DICTIONARY
  5
B4
330
70
100
AcDbDictionary
280
     1
281
     1
  3
ACAD_SORTENTS
360
127
  0
DICTIONARY
  5
12B
330
12A
100
AcDbDictionary
280
     1
281
     1
  3
ACAD_SORTENTS
360
323
  0
IMAGEDEF_REACTOR
  5
132
330
12F
100
AcDbRasterImageDefReactor
 90
        2
330
12F
  0
DICTIONARY
  5
3D8
330
18B
100
AcDbDictionary
280
     1
281
     1
  3
ACAD_MTEXT_2008_RT
360
3D9
  0
DICTIONARY
  5
63
102
{ACAD_REACTORS
330
C
102
}
330
C
100
AcDbDictionary
281
     1
  0
DICTIONARY
  5
6A
102
{ACAD_REACTORS
330
C
102
}
330
C
100
AcDbDictionary
281
     1
  3
Imperial24
350
6B
  0
DICTIONARY
  5
D
102
{ACAD_REACTORS
330
C
102
}
330
C
100
AcDbDictionary
281
     1
  0
DICTIONARY
  5
131
102
{ACAD_REACTORS
330
C
102
}
330
C
100
AcDbDictionary
281
     1
  3
morse_logo-16 (1)_01-2018(B)_1_1
350
130
  0
RASTERVARIABLES
  5
133
102
{ACAD_REACTORS
330
C
102
}
330
C
100
AcDbRasterVariables
 90
        0
 70
     0
 71
     1
 72
     5
  0
DICTIONARY
  5
62
102
{ACAD_REACTORS
330
C
102
}
330
C
100
AcDbDictionary
281
     1
  3
Model
350
73
  3
Sheet1
350
6F
  3
Sheet2
350
77
  0
DICTIONARY
  5
10
102
{ACAD_REACTORS
330
C
102
}
330
C
100
AcDbDictionary
281
     1
  3
ByBlock
350
19
  3
ByLayer
350
11
  3
Global
350
21
  0
DICTIONARY
  5
66
102
{ACAD_REACTORS
330
C
102
}
330
C
100
AcDbDictionary
281
     1
  3
Standard
350
67
  0
DICTIONARY
  5
5F
102
{ACAD_REACTORS
330
C
102
}
330
C
100
AcDbDictionary
281
     1
  3
Standard
350
60
  0
DICTIONARY
  5
61
102
{ACAD_REACTORS
330
C
102
}
330
C
100
AcDbDictionary
281
     1
  0
ACDBDICTIONARYWDFLT
  5
E
102
{ACAD_REACTORS
330
C
102
}
330
C
100
AcDbDictionary
281
     1
  3
Normal
350
F
100
AcDbDictionaryWithDefault
340
F
  0
DICTIONARY
  5
42
102
{ACAD_REACTORS
330
C
102
}
330
C
100
AcDbDictionary
281
     1
  3
*A1
350
A4
  3
*A10
350
AD
  3
*A11
350
AE
  3
*A12
350
AF
  3
*A13
350
B0
  3
*A14
350
B1
  3
*A15
350
B2
  3
*A16
350
B3
  3
*A2
350
A5
  3
*A3
350
A6
  3
*A4
350
A7
  3
*A5
350
A8
  3
*A6
350
A9
  3
*A7
350
AA
  3
*A8
350
AB
  3
*A9
350
AC
  3
A0
350
43
  3
A1
350
44
  3
A2
350
45
  3
A3
350
46
  3
A4
350
47
  3
A5
350
48
  3
A6
350
49
  3
A7
350
4A
  3
A8
350
4B
  3
A9
350
4C
  3
B0
350
4D
  3
B1
350
4E
  3
B2
350
4F
  3
B3
350
50
  3
B4
350
51
  3
B5
350
52
  3
B6
350
53
  0
DICTIONARY
  5
68
102
{ACAD_REACTORS
330
C
102
}
330
C
100
AcDbDictionary
281
     1
  3
Imperial24
350
69
  0
DICTIONARY
  5
64
102
{ACAD_REACTORS
330
C
102
}
330
C
100
AcDbDictionary
281
     1
  3
Standard
350
65
  0
DICTIONARY
  5
29
102
{ACAD_REACTORS
330
C
102
}
330
C
100
AcDbDictionary
281
     1
  3
2dWireframe
350
2F
  3
Basic
350
2E
  3
Brighten
350
35
  3
ColorChange
350
39
  3
Conceptual
350
32
  3
Dim
350
34
  3
EdgeColorOff
350
41
  3
Facepattern
350
38
  3
Flat
350
2A
  3
FlatWithEdges
350
2B
  3
Gouraud
350
2C
  3
GouraudWithEdges
350
2D
  3
Hidden
350
31
  3
JitterOff
350
3F
  3
Linepattern
350
37
  3
OverhangOff
350
40
  3
Realistic
350
33
  3
Shaded
350
3E
  3
Shaded with edges
350
3D
  3
Shades of Gray
350
3A
  3
Sketchy
350
3B
  3
Thicken
350
36
  3
Wireframe
350
30
  3
X-Ray
350
3C
  0
XRECORD
  5
3DA
102
{ACAD_REACTORS
330
C
102
}
330
C
100
AcDbXrecord
280
     1
 90
        1
330
65
330
137
330
141
330
142
330
143
330
146
330
18B
  0
DICTIONARY
  5
3CF
102
{ACAD_REACTORS
330
C
102
}
330
C
100
AcDbDictionary
281
     1
  3
ANNOALLVISIBLE
350
3D4
  3
CANNOSCALE
350
3D5
  3
CMLEADERSTYLE
350
3D1
  3
CTABLESTYLE
350
3D0
  3
CVIEWDETAILSTYLE
350
3D2
  3
CVIEWSECTIONSTYLE
350
3D3
  0
SORTENTSTABLE
  5
127
102
{ACAD_REACTORS
330
B4
102
}
330
B4
100
AcDbSortentsTable
330
70
  0
SORTENTSTABLE
  5
323
102
{ACAD_REACTORS
330
12B
102
}
330
12B
100
AcDbSortentsTable
330
12A
  0
XRECORD
  5
3D9
102
{ACAD_REACTORS
330
3D8
102
}
330
3D8
100
AcDbXrecord
280
     1
 40
251015.0
  1
\pxi-3,l3,t3;{\fSymbol|b0|i0|c2|p18;·^I}**riser is adjutable 1.18" - 3.15"
  0
ACDBDETAILVIEWSTYLE
  5
6B
102
{ACAD_XDICTIONARY
360
3DD
102
}
102
{ACAD_REACTORS
330
6A
102
}
330
6A
100
AcDbModelDocViewStyle
 70
     0
  3
Imperial24
290
     0
100
AcDbDetailViewStyle
 70
     0
 71
     0
 90
        3
 71
     1
340
55
 62
   256
 40
0.24
340
0
 62
   256
 40
0.24
300

 40
0.36
280
     3
 71
     2
340
5D
 90
       25
 62
   256
 71
     3
340
55
 62
   256
 40
0.24
 90
        1
 40
0.75
 90
        1
300
%<\AcVar ViewType \f "%tc1">% %<\AcVar ViewDetailId>%\PSCALE %<\AcVar ViewScale \f "%sn">%
 71
     4
340
5D
 90
       25
 62
   256
340
5D
 90
       25
 62
   256
280
     0
  0
IMAGEDEF
  5
130
102
{ACAD_REACTORS
330
131
330
132
330
383
102
}
330
131
100
AcDbRasterImageDef
 90
        0
  1
morse_logo-16 (1)_01-2018(B)_1_1.jpg
 10
948.0
 20
333.0
 11
0.264583
 21
0.264583
280
     1
281
     5
  0
LAYOUT
  5
73
102
{ACAD_REACTORS
330
62
102
}
330
62
100
AcDbPlotSettings
  1

  2
AutoCAD PDF (High Quality Print).pc3
  4
ANSI_full_bleed_B_(17.00_x_11.00_Inches)
  6

 40
0.0
 41
0.0
 42
0.0
 43
0.0
 44
431.799988
 45
279.399994
 46
0.0
 47
0.0
 48
0.0
 49
0.0
140
0.0
141
0.0
142
1.0
143
1.612803
 70
 11952
 72
     0
 73
     0
 74
     0
  7

 75
     0
147
0.620039
 76
     0
 77
     2
 78
   300
148
162.932123
149
53.566835
100
AcDbLayout
  1
Model
 70
     1
 71
     0
 10
0.0
 20
0.0
 11
12.0
 21
9.0
 12
0.0
 22
0.0
 32
0.0
 14
0.0
 24
0.0
 34
0.0
 15
0.0
 25
0.0
 35
0.0
146
0.0
 13
0.0
 23
0.0
 33
0.0
 16
1.0
 26
0.0
 36
0.0
 17
0.0
 27
1.0
 37
0.0
 76
     0
330
70
1001
ACAD_PSEXT
1000
AutoCAD PDF (High Quality Print).pc3
1000
DWG To PDF
1000
File
1000

1070
     0
  0
LAYOUT
  5
6F
102
{ACAD_REACTORS
330
62
102
}
330
62
100
AcDbPlotSettings
  1

  2
None
  4

  6

 40
0.0
 41
0.0
 42
0.0
 43
0.0
 44
0.0
 45
0.0
 46
0.0
 47
0.0
 48
0.0
 49
0.0
140
0.0
141
0.0
142
1.0
143
1.0
 70
   688
 72
     0
 73
     0
 74
     5
  7

 75
    16
147
1.0
 76
     0
 77
     2
 78
   300
148
0.0
149
0.0
100
AcDbLayout
  1
Sheet1
 70
     1
 71
     1
 10
0.0
 20
0.0
 11
12.0
 21
9.0
 12
0.0
 22
0.0
 32
0.0
 14
0.0
 24
0.0
 34
0.0
 15
0.0
 25
0.0
 35
0.0
146
0.0
 13
0.0
 23
0.0
 33
0.0
 16
1.0
 26
0.0
 36
0.0
 17
0.0
 27
1.0
 37
0.0
 76
     0
330
6C
  0
LAYOUT
  5
77
102
{ACAD_REACTORS
330
62
102
}
330
62
100
AcDbPlotSettings
  1

  2
None
  4

  6

 40
0.0
 41
0.0
 42
0.0
 43
0.0
 44
0.0
 45
0.0
 46
0.0
 47
0.0
 48
0.0
 49
0.0
140
0.0
141
0.0
142
1.0
143
1.0
 70
   688
 72
     0
 73
     0
 74
     5
  7

 75
    16
147
1.0
 76
     0
 77
     2
 78
   300
148
0.0
149
0.0
100
AcDbLayout
  1
Sheet2
 70
     1
 71
     2
 10
0.0
 20
0.0
 11
12.0
 21
9.0
 12
0.0
 22
0.0
 32
0.0
 14
0.0
 24
0.0
 34
0.0
 15
0.0
 25
0.0
 35
0.0
146
0.0
 13
0.0
 23
0.0
 33
0.0
 16
1.0
 26
0.0
 36
0.0
 17
0.0
 27
1.0
 37
0.0
 76
     0
330
74
  0
MATERIAL
  5
19
102
{ACAD_XDICTIONARY
360
1A
102
}
102
{ACAD_REACTORS
330
10
102
}
330
10
100
AcDbMaterial
  1
ByBlock
 72
     0
 43
0.020833
 43
0.0
 43
0.0
 43
0.0
 43
0.0
 43
0.020833
 43
0.0
 43
0.0
 43
0.0
 43
0.0
 43
1.0
 43
0.0
 43
0.0
 43
0.0
 43
0.0
 43
1.0
 77
     0
 47
0.020833
 47
0.0
 47
0.0
 47
0.0
 47
0.0
 47
0.020833
 47
0.0
 47
0.0
 47
0.0
 47
0.0
 47
1.0
 47
0.0
 47
0.0
 47
0.0
 47
0.0
 47
1.0
171
     0
 49
0.020833
 49
0.0
 49
0.0
 49
0.0
 49
0.0
 49
0.020833
 49
0.0
 49
0.0
 49
0.0
 49
0.0
 49
1.0
 49
0.0
 49
0.0
 49
0.0
 49
0.0
 49
1.0
175
     0
142
0.020833
142
0.0
142
0.0
142
0.0
142
0.0
142
0.020833
142
0.0
142
0.0
142
0.0
142
0.0
142
1.0
142
0.0
142
0.0
142
0.0
142
0.0
142
1.0
179
     0
144
0.020833
144
0.0
144
0.0
144
0.0
144
0.0
144
0.020833
144
0.0
144
0.0
144
0.0
144
0.0
144
1.0
144
0.0
144
0.0
144
0.0
144
0.0
144
1.0
147
0.020833
147
0.0
147
0.0
147
0.0
147
0.0
147
0.020833
147
0.0
147
0.0
147
0.0
147
0.0
147
1.0
147
0.0
147
0.0
147
0.0
147
0.0
147
1.0
  0
MATERIAL
  5
11
102
{ACAD_XDICTIONARY
360
12
102
}
102
{ACAD_REACTORS
330
10
102
}
330
10
100
AcDbMaterial
  1
ByLayer
 72
     0
 43
0.020833
 43
0.0
 43
0.0
 43
0.0
 43
0.0
 43
0.020833
 43
0.0
 43
0.0
 43
0.0
 43
0.0
 43
1.0
 43
0.0
 43
0.0
 43
0.0
 43
0.0
 43
1.0
 77
     0
 47
0.020833
 47
0.0
 47
0.0
 47
0.0
 47
0.0
 47
0.020833
 47
0.0
 47
0.0
 47
0.0
 47
0.0
 47
1.0
 47
0.0
 47
0.0
 47
0.0
 47
0.0
 47
1.0
171
     0
 49
0.020833
 49
0.0
 49
0.0
 49
0.0
 49
0.0
 49
0.020833
 49
0.0
 49
0.0
 49
0.0
 49
0.0
 49
1.0
 49
0.0
 49
0.0
 49
0.0
 49
0.0
 49
1.0
175
     0
142
0.020833
142
0.0
142
0.0
142
0.0
142
0.0
142
0.020833
142
0.0
142
0.0
142
0.0
142
0.0
142
1.0
142
0.0
142
0.0
142
0.0
142
0.0
142
1.0
179
     0
144
0.020833
144
0.0
144
0.0
144
0.0
144
0.0
144
0.020833
144
0.0
144
0.0
144
0.0
144
0.0
144
1.0
144
0.0
144
0.0
144
0.0
144
0.0
144
1.0
147
0.020833
147
0.0
147
0.0
147
0.0
147
0.0
147
0.020833
147
0.0
147
0.0
147
0.0
147
0.0
147
1.0
147
0.0
147
0.0
147
0.0
147
0.0
147
1.0
  0
MATERIAL
  5
21
102
{ACAD_XDICTIONARY
360
22
102
}
102
{ACAD_REACTORS
330
10
102
}
330
10
100
AcDbMaterial
  1
Global
 72
     0
 43
0.020833
 43
0.0
 43
0.0
 43
0.0
 43
0.0
 43
0.020833
 43
0.0
 43
0.0
 43
0.0
 43
0.0
 43
1.0
 43
0.0
 43
0.0
 43
0.0
 43
0.0
 43
1.0
 77
     0
 47
0.020833
 47
0.0
 47
0.0
 47
0.0
 47
0.0
 47
0.020833
 47
0.0
 47
0.0
 47
0.0
 47
0.0
 47
1.0
 47
0.0
 47
0.0
 47
0.0
 47
0.0
 47
1.0
171
     0
 49
0.020833
 49
0.0
 49
0.0
 49
0.0
 49
0.0
 49
0.020833
 49
0.0
 49
0.0
 49
0.0
 49
0.0
 49
1.0
 49
0.0
 49
0.0
 49
0.0
 49
0.0
 49
1.0
175
     0
142
0.020833
142
0.0
142
0.0
142
0.0
142
0.0
142
0.020833
142
0.0
142
0.0
142
0.0
142
0.0
142
1.0
142
0.0
142
0.0
142
0.0
142
0.0
142
1.0
179
     0
144
0.020833
144
0.0
144
0.0
144
0.0
144
0.0
144
0.020833
144
0.0
144
0.0
144
0.0
144
0.0
144
1.0
144
0.0
144
0.0
144
0.0
144
0.0
144
1.0
147
0.020833
147
0.0
147
0.0
147
0.0
147
0.0
147
0.020833
147
0.0
147
0.0
147
0.0
147
0.0
147
1.0
147
0.0
147
0.0
147
0.0
147
0.0
147
1.0
  0
MLEADERSTYLE
  5
67
102
{ACAD_REACTORS
330
66
102
}
330
66
100
AcDbMLeaderStyle
179
     2
170
     2
171
     1
172
     0
 90
        2
 40
0.0
 41
0.0
173
     1
 91
-1056964608
340
5B
 92
       -2
290
     1
 42
0.09
291
     1
 43
0.36
  3
Standard
 44
0.18
300

342
55
174
     1
178
     6
175
     1
176
     0
 93
-1056964608
 45
0.18
292
     0
297
     0
 46
0.18
 94
-1056964608
 47
1.0
 49
1.0
140
1.0
293
     1
141
0.0
294
     1
177
     0
142
1.0
295
     0
296
     0
143
0.125
271
     0
272
     9
273
     9
298
     1
  0
MLINESTYLE
  5
60
102
{ACAD_REACTORS
330
5F
102
}
330
5F
100
AcDbMlineStyle
  2
STANDARD
 70
     0
  3

 62
   256
 51
90.0
 52
90.0
 71
     0
  0
ACDBPLACEHOLDER
  5
F
102
{ACAD_REACTORS
330
E
102
}
330
E
  0
SCALE
  5
A4
102
{ACAD_REACTORS
330
42
102
}
330
42
100
AcDbScale
 70
     0
300
1:2
140
1.0
141
2.0
290
     0
  0
SCALE
  5
AD
102
{ACAD_REACTORS
330
42
102
}
330
42
100
AcDbScale
 70
     0
300
1:50
140
1.0
141
50.0
290
     0
  0
SCALE
  5
AE
102
{ACAD_REACTORS
330
42
102
}
330
42
100
AcDbScale
 70
     0
300
1:100
140
1.0
141
100.0
290
     0
  0
SCALE
  5
AF
102
{ACAD_REACTORS
330
42
102
}
330
42
100
AcDbScale
 70
     0
300
2:1
140
2.0
141
1.0
290
     0
  0
SCALE
  5
B0
102
{ACAD_REACTORS
330
42
102
}
330
42
100
AcDbScale
 70
     0
300
4:1
140
4.0
141
1.0
290
     0
  0
SCALE
  5
B1
102
{ACAD_REACTORS
330
42
102
}
330
42
100
AcDbScale
 70
     0
300
8:1
140
8.0
141
1.0
290
     0
  0
SCALE
  5
B2
102
{ACAD_REACTORS
330
42
102
}
330
42
100
AcDbScale
 70
     0
300
10:1
140
10.0
141
1.0
290
     0
  0
SCALE
  5
B3
102
{ACAD_REACTORS
330
42
102
}
330
42
100
AcDbScale
 70
     0
300
100:1
140
100.0
141
1.0
290
     0
  0
SCALE
  5
A5
102
{ACAD_REACTORS
330
42
102
}
330
42
100
AcDbScale
 70
     0
300
1:4
140
1.0
141
4.0
290
     0
  0
SCALE
  5
A6
102
{ACAD_REACTORS
330
42
102
}
330
42
100
AcDbScale
 70
     0
300
1:5
140
1.0
141
5.0
290
     0
  0
SCALE
  5
A7
102
{ACAD_REACTORS
330
42
102
}
330
42
100
AcDbScale
 70
     0
300
1:8
140
1.0
141
8.0
290
     0
  0
SCALE
  5
A8
102
{ACAD_REACTORS
330
42
102
}
330
42
100
AcDbScale
 70
     0
300
1:10
140
1.0
141
10.0
290
     0
  0
SCALE
  5
A9
102
{ACAD_REACTORS
330
42
102
}
330
42
100
AcDbScale
 70
     0
300
1:16
140
1.0
141
16.0
290
     0
  0
SCALE
  5
AA
102
{ACAD_REACTORS
330
42
102
}
330
42
100
AcDbScale
 70
     0
300
1:20
140
1.0
141
20.0
290
     0
  0
SCALE
  5
AB
102
{ACAD_REACTORS
330
42
102
}
330
42
100
AcDbScale
 70
     0
300
1:30
140
1.0
141
30.0
290
     0
  0
SCALE
  5
AC
102
{ACAD_REACTORS
330
42
102
}
330
42
100
AcDbScale
 70
     0
300
1:40
140
1.0
141
40.0
290
     0
  0
SCALE
  5
43
102
{ACAD_REACTORS
330
42
102
}
330
42
100
AcDbScale
 70
     0
300
1:1
140
1.0
141
1.0
290
     1
  0
SCALE
  5
44
102
{ACAD_REACTORS
330
42
102
}
330
42
100
AcDbScale
 70
     0
300
1/128" = 1'-0"
140
0.007813
141
12.0
290
     0
  0
SCALE
  5
45
102
{ACAD_REACTORS
330
42
102
}
330
42
100
AcDbScale
 70
     0
300
1/64" = 1'-0"
140
0.015625
141
12.0
290
     0
  0
SCALE
  5
46
102
{ACAD_REACTORS
330
42
102
}
330
42
100
AcDbScale
 70
     0
300
1/32" = 1'-0"
140
0.03125
141
12.0
290
     0
  0
SCALE
  5
47
102
{ACAD_REACTORS
330
42
102
}
330
42
100
AcDbScale
 70
     0
300
1/16" = 1'-0"
140
0.0625
141
12.0
290
     0
  0
SCALE
  5
48
102
{ACAD_REACTORS
330
42
102
}
330
42
100
AcDbScale
 70
     0
300
3/32" = 1'-0"
140
0.09375
141
12.0
290
     0
  0
SCALE
  5
49
102
{ACAD_REACTORS
330
42
102
}
330
42
100
AcDbScale
 70
     0
300
1/8" = 1'-0"
140
0.125
141
12.0
290
     0
  0
SCALE
  5
4A
102
{ACAD_REACTORS
330
42
102
}
330
42
100
AcDbScale
 70
     0
300
3/16" = 1'-0"
140
0.1875
141
12.0
290
     0
  0
SCALE
  5
4B
102
{ACAD_REACTORS
330
42
102
}
330
42
100
AcDbScale
 70
     0
300
1/4" = 1'-0"
140
0.25
141
12.0
290
     0
  0
SCALE
  5
4C
102
{ACAD_REACTORS
330
42
102
}
330
42
100
AcDbScale
 70
     0
300
3/8" = 1'-0"
140
0.375
141
12.0
290
     0
  0
SCALE
  5
4D
102
{ACAD_REACTORS
330
42
102
}
330
42
100
AcDbScale
 70
     0
300
1/2" = 1'-0"
140
0.5
141
12.0
290
     0
  0
SCALE
  5
4E
102
{ACAD_REACTORS
330
42
102
}
330
42
100
AcDbScale
 70
     0
300
3/4" = 1'-0"
140
0.75
141
12.0
290
     0
  0
SCALE
  5
4F
102
{ACAD_REACTORS
330
42
102
}
330
42
100
AcDbScale
 70
     0
300
1" = 1'-0"
140
1.0
141
12.0
290
     0
  0
SCALE
  5
50
102
{ACAD_REACTORS
330
42
102
}
330
42
100
AcDbScale
 70
     0
300
1-1/2" = 1'-0"
140
1.5
141
12.0
290
     0
  0
SCALE
  5
51
102
{ACAD_REACTORS
330
42
102
}
330
42
100
AcDbScale
 70
     0
300
3" = 1'-0"
140
3.0
141
12.0
290
     0
  0
SCALE
  5
52
102
{ACAD_REACTORS
330
42
102
}
330
42
100
AcDbScale
 70
     0
300
6" = 1'-0"
140
6.0
141
12.0
290
     0
  0
SCALE
  5
53
102
{ACAD_REACTORS
330
42
102
}
330
42
100
AcDbScale
 70
     0
300
1'-0" = 1'-0"
140
12.0
141
12.0
290
     0
  0
ACDBSECTIONVIEWSTYLE
  5
69
102
{ACAD_XDICTIONARY
360
3DB
102
}
102
{ACAD_REACTORS
330
68
102
}
330
68
100
AcDbModelDocViewStyle
 70
     0
  3
Imperial24
290
     0
100
AcDbSectionViewStyle
 70
     0
 71
     0
 90
       78
 71
     1
340
55
 62
   256
 40
0.24
340
0
340
0
 62
   256
 40
0.24
300
I, O, Q, S, X, Z
 40
0.48
 90
        3
 40
0.18
 90
        1
 71
     2
340
5D
 90
       25
 62
   256
340
5D
 90
       50
 62
   256
 40
0.24
 40
0.0
 40
0.24
 71
     3
340
55
 62
   256
 40
0.24
 90
        1
 40
0.75
 90
        1
300
%<\AcVar ViewType \f "%tc1">% %<\AcVar ViewSectionStartId>%-%<\AcVar ViewSectionEndId>%\PSCALE %<\AcVar ViewScale \f "%sn">%
 71
     4
 62
   256
 62
   257
300
ANSI31
 40
1.0
 90
        0
290
     0
290
     0
 90
        6
 40
0.0
 40
1.570796
 40
0.261799
 40
1.308997
 40
-0.261799
 40
1.832596
  0
TABLESTYLE
  5
65
102
{ACAD_XDICTIONARY
360
3D6
102
}
102
{ACAD_REACTORS
330
64
102
}
330
64
100
AcDbTableStyle
280
     0
  3
Standard
 70
     0
 71
     0
 40
0.06
 41
0.06
280
     0
281
     0
  7
Standard
140
0.18
170
     2
 62
     0
 63
     7
283
     0
 90
      512
 91
        0
  1

274
    -2
284
     1
 64
     0
275
    -2
285
     1
 65
     0
276
    -2
286
     1
 66
     0
277
    -2
287
     1
 67
     0
278
    -2
288
     1
 68
     0
279
    -2
289
     1
 69
     0
  7
Standard
140
0.25
170
     5
 62
     0
 63
     7
283
     0
 90
      512
 91
        0
  1

274
    -2
284
     1
 64
     0
275
    -2
285
     1
 65
     0
276
    -2
286
     1
 66
     0
277
    -2
287
     1
 67
     0
278
    -2
288
     1
 68
     0
279
    -2
289
     1
 69
     0
  7
Standard
140
0.18
170
     5
 62
     0
 63
     7
283
     0
 90
      512
 91
        0
  1

274
    -2
284
     1
 64
     0
275
    -2
285
     1
 65
     0
276
    -2
286
     1
 66
     0
277
    -2
287
     1
 67
     0
278
    -2
288
     1
 68
     0
279
    -2
289
     1
 69
     0
  0
VISUALSTYLE
  5
2F
102
{ACAD_REACTORS
330
29
102
}
330
29
100
AcDbVisualStyle
  2
2dWireframe
 70
     4
177
     3
291
     0
 70
    58
 90
        0
176
     1
 90
        2
176
     1
 90
        0
176
     1
 90
        0
176
     1
 40
0.6
176
     1
 40
30.0
176
     1
 62
     7
420
 16777215
176
     1
 90
        1
176
     1
 90
        4
176
     1
 62
     7
176
     1
 62
   257
176
     1
 90
        1
176
     1
 90
        1
176
     1
 40
1.0
176
     1
 90
        0
176
     1
 62
   257
176
     1
 40
1.0
176
     1
 90
        1
176
     1
 90
        6
176
     1
 90
        2
176
     1
 62
     7
176
     1
 90
        5
176
     1
 90
        0
176
     1
 90
        0
176
     1
290
     0
176
     1
 90
        1
176
     1
 40
0.0
176
     1
 90
        0
176
     1
290
     1
176
     1
290
     1
176
     1
290
     0
176
     1
290
     0
176
     1
290
     0
176
     1
290
     0
176
     1
290
     0
176
     1
290
     0
176
     1
290
     0
176
     1
 90
       50
176
     1
 40
0.0
176
     1
 40
1.0
176
     1
 90
        0
176
     1
 62
    18
420
        0
176
     1
 90
       50
176
     1
 90
        3
176
     1
 62
     5
420
      255
176
     1
290
     0
176
     1
 90
       50
176
     1
 90
       50
176
     1
 90
       50
176
     1
290
     0
176
     1
 90
       50
176
     1
 62
   256
176
     0
 40
1.0
176
     0
 90
        2
176
     1
  1
strokes_ogs.tif
176
     1
290
     0
176
     1
 40
1.0
176
     1
 40
1.0
176
     1
1001
ACAD
1000
AcDbSavedByObjectVersion
1070
     0
  0
VISUALSTYLE
  5
2E
102
{ACAD_REACTORS
330
29
102
}
330
29
100
AcDbVisualStyle
  2
Basic
 70
     7
177
     3
291
     1
 70
    58
 90
        1
176
     1
 90
        0
176
     1
 90
        1
176
     1
 90
        0
176
     1
 40
0.6
176
     1
 40
30.0
176
     1
 62
     7
420
 16777215
176
     1
 90
        0
176
     1
 90
        4
176
     1
 62
     7
176
     1
 62
   257
176
     1
 90
        1
176
     1
 90
        1
176
     1
 40
1.0
176
     1
 90
        8
176
     1
 62
     7
176
     1
 40
1.0
176
     1
 90
        1
176
     1
 90
        6
176
     1
 90
        2
176
     1
 62
     7
176
     1
 90
        5
176
     1
 90
        0
176
     1
 90
        0
176
     1
290
     0
176
     1
 90
        1
176
     1
 40
0.0
176
     1
 90
        0
176
     1
290
     0
176
     1
290
     1
176
     1
290
     1
176
     1
290
     0
176
     1
290
     0
176
     1
290
     0
176
     1
290
     0
176
     1
290
     0
176
     1
290
     0
176
     1
 90
       50
176
     1
 40
0.0
176
     1
 40
1.0
176
     1
 90
        0
176
     1
 62
    18
420
        0
176
     1
 90
       50
176
     1
 90
        3
176
     1
 62
     5
420
      255
176
     1
290
     0
176
     1
 90
       50
176
     1
 90
       50
176
     1
 90
       50
176
     1
290
     0
176
     1
 90
       50
176
     1
 62
   256
176
     0
 40
1.0
176
     0
 90
        2
176
     1
  1
strokes_ogs.tif
176
     1
290
     0
176
     1
 40
1.0
176
     1
 40
1.0
176
     1
1001
ACAD
1000
AcDbSavedByObjectVersion
1070
     0
  0
VISUALSTYLE
  5
35
102
{ACAD_REACTORS
330
29
102
}
330
29
100
AcDbVisualStyle
  2
Brighten
 70
    12
177
     3
291
     1
 70
    58
 90
        2
176
     1
 90
        2
176
     1
 90
        0
176
     1
 90
        0
176
     1
 40
0.6
176
     1
 40
30.0
176
     1
 62
     7
420
 16777215
176
     1
 90
        1
176
     1
 90
        4
176
     1
 62
     7
176
     1
 62
   257
176
     1
 90
        1
176
     1
 90
        1
176
     1
 40
1.0
176
     1
 90
        8
176
     1
 62
     7
176
     1
 40
1.0
176
     1
 90
        1
176
     1
 90
        6
176
     1
 90
        2
176
     1
 62
     7
176
     1
 90
        5
176
     1
 90
        0
176
     1
 90
        0
176
     1
290
     0
176
     1
 90
        1
176
     1
 40
50.0
176
     1
 90
        0
176
     1
290
     0
176
     1
290
     1
176
     1
290
     1
176
     1
290
     0
176
     1
290
     0
176
     1
290
     0
176
     1
290
     0
176
     1
290
     0
176
     1
290
     0
176
     1
 90
       50
176
     1
 40
0.0
176
     1
 40
1.0
176
     1
 90
        0
176
     1
 62
    18
420
        0
176
     1
 90
       50
176
     1
 90
        3
176
     1
 62
     5
420
      255
176
     1
290
     0
176
     1
 90
       50
176
     1
 90
       50
176
     1
 90
       50
176
     1
290
     0
176
     1
 90
       50
176
     1
 62
   256
176
     0
 40
1.0
176
     0
 90
        2
176
     1
  1
strokes_ogs.tif
176
     1
290
     0
176
     1
 40
1.0
176
     1
 40
1.0
176
     1
1001
ACAD
1000
AcDbSavedByObjectVersion
1070
     0
  0
VISUALSTYLE
  5
39
102
{ACAD_REACTORS
330
29
102
}
330
29
100
AcDbVisualStyle
  2
ColorChange
 70
    16
177
     3
291
     1
 70
    58
 90
        2
176
     1
 90
        2
176
     1
 90
        3
176
     1
 90
        0
176
     1
 40
0.6
176
     1
 40
30.0
176
     1
 62
     8
420
  8421504
176
     1
 90
        1
176
     1
 90
        4
176
     1
 62
     7
176
     1
 62
   257
176
     1
 90
        1
176
     1
 90
        1
176
     1
 40
1.0
176
     1
 90
        8
176
     1
 62
     8
420
  8421504
176
     1
 40
1.0
176
     1
 90
        1
176
     1
 90
        6
176
     1
 90
        2
176
     1
 62
     7
176
     1
 90
        5
176
     1
 90
        0
176
     1
 90
        0
176
     1
290
     0
176
     1
 90
        1
176
     1
 40
0.0
176
     1
 90
        0
176
     1
290
     0
176
     1
290
     1
176
     1
290
     1
176
     1
290
     0
176
     1
290
     0
176
     1
290
     0
176
     1
290
     0
176
     1
290
     0
176
     1
290
     0
176
     1
 90
       50
176
     1
 40
0.0
176
     1
 40
1.0
176
     1
 90
        0
176
     1
 62
    18
420
        0
176
     1
 90
       50
176
     1
 90
        3
176
     1
 62
     5
420
      255
176
     1
290
     0
176
     1
 90
       50
176
     1
 90
       50
176
     1
 90
       50
176
     1
290
     0
176
     1
 90
       50
176
     1
 62
   256
176
     0
 40
1.0
176
     0
 90
        2
176
     1
  1
strokes_ogs.tif
176
     1
290
     0
176
     1
 40
1.0
176
     1
 40
1.0
176
     1
1001
ACAD
1000
AcDbSavedByObjectVersion
1070
     0
  0
VISUALSTYLE
  5
32
102
{ACAD_REACTORS
330
29
102
}
330
29
100
AcDbVisualStyle
  2
Conceptual
 70
     9
177
     3
291
     0
 70
    58
 90
        3
176
     1
 90
        2
176
     1
 90
        0
176
     1
 90
        0
176
     1
 40
0.6
176
     1
 40
30.0
176
     1
 62
     7
420
 16777215
176
     1
 90
        2
176
     1
 90
        2
176
     1
 62
     7
176
     1
 62
   257
176
     1
 90
        1
176
     1
 90
        1
176
     1
 40
179.0
176
     1
 90
        8
176
     1
 62
     7
176
     1
 40
1.0
176
     1
 90
        1
176
     1
 90
        6
176
     1
 90
        2
176
     1
 62
     7
176
     1
 90
        3
176
     1
 90
        0
176
     1
 90
        0
176
     1
290
     0
176
     1
 90
        1
176
     1
 40
0.0
176
     1
 90
        0
176
     1
290
     0
176
     1
290
     1
176
     1
290
     1
176
     1
290
     0
176
     1
290
     0
176
     1
290
     0
176
     1
290
     0
176
     1
290
     0
176
     1
290
     0
176
     1
 90
       50
176
     1
 40
0.0
176
     1
 40
1.0
176
     1
 90
        0
176
     1
 62
    18
420
        0
176
     1
 90
       50
176
     1
 90
        3
176
     1
 62
     5
420
      255
176
     1
290
     0
176
     1
 90
       50
176
     1
 90
       50
176
     1
 90
       50
176
     1
290
     0
176
     1
 90
       50
176
     1
 62
   256
176
     0
 40
1.0
176
     0
 90
        2
176
     1
  1
strokes_ogs.tif
176
     1
290
     0
176
     1
 40
1.0
176
     1
 40
1.0
176
     1
1001
ACAD
1000
AcDbSavedByObjectVersion
1070
     0
  0
VISUALSTYLE
  5
34
102
{ACAD_REACTORS
330
29
102
}
330
29
100
AcDbVisualStyle
  2
Dim
 70
    11
177
     3
291
     1
 70
    58
 90
        2
176
     1
 90
        2
176
     1
 90
        0
176
     1
 90
        0
176
     1
 40
0.6
176
     1
 40
30.0
176
     1
 62
     7
420
 16777215
176
     1
 90
        1
176
     1
 90
        4
176
     1
 62
     7
176
     1
 62
   257
176
     1
 90
        1
176
     1
 90
        1
176
     1
 40
1.0
176
     1
 90
        8
176
     1
 62
     7
176
     1
 40
1.0
176
     1
 90
        1
176
     1
 90
        6
176
     1
 90
        2
176
     1
 62
     7
176
     1
 90
        5
176
     1
 90
        0
176
     1
 90
        0
176
     1
290
     0
176
     1
 90
        1
176
     1
 40
-50.0
176
     1
 90
        0
176
     1
290
     0
176
     1
290
     1
176
     1
290
     1
176
     1
290
     0
176
     1
290
     0
176
     1
290
     0
176
     1
290
     0
176
     1
290
     0
176
     1
290
     0
176
     1
 90
       50
176
     1
 40
0.0
176
     1
 40
1.0
176
     1
 90
        0
176
     1
 62
    18
420
        0
176
     1
 90
       50
176
     1
 90
        3
176
     1
 62
     5
420
      255
176
     1
290
     0
176
     1
 90
       50
176
     1
 90
       50
176
     1
 90
       50
176
     1
290
     0
176
     1
 90
       50
176
     1
 62
   256
176
     0
 40
1.0
176
     0
 90
        2
176
     1
  1
strokes_ogs.tif
176
     1
290
     0
176
     1
 40
1.0
176
     1
 40
1.0
176
     1
1001
ACAD
1000
AcDbSavedByObjectVersion
1070
     0
  0
VISUALSTYLE
  5
41
102
{ACAD_REACTORS
330
29
102
}
330
29
100
AcDbVisualStyle
  2
EdgeColorOff
 70
    22
177
     3
291
     1
 70
    58
 90
        2
176
     0
 90
        2
176
     0
 90
        0
176
     0
 90
        0
176
     0
 40
0.6
176
     0
 40
30.0
176
     0
 62
     7
420
 16777215
176
     0
 90
        1
176
     0
 90
        4
176
     0
 62
     7
176
     0
 62
   257
176
     0
 90
        1
176
     0
 90
        1
176
     0
 40
1.0
176
     0
 90
        8
176
     2
 62
     7
176
     0
 40
1.0
176
     0
 90
        1
176
     0
 90
        6
176
     0
 90
        2
176
     0
 62
     7
176
     0
 90
        5
176
     0
 90
        0
176
     0
 90
        0
176
     0
290
     0
176
     0
 90
        1
176
     0
 40
0.0
176
     0
 90
        0
176
     0
290
     0
176
     0
290
     1
176
     0
290
     1
176
     0
290
     0
176
     0
290
     0
176
     0
290
     0
176
     0
290
     0
176
     0
290
     0
176
     0
290
     0
176
     0
 90
       50
176
     0
 40
0.0
176
     0
 40
1.0
176
     0
 90
        0
176
     0
 62
    18
420
        0
176
     0
 90
       50
176
     0
 90
        3
176
     0
 62
     5
420
      255
176
     0
290
     0
176
     0
 90
       50
176
     0
 90
       50
176
     0
 90
       50
176
     0
290
     0
176
     0
 90
       50
176
     0
 62
   256
176
     0
 40
1.0
176
     0
 90
        2
176
     0
  1
strokes_ogs.tif
176
     0
290
     0
176
     0
 40
1.0
176
     0
 40
1.0
176
     0
1001
ACAD
1000
AcDbSavedByObjectVersion
1070
     0
  0
VISUALSTYLE
  5
38
102
{ACAD_REACTORS
330
29
102
}
330
29
100
AcDbVisualStyle
  2
Facepattern
 70
    15
177
     3
291
     1
 70
    58
 90
        2
176
     1
 90
        2
176
     1
 90
        0
176
     1
 90
        0
176
     1
 40
0.6
176
     1
 40
30.0
176
     1
 62
     7
420
 16777215
176
     1
 90
        1
176
     1
 90
        4
176
     1
 62
     7
176
     1
 62
   257
176
     1
 90
        1
176
     1
 90
        1
176
     1
 40
1.0
176
     1
 90
        8
176
     1
 62
     7
176
     1
 40
1.0
176
     1
 90
        1
176
     1
 90
        6
176
     1
 90
        2
176
     1
 62
     7
176
     1
 90
        5
176
     1
 90
        0
176
     1
 90
        0
176
     1
290
     0
176
     1
 90
        1
176
     1
 40
0.0
176
     1
 90
        0
176
     1
290
     0
176
     1
290
     1
176
     1
290
     1
176
     1
290
     0
176
     1
290
     0
176
     1
290
     0
176
     1
290
     0
176
     1
290
     0
176
     1
290
     0
176
     1
 90
       50
176
     1
 40
0.0
176
     1
 40
1.0
176
     1
 90
        0
176
     1
 62
    18
420
        0
176
     1
 90
       50
176
     1
 90
        3
176
     1
 62
     5
420
      255
176
     1
290
     0
176
     1
 90
       50
176
     1
 90
       50
176
     1
 90
       50
176
     1
290
     0
176
     1
 90
       50
176
     1
 62
   256
176
     0
 40
1.0
176
     0
 90
        2
176
     1
  1
strokes_ogs.tif
176
     1
290
     0
176
     1
 40
1.0
176
     1
 40
1.0
176
     1
1001
ACAD
1000
AcDbSavedByObjectVersion
1070
     0
  0
VISUALSTYLE
  5
2A
102
{ACAD_REACTORS
330
29
102
}
330
29
100
AcDbVisualStyle
  2
Flat
 70
     0
177
     3
291
     1
 70
    58
 90
        2
176
     1
 90
        1
176
     1
 90
        1
176
     1
 90
        2
176
     1
 40
0.6
176
     1
 40
30.0
176
     1
 62
     7
420
 16777215
176
     1
 90
        0
176
     1
 90
        0
176
     1
 62
     7
176
     1
 62
   257
176
     1
 90
        1
176
     1
 90
        1
176
     1
 40
1.0
176
     1
 90
        8
176
     1
 62
     7
176
     1
 40
1.0
176
     1
 90
        1
176
     1
 90
        6
176
     1
 90
        2
176
     1
 62
     7
176
     1
 90
        5
176
     1
 90
        0
176
     1
 90
        0
176
     1
290
     0
176
     1
 90
       13
176
     1
 40
0.0
176
     1
 90
        0
176
     1
290
     0
176
     1
290
     1
176
     1
290
     1
176
     1
290
     0
176
     1
290
     0
176
     1
290
     0
176
     1
290
     0
176
     1
290
     0
176
     1
290
     0
176
     1
 90
       50
176
     1
 40
0.0
176
     1
 40
1.0
176
     1
 90
        0
176
     1
 62
    18
420
        0
176
     1
 90
       50
176
     1
 90
        3
176
     1
 62
     5
420
      255
176
     1
290
     0
176
     1
 90
       50
176
     1
 90
       50
176
     1
 90
       50
176
     1
290
     0
176
     1
 90
       50
176
     1
 62
   256
176
     0
 40
1.0
176
     0
 90
        2
176
     1
  1
strokes_ogs.tif
176
     1
290
     0
176
     1
 40
1.0
176
     1
 40
1.0
176
     1
1001
ACAD
1000
AcDbSavedByObjectVersion
1070
     0
  0
VISUALSTYLE
  5
2B
102
{ACAD_REACTORS
330
29
102
}
330
29
100
AcDbVisualStyle
  2
FlatWithEdges
 70
     1
177
     3
291
     1
 70
    58
 90
        2
176
     1
 90
        1
176
     1
 90
        1
176
     1
 90
        2
176
     1
 40
0.6
176
     1
 40
30.0
176
     1
 62
     7
420
 16777215
176
     1
 90
        1
176
     1
 90
        0
176
     1
 62
     7
176
     1
 62
   257
176
     1
 90
        1
176
     1
 90
        1
176
     1
 40
1.0
176
     1
 90
        0
176
     1
 62
   257
176
     1
 40
1.0
176
     1
 90
        1
176
     1
 90
        6
176
     1
 90
        2
176
     1
 62
     7
176
     1
 90
        5
176
     1
 90
        0
176
     1
 90
        0
176
     1
290
     0
176
     1
 90
       13
176
     1
 40
0.0
176
     1
 90
        0
176
     1
290
     0
176
     1
290
     1
176
     1
290
     1
176
     1
290
     0
176
     1
290
     0
176
     1
290
     0
176
     1
290
     0
176
     1
290
     0
176
     1
290
     0
176
     1
 90
       50
176
     1
 40
0.0
176
     1
 40
1.0
176
     1
 90
        0
176
     1
 62
    18
420
        0
176
     1
 90
       50
176
     1
 90
        3
176
     1
 62
     5
420
      255
176
     1
290
     0
176
     1
 90
       50
176
     1
 90
       50
176
     1
 90
       50
176
     1
290
     0
176
     1
 90
       50
176
     1
 62
   256
176
     0
 40
1.0
176
     0
 90
        2
176
     1
  1
strokes_ogs.tif
176
     1
290
     0
176
     1
 40
1.0
176
     1
 40
1.0
176
     1
1001
ACAD
1000
AcDbSavedByObjectVersion
1070
     0
  0
VISUALSTYLE
  5
2C
102
{ACAD_REACTORS
330
29
102
}
330
29
100
AcDbVisualStyle
  2
Gouraud
 70
     2
177
     3
291
     1
 70
    58
 90
        2
176
     1
 90
        2
176
     1
 90
        1
176
     1
 90
        2
176
     1
 40
0.6
176
     1
 40
30.0
176
     1
 62
     7
420
 16777215
176
     1
 90
        0
176
     1
 90
        0
176
     1
 62
     7
176
     1
 62
   257
176
     1
 90
        1
176
     1
 90
        1
176
     1
 40
1.0
176
     1
 90
        0
176
     1
 62
     7
176
     1
 40
1.0
176
     1
 90
        1
176
     1
 90
        6
176
     1
 90
        2
176
     1
 62
     7
176
     1
 90
        5
176
     1
 90
        0
176
     1
 90
        0
176
     1
290
     0
176
     1
 90
       13
176
     1
 40
0.0
176
     1
 90
        0
176
     1
290
     0
176
     1
290
     1
176
     1
290
     1
176
     1
290
     0
176
     1
290
     0
176
     1
290
     0
176
     1
290
     0
176
     1
290
     0
176
     1
290
     0
176
     1
 90
       50
176
     1
 40
0.0
176
     1
 40
1.0
176
     1
 90
        0
176
     1
 62
    18
420
        0
176
     1
 90
       50
176
     1
 90
        3
176
     1
 62
     5
420
      255
176
     1
290
     0
176
     1
 90
       50
176
     1
 90
       50
176
     1
 90
       50
176
     1
290
     0
176
     1
 90
       50
176
     1
 62
   256
176
     0
 40
1.0
176
     0
 90
        2
176
     1
  1
strokes_ogs.tif
176
     1
290
     0
176
     1
 40
1.0
176
     1
 40
1.0
176
     1
1001
ACAD
1000
AcDbSavedByObjectVersion
1070
     0
  0
VISUALSTYLE
  5
2D
102
{ACAD_REACTORS
330
29
102
}
330
29
100
AcDbVisualStyle
  2
GouraudWithEdges
 70
     3
177
     3
291
     1
 70
    58
 90
        2
176
     1
 90
        2
176
     1
 90
        1
176
     1
 90
        2
176
     1
 40
0.6
176
     1
 40
30.0
176
     1
 62
     7
420
 16777215
176
     1
 90
        1
176
     1
 90
        0
176
     1
 62
     7
176
     1
 62
   257
176
     1
 90
        1
176
     1
 90
        1
176
     1
 40
1.0
176
     1
 90
        0
176
     1
 62
   257
176
     1
 40
1.0
176
     1
 90
        1
176
     1
 90
        6
176
     1
 90
        2
176
     1
 62
     7
176
     1
 90
        5
176
     1
 90
        0
176
     1
 90
        0
176
     1
290
     0
176
     1
 90
       13
176
     1
 40
0.0
176
     1
 90
        0
176
     1
290
     0
176
     1
290
     1
176
     1
290
     1
176
     1
290
     0
176
     1
290
     0
176
     1
290
     0
176
     1
290
     0
176
     1
290
     0
176
     1
290
     0
176
     1
 90
       50
176
     1
 40
0.0
176
     1
 40
1.0
176
     1
 90
        0
176
     1
 62
    18
420
        0
176
     1
 90
       50
176
     1
 90
        3
176
     1
 62
     5
420
      255
176
     1
290
     0
176
     1
 90
       50
176
     1
 90
       50
176
     1
 90
       50
176
     1
290
     0
176
     1
 90
       50
176
     1
 62
   256
176
     0
 40
1.0
176
     0
 90
        2
176
     1
  1
strokes_ogs.tif
176
     1
290
     0
176
     1
 40
1.0
176
     1
 40
1.0
176
     1
1001
ACAD
1000
AcDbSavedByObjectVersion
1070
     0
  0
VISUALSTYLE
  5
31
102
{ACAD_REACTORS
330
29
102
}
330
29
100
AcDbVisualStyle
  2
Hidden
 70
     6
177
     3
291
     0
 70
    58
 90
        1
176
     1
 90
        2
176
     1
 90
        2
176
     1
 90
        0
176
     1
 40
0.6
176
     1
 40
30.0
176
     1
 62
     7
420
 16777215
176
     1
 90
        2
176
     1
 90
        2
176
     1
 62
     7
176
     1
 62
   257
176
     1
 90
        2
176
     1
 90
        1
176
     1
 40
40.0
176
     1
 90
        0
176
     1
 62
   257
176
     1
 40
1.0
176
     1
 90
        1
176
     1
 90
        6
176
     1
 90
        2
176
     1
 62
     7
176
     1
 90
        3
176
     1
 90
        0
176
     1
 90
        0
176
     1
290
     0
176
     1
 90
        1
176
     1
 40
0.0
176
     1
 90
        0
176
     1
290
     0
176
     1
290
     1
176
     1
290
     1
176
     1
290
     0
176
     1
290
     0
176
     1
290
     0
176
     1
290
     0
176
     1
290
     0
176
     1
290
     0
176
     1
 90
       50
176
     1
 40
0.0
176
     1
 40
1.0
176
     1
 90
        0
176
     1
 62
    18
420
        0
176
     1
 90
       50
176
     1
 90
        3
176
     1
 62
     5
420
      255
176
     1
290
     0
176
     1
 90
       50
176
     1
 90
       50
176
     1
 90
       50
176
     1
290
     0
176
     1
 90
       50
176
     1
 62
   256
176
     0
 40
1.0
176
     0
 90
        2
176
     1
  1
strokes_ogs.tif
176
     1
290
     0
176
     1
 40
1.0
176
     1
 40
1.0
176
     1
1001
ACAD
1000
AcDbSavedByObjectVersion
1070
     0
  0
VISUALSTYLE
  5
3F
102
{ACAD_REACTORS
330
29
102
}
330
29
100
AcDbVisualStyle
  2
JitterOff
 70
    20
177
     3
291
     1
 70
    58
 90
        2
176
     0
 90
        2
176
     0
 90
        0
176
     0
 90
        0
176
     0
 40
0.6
176
     0
 40
30.0
176
     0
 62
     7
420
 16777215
176
     0
 90
        1
176
     0
 90
        4
176
     0
 62
     7
176
     0
 62
   257
176
     0
 90
        1
176
     0
 90
        1
176
     0
 40
1.0
176
     0
 90
       10
176
     2
 62
     7
176
     0
 40
1.0
176
     0
 90
        1
176
     0
 90
        6
176
     0
 90
        2
176
     0
 62
     7
176
     0
 90
        5
176
     0
 90
        0
176
     0
 90
        0
176
     0
290
     0
176
     0
 90
        1
176
     0
 40
0.0
176
     0
 90
        0
176
     0
290
     0
176
     0
290
     1
176
     0
290
     1
176
     0
290
     0
176
     0
290
     0
176
     0
290
     0
176
     0
290
     0
176
     0
290
     0
176
     0
290
     0
176
     0
 90
       50
176
     0
 40
0.0
176
     0
 40
1.0
176
     0
 90
        0
176
     0
 62
    18
420
        0
176
     0
 90
       50
176
     0
 90
        3
176
     0
 62
     5
420
      255
176
     0
290
     0
176
     0
 90
       50
176
     0
 90
       50
176
     0
 90
       50
176
     0
290
     0
176
     0
 90
       50
176
     0
 62
   256
176
     0
 40
1.0
176
     0
 90
        2
176
     0
  1
strokes_ogs.tif
176
     0
290
     0
176
     0
 40
1.0
176
     0
 40
1.0
176
     0
1001
ACAD
1000
AcDbSavedByObjectVersion
1070
     0
  0
VISUALSTYLE
  5
37
102
{ACAD_REACTORS
330
29
102
}
330
29
100
AcDbVisualStyle
  2
Linepattern
 70
    14
177
     3
291
     1
 70
    58
 90
        2
176
     1
 90
        2
176
     1
 90
        0
176
     1
 90
        0
176
     1
 40
0.6
176
     1
 40
30.0
176
     1
 62
     7
420
 16777215
176
     1
 90
        1
176
     1
 90
        4
176
     1
 62
     7
176
     1
 62
   257
176
     1
 90
        7
176
     1
 90
        7
176
     1
 40
1.0
176
     1
 90
        8
176
     1
 62
     7
176
     1
 40
1.0
176
     1
 90
        1
176
     1
 90
        6
176
     1
 90
        2
176
     1
 62
     7
176
     1
 90
        5
176
     1
 90
        0
176
     1
 90
        0
176
     1
290
     0
176
     1
 90
        1
176
     1
 40
0.0
176
     1
 90
        0
176
     1
290
     0
176
     1
290
     1
176
     1
290
     1
176
     1
290
     0
176
     1
290
     0
176
     1
290
     0
176
     1
290
     0
176
     1
290
     0
176
     1
290
     0
176
     1
 90
       50
176
     1
 40
0.0
176
     1
 40
1.0
176
     1
 90
        0
176
     1
 62
    18
420
        0
176
     1
 90
       50
176
     1
 90
        3
176
     1
 62
     5
420
      255
176
     1
290
     0
176
     1
 90
       50
176
     1
 90
       50
176
     1
 90
       50
176
     1
290
     0
176
     1
 90
       50
176
     1
 62
   256
176
     0
 40
1.0
176
     0
 90
        2
176
     1
  1
strokes_ogs.tif
176
     1
290
     0
176
     1
 40
1.0
176
     1
 40
1.0
176
     1
1001
ACAD
1000
AcDbSavedByObjectVersion
1070
     0
  0
VISUALSTYLE
  5
40
102
{ACAD_REACTORS
330
29
102
}
330
29
100
AcDbVisualStyle
  2
OverhangOff
 70
    21
177
     3
291
     1
 70
    58
 90
        2
176
     0
 90
        2
176
     0
 90
        0
176
     0
 90
        0
176
     0
 40
0.6
176
     0
 40
30.0
176
     0
 62
     7
420
 16777215
176
     0
 90
        1
176
     0
 90
        4
176
     0
 62
     7
176
     0
 62
   257
176
     0
 90
        1
176
     0
 90
        1
176
     0
 40
1.0
176
     0
 90
        9
176
     2
 62
     7
176
     0
 40
1.0
176
     0
 90
        1
176
     0
 90
        6
176
     0
 90
        2
176
     0
 62
     7
176
     0
 90
        5
176
     0
 90
        0
176
     0
 90
        0
176
     0
290
     0
176
     0
 90
        1
176
     0
 40
0.0
176
     0
 90
        0
176
     0
290
     0
176
     0
290
     1
176
     0
290
     1
176
     0
290
     0
176
     0
290
     0
176
     0
290
     0
176
     0
290
     0
176
     0
290
     0
176
     0
290
     0
176
     0
 90
       50
176
     0
 40
0.0
176
     0
 40
1.0
176
     0
 90
        0
176
     0
 62
    18
420
        0
176
     0
 90
       50
176
     0
 90
        3
176
     0
 62
     5
420
      255
176
     0
290
     0
176
     0
 90
       50
176
     0
 90
       50
176
     0
 90
       50
176
     0
290
     0
176
     0
 90
       50
176
     0
 62
   256
176
     0
 40
1.0
176
     0
 90
        2
176
     0
  1
strokes_ogs.tif
176
     0
290
     0
176
     0
 40
1.0
176
     0
 40
1.0
176
     0
1001
ACAD
1000
AcDbSavedByObjectVersion
1070
     0
  0
VISUALSTYLE
  5
33
102
{ACAD_REACTORS
330
29
102
}
330
29
100
AcDbVisualStyle
  2
Realistic
 70
     8
177
     3
291
     0
 70
    58
 90
        2
176
     1
 90
        3
176
     1
 90
        0
176
     1
 90
        2
176
     1
 40
0.6
176
     1
 40
30.0
176
     1
 62
     7
420
 16777215
176
     1
 90
        0
176
     1
 90
        0
176
     1
 62
     7
176
     1
 62
   257
176
     1
 90
        1
176
     1
 90
        1
176
     1
 40
1.0
176
     1
 90
        8
176
     1
 62
   257
176
     1
 40
1.0
176
     1
 90
        1
176
     1
 90
        6
176
     1
 90
        2
176
     1
 62
     7
176
     1
 90
        3
176
     1
 90
        0
176
     1
 90
        0
176
     1
290
     0
176
     1
 90
       13
176
     1
 40
0.0
176
     1
 90
        0
176
     1
290
     0
176
     1
290
     1
176
     1
290
     1
176
     1
290
     0
176
     1
290
     0
176
     1
290
     0
176
     1
290
     0
176
     1
290
     0
176
     1
290
     0
176
     1
 90
       50
176
     1
 40
0.0
176
     1
 40
1.0
176
     1
 90
        0
176
     1
 62
    18
420
        0
176
     1
 90
       50
176
     1
 90
        3
176
     1
 62
     5
420
      255
176
     1
290
     0
176
     1
 90
       50
176
     1
 90
       50
176
     1
 90
       50
176
     1
290
     0
176
     1
 90
       50
176
     1
 62
   256
176
     0
 40
1.0
176
     0
 90
        2
176
     1
  1
strokes_ogs.tif
176
     1
290
     0
176
     1
 40
1.0
176
     1
 40
1.0
176
     1
1001
ACAD
1000
AcDbSavedByObjectVersion
1070
     0
  0
VISUALSTYLE
  5
3E
102
{ACAD_REACTORS
330
29
102
}
330
29
100
AcDbVisualStyle
  2
Shaded
 70
    27
177
     3
291
     0
 70
    58
 90
        2
176
     1
 90
        2
176
     1
 90
        1
176
     1
 90
        2
176
     1
 40
0.6
176
     1
 40
30.0
176
     1
 62
     7
420
 16777215
176
     1
 90
        0
176
     1
 90
        4
176
     1
 62
     7
176
     1
 62
   257
176
     1
 90
        1
176
     1
 90
        1
176
     1
 40
1.0
176
     1
 90
        8
176
     1
 62
   257
176
     1
 40
1.0
176
     1
 90
        1
176
     1
 90
        6
176
     1
 90
        2
176
     1
 62
     8
420
  7895160
176
     1
 90
        3
176
     1
 90
        0
176
     1
 90
        0
176
     1
290
     0
176
     1
 90
        5
176
     1
 40
0.0
176
     1
 90
        0
176
     1
290
     0
176
     1
290
     1
176
     1
290
     1
176
     1
290
     0
176
     1
290
     0
176
     1
290
     0
176
     1
290
     0
176
     1
290
     0
176
     1
290
     0
176
     1
 90
       50
176
     1
 40
0.0
176
     1
 40
1.0
176
     1
 90
        0
176
     1
 62
    18
420
        0
176
     1
 90
       50
176
     1
 90
        3
176
     1
 62
     5
420
      255
176
     1
290
     0
176
     1
 90
       50
176
     1
 90
       50
176
     1
 90
       50
176
     1
290
     0
176
     1
 90
       50
176
     1
 62
   256
176
     0
 40
1.0
176
     0
 90
        2
176
     1
  1
strokes_ogs.tif
176
     1
290
     0
176
     1
 40
1.0
176
     1
 40
1.0
176
     1
1001
ACAD
1000
AcDbSavedByObjectVersion
1070
     0
  0
VISUALSTYLE
  5
3D
102
{ACAD_REACTORS
330
29
102
}
330
29
100
AcDbVisualStyle
  2
Shaded with edges
 70
    26
177
     3
291
     0
 70
    58
 90
        2
176
     1
 90
        2
176
     1
 90
        1
176
     1
 90
        2
176
     1
 40
0.6
176
     1
 40
30.0
176
     1
 62
     7
420
 16777215
176
     1
 90
        1
176
     1
 90
        2
176
     1
 62
     7
176
     1
 62
   257
176
     1
 90
        2
176
     1
 90
        1
176
     1
 40
1.0
176
     1
 90
        8
176
     1
 62
   257
176
     1
 40
1.0
176
     1
 90
        1
176
     1
 90
        6
176
     1
 90
        2
176
     1
 62
     7
176
     1
 90
        3
176
     1
 90
        0
176
     1
 90
        0
176
     1
290
     0
176
     1
 90
        5
176
     1
 40
0.0
176
     1
 90
        0
176
     1
290
     0
176
     1
290
     1
176
     1
290
     1
176
     1
290
     0
176
     1
290
     0
176
     1
290
     0
176
     1
290
     0
176
     1
290
     0
176
     1
290
     0
176
     1
 90
       50
176
     1
 40
0.0
176
     1
 40
1.0
176
     1
 90
        0
176
     1
 62
    18
420
        0
176
     1
 90
       50
176
     1
 90
        3
176
     1
 62
     5
420
      255
176
     1
290
     0
176
     1
 90
       50
176
     1
 90
       50
176
     1
 90
       50
176
     1
290
     0
176
     1
 90
       50
176
     1
 62
   256
176
     0
 40
1.0
176
     0
 90
        2
176
     1
  1
strokes_ogs.tif
176
     1
290
     0
176
     1
 40
1.0
176
     1
 40
1.0
176
     1
1001
ACAD
1000
AcDbSavedByObjectVersion
1070
     0
  0
VISUALSTYLE
  5
3A
102
{ACAD_REACTORS
330
29
102
}
330
29
100
AcDbVisualStyle
  2
Shades of Gray
 70
    23
177
     3
291
     0
 70
    58
 90
        2
176
     1
 90
        2
176
     1
 90
        3
176
     1
 90
        0
176
     1
 40
0.6
176
     1
 40
30.0
176
     1
 62
     7
420
 16777215
176
     1
 90
        2
176
     1
 90
        2
176
     1
 62
     7
176
     1
 62
     7
176
     1
 90
        1
176
     1
 90
        1
176
     1
 40
40.0
176
     1
 90
        8
176
     1
 62
     7
176
     1
 40
1.0
176
     1
 90
        1
176
     1
 90
        6
176
     1
 90
        2
176
     1
 62
     7
176
     1
 90
        3
176
     1
 90
        0
176
     1
 90
        0
176
     1
290
     0
176
     1
 90
        1
176
     1
 40
0.0
176
     1
 90
        0
176
     1
290
     0
176
     1
290
     1
176
     1
290
     1
176
     1
290
     0
176
     1
290
     0
176
     1
290
     0
176
     1
290
     0
176
     1
290
     0
176
     1
290
     0
176
     1
 90
       50
176
     1
 40
0.0
176
     1
 40
1.0
176
     1
 90
        0
176
     1
 62
    18
420
        0
176
     1
 90
       50
176
     1
 90
        3
176
     1
 62
     5
420
      255
176
     1
290
     0
176
     1
 90
       50
176
     1
 90
       50
176
     1
 90
       50
176
     1
290
     0
176
     1
 90
       50
176
     1
 62
   256
176
     0
 40
1.0
176
     0
 90
        2
176
     1
  1
strokes_ogs.tif
176
     1
290
     0
176
     1
 40
1.0
176
     1
 40
1.0
176
     1
1001
ACAD
1000
AcDbSavedByObjectVersion
1070
     0
  0
VISUALSTYLE
  5
3B
102
{ACAD_REACTORS
330
29
102
}
330
29
100
AcDbVisualStyle
  2
Sketchy
 70
    24
177
     3
291
     0
 70
    58
 90
        1
176
     1
 90
        2
176
     1
 90
        2
176
     1
 90
        0
176
     1
 40
0.6
176
     1
 40
30.0
176
     1
 62
     7
420
 16777215
176
     1
 90
        2
176
     1
 90
        2
176
     1
 62
     7
176
     1
 62
     7
176
     1
 90
        1
176
     1
 90
        1
176
     1
 40
40.0
176
     1
 90
       11
176
     1
 62
     7
176
     1
 40
1.0
176
     1
 90
        1
176
     1
 90
        6
176
     1
 90
        2
176
     1
 62
     7
176
     1
 90
        6
176
     1
 90
        0
176
     1
 90
        0
176
     1
290
     0
176
     1
 90
        1
176
     1
 40
0.0
176
     1
 90
        0
176
     1
290
     0
176
     1
290
     1
176
     1
290
     1
176
     1
290
     0
176
     1
290
     0
176
     1
290
     0
176
     1
290
     0
176
     1
290
     0
176
     1
290
     0
176
     1
 90
       50
176
     1
 40
0.0
176
     1
 40
1.0
176
     1
 90
        0
176
     1
 62
    18
420
        0
176
     1
 90
       50
176
     1
 90
        3
176
     1
 62
     5
420
      255
176
     1
290
     0
176
     1
 90
       50
176
     1
 90
       50
176
     1
 90
       50
176
     1
290
     0
176
     1
 90
       50
176
     1
 62
   256
176
     0
 40
1.0
176
     0
 90
        2
176
     1
  1
strokes_ogs.tif
176
     1
290
     0
176
     1
 40
1.0
176
     1
 40
1.0
176
     1
1001
ACAD
1000
AcDbSavedByObjectVersion
1070
     0
  0
VISUALSTYLE
  5
36
102
{ACAD_REACTORS
330
29
102
}
330
29
100
AcDbVisualStyle
  2
Thicken
 70
    13
177
     3
291
     1
 70
    58
 90
        2
176
     1
 90
        2
176
     1
 90
        0
176
     1
 90
        0
176
     1
 40
0.6
176
     1
 40
30.0
176
     1
 62
     7
420
 16777215
176
     1
 90
        1
176
     1
 90
        4
176
     1
 62
     7
176
     1
 62
   257
176
     1
 90
        1
176
     1
 90
        1
176
     1
 40
1.0
176
     1
 90
       12
176
     1
 62
     7
176
     1
 40
1.0
176
     1
 90
        1
176
     1
 90
        6
176
     1
 90
        2
176
     1
 62
     7
176
     1
 90
        5
176
     1
 90
        0
176
     1
 90
        0
176
     1
290
     0
176
     1
 90
        1
176
     1
 40
0.0
176
     1
 90
        0
176
     1
290
     0
176
     1
290
     1
176
     1
290
     1
176
     1
290
     0
176
     1
290
     0
176
     1
290
     0
176
     1
290
     0
176
     1
290
     0
176
     1
290
     0
176
     1
 90
       50
176
     1
 40
0.0
176
     1
 40
1.0
176
     1
 90
        0
176
     1
 62
    18
420
        0
176
     1
 90
       50
176
     1
 90
        3
176
     1
 62
     5
420
      255
176
     1
290
     0
176
     1
 90
       50
176
     1
 90
       50
176
     1
 90
       50
176
     1
290
     0
176
     1
 90
       50
176
     1
 62
   256
176
     0
 40
1.0
176
     0
 90
        2
176
     1
  1
strokes_ogs.tif
176
     1
290
     0
176
     1
 40
1.0
176
     1
 40
1.0
176
     1
1001
ACAD
1000
AcDbSavedByObjectVersion
1070
     0
  0
VISUALSTYLE
  5
30
102
{ACAD_REACTORS
330
29
102
}
330
29
100
AcDbVisualStyle
  2
Wireframe
 70
     5
177
     3
291
     0
 70
    58
 90
        0
176
     1
 90
        2
176
     1
 90
        0
176
     1
 90
        0
176
     1
 40
0.6
176
     1
 40
30.0
176
     1
 62
     7
420
 16777215
176
     1
 90
        1
176
     1
 90
        4
176
     1
 62
     7
176
     1
 62
   257
176
     1
 90
        1
176
     1
 90
        1
176
     1
 40
1.0
176
     1
 90
        0
176
     1
 62
   257
176
     1
 40
1.0
176
     1
 90
        1
176
     1
 90
        6
176
     1
 90
        2
176
     1
 62
     7
176
     1
 90
        3
176
     1
 90
        0
176
     1
 90
        0
176
     1
290
     0
176
     1
 90
        1
176
     1
 40
0.0
176
     1
 90
        0
176
     1
290
     0
176
     1
290
     1
176
     1
290
     1
176
     1
290
     0
176
     1
290
     0
176
     1
290
     0
176
     1
290
     0
176
     1
290
     0
176
     1
290
     0
176
     1
 90
       50
176
     1
 40
0.0
176
     1
 40
1.0
176
     1
 90
        0
176
     1
 62
    18
420
        0
176
     1
 90
       50
176
     1
 90
        3
176
     1
 62
     5
420
      255
176
     1
290
     0
176
     1
 90
       50
176
     1
 90
       50
176
     1
 90
       50
176
     1
290
     0
176
     1
 90
       50
176
     1
 62
   256
176
     0
 40
1.0
176
     0
 90
        2
176
     1
  1
strokes_ogs.tif
176
     1
290
     0
176
     1
 40
1.0
176
     1
 40
1.0
176
     1
1001
ACAD
1000
AcDbSavedByObjectVersion
1070
     0
  0
VISUALSTYLE
  5
3C
102
{ACAD_REACTORS
330
29
102
}
330
29
100
AcDbVisualStyle
  2
X-Ray
 70
    25
177
     3
291
     0
 70
    58
 90
        2
176
     1
 90
        2
176
     1
 90
        1
176
     1
 90
        1
176
     1
 40
0.5
176
     1
 40
30.0
176
     1
 62
     7
420
 16777215
176
     1
 90
        1
176
     1
 90
        0
176
     1
 62
     7
176
     1
 62
   257
176
     1
 90
        1
176
     1
 90
        1
176
     1
 40
1.0
176
     1
 90
        8
176
     1
 62
     7
176
     1
 40
1.0
176
     1
 90
        1
176
     1
 90
        6
176
     1
 90
        2
176
     1
 62
     7
176
     1
 90
        3
176
     1
 90
        0
176
     1
 90
        0
176
     1
290
     0
176
     1
 90
       13
176
     1
 40
0.0
176
     1
 90
        0
176
     1
290
     0
176
     1
290
     1
176
     1
290
     1
176
     1
290
     0
176
     1
290
     0
176
     1
290
     0
176
     1
290
     0
176
     1
290
     0
176
     1
290
     0
176
     1
 90
       50
176
     1
 40
0.0
176
     1
 40
1.0
176
     1
 90
        0
176
     1
 62
    18
420
        0
176
     1
 90
       50
176
     1
 90
        3
176
     1
 62
     5
420
      255
176
     1
290
     0
176
     1
 90
       50
176
     1
 90
       50
176
     1
 90
       50
176
     1
290
     0
176
     1
 90
       50
176
     1
 62
   256
176
     0
 40
1.0
176
     0
 90
        2
176
     1
  1
strokes_ogs.tif
176
     1
290
     0
176
     1
 40
1.0
176
     1
 40
1.0
176
     1
1001
ACAD
1000
AcDbSavedByObjectVersion
1070
     0
  0
DICTIONARYVAR
  5
3D4
102
{ACAD_REACTORS
330
3CF
102
}
330
3CF
100
DictionaryVariables
280
     0
  1
0
  0
DICTIONARYVAR
  5
3D5
102
{ACAD_REACTORS
330
3CF
102
}
330
3CF
100
DictionaryVariables
280
     0
  1
1:1
  0
DICTIONARYVAR
  5
3D1
102
{ACAD_REACTORS
330
3CF
102
}
330
3CF
100
DictionaryVariables
280
     0
  1
STANDARD
  0
DICTIONARYVAR
  5
3D0
102
{ACAD_REACTORS
330
3CF
102
}
330
3CF
100
DictionaryVariables
280
     0
  1
STANDARD
  0
DICTIONARYVAR
  5
3D2
102
{ACAD_REACTORS
330
3CF
102
}
330
3CF
100
DictionaryVariables
280
     0
  1
Imperial24
  0
DICTIONARYVAR
  5
3D3
102
{ACAD_REACTORS
330
3CF
102
}
330
3CF
100
DictionaryVariables
280
     0
  1
Imperial24
  0
DICTIONARY
  5
3DD
330
6B
100
AcDbDictionary
280
     1
281
     1
  3
ACAD_XREC_ROUNDTRIP
360
3DE
  0
DICTIONARY
  5
1A
330
19
100
AcDbDictionary
280
     1
281
     1
  3
BUMPTILE
360
1C
  3
DIFFUSETILE
360
1B
  3
OPACITYTILE
360
1F
  3
REFLECTIONTILE
360
1E
  3
REFRACTIONTILE
360
20
  3
SPECULARTILE
360
1D
  0
DICTIONARY
  5
12
330
11
100
AcDbDictionary
280
     1
281
     1
  3
BUMPTILE
360
14
  3
DIFFUSETILE
360
13
  3
OPACITYTILE
360
17
  3
REFLECTIONTILE
360
16
  3
REFRACTIONTILE
360
18
  3
SPECULARTILE
360
15
  0
DICTIONARY
  5
22
330
21
100
AcDbDictionary
280
     1
281
     1
  3
BUMPTILE
360
24
  3
DIFFUSETILE
360
23
  3
OPACITYTILE
360
27
  3
REFLECTIONTILE
360
26
  3
REFRACTIONTILE
360
28
  3
SPECULARTILE
360
25
  0
DICTIONARY
  5
3DB
330
69
100
AcDbDictionary
280
     1
281
     1
  3
ACAD_XREC_ROUNDTRIP
360
3DC
  0
DICTIONARY
  5
3D6
330
65
100
AcDbDictionary
280
     1
281
     1
  3
ACAD_ROUNDTRIP_2008_TABLESTYLE_CELLSTYLEMAP
360
3D7
  0
XRECORD
  5
3DE
102
{ACAD_REACTORS
330
3DD
102
}
330
3DD
100
AcDbXrecord
280
     1
102
DISPLAYNAME
  1
Imperial24
102
FLAGS
 90
        0
  0
XRECORD
  5
1C
102
{ACAD_REACTORS
330
1A
102
}
330
1A
100
AcDbXrecord
280
     1
270
     1
271
     1
  0
XRECORD
  5
1B
102
{ACAD_REACTORS
330
1A
102
}
330
1A
100
AcDbXrecord
280
     1
270
     1
271
     1
  0
XRECORD
  5
1F
102
{ACAD_REACTORS
330
1A
102
}
330
1A
100
AcDbXrecord
280
     1
270
     1
271
     1
  0
XRECORD
  5
1E
102
{ACAD_REACTORS
330
1A
102
}
330
1A
100
AcDbXrecord
280
     1
270
     1
271
     1
  0
XRECORD
  5
20
102
{ACAD_REACTORS
330
1A
102
}
330
1A
100
AcDbXrecord
280
     1
270
     1
271
     1
  0
XRECORD
  5
1D
102
{ACAD_REACTORS
330
1A
102
}
330
1A
100
AcDbXrecord
280
     1
270
     1
271
     1
  0
XRECORD
  5
14
102
{ACAD_REACTORS
330
12
102
}
330
12
100
AcDbXrecord
280
     1
270
     1
271
     1
  0
XRECORD
  5
13
102
{ACAD_REACTORS
330
12
102
}
330
12
100
AcDbXrecord
280
     1
270
     1
271
     1
  0
XRECORD
  5
17
102
{ACAD_REACTORS
330
12
102
}
330
12
100
AcDbXrecord
280
     1
270
     1
271
     1
  0
XRECORD
  5
16
102
{ACAD_REACTORS
330
12
102
}
330
12
100
AcDbXrecord
280
     1
270
     1
271
     1
  0
XRECORD
  5
18
102
{ACAD_REACTORS
330
12
102
}
330
12
100
AcDbXrecord
280
     1
270
     1
271
     1
  0
XRECORD
  5
15
102
{ACAD_REACTORS
330
12
102
}
330
12
100
AcDbXrecord
280
     1
270
     1
271
     1
  0
XRECORD
  5
24
102
{ACAD_REACTORS
330
22
102
}
330
22
100
AcDbXrecord
280
     1
270
     1
271
     1
  0
XRECORD
  5
23
102
{ACAD_REACTORS
330
22
102
}
330
22
100
AcDbXrecord
280
     1
270
     1
271
     1
  0
XRECORD
  5
27
102
{ACAD_REACTORS
330
22
102
}
330
22
100
AcDbXrecord
280
     1
270
     1
271
     1
  0
XRECORD
  5
26
102
{ACAD_REACTORS
330
22
102
}
330
22
100
AcDbXrecord
280
     1
270
     1
271
     1
  0
XRECORD
  5
28
102
{ACAD_REACTORS
330
22
102
}
330
22
100
AcDbXrecord
280
     1
270
     1
271
     1
  0
XRECORD
  5
25
102
{ACAD_REACTORS
330
22
102
}
330
22
100
AcDbXrecord
280
     1
270
     1
271
     1
  0
XRECORD
  5
3DC
102
{ACAD_REACTORS
330
3DB
102
}
330
3DB
100
AcDbXrecord
280
     1
102
DISPLAYNAME
  1
Imperial24
102
FLAGS
 90
        0
  0
CELLSTYLEMAP
  5
3D7
102
{ACAD_REACTORS
330
3D6
102
}
330
3D6
100
AcDbCellStyleMap
 90
        3
300
CELLSTYLE
  1
TABLEFORMAT_BEGIN
 90
        5
170
     1
 91
        0
 92
    32768
 62
   257
 93
        1
300
CONTENTFORMAT
  1
CONTENTFORMAT_BEGIN
 90
        0
 91
        0
 92
      512
 93
        0
300

 40
0.0
140
1.0
 94
        5
 62
     0
340
55
144
0.25
309
CONTENTFORMAT_END
171
     0
 94
        0
309
TABLEFORMAT_END
  1
CELLSTYLE_BEGIN
 90
        1
 91
        1
300
_TITLE
309
CELLSTYLE_END
300
CELLSTYLE
  1
TABLEFORMAT_BEGIN
 90
        5
170
     1
 91
        0
 92
        0
 62
   257
 93
        1
300
CONTENTFORMAT
  1
CONTENTFORMAT_BEGIN
 90
        0
 91
        0
 92
      512
 93
        0
300

 40
0.0
140
1.0
 94
        5
 62
     0
340
55
144
0.18
309
CONTENTFORMAT_END
171
     0
 94
        0
309
TABLEFORMAT_END
  1
CELLSTYLE_BEGIN
 90
        2
 91
        1
300
_HEADER
309
CELLSTYLE_END
300
CELLSTYLE
  1
TABLEFORMAT_BEGIN
 90
        5
170
     1
 91
        0
 92
        0
 62
   257
 93
        1
300
CONTENTFORMAT
  1
CONTENTFORMAT_BEGIN
 90
        0
 91
        0
 92
      512
 93
        0
300

 40
0.0
140
1.0
 94
        2
 62
     0
340
55
144
0.18
309
CONTENTFORMAT_END
171
     0
 94
        0
309
TABLEFORMAT_END
  1
CELLSTYLE_BEGIN
 90
        3
 91
        2
300
_DATA
309
CELLSTYLE_END
  0
ENDSEC
  0
EOF
