  0
SECTION
  2
HEADER
  9
$ACADVER
  1
AC1027
  9
$ACADMAINTVER
 70
   125
  9
$DWGCODEPAGE
  3
ANSI_1252
  9
$LASTSAVEDBY
  1
Administrator
  9
$REQUIREDVERSIONS
160
                 0
  9
$INSBASE
 10
0.0
 20
0.0
 30
0.0
  9
$EXTMIN
 10
0.0
 20
0.0
 30
-0.762622
  9
$EXTMAX
 10
17.0
 20
11.0
 30
2.060438
  9
$LIMMIN
 10
0.0
 20
0.0
  9
$LIMMAX
 10
17.0
 20
11.0
  9
$ORTHOMODE
 70
     0
  9
$REGENMODE
 70
     1
  9
$FILLMODE
 70
     1
  9
$QTEXTMODE
 70
     0
  9
$MIRRTEXT
 70
     0
  9
$LTSCALE
 40
0.75
  9
$ATTMODE
 70
     1
  9
$TEXTSIZE
 40
0.12
  9
$TRACEWID
 40
0.05
  9
$TEXTSTYLE
  7
Standard
  9
$CLAYER
  8
Titleblock
  9
$CELTYPE
  6
ByLayer
  9
$CECOLOR
 62
   256
  9
$CELTSCALE
 40
1.0
  9
$DISPSILH
 70
     0
  9
$DIMSCALE
 40
1.0
  9
$DIMASZ
 40
0.12
  9
$DIMEXO
 40
0.07
  9
$DIMDLI
 40
0.36
  9
$DIMRND
 40
0.0
  9
$DIMDLE
 40
0.0
  9
$DIMEXE
 40
0.07
  9
$DIMTP
 40
0.01
  9
$DIMTM
 40
0.01
  9
$DIMTXT
 40
0.12
  9
$DIMCEN
 40
0.0
  9
$DIMTSZ
 40
0.0
  9
$DIMTOL
 70
     0
  9
$DIMLIM
 70
     0
  9
$DIMTIH
 70
     1
  9
$DIMTOH
 70
     1
  9
$DIMSE1
 70
     0
  9
$DIMSE2
 70
     0
  9
$DIMTAD
 70
     0
  9
$DIMZIN
 70
    12
  9
$DIMBLK
  1

  9
$DIMASO
 70
     1
  9
$DIMSHO
 70
     1
  9
$DIMPOST
  1
in
  9
$DIMAPOST
  1
mm
  9
$DIMALT
 70
     0
  9
$DIMALTD
 70
     2
  9
$DIMALTF
 40
25.4
  9
$DIMLFAC
 40
1.0
  9
$DIMTOFL
 70
     0
  9
$DIMTVP
 40
0.0
  9
$DIMTIX
 70
     0
  9
$DIMSOXD
 70
     0
  9
$DIMSAH
 70
     0
  9
$DIMBLK1
  1

  9
$DIMBLK2
  1

  9
$DIMSTYLE
  2
Standard
  9
$DIMCLRD
 70
   256
  9
$DIMCLRE
 70
   256
  9
$DIMCLRT
 70
   256
  9
$DIMTFAC
 40
1.0
  9
$DIMGAP
 40
0.05
  9
$DIMJUST
 70
     0
  9
$DIMSD1
 70
     0
  9
$DIMSD2
 70
     0
  9
$DIMTOLJ
 70
     1
  9
$DIMTZIN
 70
    12
  9
$DIMALTZ
 70
    12
  9
$DIMALTTZ
 70
    12
  9
$DIMUPT
 70
     0
  9
$DIMDEC
 70
     2
  9
$DIMTDEC
 70
     2
  9
$DIMALTU
 70
     2
  9
$DIMALTTD
 70
     2
  9
$DIMTXSTY
  7
Standard
  9
$DIMAUNIT
 70
     0
  9
$DIMADEC
 70
     2
  9
$DIMALTRND
 40
0.0
  9
$DIMAZIN
 70
     3
  9
$DIMDSEP
 70
    46
  9
$DIMATFIT
 70
     3
  9
$DIMFRAC
 70
     0
  9
$DIMLDRBLK
  1

  9
$DIMLUNIT
 70
     2
  9
$DIMLWD
 70
    -2
  9
$DIMLWE
 70
    -2
  9
$DIMTMOVE
 70
     0
  9
$DIMFXL
 40
1.0
  9
$DIMFXLON
 70
     0
  9
$DIMJOGANG
 40
0.785398
  9
$DIMTFILL
 70
     0
  9
$DIMTFILLCLR
 70
     0
  9
$DIMARCSYM
 70
     1
  9
$DIMLTYPE
  6

  9
$DIMLTEX1
  6

  9
$DIMLTEX2
  6

  9
$DIMTXTDIRECTION
 70
     0
  9
$LUNITS
 70
     2
  9
$LUPREC
 70
     4
  9
$SKETCHINC
 40
0.1
  9
$FILLETRAD
 40
0.0
  9
$AUNITS
 70
     0
  9
$AUPREC
 70
     0
  9
$MENU
  1
.
  9
$ELEVATION
 40
0.0
  9
$PELEVATION
 40
0.0
  9
$THICKNESS
 40
0.0
  9
$LIMCHECK
 70
     0
  9
$CHAMFERA
 40
0.0
  9
$CHAMFERB
 40
0.0
  9
$CHAMFERC
 40
0.0
  9
$CHAMFERD
 40
0.0
  9
$SKPOLY
 70
     0
  9
$TDCREATE
 40
2459467.543148149
  9
$TDUCREATE
 40
2459467.834814815
  9
$TDUPDATE
 40
2459467.543148149
  9
$TDUUPDATE
 40
2459467.834814815
  9
$TDINDWG
 40
0.0000115741
  9
$TDUSRTIMER
 40
0.0000115741
  9
$USRTIMER
 70
     1
  9
$ANGBASE
 50
0.0
  9
$ANGDIR
 70
     0
  9
$PDMODE
 70
     0
  9
$PDSIZE
 40
0.0
  9
$PLINEWID
 40
0.0
  9
$SPLFRAME
 70
     0
  9
$SPLINETYPE
 70
     6
  9
$SPLINESEGS
 70
     8
  9
$HANDSEED
  5
44C
  9
$SURFTAB1
 70
     6
  9
$SURFTAB2
 70
     6
  9
$SURFTYPE
 70
     6
  9
$SURFU
 70
     6
  9
$SURFV
 70
     6
  9
$UCSBASE
  2

  9
$UCSNAME
  2

  9
$UCSORG
 10
0.0
 20
0.0
 30
0.0
  9
$UCSXDIR
 10
1.0
 20
0.0
 30
0.0
  9
$UCSYDIR
 10
0.0
 20
1.0
 30
0.0
  9
$UCSORTHOREF
  2

  9
$UCSORTHOVIEW
 70
     0
  9
$UCSORGTOP
 10
0.0
 20
0.0
 30
0.0
  9
$UCSORGBOTTOM
 10
0.0
 20
0.0
 30
0.0
  9
$UCSORGLEFT
 10
0.0
 20
0.0
 30
0.0
  9
$UCSORGRIGHT
 10
0.0
 20
0.0
 30
0.0
  9
$UCSORGFRONT
 10
0.0
 20
0.0
 30
0.0
  9
$UCSORGBACK
 10
0.0
 20
0.0
 30
0.0
  9
$PUCSBASE
  2

  9
$PUCSNAME
  2

  9
$PUCSORG
 10
0.0
 20
0.0
 30
0.0
  9
$PUCSXDIR
 10
1.0
 20
0.0
 30
0.0
  9
$PUCSYDIR
 10
0.0
 20
1.0
 30
0.0
  9
$PUCSORTHOREF
  2

  9
$PUCSORTHOVIEW
 70
     0
  9
$PUCSORGTOP
 10
0.0
 20
0.0
 30
0.0
  9
$PUCSORGBOTTOM
 10
0.0
 20
0.0
 30
0.0
  9
$PUCSORGLEFT
 10
0.0
 20
0.0
 30
0.0
  9
$PUCSORGRIGHT
 10
0.0
 20
0.0
 30
0.0
  9
$PUCSORGFRONT
 10
0.0
 20
0.0
 30
0.0
  9
$PUCSORGBACK
 10
0.0
 20
0.0
 30
0.0
  9
$USERI1
 70
     0
  9
$USERI2
 70
     0
  9
$USERI3
 70
     0
  9
$USERI4
 70
     0
  9
$USERI5
 70
     0
  9
$USERR1
 40
0.0
  9
$USERR2
 40
0.0
  9
$USERR3
 40
0.0
  9
$USERR4
 40
0.0
  9
$USERR5
 40
0.0
  9
$WORLDVIEW
 70
     1
  9
$SHADEDGE
 70
     3
  9
$SHADEDIF
 70
    70
  9
$TILEMODE
 70
     1
  9
$MAXACTVP
 70
    64
  9
$PINSBASE
 10
0.0
 20
0.0
 30
0.0
  9
$PLIMCHECK
 70
     0
  9
$PEXTMIN
 10
1.000000E+20
 20
1.000000E+20
 30
1.000000E+20
  9
$PEXTMAX
 10
-1.000000E+20
 20
-1.000000E+20
 30
-1.000000E+20
  9
$PLIMMIN
 10
0.0
 20
0.0
  9
$PLIMMAX
 10
12.0
 20
9.0
  9
$UNITMODE
 70
     0
  9
$VISRETAIN
 70
     1
  9
$PLINEGEN
 70
     0
  9
$PSLTSCALE
 70
     1
  9
$TREEDEPTH
 70
  3020
  9
$CMLSTYLE
  2
Standard
  9
$CMLJUST
 70
     0
  9
$CMLSCALE
 40
1.0
  9
$PROXYGRAPHICS
 70
     1
  9
$MEASUREMENT
 70
     0
  9
$CELWEIGHT
370
    -1
  9
$ENDCAPS
280
     0
  9
$JOINSTYLE
280
     0
  9
$LWDISPLAY
290
     0
  9
$INSUNITS
 70
     1
  9
$HYPERLINKBASE
  1

  9
$STYLESHEET
  1

  9
$XEDIT
290
     1
  9
$CEPSNTYPE
380
     0
  9
$PSTYLEMODE
290
     1
  9
$FINGERPRINTGUID
  2
{679C8EBB-9A61-5D4E-83F3-A140F8EB2BCE}
  9
$VERSIONGUID
  2
{1EA9A585-2816-944E-A271-55F339CD3DB9}
  9
$EXTNAMES
290
     1
  9
$PSVPSCALE
 40
0.0
  9
$OLESTARTUP
290
     0
  9
$SORTENTS
280
   127
  9
$INDEXCTL
280
     0
  9
$HIDETEXT
280
     1
  9
$XCLIPFRAME
280
     0
  9
$HALOGAP
280
     0
  9
$OBSCOLOR
 70
   257
  9
$OBSLTYPE
280
     0
  9
$INTERSECTIONDISPLAY
280
     0
  9
$INTERSECTIONCOLOR
 70
   257
  9
$DIMASSOC
280
     2
  9
$PROJECTNAME
  1

  9
$CAMERADISPLAY
290
     0
  9
$LENSLENGTH
 40
50.0
  9
$CAMERAHEIGHT
 40
0.0
  9
$STEPSPERSEC
 40
2.0
  9
$STEPSIZE
 40
6.0
  9
$3DDWFPREC
 40
2.0
  9
$PSOLWIDTH
 40
0.25
  9
$PSOLHEIGHT
 40
4.0
  9
$LOFTANG1
 40
1.570796
  9
$LOFTANG2
 40
1.570796
  9
$LOFTMAG1
 40
0.0
  9
$LOFTMAG2
 40
0.0
  9
$LOFTPARAM
 70
     7
  9
$LOFTNORMALS
280
     1
  9
$LATITUDE
 40
37.795
  9
$LONGITUDE
 40
-122.394
  9
$NORTHDIRECTION
 40
0.0
  9
$TIMEZONE
 70
 -8000
  9
$LIGHTGLYPHDISPLAY
280
     1
  9
$TILEMODELIGHTSYNCH
280
     1
  9
$CMATERIAL
347
11
  9
$SOLIDHIST
280
     0
  9
$SHOWHIST
280
     1
  9
$DWFFRAME
280
     2
  9
$DGNFRAME
280
     0
  9
$REALWORLDSCALE
290
     1
  9
$INTERFERECOLOR
 62
     1
  9
$INTERFEREOBJVS
345
33
  9
$INTERFEREVPVS
346
30
  9
$CSHADOW
280
     0
  9
$SHADOWPLANELOCATION
 40
0.0
  0
ENDSEC
  0
SECTION
  2
CLASSES
  0
CLASS
  1
ACDBDICTIONARYWDFLT
  2
AcDbDictionaryWithDefault
  3
ObjectDBX Classes
 90
        0
 91
        1
280
     0
281
     0
  0
CLASS
  1
MATERIAL
  2
AcDbMaterial
  3
ObjectDBX Classes
 90
     1153
 91
        3
280
     0
281
     0
  0
CLASS
  1
VISUALSTYLE
  2
AcDbVisualStyle
  3
ObjectDBX Classes
 90
     4095
 91
       24
280
     0
281
     0
  0
CLASS
  1
SCALE
  2
AcDbScale
  3
ObjectDBX Classes
 90
     1153
 91
       33
280
     0
281
     0
  0
CLASS
  1
TABLESTYLE
  2
AcDbTableStyle
  3
ObjectDBX Classes
 90
     4095
 91
        1
280
     0
281
     0
  0
CLASS
  1
MLEADERSTYLE
  2
AcDbMLeaderStyle
  3
ACDB_MLEADERSTYLE_CLASS
 90
     4095
 91
        1
280
     0
281
     0
  0
CLASS
  1
ACDBSECTIONVIEWSTYLE
  2
AcDbSectionViewStyle
  3
ObjectDBX Classes
 90
     1025
 91
        1
280
     0
281
     0
  0
CLASS
  1
ACDBDETAILVIEWSTYLE
  2
AcDbDetailViewStyle
  3
ObjectDBX Classes
 90
     1025
 91
        1
280
     0
281
     0
  0
CLASS
  1
ACMESCOPE
  2
AcMeScope
  3
AcMeServices
 90
     1024
 91
        1
280
     0
281
     0
  0
CLASS
  1
ACMECOMMANDHISTORY
  2
AcMeCommandHistory
  3
AcMeServices
 90
     1024
 91
        1
280
     0
281
     0
  0
CLASS
  1
ACIMSYSVARMAN
  2
AcImSysVarManager
  3
AcMeServices
 90
     1024
 91
        1
280
     0
281
     0
  0
CLASS
  1
ACIMINTSYSVAR
  2
AcImIntSysVar
  3
AcMeServices
 90
     1024
 91
        1
280
     0
281
     0
  0
CLASS
  1
ACMESTATEMGR
  2
AcMeStateMgr
  3
AcMeServices
 90
     1024
 91
        1
280
     0
281
     0
  0
CLASS
  1
ACGREFMASTER
  2
AcGrefMaster
  3
AcAttribServices
 90
     1024
 91
        1
280
     0
281
     0
  0
CLASS
  1
SORTENTSTABLE
  2
AcDbSortentsTable
  3
ObjectDBX Classes
 90
        0
 91
        6
280
     0
281
     0
  0
CLASS
  1
IMAGE
  2
AcDbRasterImage
  3
ISM
 90
     2175
 91
        1
280
     0
281
     1
  0
CLASS
  1
IMAGEDEF
  2
AcDbRasterImageDef
  3
ISM
 90
        0
 91
        1
280
     0
281
     0
  0
CLASS
  1
IMAGEDEF_REACTOR
  2
AcDbRasterImageDefReactor
  3
ISM
 90
        1
 91
        2
280
     0
281
     0
  0
CLASS
  1
RASTERVARIABLES
  2
AcDbRasterVariables
  3
ISM
 90
        0
 91
        1
280
     0
281
     0
  0
CLASS
  1
DICTIONARYVAR
  2
AcDbDictionaryVar
  3
ObjectDBX Classes
 90
        0
 91
        6
280
     0
281
     0
  0
CLASS
  1
CELLSTYLEMAP
  2
AcDbCellStyleMap
  3
ObjectDBX Classes
 90
     1152
 91
        1
280
     0
281
     0
  0
ENDSEC
  0
SECTION
  2
TABLES
  0
TABLE
  2
VPORT
  5
8
330
0
100
AcDbSymbolTable
 70
     1
1001
ACAD
1000
DbSaveVer
1071
      246
  0
VPORT
  5
57
330
8
100
AcDbSymbolTableRecord
100
AcDbViewportTableRecord
  2
*Active
 70
     0
 10
0.0
 20
0.0
 11
1.0
 21
1.0
 12
8.5
 22
5.5
 13
0.0
 23
0.0
 14
0.5
 24
0.5
 15
0.0
 25
0.0
 16
0.0
 26
0.0
 36
1.0
 17
0.0
 27
0.0
 37
0.0
 40
11.0
 41
1.7981
 42
50.0
 43
0.0
 44
0.0
 50
0.0
 51
0.0
 71
     0
 72
 20000
 73
     1
 74
     0
 75
     0
 76
     0
 77
     0
 78
     0
281
     0
 65
     1
110
0.0
120
0.0
130
0.0
111
1.0
121
0.0
131
0.0
112
0.0
122
1.0
132
0.0
 79
     0
146
0.0
348
2F
 60
     3
 61
     5
292
     1
282
     1
141
0.0
142
0.0
 63
   250
421
  3355443
  0
ENDTAB
  0
TABLE
  2
LTYPE
  5
5
330
0
100
AcDbSymbolTable
 70
    10
  0
LTYPE
  5
5B
330
5
100
AcDbSymbolTableRecord
100
AcDbLinetypeTableRecord
  2
ByBlock
 70
     0
  3

 72
    65
 73
     0
 40
0.0
  0
LTYPE
  5
5C
330
5
100
AcDbSymbolTableRecord
100
AcDbLinetypeTableRecord
  2
ByLayer
 70
     0
  3

 72
    65
 73
     0
 40
0.0
  0
LTYPE
  5
5D
330
5
100
AcDbSymbolTableRecord
100
AcDbLinetypeTableRecord
  2
Continuous
 70
     0
  3
Solid line
 72
    65
 73
     0
 40
0.0
  0
LTYPE
  5
81
330
5
100
AcDbSymbolTableRecord
100
AcDbLinetypeTableRecord
  2
HIDDEN
 70
     0
  3
Hidden __ __ __ __ __ __ __ __ __ __ __ __ __ _
 72
    65
 73
     2
 40
0.375
 49
0.25
 74
     0
 49
-0.125
 74
     0
  0
LTYPE
  5
82
330
5
100
AcDbSymbolTableRecord
100
AcDbLinetypeTableRecord
  2
PHANTOM2
 70
     0
  3
Phantom (.5x) ___ _ _ ___ _ _ ___ _ _ ___ _ _
 72
    65
 73
     6
 40
1.25
 49
0.625
 74
     0
 49
-0.125
 74
     0
 49
0.125
 74
     0
 49
-0.125
 74
     0
 49
0.125
 74
     0
 49
-0.125
 74
     0
  0
LTYPE
  5
83
330
5
100
AcDbSymbolTableRecord
100
AcDbLinetypeTableRecord
  2
CENTER
 70
     0
  3
Center ____ _ ____ _ ____ _ ____ _ ____ _ ____
 72
    65
 73
     4
 40
2.0
 49
1.25
 74
     0
 49
-0.25
 74
     0
 49
0.25
 74
     0
 49
-0.25
 74
     0
  0
LTYPE
  5
9C
330
5
100
AcDbSymbolTableRecord
100
AcDbLinetypeTableRecord
  2
CENTER2
 70
     0
  3
Center (.5x) ___ _ ___ _ ___ _ ___ _ ___ _ ___
 72
    65
 73
     4
 40
1.125
 49
0.75
 74
     0
 49
-0.125
 74
     0
 49
0.125
 74
     0
 49
-0.125
 74
     0
  0
LTYPE
  5
9D
330
5
100
AcDbSymbolTableRecord
100
AcDbLinetypeTableRecord
  2
HIDDEN2
 70
     0
  3
Hidden (.5x) _ _ _ _ _ _ _ _ _ _ _ _ _ _ _ _ _
 72
    65
 73
     2
 40
0.1875
 49
0.125
 74
     0
 49
-0.0625
 74
     0
  0
LTYPE
  5
9E
330
5
100
AcDbSymbolTableRecord
100
AcDbLinetypeTableRecord
  2
Amconstr
 70
     0
  3
_______________________
 72
    65
 73
     2
 40
9999.0
 49
9999.0
 74
     0
 49
0.0
 74
     0
  0
LTYPE
  5
9F
330
5
100
AcDbSymbolTableRecord
100
AcDbLinetypeTableRecord
  2
Amzigzag2
 70
     0
  3
/\/-/\/-/\/-/\/-/\/-/\/
 72
    65
 73
     2
 40
0.4401
 49
0.0001
 74
     4
 75
   136
340
99
 46
0.0016
 50
0.0
 44
0.0
 45
0.0
 49
-0.44
 74
     0
  0
LTYPE
  5
A0
330
5
100
AcDbSymbolTableRecord
100
AcDbLinetypeTableRecord
  2
ACANSTGB
 70
     0
  3
__ . . __ . .
 72
    65
 73
     6
 40
0.354331
 49
0.15748
 74
     0
 49
-0.03937
 74
     0
 49
0.03937
 74
     0
 49
-0.03937
 74
     0
 49
0.03937
 74
     0
 49
-0.03937
 74
     0
  0
LTYPE
  5
A1
330
5
100
AcDbSymbolTableRecord
100
AcDbLinetypeTableRecord
  2
ACANSTGL
 70
     0
  3
_ _ _ _ _
 72
    65
 73
     2
 40
0.11811
 49
0.07874
 74
     0
 49
-0.03937
 74
     0
  0
ENDTAB
  0
TABLE
  2
LAYER
  5
2
330
0
100
AcDbSymbolTable
 70
    10
  0
LAYER
  5
54
330
2
100
AcDbSymbolTableRecord
100
AcDbLayerTableRecord
  2
0
 70
     0
 62
     7
  6
Continuous
370
    -3
390
F
347
21
348
0
1001
AcAecLayerStandard
1000

1000

  0
LAYER
  5
79
330
2
100
AcDbSymbolTableRecord
100
AcDbLayerTableRecord
  2
Defpoints
 70
     0
 62
     7
  6
Continuous
290
     0
370
    -3
390
F
347
21
348
0
1001
AcAecLayerStandard
1000

1000

  0
LAYER
  5
BB
330
2
100
AcDbSymbolTableRecord
100
AcDbLayerTableRecord
  2
Visible
 70
     0
 62
     7
  6
Continuous
370
    25
390
F
347
21
348
0
  0
LAYER
  5
150
330
2
100
AcDbSymbolTableRecord
100
AcDbLayerTableRecord
  2
Titleblock
 70
     0
 62
     7
  6
Continuous
370
    -3
390
F
347
21
348
0
1001
AcAecLayerStandard
1000

1000

1001
AcCmTransparency
1071
        0
  0
LAYER
  5
175
330
2
100
AcDbSymbolTableRecord
100
AcDbLayerTableRecord
  2
Border
 70
     0
 62
     7
  6
Continuous
370
    -3
390
F
347
21
348
0
1001
AcAecLayerStandard
1000

1000

1001
AcCmTransparency
1071
        0
  0
LAYER
  5
196
330
2
100
AcDbSymbolTableRecord
100
AcDbLayerTableRecord
  2
Dimensions
 70
     0
 62
     7
  6
Continuous
370
    13
390
F
347
21
348
0
  0
LAYER
  5
1FC
330
2
100
AcDbSymbolTableRecord
100
AcDbLayerTableRecord
  2
Annotations
 70
     0
 62
     7
  6
Continuous
370
    13
390
F
347
21
348
0
  0
ENDTAB
  0
TABLE
  2
STYLE
  5
3
330
0
100
AcDbSymbolTable
 70
     4
  0
STYLE
  5
55
330
3
100
AcDbSymbolTableRecord
100
AcDbTextStyleTableRecord
  2
Standard
 70
     0
 40
0.0
 41
1.0
 50
0.0
 71
     0
 42
0.12
  3
arial.ttf
  4

1001
ACAD
1000
Arial
1071
       34
  0
STYLE
  5
5A
330
3
100
AcDbSymbolTableRecord
100
AcDbTextStyleTableRecord
  2
Annotative
 70
     0
 40
0.0
 41
1.0
 50
0.0
 71
     0
 42
0.2
  3
txt
  4

1001
AcadAnnotative
1000
AnnotativeData
1002
{
1070
     1
1070
     1
1002
}
  0
STYLE
  5
99
330
3
100
AcDbSymbolTableRecord
100
AcDbTextStyleTableRecord
  2

 70
     1
 40
0.0
 41
1.0
 50
0.0
 71
     0
 42
0.12
  3
genltshp.shx
  4

  0
STYLE
  5
9A
330
3
100
AcDbSymbolTableRecord
100
AcDbTextStyleTableRecord
  2
ACANSGDT
 70
     0
 40
0.0
 41
1.0
 50
0.0
 71
     0
 42
0.12
  3
amgdt.shx
  4

  0
ENDTAB
  0
TABLE
  2
VIEW
  5
6
330
0
100
AcDbSymbolTable
 70
     0
  0
ENDTAB
  0
TABLE
  2
UCS
  5
7
330
0
100
AcDbSymbolTable
 70
     0
  0
ENDTAB
  0
TABLE
  2
APPID
  5
9
330
0
100
AcDbSymbolTable
 70
    26
  0
APPID
  5
56
330
9
100
AcDbSymbolTableRecord
100
AcDbRegAppTableRecord
  2
ACAD
 70
     0
  0
APPID
  5
5E
330
9
100
AcDbSymbolTableRecord
100
AcDbRegAppTableRecord
  2
AcadAnnotative
 70
     0
  0
APPID
  5
78
330
9
100
AcDbSymbolTableRecord
100
AcDbRegAppTableRecord
  2
ACAD_PSEXT
 70
     0
  0
APPID
  5
7A
330
9
100
AcDbSymbolTableRecord
100
AcDbRegAppTableRecord
  2
MCAD_NO_VIS
 70
     0
  0
APPID
  5
7B
330
9
100
AcDbSymbolTableRecord
100
AcDbRegAppTableRecord
  2
ACAD_TEMP_GRAPHIC
 70
     0
  0
APPID
  5
84
330
9
100
AcDbSymbolTableRecord
100
AcDbRegAppTableRecord
  2
ACAD_DSTYLE_DIMJAG
 70
     0
  0
APPID
  5
85
330
9
100
AcDbSymbolTableRecord
100
AcDbRegAppTableRecord
  2
ACAD_DSTYLE_DIMTALN
 70
     0
  0
APPID
  5
86
330
9
100
AcDbSymbolTableRecord
100
AcDbRegAppTableRecord
  2
ACAD_NAV_VCDISPLAY
 70
     0
  0
APPID
  5
87
330
9
100
AcDbSymbolTableRecord
100
AcDbRegAppTableRecord
  2
AcAecLayerStandard
 70
     0
  0
APPID
  5
88
330
9
100
AcDbSymbolTableRecord
100
AcDbRegAppTableRecord
  2
AcCmTransparency
 70
     0
  0
APPID
  5
89
330
9
100
AcDbSymbolTableRecord
100
AcDbRegAppTableRecord
  2
ACAD_DSTYLE_DIMBREAK
 70
     0
  0
APPID
  5
8A
330
9
100
AcDbSymbolTableRecord
100
AcDbRegAppTableRecord
  2
ACAD_DSTYLE_DIMRADIAL_EXTENSION
 70
     0
  0
APPID
  5
8B
330
9
100
AcDbSymbolTableRecord
100
AcDbRegAppTableRecord
  2
FUSIONTITLEBLOCK
 70
     0
  0
APPID
  5
8C
330
9
100
AcDbSymbolTableRecord
100
AcDbRegAppTableRecord
  2
FUSIONCURRENTTITLEBLOCK
 70
     0
  0
APPID
  5
8D
330
9
100
AcDbSymbolTableRecord
100
AcDbRegAppTableRecord
  2
AcSynergy
 70
     0
  0
APPID
  5
8E
330
9
100
AcDbSymbolTableRecord
100
AcDbRegAppTableRecord
  2
ACAD_VIEW_EDGE_ID
 70
     0
  0
APPID
  5
8F
330
9
100
AcDbSymbolTableRecord
100
AcDbRegAppTableRecord
  2
GENIUS_GENSCREG_15
 70
     0
  0
APPID
  5
90
330
9
100
AcDbSymbolTableRecord
100
AcDbRegAppTableRecord
  2
GENIUS_GENOBJ-N-SDF_13
 70
     0
  0
APPID
  5
91
330
9
100
AcDbSymbolTableRecord
100
AcDbRegAppTableRecord
  2
GENIUS_GENODEF_13
 70
     0
  0
APPID
  5
92
330
9
100
AcDbSymbolTableRecord
100
AcDbRegAppTableRecord
  2
ACAD_DIMASSOC_CALC_DIMLFAC
 70
     0
  0
APPID
  5
93
330
9
100
AcDbSymbolTableRecord
100
AcDbRegAppTableRecord
  2
ACAD_DIMASSOC_DIMLFAC
 70
     0
  0
APPID
  5
94
330
9
100
AcDbSymbolTableRecord
100
AcDbRegAppTableRecord
  2
ACAD_DIMASSOC_OVERRIDDEN_DIMLFAC
 70
     0
  0
APPID
  5
95
330
9
100
AcDbSymbolTableRecord
100
AcDbRegAppTableRecord
  2
FD_ATT_APPNAME
 70
     0
  0
APPID
  5
96
330
9
100
AcDbSymbolTableRecord
100
AcDbRegAppTableRecord
  2
ACAD_TC
 70
     0
  0
APPID
  5
97
330
9
100
AcDbSymbolTableRecord
100
AcDbRegAppTableRecord
  2
ACAD_DSTYLE_DIMJAG_POSITION
 70
     0
  0
APPID
  5
98
330
9
100
AcDbSymbolTableRecord
100
AcDbRegAppTableRecord
  2
ACATTRIBSERVICES
 70
     0
  0
ENDTAB
  0
TABLE
  2
DIMSTYLE
  5
A
330
0
100
AcDbSymbolTable
 70
     2
100
AcDbDimStyleTable
 71
     1
340
58
  0
DIMSTYLE
105
58
102
{ACAD_REACTORS
330
195
330
1A4
330
1B2
330
1C0
330
1CB
330
1D9
330
1E3
330
1ED
102
}
330
A
100
AcDbSymbolTableRecord
100
AcDbDimStyleTableRecord
  2
Standard
 70
     0
  3
in
  4
mm
 41
0.12
 42
0.07
 43
0.36
 44
0.07
 47
0.01
 48
0.01
 78
    12
 79
     3
 90
        1
140
0.12
141
0.0
147
0.05
176
   256
177
   256
178
   256
179
     2
271
     2
272
     2
284
    12
285
    12
286
    12
340
55
  0
DIMSTYLE
105
59
330
A
100
AcDbSymbolTableRecord
100
AcDbDimStyleTableRecord
  2
Annotative
 70
     0
  3
in
  4
mm
 40
0.0
 41
0.12
 42
0.07
 43
0.36
 44
0.07
 78
    12
 79
     3
140
0.12
147
0.05
179
     2
271
     2
272
     2
284
    12
285
    12
286
    12
340
55
1001
AcadAnnotative
1000
AnnotativeData
1002
{
1070
     1
1070
     1
1002
}
  0
ENDTAB
  0
TABLE
  2
BLOCK_RECORD
  5
1
330
0
100
AcDbSymbolTable
 70
    22
  0
BLOCK_RECORD
  5
70
102
{ACAD_XDICTIONARY
360
B4
102
}
330
1
100
AcDbSymbolTableRecord
100
AcDbBlockTableRecord
  2
*Model_Space
340
73
 70
     0
280
     1
281
     0
  0
BLOCK_RECORD
  5
6C
330
1
100
AcDbSymbolTableRecord
100
AcDbBlockTableRecord
  2
*Paper_Space
340
6F
 70
     0
280
     1
281
     0
  0
BLOCK_RECORD
  5
74
330
1
100
AcDbSymbolTableRecord
100
AcDbBlockTableRecord
  2
*Paper_Space0
340
77
 70
     0
280
     1
281
     0
  0
BLOCK_RECORD
  5
151
102
{ACAD_XDICTIONARY
360
152
102
}
330
1
100
AcDbSymbolTableRecord
100
AcDbBlockTableRecord
  2
Shower
340
0
102
{BLKREFS
331
14F
102
}
 70
     1
280
     1
281
     0
1001
FUSIONTITLEBLOCK
1000
TitleBlock
  0
BLOCK_RECORD
  5
176
330
1
100
AcDbSymbolTableRecord
100
AcDbBlockTableRecord
  2
ANSI_B_SHEET
340
0
310
2800000020000000200000000100080000000000000400000000000000000000000000000000000000000000000080000080000000808000800000008000800080800000C0C0C000C0DCC000F0CAA6000020400000206000002080000020A0000020C0000020E00000400000004020000040400000406000004080000040A0
310
000040C0000040E00000600000006020000060400000606000006080000060A0000060C0000060E00000800000008020000080400000806000008080000080A0000080C0000080E00000A0000000A0200000A0400000A0600000A0800000A0A00000A0C00000A0E00000C0000000C0200000C0400000C0600000C0800000C0
310
A00000C0C00000C0E00000E0000000E0200000E0400000E0600000E0800000E0A00000E0C00000E0E00040000000400020004000400040006000400080004000A0004000C0004000E00040200000402020004020400040206000402080004020A0004020C0004020E000404000004040200040404000404060004040800040
310
40A0004040C0004040E00040600000406020004060400040606000406080004060A0004060C0004060E00040800000408020004080400040806000408080004080A0004080C0004080E00040A0000040A0200040A0400040A0600040A0800040A0A00040A0C00040A0E00040C0000040C0200040C0400040C0600040C08000
310
40C0A00040C0C00040C0E00040E0000040E0200040E0400040E0600040E0800040E0A00040E0C00040E0E00080000000800020008000400080006000800080008000A0008000C0008000E00080200000802020008020400080206000802080008020A0008020C0008020E00080400000804020008040400080406000804080
310
008040A0008040C0008040E00080600000806020008060400080606000806080008060A0008060C0008060E00080800000808020008080400080806000808080008080A0008080C0008080E00080A0000080A0200080A0400080A0600080A0800080A0A00080A0C00080A0E00080C0000080C0200080C0400080C0600080C0
310
800080C0A00080C0C00080C0E00080E0000080E0200080E0400080E0600080E0800080E0A00080E0C00080E0E000C0000000C0002000C0004000C0006000C0008000C000A000C000C000C000E000C0200000C0202000C0204000C0206000C0208000C020A000C020C000C020E000C0400000C0402000C0404000C0406000C0
310
408000C040A000C040C000C040E000C0600000C0602000C0604000C0606000C0608000C060A000C060C000C060E000C0800000C0802000C0804000C0806000C0808000C080A000C080C000C080E000C0A00000C0A02000C0A04000C0A06000C0A08000C0A0A000C0A0C000C0A0E000C0C00000C0C02000C0C04000C0C06000
310
C0C08000C0C0A000F0FBFF00A4A0A000808080000000FF0000FF000000FFFF00FF000000FF00FF00FFFF0000FFFFFF0049494949494949494949494949494949494949494949494949494949494949494949494949494949494949494949494949494949494949494949494949494949494949494949494949494949494949
310
494949494949494949494949494949494949494949494949494949494949494949494949494949494949494949494949494949494949494949494949494949494949494949494949494949494949494949494949494949494949494949494949494949494949494949494949494949494949FFFF4949494949494949494949
310
494949494949494949494949494949FFFF4949FFFFFFFFFFFFFFFFFFFFFFFFFFFFFFFFFFFFFFFFFFFFFFFFFFFFFFFFFFFF494949FF4949494949494949494949494949494949494949494949494949FF49494949FF4949494949494949494949494949494949494949494949494949FF49494949FF49494949494949494949
310
49494949494949494949494949494949FF49494949FF4949494949494949494949494949494949494949494949494949FF49494949FF4949494949494949494949494949494949494949494949494949FF49494949FF4949494949494949494949494949494949494949494949494949FF49494949FF494949494949494949
310
4949494949494949494949494949494949FF49494949FF4949494949494949494949494949494949494949494949494949FF49494949FF4949494949494949494949494949494949494949494949494949FF49494949FF4949494949494949494949494949494949494949494949494949FF49494949FF4949494949494949
310
494949494949494949494949494949494949FF49494949FF4949494949494949494949494949494949494949494949494949FF49494949FF4949494949494949494949494949494949494949494949494949FF49494949FF4949494949494949494949494949494949494949494949494949FF49494949FF49494949494949
310
49494949494949494949494949494949494949FF49494949FF4949494949494949494949494949494949494949494949494949FF494949FFFFFFFFFFFFFFFFFFFFFFFFFFFFFFFFFFFFFFFFFFFFFFFFFFFFFFFFFFFF4949FFFF4949494949494949494949494949494949494949494949494949FFFF49494949494949494949
310
49494949494949494949494949494949494949494949494949494949494949494949494949494949494949494949494949494949494949494949494949494949494949494949494949494949494949494949494949494949494949494949494949494949494949494949494949494949494949494949494949494949494949
310
4949494949494949494949494949494949494949494949494949494949494949494949494949494949494949494949494949494949494949
102
{BLKREFS
331
174
102
}
 70
     1
280
     1
281
     0
  0
BLOCK_RECORD
  5
197
330
1
100
AcDbSymbolTableRecord
100
AcDbBlockTableRecord
  2
*D6
340
0
 70
     0
280
     1
281
     0
  0
BLOCK_RECORD
  5
1A5
330
1
100
AcDbSymbolTableRecord
100
AcDbBlockTableRecord
  2
*D7
340
0
 70
     0
280
     1
281
     0
  0
BLOCK_RECORD
  5
1B3
330
1
100
AcDbSymbolTableRecord
100
AcDbBlockTableRecord
  2
*D8
340
0
 70
     0
280
     1
281
     0
  0
BLOCK_RECORD
  5
1C1
330
1
100
AcDbSymbolTableRecord
100
AcDbBlockTableRecord
  2
*D9
340
0
 70
     0
280
     1
281
     0
  0
BLOCK_RECORD
  5
1CC
330
1
100
AcDbSymbolTableRecord
100
AcDbBlockTableRecord
  2
*D10
340
0
 70
     0
280
     1
281
     0
  0
BLOCK_RECORD
  5
1DA
330
1
100
AcDbSymbolTableRecord
100
AcDbBlockTableRecord
  2
*D11
340
0
 70
     0
280
     1
281
     0
  0
BLOCK_RECORD
  5
1E4
330
1
100
AcDbSymbolTableRecord
100
AcDbBlockTableRecord
  2
*D12
340
0
 70
     0
280
     1
281
     0
  0
BLOCK_RECORD
  5
1EE
330
1
100
AcDbSymbolTableRecord
100
AcDbBlockTableRecord
  2
*D13
340
0
 70
     0
280
     1
281
     0
  0
BLOCK_RECORD
  5
1FE
330
1
100
AcDbSymbolTableRecord
100
AcDbBlockTableRecord
  2
*D14
340
0
 70
     0
280
     1
281
     0
  0
BLOCK_RECORD
  5
20B
330
1
100
AcDbSymbolTableRecord
100
AcDbBlockTableRecord
  2
*D15
340
0
 70
     0
280
     1
281
     0
  0
BLOCK_RECORD
  5
218
330
1
100
AcDbSymbolTableRecord
100
AcDbBlockTableRecord
  2
*D16
340
0
 70
     0
280
     1
281
     0
  0
BLOCK_RECORD
  5
225
330
1
100
AcDbSymbolTableRecord
100
AcDbBlockTableRecord
  2
*D17
340
0
 70
     0
280
     1
281
     0
  0
BLOCK_RECORD
  5
22F
330
1
100
AcDbSymbolTableRecord
100
AcDbBlockTableRecord
  2
*D18
340
0
 70
     0
280
     1
281
     0
  0
BLOCK_RECORD
  5
23C
330
1
100
AcDbSymbolTableRecord
100
AcDbBlockTableRecord
  2
*D19
340
0
 70
     0
280
     1
281
     0
  0
BLOCK_RECORD
  5
245
330
1
100
AcDbSymbolTableRecord
100
AcDbBlockTableRecord
  2
*D20
340
0
 70
     0
280
     1
281
     0
  0
BLOCK_RECORD
  5
24E
330
1
100
AcDbSymbolTableRecord
100
AcDbBlockTableRecord
  2
*D21
340
0
 70
     0
280
     1
281
     0
  0
ENDTAB
  0
ENDSEC
  0
SECTION
  2
BLOCKS
  0
BLOCK
  5
71
330
70
100
AcDbEntity
  8
0
100
AcDbBlockBegin
  2
*Model_Space
 70
     0
 10
0.0
 20
0.0
 30
0.0
  3
*Model_Space
  1

  0
ENDBLK
  5
72
330
70
100
AcDbEntity
  8
0
100
AcDbBlockEnd
  0
BLOCK
  5
6D
330
6C
100
AcDbEntity
 67
     1
  8
0
100
AcDbBlockBegin
  2
*Paper_Space
 70
     0
 10
0.0
 20
0.0
 30
0.0
  3
*Paper_Space
  1

  0
ENDBLK
  5
6E
330
6C
100
AcDbEntity
 67
     1
  8
0
100
AcDbBlockEnd
  0
BLOCK
  5
75
330
74
100
AcDbEntity
 67
     1
  8
0
100
AcDbBlockBegin
  2
*Paper_Space0
 70
     0
 10
0.0
 20
0.0
 30
0.0
  3
*Paper_Space0
  1

  0
ENDBLK
  5
76
330
74
100
AcDbEntity
 67
     1
  8
0
100
AcDbBlockEnd
  0
BLOCK
  5
154
330
151
100
AcDbEntity
  8
0
100
AcDbBlockBegin
  2
Shower
 70
     2
 10
0.0
 20
0.0
 30
0.0
  3
Shower
  1

  0
LWPOLYLINE
  5
155
330
151
100
AcDbEntity
  8
Titleblock
100
AcDbPolyline
 90
        4
 70
     1
 43
0.0
 10
0.0
 20
0.0
 10
-4.9375
 20
0.0
 10
-4.9375
 20
2.5
 10
0.0
 20
2.5
  0
IMAGE
  5
156
330
151
100
AcDbEntity
  8
Titleblock
  6
Continuous
160
               140
310
8C0000000100000084000000060000000500000000000000008013C000B87FA8928AB03F000000000000000000000000008013C035B4911D6523F03F000000000000000001000000008001C035B4911D6523F03F000000000000000001000000008001C000B87FA8928AB03F000000000000000000000000008013C000B87F
310
A8928AB03F0000000000000000
370
     0
100
AcDbRasterImage
 90
        0
 10
-4.875
 20
0.064614
 30
0.0
 11
0.0028349156118143
 21
0.0
 31
0.0
 12
0.0
 22
0.0028349156118143
 32
0.0
 13
948.0
 23
333.0
340
157
 70
    15
280
     0
281
    50
282
    50
283
     0
290
     0
360
159
 71
     1
 91
        2
 14
-0.5
 24
-0.5
 14
947.5
 24
332.5
  0
LWPOLYLINE
  5
15B
330
151
100
AcDbEntity
  8
Titleblock
  6
Continuous
370
    25
100
AcDbPolyline
 90
        4
 70
     1
 43
0.0
 10
0.0
 20
1.0625
 10
-4.9375
 20
1.061638
 10
-4.9375
 20
0.0
 10
0.0
 20
0.0
  0
LWPOLYLINE
  5
15C
330
151
100
AcDbEntity
  8
Titleblock
  6
Continuous
370
    25
100
AcDbPolyline
 90
        4
 70
     1
 43
0.0
 10
-1.75
 20
2.5
 10
0.0
 20
2.5
 10
0.0
 20
2.5
 10
-1.75
 20
2.5
  0
ATTDEF
  5
15D
330
151
100
AcDbEntity
  8
Titleblock
  6
Continuous
370
    25
100
AcDbText
 10
-3.6875
 20
2.3125
 30
0.0
 40
0.12
  1

100
AcDbAttributeDefinition
280
     0
  3

  2
PROJECT
 70
     0
280
     1
  0
MTEXT
  5
15E
330
151
100
AcDbEntity
  8
Titleblock
  6
Continuous
370
    25
100
AcDbMText
 10
-4.875
 20
1.653875
 30
0.0
 40
0.12
 41
0.6875
 46
0.0
 71
     1
 72
     5
  1
Description:
 73
     1
 44
1.0
1001
ACAD
1000
ACAD_MTEXT_COLUMN_INFO_BEGIN
1070
    75
1070
     2
1070
    79
1070
     0
1070
    76
1070
     1
1070
    78
1070
     0
1070
    48
1040
0.6875
1070
    49
1040
0.6
1070
    50
1070
     1
1040
0.0
1000
ACAD_MTEXT_COLUMN_INFO_END
  0
ATTDEF
  5
15F
330
151
100
AcDbEntity
  8
Titleblock
  6
Continuous
370
    25
100
AcDbText
 10
-1.6875
 20
0.6875
 30
0.0
 40
0.12
  1

100
AcDbAttributeDefinition
280
     0
  3

  2
DRAWN_DATE
 70
     0
280
     1
  0
ATTDEF
  5
160
330
151
100
AcDbEntity
  8
Titleblock
  6
Continuous
370
    25
100
AcDbText
 10
-4.3125
 20
1.8125
 30
0.0
 40
0.3048
  1

100
AcDbAttributeDefinition
280
     0
  3

  2
TITLE_1
 70
     0
280
     1
  0
ATTDEF
  5
161
330
151
100
AcDbEntity
  8
Titleblock
  6
Continuous
370
    25
100
AcDbText
 10
-1.6875
 20
0.91994
 30
0.0
 40
0.12
  1

100
AcDbAttributeDefinition
280
     0
  3

  2
SCALE
 70
     0
280
     1
  0
LWPOLYLINE
  5
162
330
151
100
AcDbEntity
  8
Titleblock
  6
Continuous
370
    25
100
AcDbPolyline
 90
        4
 70
     1
 43
0.0
 10
0.0
 20
1.0625
 10
0.0
 20
1.0625
 10
0.0
 20
0.0
 10
0.0
 20
0.0
  0
LWPOLYLINE
  5
163
330
151
100
AcDbEntity
  8
Titleblock
  6
Continuous
370
    25
100
AcDbPolyline
 90
        4
 70
     1
 43
0.0
 10
0.0
 20
1.0625
 10
0.0
 20
1.0625
 10
0.0
 20
0.0
 10
0.0
 20
0.0
  0
LINE
  5
164
330
151
100
AcDbEntity
  8
Titleblock
  6
Continuous
370
    25
100
AcDbLine
 10
-2.125
 20
1.062165
 30
0.0
 11
-2.125
 21
0.0
 31
0.0
  0
LWPOLYLINE
  5
165
330
151
100
AcDbEntity
  8
Titleblock
  6
Continuous
370
    25
100
AcDbPolyline
 90
        4
 70
     1
 43
0.0
 10
-4.9375
 20
2.5
 10
0.0
 20
2.5
 10
0.0
 20
2.5
 10
-4.9375
 20
2.5
  0
LINE
  5
166
330
151
100
AcDbEntity
  8
Titleblock
  6
Continuous
370
    25
100
AcDbLine
 10
-4.9375
 20
2.25
 30
0.0
 11
0.0
 21
2.25
 31
0.0
  0
LINE
  5
167
330
151
100
AcDbEntity
  8
Titleblock
  6
Continuous
370
    25
100
AcDbLine
 10
-4.9375
 20
1.6875
 30
0.0
 11
0.0
 21
1.6875
 31
0.0
  0
MTEXT
  5
168
330
151
100
AcDbEntity
  8
Titleblock
100
AcDbMText
 10
-4.875
 20
2.467284
 30
0.0
 40
0.12
 41
0.375
 46
0.0
 71
     1
 72
     5
  1
Project:
 73
     1
 44
1.0
1001
ACAD
1000
ACAD_MTEXT_COLUMN_INFO_BEGIN
1070
    75
1070
     2
1070
    79
1070
     0
1070
    76
1070
     1
1070
    78
1070
     0
1070
    48
1040
0.375
1070
    49
1040
0.6
1070
    50
1070
     1
1040
0.0
1000
ACAD_MTEXT_COLUMN_INFO_END
  0
MTEXT
  5
169
330
151
100
AcDbEntity
  8
Titleblock
100
AcDbMText
 10
-2.0625
 20
1.045477
 30
0.0
 40
0.075
 41
0.375
 46
0.0
 71
     1
 72
     5
  1
Scale:
 73
     1
 44
1.0
1001
ACAD
1000
ACAD_MTEXT_COLUMN_INFO_BEGIN
1070
    75
1070
     2
1070
    79
1070
     0
1070
    76
1070
     1
1070
    78
1070
     0
1070
    48
1040
0.375
1070
    49
1040
0.6
1070
    50
1070
     1
1040
0.0
1000
ACAD_MTEXT_COLUMN_INFO_END
  0
MTEXT
  5
16A
330
151
100
AcDbEntity
  8
Titleblock
100
AcDbMText
 10
-2.0625
 20
0.857735
 30
0.0
 40
0.075
 41
0.375
 46
0.0
 71
     1
 72
     5
  1
Date Drawn:
 73
     1
 44
1.0
1001
ACAD
1000
ACAD_MTEXT_COLUMN_INFO_BEGIN
1070
    75
1070
     2
1070
    79
1070
     0
1070
    76
1070
     1
1070
    78
1070
     0
1070
    48
1040
0.375
1070
    49
1040
0.6
1070
    50
1070
     1
1040
0.0
1000
ACAD_MTEXT_COLUMN_INFO_END
  0
LINE
  5
16B
330
151
100
AcDbEntity
  8
Titleblock
100
AcDbLine
 10
-2.125
 20
0.875
 30
0.0
 11
0.0
 21
0.875
 31
0.0
  0
LINE
  5
16C
330
151
100
AcDbEntity
  8
Titleblock
100
AcDbLine
 10
-2.125
 20
0.625
 30
0.0
 11
0.0
 21
0.625
 31
0.0
  0
MTEXT
  5
16D
330
151
100
AcDbEntity
  8
Titleblock
100
AcDbMText
 10
-4.875
 20
2.220603
 30
0.0
 40
0.12
 41
0.625
 46
0.0
 71
     1
 72
     5
  1
Title:
 73
     1
 44
1.0
1001
ACAD
1000
ACAD_MTEXT_COLUMN_INFO_BEGIN
1070
    75
1070
     2
1070
    79
1070
     0
1070
    76
1070
     1
1070
    78
1070
     0
1070
    48
1040
0.625
1070
    49
1040
0.6
1070
    50
1070
     1
1040
0.0
1000
ACAD_MTEXT_COLUMN_INFO_END
  0
ENDBLK
  5
16E
330
151
100
AcDbEntity
  8
0
100
AcDbBlockEnd
  0
BLOCK
  5
177
330
176
100
AcDbEntity
  8
0
100
AcDbBlockBegin
  2
ANSI_B_SHEET
 70
     0
 10
0.0
 20
0.0
 30
0.0
  3
ANSI_B_SHEET
  1

  0
LINE
  5
178
330
176
100
AcDbEntity
  8
Border
100
AcDbLine
 10
0.0
 20
0.0
 30
0.0
 11
0.5
 21
0.0
 31
0.0
  0
LINE
  5
179
330
176
100
AcDbEntity
  8
Border
100
AcDbLine
 10
16.5
 20
0.0
 30
0.0
 11
17.0
 21
0.0
 31
0.0
  0
LINE
  5
17A
330
176
100
AcDbEntity
  8
Border
100
AcDbLine
 10
0.62
 20
0.38
 30
0.0
 11
16.38
 21
0.38
 31
0.0
  0
LINE
  5
17B
330
176
100
AcDbEntity
  8
Border
100
AcDbLine
 10
17.0
 20
0.0
 30
0.0
 11
17.0
 21
0.5
 31
0.0
  0
LINE
  5
17C
330
176
100
AcDbEntity
  8
Border
100
AcDbLine
 10
17.0
 20
10.5
 30
0.0
 11
17.0
 21
11.0
 31
0.0
  0
LINE
  5
17D
330
176
100
AcDbEntity
  8
Border
100
AcDbLine
 10
16.38
 20
0.38
 30
0.0
 11
16.38
 21
10.62
 31
0.0
  0
LINE
  5
17E
330
176
100
AcDbEntity
  8
Border
100
AcDbLine
 10
17.0
 20
11.0
 30
0.0
 11
16.5
 21
11.0
 31
0.0
  0
LINE
  5
17F
330
176
100
AcDbEntity
  8
Border
100
AcDbLine
 10
0.5
 20
11.0
 30
0.0
 11
0.0
 21
11.0
 31
0.0
  0
LINE
  5
180
330
176
100
AcDbEntity
  8
Border
100
AcDbLine
 10
16.38
 20
10.62
 30
0.0
 11
0.62
 21
10.62
 31
0.0
  0
LINE
  5
181
330
176
100
AcDbEntity
  8
Border
100
AcDbLine
 10
0.0
 20
11.0
 30
0.0
 11
0.0
 21
10.5
 31
0.0
  0
LINE
  5
182
330
176
100
AcDbEntity
  8
Border
100
AcDbLine
 10
0.0
 20
0.5
 30
0.0
 11
0.0
 21
0.0
 31
0.0
  0
LINE
  5
183
330
176
100
AcDbEntity
  8
Border
100
AcDbLine
 10
0.62
 20
10.62
 30
0.0
 11
0.62
 21
0.38
 31
0.0
  0
LINE
  5
184
330
176
100
AcDbEntity
  8
Border
100
AcDbLine
 10
8.413397
 20
0.23
 30
0.0
 11
8.586603
 21
0.23
 31
0.0
  0
LINE
  5
185
330
176
100
AcDbEntity
  8
Border
100
AcDbLine
 10
8.5
 20
0.38
 30
0.0
 11
8.5
 21
0.13
 31
0.0
  0
LINE
  5
186
330
176
100
AcDbEntity
  8
Border
100
AcDbLine
 10
8.5
 20
0.38
 30
0.0
 11
8.413397
 21
0.23
 31
0.0
  0
LINE
  5
187
330
176
100
AcDbEntity
  8
Border
100
AcDbLine
 10
8.5
 20
0.38
 30
0.0
 11
8.586603
 21
0.23
 31
0.0
  0
LINE
  5
188
330
176
100
AcDbEntity
  8
Border
100
AcDbLine
 10
0.47
 20
5.586603
 30
0.0
 11
0.47
 21
5.413397
 31
0.0
  0
LINE
  5
189
330
176
100
AcDbEntity
  8
Border
100
AcDbLine
 10
0.62
 20
5.5
 30
0.0
 11
0.37
 21
5.5
 31
0.0
  0
LINE
  5
18A
330
176
100
AcDbEntity
  8
Border
100
AcDbLine
 10
0.62
 20
5.5
 30
0.0
 11
0.47
 21
5.586603
 31
0.0
  0
LINE
  5
18B
330
176
100
AcDbEntity
  8
Border
100
AcDbLine
 10
0.62
 20
5.5
 30
0.0
 11
0.47
 21
5.413397
 31
0.0
  0
LINE
  5
18C
330
176
100
AcDbEntity
  8
Border
100
AcDbLine
 10
16.53
 20
5.586603
 30
0.0
 11
16.53
 21
5.413397
 31
0.0
  0
LINE
  5
18D
330
176
100
AcDbEntity
  8
Border
100
AcDbLine
 10
16.38
 20
5.5
 30
0.0
 11
16.63
 21
5.5
 31
0.0
  0
LINE
  5
18E
330
176
100
AcDbEntity
  8
Border
100
AcDbLine
 10
16.38
 20
5.5
 30
0.0
 11
16.53
 21
5.586603
 31
0.0
  0
LINE
  5
18F
330
176
100
AcDbEntity
  8
Border
100
AcDbLine
 10
16.38
 20
5.5
 30
0.0
 11
16.53
 21
5.413397
 31
0.0
  0
LINE
  5
190
330
176
100
AcDbEntity
  8
Border
100
AcDbLine
 10
8.413397
 20
10.77
 30
0.0
 11
8.586603
 21
10.77
 31
0.0
  0
LINE
  5
191
330
176
100
AcDbEntity
  8
Border
100
AcDbLine
 10
8.5
 20
10.62
 30
0.0
 11
8.5
 21
10.87
 31
0.0
  0
LINE
  5
192
330
176
100
AcDbEntity
  8
Border
100
AcDbLine
 10
8.5
 20
10.62
 30
0.0
 11
8.413397
 21
10.77
 31
0.0
  0
LINE
  5
193
330
176
100
AcDbEntity
  8
Border
100
AcDbLine
 10
8.5
 20
10.62
 30
0.0
 11
8.586603
 21
10.77
 31
0.0
  0
ENDBLK
  5
194
330
176
100
AcDbEntity
  8
0
100
AcDbBlockEnd
  0
BLOCK
  5
198
330
197
100
AcDbEntity
  8
0
100
AcDbBlockBegin
  2
*D6
 70
     1
 10
0.0
 20
0.0
 30
0.0
  3
*D6
  1

  0
LINE
  5
199
330
197
100
AcDbEntity
  8
Dimensions
440
 16777216
370
    -2
100
AcDbLine
 10
9.849002
 20
7.376399
 30
0.0
 11
10.527825
 21
7.376399
 31
0.0
  0
LINE
  5
19A
330
197
100
AcDbEntity
  8
Dimensions
440
 16777216
370
    -2
100
AcDbLine
 10
8.57796
 20
4.737378
 30
0.0
 11
10.527825
 21
4.737378
 31
0.0
  0
LINE
  5
19B
330
197
100
AcDbEntity
  8
Dimensions
440
 16777216
370
    -2
100
AcDbLine
 10
10.457825
 20
7.256399
 30
0.0
 11
10.457825
 21
6.168157
 31
0.0
  0
LINE
  5
19C
330
197
100
AcDbEntity
  8
Dimensions
440
 16777216
370
    -2
100
AcDbLine
 10
10.457825
 20
4.857378
 30
0.0
 11
10.457825
 21
5.94562
 31
0.0
  0
SOLID
  5
19D
330
197
100
AcDbEntity
  8
Dimensions
440
 16777216
100
AcDbTrace
 10
10.437825
 20
7.256399
 30
0.0
 11
10.477825
 21
7.256399
 31
0.0
 12
10.457825
 22
7.376399
 32
0.0
 13
10.457825
 23
7.376399
 33
0.0
  0
SOLID
  5
19E
330
197
100
AcDbEntity
  8
Dimensions
440
 16777216
100
AcDbTrace
 10
10.437825
 20
4.857378
 30
0.0
 11
10.477825
 21
4.857378
 31
0.0
 12
10.457825
 22
4.737378
 32
0.0
 13
10.457825
 23
4.737378
 33
0.0
  0
MTEXT
  5
19F
330
197
100
AcDbEntity
  8
Dimensions
440
 16777216
100
AcDbMText
 10
10.457825
 20
6.056889
 30
0.0
 40
0.12
 41
0.0
 46
0.0
 71
     5
 72
     1
  1
\A1;**2.64in
 73
     1
 44
1.0
  0
POINT
  5
1A0
330
197
100
AcDbEntity
  8
Defpoints
 62
     0
440
 16777216
100
AcDbPoint
 10
9.779002
 20
7.376399
 30
0.0
  0
POINT
  5
1A1
330
197
100
AcDbEntity
  8
Defpoints
 62
     0
440
 16777216
100
AcDbPoint
 10
8.50796
 20
4.737378
 30
0.0
  0
POINT
  5
1A2
330
197
100
AcDbEntity
  8
Defpoints
 62
     0
440
 16777216
100
AcDbPoint
 10
10.457825
 20
4.737378
 30
0.0
  0
ENDBLK
  5
1A3
330
197
100
AcDbEntity
  8
0
100
AcDbBlockEnd
  0
BLOCK
  5
1A6
330
1A5
100
AcDbEntity
  8
0
100
AcDbBlockBegin
  2
*D7
 70
     1
 10
0.0
 20
0.0
 30
0.0
  3
*D7
  1

  0
LINE
  5
1A7
330
1A5
100
AcDbEntity
  8
Dimensions
440
 16777216
370
    -2
100
AcDbLine
 10
7.220997
 20
7.446403
 30
0.0
 11
7.220997
 21
8.166403
 31
0.0
  0
LINE
  5
1A8
330
1A5
100
AcDbEntity
  8
Dimensions
440
 16777216
370
    -2
100
AcDbLine
 10
9.779002
 20
7.446399
 30
0.0
 11
9.779002
 21
8.166403
 31
0.0
  0
LINE
  5
1A9
330
1A5
100
AcDbEntity
  8
Dimensions
440
 16777216
370
    -2
100
AcDbLine
 10
7.340997
 20
8.096403
 30
0.0
 11
8.22985
 21
8.096403
 31
0.0
  0
LINE
  5
1AA
330
1A5
100
AcDbEntity
  8
Dimensions
440
 16777216
370
    -2
100
AcDbLine
 10
9.659002
 20
8.096403
 30
0.0
 11
8.77015
 21
8.096403
 31
0.0
  0
SOLID
  5
1AB
330
1A5
100
AcDbEntity
  8
Dimensions
440
 16777216
100
AcDbTrace
 10
7.340997
 20
8.116403
 30
0.0
 11
7.340997
 21
8.076403
 31
0.0
 12
7.220997
 22
8.096403
 32
0.0
 13
7.220997
 23
8.096403
 33
0.0
  0
SOLID
  5
1AC
330
1A5
100
AcDbEntity
  8
Dimensions
440
 16777216
100
AcDbTrace
 10
9.659002
 20
8.116403
 30
0.0
 11
9.659002
 21
8.076403
 31
0.0
 12
9.779002
 22
8.096403
 32
0.0
 13
9.779002
 23
8.096403
 33
0.0
  0
MTEXT
  5
1AD
330
1A5
100
AcDbEntity
  8
Dimensions
440
 16777216
100
AcDbMText
 10
8.5
 20
8.096403
 30
0.0
 40
0.12
 41
0.0
 46
0.0
 71
     5
 72
     1
  1
\A1;2.56in
 73
     1
 44
1.0
  0
POINT
  5
1AE
330
1A5
100
AcDbEntity
  8
Defpoints
 62
     0
440
 16777216
100
AcDbPoint
 10
7.220997
 20
7.376403
 30
0.0
  0
POINT
  5
1AF
330
1A5
100
AcDbEntity
  8
Defpoints
 62
     0
440
 16777216
100
AcDbPoint
 10
9.779002
 20
7.376399
 30
0.0
  0
POINT
  5
1B0
330
1A5
100
AcDbEntity
  8
Defpoints
 62
     0
440
 16777216
100
AcDbPoint
 10
9.779002
 20
8.096403
 30
0.0
  0
ENDBLK
  5
1B1
330
1A5
100
AcDbEntity
  8
0
100
AcDbBlockEnd
  0
BLOCK
  5
1B4
330
1B3
100
AcDbEntity
  8
0
100
AcDbBlockBegin
  2
*D8
 70
     1
 10
0.0
 20
0.0
 30
0.0
  3
*D8
  1

  0
LINE
  5
1B5
330
1B3
100
AcDbEntity
  8
Dimensions
440
 16777216
370
    -2
100
AcDbLine
 10
12.36164
 20
4.123216
 30
0.0
 11
12.36164
 21
3.403216
 31
0.0
  0
LINE
  5
1B6
330
1B3
100
AcDbEntity
  8
Dimensions
440
 16777216
370
    -2
100
AcDbLine
 10
14.13164
 20
4.123216
 30
0.0
 11
14.13164
 21
3.403216
 31
0.0
  0
LINE
  5
1B7
330
1B3
100
AcDbEntity
  8
Dimensions
440
 16777216
370
    -2
100
AcDbLine
 10
12.48164
 20
3.473216
 30
0.0
 11
12.983162
 21
3.473216
 31
0.0
  0
LINE
  5
1B8
330
1B3
100
AcDbEntity
  8
Dimensions
440
 16777216
370
    -2
100
AcDbLine
 10
14.01164
 20
3.473216
 30
0.0
 11
13.510119
 21
3.473216
 31
0.0
  0
SOLID
  5
1B9
330
1B3
100
AcDbEntity
  8
Dimensions
440
 16777216
100
AcDbTrace
 10
12.48164
 20
3.493216
 30
0.0
 11
12.48164
 21
3.453216
 31
0.0
 12
12.36164
 22
3.473216
 32
0.0
 13
12.36164
 23
3.473216
 33
0.0
  0
SOLID
  5
1BA
330
1B3
100
AcDbEntity
  8
Dimensions
440
 16777216
100
AcDbTrace
 10
14.01164
 20
3.493216
 30
0.0
 11
14.01164
 21
3.453216
 31
0.0
 12
14.13164
 22
3.473216
 32
0.0
 13
14.13164
 23
3.473216
 33
0.0
  0
MTEXT
  5
1BB
330
1B3
100
AcDbEntity
  8
Dimensions
440
 16777216
100
AcDbMText
 10
13.24664
 20
3.473216
 30
0.0
 40
0.12
 41
0.0
 46
0.0
 71
     5
 72
     1
  1
\A1;1.77in
 73
     1
 44
1.0
  0
POINT
  5
1BC
330
1B3
100
AcDbEntity
  8
Defpoints
 62
     0
440
 16777216
100
AcDbPoint
 10
12.36164
 20
4.193216
 30
0.0
  0
POINT
  5
1BD
330
1B3
100
AcDbEntity
  8
Defpoints
 62
     0
440
 16777216
100
AcDbPoint
 10
14.13164
 20
4.193216
 30
0.0
  0
POINT
  5
1BE
330
1B3
100
AcDbEntity
  8
Defpoints
 62
     0
440
 16777216
100
AcDbPoint
 10
14.13164
 20
3.473216
 30
0.0
  0
ENDBLK
  5
1BF
330
1B3
100
AcDbEntity
  8
0
100
AcDbBlockEnd
  0
BLOCK
  5
1C2
330
1C1
100
AcDbEntity
  8
0
100
AcDbBlockBegin
  2
*D9
 70
     1
 10
0.0
 20
0.0
 30
0.0
  3
*D9
  1

  0
LINE
  5
1C3
330
1C1
100
AcDbEntity
  8
Dimensions
440
 16777216
370
    -2
100
AcDbLine
 10
4.004296
 20
8.439185
 30
0.0
 11
4.124296
 21
8.439185
 31
0.0
  0
LINE
  5
1C4
330
1C1
100
AcDbEntity
  8
Dimensions
440
 16777216
370
    -2
100
AcDbLine
 10
4.124296
 20
8.439185
 30
0.0
 11
4.261736
 21
8.394639
 31
0.0
  0
MTEXT
  5
1C5
330
1C1
100
AcDbEntity
  8
Dimensions
440
 16777216
100
AcDbMText
 10
3.716507
 20
8.439185
 30
0.0
 40
0.12
 41
0.0
 46
0.0
 71
     5
 72
     1
  1
\A1;∅1.5in
 73
     1
 44
1.0
  0
SOLID
  5
1C6
330
1C1
100
AcDbEntity
  8
Dimensions
440
 16777216
100
AcDbTrace
 10
4.267903
 20
8.413664
 30
0.0
 11
4.25557
 21
8.375613
 31
0.0
 12
4.37589
 22
8.35764
 32
0.0
 13
4.37589
 23
8.35764
 33
0.0
  0
ARC
  5
1C7
330
1C1
100
AcDbEntity
  8
Dimensions
440
 16777216
370
    -2
100
AcDbCircle
 10
5.089352
 20
8.126399
 30
0.0
 40
0.7500000000004304
100
AcDbArc
 50
156.694317
 51
223.644122
  0
POINT
  5
1C8
330
1C1
100
AcDbEntity
  8
Defpoints
 62
     0
440
 16777216
100
AcDbPoint
 10
4.37589
 20
8.35764
 30
0.0
  0
POINT
  5
1C9
330
1C1
100
AcDbEntity
  8
Defpoints
 62
     0
440
 16777216
100
AcDbPoint
 10
5.802814
 20
7.895159
 30
0.0
  0
ENDBLK
  5
1CA
330
1C1
100
AcDbEntity
  8
0
100
AcDbBlockEnd
  0
BLOCK
  5
1CD
330
1CC
100
AcDbEntity
  8
0
100
AcDbBlockBegin
  2
*D10
 70
     1
 10
0.0
 20
0.0
 30
0.0
  3
*D10
  1

  0
LINE
  5
1CE
330
1CC
100
AcDbEntity
  8
Dimensions
440
 16777216
370
    -2
100
AcDbLine
 10
5.089352
 20
7.306399
 30
0.0
 11
5.089352
 21
2.106374
 31
0.0
  0
LINE
  5
1CF
330
1CC
100
AcDbEntity
  8
Dimensions
440
 16777216
370
    -2
100
AcDbLine
 10
2.826322
 20
5.61226
 30
0.0
 11
2.826322
 21
2.106374
 31
0.0
  0
LINE
  5
1D0
330
1CC
100
AcDbEntity
  8
Dimensions
440
 16777216
370
    -2
100
AcDbLine
 10
4.969352
 20
2.176374
 30
0.0
 11
4.227987
 21
2.176374
 31
0.0
  0
LINE
  5
1D1
330
1CC
100
AcDbEntity
  8
Dimensions
440
 16777216
370
    -2
100
AcDbLine
 10
2.946322
 20
2.176374
 30
0.0
 11
3.687687
 21
2.176374
 31
0.0
  0
SOLID
  5
1D2
330
1CC
100
AcDbEntity
  8
Dimensions
440
 16777216
100
AcDbTrace
 10
4.969352
 20
2.196374
 30
0.0
 11
4.969352
 21
2.156374
 31
0.0
 12
5.089352
 22
2.176374
 32
0.0
 13
5.089352
 23
2.176374
 33
0.0
  0
SOLID
  5
1D3
330
1CC
100
AcDbEntity
  8
Dimensions
440
 16777216
100
AcDbTrace
 10
2.946322
 20
2.196374
 30
0.0
 11
2.946322
 21
2.156374
 31
0.0
 12
2.826322
 22
2.176374
 32
0.0
 13
2.826322
 23
2.176374
 33
0.0
  0
MTEXT
  5
1D4
330
1CC
100
AcDbEntity
  8
Dimensions
440
 16777216
100
AcDbMText
 10
3.957837
 20
2.176374
 30
0.0
 40
0.12
 41
0.0
 46
0.0
 71
     5
 72
     1
  1
\A1;2.26in
 73
     1
 44
1.0
  0
POINT
  5
1D5
330
1CC
100
AcDbEntity
  8
Defpoints
 62
     0
440
 16777216
100
AcDbPoint
 10
5.089352
 20
7.376399
 30
0.0
  0
POINT
  5
1D6
330
1CC
100
AcDbEntity
  8
Defpoints
 62
     0
440
 16777216
100
AcDbPoint
 10
2.826322
 20
5.68226
 30
0.0
  0
POINT
  5
1D7
330
1CC
100
AcDbEntity
  8
Defpoints
 62
     0
440
 16777216
100
AcDbPoint
 10
2.826322
 20
2.176374
 30
0.0
  0
ENDBLK
  5
1D8
330
1CC
100
AcDbEntity
  8
0
100
AcDbBlockEnd
  0
BLOCK
  5
1DB
330
1DA
100
AcDbEntity
  8
0
100
AcDbBlockBegin
  2
*D11
 70
     1
 10
0.0
 20
0.0
 30
0.0
  3
*D11
  1

  0
LINE
  5
1DC
330
1DA
100
AcDbEntity
  8
Dimensions
440
 16777216
370
    -2
100
AcDbLine
 10
7.441555
 20
3.511267
 30
0.0
 11
7.561555
 21
3.511267
 31
0.0
  0
LINE
  5
1DD
330
1DA
100
AcDbEntity
  8
Dimensions
440
 16777216
370
    -2
100
AcDbLine
 10
7.561555
 20
3.511267
 30
0.0
 11
7.833234
 21
3.86324
 31
0.0
  0
MTEXT
  5
1DE
330
1DA
100
AcDbEntity
  8
Dimensions
440
 16777216
100
AcDbMText
 10
7.107148
 20
3.511267
 30
0.0
 40
0.12
 41
0.0
 46
0.0
 71
     5
 72
     1
  1
\A1;∅1.97in
 73
     1
 44
1.0
  0
SOLID
  5
1DF
330
1DA
100
AcDbEntity
  8
Dimensions
440
 16777216
100
AcDbTrace
 10
7.817402
 20
3.875461
 30
0.0
 11
7.849066
 21
3.85102
 31
0.0
 12
7.906557
 22
3.958233
 32
0.0
 13
7.906557
 23
3.958233
 33
0.0
  0
POINT
  5
1E0
330
1DA
100
AcDbEntity
  8
Defpoints
 62
     0
440
 16777216
100
AcDbPoint
 10
7.906557
 20
3.958233
 30
0.0
  0
POINT
  5
1E1
330
1DA
100
AcDbEntity
  8
Defpoints
 62
     0
440
 16777216
100
AcDbPoint
 10
9.109364
 20
5.516522
 30
0.0
  0
ENDBLK
  5
1E2
330
1DA
100
AcDbEntity
  8
0
100
AcDbBlockEnd
  0
BLOCK
  5
1E5
330
1E4
100
AcDbEntity
  8
0
100
AcDbBlockBegin
  2
*D12
 70
     1
 10
0.0
 20
0.0
 30
0.0
  3
*D12
  1

  0
LINE
  5
1E6
330
1E4
100
AcDbEntity
  8
Dimensions
440
 16777216
370
    -2
100
AcDbLine
 10
7.441555
 20
4.081679
 30
0.0
 11
7.561555
 21
4.081679
 31
0.0
  0
LINE
  5
1E7
330
1E4
100
AcDbEntity
  8
Dimensions
440
 16777216
370
    -2
100
AcDbLine
 10
7.561555
 20
4.081679
 30
0.0
 11
8.004798
 21
4.388772
 31
0.0
  0
MTEXT
  5
1E8
330
1E4
100
AcDbEntity
  8
Dimensions
440
 16777216
100
AcDbMText
 10
7.153765
 20
4.081679
 30
0.0
 40
0.12
 41
0.0
 46
0.0
 71
     5
 72
     1
  1
\A1;∅.98in
 73
     1
 44
1.0
  0
SOLID
  5
1E9
330
1E4
100
AcDbEntity
  8
Dimensions
440
 16777216
100
AcDbTrace
 10
7.993408
 20
4.405212
 30
0.0
 11
8.016188
 21
4.372332
 31
0.0
 12
8.103437
 22
4.457112
 32
0.0
 13
8.103437
 23
4.457112
 33
0.0
  0
POINT
  5
1EA
330
1E4
100
AcDbEntity
  8
Defpoints
 62
     0
440
 16777216
100
AcDbPoint
 10
8.103437
 20
4.457112
 30
0.0
  0
POINT
  5
1EB
330
1E4
100
AcDbEntity
  8
Defpoints
 62
     0
440
 16777216
100
AcDbPoint
 10
8.912484
 20
5.017644
 30
0.0
  0
ENDBLK
  5
1EC
330
1E4
100
AcDbEntity
  8
0
100
AcDbBlockEnd
  0
BLOCK
  5
1EF
330
1EE
100
AcDbEntity
  8
0
100
AcDbBlockBegin
  2
*D13
 70
     1
 10
0.0
 20
0.0
 30
0.0
  3
*D13
  1

  0
LINE
  5
1F0
330
1EE
100
AcDbEntity
  8
Dimensions
440
 16777216
370
    -2
100
AcDbLine
 10
8.225376
 20
3.453795
 30
0.0
 11
8.225376
 21
2.573897
 31
0.0
  0
LINE
  5
1F1
330
1EE
100
AcDbEntity
  8
Dimensions
440
 16777216
370
    -2
100
AcDbLine
 10
8.776557
 20
3.453795
 30
0.0
 11
8.776557
 21
2.573897
 31
0.0
  0
LINE
  5
1F2
330
1EE
100
AcDbEntity
  8
Dimensions
440
 16777216
370
    -2
100
AcDbLine
 10
8.105376
 20
2.643897
 30
0.0
 11
7.985376
 21
2.643897
 31
0.0
  0
LINE
  5
1F3
330
1EE
100
AcDbEntity
  8
Dimensions
440
 16777216
370
    -2
100
AcDbLine
 10
8.896557
 20
2.643897
 30
0.0
 11
9.016557
 21
2.643897
 31
0.0
  0
SOLID
  5
1F4
330
1EE
100
AcDbEntity
  8
Dimensions
440
 16777216
100
AcDbTrace
 10
8.105376
 20
2.663897
 30
0.0
 11
8.105376
 21
2.623897
 31
0.0
 12
8.225376
 22
2.643897
 32
0.0
 13
8.225376
 23
2.643897
 33
0.0
  0
SOLID
  5
1F5
330
1EE
100
AcDbEntity
  8
Dimensions
440
 16777216
100
AcDbTrace
 10
8.896557
 20
2.663897
 30
0.0
 11
8.896557
 21
2.623897
 31
0.0
 12
8.776557
 22
2.643897
 32
0.0
 13
8.776557
 23
2.643897
 33
0.0
  0
MTEXT
  5
1F6
330
1EE
100
AcDbEntity
  8
Dimensions
440
 16777216
100
AcDbMText
 10
8.500966
 20
2.643897
 30
0.0
 40
0.12
 41
0.0
 46
0.0
 71
     5
 72
     1
  1
\A1;.55in
 73
     1
 44
1.0
  0
POINT
  5
1F7
330
1EE
100
AcDbEntity
  8
Defpoints
 62
     0
440
 16777216
100
AcDbPoint
 10
8.225376
 20
3.523795
 30
0.0
  0
POINT
  5
1F8
330
1EE
100
AcDbEntity
  8
Defpoints
 62
     0
440
 16777216
100
AcDbPoint
 10
8.776557
 20
3.523795
 30
0.0
  0
POINT
  5
1F9
330
1EE
100
AcDbEntity
  8
Defpoints
 62
     0
440
 16777216
100
AcDbPoint
 10
8.776557
 20
2.643897
 30
0.0
  0
ENDBLK
  5
1FA
330
1EE
100
AcDbEntity
  8
0
100
AcDbBlockEnd
  0
BLOCK
  5
1FF
330
1FE
100
AcDbEntity
  8
0
100
AcDbBlockBegin
  2
*D14
 70
     1
 10
0.0
 20
0.0
 30
0.0
  3
*D14
  1

  0
LINE
  5
407
330
1FE
100
AcDbEntity
  8
Dimensions
440
 16777216
370
    -2
100
AcDbLine
 10
9.849002
 20
7.376399
 30
0.0
 11
10.527825
 21
7.376399
 31
0.0
  0
LINE
  5
408
330
1FE
100
AcDbEntity
  8
Dimensions
440
 16777216
370
    -2
100
AcDbLine
 10
8.57796
 20
4.737378
 30
0.0
 11
10.527825
 21
4.737378
 31
0.0
  0
LINE
  5
409
330
1FE
100
AcDbEntity
  8
Dimensions
440
 16777216
370
    -2
100
AcDbLine
 10
10.457825
 20
7.256399
 30
0.0
 11
10.457825
 21
6.168157
 31
0.0
  0
LINE
  5
40A
330
1FE
100
AcDbEntity
  8
Dimensions
440
 16777216
370
    -2
100
AcDbLine
 10
10.457825
 20
4.857378
 30
0.0
 11
10.457825
 21
5.94562
 31
0.0
  0
SOLID
  5
40B
330
1FE
100
AcDbEntity
  8
Dimensions
440
 16777216
100
AcDbTrace
 10
10.437825
 20
7.256399
 30
0.0
 11
10.477825
 21
7.256399
 31
0.0
 12
10.457825
 22
7.376399
 32
0.0
 13
10.457825
 23
7.376399
 33
0.0
  0
SOLID
  5
40C
330
1FE
100
AcDbEntity
  8
Dimensions
440
 16777216
100
AcDbTrace
 10
10.437825
 20
4.857378
 30
0.0
 11
10.477825
 21
4.857378
 31
0.0
 12
10.457825
 22
4.737378
 32
0.0
 13
10.457825
 23
4.737378
 33
0.0
  0
MTEXT
  5
40D
330
1FE
100
AcDbEntity
  8
Dimensions
440
 16777216
100
AcDbMText
 10
10.457825
 20
6.056889
 30
0.0
 40
0.12
 41
0.0
 46
0.0
 71
     5
 72
     1
  1
\A1;**2.64in
 73
     1
 44
1.0
  0
POINT
  5
40E
330
1FE
100
AcDbEntity
  8
Defpoints
 62
     0
440
 16777216
100
AcDbPoint
 10
9.779002
 20
7.376399
 30
0.0
  0
POINT
  5
40F
330
1FE
100
AcDbEntity
  8
Defpoints
 62
     0
440
 16777216
100
AcDbPoint
 10
8.50796
 20
4.737378
 30
0.0
  0
POINT
  5
410
330
1FE
100
AcDbEntity
  8
Defpoints
 62
     0
440
 16777216
100
AcDbPoint
 10
10.457825
 20
4.737378
 30
0.0
  0
ENDBLK
  5
200
330
1FE
100
AcDbEntity
  8
0
100
AcDbBlockEnd
  0
BLOCK
  5
20C
330
20B
100
AcDbEntity
  8
0
100
AcDbBlockBegin
  2
*D15
 70
     1
 10
0.0
 20
0.0
 30
0.0
  3
*D15
  1

  0
LINE
  5
411
330
20B
100
AcDbEntity
  8
Dimensions
440
 16777216
370
    -2
100
AcDbLine
 10
7.220997
 20
7.446403
 30
0.0
 11
7.220997
 21
8.166403
 31
0.0
  0
LINE
  5
412
330
20B
100
AcDbEntity
  8
Dimensions
440
 16777216
370
    -2
100
AcDbLine
 10
9.779002
 20
7.446399
 30
0.0
 11
9.779002
 21
8.166403
 31
0.0
  0
LINE
  5
413
330
20B
100
AcDbEntity
  8
Dimensions
440
 16777216
370
    -2
100
AcDbLine
 10
7.340997
 20
8.096403
 30
0.0
 11
8.22985
 21
8.096403
 31
0.0
  0
LINE
  5
414
330
20B
100
AcDbEntity
  8
Dimensions
440
 16777216
370
    -2
100
AcDbLine
 10
9.659002
 20
8.096403
 30
0.0
 11
8.77015
 21
8.096403
 31
0.0
  0
SOLID
  5
415
330
20B
100
AcDbEntity
  8
Dimensions
440
 16777216
100
AcDbTrace
 10
7.340997
 20
8.116403
 30
0.0
 11
7.340997
 21
8.076403
 31
0.0
 12
7.220997
 22
8.096403
 32
0.0
 13
7.220997
 23
8.096403
 33
0.0
  0
SOLID
  5
416
330
20B
100
AcDbEntity
  8
Dimensions
440
 16777216
100
AcDbTrace
 10
9.659002
 20
8.116403
 30
0.0
 11
9.659002
 21
8.076403
 31
0.0
 12
9.779002
 22
8.096403
 32
0.0
 13
9.779002
 23
8.096403
 33
0.0
  0
MTEXT
  5
417
330
20B
100
AcDbEntity
  8
Dimensions
440
 16777216
100
AcDbMText
 10
8.5
 20
8.096403
 30
0.0
 40
0.12
 41
0.0
 46
0.0
 71
     5
 72
     1
  1
\A1;2.56in
 73
     1
 44
1.0
  0
POINT
  5
418
330
20B
100
AcDbEntity
  8
Defpoints
 62
     0
440
 16777216
100
AcDbPoint
 10
7.220997
 20
7.376403
 30
0.0
  0
POINT
  5
419
330
20B
100
AcDbEntity
  8
Defpoints
 62
     0
440
 16777216
100
AcDbPoint
 10
9.779002
 20
7.376399
 30
0.0
  0
POINT
  5
41A
330
20B
100
AcDbEntity
  8
Defpoints
 62
     0
440
 16777216
100
AcDbPoint
 10
9.779002
 20
8.096403
 30
0.0
  0
ENDBLK
  5
20D
330
20B
100
AcDbEntity
  8
0
100
AcDbBlockEnd
  0
BLOCK
  5
219
330
218
100
AcDbEntity
  8
0
100
AcDbBlockBegin
  2
*D16
 70
     1
 10
0.0
 20
0.0
 30
0.0
  3
*D16
  1

  0
LINE
  5
41B
330
218
100
AcDbEntity
  8
Dimensions
440
 16777216
370
    -2
100
AcDbLine
 10
12.36164
 20
4.123216
 30
0.0
 11
12.36164
 21
3.403216
 31
0.0
  0
LINE
  5
41C
330
218
100
AcDbEntity
  8
Dimensions
440
 16777216
370
    -2
100
AcDbLine
 10
14.13164
 20
4.123216
 30
0.0
 11
14.13164
 21
3.403216
 31
0.0
  0
LINE
  5
41D
330
218
100
AcDbEntity
  8
Dimensions
440
 16777216
370
    -2
100
AcDbLine
 10
12.48164
 20
3.473216
 30
0.0
 11
12.983162
 21
3.473216
 31
0.0
  0
LINE
  5
41E
330
218
100
AcDbEntity
  8
Dimensions
440
 16777216
370
    -2
100
AcDbLine
 10
14.01164
 20
3.473216
 30
0.0
 11
13.510119
 21
3.473216
 31
0.0
  0
SOLID
  5
41F
330
218
100
AcDbEntity
  8
Dimensions
440
 16777216
100
AcDbTrace
 10
12.48164
 20
3.493216
 30
0.0
 11
12.48164
 21
3.453216
 31
0.0
 12
12.36164
 22
3.473216
 32
0.0
 13
12.36164
 23
3.473216
 33
0.0
  0
SOLID
  5
420
330
218
100
AcDbEntity
  8
Dimensions
440
 16777216
100
AcDbTrace
 10
14.01164
 20
3.493216
 30
0.0
 11
14.01164
 21
3.453216
 31
0.0
 12
14.13164
 22
3.473216
 32
0.0
 13
14.13164
 23
3.473216
 33
0.0
  0
MTEXT
  5
421
330
218
100
AcDbEntity
  8
Dimensions
440
 16777216
100
AcDbMText
 10
13.24664
 20
3.473216
 30
0.0
 40
0.12
 41
0.0
 46
0.0
 71
     5
 72
     1
  1
\A1;1.77in
 73
     1
 44
1.0
  0
POINT
  5
422
330
218
100
AcDbEntity
  8
Defpoints
 62
     0
440
 16777216
100
AcDbPoint
 10
12.36164
 20
4.193216
 30
0.0
  0
POINT
  5
423
330
218
100
AcDbEntity
  8
Defpoints
 62
     0
440
 16777216
100
AcDbPoint
 10
14.13164
 20
4.193216
 30
0.0
  0
POINT
  5
424
330
218
100
AcDbEntity
  8
Defpoints
 62
     0
440
 16777216
100
AcDbPoint
 10
14.13164
 20
3.473216
 30
0.0
  0
ENDBLK
  5
21A
330
218
100
AcDbEntity
  8
0
100
AcDbBlockEnd
  0
BLOCK
  5
226
330
225
100
AcDbEntity
  8
0
100
AcDbBlockBegin
  2
*D17
 70
     1
 10
0.0
 20
0.0
 30
0.0
  3
*D17
  1

  0
LINE
  5
425
330
225
100
AcDbEntity
  8
Dimensions
440
 16777216
370
    -2
100
AcDbLine
 10
4.004296
 20
8.439185
 30
0.0
 11
4.124296
 21
8.439185
 31
0.0
  0
LINE
  5
426
330
225
100
AcDbEntity
  8
Dimensions
440
 16777216
370
    -2
100
AcDbLine
 10
4.124296
 20
8.439185
 30
0.0
 11
4.261736
 21
8.394639
 31
0.0
  0
MTEXT
  5
427
330
225
100
AcDbEntity
  8
Dimensions
440
 16777216
100
AcDbMText
 10
3.716507
 20
8.439185
 30
0.0
 40
0.12
 41
0.0
 46
0.0
 71
     5
 72
     1
  1
\A1;∅1.5in
 73
     1
 44
1.0
  0
SOLID
  5
428
330
225
100
AcDbEntity
  8
Dimensions
440
 16777216
100
AcDbTrace
 10
4.267903
 20
8.413664
 30
0.0
 11
4.25557
 21
8.375613
 31
0.0
 12
4.37589
 22
8.35764
 32
0.0
 13
4.37589
 23
8.35764
 33
0.0
  0
ARC
  5
429
330
225
100
AcDbEntity
  8
Dimensions
440
 16777216
370
    -2
100
AcDbCircle
 10
5.089352
 20
8.126399
 30
0.0
 40
0.7500000000004297
100
AcDbArc
 50
156.694317
 51
223.644122
  0
POINT
  5
42A
330
225
100
AcDbEntity
  8
Defpoints
 62
     0
440
 16777216
100
AcDbPoint
 10
4.37589
 20
8.35764
 30
0.0
  0
POINT
  5
42B
330
225
100
AcDbEntity
  8
Defpoints
 62
     0
440
 16777216
100
AcDbPoint
 10
5.802814
 20
7.895159
 30
0.0
  0
ENDBLK
  5
227
330
225
100
AcDbEntity
  8
0
100
AcDbBlockEnd
  0
BLOCK
  5
230
330
22F
100
AcDbEntity
  8
0
100
AcDbBlockBegin
  2
*D18
 70
     1
 10
0.0
 20
0.0
 30
0.0
  3
*D18
  1

  0
LINE
  5
42C
330
22F
100
AcDbEntity
  8
Dimensions
440
 16777216
370
    -2
100
AcDbLine
 10
5.089352
 20
7.306399
 30
0.0
 11
5.089352
 21
2.106374
 31
0.0
  0
LINE
  5
42D
330
22F
100
AcDbEntity
  8
Dimensions
440
 16777216
370
    -2
100
AcDbLine
 10
2.826322
 20
5.61226
 30
0.0
 11
2.826322
 21
2.106374
 31
0.0
  0
LINE
  5
42E
330
22F
100
AcDbEntity
  8
Dimensions
440
 16777216
370
    -2
100
AcDbLine
 10
4.969352
 20
2.176374
 30
0.0
 11
4.227987
 21
2.176374
 31
0.0
  0
LINE
  5
42F
330
22F
100
AcDbEntity
  8
Dimensions
440
 16777216
370
    -2
100
AcDbLine
 10
2.946322
 20
2.176374
 30
0.0
 11
3.687687
 21
2.176374
 31
0.0
  0
SOLID
  5
430
330
22F
100
AcDbEntity
  8
Dimensions
440
 16777216
100
AcDbTrace
 10
4.969352
 20
2.196374
 30
0.0
 11
4.969352
 21
2.156374
 31
0.0
 12
5.089352
 22
2.176374
 32
0.0
 13
5.089352
 23
2.176374
 33
0.0
  0
SOLID
  5
431
330
22F
100
AcDbEntity
  8
Dimensions
440
 16777216
100
AcDbTrace
 10
2.946322
 20
2.196374
 30
0.0
 11
2.946322
 21
2.156374
 31
0.0
 12
2.826322
 22
2.176374
 32
0.0
 13
2.826322
 23
2.176374
 33
0.0
  0
MTEXT
  5
432
330
22F
100
AcDbEntity
  8
Dimensions
440
 16777216
100
AcDbMText
 10
3.957837
 20
2.176374
 30
0.0
 40
0.12
 41
0.0
 46
0.0
 71
     5
 72
     1
  1
\A1;2.26in
 73
     1
 44
1.0
  0
POINT
  5
433
330
22F
100
AcDbEntity
  8
Defpoints
 62
     0
440
 16777216
100
AcDbPoint
 10
5.089352
 20
7.376399
 30
0.0
  0
POINT
  5
434
330
22F
100
AcDbEntity
  8
Defpoints
 62
     0
440
 16777216
100
AcDbPoint
 10
2.826322
 20
5.68226
 30
0.0
  0
POINT
  5
435
330
22F
100
AcDbEntity
  8
Defpoints
 62
     0
440
 16777216
100
AcDbPoint
 10
2.826322
 20
2.176374
 30
0.0
  0
ENDBLK
  5
231
330
22F
100
AcDbEntity
  8
0
100
AcDbBlockEnd
  0
BLOCK
  5
23D
330
23C
100
AcDbEntity
  8
0
100
AcDbBlockBegin
  2
*D19
 70
     1
 10
0.0
 20
0.0
 30
0.0
  3
*D19
  1

  0
LINE
  5
436
330
23C
100
AcDbEntity
  8
Dimensions
440
 16777216
370
    -2
100
AcDbLine
 10
7.441555
 20
3.511267
 30
0.0
 11
7.561555
 21
3.511267
 31
0.0
  0
LINE
  5
437
330
23C
100
AcDbEntity
  8
Dimensions
440
 16777216
370
    -2
100
AcDbLine
 10
7.561555
 20
3.511267
 30
0.0
 11
7.833234
 21
3.86324
 31
0.0
  0
MTEXT
  5
438
330
23C
100
AcDbEntity
  8
Dimensions
440
 16777216
100
AcDbMText
 10
7.107148
 20
3.511267
 30
0.0
 40
0.12
 41
0.0
 46
0.0
 71
     5
 72
     1
  1
\A1;∅1.97in
 73
     1
 44
1.0
  0
SOLID
  5
439
330
23C
100
AcDbEntity
  8
Dimensions
440
 16777216
100
AcDbTrace
 10
7.817402
 20
3.875461
 30
0.0
 11
7.849066
 21
3.85102
 31
0.0
 12
7.906557
 22
3.958233
 32
0.0
 13
7.906557
 23
3.958233
 33
0.0
  0
POINT
  5
43A
330
23C
100
AcDbEntity
  8
Defpoints
 62
     0
440
 16777216
100
AcDbPoint
 10
7.906557
 20
3.958233
 30
0.0
  0
POINT
  5
43B
330
23C
100
AcDbEntity
  8
Defpoints
 62
     0
440
 16777216
100
AcDbPoint
 10
9.109364
 20
5.516522
 30
0.0
  0
ENDBLK
  5
23E
330
23C
100
AcDbEntity
  8
0
100
AcDbBlockEnd
  0
BLOCK
  5
246
330
245
100
AcDbEntity
  8
0
100
AcDbBlockBegin
  2
*D20
 70
     1
 10
0.0
 20
0.0
 30
0.0
  3
*D20
  1

  0
LINE
  5
43C
330
245
100
AcDbEntity
  8
Dimensions
440
 16777216
370
    -2
100
AcDbLine
 10
7.441555
 20
4.081679
 30
0.0
 11
7.561555
 21
4.081679
 31
0.0
  0
LINE
  5
43D
330
245
100
AcDbEntity
  8
Dimensions
440
 16777216
370
    -2
100
AcDbLine
 10
7.561555
 20
4.081679
 30
0.0
 11
8.004798
 21
4.388772
 31
0.0
  0
MTEXT
  5
43E
330
245
100
AcDbEntity
  8
Dimensions
440
 16777216
100
AcDbMText
 10
7.153765
 20
4.081679
 30
0.0
 40
0.12
 41
0.0
 46
0.0
 71
     5
 72
     1
  1
\A1;∅.98in
 73
     1
 44
1.0
  0
SOLID
  5
43F
330
245
100
AcDbEntity
  8
Dimensions
440
 16777216
100
AcDbTrace
 10
7.993408
 20
4.405212
 30
0.0
 11
8.016188
 21
4.372332
 31
0.0
 12
8.103437
 22
4.457112
 32
0.0
 13
8.103437
 23
4.457112
 33
0.0
  0
POINT
  5
440
330
245
100
AcDbEntity
  8
Defpoints
 62
     0
440
 16777216
100
AcDbPoint
 10
8.103437
 20
4.457112
 30
0.0
  0
POINT
  5
441
330
245
100
AcDbEntity
  8
Defpoints
 62
     0
440
 16777216
100
AcDbPoint
 10
8.912484
 20
5.017644
 30
0.0
  0
ENDBLK
  5
247
330
245
100
AcDbEntity
  8
0
100
AcDbBlockEnd
  0
BLOCK
  5
24F
330
24E
100
AcDbEntity
  8
0
100
AcDbBlockBegin
  2
*D21
 70
     1
 10
0.0
 20
0.0
 30
0.0
  3
*D21
  1

  0
LINE
  5
442
330
24E
100
AcDbEntity
  8
Dimensions
440
 16777216
370
    -2
100
AcDbLine
 10
8.225376
 20
3.453795
 30
0.0
 11
8.225376
 21
2.573897
 31
0.0
  0
LINE
  5
443
330
24E
100
AcDbEntity
  8
Dimensions
440
 16777216
370
    -2
100
AcDbLine
 10
8.776557
 20
3.453795
 30
0.0
 11
8.776557
 21
2.573897
 31
0.0
  0
LINE
  5
444
330
24E
100
AcDbEntity
  8
Dimensions
440
 16777216
370
    -2
100
AcDbLine
 10
8.105376
 20
2.643897
 30
0.0
 11
7.985376
 21
2.643897
 31
0.0
  0
LINE
  5
445
330
24E
100
AcDbEntity
  8
Dimensions
440
 16777216
370
    -2
100
AcDbLine
 10
8.896557
 20
2.643897
 30
0.0
 11
9.016557
 21
2.643897
 31
0.0
  0
SOLID
  5
446
330
24E
100
AcDbEntity
  8
Dimensions
440
 16777216
100
AcDbTrace
 10
8.105376
 20
2.663897
 30
0.0
 11
8.105376
 21
2.623897
 31
0.0
 12
8.225376
 22
2.643897
 32
0.0
 13
8.225376
 23
2.643897
 33
0.0
  0
SOLID
  5
447
330
24E
100
AcDbEntity
  8
Dimensions
440
 16777216
100
AcDbTrace
 10
8.896557
 20
2.663897
 30
0.0
 11
8.896557
 21
2.623897
 31
0.0
 12
8.776557
 22
2.643897
 32
0.0
 13
8.776557
 23
2.643897
 33
0.0
  0
MTEXT
  5
448
330
24E
100
AcDbEntity
  8
Dimensions
440
 16777216
100
AcDbMText
 10
8.500966
 20
2.643897
 30
0.0
 40
0.12
 41
0.0
 46
0.0
 71
     5
 72
     1
  1
\A1;.55in
 73
     1
 44
1.0
  0
POINT
  5
449
330
24E
100
AcDbEntity
  8
Defpoints
 62
     0
440
 16777216
100
AcDbPoint
 10
8.225376
 20
3.523795
 30
0.0
  0
POINT
  5
44A
330
24E
100
AcDbEntity
  8
Defpoints
 62
     0
440
 16777216
100
AcDbPoint
 10
8.776557
 20
3.523795
 30
0.0
  0
POINT
  5
44B
330
24E
100
AcDbEntity
  8
Defpoints
 62
     0
440
 16777216
100
AcDbPoint
 10
8.776557
 20
2.643897
 30
0.0
  0
ENDBLK
  5
250
330
24E
100
AcDbEntity
  8
0
100
AcDbBlockEnd
  0
ENDSEC
  0
SECTION
  2
ENTITIES
  0
INSERT
  5
14F
330
70
100
AcDbEntity
  8
Titleblock
100
AcDbBlockReference
 66
     1
  2
Shower
 10
16.38
 20
0.38
 30
0.0
  0
ATTRIB
  5
16F
330
14F
100
AcDbEntity
  8
Titleblock
  6
Continuous
370
    25
100
AcDbText
 10
12.6925
 20
2.6925
 30
0.0
 40
0.12
  1
Railing Products and Mock Ups
100
AcDbAttribute
280
     0
  2
PROJECT
 70
     0
280
     1
1001
FD_ATT_APPNAME
1005
15D
  0
ATTRIB
  5
170
330
14F
100
AcDbEntity
  8
Titleblock
  6
Continuous
370
    25
100
AcDbText
 10
14.6925
 20
1.0675
 30
0.0
 40
0.12
  1
9/9/2021
100
AcDbAttribute
280
     0
  2
DRAWN_DATE
 70
     0
280
     1
1001
FD_ATT_APPNAME
1005
15F
  0
ATTRIB
  5
171
330
14F
100
AcDbEntity
  8
Titleblock
  6
Continuous
370
    25
100
AcDbText
 10
12.0675
 20
2.1925
 30
0.0
 40
0.3048
  1
R13-0151-038-12
100
AcDbAttribute
280
     0
  2
TITLE_1
 70
     0
280
     1
1001
FD_ATT_APPNAME
1005
160
  0
ATTRIB
  5
172
330
14F
100
AcDbEntity
  8
Titleblock
  6
Continuous
370
    25
100
AcDbText
 10
14.6925
 20
1.29994
 30
0.0
 40
0.12
  1
1:1
100
AcDbAttribute
280
     0
  2
SCALE
 70
     0
280
     1
1001
FD_ATT_APPNAME
1005
161
  0
SEQEND
  5
173
330
14F
100
AcDbEntity
  8
Titleblock
  0
INSERT
  5
174
330
70
100
AcDbEntity
  8
Border
100
AcDbBlockReference
  2
ANSI_B_SHEET
 10
0.0
 20
0.0
 30
0.0
  0
DIMENSION
  5
195
330
70
100
AcDbEntity
  8
Dimensions
100
AcDbDimension
280
     0
  2
*D14
 10
10.457825
 20
4.737378
 30
0.0
 11
10.457825
 21
6.056889
 31
0.0
 70
    32
  1
**<>
 71
     5
 42
2.639022
 73
     0
 74
     0
 75
     0
  3
Standard
100
AcDbAlignedDimension
 13
9.779002
 23
7.376399
 33
0.0
 14
8.50796
 24
4.737378
 34
0.0
 50
90.0
100
AcDbRotatedDimension
1001
ACAD_DIMASSOC_CALC_DIMLFAC
1040
-1.0
1001
ACAD_DIMASSOC_DIMLFAC
1040
-1.0
1001
ACAD_DIMASSOC_OVERRIDDEN_DIMLFAC
1040
0.0
1001
ACAD_TC
1000
DSTYLE_TC
1002
{
1070
   177
1004
18000000020000008C8C8CC2000000000000000000000000
1070
   176
1004
18000000020000008C8C8CC2000000000000000000000000
1002
}
1001
ACAD_DSTYLE_DIMJAG_POSITION
1070
   387
1070
     0
1070
   389
1010
0.0
1020
0.0
1030
0.0
1001
ACAD
1000
DSTYLE
1002
{
1070
   177
1070
   256
1070
   176
1070
   256
1070
   144
1040
1.0
1002
}
  0
DIMENSION
  5
1A4
330
70
100
AcDbEntity
  8
Dimensions
100
AcDbDimension
280
     0
  2
*D15
 10
9.779002
 20
8.096403
 30
0.0
 11
8.5
 21
8.096403
 31
0.0
 70
    32
 71
     5
 42
2.558005
 73
     0
 74
     0
 75
     0
  3
Standard
100
AcDbAlignedDimension
 13
7.220997
 23
7.376403
 33
0.0
 14
9.779002
 24
7.376399
 34
0.0
100
AcDbRotatedDimension
1001
ACAD_DIMASSOC_CALC_DIMLFAC
1040
-1.0
1001
ACAD_DIMASSOC_DIMLFAC
1040
-1.0
1001
ACAD_DIMASSOC_OVERRIDDEN_DIMLFAC
1040
0.0
1001
ACAD_TC
1000
DSTYLE_TC
1002
{
1070
   177
1004
18000000020000008C8C8CC2000000000000000000000000
1070
   176
1004
18000000020000008C8C8CC2000000000000000000000000
1002
}
1001
ACAD_DSTYLE_DIMJAG_POSITION
1070
   387
1070
     0
1070
   389
1010
0.0
1020
0.0
1030
0.0
1001
ACAD
1000
DSTYLE
1002
{
1070
   177
1070
   256
1070
   176
1070
   256
1070
   144
1040
1.0
1002
}
  0
DIMENSION
  5
1B2
330
70
100
AcDbEntity
  8
Dimensions
100
AcDbDimension
280
     0
  2
*D16
 10
14.13164
 20
3.473216
 30
0.0
 11
13.24664
 21
3.473216
 31
0.0
 70
    32
 71
     5
 42
1.77
 73
     0
 74
     0
 75
     0
  3
Standard
100
AcDbAlignedDimension
 13
12.36164
 23
4.193216
 33
0.0
 14
14.13164
 24
4.193216
 34
0.0
100
AcDbRotatedDimension
1001
ACAD_TC
1000
DSTYLE_TC
1002
{
1070
   177
1004
18000000020000008C8C8CC2000000000000000000000000
1070
   176
1004
18000000020000008C8C8CC2000000000000000000000000
1002
}
1001
ACAD
1000
DSTYLE
1002
{
1070
   144
1040
1.0
1070
   177
1070
   256
1070
   176
1070
   256
1002
}
  0
DIMENSION
  5
1C0
330
70
100
AcDbEntity
  8
Dimensions
100
AcDbDimension
280
     0
  2
*D17
 10
5.802814
 20
7.895159
 30
0.0
 11
3.716507
 21
8.439185
 31
0.0
 70
   163
 71
     5
 42
1.5
 73
     0
 74
     0
 75
     0
  3
Standard
100
AcDbDiametricDimension
 15
4.37589
 25
8.35764
 35
0.0
 40
0.0
1001
ACAD_DIMASSOC_CALC_DIMLFAC
1040
-1.0
1001
ACAD_DIMASSOC_DIMLFAC
1040
-1.0
1001
ACAD_DIMASSOC_OVERRIDDEN_DIMLFAC
1040
0.0
1001
ACAD_DSTYLE_DIMJAG_POSITION
1070
   387
1070
     0
1070
   389
1010
0.0
1020
0.0
1030
0.0
1001
ACAD_DSTYLE_DIMRADIAL_EXTENSION
1070
   387
1070
     1
1070
   388
1040
3.99666
1070
   390
1040
5.420991
1001
ACAD
1000
DSTYLE
1002
{
1070
   144
1040
1.0
1070
   288
1070
     1
1002
}
  0
DIMENSION
  5
1CB
330
70
100
AcDbEntity
  8
Dimensions
100
AcDbDimension
280
     0
  2
*D18
 10
2.826322
 20
2.176374
 30
0.0
 11
3.957837
 21
2.176374
 31
0.0
 70
    32
 71
     5
 42
2.26303
 73
     0
 74
     0
 75
     0
  3
Standard
100
AcDbAlignedDimension
 13
5.089352
 23
7.376399
 33
0.0
 14
2.826322
 24
5.68226
 34
0.0
100
AcDbRotatedDimension
1001
ACAD_DIMASSOC_CALC_DIMLFAC
1040
-1.0
1001
ACAD_DIMASSOC_DIMLFAC
1040
-1.0
1001
ACAD_DIMASSOC_OVERRIDDEN_DIMLFAC
1040
0.0
1001
ACAD_TC
1000
DSTYLE_TC
1002
{
1070
   177
1004
18000000020000008C8C8CC2000000000000000000000000
1070
   176
1004
18000000020000008C8C8CC2000000000000000000000000
1002
}
1001
ACAD_DSTYLE_DIMJAG_POSITION
1070
   387
1070
     0
1070
   389
1010
0.0
1020
0.0
1030
0.0
1001
ACAD
1000
DSTYLE
1002
{
1070
   177
1070
   256
1070
   176
1070
   256
1070
   144
1040
1.0
1002
}
  0
DIMENSION
  5
1D9
330
70
100
AcDbEntity
  8
Dimensions
100
AcDbDimension
280
     0
  2
*D19
 10
9.109364
 20
5.516522
 30
0.0
 11
7.107148
 21
3.511267
 31
0.0
 70
   163
 71
     5
 42
1.968504
 73
     0
 74
     0
 75
     0
  3
Standard
100
AcDbDiametricDimension
 15
7.906557
 25
3.958233
 35
0.0
 40
0.0
1001
ACAD_DIMASSOC_CALC_DIMLFAC
1040
-1.0
1001
ACAD_DIMASSOC_DIMLFAC
1040
-1.0
1001
ACAD_DIMASSOC_OVERRIDDEN_DIMLFAC
1040
0.0
1001
ACAD_TC
1000
DSTYLE_TC
1002
{
1070
   176
1004
18000000020000008C8C8CC2000000000000000000000000
1070
   177
1004
18000000020000008C8C8CC2000000000000000000000000
1002
}
1001
ACAD_DSTYLE_DIMJAG_POSITION
1070
   387
1070
     0
1070
   389
1010
0.0
1020
0.0
1030
0.0
1001
ACAD_DSTYLE_DIMRADIAL_EXTENSION
1070
   387
1070
     1
1070
   388
1040
0.0
1070
   390
1040
0.0
1001
ACAD
1000
DSTYLE
1002
{
1070
   144
1040
1.0
1070
   176
1070
   256
1070
   177
1070
   256
1002
}
  0
DIMENSION
  5
1E3
330
70
100
AcDbEntity
  8
Dimensions
100
AcDbDimension
280
     0
  2
*D20
 10
8.912484
 20
5.017644
 30
0.0
 11
7.153765
 21
4.081679
 31
0.0
 70
   163
 71
     5
 42
0.984252
 73
     0
 74
     0
 75
     0
  3
Standard
100
AcDbDiametricDimension
 15
8.103437
 25
4.457112
 35
0.0
 40
0.0
1001
ACAD_DIMASSOC_CALC_DIMLFAC
1040
-1.0
1001
ACAD_DIMASSOC_DIMLFAC
1040
-1.0
1001
ACAD_DIMASSOC_OVERRIDDEN_DIMLFAC
1040
0.0
1001
ACAD_TC
1000
DSTYLE_TC
1002
{
1070
   176
1004
18000000020000008C8C8CC2000000000000000000000000
1070
   177
1004
18000000020000008C8C8CC2000000000000000000000000
1002
}
1001
ACAD_DSTYLE_DIMJAG_POSITION
1070
   387
1070
     0
1070
   389
1010
0.0
1020
0.0
1030
0.0
1001
ACAD_DSTYLE_DIMRADIAL_EXTENSION
1070
   387
1070
     1
1070
   388
1040
0.0
1070
   390
1040
0.0
1001
ACAD
1000
DSTYLE
1002
{
1070
   144
1040
1.0
1070
   176
1070
   256
1070
   177
1070
   256
1002
}
  0
DIMENSION
  5
1ED
330
70
100
AcDbEntity
  8
Dimensions
100
AcDbDimension
280
     0
  2
*D21
 10
8.776557
 20
2.643897
 30
0.0
 11
8.500966
 21
2.643897
 31
0.0
 70
    32
 71
     5
 42
0.551181
 73
     0
 74
     0
 75
     0
  3
Standard
100
AcDbAlignedDimension
 13
8.225376
 23
3.523795
 33
0.0
 14
8.776557
 24
3.523795
 34
0.0
100
AcDbRotatedDimension
1001
ACAD_DIMASSOC_CALC_DIMLFAC
1040
-1.0
1001
ACAD_DIMASSOC_DIMLFAC
1040
-1.0
1001
ACAD_DIMASSOC_OVERRIDDEN_DIMLFAC
1040
0.0
1001
ACAD_TC
1000
DSTYLE_TC
1002
{
1070
   176
1004
18000000020000008C8C8CC2000000000000000000000000
1070
   177
1004
18000000020000008C8C8CC2000000000000000000000000
1002
}
1001
ACAD_DSTYLE_DIMJAG_POSITION
1070
   387
1070
     0
1070
   389
1010
0.0
1020
0.0
1030
0.0
1001
ACAD
1000
DSTYLE
1002
{
1070
   144
1040
1.0
1070
   176
1070
   256
1070
   177
1070
   256
1002
}
  0
MTEXT
  5
1FB
102
{ACAD_XDICTIONARY
360
400
102
}
330
70
100
AcDbEntity
  8
Annotations
100
AcDbMText
 10
9.003636
 20
3.779805
 30
0.0
 40
0.12
 41
3.007267
 46
0.0
 71
     1
 72
     5
  1
\pi-0.36,l0.36,t0.36;** riser is adjustable 1.18" - 3.15"
 73
     1
 44
1.0
1001
ACAD
1000
ACAD_MTEXT_COLUMN_INFO_BEGIN
1070
    75
1070
     2
1070
    79
1070
     0
1070
    76
1070
     1
1070
    78
1070
     0
1070
    48
1040
3.007267
1070
    49
1040
0.6
1070
    50
1070
     1
1040
0.0
1000
ACAD_MTEXT_COLUMN_INFO_END
  0
CIRCLE
  5
32B
330
70
100
AcDbEntity
  8
Visible
100
AcDbCircle
 10
8.50796
 20
4.737378
 30
1.695199
 40
0.4921259842519686
  0
ARC
  5
32C
330
70
100
AcDbEntity
  8
Visible
100
AcDbCircle
 10
8.50796
 20
4.737378
 30
-0.672781
 40
0.984251968503937
100
AcDbArc
 50
285.83655
 51
74.16345
  0
ARC
  5
32D
330
70
100
AcDbEntity
  8
Visible
100
AcDbCircle
 10
8.50796
 20
4.737378
 30
-0.672781
 40
0.984251968503937
100
AcDbArc
 50
106.684775
 51
253.315225
  0
ARC
  5
32E
330
70
100
AcDbEntity
  8
Visible
100
AcDbCircle
 10
-8.126399
 20
1.306784
 30
-9.272002
 40
0.8484251705805545
210
-1.0
220
0.0
230
-0.0000000000000001
100
AcDbArc
 50
35.443363
 51
35.453806
  0
LINE
  5
32F
330
70
100
AcDbEntity
  8
Visible
100
AcDbLine
 10
9.272002
 20
7.435286
 30
1.79891
 11
9.272002
 21
7.560438
 31
1.79891
210
0.0
220
1.0
230
0.0
  0
SPLINE
  5
330
330
70
100
AcDbEntity
  8
Visible
100
AcDbSpline
 70
     0
 71
     3
 72
     8
 73
     4
 74
     0
 42
0.000000001
 43
0.0000000001
 40
0.0246261823681176
 40
0.0246261823681176
 40
0.0246261823681176
 40
0.0246261823681176
 40
0.0374167921538538
 40
0.0374167921538538
 40
0.0374167921538538
 40
0.0374167921538538
 10
9.277063959381848
 20
7.43528630541221
 30
1.798910427338341
 10
9.275378338312293
 20
7.435262607212917
 30
1.798877146966333
 10
9.273691007489105
 20
7.435232718525979
 30
1.798835168297955
 10
9.272002233681632
 20
7.435196612184452
 30
1.798784443086333
1001
ACAD_VIEW_EDGE_ID
1071
        8
1071
       -1
1071
        4
1071
        0
  0
LINE
  5
331
330
70
100
AcDbEntity
  8
Visible
100
AcDbLine
 10
9.277064
 20
7.560438
 30
1.79891
 11
9.277064
 21
7.435286
 31
1.79891
210
0.0
220
1.0
230
0.0
  0
SPLINE
  5
332
330
70
100
AcDbEntity
  8
Visible
100
AcDbSpline
 70
     0
 71
     3
 72
     8
 73
     4
 74
     0
 42
0.000000001
 43
0.0000000001
 40
-0.0374514287932053
 40
-0.0374514287932053
 40
-0.0374514287932053
 40
-0.0374514287932053
 40
-0.0246413415507017
 40
-0.0246413415507017
 40
-0.0246413415507017
 40
-0.0246413415507017
 10
9.272002233681632
 20
7.560328748055518
 30
1.798784443086333
 10
9.273690501731834
 20
7.560372822773586
 30
1.798835153258551
 10
9.275377818947163
 20
7.560409324182757
 30
1.798877136609007
 10
9.277063959381848
 20
7.560438271811699
 30
1.798910427338341
1001
ACAD_VIEW_EDGE_ID
1071
       10
1071
       -1
1071
        4
1071
        0
  0
LINE
  5
333
330
70
100
AcDbEntity
  8
Visible
100
AcDbLine
 10
7.730825
 20
7.560438
 30
1.79891
 11
9.272002
 21
7.560438
 31
1.79891
210
0.0
220
1.0
230
0.0
  0
LINE
  5
334
330
70
100
AcDbEntity
  8
Visible
100
AcDbLine
 10
7.730825
 20
7.560438
 30
1.79891
 11
7.730825
 21
7.435286
 31
1.79891
210
0.0
220
1.0
230
0.0
  0
LINE
  5
335
330
70
100
AcDbEntity
  8
Visible
100
AcDbLine
 10
9.272002
 20
7.435286
 30
1.79891
 11
7.730825
 21
7.435286
 31
1.79891
210
0.0
220
1.0
230
0.0
  0
SPLINE
  5
336
330
70
100
AcDbEntity
  8
Visible
100
AcDbSpline
 70
     0
 71
     3
 72
    23
 73
    19
 74
     0
 42
0.000000001
 43
0.0000000001
 40
1.264484633245443
 40
1.264484633245443
 40
1.264484633245443
 40
1.264484633245443
 40
1.369857842688119
 40
1.369857842688119
 40
1.475231052130796
 40
1.475231052130796
 40
1.58060528156236
 40
1.58060528156236
 40
1.685979510993924
 40
1.685979510993924
 40
1.685979510993924
 40
1.791353740425488
 40
1.791353740425488
 40
1.896727969857051
 40
1.896727969857051
 40
2.002101179299728
 40
2.002101179299728
 40
2.107474388742405
 40
2.107474388742405
 40
2.107474388742405
 40
2.107474388742405
 10
7.506002233682011
 20
7.277974218171713
 30
1.306784443086144
 10
7.506002233682011
 20
7.277974218171713
 30
1.32061294826235
 10
7.50876904783945
 20
7.278346827208284
 30
1.335352620790217
 10
7.519999815813207
 20
7.279693622057639
 30
1.362449806116273
 10
7.528462912547183
 20
7.280648834691726
 30
1.374808613813002
 10
7.54797815740676
 20
7.282445515505132
 30
1.394323858672578
 10
7.560336924099829
 20
7.283404256356239
 30
1.402786881380961
 10
7.587433970347774
 20
7.284759137337268
 30
1.414017595165205
 10
7.602173594648775
 20
7.285135297963362
 30
1.416784443086726
 10
7.616002233682593
 20
7.285135297963362
 30
1.416784443086726
 10
7.629830872714592
 20
7.285135297963362
 30
1.416784443086726
 10
7.644570497015592
 20
7.284759137337268
 30
1.414017595165205
 10
7.671667543263538
 20
7.283404256356239
 30
1.402786881380961
 10
7.684026309956607
 20
7.282445515505131
 30
1.394323858672578
 10
7.703541554816183
 20
7.280648834691726
 30
1.374808613813002
 10
7.712004651550159
 20
7.279693622057639
 30
1.362449806116273
 10
7.723235419523916
 20
7.278346827208284
 30
1.335352620790217
 10
7.726002233681356
 20
7.277974218171713
 30
1.32061294826235
 10
7.726002233681356
 20
7.277974218171713
 30
1.306784443086144
1001
ACAD_VIEW_EDGE_ID
1071
       18
1071
       -1
1071
        4
1071
        0
  0
SPLINE
  5
337
330
70
100
AcDbEntity
  8
Visible
100
AcDbSpline
 70
     0
 71
     3
 72
    23
 73
    19
 74
     0
 42
0.000000001
 43
0.0000000001
 40
1.26448463324544
 40
1.26448463324544
 40
1.26448463324544
 40
1.26448463324544
 40
1.369857842688117
 40
1.369857842688117
 40
1.475231052130793
 40
1.475231052130793
 40
1.580605281562357
 40
1.580605281562357
 40
1.685979510993921
 40
1.685979510993921
 40
1.685979510993921
 40
1.791353740425484
 40
1.791353740425484
 40
1.896727969857047
 40
1.896727969857047
 40
2.002101179299724
 40
2.002101179299724
 40
2.1074743887424
 40
2.1074743887424
 40
2.1074743887424
 40
2.1074743887424
 10
9.276002233682447
 20
7.277974218171713
 30
1.306784443086144
 10
9.276002233682447
 20
7.277974218171713
 30
1.32061294826235
 10
9.278769047839887
 20
7.278346827208284
 30
1.335352620790217
 10
9.289999815813644
 20
7.279693622057639
 30
1.362449806116273
 10
9.29846291254762
 20
7.280648834691726
 30
1.374808613813002
 10
9.317978157407196
 20
7.282445515505131
 30
1.394323858672578
 10
9.330336924100265
 20
7.283404256356239
 30
1.402786881380961
 10
9.357433970348211
 20
7.284759137337268
 30
1.414017595165205
 10
9.372173594649211
 20
7.285135297963362
 30
1.416784443086726
 10
9.38600223368121
 20
7.285135297963362
 30
1.416784443086726
 10
9.399830872715028
 20
7.285135297963362
 30
1.416784443086726
 10
9.414570497016029
 20
7.284759137337268
 30
1.414017595165205
 10
9.441667543263974
 20
7.283404256356239
 30
1.402786881380961
 10
9.454026309957043
 20
7.282445515505131
 30
1.394323858672578
 10
9.47354155481662
 20
7.280648834691726
 30
1.374808613813002
 10
9.482004651550596
 20
7.279693622057639
 30
1.362449806116273
 10
9.493235419524353
 20
7.278346827208285
 30
1.335352620790217
 10
9.496002233681792
 20
7.277974218171713
 30
1.32061294826235
 10
9.496002233681792
 20
7.277974218171713
 30
1.306784443086144
1001
ACAD_VIEW_EDGE_ID
1071
       20
1071
       -1
1071
        4
1071
        0
  0
SPLINE
  5
338
330
70
100
AcDbEntity
  8
Visible
100
AcDbSpline
 70
     0
 71
     3
 72
    14
 73
    10
 74
     0
 42
0.000000001
 43
0.0000000001
 40
1.063108957546619
 40
1.063108957546619
 40
1.063108957564633
 40
1.063108957564633
 40
1.328830920968566
 40
1.328830920968566
 40
1.594552884372499
 40
1.594552884372499
 40
1.860385399750883
 40
1.860385399750883
 40
2.126217915129266
 40
2.126217915129266
 40
2.126217915129266
 40
2.126217915129266
 10
8.225375840413107
 20
7.277974218171713
 30
1.306784443084325
 10
8.225375840413107
 20
7.277974218171713
 30
1.341656091826735
 10
8.232396430210428
 20
7.280335424276376
 30
1.378683180892039
 10
8.26060163033253
 20
7.288861551730675
 30
1.446512867254568
 10
8.281772783049746
 20
7.294917362849382
 30
1.477334729685026
 10
8.330426223872564
 20
7.306399385164516
 30
1.525988170506025
 10
8.361244034167611
 20
7.312601264152267
 30
1.547151520808256
 10
8.429058773579527
 20
7.321467230874114
 30
1.575350918097683
 10
8.46608023472072
 20
7.323981093477587
 30
1.58237499426832
 10
8.500966391595284
 20
7.323981093477587
 30
1.58237499426832
1001
ACAD_VIEW_EDGE_ID
1071
       21
1071
       -1
1071
        4
1071
        0
  0
SPLINE
  5
339
330
70
100
AcDbEntity
  8
Visible
100
AcDbSpline
 70
     0
 71
     3
 72
    14
 73
    10
 74
     0
 42
0.000000001
 43
0.0000000001
 40
2.126217915129266
 40
2.126217915129266
 40
2.126217915129266
 40
2.126217915129266
 40
2.392050430507649
 40
2.392050430507649
 40
2.657882945886032
 40
2.657882945886032
 40
2.923604909289966
 40
2.923604909289966
 40
3.189326872657869
 40
3.189326872657869
 40
3.189326872693899
 40
3.189326872693899
 10
8.500966391595284
 20
7.323981093477587
 30
1.58237499426832
 10
8.535852548468028
 20
7.323981093477587
 30
1.58237499426832
 10
8.572874009609222
 20
7.321467230874114
 30
1.575350918097683
 10
8.640688749021137
 20
7.312601264152267
 30
1.547151520808256
 10
8.671506559316185
 20
7.306399385164516
 30
1.525988170506025
 10
8.720160000139003
 20
7.294917362849382
 30
1.477334729685026
 10
8.741331152856218
 20
7.288861551730675
 30
1.446512867254568
 10
8.769536352976501
 20
7.280335424276954
 30
1.378683180897496
 10
8.776556942773822
 20
7.277974218172353
 30
1.341656091837649
 10
8.776556942775641
 20
7.277974218171713
 30
1.306784443095239
1001
ACAD_VIEW_EDGE_ID
1071
       22
1071
       -1
1071
        4
1071
        0
  0
SPLINE
  5
33A
330
70
100
AcDbEntity
  8
Visible
100
AcDbSpline
 70
     0
 71
     3
 72
    18
 73
    14
 74
     0
 42
0.000000001
 43
0.0000000001
 40
5.815952141828386
 40
5.815952141828386
 40
5.815952141828386
 40
5.815952141828386
 40
6.057618046683462
 40
6.057618046683462
 40
6.299283951538537
 40
6.299283951538537
 40
6.782615761248688
 40
6.782615761248688
 40
7.268609308509935
 40
7.268609308509935
 40
7.511606082140558
 40
7.511606082140558
 40
7.717186063617328
 40
7.717186063617328
 40
7.717186063617328
 40
7.717186063617328
 10
9.779002233681239
 20
7.277974218171713
 30
1.306784443086144
 10
9.779002233681239
 20
7.277974218171713
 30
1.338499128762123
 10
9.775887551988489
 20
7.279793796961454
 30
1.371058489465212
 10
9.763044547913523
 20
7.287148079927344
 30
1.43535124326263
 10
9.75332104372319
 20
7.29267843063803
 30
1.467086096639832
 10
9.715257714420658
 20
7.31357353234976
 30
1.557757217500693
 10
9.677575071837054
 20
7.333426354134807
 30
1.612096588911299
 10
9.591857107126998
 20
7.371984745822844
 30
1.697814553623175
 10
9.537585942485748
 20
7.393548920491531
 30
1.735331247737121
 10
9.447173561713498
 20
7.417580066129042
 30
1.77328708058485
 10
9.4155308768768
 20
7.424183351751078
 30
1.782997702286593
 10
9.356227577682147
 20
7.432395564886364
 30
1.794870235989947
 10
9.328701738037125
 20
7.434616281131499
 30
1.797969145423849
 10
9.301558446699345
 20
7.435196612184452
 30
1.798784443086333
1001
ACAD_VIEW_EDGE_ID
1071
       25
1071
       -1
1071
        4
1071
        0
  0
SPLINE
  5
33B
330
70
100
AcDbEntity
  8
Visible
100
AcDbSpline
 70
     0
 71
     3
 72
     8
 73
     4
 74
     0
 42
0.000000001
 43
0.0000000001
 40
-0.0374167921538553
 40
-0.0374167921538553
 40
-0.0374167921538553
 40
-0.0374167921538553
 40
-0.0246261823681177
 40
-0.0246261823681177
 40
-0.0246261823681177
 40
-0.0246261823681177
 10
9.301558446699345
 20
7.435196612184452
 30
1.798784443086333
 10
9.299869667251186
 20
7.43523271875471
 30
1.798835168619916
 10
9.298182349664784
 20
7.435262607046595
 30
1.798877146731683
 10
9.29649672099913
 20
7.43528630541221
 30
1.798910427338341
1001
ACAD_VIEW_EDGE_ID
1071
       26
1071
       -1
1071
        4
1071
        0
  0
LINE
  5
33C
330
70
100
AcDbEntity
  8
Visible
100
AcDbLine
 10
9.296497
 20
7.435286
 30
1.79891
 11
9.277064
 21
7.435286
 31
1.79891
210
0.0
220
1.0
230
0.0
  0
ARC
  5
33D
330
70
100
AcDbEntity
  8
Visible
100
AcDbCircle
 10
8.126399
 20
1.306784
 30
7.730825
 40
0.8484251968673472
210
1.0
220
0.0
230
0.0000000000000001
100
AcDbArc
 50
144.546194
 51
144.913256
  0
SPLINE
  5
33E
330
70
100
AcDbEntity
  8
Visible
100
AcDbSpline
 70
     0
 71
     3
 72
    21
 73
    17
 74
     0
 42
0.000000001
 43
0.0000000001
 40
-0.04955557699873
 40
-0.04955557699873
 40
-0.04955557699873
 40
-0.04955557699873
 40
0.0
 40
0.0
 40
0.0
 40
0.2418865798453932
 40
0.2418865798453932
 40
0.4837731596907864
 40
0.4837731596907864
 40
0.9675463193815726
 40
0.9675463193815726
 40
1.448511043079758
 40
1.448511043079758
 40
1.68899340492885
 40
1.68899340492885
 40
1.924003236623004
 40
1.924003236623004
 40
1.924003236623004
 40
1.924003236623004
 10
7.730824941794708
 20
7.432147725231717
 30
1.79447277170766
 10
7.724270704922673
 20
7.432331870524953
 30
1.794734912860803
 10
7.717736648448408
 20
7.432422999984661
 30
1.79486440581968
 10
7.711233291885946
 20
7.432422999984661
 30
1.79486440581968
 10
7.679489646237925
 20
7.432422999984661
 30
1.79486440581968
 10
7.647018170580849
 20
7.430189059683759
 30
1.791734534375791
 10
7.583029905872535
 20
7.421441142713097
 30
1.778927730470968
 10
7.551509212575183
 20
7.414946446001549
 30
1.769257144102084
 10
7.461434229093356
 20
7.391299560290444
 30
1.731445957986579
 10
7.40735268107528
 20
7.370065869467387
 30
1.694059293860846
 10
7.321957624999413
 20
7.332119061989107
 30
1.60863793315184
 10
7.284434595943821
 20
7.312598358548116
 30
1.554500604155691
 10
7.246546991766081
 20
7.292134505011018
 30
1.464200806578446
 10
7.236871409753803
 20
7.286737362265873
 30
1.432601028905992
 10
7.224239676839715
 20
7.279697352309421
 30
1.369323546343366
 10
7.221138023305684
 20
7.277974218171713
 30
1.337662626874589
 10
7.221002233682156
 20
7.277974218171713
 30
1.306784443086144
1001
ACAD_VIEW_EDGE_ID
1071
       29
1071
       -1
1071
        4
1071
        0
  0
SPLINE
  5
33F
330
70
100
AcDbEntity
  8
Visible
100
AcDbSpline
210
0.5002981490477648
220
-0.8658504037025272
230
-0.0022001062590137
 70
     8
 71
     3
 72
     8
 73
     4
 74
     0
 42
0.000000001
 43
0.0000000001
 40
1.924003236623004
 40
1.924003236623004
 40
1.924003236623004
 40
1.924003236623004
 40
1.929475766777943
 40
1.929475766777943
 40
1.929475766777944
 40
1.929475766777944
 10
7.221002233682156
 20
7.277974218171713
 30
1.306784443086144
 10
7.220999071632832
 20
7.277974218171713
 30
1.306065401713567
 10
7.220997493463073
 20
7.27797513226508
 30
1.305346784889479
 10
7.220997493463073
 20
7.277976957149197
 30
1.304628607396807
1001
ACAD_VIEW_EDGE_ID
1071
       30
1071
       -1
1071
        4
1071
        0
  0
SPLINE
  5
340
330
70
100
AcDbEntity
  8
Visible
100
AcDbSpline
 70
     0
 71
     3
 72
    33
 73
    29
 74
     0
 42
0.000000001
 43
0.0000000001
 40
-3.859602958569758
 40
-3.859602958569758
 40
-3.859602958569758
 40
-3.859602958569758
 40
-3.655404845018438
 40
-3.655404845018438
 40
-3.410320121149673
 40
-3.410320121149673
 40
-2.920150673412146
 40
-2.920150673412146
 40
-2.434604562979211
 40
-2.434604562979211
 40
-2.191831507762745
 40
-2.191831507762745
 40
-1.949058452546278
 40
-1.949058452546278
 40
-1.706701949835309
 40
-1.706701949835309
 40
-1.46434544712434
 40
-1.46434544712434
 40
-0.9796324417024031
 40
-0.9796324417024031
 40
-0.4898162208512016
 40
-0.4898162208512016
 40
-0.2449081104256008
 40
-0.2449081104256008
 40
0.0
 40
0.0
 40
0.0
 40
0.0496138245347879
 40
0.0496138245347879
 40
0.0496138245347879
 40
0.0496138245347879
 10
7.695096638797622
 20
7.560438271811699
 30
0.8146584588339464
 10
7.668176341869184
 20
7.559667344612973
 30
0.8155450505873886
 10
7.641019549550037
 20
7.556921480863603
 30
0.8186814695018256
 10
7.582211987188202
 20
7.546945250765356
 30
0.830544623422611
 10
7.550744269776259
 20
7.538933842351678
 30
0.8402706697215762
 10
7.460997749336456
 20
7.510176533649887
 30
0.8780971692340244
 10
7.407302357645676
 20
7.484883634572248
 30
0.9152788484097982
 10
7.322409900076308
 20
7.44029248495787
 30
1.000136655726237
 10
7.284908924006231
 20
7.417564012380187
 30
1.053944496050462
 10
7.246843971006455
 20
7.393574156749309
 30
1.144192744151951
 10
7.237079148573684
 20
7.387205537929209
 30
1.175849860295784
 10
7.224153265375207
 20
7.378663115493809
 30
1.240137017957749
 10
7.220997493463073
 20
7.376494093292313
 30
1.272768758019083
 10
7.220997493463073
 20
7.376311090735034
 30
1.336433791318995
 10
7.224142657789343
 20
7.378285683055509
 30
1.369024357603848
 10
7.237039777861355
 20
7.386430971122763
 30
1.433254459072486
 10
7.24678657484219
 20
7.392596860352497
 30
1.464895639444875
 10
7.2848015697964
 20
7.415984672696251
 30
1.555123407313658
 10
7.322278408109923
 20
7.438318362305654
 30
1.608954772951619
 10
7.407194827130297
 20
7.482235118631602
 30
1.69390547437797
 10
7.460943013915311
 20
7.507189467087049
 30
1.731134653411572
 10
7.550749320207614
 20
7.535540094292644
 30
1.76898983436331
 10
7.58223278962032
 20
7.543433904778683
 30
1.778718551753627
 10
7.64640127565508
 20
7.554152400231554
 30
1.791659626809632
 10
7.679093119913886
 20
7.556945334364504
 30
1.79486440581968
 10
7.711233291885946
 20
7.556945334364504
 30
1.79486440581968
 10
7.717744292480347
 20
7.556945334364504
 30
1.79486440581968
 10
7.724278118585061
 20
7.556834012978453
 30
1.794734616347341
 10
7.730824941794708
 20
7.55660989763329
 30
1.79447277170766
1001
ACAD_VIEW_EDGE_ID
1071
       40
1071
       -1
1071
        4
1071
        0
  0
SPLINE
  5
341
330
70
100
AcDbEntity
  8
Visible
100
AcDbSpline
 70
     0
 71
     3
 72
     8
 73
     4
 74
     0
 42
0.000000001
 43
0.0000000001
 40
-3.950108553012857
 40
-3.950108553012857
 40
-3.950108553012857
 40
-3.950108553012857
 40
-3.941376179179597
 40
-3.941376179179597
 40
-3.941376179179597
 40
-3.941376179179597
 10
7.730824941794708
 20
7.560328748055518
 30
0.8147844430859549
 10
7.729672891642621
 20
7.560368795878325
 30
0.8147383660580089
 10
7.728521176173671
 20
7.560405303449691
 30
0.8146963735398458
 10
7.72736994497427
 20
7.560438271811699
 30
0.8146584588339464
1001
ACAD_VIEW_EDGE_ID
1071
       42
1071
       -1
1071
        4
1071
        0
  0
SPLINE
  5
342
330
70
100
AcDbEntity
  8
Visible
100
AcDbSpline
 70
     0
 71
     3
 72
    18
 73
    14
 74
     0
 42
0.000000001
 43
0.0000000001
 40
0.0374514288149959
 40
0.0374514288149959
 40
0.0374514288149959
 40
0.0374514288149959
 40
0.246115239368135
 40
0.246115239368135
 40
0.49223047873627
 40
0.49223047873627
 40
0.9844609574725399
 40
0.9844609574725399
 40
1.471700859030294
 40
1.471700859030294
 40
1.715320809809171
 40
1.715320809809171
 40
1.958940760584151
 40
1.958940760584151
 40
1.958940760588048
 40
1.958940760588048
 10
9.301558446699345
 20
7.560328748055518
 30
1.798784443086333
 10
9.32905868439775
 20
7.559610813943333
 30
1.797958423896488
 10
9.356817404925095
 20
7.556839717589095
 30
1.794794240702685
 10
9.416345327070303
 20
7.546747178767076
 30
1.782783774266135
 10
9.44794624701899
 20
7.538707278796409
 30
1.77301493939376
 10
9.538074555541243
 20
7.509855873839775
 30
1.735019857000224
 10
9.592001309740226
 20
7.48449102461243
 30
1.697670351008127
 10
9.677231982555895
 20
7.439838507173187
 30
1.612439678194277
 10
9.714871187372409
 20
7.417114897911896
 30
1.558413882325112
 10
9.753070407123232
 20
7.393224594885731
 30
1.467812891953144
 10
9.762868557741967
 20
7.386904144072181
 30
1.436033842326651
 10
9.775837100993157
 20
7.378489139554261
 30
1.371506022309404
 10
9.779002233681239
 20
7.376399415022174
 30
1.338755565237079
 10
9.779002233681239
 20
7.376399415022107
 30
1.306784443087963
1001
ACAD_VIEW_EDGE_ID
1071
       48
1071
       -1
1071
        4
1071
        0
  0
SPLINE
  5
343
330
70
100
AcDbEntity
  8
Visible
100
AcDbSpline
 70
     0
 71
     3
 72
     8
 73
     4
 74
     0
 42
0.000000001
 43
0.0000000001
 40
0.024641341561366
 40
0.024641341561366
 40
0.024641341561366
 40
0.024641341561366
 40
0.0374514288149959
 40
0.0374514288149959
 40
0.0374514288149959
 40
0.0374514288149959
 10
9.29649672099913
 20
7.560438271811699
 30
1.798910427338341
 10
9.298182852071477
 20
7.560409324432914
 30
1.798877136896408
 10
9.299870185626787
 20
7.560372822428948
 30
1.798835152862011
 10
9.301558446699345
 20
7.560328748055518
 30
1.798784443086333
1001
ACAD_VIEW_EDGE_ID
1071
       49
1071
       -1
1071
        4
1071
        0
  0
LINE
  5
344
330
70
100
AcDbEntity
  8
Visible
100
AcDbLine
 10
9.296497
 20
7.435286
 30
1.79891
 11
9.296497
 21
7.560438
 31
1.79891
210
0.0
220
1.0
230
0.0
  0
LINE
  5
345
330
70
100
AcDbEntity
  8
Visible
100
AcDbLine
 10
7.72737
 20
7.560438
 30
0.814658
 11
7.695097
 21
7.560438
 31
0.814658
210
0.0
220
1.0
230
0.0
  0
LINE
  5
346
330
70
100
AcDbEntity
  8
Visible
100
AcDbLine
 10
9.277064
 20
7.560438
 30
1.79891
 11
9.296497
 21
7.560438
 31
1.79891
210
0.0
220
1.0
230
0.0
  0
ARC
  5
347
330
70
100
AcDbEntity
  8
Visible
100
AcDbCircle
 10
8.500966
 20
1.306784
 30
-3.523795
 40
0.2755905511811026
210
0.0
220
-1.0
230
0.0
100
AcDbArc
 50
0.0
 51
180.0
  0
LINE
  5
348
330
70
100
AcDbEntity
  8
Visible
100
AcDbLine
 10
7.221002
 20
7.277974
 30
1.306784
 11
7.506002
 21
7.277974
 31
1.306784
210
0.0
220
1.0
230
0.0
  0
LINE
  5
349
330
70
100
AcDbEntity
  8
Visible
100
AcDbLine
 10
7.726002
 20
7.277974
 30
1.306784
 11
8.225376
 21
7.277974
 31
1.306784
210
0.0
220
1.0
230
0.0
  0
LINE
  5
34A
330
70
100
AcDbEntity
  8
Visible
100
AcDbLine
 10
8.776557
 20
7.277974
 30
1.306784
 11
9.276002
 21
7.277974
 31
1.306784
210
0.0
220
1.0
230
0.0
  0
LINE
  5
34B
330
70
100
AcDbEntity
  8
Visible
100
AcDbLine
 10
9.496002
 20
7.277974
 30
1.306784
 11
9.779002
 21
7.277974
 31
1.306784
210
0.0
220
1.0
230
0.0
  0
LINE
  5
34C
330
70
100
AcDbEntity
  8
Visible
100
AcDbLine
 10
7.220997
 20
7.277977
 30
1.304629
 11
7.220997
 21
7.376403
 31
1.304629
210
0.0
220
1.0
230
0.0
  0
LINE
  5
34D
330
70
100
AcDbEntity
  8
Visible
100
AcDbLine
 10
9.779002
 20
7.277974
 30
1.306784
 11
9.779002
 21
7.376399
 31
1.306784
210
0.0
220
1.0
230
0.0
  0
LINE
  5
34E
330
70
100
AcDbEntity
  8
Visible
100
AcDbLine
 10
8.776557
 20
7.277974
 30
1.306784
 11
8.776557
 21
5.149742
 31
1.306784
210
0.0
220
1.0
230
0.0
  0
LINE
  5
34F
330
70
100
AcDbEntity
  8
Visible
100
AcDbLine
 10
8.776557
 20
4.325014
 30
1.306784
 11
8.776557
 21
3.523795
 31
1.306784
210
0.0
220
1.0
230
0.0
  0
LINE
  5
350
330
70
100
AcDbEntity
  8
Visible
100
AcDbLine
 10
8.225376
 20
7.277974
 30
1.306784
 11
8.225376
 21
5.140285
 31
1.306784
210
0.0
220
1.0
230
0.0
  0
LINE
  5
351
330
70
100
AcDbEntity
  8
Visible
100
AcDbLine
 10
8.225376
 20
4.334471
 30
1.306784
 11
8.225376
 21
3.523795
 31
1.306784
210
0.0
220
1.0
230
0.0
  0
ARC
  5
352
330
70
100
AcDbEntity
  8
Visible
100
AcDbCircle
 10
-8.500966
 20
3.931518
 30
-1.306784
 40
0.4921259842519685
210
0.0000000000000001
220
0.0
230
-1.0
100
AcDbArc
 50
235.944202
 51
304.055798
  0
ARC
  5
353
330
70
100
AcDbEntity
  8
Visible
100
AcDbCircle
 10
4.737378
 20
-0.00796
 30
2.826322
 40
0.9448818897637794
210
1.0
220
-0.0000000000000022
230
0.0000000000002969
100
AcDbArc
 50
0.0
 51
180.0
  0
LINE
  5
354
330
70
100
AcDbEntity
  8
Visible
100
AcDbLine
 10
2.826322
 20
5.68226
 30
-0.00796
 11
2.912936
 21
5.68226
 31
-0.00796
210
0.0
220
1.0
230
0.0
  0
LINE
  5
355
330
70
100
AcDbEntity
  8
Visible
100
AcDbLine
 10
2.826322
 20
3.792496
 30
-0.00796
 11
2.912936
 21
3.792496
 31
-0.00796
210
0.0
220
1.0
230
0.0
  0
SPLINE
  5
356
330
70
100
AcDbEntity
  8
Visible
100
AcDbSpline
 70
     0
 71
     3
 72
    10
 73
     6
 74
     0
 42
0.000000001
 43
0.0000000001
 40
1.082898440392949
 40
1.082898440392949
 40
1.082898440396907
 40
1.082898440396907
 40
1.352995901063261
 40
1.352995901063261
 40
1.527061006855899
 40
1.527061006855899
 40
1.527061006855899
 40
1.527061006855899
 10
4.808605202242688
 20
4.245251881623821
 30
-0.0079604727179685
 10
4.808605202242688
 20
4.245251881623821
 30
0.0274853882619937
 10
4.815853111862452
 20
4.249422467568566
 30
0.0647703192662448
 10
4.83919762755795
 20
4.261771265432297
 30
0.120436042872825
 10
4.851215554432201
 20
4.267935444096089
 30
0.1408453571930295
 10
4.865021719144351
 20
4.274474091725465
 30
0.1590173661497829
1001
ACAD_VIEW_EDGE_ID
1071
        0
1071
       -1
1071
        3
1071
        0
  0
SPLINE
  5
357
330
70
100
AcDbEntity
  8
Visible
100
AcDbSpline
 70
     0
 71
     3
 72
    10
 73
     6
 74
     0
 42
0.000000001
 43
0.0000000001
 40
2.804532754731722
 40
2.804532754731722
 40
2.804532754731722
 40
2.804532754731722
 40
2.978597860524367
 40
2.978597860524367
 40
3.24869532119072
 40
3.24869532119072
 40
3.248695321193411
 40
3.248695321193411
 10
4.865021719144351
 20
5.200281640026116
 30
0.1590173661497829
 10
4.851215554432201
 20
5.206820287655491
 30
0.1408453571930295
 10
4.83919762755795
 20
5.212984466319284
 30
0.120436042872825
 10
4.815853111862452
 20
5.225333264183015
 30
0.0647703192662448
 10
4.808605202242688
 20
5.229503850127759
 30
0.0274853882619937
 10
4.808605202242688
 20
5.229503850127759
 30
-0.0079604727179685
1001
ACAD_VIEW_EDGE_ID
1071
        1
1071
       -1
1071
        3
1071
        0
  0
ARC
  5
358
330
70
100
AcDbEntity
  8
Visible
100
AcDbCircle
 10
4.737378
 20
-0.00796
 30
5.477767
 40
0.4921259842519687
210
1.0
220
0.0
230
0.0000000000002969
100
AcDbArc
 50
0.0
 51
180.0
  0
ARC
  5
359
330
70
100
AcDbEntity
  8
Visible
100
AcDbCircle
 10
4.737378
 20
-0.00796
 30
2.912936
 40
0.9842519685039372
210
1.0
220
-0.0000000000000005
230
0.0000000000002972
100
AcDbArc
 50
0.0
 51
180.0
  0
ARC
  5
35A
330
70
100
AcDbEntity
  8
Visible
100
AcDbCircle
 10
4.737378
 20
-0.00796
 30
3.109786
 40
0.9842519685039372
210
1.0
220
-0.0000000000000005
230
0.0000000000002972
100
AcDbArc
 50
0.0
 51
180.0
  0
ARC
  5
35B
330
70
100
AcDbEntity
  8
Visible
100
AcDbCircle
 10
-3.981834
 20
4.737378
 30
0.00796
 40
1.574803149606299
210
0.0000000000002969
220
0.0
230
-1.0
100
AcDbArc
 50
161.790043
 51
198.209957
  0
LINE
  5
35C
330
70
100
AcDbEntity
  8
Visible
100
AcDbLine
 10
2.912936
 20
5.72163
 30
-0.00796
 11
3.109786
 21
5.72163
 31
-0.00796
210
0.0
220
1.0
230
0.0
  0
LINE
  5
35D
330
70
100
AcDbEntity
  8
Visible
100
AcDbLine
 10
2.912936
 20
3.753126
 30
-0.00796
 11
3.109786
 21
3.753126
 31
-0.00796
210
0.0
220
1.0
230
0.0
  0
LINE
  5
35E
330
70
100
AcDbEntity
  8
Visible
100
AcDbLine
 10
3.109786
 20
5.229504
 30
-0.00796
 11
4.808605
 21
5.229504
 31
-0.00796
210
0.0
220
1.0
230
0.0
  0
LINE
  5
35F
330
70
100
AcDbEntity
  8
Visible
100
AcDbLine
 10
5.364943
 20
5.229504
 30
-0.00796
 11
5.477767
 21
5.229504
 31
-0.00796
210
0.0
220
1.0
230
0.0
  0
LINE
  5
360
330
70
100
AcDbEntity
  8
Visible
100
AcDbLine
 10
3.109786
 20
4.245252
 30
-0.00796
 11
4.808605
 21
4.245252
 31
-0.00796
210
0.0
220
1.0
230
0.0
  0
LINE
  5
361
330
70
100
AcDbEntity
  8
Visible
100
AcDbLine
 10
5.364943
 20
4.245252
 30
-0.00796
 11
5.477767
 21
4.245252
 31
-0.00796
210
0.0
220
1.0
230
0.0
  0
LINE
  5
362
330
70
100
AcDbEntity
  8
Visible
100
AcDbLine
 10
5.581478
 20
7.560438
 30
0.769175
 11
5.581478
 21
7.435286
 31
0.769175
210
0.0
220
1.0
230
0.0
  0
ARC
  5
363
330
70
100
AcDbEntity
  8
Visible
100
AcDbCircle
 10
-5.089352
 20
8.126399
 30
-0.769175
 40
0.8484251968556367
210
0.0000000000002969
220
0.0
230
-1.0
100
AcDbArc
 50
234.546194
 51
234.880929
  0
SPLINE
  5
364
330
70
100
AcDbEntity
  8
Visible
100
AcDbSpline
 70
     0
 71
     3
 72
    18
 73
    14
 74
     0
 42
0.000000001
 43
0.0000000001
 40
-0.0000000000000012
 40
0.0
 40
0.0
 40
0.0
 40
0.2418865798453932
 40
0.2418865798453932
 40
0.4837731596907864
 40
0.4837731596907864
 40
0.9675463193815726
 40
0.9675463193815726
 40
1.448511043079758
 40
1.448511043079758
 40
1.68899340492885
 40
1.68899340492885
 40
1.924003236623004
 40
1.924003236623004
 40
1.924003236623004
 40
1.924003236623004
 10
5.577432112349924
 20
7.432423038567267
 30
0.7887667081140535
 10
5.577432112349924
 20
7.432423038567267
 30
0.8205103537620743
 10
5.574302240906035
 20
7.430189098266366
 30
0.85298182941915
 10
5.561495437001212
 20
7.421441181295703
 30
0.9169700941274641
 10
5.551824850632328
 20
7.414946484584156
 30
0.9484907874248165
 10
5.514013664516824
 20
7.39129959887305
 30
1.038565770906643
 10
5.47662700039109
 20
7.370065908049994
 30
1.092647318924719
 10
5.391205639682084
 20
7.332119100571713
 30
1.178042375000586
 10
5.337068310685936
 20
7.312598397130722
 30
1.215565404056178
 10
5.24676851310869
 20
7.292134543593624
 30
1.253453008233918
 10
5.215168735436236
 20
7.28673740084848
 30
1.263128590246196
 10
5.15189125287361
 20
7.279697390892027
 30
1.275760323160284
 10
5.120230333404833
 20
7.27797425675432
 30
1.278861976694315
 10
5.089352149616388
 20
7.27797425675432
 30
1.278997766317843
1001
ACAD_VIEW_EDGE_ID
1071
       29
1071
       -1
1071
        4
1071
        0
  0
SPLINE
  5
365
330
70
100
AcDbEntity
  8
Visible
100
AcDbSpline
 70
     0
 71
     3
 72
    20
 73
    16
 74
     0
 42
0.000000001
 43
0.0000000001
 40
1.924003236623004
 40
1.924003236623004
 40
1.924003236623004
 40
1.924003236623004
 40
1.929475766777943
 40
1.929475766777943
 40
2.170268373928883
 40
2.170268373928883
 40
2.411060981079822
 40
2.411060981079822
 40
2.892646195381701
 40
2.892646195381701
 40
3.37661743596894
 40
3.37661743596894
 40
3.61860305626256
 40
3.61860305626256
 40
3.819743423457789
 40
3.819743423457789
 40
3.819743423457789
 40
3.819743423457789
 10
5.089352149616388
 20
7.27797425675432
 30
1.278997766317843
 10
5.088633108243811
 20
7.27797425675432
 30
1.279000928367167
 10
5.087914491419724
 20
7.277975170847686
 30
1.279002506536926
 10
5.055596336263988
 20
7.278057291059905
 30
1.279002506536926
 10
5.02315832070235
 20
7.279946170539726
 30
1.275897862262354
 10
4.959110267091091
 20
7.28741087476116
 30
1.263099492683977
 10
4.92749875955269
 20
7.292982388145643
 30
1.2534106075218
 10
4.837183725558134
 20
7.313960388390888
 30
1.215485958307908
 10
4.783063228373066
 20
7.333812963157328
 30
1.177944982333428
 10
4.697712473887804
 20
7.372313067951105
 30
1.092567655623497
 10
4.660360107658561
 20
7.393814447951897
 30
1.038525603818925
 10
4.622569165989261
 20
7.417765970211689
 30
0.9484917193349247
 10
4.61290036317041
 20
7.424345564335913
 30
0.9169810883977334
 10
4.601173738978104
 20
7.432462093086973
 30
0.8583987534548214
 10
4.598101223231424
 20
7.43466323511706
 30
0.8314734455198049
 10
4.59722616536419
 20
7.435286343994818
 30
0.8049033612023777
1001
ACAD_VIEW_EDGE_ID
1071
       30
1071
       -1
1071
        4
1071
        0
  0
ARC
  5
366
330
70
100
AcDbEntity
  8
Visible
100
AcDbCircle
 10
5.089352
 20
8.126399
 30
0.769175
 40
0.7499999999860857
100
AcDbArc
 50
310.59993
 51
311.008272
  0
SPLINE
  5
367
330
70
100
AcDbEntity
  8
Visible
100
AcDbSpline
 70
     0
 71
     3
 72
    30
 73
    26
 74
     0
 42
0.000000001
 43
0.0000000001
 40
-3.859602958569758
 40
-3.859602958569758
 40
-3.859602958569758
 40
-3.859602958569758
 40
-3.655404845018438
 40
-3.655404845018438
 40
-3.410320121149673
 40
-3.410320121149673
 40
-2.920150673412146
 40
-2.920150673412146
 40
-2.434604562979211
 40
-2.434604562979211
 40
-2.191831507762745
 40
-2.191831507762745
 40
-1.949058452546278
 40
-1.949058452546278
 40
-1.706701949835309
 40
-1.706701949835309
 40
-1.46434544712434
 40
-1.46434544712434
 40
-0.9796324417024031
 40
-0.9796324417024031
 40
-0.4898162208512016
 40
-0.4898162208512016
 40
-0.2449081104256008
 40
-0.2449081104256008
 40
-0.0000000000000013
 40
0.0
 40
0.0
 40
0.0
 10
4.59722616536419
 20
7.560438310394307
 30
0.8049033612023777
 10
4.598112757117633
 20
7.559667383195581
 30
0.8318236581308156
 10
4.601249176032069
 20
7.556921519446209
 30
0.8589804504499625
 10
4.613112329952855
 20
7.546945289347963
 30
0.9177880128117976
 10
4.62283837625182
 20
7.538933880934285
 30
0.9492557302237401
 10
4.660664875764268
 20
7.510176572232493
 30
1.039002250663543
 10
4.697846554940042
 20
7.484883673154855
 30
1.092697642354323
 10
4.782704362256481
 20
7.440292523540477
 30
1.177590099923691
 10
4.836512202580706
 20
7.417564050962793
 30
1.215091075993768
 10
4.926760450682195
 20
7.393574195331916
 30
1.253156028993544
 10
4.958417566826028
 20
7.387205576511815
 30
1.262920851426315
 10
5.022704724487994
 20
7.378663154076416
 30
1.275846734624792
 10
5.055336464549327
 20
7.376494131874919
 30
1.279002506536926
 10
5.119001497849239
 20
7.376311129317641
 30
1.279002506536926
 10
5.151592064134092
 20
7.378285721638116
 30
1.275857342210656
 10
5.21582216560273
 20
7.386431009705369
 30
1.262960222138644
 10
5.24746334597512
 20
7.392596898935105
 30
1.253213425157809
 10
5.337691113843902
 20
7.415984711278857
 30
1.215198430203599
 10
5.391522479481864
 20
7.438318400888261
 30
1.177721591890076
 10
5.476473180908214
 20
7.482235157214208
 30
1.092805172869702
 10
5.513702359941817
 20
7.507189505669655
 30
1.039056986084688
 10
5.551557540893554
 20
7.53554013287525
 30
0.9492506797923851
 10
5.561286258283871
 20
7.543433943361289
 30
0.9177672103796794
 10
5.574227333339877
 20
7.55415243881416
 30
0.8535987243449199
 10
5.577432112349924
 20
7.556945372947111
 30
0.8209068800861132
 10
5.577432112349924
 20
7.556945372947111
 30
0.7887667081140535
1001
ACAD_VIEW_EDGE_ID
1071
       40
1071
       -1
1071
        4
1071
        0
  0
LINE
  5
368
330
70
100
AcDbEntity
  8
Visible
100
AcDbLine
 10
4.597226
 20
7.435286
 30
0.804903
 11
4.597226
 21
7.560438
 31
0.804903
210
0.0
220
1.0
230
0.0
  0
ARC
  5
369
330
70
100
AcDbEntity
  8
Visible
100
AcDbCircle
 10
5.089352
 20
-0.000966
 30
-3.523795
 40
0.2755905511811024
210
0.0
220
-1.0
230
0.0
100
AcDbArc
 50
0.0
 51
180.0
  0
LINE
  5
36A
330
70
100
AcDbEntity
  8
Visible
100
AcDbLine
 10
5.577432
 20
7.432423
 30
0.788767
 11
5.577432
 21
7.556945
 31
0.788767
210
0.0
220
1.0
230
0.0
  0
LINE
  5
36B
330
70
100
AcDbEntity
  8
Visible
100
AcDbLine
 10
5.364943
 20
7.323981
 30
-0.000966
 11
5.364943
 21
5.229454
 31
-0.000966
210
0.0
220
1.0
230
0.0
  0
LINE
  5
36C
330
70
100
AcDbEntity
  8
Visible
100
AcDbLine
 10
5.364943
 20
4.245302
 30
-0.000966
 11
5.364943
 21
3.523795
 31
-0.000966
210
0.0
220
1.0
230
0.0
  0
LINE
  5
36D
330
70
100
AcDbEntity
  8
Visible
100
AcDbLine
 10
4.813762
 20
7.323981
 30
-0.000966
 11
4.813762
 21
5.226635
 31
-0.000966
210
0.0
220
1.0
230
0.0
  0
LINE
  5
36E
330
70
100
AcDbEntity
  8
Visible
100
AcDbLine
 10
4.813762
 20
4.248121
 30
-0.000966
 11
4.813762
 21
3.523795
 31
-0.000966
210
0.0
220
1.0
230
0.0
  0
ARC
  5
36F
330
70
100
AcDbEntity
  8
Visible
100
AcDbCircle
 10
-5.089352
 20
3.931518
 30
0.000966
 40
0.4921259842519686
210
0.0000000000002969
220
0.0
230
-1.0
100
AcDbArc
 50
235.944202
 51
304.055798
  0
LINE
  5
370
330
70
100
AcDbEntity
  8
Visible
100
AcDbLine
 10
2.219708
 20
5.717474
 30
0.082394
 11
2.062227
 21
5.717474
 31
0.082394
210
0.0
220
1.0
230
0.0
  0
ARC
  5
371
330
70
100
AcDbEntity
  8
Visible
100
AcDbCircle
 10
-4.737378
 20
-0.00796
 30
-2.062227
 40
0.9842519685039484
210
-1.0
220
0.0
230
-0.0000000000002969
100
AcDbArc
 50
174.732832
 51
180.0
  0
ARC
  5
372
330
70
100
AcDbEntity
  8
Visible
100
AcDbCircle
 10
-4.737378
 20
-0.00796
 30
-2.219708
 40
0.9842519685039372
210
-1.0
220
0.0000000000000003
230
-0.0000000000002969
100
AcDbArc
 50
0.0
 51
174.732832
  0
ARC
  5
373
330
70
100
AcDbEntity
  8
Visible
100
AcDbCircle
 10
-4.737378
 20
-0.00796
 30
-1.983487
 40
0.9842519685039368
210
-1.0
220
-0.0000000000000002
230
-0.0000000000002969
100
AcDbArc
 50
0.0
 51
180.0
  0
LINE
  5
374
330
70
100
AcDbEntity
  8
Visible
100
AcDbLine
 10
2.219708
 20
3.753126
 30
-0.00796
 11
1.983487
 21
3.753126
 31
-0.00796
210
0.0
220
1.0
230
0.0
  0
LINE
  5
375
330
70
100
AcDbEntity
  8
Visible
100
AcDbLine
 10
2.062227
 20
5.72163
 30
-0.00796
 11
1.983487
 21
5.72163
 31
-0.00796
210
0.0
220
1.0
230
0.0
  0
ARC
  5
376
330
70
100
AcDbEntity
  8
Visible
100
AcDbCircle
 10
4.737378
 20
-0.00796
 30
2.818133
 40
0.2559055118110236
210
1.0
220
0.0
230
0.0000000000002969
100
AcDbArc
 50
0.0
 51
180.0
  0
ARC
  5
377
330
70
100
AcDbEntity
  8
Visible
100
AcDbCircle
 10
4.737378
 20
-0.00796
 30
2.306322
 40
0.9448818897637798
210
1.0
220
0.0000000000000003
230
0.0000000000002969
100
AcDbArc
 50
0.0
 51
180.0
  0
LINE
  5
378
330
70
100
AcDbEntity
  8
Visible
100
AcDbLine
 10
2.306322
 20
4.993283
 30
-0.00796
 11
2.818133
 21
4.993283
 31
-0.00796
210
0.0
220
1.0
230
0.0
  0
LINE
  5
379
330
70
100
AcDbEntity
  8
Visible
100
AcDbLine
 10
2.306322
 20
4.481472
 30
-0.00796
 11
2.818133
 21
4.481472
 31
-0.00796
210
0.0
220
1.0
230
0.0
  0
LINE
  5
37A
330
70
100
AcDbEntity
  8
Visible
100
AcDbLine
 10
2.219708
 20
5.68226
 30
-0.00796
 11
2.306322
 21
5.68226
 31
-0.00796
210
0.0
220
1.0
230
0.0
  0
LINE
  5
37B
330
70
100
AcDbEntity
  8
Visible
100
AcDbLine
 10
2.219708
 20
3.792496
 30
-0.00796
 11
2.306322
 21
3.792496
 31
-0.00796
210
0.0
220
1.0
230
0.0
  0
SPLINE
  5
37C
330
70
100
AcDbEntity
  8
Visible
100
AcDbSpline
 70
     0
 71
     3
 72
    12
 73
     8
 74
     0
 42
0.000000001
 43
0.0000000001
 40
-19.10695690625505
 40
-19.10695690625505
 40
-19.10695690625505
 40
-19.10695690625505
 40
-18.98548763271728
 40
-18.98548763271728
 40
-18.83096702423764
 40
-18.83096702423764
 40
-18.81336778662152
 40
-18.81336778662152
 40
-18.81336778662152
 40
-18.81336778662152
 10
2.826312554332616
 20
4.853221315979257
 30
0.0975515605496185
 10
2.825538708206295
 20
4.86390047932719
 30
0.0857189924536215
 10
2.824750351754119
 20
4.872741610883046
 30
0.0723111504976259
 10
2.822896657005912
 20
4.887913193915706
 30
0.0392827600608143
 10
2.821860882106193
 20
4.892743815796921
 30
0.0193172302042513
 10
2.820773424295111
 20
4.893743615504539
 30
-0.0033311556289846
 10
2.820662058691596
 20
4.893794602545853
 30
-0.0056466884925612
 10
2.82055047126596
 20
4.893794601670527
 30
-0.0079602955793234
1001
ACAD_VIEW_EDGE_ID
1071
       23
1071
       -1
1071
        7
1071
        0
  0
SPLINE
  5
37D
330
70
100
AcDbEntity
  8
Visible
100
AcDbSpline
 70
     0
 71
     3
 72
    14
 73
    10
 74
     0
 42
0.000000001
 43
0.0000000001
 40
-41.54957991828758
 40
-41.54957991828758
 40
-41.54957991828758
 40
-41.54957991828758
 40
-41.47833982887194
 40
-41.47833982887194
 40
-41.32452675136618
 40
-41.32452675136618
 40
-41.16621546118397
 40
-41.16621546118397
 40
-41.13016367148244
 40
-41.13016367148244
 40
-41.13016367148244
 40
-41.13016367148244
 10
2.81813276100911
 20
4.876417248003731
 30
0.0639505069066218
 10
2.818606051696406
 20
4.872168609782661
 30
0.0722280865120411
 10
2.819076125837455
 20
4.867184553305614
 30
0.0801328302677575
 10
2.820533201787839
 20
4.849269136931154
 30
0.1036133015586529
 10
2.821464962986283
 20
4.834053881343464
 30
0.1171573892715969
 10
2.823534206796466
 20
4.798830147356617
 30
0.138065056024061
 10
2.824603365526854
 20
4.779040811469892
 30
0.1450302999292035
 10
2.825864286363866
 20
4.753786080784129
 30
0.1486191334315663
 10
2.82609442631292
 20
4.749081916772573
 30
0.1490722638936859
 10
2.826322844353853
 20
4.744372267547067
 30
0.1493135653145146
1001
ACAD_VIEW_EDGE_ID
1071
       25
1071
       -1
1071
        7
1071
        0
  0
SPLINE
  5
37E
330
70
100
AcDbEntity
  8
Visible
100
AcDbSpline
210
0.9979560350855734
220
0.0244550940715025
230
0.0590398205471163
 70
    12
 71
     2
 72
     6
 73
     3
 74
     0
 42
0.000000001
 43
0.0000000001
 40
0.4012271382108226
 40
0.4012271382108226
 40
0.4012271382108226
 40
0.4020208541865274
 40
0.4020208541865274
 40
0.4020208541865274
 10
2.81813276129651
 20
4.616827000768836
 30
0.0304713149798772
 41
0.9635392891858153
 10
2.818957572002545
 20
4.612869941798061
 30
0.018168523985878
 41
0.9676018504369508
 10
2.819751348164573
 20
4.611502795838762
 30
0.005317535935319
 41
0.981982740739772
1001
ACAD_VIEW_EDGE_ID
1071
       43
1071
       -1
1071
        7
1071
        0
  0
LINE
  5
37F
330
70
100
AcDbEntity
  8
Visible
100
AcDbLine
 10
2.818133
 20
4.893795
 30
-0.00796
 11
2.820554
 21
4.893795
 31
-0.00796
210
0.0
220
1.0
230
0.0
  0
SPLINE
  5
380
330
70
100
AcDbEntity
  8
Visible
100
AcDbSpline
 70
     0
 71
     3
 72
     8
 73
     4
 74
     0
 42
0.000000001
 43
0.0000000001
 40
0.0
 40
0.0
 40
0.0
 40
0.0
 40
0.0260053141338363
 40
0.0260053141338363
 40
0.0260053141338363
 40
0.0260053141338363
 10
2.821188185895152
 20
4.89323903240522
 30
0.0052559930554708
 10
2.822899094440799
 20
4.890286106352776
 30
0.0052609710146498
 10
2.824610261752241
 20
4.887333330322221
 30
0.0052661265017377
 10
2.826321737675243
 20
4.884380733469044
 30
0.0052714699577336
1001
ACAD_VIEW_EDGE_ID
1071
   -26679
1071
       -1
1071
        7
1071
        0
  0
LINE
  5
381
330
70
100
AcDbEntity
  8
Visible
100
AcDbLine
 10
2.818133
 20
4.610798
 30
-0.00796
 11
2.82016
 21
4.610798
 31
-0.00796
210
0.0
220
1.0
230
0.0
  0
SPLINE
  5
382
330
70
100
AcDbEntity
  8
Visible
100
AcDbSpline
 70
     0
 71
     3
 72
     8
 73
     4
 74
     0
 42
0.000000001
 43
0.0000000001
 40
0.0610429254081497
 40
0.0610429254081497
 40
0.0610429254081497
 40
0.0610429254081497
 40
0.0942917788501591
 40
0.0942917788501591
 40
0.0942917788501591
 40
0.0942917788501591
 10
2.826321737675243
 20
4.60018112850648
 30
0.0052941264857509
 10
2.824132322328296
 20
4.603955432969082
 30
0.0053016157617094
 10
2.821942241420401
 20
4.607729350616026
 30
0.0053094168961252
 10
2.819751348164572
 20
4.611502795838762
 30
0.005317535935319
1001
ACAD_VIEW_EDGE_ID
1071
   -30743
1071
       -1
1071
        7
1071
        0
  0
ARC
  5
383
330
70
100
AcDbEntity
  8
Visible
100
AcDbCircle
 10
13.253599
 20
-0.762622
 30
-6.456246
 40
0.9448818897637796
210
0.0
220
-1.0
230
-0.0000000000000022
100
AcDbArc
 50
0.0
 51
180.0
  0
LINE
  5
384
330
70
100
AcDbEntity
  8
Visible
100
AcDbLine
 10
14.198481
 20
6.456246
 30
-0.762622
 11
14.198481
 21
6.369632
 31
-0.762622
  0
LINE
  5
385
330
70
100
AcDbEntity
  8
Visible
100
AcDbLine
 10
12.308717
 20
6.456246
 30
-0.762622
 11
12.308717
 21
6.369632
 31
-0.762622
  0
ARC
  5
386
330
70
100
AcDbEntity
  8
Visible
100
AcDbCircle
 10
13.253599
 20
-0.762622
 30
-6.369632
 40
0.9842519685039372
210
-0.0000000000000004
220
-1.0
230
-0.0000000000000005
100
AcDbArc
 50
360.0
 51
180.0
  0
ARC
  5
387
330
70
100
AcDbEntity
  8
Visible
100
AcDbCircle
 10
13.253599
 20
-0.762622
 30
-6.172781
 40
0.9842519685039372
210
-0.0000000000000002
220
-1.0
230
-0.0000000000000005
100
AcDbArc
 50
360.0
 51
180.0
  0
LINE
  5
388
330
70
100
AcDbEntity
  8
Visible
100
AcDbLine
 10
14.237851
 20
6.369632
 30
-0.762622
 11
14.237851
 21
6.172781
 31
-0.762622
  0
LINE
  5
389
330
70
100
AcDbEntity
  8
Visible
100
AcDbLine
 10
12.269347
 20
6.369632
 30
-0.762622
 11
12.269347
 21
6.172781
 31
-0.762622
  0
LINE
  5
38A
330
70
100
AcDbEntity
  8
Visible
100
AcDbLine
 10
13.745725
 20
6.172781
 30
-0.762622
 11
13.745725
 21
4.685342
 31
-0.762622
  0
LINE
  5
38B
330
70
100
AcDbEntity
  8
Visible
100
AcDbLine
 10
12.761473
 20
6.172781
 30
-0.762622
 11
12.761473
 21
4.685342
 31
-0.762622
  0
ARC
  5
38C
330
70
100
AcDbEntity
  8
Visible
100
AcDbCircle
 10
4.193216
 20
2.626399
 30
14.01764
 40
0.7499999827424661
210
1.0
220
0.0
230
0.0
100
AcDbArc
 50
228.991728
 51
229.004481
  0
SPLINE
  5
38D
330
70
100
AcDbEntity
  8
Visible
100
AcDbSpline
 70
     0
 71
     3
 72
     8
 73
     4
 74
     0
 42
0.000000001
 43
0.0000000001
 40
3.942522862737373
 40
3.942522862737373
 40
3.942522862737373
 40
3.942522862737373
 40
3.955332949991091
 40
3.955332949991091
 40
3.955332949991091
 40
3.955332949991091
 10
14.02270217977457
 20
4.685341541164234
 30
2.060438271811701
 10
14.02101604870222
 20
4.6853082507223
 30
2.060409324432915
 10
14.01932871514873
 20
4.685266266687904
 30
2.060372822428949
 10
14.01764045407435
 20
4.685215556912226
 30
2.060328748055518
1001
ACAD_VIEW_EDGE_ID
1071
        6
1071
       -1
1071
        4
1071
        0
  0
SPLINE
  5
38E
330
70
100
AcDbEntity
  8
Visible
100
AcDbSpline
 70
     0
 71
     3
 72
     8
 73
     4
 74
     0
 42
0.000000001
 43
0.0000000001
 40
-0.0374514287932053
 40
-0.0374514287932053
 40
-0.0374514287932053
 40
-0.0374514287932053
 40
-0.0246413415507017
 40
-0.0246413415507017
 40
-0.0246413415507017
 40
-0.0246413415507017
 10
14.01764045407435
 20
3.701215556911847
 30
2.060328748055518
 10
14.01932872212455
 20
3.701164846739629
 30
2.060372822773587
 10
14.02101603933988
 20
3.701122863389173
 30
2.060409324182759
 10
14.02270217977457
 20
3.701089572659839
 30
2.0604382718117
1001
ACAD_VIEW_EDGE_ID
1071
       10
1071
       -1
1071
        4
1071
        0
  0
ARC
  5
38F
330
70
100
AcDbEntity
  8
Visible
100
AcDbCircle
 10
4.193216
 20
2.626399
 30
14.01764
 40
0.7500000197939927
210
1.0
220
0.0
230
0.0
100
AcDbArc
 50
310.995519
 51
311.008272
  0
LINE
  5
390
330
70
100
AcDbEntity
  8
Visible
100
AcDbLine
 10
12.476463
 20
3.70109
 30
2.060438
 11
14.01764
 21
3.70109
 31
2.060438
  0
LINE
  5
391
330
70
100
AcDbEntity
  8
Visible
100
AcDbLine
 10
14.01764
 20
4.685342
 30
2.060438
 11
12.476463
 21
4.685342
 31
2.060438
  0
ARC
  5
392
330
70
100
AcDbEntity
  8
Visible
100
AcDbCircle
 10
-4.193216
 20
2.626399
 30
-12.476463
 40
0.7500000000443633
210
-1.0
220
0.0
230
0.0
100
AcDbArc
 50
310.560537
 51
311.008272
  0
SPLINE
  5
393
330
70
100
AcDbEntity
  8
Visible
100
AcDbSpline
 70
     0
 71
     3
 72
    33
 73
    29
 74
     0
 42
0.000000001
 43
0.0000000001
 40
-3.859602958569758
 40
-3.859602958569758
 40
-3.859602958569758
 40
-3.859602958569758
 40
-3.655404845018438
 40
-3.655404845018438
 40
-3.410320121149673
 40
-3.410320121149673
 40
-2.920150673412146
 40
-2.920150673412146
 40
-2.434604562979211
 40
-2.434604562979211
 40
-2.191831507762745
 40
-2.191831507762745
 40
-1.949058452546278
 40
-1.949058452546278
 40
-1.706701949835309
 40
-1.706701949835309
 40
-1.46434544712434
 40
-1.46434544712434
 40
-0.9796324417024031
 40
-0.9796324417024031
 40
-0.4898162208512016
 40
-0.4898162208512016
 40
-0.2449081104256008
 40
-0.2449081104256008
 40
0.0
 40
0.0
 40
0.0
 40
0.0496138245347879
 40
0.0496138245347879
 40
0.0496138245347879
 40
0.0496138245347879
 10
12.44073485919034
 20
4.685341541164234
 30
2.060438271811701
 10
12.4138145622619
 20
4.684454949410792
 30
2.059667344612975
 10
12.38665776994276
 20
4.681318530496355
 30
2.056921480863604
 10
12.32785020758092
 20
4.669455376575569
 30
2.046945250765357
 10
12.29638249016898
 20
4.659729330276604
 30
2.038933842351679
 10
12.20663596972918
 20
4.621902830764156
 30
2.010176533649888
 10
12.1529405780384
 20
4.584721151588382
 30
1.98488363457225
 10
12.06804812046903
 20
4.499863344271943
 30
1.940292484957871
 10
12.03054714439895
 20
4.446055503947718
 30
1.917564012380188
 10
11.99248219139917
 20
4.355807255846229
 30
1.89357415674931
 10
11.9827173689664
 20
4.324150139702396
 30
1.88720553792921
 10
11.96979148576793
 20
4.259862982040431
 30
1.878663115493811
 10
11.96663571385579
 20
4.227231241979097
 30
1.876494093292314
 10
11.96663571385579
 20
4.163566208679185
 30
1.876311090735036
 10
11.96978087818206
 20
4.130975642394332
 30
1.87828568305551
 10
11.98267799825407
 20
4.066745540925694
 30
1.886430971122764
 10
11.99242479523491
 20
4.035104360553305
 30
1.892596860352499
 10
12.03043979018912
 20
3.944876592684522
 30
1.915984672696252
 10
12.06791662850264
 20
3.891045227046561
 30
1.938318362305655
 10
12.15283304752302
 20
3.80609452562021
 30
1.982235118631603
 10
12.20658123430803
 20
3.768865346586608
 30
2.00718946708705
 10
12.29638754060033
 20
3.73101016563487
 30
2.035540094292645
 10
12.32787101001304
 20
3.721281448244553
 30
2.043433904778684
 10
12.3920394960478
 20
3.708340373188548
 30
2.054152400231555
 10
12.4247313403066
 20
3.7051355941785
 30
2.056945334364505
 10
12.45687151227867
 20
3.7051355941785
 30
2.056945334364505
 10
12.46338251287307
 20
3.7051355941785
 30
2.056945334364505
 10
12.46991633897778
 20
3.705265383650839
 30
2.056834012978454
 10
12.47646316218743
 20
3.70552722829052
 30
2.056609897633291
1001
ACAD_VIEW_EDGE_ID
1071
       40
1071
       -1
1071
        4
1071
        0
  0
SPLINE
  5
394
330
70
100
AcDbEntity
  8
Visible
100
AcDbSpline
 70
     0
 71
     3
 72
     8
 73
     4
 74
     0
 42
0.000000001
 43
0.0000000001
 40
-3.950108553012857
 40
-3.950108553012857
 40
-3.950108553012857
 40
-3.950108553012857
 40
-3.941376179179597
 40
-3.941376179179597
 40
-3.941376179179597
 40
-3.941376179179597
 10
12.47646316218743
 20
4.685215556912226
 30
2.060328748055518
 10
12.47531111203534
 20
4.685261633940172
 30
2.060368795878326
 10
12.47415939656639
 20
4.685303626458335
 30
2.060405303449692
 10
12.47300816536699
 20
4.685341541164234
 30
2.060438271811701
1001
ACAD_VIEW_EDGE_ID
1071
       42
1071
       -1
1071
        4
1071
        0
  0
ARC
  5
395
330
70
100
AcDbEntity
  8
Visible
100
AcDbCircle
 10
-4.193216
 20
2.626399
 30
-12.476463
 40
0.7499999827457509
210
-1.0
220
0.0
230
0.0
100
AcDbArc
 50
228.991728
 51
229.004481
  0
SPLINE
  5
396
330
70
100
AcDbEntity
  8
Visible
100
AcDbSpline
 70
     0
 71
     3
 72
     8
 73
     4
 74
     0
 42
0.000000001
 43
0.0000000001
 40
3.880430092361101
 40
3.880430092361101
 40
3.880430092361101
 40
3.880430092361101
 40
3.893240179614821
 40
3.893240179614821
 40
3.893240179614821
 40
3.893240179614821
 10
14.04719666709207
 20
4.685215556912226
 30
2.060328748055518
 10
14.04550839904368
 20
4.685266267084443
 30
2.060372822773579
 10
14.04382108182653
 20
4.685308250433081
 30
2.060409324182756
 10
14.04213494139185
 20
4.685341541164234
 30
2.060438271811701
1001
ACAD_VIEW_EDGE_ID
1071
       47
1071
       -1
1071
        4
1071
        0
  0
SPLINE
  5
397
330
70
100
AcDbEntity
  8
Visible
100
AcDbSpline
 70
     0
 71
     3
 72
    30
 73
    26
 74
     0
 42
0.000000001
 43
0.0000000001
 40
0.0374514288149959
 40
0.0374514288149959
 40
0.0374514288149959
 40
0.0374514288149959
 40
0.246115239368135
 40
0.246115239368135
 40
0.49223047873627
 40
0.49223047873627
 40
0.9844609574725399
 40
0.9844609574725399
 40
1.471700859030294
 40
1.471700859030294
 40
1.715320809809171
 40
1.715320809809171
 40
1.958940760588048
 40
1.958940760588048
 40
2.202560711366925
 40
2.202560711366925
 40
2.446180662145803
 40
2.446180662145803
 40
2.933420563703557
 40
2.933420563703557
 40
3.425651042439827
 40
3.425651042439827
 40
3.671766281807962
 40
3.671766281807962
 40
3.880430092361101
 40
3.880430092361101
 40
3.880430092361101
 40
3.880430092361101
 10
14.04719666709207
 20
3.701215556911847
 30
2.060328748055518
 10
14.07469690479047
 20
3.702041576101692
 30
2.059610813943333
 10
14.10245562531781
 20
3.705205759295495
 30
2.056839717589096
 10
14.16198354746302
 20
3.717216225732045
 30
2.046747178767077
 10
14.19358446741171
 20
3.72698506060442
 30
2.03870727879641
 10
14.28371277593396
 20
3.764980142997956
 30
2.009855873839776
 10
14.33763953013295
 20
3.802329648990053
 30
1.984491024612431
 10
14.42287020294861
 20
3.887560321803903
 30
1.939838507173189
 10
14.46050940776513
 20
3.941586117673068
 30
1.917114897911897
 10
14.49870862751595
 20
4.032187108045036
 30
1.893224594885733
 10
14.50850677813469
 20
4.063966157671529
 30
1.886904144072181
 10
14.52147532138588
 20
4.128493977690595
 30
1.878489139554194
 10
14.52464045407396
 20
4.16124443476292
 30
1.876399415022108
 10
14.52464045407396
 20
4.225186679061152
 30
1.876399415022108
 10
14.52147532138588
 20
4.257937136133477
 30
1.878489139554194
 10
14.50850677813469
 20
4.322464956152543
 30
1.886904144072181
 10
14.49870862751595
 20
4.354244005779037
 30
1.893224594885733
 10
14.46050940776513
 20
4.444844996151005
 30
1.917114897911897
 10
14.42287020294861
 20
4.49887079202017
 30
1.939838507173189
 10
14.33763953013295
 20
4.58410146483402
 30
1.984491024612431
 10
14.28371277593396
 20
4.621450970824298
 30
2.009855873839776
 10
14.19358446741171
 20
4.659446053217834
 30
2.03870727879641
 10
14.16198354746302
 20
4.669214888092028
 30
2.046747178767077
 10
14.10245562531781
 20
4.681225354528578
 30
2.056839717589096
 10
14.07469690479047
 20
4.684389537720562
 30
2.059610813943333
 10
14.04719666709207
 20
4.685215556912226
 30
2.060328748055518
1001
ACAD_VIEW_EDGE_ID
1071
       48
1071
       -1
1071
        4
1071
        0
  0
SPLINE
  5
398
330
70
100
AcDbEntity
  8
Visible
100
AcDbSpline
 70
     0
 71
     3
 72
     8
 73
     4
 74
     0
 42
0.000000001
 43
0.0000000001
 40
0.024641341561366
 40
0.024641341561366
 40
0.024641341561366
 40
0.024641341561366
 40
0.0374514288149959
 40
0.0374514288149959
 40
0.0374514288149959
 40
0.0374514288149959
 10
14.04213494139185
 20
3.701089572659839
 30
2.0604382718117
 10
14.04382107246419
 20
3.701122863101772
 30
2.060409324432915
 10
14.04550840601951
 20
3.701164847136169
 30
2.060372822428949
 10
14.04719666709207
 20
3.701215556911847
 30
2.060328748055518
1001
ACAD_VIEW_EDGE_ID
1071
       49
1071
       -1
1071
        4
1071
        0
  0
LINE
  5
399
330
70
100
AcDbEntity
  8
Visible
100
AcDbLine
 10
14.042135
 20
4.685342
 30
2.060438
 11
14.022702
 21
4.685342
 31
2.060438
  0
LINE
  5
39A
330
70
100
AcDbEntity
  8
Visible
100
AcDbLine
 10
12.473008
 20
4.685342
 30
2.060438
 11
12.440735
 21
4.685342
 31
2.060438
  0
LINE
  5
39B
330
70
100
AcDbEntity
  8
Visible
100
AcDbLine
 10
14.022702
 20
3.70109
 30
2.060438
 11
14.042135
 21
3.70109
 31
2.060438
  0
SPLINE
  5
39C
330
70
100
AcDbEntity
  8
Visible
100
AcDbSpline
 70
     1
 71
     3
 72
    38
 73
    34
 74
     0
 42
0.000000001
 43
0.0000000001
 40
0.0
 40
0.0
 40
0.0
 40
0.0
 40
0.1054105814576183
 40
0.1054105814576183
 40
0.2108211629152366
 40
0.2108211629152366
 40
0.3162300660098014
 40
0.3162300660098014
 40
0.4216389691043662
 40
0.4216389691043662
 40
0.5270478721989309
 40
0.5270478721989309
 40
0.6324567752934957
 40
0.6324567752934957
 40
0.7378673567511141
 40
0.7378673567511141
 40
0.8432779382087323
 40
0.8432779382087323
 40
0.9486885196663505
 40
0.9486885196663505
 40
1.054099101123968
 40
1.054099101123968
 40
1.159508004218533
 40
1.159508004218533
 40
1.264916907313098
 40
1.264916907313098
 40
1.370325810407663
 40
1.370325810407663
 40
1.475734713502228
 40
1.475734713502228
 40
1.581145294959846
 40
1.581145294959846
 40
1.686555876417464
 40
1.686555876417464
 40
1.686555876417464
 40
1.686555876417464
 10
12.36164045407531
 20
4.083215556911454
 30
1.884509935382452
 10
12.34780704443437
 20
4.083215556911454
 30
1.884509935382452
 10
12.33306542196078
 20
4.085984258959797
 30
1.884083054936387
 10
12.30596973002503
 20
4.09721631442153
 30
1.88254709442872
 10
12.29361392595638
 20
4.105678593168704
 30
1.881460841093812
 10
12.27410364565548
 20
4.125188873469596
 30
1.879426479619339
 10
12.26564124507786
 20
4.137544744626211
 30
1.87834534698754
 10
12.25440910088946
 20
4.164640665474507
 30
1.876821131174443
 10
12.25164045407473
 20
4.179382367528887
 30
1.876399415022109
 10
12.25164045407473
 20
4.207048746293367
 30
1.876399415022109
 10
12.25440910088946
 20
4.221790448347746
 30
1.876821131174443
 10
12.26564124507786
 20
4.248886369197862
 30
1.87834534698754
 10
12.27410364565548
 20
4.261242240354476
 30
1.879426479619339
 10
12.29361392595638
 20
4.280752520655369
 30
1.881460841093812
 10
12.30596973002503
 20
4.289214799402543
 30
1.88254709442872
 10
12.33306542196078
 20
4.300446854864276
 30
1.884083054936387
 10
12.34780704443437
 20
4.303215556910799
 30
1.884509935382452
 10
12.37547386371443
 20
4.303215556910799
 30
1.884509935382452
 10
12.39021548618802
 20
4.300446854864276
 30
1.884083054936387
 10
12.41731117812378
 20
4.289214799402543
 30
1.88254709442872
 10
12.42966698219243
 20
4.280752520655369
 30
1.881460841093811
 10
12.44917726249332
 20
4.261242240354476
 30
1.879426479619339
 10
12.45763966307095
 20
4.248886369197862
 30
1.87834534698754
 10
12.46887180725934
 20
4.221790448347746
 30
1.876821131174443
 10
12.47164045407407
 20
4.207048746293367
 30
1.876399415022108
 10
12.47164045407407
 20
4.179382367528887
 30
1.876399415022108
 10
12.46887180725934
 20
4.164640665474507
 30
1.876821131174443
 10
12.45763966307095
 20
4.137544744626211
 30
1.87834534698754
 10
12.44917726249332
 20
4.125188873469596
 30
1.879426479619339
 10
12.42966698219243
 20
4.105678593168704
 30
1.881460841093811
 10
12.41731117812378
 20
4.09721631442153
 30
1.88254709442872
 10
12.39021548618802
 20
4.085984258959797
 30
1.884083054936387
 10
12.37547386371443
 20
4.083215556911454
 30
1.884509935382452
 10
12.36164045407531
 20
4.083215556911454
 30
1.884509935382452
1001
ACAD_VIEW_EDGE_ID
1071
       54
1071
       -1
1071
        4
1071
        0
  0
SPLINE
  5
39D
330
70
100
AcDbEntity
  8
Visible
100
AcDbSpline
 70
     1
 71
     3
 72
    38
 73
    34
 74
     0
 42
0.000000001
 43
0.0000000001
 40
0.0
 40
0.0
 40
0.0
 40
0.0
 40
0.105410581457618
 40
0.105410581457618
 40
0.2108211629152359
 40
0.2108211629152359
 40
0.3162300660098007
 40
0.3162300660098007
 40
0.4216389691043656
 40
0.4216389691043656
 40
0.5270478721989304
 40
0.5270478721989304
 40
0.6324567752934951
 40
0.6324567752934951
 40
0.7378673567511131
 40
0.7378673567511131
 40
0.8432779382087309
 40
0.8432779382087309
 40
0.9486885196663489
 40
0.9486885196663489
 40
1.054099101123966
 40
1.054099101123966
 40
1.159508004218531
 40
1.159508004218531
 40
1.264916907313096
 40
1.264916907313096
 40
1.370325810407661
 40
1.370325810407661
 40
1.475734713502226
 40
1.475734713502226
 40
1.581145294959844
 40
1.581145294959844
 40
1.686555876417462
 40
1.686555876417462
 40
1.686555876417462
 40
1.686555876417462
 10
14.13164045407393
 20
4.083215556911454
 30
1.884509935382452
 10
14.11780704443481
 20
4.083215556911454
 30
1.884509935382452
 10
14.10306542196122
 20
4.085984258959797
 30
1.884083054936387
 10
14.07596973002546
 20
4.09721631442153
 30
1.88254709442872
 10
14.06361392595681
 20
4.105678593168704
 30
1.881460841093811
 10
14.04410364565592
 20
4.125188873469596
 30
1.879426479619339
 10
14.03564124507829
 20
4.137544744626211
 30
1.87834534698754
 10
14.0244091008899
 20
4.164640665474507
 30
1.876821131174443
 10
14.02164045407517
 20
4.179382367528887
 30
1.876399415022108
 10
14.02164045407517
 20
4.207048746293367
 30
1.876399415022108
 10
14.0244091008899
 20
4.221790448347746
 30
1.876821131174443
 10
14.03564124507829
 20
4.248886369197862
 30
1.87834534698754
 10
14.04410364565592
 20
4.261242240354476
 30
1.879426479619339
 10
14.06361392595681
 20
4.280752520655369
 30
1.881460841093811
 10
14.07596973002546
 20
4.289214799402543
 30
1.88254709442872
 10
14.10306542196122
 20
4.300446854864276
 30
1.884083054936387
 10
14.11780704443481
 20
4.303215556910799
 30
1.884509935382452
 10
14.14547386371487
 20
4.303215556910799
 30
1.884509935382452
 10
14.16021548618846
 20
4.300446854864276
 30
1.884083054936387
 10
14.18731117812422
 20
4.289214799402543
 30
1.88254709442872
 10
14.19966698219286
 20
4.280752520655369
 30
1.881460841093811
 10
14.21917726249376
 20
4.261242240354476
 30
1.879426479619338
 10
14.22763966307138
 20
4.248886369197862
 30
1.87834534698754
 10
14.23887180725978
 20
4.221790448347746
 30
1.876821131174443
 10
14.24164045407451
 20
4.207048746293367
 30
1.876399415022108
 10
14.24164045407451
 20
4.179382367528887
 30
1.876399415022108
 10
14.23887180725978
 20
4.164640665474507
 30
1.876821131174443
 10
14.22763966307138
 20
4.137544744626211
 30
1.87834534698754
 10
14.21917726249376
 20
4.125188873469596
 30
1.879426479619338
 10
14.19966698219286
 20
4.105678593168704
 30
1.881460841093811
 10
14.18731117812422
 20
4.09721631442153
 30
1.88254709442872
 10
14.16021548618846
 20
4.085984258959797
 30
1.884083054936387
 10
14.14547386371487
 20
4.083215556911454
 30
1.884509935382452
 10
14.13164045407393
 20
4.083215556911454
 30
1.884509935382452
1001
ACAD_VIEW_EDGE_ID
1071
       55
1071
       -1
1071
        4
1071
        0
  0
LINE
  5
39E
330
70
100
AcDbEntity
  8
Visible
100
AcDbLine
 10
13.343953
 20
7.22034
 30
0.217474
 11
13.343953
 21
7.06286
 31
0.217474
  0
LINE
  5
39F
330
70
100
AcDbEntity
  8
Visible
100
AcDbLine
 10
13.163244
 20
7.06286
 30
0.217474
 11
13.163244
 21
7.22034
 31
0.217474
  0
ARC
  5
3A0
330
70
100
AcDbEntity
  8
Visible
100
AcDbCircle
 10
-13.253599
 20
-0.762622
 30
7.22034
 40
0.9842519685039208
210
0.0
220
1.0
230
0.0
100
AcDbArc
 50
84.732832
 51
95.267168
  0
ARC
  5
3A1
330
70
100
AcDbEntity
  8
Visible
100
AcDbCircle
 10
-13.253599
 20
-0.762622
 30
7.06286
 40
0.9842519685039372
210
0.0
220
1.0
230
0.0000000000000003
100
AcDbArc
 50
95.267168
 51
180.0
  0
ARC
  5
3A2
330
70
100
AcDbEntity
  8
Visible
100
AcDbCircle
 10
-13.253599
 20
-0.762622
 30
7.06286
 40
0.9842519685039363
210
0.0
220
1.0
230
0.0000000000000003
100
AcDbArc
 50
360.0
 51
84.732832
  0
ARC
  5
3A3
330
70
100
AcDbEntity
  8
Visible
100
AcDbCircle
 10
-13.253599
 20
-0.762622
 30
7.299081
 40
0.9842519685039368
210
0.0
220
1.0
230
-0.0000000000000002
100
AcDbArc
 50
0.0
 51
180.0
  0
LINE
  5
3A4
330
70
100
AcDbEntity
  8
Visible
100
AcDbLine
 10
12.269347
 20
7.06286
 30
-0.762622
 11
12.269347
 21
7.299081
 31
-0.762622
  0
LINE
  5
3A5
330
70
100
AcDbEntity
  8
Visible
100
AcDbLine
 10
14.237851
 20
7.06286
 30
-0.762622
 11
14.237851
 21
7.299081
 31
-0.762622
  0
ARC
  5
3A6
330
70
100
AcDbEntity
  8
Visible
100
AcDbCircle
 10
13.253599
 20
-0.762622
 30
-6.464435
 40
0.2559055118110236
210
0.0000000000000003
220
-1.0
230
0.0000000000000003
100
AcDbArc
 50
0.0
 51
180.0
  0
ARC
  5
3A7
330
70
100
AcDbEntity
  8
Visible
100
AcDbCircle
 10
13.253599
 20
-0.762622
 30
-6.976246
 40
0.9448818897637796
210
0.0
220
-1.0
230
0.0000000000000003
100
AcDbArc
 50
360.0
 51
180.0
  0
ARC
  5
3A8
330
70
100
AcDbEntity
  8
Visible
100
AcDbCircle
 10
13.253599
 20
-0.762622
 30
-7.06286
 40
0.9448818897637835
210
0.0
220
-1.0
230
0.0
100
AcDbArc
 50
84.512707
 51
95.487293
  0
LINE
  5
3A9
330
70
100
AcDbEntity
  8
Visible
100
AcDbLine
 10
13.509504
 20
6.976246
 30
-0.762622
 11
13.509504
 21
6.464435
 31
-0.762622
  0
LINE
  5
3AA
330
70
100
AcDbEntity
  8
Visible
100
AcDbLine
 10
12.997693
 20
6.976246
 30
-0.762622
 11
12.997693
 21
6.464435
 31
-0.762622
  0
LINE
  5
3AB
330
70
100
AcDbEntity
  8
Visible
100
AcDbLine
 10
14.198481
 20
7.06286
 30
-0.762622
 11
14.198481
 21
6.976246
 31
-0.762622
  0
LINE
  5
3AC
330
70
100
AcDbEntity
  8
Visible
100
AcDbLine
 10
12.308717
 20
7.06286
 30
-0.762622
 11
12.308717
 21
6.976246
 31
-0.762622
  0
SPLINE
  5
3AD
330
70
100
AcDbEntity
  8
Visible
100
AcDbSpline
 70
     0
 71
     3
 72
    12
 73
     8
 74
     0
 42
0.000000001
 43
0.0000000001
 40
-19.10695690625512
 40
-19.10695690625512
 40
-19.10695690625512
 40
-19.10695690625512
 40
-18.98548763271728
 40
-18.98548763271728
 40
-18.83096702423764
 40
-18.83096702423764
 40
-18.68887681948527
 40
-18.68887681948527
 40
-18.68887681948527
 40
-18.68887681948527
 10
13.14808665984128
 20
6.456255152195808
 30
-0.6467787226033656
 10
13.15991922793728
 20
6.45702899832213
 30
-0.6360995592554248
 10
13.17332706989327
 20
6.457817354774306
 30
-0.6272584276995622
 10
13.20635546033009
 20
6.459671049522512
 30
-0.6120868446668984
 10
13.22632099018665
 20
6.460706824422231
 30
-0.6072562227856836
 10
13.26535051695282
 20
6.46258081950873
 30
-0.6055332872203067
 10
13.2840303491248
 20
6.46348983561802
 30
-0.6080481020117134
 10
13.30181768476541
 20
6.464435754998703
 30
-0.6137691786520967
1001
ACAD_VIEW_EDGE_ID
1071
       23
1071
       -1
1071
        7
1071
        0
  0
SPLINE
  5
3AE
330
70
100
AcDbEntity
  8
Visible
100
AcDbSpline
 70
     0
 71
     3
 72
    14
 73
    10
 74
     0
 42
0.000000001
 43
0.0000000001
 40
-41.54957991828761
 40
-41.54957991828761
 40
-41.54957991828761
 40
-41.54957991828761
 40
-41.47833982887194
 40
-41.47833982887194
 40
-41.32452675136618
 40
-41.32452675136618
 40
-41.16621546118397
 40
-41.16621546118397
 40
-41.13016367148884
 40
-41.13016367148884
 40
-41.13016367148884
 40
-41.13016367148884
 10
13.18168771348428
 20
6.464434945519315
 30
-0.6235827905788686
 10
13.17341013387886
 20
6.463961654832019
 30
-0.6278314287999388
 10
13.16550539012314
 20
6.46349158069097
 30
-0.6328154852769882
 10
13.14202491883225
 20
6.462034504740586
 30
-0.6507309016514517
 10
13.1284808311193
 20
6.461102743542141
 30
-0.6659461572391411
 10
13.10757316436684
 20
6.459033499731958
 30
-0.7011698912259884
 10
13.1006079204617
 20
6.45796434100157
 30
-0.7209592271127136
 10
13.09701908695933
 20
6.456703420164558
 30
-0.7462139577976438
 10
13.09656595649721
 20
6.456473280215504
 30
-0.7509181218083607
 10
13.09632465507639
 20
6.456244862174571
 30
-0.755627771033029
1001
ACAD_VIEW_EDGE_ID
1071
       25
1071
       -1
1071
        7
1071
        0
  0
SPLINE
  5
3AF
330
70
100
AcDbEntity
  8
Visible
100
AcDbSpline
 70
     0
 71
     3
 72
     8
 73
     4
 74
     0
 42
0.000000001
 43
0.0000000001
 40
0.046839977908084
 40
0.046839977908084
 40
0.046839977908084
 40
0.046839977908084
 40
0.0882878824577806
 40
0.0882878824577806
 40
0.0882878824577806
 40
0.0882878824577806
 10
13.39456890855945
 20
6.464434945231914
 30
-0.7504405968167506
 10
13.38986348243452
 20
6.461706301206504
 30
-0.7504315930574692
 10
13.38515857986385
 20
6.458976756153788
 30
-0.7504220925402997
 10
13.38045439959205
 20
6.456245968853181
 30
-0.7504121081276224
1001
ACAD_VIEW_EDGE_ID
1071
   -26679
1071
       -1
1071
        7
1071
        0
  0
SPLINE
  5
3B0
330
70
100
AcDbEntity
  8
Visible
100
AcDbSpline
 70
     0
 71
     3
 72
     8
 73
     4
 74
     0
 42
0.000000001
 43
0.0000000001
 40
0.0
 40
0.0
 40
0.0
 40
0.0
 40
0.0402127228402164
 40
0.0402127228402164
 40
0.0402127228402164
 40
0.0402127228402164
 10
13.0966739511714
 20
6.456496029579284
 30
-0.7504692823405487
 10
13.10124014084795
 20
6.459141653886035
 30
-0.7504615847888282
 10
13.10580597382977
 20
6.461787893425935
 30
-0.7504534618056754
 10
13.11037133494756
 20
6.464434945231914
 30
-0.7504448781743408
1001
ACAD_VIEW_EDGE_ID
1071
   -30743
1071
       -1
1071
        7
1071
        0
  0
ENDSEC
  0
SECTION
  2
OBJECTS
  0
DICTIONARY
  5
C
330
0
100
AcDbDictionary
281
     1
  3
ACAD_COLOR
350
63
  3
ACAD_DETAILVIEWSTYLE
350
6A
  3
ACAD_GROUP
350
D
  3
ACAD_IMAGE_DICT
350
158
  3
ACAD_IMAGE_VARS
350
15A
  3
ACAD_LAYOUT
350
62
  3
ACAD_MATERIAL
350
10
  3
ACAD_MLEADERSTYLE
350
66
  3
ACAD_MLINESTYLE
350
5F
  3
ACAD_PLOTSETTINGS
350
61
  3
ACAD_PLOTSTYLENAME
350
E
  3
ACAD_SCALELIST
350
42
  3
ACAD_SECTIONVIEWSTYLE
350
68
  3
ACAD_TABLESTYLE
350
64
  3
ACAD_VISUALSTYLE
350
29
  3
ACDB_RECOMPOSE_DATA
350
402
  3
AcDbVariableDictionary
350
3F7
  0
DICTIONARY
  5
B4
330
70
100
AcDbDictionary
280
     1
281
     1
  3
ACAD_SORTENTS
360
14E
  0
DICTIONARY
  5
152
330
151
100
AcDbDictionary
280
     1
281
     1
  3
ACAD_SORTENTS
360
32A
  0
IMAGEDEF_REACTOR
  5
159
330
156
100
AcDbRasterImageDefReactor
 90
        2
330
156
  0
DICTIONARY
  5
400
330
1FB
100
AcDbDictionary
280
     1
281
     1
  3
ACAD_MTEXT_2008_RT
360
401
  0
DICTIONARY
  5
63
102
{ACAD_REACTORS
330
C
102
}
330
C
100
AcDbDictionary
281
     1
  0
DICTIONARY
  5
6A
102
{ACAD_REACTORS
330
C
102
}
330
C
100
AcDbDictionary
281
     1
  3
Imperial24
350
6B
  0
DICTIONARY
  5
D
102
{ACAD_REACTORS
330
C
102
}
330
C
100
AcDbDictionary
281
     1
  0
DICTIONARY
  5
158
102
{ACAD_REACTORS
330
C
102
}
330
C
100
AcDbDictionary
281
     1
  3
morse_logo-16 (1)_01-2018(B)_1_1
350
157
  0
RASTERVARIABLES
  5
15A
102
{ACAD_REACTORS
330
C
102
}
330
C
100
AcDbRasterVariables
 90
        0
 70
     0
 71
     1
 72
     5
  0
DICTIONARY
  5
62
102
{ACAD_REACTORS
330
C
102
}
330
C
100
AcDbDictionary
281
     1
  3
Model
350
73
  3
Sheet1
350
6F
  3
Sheet2
350
77
  0
DICTIONARY
  5
10
102
{ACAD_REACTORS
330
C
102
}
330
C
100
AcDbDictionary
281
     1
  3
ByBlock
350
19
  3
ByLayer
350
11
  3
Global
350
21
  0
DICTIONARY
  5
66
102
{ACAD_REACTORS
330
C
102
}
330
C
100
AcDbDictionary
281
     1
  3
Standard
350
67
  0
DICTIONARY
  5
5F
102
{ACAD_REACTORS
330
C
102
}
330
C
100
AcDbDictionary
281
     1
  3
Standard
350
60
  0
DICTIONARY
  5
61
102
{ACAD_REACTORS
330
C
102
}
330
C
100
AcDbDictionary
281
     1
  0
ACDBDICTIONARYWDFLT
  5
E
102
{ACAD_REACTORS
330
C
102
}
330
C
100
AcDbDictionary
281
     1
  3
Normal
350
F
100
AcDbDictionaryWithDefault
340
F
  0
DICTIONARY
  5
42
102
{ACAD_REACTORS
330
C
102
}
330
C
100
AcDbDictionary
281
     1
  3
*A1
350
A4
  3
*A10
350
AD
  3
*A11
350
AE
  3
*A12
350
AF
  3
*A13
350
B0
  3
*A14
350
B1
  3
*A15
350
B2
  3
*A16
350
B3
  3
*A2
350
A5
  3
*A3
350
A6
  3
*A4
350
A7
  3
*A5
350
A8
  3
*A6
350
A9
  3
*A7
350
AA
  3
*A8
350
AB
  3
*A9
350
AC
  3
A0
350
43
  3
A1
350
44
  3
A2
350
45
  3
A3
350
46
  3
A4
350
47
  3
A5
350
48
  3
A6
350
49
  3
A7
350
4A
  3
A8
350
4B
  3
A9
350
4C
  3
B0
350
4D
  3
B1
350
4E
  3
B2
350
4F
  3
B3
350
50
  3
B4
350
51
  3
B5
350
52
  3
B6
350
53
  0
DICTIONARY
  5
68
102
{ACAD_REACTORS
330
C
102
}
330
C
100
AcDbDictionary
281
     1
  3
Imperial24
350
69
  0
DICTIONARY
  5
64
102
{ACAD_REACTORS
330
C
102
}
330
C
100
AcDbDictionary
281
     1
  3
Standard
350
65
  0
DICTIONARY
  5
29
102
{ACAD_REACTORS
330
C
102
}
330
C
100
AcDbDictionary
281
     1
  3
2dWireframe
350
2F
  3
Basic
350
2E
  3
Brighten
350
35
  3
ColorChange
350
39
  3
Conceptual
350
32
  3
Dim
350
34
  3
EdgeColorOff
350
41
  3
Facepattern
350
38
  3
Flat
350
2A
  3
FlatWithEdges
350
2B
  3
Gouraud
350
2C
  3
GouraudWithEdges
350
2D
  3
Hidden
350
31
  3
JitterOff
350
3F
  3
Linepattern
350
37
  3
OverhangOff
350
40
  3
Realistic
350
33
  3
Shaded
350
3E
  3
Shaded with edges
350
3D
  3
Shades of Gray
350
3A
  3
Sketchy
350
3B
  3
Thicken
350
36
  3
Wireframe
350
30
  3
X-Ray
350
3C
  0
XRECORD
  5
402
102
{ACAD_REACTORS
330
C
102
}
330
C
100
AcDbXrecord
280
     1
 90
        1
330
65
330
15E
330
168
330
169
330
16A
330
16D
330
1FB
  0
DICTIONARY
  5
3F7
102
{ACAD_REACTORS
330
C
102
}
330
C
100
AcDbDictionary
281
     1
  3
ANNOALLVISIBLE
350
3FC
  3
CANNOSCALE
350
3FD
  3
CMLEADERSTYLE
350
3F9
  3
CTABLESTYLE
350
3F8
  3
CVIEWDETAILSTYLE
350
3FA
  3
CVIEWSECTIONSTYLE
350
3FB
  0
SORTENTSTABLE
  5
14E
102
{ACAD_REACTORS
330
B4
102
}
330
B4
100
AcDbSortentsTable
330
70
  0
SORTENTSTABLE
  5
32A
102
{ACAD_REACTORS
330
152
102
}
330
152
100
AcDbSortentsTable
330
151
  0
XRECORD
  5
401
102
{ACAD_REACTORS
330
400
102
}
330
400
100
AcDbXrecord
280
     1
 40
111314.0
  1
\pxi-3,l3,t3;** riser is adjustable 1.18" - 3.15"
  0
ACDBDETAILVIEWSTYLE
  5
6B
102
{ACAD_XDICTIONARY
360
405
102
}
102
{ACAD_REACTORS
330
6A
102
}
330
6A
100
AcDbModelDocViewStyle
 70
     0
  3
Imperial24
290
     0
100
AcDbDetailViewStyle
 70
     0
 71
     0
 90
        3
 71
     1
340
55
 62
   256
 40
0.24
340
0
 62
   256
 40
0.24
300

 40
0.36
280
     3
 71
     2
340
5D
 90
       25
 62
   256
 71
     3
340
55
 62
   256
 40
0.24
 90
        1
 40
0.75
 90
        1
300
%<\AcVar ViewType \f "%tc1">% %<\AcVar ViewDetailId>%\PSCALE %<\AcVar ViewScale \f "%sn">%
 71
     4
340
5D
 90
       25
 62
   256
340
5D
 90
       25
 62
   256
280
     0
  0
IMAGEDEF
  5
157
102
{ACAD_REACTORS
330
158
330
159
330
3B1
102
}
330
158
100
AcDbRasterImageDef
 90
        0
  1
morse_logo-16 (1)_01-2018(B)_1_1.jpg
 10
948.0
 20
333.0
 11
0.264583
 21
0.264583
280
     1
281
     5
  0
LAYOUT
  5
73
102
{ACAD_REACTORS
330
62
102
}
330
62
100
AcDbPlotSettings
  1

  2
AutoCAD PDF (High Quality Print).pc3
  4
ANSI_full_bleed_B_(17.00_x_11.00_Inches)
  6

 40
0.0
 41
0.0
 42
0.0
 43
0.0
 44
431.799988
 45
279.399994
 46
0.0
 47
0.0
 48
0.0
 49
0.0
140
0.0
141
0.0
142
1.0
143
1.729832
 70
 11952
 72
     0
 73
     0
 74
     0
  7

 75
     0
147
0.578091
 76
     0
 77
     2
 78
   300
148
119.47425
149
110.455583
100
AcDbLayout
  1
Model
 70
     1
 71
     0
 10
0.0
 20
0.0
 11
12.0
 21
9.0
 12
0.0
 22
0.0
 32
0.0
 14
0.0
 24
0.0
 34
0.0
 15
0.0
 25
0.0
 35
0.0
146
0.0
 13
0.0
 23
0.0
 33
0.0
 16
1.0
 26
0.0
 36
0.0
 17
0.0
 27
1.0
 37
0.0
 76
     0
330
70
1001
ACAD_PSEXT
1000
AutoCAD PDF (High Quality Print).pc3
1000
DWG To PDF
1000
File
1000

1070
     0
  0
LAYOUT
  5
6F
102
{ACAD_REACTORS
330
62
102
}
330
62
100
AcDbPlotSettings
  1

  2
None
  4

  6

 40
0.0
 41
0.0
 42
0.0
 43
0.0
 44
0.0
 45
0.0
 46
0.0
 47
0.0
 48
0.0
 49
0.0
140
0.0
141
0.0
142
1.0
143
1.0
 70
   688
 72
     0
 73
     0
 74
     5
  7

 75
    16
147
1.0
 76
     0
 77
     2
 78
   300
148
0.0
149
0.0
100
AcDbLayout
  1
Sheet1
 70
     1
 71
     1
 10
0.0
 20
0.0
 11
12.0
 21
9.0
 12
0.0
 22
0.0
 32
0.0
 14
0.0
 24
0.0
 34
0.0
 15
0.0
 25
0.0
 35
0.0
146
0.0
 13
0.0
 23
0.0
 33
0.0
 16
1.0
 26
0.0
 36
0.0
 17
0.0
 27
1.0
 37
0.0
 76
     0
330
6C
  0
LAYOUT
  5
77
102
{ACAD_REACTORS
330
62
102
}
330
62
100
AcDbPlotSettings
  1

  2
None
  4

  6

 40
0.0
 41
0.0
 42
0.0
 43
0.0
 44
0.0
 45
0.0
 46
0.0
 47
0.0
 48
0.0
 49
0.0
140
0.0
141
0.0
142
1.0
143
1.0
 70
   688
 72
     0
 73
     0
 74
     5
  7

 75
    16
147
1.0
 76
     0
 77
     2
 78
   300
148
0.0
149
0.0
100
AcDbLayout
  1
Sheet2
 70
     1
 71
     2
 10
0.0
 20
0.0
 11
12.0
 21
9.0
 12
0.0
 22
0.0
 32
0.0
 14
0.0
 24
0.0
 34
0.0
 15
0.0
 25
0.0
 35
0.0
146
0.0
 13
0.0
 23
0.0
 33
0.0
 16
1.0
 26
0.0
 36
0.0
 17
0.0
 27
1.0
 37
0.0
 76
     0
330
74
  0
MATERIAL
  5
19
102
{ACAD_XDICTIONARY
360
1A
102
}
102
{ACAD_REACTORS
330
10
102
}
330
10
100
AcDbMaterial
  1
ByBlock
 72
     0
 43
0.020833
 43
0.0
 43
0.0
 43
0.0
 43
0.0
 43
0.020833
 43
0.0
 43
0.0
 43
0.0
 43
0.0
 43
1.0
 43
0.0
 43
0.0
 43
0.0
 43
0.0
 43
1.0
 77
     0
 47
0.020833
 47
0.0
 47
0.0
 47
0.0
 47
0.0
 47
0.020833
 47
0.0
 47
0.0
 47
0.0
 47
0.0
 47
1.0
 47
0.0
 47
0.0
 47
0.0
 47
0.0
 47
1.0
171
     0
 49
0.020833
 49
0.0
 49
0.0
 49
0.0
 49
0.0
 49
0.020833
 49
0.0
 49
0.0
 49
0.0
 49
0.0
 49
1.0
 49
0.0
 49
0.0
 49
0.0
 49
0.0
 49
1.0
175
     0
142
0.020833
142
0.0
142
0.0
142
0.0
142
0.0
142
0.020833
142
0.0
142
0.0
142
0.0
142
0.0
142
1.0
142
0.0
142
0.0
142
0.0
142
0.0
142
1.0
179
     0
144
0.020833
144
0.0
144
0.0
144
0.0
144
0.0
144
0.020833
144
0.0
144
0.0
144
0.0
144
0.0
144
1.0
144
0.0
144
0.0
144
0.0
144
0.0
144
1.0
147
0.020833
147
0.0
147
0.0
147
0.0
147
0.0
147
0.020833
147
0.0
147
0.0
147
0.0
147
0.0
147
1.0
147
0.0
147
0.0
147
0.0
147
0.0
147
1.0
  0
MATERIAL
  5
11
102
{ACAD_XDICTIONARY
360
12
102
}
102
{ACAD_REACTORS
330
10
102
}
330
10
100
AcDbMaterial
  1
ByLayer
 72
     0
 43
0.020833
 43
0.0
 43
0.0
 43
0.0
 43
0.0
 43
0.020833
 43
0.0
 43
0.0
 43
0.0
 43
0.0
 43
1.0
 43
0.0
 43
0.0
 43
0.0
 43
0.0
 43
1.0
 77
     0
 47
0.020833
 47
0.0
 47
0.0
 47
0.0
 47
0.0
 47
0.020833
 47
0.0
 47
0.0
 47
0.0
 47
0.0
 47
1.0
 47
0.0
 47
0.0
 47
0.0
 47
0.0
 47
1.0
171
     0
 49
0.020833
 49
0.0
 49
0.0
 49
0.0
 49
0.0
 49
0.020833
 49
0.0
 49
0.0
 49
0.0
 49
0.0
 49
1.0
 49
0.0
 49
0.0
 49
0.0
 49
0.0
 49
1.0
175
     0
142
0.020833
142
0.0
142
0.0
142
0.0
142
0.0
142
0.020833
142
0.0
142
0.0
142
0.0
142
0.0
142
1.0
142
0.0
142
0.0
142
0.0
142
0.0
142
1.0
179
     0
144
0.020833
144
0.0
144
0.0
144
0.0
144
0.0
144
0.020833
144
0.0
144
0.0
144
0.0
144
0.0
144
1.0
144
0.0
144
0.0
144
0.0
144
0.0
144
1.0
147
0.020833
147
0.0
147
0.0
147
0.0
147
0.0
147
0.020833
147
0.0
147
0.0
147
0.0
147
0.0
147
1.0
147
0.0
147
0.0
147
0.0
147
0.0
147
1.0
  0
MATERIAL
  5
21
102
{ACAD_XDICTIONARY
360
22
102
}
102
{ACAD_REACTORS
330
10
102
}
330
10
100
AcDbMaterial
  1
Global
 72
     0
 43
0.020833
 43
0.0
 43
0.0
 43
0.0
 43
0.0
 43
0.020833
 43
0.0
 43
0.0
 43
0.0
 43
0.0
 43
1.0
 43
0.0
 43
0.0
 43
0.0
 43
0.0
 43
1.0
 77
     0
 47
0.020833
 47
0.0
 47
0.0
 47
0.0
 47
0.0
 47
0.020833
 47
0.0
 47
0.0
 47
0.0
 47
0.0
 47
1.0
 47
0.0
 47
0.0
 47
0.0
 47
0.0
 47
1.0
171
     0
 49
0.020833
 49
0.0
 49
0.0
 49
0.0
 49
0.0
 49
0.020833
 49
0.0
 49
0.0
 49
0.0
 49
0.0
 49
1.0
 49
0.0
 49
0.0
 49
0.0
 49
0.0
 49
1.0
175
     0
142
0.020833
142
0.0
142
0.0
142
0.0
142
0.0
142
0.020833
142
0.0
142
0.0
142
0.0
142
0.0
142
1.0
142
0.0
142
0.0
142
0.0
142
0.0
142
1.0
179
     0
144
0.020833
144
0.0
144
0.0
144
0.0
144
0.0
144
0.020833
144
0.0
144
0.0
144
0.0
144
0.0
144
1.0
144
0.0
144
0.0
144
0.0
144
0.0
144
1.0
147
0.020833
147
0.0
147
0.0
147
0.0
147
0.0
147
0.020833
147
0.0
147
0.0
147
0.0
147
0.0
147
1.0
147
0.0
147
0.0
147
0.0
147
0.0
147
1.0
  0
MLEADERSTYLE
  5
67
102
{ACAD_REACTORS
330
66
102
}
330
66
100
AcDbMLeaderStyle
179
     2
170
     2
171
     1
172
     0
 90
        2
 40
0.0
 41
0.0
173
     1
 91
-1056964608
340
5B
 92
       -2
290
     1
 42
0.09
291
     1
 43
0.36
  3
Standard
 44
0.18
300

342
55
174
     1
178
     6
175
     1
176
     0
 93
-1056964608
 45
0.18
292
     0
297
     0
 46
0.18
 94
-1056964608
 47
1.0
 49
1.0
140
1.0
293
     1
141
0.0
294
     1
177
     0
142
1.0
295
     0
296
     0
143
0.125
271
     0
272
     9
273
     9
298
     1
  0
MLINESTYLE
  5
60
102
{ACAD_REACTORS
330
5F
102
}
330
5F
100
AcDbMlineStyle
  2
STANDARD
 70
     0
  3

 62
   256
 51
90.0
 52
90.0
 71
     0
  0
ACDBPLACEHOLDER
  5
F
102
{ACAD_REACTORS
330
E
102
}
330
E
  0
SCALE
  5
A4
102
{ACAD_REACTORS
330
42
102
}
330
42
100
AcDbScale
 70
     0
300
1:2
140
1.0
141
2.0
290
     0
  0
SCALE
  5
AD
102
{ACAD_REACTORS
330
42
102
}
330
42
100
AcDbScale
 70
     0
300
1:50
140
1.0
141
50.0
290
     0
  0
SCALE
  5
AE
102
{ACAD_REACTORS
330
42
102
}
330
42
100
AcDbScale
 70
     0
300
1:100
140
1.0
141
100.0
290
     0
  0
SCALE
  5
AF
102
{ACAD_REACTORS
330
42
102
}
330
42
100
AcDbScale
 70
     0
300
2:1
140
2.0
141
1.0
290
     0
  0
SCALE
  5
B0
102
{ACAD_REACTORS
330
42
102
}
330
42
100
AcDbScale
 70
     0
300
4:1
140
4.0
141
1.0
290
     0
  0
SCALE
  5
B1
102
{ACAD_REACTORS
330
42
102
}
330
42
100
AcDbScale
 70
     0
300
8:1
140
8.0
141
1.0
290
     0
  0
SCALE
  5
B2
102
{ACAD_REACTORS
330
42
102
}
330
42
100
AcDbScale
 70
     0
300
10:1
140
10.0
141
1.0
290
     0
  0
SCALE
  5
B3
102
{ACAD_REACTORS
330
42
102
}
330
42
100
AcDbScale
 70
     0
300
100:1
140
100.0
141
1.0
290
     0
  0
SCALE
  5
A5
102
{ACAD_REACTORS
330
42
102
}
330
42
100
AcDbScale
 70
     0
300
1:4
140
1.0
141
4.0
290
     0
  0
SCALE
  5
A6
102
{ACAD_REACTORS
330
42
102
}
330
42
100
AcDbScale
 70
     0
300
1:5
140
1.0
141
5.0
290
     0
  0
SCALE
  5
A7
102
{ACAD_REACTORS
330
42
102
}
330
42
100
AcDbScale
 70
     0
300
1:8
140
1.0
141
8.0
290
     0
  0
SCALE
  5
A8
102
{ACAD_REACTORS
330
42
102
}
330
42
100
AcDbScale
 70
     0
300
1:10
140
1.0
141
10.0
290
     0
  0
SCALE
  5
A9
102
{ACAD_REACTORS
330
42
102
}
330
42
100
AcDbScale
 70
     0
300
1:16
140
1.0
141
16.0
290
     0
  0
SCALE
  5
AA
102
{ACAD_REACTORS
330
42
102
}
330
42
100
AcDbScale
 70
     0
300
1:20
140
1.0
141
20.0
290
     0
  0
SCALE
  5
AB
102
{ACAD_REACTORS
330
42
102
}
330
42
100
AcDbScale
 70
     0
300
1:30
140
1.0
141
30.0
290
     0
  0
SCALE
  5
AC
102
{ACAD_REACTORS
330
42
102
}
330
42
100
AcDbScale
 70
     0
300
1:40
140
1.0
141
40.0
290
     0
  0
SCALE
  5
43
102
{ACAD_REACTORS
330
42
102
}
330
42
100
AcDbScale
 70
     0
300
1:1
140
1.0
141
1.0
290
     1
  0
SCALE
  5
44
102
{ACAD_REACTORS
330
42
102
}
330
42
100
AcDbScale
 70
     0
300
1/128" = 1'-0"
140
0.007813
141
12.0
290
     0
  0
SCALE
  5
45
102
{ACAD_REACTORS
330
42
102
}
330
42
100
AcDbScale
 70
     0
300
1/64" = 1'-0"
140
0.015625
141
12.0
290
     0
  0
SCALE
  5
46
102
{ACAD_REACTORS
330
42
102
}
330
42
100
AcDbScale
 70
     0
300
1/32" = 1'-0"
140
0.03125
141
12.0
290
     0
  0
SCALE
  5
47
102
{ACAD_REACTORS
330
42
102
}
330
42
100
AcDbScale
 70
     0
300
1/16" = 1'-0"
140
0.0625
141
12.0
290
     0
  0
SCALE
  5
48
102
{ACAD_REACTORS
330
42
102
}
330
42
100
AcDbScale
 70
     0
300
3/32" = 1'-0"
140
0.09375
141
12.0
290
     0
  0
SCALE
  5
49
102
{ACAD_REACTORS
330
42
102
}
330
42
100
AcDbScale
 70
     0
300
1/8" = 1'-0"
140
0.125
141
12.0
290
     0
  0
SCALE
  5
4A
102
{ACAD_REACTORS
330
42
102
}
330
42
100
AcDbScale
 70
     0
300
3/16" = 1'-0"
140
0.1875
141
12.0
290
     0
  0
SCALE
  5
4B
102
{ACAD_REACTORS
330
42
102
}
330
42
100
AcDbScale
 70
     0
300
1/4" = 1'-0"
140
0.25
141
12.0
290
     0
  0
SCALE
  5
4C
102
{ACAD_REACTORS
330
42
102
}
330
42
100
AcDbScale
 70
     0
300
3/8" = 1'-0"
140
0.375
141
12.0
290
     0
  0
SCALE
  5
4D
102
{ACAD_REACTORS
330
42
102
}
330
42
100
AcDbScale
 70
     0
300
1/2" = 1'-0"
140
0.5
141
12.0
290
     0
  0
SCALE
  5
4E
102
{ACAD_REACTORS
330
42
102
}
330
42
100
AcDbScale
 70
     0
300
3/4" = 1'-0"
140
0.75
141
12.0
290
     0
  0
SCALE
  5
4F
102
{ACAD_REACTORS
330
42
102
}
330
42
100
AcDbScale
 70
     0
300
1" = 1'-0"
140
1.0
141
12.0
290
     0
  0
SCALE
  5
50
102
{ACAD_REACTORS
330
42
102
}
330
42
100
AcDbScale
 70
     0
300
1-1/2" = 1'-0"
140
1.5
141
12.0
290
     0
  0
SCALE
  5
51
102
{ACAD_REACTORS
330
42
102
}
330
42
100
AcDbScale
 70
     0
300
3" = 1'-0"
140
3.0
141
12.0
290
     0
  0
SCALE
  5
52
102
{ACAD_REACTORS
330
42
102
}
330
42
100
AcDbScale
 70
     0
300
6" = 1'-0"
140
6.0
141
12.0
290
     0
  0
SCALE
  5
53
102
{ACAD_REACTORS
330
42
102
}
330
42
100
AcDbScale
 70
     0
300
1'-0" = 1'-0"
140
12.0
141
12.0
290
     0
  0
ACDBSECTIONVIEWSTYLE
  5
69
102
{ACAD_XDICTIONARY
360
403
102
}
102
{ACAD_REACTORS
330
68
102
}
330
68
100
AcDbModelDocViewStyle
 70
     0
  3
Imperial24
290
     0
100
AcDbSectionViewStyle
 70
     0
 71
     0
 90
       78
 71
     1
340
55
 62
   256
 40
0.24
340
0
340
0
 62
   256
 40
0.24
300
I, O, Q, S, X, Z
 40
0.48
 90
        3
 40
0.18
 90
        1
 71
     2
340
5D
 90
       25
 62
   256
340
5D
 90
       50
 62
   256
 40
0.24
 40
0.0
 40
0.24
 71
     3
340
55
 62
   256
 40
0.24
 90
        1
 40
0.75
 90
        1
300
%<\AcVar ViewType \f "%tc1">% %<\AcVar ViewSectionStartId>%-%<\AcVar ViewSectionEndId>%\PSCALE %<\AcVar ViewScale \f "%sn">%
 71
     4
 62
   256
 62
   257
300
ANSI31
 40
1.0
 90
        0
290
     0
290
     0
 90
        6
 40
0.0
 40
1.570796
 40
0.261799
 40
1.308997
 40
-0.261799
 40
1.832596
  0
TABLESTYLE
  5
65
102
{ACAD_XDICTIONARY
360
3FE
102
}
102
{ACAD_REACTORS
330
64
102
}
330
64
100
AcDbTableStyle
280
     0
  3
Standard
 70
     0
 71
     0
 40
0.06
 41
0.06
280
     0
281
     0
  7
Standard
140
0.18
170
     2
 62
     0
 63
     7
283
     0
 90
      512
 91
        0
  1

274
    -2
284
     1
 64
     0
275
    -2
285
     1
 65
     0
276
    -2
286
     1
 66
     0
277
    -2
287
     1
 67
     0
278
    -2
288
     1
 68
     0
279
    -2
289
     1
 69
     0
  7
Standard
140
0.25
170
     5
 62
     0
 63
     7
283
     0
 90
      512
 91
        0
  1

274
    -2
284
     1
 64
     0
275
    -2
285
     1
 65
     0
276
    -2
286
     1
 66
     0
277
    -2
287
     1
 67
     0
278
    -2
288
     1
 68
     0
279
    -2
289
     1
 69
     0
  7
Standard
140
0.18
170
     5
 62
     0
 63
     7
283
     0
 90
      512
 91
        0
  1

274
    -2
284
     1
 64
     0
275
    -2
285
     1
 65
     0
276
    -2
286
     1
 66
     0
277
    -2
287
     1
 67
     0
278
    -2
288
     1
 68
     0
279
    -2
289
     1
 69
     0
  0
VISUALSTYLE
  5
2F
102
{ACAD_REACTORS
330
29
102
}
330
29
100
AcDbVisualStyle
  2
2dWireframe
 70
     4
177
     3
291
     0
 70
    58
 90
        0
176
     1
 90
        2
176
     1
 90
        0
176
     1
 90
        0
176
     1
 40
0.6
176
     1
 40
30.0
176
     1
 62
     7
420
 16777215
176
     1
 90
        1
176
     1
 90
        4
176
     1
 62
     7
176
     1
 62
   257
176
     1
 90
        1
176
     1
 90
        1
176
     1
 40
1.0
176
     1
 90
        0
176
     1
 62
   257
176
     1
 40
1.0
176
     1
 90
        1
176
     1
 90
        6
176
     1
 90
        2
176
     1
 62
     7
176
     1
 90
        5
176
     1
 90
        0
176
     1
 90
        0
176
     1
290
     0
176
     1
 90
        1
176
     1
 40
0.0
176
     1
 90
        0
176
     1
290
     1
176
     1
290
     1
176
     1
290
     0
176
     1
290
     0
176
     1
290
     0
176
     1
290
     0
176
     1
290
     0
176
     1
290
     0
176
     1
290
     0
176
     1
 90
       50
176
     1
 40
0.0
176
     1
 40
1.0
176
     1
 90
        0
176
     1
 62
    18
420
        0
176
     1
 90
       50
176
     1
 90
        3
176
     1
 62
     5
420
      255
176
     1
290
     0
176
     1
 90
       50
176
     1
 90
       50
176
     1
 90
       50
176
     1
290
     0
176
     1
 90
       50
176
     1
 62
   256
176
     0
 40
1.0
176
     0
 90
        2
176
     1
  1
strokes_ogs.tif
176
     1
290
     0
176
     1
 40
1.0
176
     1
 40
1.0
176
     1
1001
ACAD
1000
AcDbSavedByObjectVersion
1070
     0
  0
VISUALSTYLE
  5
2E
102
{ACAD_REACTORS
330
29
102
}
330
29
100
AcDbVisualStyle
  2
Basic
 70
     7
177
     3
291
     1
 70
    58
 90
        1
176
     1
 90
        0
176
     1
 90
        1
176
     1
 90
        0
176
     1
 40
0.6
176
     1
 40
30.0
176
     1
 62
     7
420
 16777215
176
     1
 90
        0
176
     1
 90
        4
176
     1
 62
     7
176
     1
 62
   257
176
     1
 90
        1
176
     1
 90
        1
176
     1
 40
1.0
176
     1
 90
        8
176
     1
 62
     7
176
     1
 40
1.0
176
     1
 90
        1
176
     1
 90
        6
176
     1
 90
        2
176
     1
 62
     7
176
     1
 90
        5
176
     1
 90
        0
176
     1
 90
        0
176
     1
290
     0
176
     1
 90
        1
176
     1
 40
0.0
176
     1
 90
        0
176
     1
290
     0
176
     1
290
     1
176
     1
290
     1
176
     1
290
     0
176
     1
290
     0
176
     1
290
     0
176
     1
290
     0
176
     1
290
     0
176
     1
290
     0
176
     1
 90
       50
176
     1
 40
0.0
176
     1
 40
1.0
176
     1
 90
        0
176
     1
 62
    18
420
        0
176
     1
 90
       50
176
     1
 90
        3
176
     1
 62
     5
420
      255
176
     1
290
     0
176
     1
 90
       50
176
     1
 90
       50
176
     1
 90
       50
176
     1
290
     0
176
     1
 90
       50
176
     1
 62
   256
176
     0
 40
1.0
176
     0
 90
        2
176
     1
  1
strokes_ogs.tif
176
     1
290
     0
176
     1
 40
1.0
176
     1
 40
1.0
176
     1
1001
ACAD
1000
AcDbSavedByObjectVersion
1070
     0
  0
VISUALSTYLE
  5
35
102
{ACAD_REACTORS
330
29
102
}
330
29
100
AcDbVisualStyle
  2
Brighten
 70
    12
177
     3
291
     1
 70
    58
 90
        2
176
     1
 90
        2
176
     1
 90
        0
176
     1
 90
        0
176
     1
 40
0.6
176
     1
 40
30.0
176
     1
 62
     7
420
 16777215
176
     1
 90
        1
176
     1
 90
        4
176
     1
 62
     7
176
     1
 62
   257
176
     1
 90
        1
176
     1
 90
        1
176
     1
 40
1.0
176
     1
 90
        8
176
     1
 62
     7
176
     1
 40
1.0
176
     1
 90
        1
176
     1
 90
        6
176
     1
 90
        2
176
     1
 62
     7
176
     1
 90
        5
176
     1
 90
        0
176
     1
 90
        0
176
     1
290
     0
176
     1
 90
        1
176
     1
 40
50.0
176
     1
 90
        0
176
     1
290
     0
176
     1
290
     1
176
     1
290
     1
176
     1
290
     0
176
     1
290
     0
176
     1
290
     0
176
     1
290
     0
176
     1
290
     0
176
     1
290
     0
176
     1
 90
       50
176
     1
 40
0.0
176
     1
 40
1.0
176
     1
 90
        0
176
     1
 62
    18
420
        0
176
     1
 90
       50
176
     1
 90
        3
176
     1
 62
     5
420
      255
176
     1
290
     0
176
     1
 90
       50
176
     1
 90
       50
176
     1
 90
       50
176
     1
290
     0
176
     1
 90
       50
176
     1
 62
   256
176
     0
 40
1.0
176
     0
 90
        2
176
     1
  1
strokes_ogs.tif
176
     1
290
     0
176
     1
 40
1.0
176
     1
 40
1.0
176
     1
1001
ACAD
1000
AcDbSavedByObjectVersion
1070
     0
  0
VISUALSTYLE
  5
39
102
{ACAD_REACTORS
330
29
102
}
330
29
100
AcDbVisualStyle
  2
ColorChange
 70
    16
177
     3
291
     1
 70
    58
 90
        2
176
     1
 90
        2
176
     1
 90
        3
176
     1
 90
        0
176
     1
 40
0.6
176
     1
 40
30.0
176
     1
 62
     8
420
  8421504
176
     1
 90
        1
176
     1
 90
        4
176
     1
 62
     7
176
     1
 62
   257
176
     1
 90
        1
176
     1
 90
        1
176
     1
 40
1.0
176
     1
 90
        8
176
     1
 62
     8
420
  8421504
176
     1
 40
1.0
176
     1
 90
        1
176
     1
 90
        6
176
     1
 90
        2
176
     1
 62
     7
176
     1
 90
        5
176
     1
 90
        0
176
     1
 90
        0
176
     1
290
     0
176
     1
 90
        1
176
     1
 40
0.0
176
     1
 90
        0
176
     1
290
     0
176
     1
290
     1
176
     1
290
     1
176
     1
290
     0
176
     1
290
     0
176
     1
290
     0
176
     1
290
     0
176
     1
290
     0
176
     1
290
     0
176
     1
 90
       50
176
     1
 40
0.0
176
     1
 40
1.0
176
     1
 90
        0
176
     1
 62
    18
420
        0
176
     1
 90
       50
176
     1
 90
        3
176
     1
 62
     5
420
      255
176
     1
290
     0
176
     1
 90
       50
176
     1
 90
       50
176
     1
 90
       50
176
     1
290
     0
176
     1
 90
       50
176
     1
 62
   256
176
     0
 40
1.0
176
     0
 90
        2
176
     1
  1
strokes_ogs.tif
176
     1
290
     0
176
     1
 40
1.0
176
     1
 40
1.0
176
     1
1001
ACAD
1000
AcDbSavedByObjectVersion
1070
     0
  0
VISUALSTYLE
  5
32
102
{ACAD_REACTORS
330
29
102
}
330
29
100
AcDbVisualStyle
  2
Conceptual
 70
     9
177
     3
291
     0
 70
    58
 90
        3
176
     1
 90
        2
176
     1
 90
        0
176
     1
 90
        0
176
     1
 40
0.6
176
     1
 40
30.0
176
     1
 62
     7
420
 16777215
176
     1
 90
        2
176
     1
 90
        2
176
     1
 62
     7
176
     1
 62
   257
176
     1
 90
        1
176
     1
 90
        1
176
     1
 40
179.0
176
     1
 90
        8
176
     1
 62
     7
176
     1
 40
1.0
176
     1
 90
        1
176
     1
 90
        6
176
     1
 90
        2
176
     1
 62
     7
176
     1
 90
        3
176
     1
 90
        0
176
     1
 90
        0
176
     1
290
     0
176
     1
 90
        1
176
     1
 40
0.0
176
     1
 90
        0
176
     1
290
     0
176
     1
290
     1
176
     1
290
     1
176
     1
290
     0
176
     1
290
     0
176
     1
290
     0
176
     1
290
     0
176
     1
290
     0
176
     1
290
     0
176
     1
 90
       50
176
     1
 40
0.0
176
     1
 40
1.0
176
     1
 90
        0
176
     1
 62
    18
420
        0
176
     1
 90
       50
176
     1
 90
        3
176
     1
 62
     5
420
      255
176
     1
290
     0
176
     1
 90
       50
176
     1
 90
       50
176
     1
 90
       50
176
     1
290
     0
176
     1
 90
       50
176
     1
 62
   256
176
     0
 40
1.0
176
     0
 90
        2
176
     1
  1
strokes_ogs.tif
176
     1
290
     0
176
     1
 40
1.0
176
     1
 40
1.0
176
     1
1001
ACAD
1000
AcDbSavedByObjectVersion
1070
     0
  0
VISUALSTYLE
  5
34
102
{ACAD_REACTORS
330
29
102
}
330
29
100
AcDbVisualStyle
  2
Dim
 70
    11
177
     3
291
     1
 70
    58
 90
        2
176
     1
 90
        2
176
     1
 90
        0
176
     1
 90
        0
176
     1
 40
0.6
176
     1
 40
30.0
176
     1
 62
     7
420
 16777215
176
     1
 90
        1
176
     1
 90
        4
176
     1
 62
     7
176
     1
 62
   257
176
     1
 90
        1
176
     1
 90
        1
176
     1
 40
1.0
176
     1
 90
        8
176
     1
 62
     7
176
     1
 40
1.0
176
     1
 90
        1
176
     1
 90
        6
176
     1
 90
        2
176
     1
 62
     7
176
     1
 90
        5
176
     1
 90
        0
176
     1
 90
        0
176
     1
290
     0
176
     1
 90
        1
176
     1
 40
-50.0
176
     1
 90
        0
176
     1
290
     0
176
     1
290
     1
176
     1
290
     1
176
     1
290
     0
176
     1
290
     0
176
     1
290
     0
176
     1
290
     0
176
     1
290
     0
176
     1
290
     0
176
     1
 90
       50
176
     1
 40
0.0
176
     1
 40
1.0
176
     1
 90
        0
176
     1
 62
    18
420
        0
176
     1
 90
       50
176
     1
 90
        3
176
     1
 62
     5
420
      255
176
     1
290
     0
176
     1
 90
       50
176
     1
 90
       50
176
     1
 90
       50
176
     1
290
     0
176
     1
 90
       50
176
     1
 62
   256
176
     0
 40
1.0
176
     0
 90
        2
176
     1
  1
strokes_ogs.tif
176
     1
290
     0
176
     1
 40
1.0
176
     1
 40
1.0
176
     1
1001
ACAD
1000
AcDbSavedByObjectVersion
1070
     0
  0
VISUALSTYLE
  5
41
102
{ACAD_REACTORS
330
29
102
}
330
29
100
AcDbVisualStyle
  2
EdgeColorOff
 70
    22
177
     3
291
     1
 70
    58
 90
        2
176
     0
 90
        2
176
     0
 90
        0
176
     0
 90
        0
176
     0
 40
0.6
176
     0
 40
30.0
176
     0
 62
     7
420
 16777215
176
     0
 90
        1
176
     0
 90
        4
176
     0
 62
     7
176
     0
 62
   257
176
     0
 90
        1
176
     0
 90
        1
176
     0
 40
1.0
176
     0
 90
        8
176
     2
 62
     7
176
     0
 40
1.0
176
     0
 90
        1
176
     0
 90
        6
176
     0
 90
        2
176
     0
 62
     7
176
     0
 90
        5
176
     0
 90
        0
176
     0
 90
        0
176
     0
290
     0
176
     0
 90
        1
176
     0
 40
0.0
176
     0
 90
        0
176
     0
290
     0
176
     0
290
     1
176
     0
290
     1
176
     0
290
     0
176
     0
290
     0
176
     0
290
     0
176
     0
290
     0
176
     0
290
     0
176
     0
290
     0
176
     0
 90
       50
176
     0
 40
0.0
176
     0
 40
1.0
176
     0
 90
        0
176
     0
 62
    18
420
        0
176
     0
 90
       50
176
     0
 90
        3
176
     0
 62
     5
420
      255
176
     0
290
     0
176
     0
 90
       50
176
     0
 90
       50
176
     0
 90
       50
176
     0
290
     0
176
     0
 90
       50
176
     0
 62
   256
176
     0
 40
1.0
176
     0
 90
        2
176
     0
  1
strokes_ogs.tif
176
     0
290
     0
176
     0
 40
1.0
176
     0
 40
1.0
176
     0
1001
ACAD
1000
AcDbSavedByObjectVersion
1070
     0
  0
VISUALSTYLE
  5
38
102
{ACAD_REACTORS
330
29
102
}
330
29
100
AcDbVisualStyle
  2
Facepattern
 70
    15
177
     3
291
     1
 70
    58
 90
        2
176
     1
 90
        2
176
     1
 90
        0
176
     1
 90
        0
176
     1
 40
0.6
176
     1
 40
30.0
176
     1
 62
     7
420
 16777215
176
     1
 90
        1
176
     1
 90
        4
176
     1
 62
     7
176
     1
 62
   257
176
     1
 90
        1
176
     1
 90
        1
176
     1
 40
1.0
176
     1
 90
        8
176
     1
 62
     7
176
     1
 40
1.0
176
     1
 90
        1
176
     1
 90
        6
176
     1
 90
        2
176
     1
 62
     7
176
     1
 90
        5
176
     1
 90
        0
176
     1
 90
        0
176
     1
290
     0
176
     1
 90
        1
176
     1
 40
0.0
176
     1
 90
        0
176
     1
290
     0
176
     1
290
     1
176
     1
290
     1
176
     1
290
     0
176
     1
290
     0
176
     1
290
     0
176
     1
290
     0
176
     1
290
     0
176
     1
290
     0
176
     1
 90
       50
176
     1
 40
0.0
176
     1
 40
1.0
176
     1
 90
        0
176
     1
 62
    18
420
        0
176
     1
 90
       50
176
     1
 90
        3
176
     1
 62
     5
420
      255
176
     1
290
     0
176
     1
 90
       50
176
     1
 90
       50
176
     1
 90
       50
176
     1
290
     0
176
     1
 90
       50
176
     1
 62
   256
176
     0
 40
1.0
176
     0
 90
        2
176
     1
  1
strokes_ogs.tif
176
     1
290
     0
176
     1
 40
1.0
176
     1
 40
1.0
176
     1
1001
ACAD
1000
AcDbSavedByObjectVersion
1070
     0
  0
VISUALSTYLE
  5
2A
102
{ACAD_REACTORS
330
29
102
}
330
29
100
AcDbVisualStyle
  2
Flat
 70
     0
177
     3
291
     1
 70
    58
 90
        2
176
     1
 90
        1
176
     1
 90
        1
176
     1
 90
        2
176
     1
 40
0.6
176
     1
 40
30.0
176
     1
 62
     7
420
 16777215
176
     1
 90
        0
176
     1
 90
        0
176
     1
 62
     7
176
     1
 62
   257
176
     1
 90
        1
176
     1
 90
        1
176
     1
 40
1.0
176
     1
 90
        8
176
     1
 62
     7
176
     1
 40
1.0
176
     1
 90
        1
176
     1
 90
        6
176
     1
 90
        2
176
     1
 62
     7
176
     1
 90
        5
176
     1
 90
        0
176
     1
 90
        0
176
     1
290
     0
176
     1
 90
       13
176
     1
 40
0.0
176
     1
 90
        0
176
     1
290
     0
176
     1
290
     1
176
     1
290
     1
176
     1
290
     0
176
     1
290
     0
176
     1
290
     0
176
     1
290
     0
176
     1
290
     0
176
     1
290
     0
176
     1
 90
       50
176
     1
 40
0.0
176
     1
 40
1.0
176
     1
 90
        0
176
     1
 62
    18
420
        0
176
     1
 90
       50
176
     1
 90
        3
176
     1
 62
     5
420
      255
176
     1
290
     0
176
     1
 90
       50
176
     1
 90
       50
176
     1
 90
       50
176
     1
290
     0
176
     1
 90
       50
176
     1
 62
   256
176
     0
 40
1.0
176
     0
 90
        2
176
     1
  1
strokes_ogs.tif
176
     1
290
     0
176
     1
 40
1.0
176
     1
 40
1.0
176
     1
1001
ACAD
1000
AcDbSavedByObjectVersion
1070
     0
  0
VISUALSTYLE
  5
2B
102
{ACAD_REACTORS
330
29
102
}
330
29
100
AcDbVisualStyle
  2
FlatWithEdges
 70
     1
177
     3
291
     1
 70
    58
 90
        2
176
     1
 90
        1
176
     1
 90
        1
176
     1
 90
        2
176
     1
 40
0.6
176
     1
 40
30.0
176
     1
 62
     7
420
 16777215
176
     1
 90
        1
176
     1
 90
        0
176
     1
 62
     7
176
     1
 62
   257
176
     1
 90
        1
176
     1
 90
        1
176
     1
 40
1.0
176
     1
 90
        0
176
     1
 62
   257
176
     1
 40
1.0
176
     1
 90
        1
176
     1
 90
        6
176
     1
 90
        2
176
     1
 62
     7
176
     1
 90
        5
176
     1
 90
        0
176
     1
 90
        0
176
     1
290
     0
176
     1
 90
       13
176
     1
 40
0.0
176
     1
 90
        0
176
     1
290
     0
176
     1
290
     1
176
     1
290
     1
176
     1
290
     0
176
     1
290
     0
176
     1
290
     0
176
     1
290
     0
176
     1
290
     0
176
     1
290
     0
176
     1
 90
       50
176
     1
 40
0.0
176
     1
 40
1.0
176
     1
 90
        0
176
     1
 62
    18
420
        0
176
     1
 90
       50
176
     1
 90
        3
176
     1
 62
     5
420
      255
176
     1
290
     0
176
     1
 90
       50
176
     1
 90
       50
176
     1
 90
       50
176
     1
290
     0
176
     1
 90
       50
176
     1
 62
   256
176
     0
 40
1.0
176
     0
 90
        2
176
     1
  1
strokes_ogs.tif
176
     1
290
     0
176
     1
 40
1.0
176
     1
 40
1.0
176
     1
1001
ACAD
1000
AcDbSavedByObjectVersion
1070
     0
  0
VISUALSTYLE
  5
2C
102
{ACAD_REACTORS
330
29
102
}
330
29
100
AcDbVisualStyle
  2
Gouraud
 70
     2
177
     3
291
     1
 70
    58
 90
        2
176
     1
 90
        2
176
     1
 90
        1
176
     1
 90
        2
176
     1
 40
0.6
176
     1
 40
30.0
176
     1
 62
     7
420
 16777215
176
     1
 90
        0
176
     1
 90
        0
176
     1
 62
     7
176
     1
 62
   257
176
     1
 90
        1
176
     1
 90
        1
176
     1
 40
1.0
176
     1
 90
        0
176
     1
 62
     7
176
     1
 40
1.0
176
     1
 90
        1
176
     1
 90
        6
176
     1
 90
        2
176
     1
 62
     7
176
     1
 90
        5
176
     1
 90
        0
176
     1
 90
        0
176
     1
290
     0
176
     1
 90
       13
176
     1
 40
0.0
176
     1
 90
        0
176
     1
290
     0
176
     1
290
     1
176
     1
290
     1
176
     1
290
     0
176
     1
290
     0
176
     1
290
     0
176
     1
290
     0
176
     1
290
     0
176
     1
290
     0
176
     1
 90
       50
176
     1
 40
0.0
176
     1
 40
1.0
176
     1
 90
        0
176
     1
 62
    18
420
        0
176
     1
 90
       50
176
     1
 90
        3
176
     1
 62
     5
420
      255
176
     1
290
     0
176
     1
 90
       50
176
     1
 90
       50
176
     1
 90
       50
176
     1
290
     0
176
     1
 90
       50
176
     1
 62
   256
176
     0
 40
1.0
176
     0
 90
        2
176
     1
  1
strokes_ogs.tif
176
     1
290
     0
176
     1
 40
1.0
176
     1
 40
1.0
176
     1
1001
ACAD
1000
AcDbSavedByObjectVersion
1070
     0
  0
VISUALSTYLE
  5
2D
102
{ACAD_REACTORS
330
29
102
}
330
29
100
AcDbVisualStyle
  2
GouraudWithEdges
 70
     3
177
     3
291
     1
 70
    58
 90
        2
176
     1
 90
        2
176
     1
 90
        1
176
     1
 90
        2
176
     1
 40
0.6
176
     1
 40
30.0
176
     1
 62
     7
420
 16777215
176
     1
 90
        1
176
     1
 90
        0
176
     1
 62
     7
176
     1
 62
   257
176
     1
 90
        1
176
     1
 90
        1
176
     1
 40
1.0
176
     1
 90
        0
176
     1
 62
   257
176
     1
 40
1.0
176
     1
 90
        1
176
     1
 90
        6
176
     1
 90
        2
176
     1
 62
     7
176
     1
 90
        5
176
     1
 90
        0
176
     1
 90
        0
176
     1
290
     0
176
     1
 90
       13
176
     1
 40
0.0
176
     1
 90
        0
176
     1
290
     0
176
     1
290
     1
176
     1
290
     1
176
     1
290
     0
176
     1
290
     0
176
     1
290
     0
176
     1
290
     0
176
     1
290
     0
176
     1
290
     0
176
     1
 90
       50
176
     1
 40
0.0
176
     1
 40
1.0
176
     1
 90
        0
176
     1
 62
    18
420
        0
176
     1
 90
       50
176
     1
 90
        3
176
     1
 62
     5
420
      255
176
     1
290
     0
176
     1
 90
       50
176
     1
 90
       50
176
     1
 90
       50
176
     1
290
     0
176
     1
 90
       50
176
     1
 62
   256
176
     0
 40
1.0
176
     0
 90
        2
176
     1
  1
strokes_ogs.tif
176
     1
290
     0
176
     1
 40
1.0
176
     1
 40
1.0
176
     1
1001
ACAD
1000
AcDbSavedByObjectVersion
1070
     0
  0
VISUALSTYLE
  5
31
102
{ACAD_REACTORS
330
29
102
}
330
29
100
AcDbVisualStyle
  2
Hidden
 70
     6
177
     3
291
     0
 70
    58
 90
        1
176
     1
 90
        2
176
     1
 90
        2
176
     1
 90
        0
176
     1
 40
0.6
176
     1
 40
30.0
176
     1
 62
     7
420
 16777215
176
     1
 90
        2
176
     1
 90
        2
176
     1
 62
     7
176
     1
 62
   257
176
     1
 90
        2
176
     1
 90
        1
176
     1
 40
40.0
176
     1
 90
        0
176
     1
 62
   257
176
     1
 40
1.0
176
     1
 90
        1
176
     1
 90
        6
176
     1
 90
        2
176
     1
 62
     7
176
     1
 90
        3
176
     1
 90
        0
176
     1
 90
        0
176
     1
290
     0
176
     1
 90
        1
176
     1
 40
0.0
176
     1
 90
        0
176
     1
290
     0
176
     1
290
     1
176
     1
290
     1
176
     1
290
     0
176
     1
290
     0
176
     1
290
     0
176
     1
290
     0
176
     1
290
     0
176
     1
290
     0
176
     1
 90
       50
176
     1
 40
0.0
176
     1
 40
1.0
176
     1
 90
        0
176
     1
 62
    18
420
        0
176
     1
 90
       50
176
     1
 90
        3
176
     1
 62
     5
420
      255
176
     1
290
     0
176
     1
 90
       50
176
     1
 90
       50
176
     1
 90
       50
176
     1
290
     0
176
     1
 90
       50
176
     1
 62
   256
176
     0
 40
1.0
176
     0
 90
        2
176
     1
  1
strokes_ogs.tif
176
     1
290
     0
176
     1
 40
1.0
176
     1
 40
1.0
176
     1
1001
ACAD
1000
AcDbSavedByObjectVersion
1070
     0
  0
VISUALSTYLE
  5
3F
102
{ACAD_REACTORS
330
29
102
}
330
29
100
AcDbVisualStyle
  2
JitterOff
 70
    20
177
     3
291
     1
 70
    58
 90
        2
176
     0
 90
        2
176
     0
 90
        0
176
     0
 90
        0
176
     0
 40
0.6
176
     0
 40
30.0
176
     0
 62
     7
420
 16777215
176
     0
 90
        1
176
     0
 90
        4
176
     0
 62
     7
176
     0
 62
   257
176
     0
 90
        1
176
     0
 90
        1
176
     0
 40
1.0
176
     0
 90
       10
176
     2
 62
     7
176
     0
 40
1.0
176
     0
 90
        1
176
     0
 90
        6
176
     0
 90
        2
176
     0
 62
     7
176
     0
 90
        5
176
     0
 90
        0
176
     0
 90
        0
176
     0
290
     0
176
     0
 90
        1
176
     0
 40
0.0
176
     0
 90
        0
176
     0
290
     0
176
     0
290
     1
176
     0
290
     1
176
     0
290
     0
176
     0
290
     0
176
     0
290
     0
176
     0
290
     0
176
     0
290
     0
176
     0
290
     0
176
     0
 90
       50
176
     0
 40
0.0
176
     0
 40
1.0
176
     0
 90
        0
176
     0
 62
    18
420
        0
176
     0
 90
       50
176
     0
 90
        3
176
     0
 62
     5
420
      255
176
     0
290
     0
176
     0
 90
       50
176
     0
 90
       50
176
     0
 90
       50
176
     0
290
     0
176
     0
 90
       50
176
     0
 62
   256
176
     0
 40
1.0
176
     0
 90
        2
176
     0
  1
strokes_ogs.tif
176
     0
290
     0
176
     0
 40
1.0
176
     0
 40
1.0
176
     0
1001
ACAD
1000
AcDbSavedByObjectVersion
1070
     0
  0
VISUALSTYLE
  5
37
102
{ACAD_REACTORS
330
29
102
}
330
29
100
AcDbVisualStyle
  2
Linepattern
 70
    14
177
     3
291
     1
 70
    58
 90
        2
176
     1
 90
        2
176
     1
 90
        0
176
     1
 90
        0
176
     1
 40
0.6
176
     1
 40
30.0
176
     1
 62
     7
420
 16777215
176
     1
 90
        1
176
     1
 90
        4
176
     1
 62
     7
176
     1
 62
   257
176
     1
 90
        7
176
     1
 90
        7
176
     1
 40
1.0
176
     1
 90
        8
176
     1
 62
     7
176
     1
 40
1.0
176
     1
 90
        1
176
     1
 90
        6
176
     1
 90
        2
176
     1
 62
     7
176
     1
 90
        5
176
     1
 90
        0
176
     1
 90
        0
176
     1
290
     0
176
     1
 90
        1
176
     1
 40
0.0
176
     1
 90
        0
176
     1
290
     0
176
     1
290
     1
176
     1
290
     1
176
     1
290
     0
176
     1
290
     0
176
     1
290
     0
176
     1
290
     0
176
     1
290
     0
176
     1
290
     0
176
     1
 90
       50
176
     1
 40
0.0
176
     1
 40
1.0
176
     1
 90
        0
176
     1
 62
    18
420
        0
176
     1
 90
       50
176
     1
 90
        3
176
     1
 62
     5
420
      255
176
     1
290
     0
176
     1
 90
       50
176
     1
 90
       50
176
     1
 90
       50
176
     1
290
     0
176
     1
 90
       50
176
     1
 62
   256
176
     0
 40
1.0
176
     0
 90
        2
176
     1
  1
strokes_ogs.tif
176
     1
290
     0
176
     1
 40
1.0
176
     1
 40
1.0
176
     1
1001
ACAD
1000
AcDbSavedByObjectVersion
1070
     0
  0
VISUALSTYLE
  5
40
102
{ACAD_REACTORS
330
29
102
}
330
29
100
AcDbVisualStyle
  2
OverhangOff
 70
    21
177
     3
291
     1
 70
    58
 90
        2
176
     0
 90
        2
176
     0
 90
        0
176
     0
 90
        0
176
     0
 40
0.6
176
     0
 40
30.0
176
     0
 62
     7
420
 16777215
176
     0
 90
        1
176
     0
 90
        4
176
     0
 62
     7
176
     0
 62
   257
176
     0
 90
        1
176
     0
 90
        1
176
     0
 40
1.0
176
     0
 90
        9
176
     2
 62
     7
176
     0
 40
1.0
176
     0
 90
        1
176
     0
 90
        6
176
     0
 90
        2
176
     0
 62
     7
176
     0
 90
        5
176
     0
 90
        0
176
     0
 90
        0
176
     0
290
     0
176
     0
 90
        1
176
     0
 40
0.0
176
     0
 90
        0
176
     0
290
     0
176
     0
290
     1
176
     0
290
     1
176
     0
290
     0
176
     0
290
     0
176
     0
290
     0
176
     0
290
     0
176
     0
290
     0
176
     0
290
     0
176
     0
 90
       50
176
     0
 40
0.0
176
     0
 40
1.0
176
     0
 90
        0
176
     0
 62
    18
420
        0
176
     0
 90
       50
176
     0
 90
        3
176
     0
 62
     5
420
      255
176
     0
290
     0
176
     0
 90
       50
176
     0
 90
       50
176
     0
 90
       50
176
     0
290
     0
176
     0
 90
       50
176
     0
 62
   256
176
     0
 40
1.0
176
     0
 90
        2
176
     0
  1
strokes_ogs.tif
176
     0
290
     0
176
     0
 40
1.0
176
     0
 40
1.0
176
     0
1001
ACAD
1000
AcDbSavedByObjectVersion
1070
     0
  0
VISUALSTYLE
  5
33
102
{ACAD_REACTORS
330
29
102
}
330
29
100
AcDbVisualStyle
  2
Realistic
 70
     8
177
     3
291
     0
 70
    58
 90
        2
176
     1
 90
        3
176
     1
 90
        0
176
     1
 90
        2
176
     1
 40
0.6
176
     1
 40
30.0
176
     1
 62
     7
420
 16777215
176
     1
 90
        0
176
     1
 90
        0
176
     1
 62
     7
176
     1
 62
   257
176
     1
 90
        1
176
     1
 90
        1
176
     1
 40
1.0
176
     1
 90
        8
176
     1
 62
   257
176
     1
 40
1.0
176
     1
 90
        1
176
     1
 90
        6
176
     1
 90
        2
176
     1
 62
     7
176
     1
 90
        3
176
     1
 90
        0
176
     1
 90
        0
176
     1
290
     0
176
     1
 90
       13
176
     1
 40
0.0
176
     1
 90
        0
176
     1
290
     0
176
     1
290
     1
176
     1
290
     1
176
     1
290
     0
176
     1
290
     0
176
     1
290
     0
176
     1
290
     0
176
     1
290
     0
176
     1
290
     0
176
     1
 90
       50
176
     1
 40
0.0
176
     1
 40
1.0
176
     1
 90
        0
176
     1
 62
    18
420
        0
176
     1
 90
       50
176
     1
 90
        3
176
     1
 62
     5
420
      255
176
     1
290
     0
176
     1
 90
       50
176
     1
 90
       50
176
     1
 90
       50
176
     1
290
     0
176
     1
 90
       50
176
     1
 62
   256
176
     0
 40
1.0
176
     0
 90
        2
176
     1
  1
strokes_ogs.tif
176
     1
290
     0
176
     1
 40
1.0
176
     1
 40
1.0
176
     1
1001
ACAD
1000
AcDbSavedByObjectVersion
1070
     0
  0
VISUALSTYLE
  5
3E
102
{ACAD_REACTORS
330
29
102
}
330
29
100
AcDbVisualStyle
  2
Shaded
 70
    27
177
     3
291
     0
 70
    58
 90
        2
176
     1
 90
        2
176
     1
 90
        1
176
     1
 90
        2
176
     1
 40
0.6
176
     1
 40
30.0
176
     1
 62
     7
420
 16777215
176
     1
 90
        0
176
     1
 90
        4
176
     1
 62
     7
176
     1
 62
   257
176
     1
 90
        1
176
     1
 90
        1
176
     1
 40
1.0
176
     1
 90
        8
176
     1
 62
   257
176
     1
 40
1.0
176
     1
 90
        1
176
     1
 90
        6
176
     1
 90
        2
176
     1
 62
     8
420
  7895160
176
     1
 90
        3
176
     1
 90
        0
176
     1
 90
        0
176
     1
290
     0
176
     1
 90
        5
176
     1
 40
0.0
176
     1
 90
        0
176
     1
290
     0
176
     1
290
     1
176
     1
290
     1
176
     1
290
     0
176
     1
290
     0
176
     1
290
     0
176
     1
290
     0
176
     1
290
     0
176
     1
290
     0
176
     1
 90
       50
176
     1
 40
0.0
176
     1
 40
1.0
176
     1
 90
        0
176
     1
 62
    18
420
        0
176
     1
 90
       50
176
     1
 90
        3
176
     1
 62
     5
420
      255
176
     1
290
     0
176
     1
 90
       50
176
     1
 90
       50
176
     1
 90
       50
176
     1
290
     0
176
     1
 90
       50
176
     1
 62
   256
176
     0
 40
1.0
176
     0
 90
        2
176
     1
  1
strokes_ogs.tif
176
     1
290
     0
176
     1
 40
1.0
176
     1
 40
1.0
176
     1
1001
ACAD
1000
AcDbSavedByObjectVersion
1070
     0
  0
VISUALSTYLE
  5
3D
102
{ACAD_REACTORS
330
29
102
}
330
29
100
AcDbVisualStyle
  2
Shaded with edges
 70
    26
177
     3
291
     0
 70
    58
 90
        2
176
     1
 90
        2
176
     1
 90
        1
176
     1
 90
        2
176
     1
 40
0.6
176
     1
 40
30.0
176
     1
 62
     7
420
 16777215
176
     1
 90
        1
176
     1
 90
        2
176
     1
 62
     7
176
     1
 62
   257
176
     1
 90
        2
176
     1
 90
        1
176
     1
 40
1.0
176
     1
 90
        8
176
     1
 62
   257
176
     1
 40
1.0
176
     1
 90
        1
176
     1
 90
        6
176
     1
 90
        2
176
     1
 62
     7
176
     1
 90
        3
176
     1
 90
        0
176
     1
 90
        0
176
     1
290
     0
176
     1
 90
        5
176
     1
 40
0.0
176
     1
 90
        0
176
     1
290
     0
176
     1
290
     1
176
     1
290
     1
176
     1
290
     0
176
     1
290
     0
176
     1
290
     0
176
     1
290
     0
176
     1
290
     0
176
     1
290
     0
176
     1
 90
       50
176
     1
 40
0.0
176
     1
 40
1.0
176
     1
 90
        0
176
     1
 62
    18
420
        0
176
     1
 90
       50
176
     1
 90
        3
176
     1
 62
     5
420
      255
176
     1
290
     0
176
     1
 90
       50
176
     1
 90
       50
176
     1
 90
       50
176
     1
290
     0
176
     1
 90
       50
176
     1
 62
   256
176
     0
 40
1.0
176
     0
 90
        2
176
     1
  1
strokes_ogs.tif
176
     1
290
     0
176
     1
 40
1.0
176
     1
 40
1.0
176
     1
1001
ACAD
1000
AcDbSavedByObjectVersion
1070
     0
  0
VISUALSTYLE
  5
3A
102
{ACAD_REACTORS
330
29
102
}
330
29
100
AcDbVisualStyle
  2
Shades of Gray
 70
    23
177
     3
291
     0
 70
    58
 90
        2
176
     1
 90
        2
176
     1
 90
        3
176
     1
 90
        0
176
     1
 40
0.6
176
     1
 40
30.0
176
     1
 62
     7
420
 16777215
176
     1
 90
        2
176
     1
 90
        2
176
     1
 62
     7
176
     1
 62
     7
176
     1
 90
        1
176
     1
 90
        1
176
     1
 40
40.0
176
     1
 90
        8
176
     1
 62
     7
176
     1
 40
1.0
176
     1
 90
        1
176
     1
 90
        6
176
     1
 90
        2
176
     1
 62
     7
176
     1
 90
        3
176
     1
 90
        0
176
     1
 90
        0
176
     1
290
     0
176
     1
 90
        1
176
     1
 40
0.0
176
     1
 90
        0
176
     1
290
     0
176
     1
290
     1
176
     1
290
     1
176
     1
290
     0
176
     1
290
     0
176
     1
290
     0
176
     1
290
     0
176
     1
290
     0
176
     1
290
     0
176
     1
 90
       50
176
     1
 40
0.0
176
     1
 40
1.0
176
     1
 90
        0
176
     1
 62
    18
420
        0
176
     1
 90
       50
176
     1
 90
        3
176
     1
 62
     5
420
      255
176
     1
290
     0
176
     1
 90
       50
176
     1
 90
       50
176
     1
 90
       50
176
     1
290
     0
176
     1
 90
       50
176
     1
 62
   256
176
     0
 40
1.0
176
     0
 90
        2
176
     1
  1
strokes_ogs.tif
176
     1
290
     0
176
     1
 40
1.0
176
     1
 40
1.0
176
     1
1001
ACAD
1000
AcDbSavedByObjectVersion
1070
     0
  0
VISUALSTYLE
  5
3B
102
{ACAD_REACTORS
330
29
102
}
330
29
100
AcDbVisualStyle
  2
Sketchy
 70
    24
177
     3
291
     0
 70
    58
 90
        1
176
     1
 90
        2
176
     1
 90
        2
176
     1
 90
        0
176
     1
 40
0.6
176
     1
 40
30.0
176
     1
 62
     7
420
 16777215
176
     1
 90
        2
176
     1
 90
        2
176
     1
 62
     7
176
     1
 62
     7
176
     1
 90
        1
176
     1
 90
        1
176
     1
 40
40.0
176
     1
 90
       11
176
     1
 62
     7
176
     1
 40
1.0
176
     1
 90
        1
176
     1
 90
        6
176
     1
 90
        2
176
     1
 62
     7
176
     1
 90
        6
176
     1
 90
        0
176
     1
 90
        0
176
     1
290
     0
176
     1
 90
        1
176
     1
 40
0.0
176
     1
 90
        0
176
     1
290
     0
176
     1
290
     1
176
     1
290
     1
176
     1
290
     0
176
     1
290
     0
176
     1
290
     0
176
     1
290
     0
176
     1
290
     0
176
     1
290
     0
176
     1
 90
       50
176
     1
 40
0.0
176
     1
 40
1.0
176
     1
 90
        0
176
     1
 62
    18
420
        0
176
     1
 90
       50
176
     1
 90
        3
176
     1
 62
     5
420
      255
176
     1
290
     0
176
     1
 90
       50
176
     1
 90
       50
176
     1
 90
       50
176
     1
290
     0
176
     1
 90
       50
176
     1
 62
   256
176
     0
 40
1.0
176
     0
 90
        2
176
     1
  1
strokes_ogs.tif
176
     1
290
     0
176
     1
 40
1.0
176
     1
 40
1.0
176
     1
1001
ACAD
1000
AcDbSavedByObjectVersion
1070
     0
  0
VISUALSTYLE
  5
36
102
{ACAD_REACTORS
330
29
102
}
330
29
100
AcDbVisualStyle
  2
Thicken
 70
    13
177
     3
291
     1
 70
    58
 90
        2
176
     1
 90
        2
176
     1
 90
        0
176
     1
 90
        0
176
     1
 40
0.6
176
     1
 40
30.0
176
     1
 62
     7
420
 16777215
176
     1
 90
        1
176
     1
 90
        4
176
     1
 62
     7
176
     1
 62
   257
176
     1
 90
        1
176
     1
 90
        1
176
     1
 40
1.0
176
     1
 90
       12
176
     1
 62
     7
176
     1
 40
1.0
176
     1
 90
        1
176
     1
 90
        6
176
     1
 90
        2
176
     1
 62
     7
176
     1
 90
        5
176
     1
 90
        0
176
     1
 90
        0
176
     1
290
     0
176
     1
 90
        1
176
     1
 40
0.0
176
     1
 90
        0
176
     1
290
     0
176
     1
290
     1
176
     1
290
     1
176
     1
290
     0
176
     1
290
     0
176
     1
290
     0
176
     1
290
     0
176
     1
290
     0
176
     1
290
     0
176
     1
 90
       50
176
     1
 40
0.0
176
     1
 40
1.0
176
     1
 90
        0
176
     1
 62
    18
420
        0
176
     1
 90
       50
176
     1
 90
        3
176
     1
 62
     5
420
      255
176
     1
290
     0
176
     1
 90
       50
176
     1
 90
       50
176
     1
 90
       50
176
     1
290
     0
176
     1
 90
       50
176
     1
 62
   256
176
     0
 40
1.0
176
     0
 90
        2
176
     1
  1
strokes_ogs.tif
176
     1
290
     0
176
     1
 40
1.0
176
     1
 40
1.0
176
     1
1001
ACAD
1000
AcDbSavedByObjectVersion
1070
     0
  0
VISUALSTYLE
  5
30
102
{ACAD_REACTORS
330
29
102
}
330
29
100
AcDbVisualStyle
  2
Wireframe
 70
     5
177
     3
291
     0
 70
    58
 90
        0
176
     1
 90
        2
176
     1
 90
        0
176
     1
 90
        0
176
     1
 40
0.6
176
     1
 40
30.0
176
     1
 62
     7
420
 16777215
176
     1
 90
        1
176
     1
 90
        4
176
     1
 62
     7
176
     1
 62
   257
176
     1
 90
        1
176
     1
 90
        1
176
     1
 40
1.0
176
     1
 90
        0
176
     1
 62
   257
176
     1
 40
1.0
176
     1
 90
        1
176
     1
 90
        6
176
     1
 90
        2
176
     1
 62
     7
176
     1
 90
        3
176
     1
 90
        0
176
     1
 90
        0
176
     1
290
     0
176
     1
 90
        1
176
     1
 40
0.0
176
     1
 90
        0
176
     1
290
     0
176
     1
290
     1
176
     1
290
     1
176
     1
290
     0
176
     1
290
     0
176
     1
290
     0
176
     1
290
     0
176
     1
290
     0
176
     1
290
     0
176
     1
 90
       50
176
     1
 40
0.0
176
     1
 40
1.0
176
     1
 90
        0
176
     1
 62
    18
420
        0
176
     1
 90
       50
176
     1
 90
        3
176
     1
 62
     5
420
      255
176
     1
290
     0
176
     1
 90
       50
176
     1
 90
       50
176
     1
 90
       50
176
     1
290
     0
176
     1
 90
       50
176
     1
 62
   256
176
     0
 40
1.0
176
     0
 90
        2
176
     1
  1
strokes_ogs.tif
176
     1
290
     0
176
     1
 40
1.0
176
     1
 40
1.0
176
     1
1001
ACAD
1000
AcDbSavedByObjectVersion
1070
     0
  0
VISUALSTYLE
  5
3C
102
{ACAD_REACTORS
330
29
102
}
330
29
100
AcDbVisualStyle
  2
X-Ray
 70
    25
177
     3
291
     0
 70
    58
 90
        2
176
     1
 90
        2
176
     1
 90
        1
176
     1
 90
        1
176
     1
 40
0.5
176
     1
 40
30.0
176
     1
 62
     7
420
 16777215
176
     1
 90
        1
176
     1
 90
        0
176
     1
 62
     7
176
     1
 62
   257
176
     1
 90
        1
176
     1
 90
        1
176
     1
 40
1.0
176
     1
 90
        8
176
     1
 62
     7
176
     1
 40
1.0
176
     1
 90
        1
176
     1
 90
        6
176
     1
 90
        2
176
     1
 62
     7
176
     1
 90
        3
176
     1
 90
        0
176
     1
 90
        0
176
     1
290
     0
176
     1
 90
       13
176
     1
 40
0.0
176
     1
 90
        0
176
     1
290
     0
176
     1
290
     1
176
     1
290
     1
176
     1
290
     0
176
     1
290
     0
176
     1
290
     0
176
     1
290
     0
176
     1
290
     0
176
     1
290
     0
176
     1
 90
       50
176
     1
 40
0.0
176
     1
 40
1.0
176
     1
 90
        0
176
     1
 62
    18
420
        0
176
     1
 90
       50
176
     1
 90
        3
176
     1
 62
     5
420
      255
176
     1
290
     0
176
     1
 90
       50
176
     1
 90
       50
176
     1
 90
       50
176
     1
290
     0
176
     1
 90
       50
176
     1
 62
   256
176
     0
 40
1.0
176
     0
 90
        2
176
     1
  1
strokes_ogs.tif
176
     1
290
     0
176
     1
 40
1.0
176
     1
 40
1.0
176
     1
1001
ACAD
1000
AcDbSavedByObjectVersion
1070
     0
  0
DICTIONARYVAR
  5
3FC
102
{ACAD_REACTORS
330
3F7
102
}
330
3F7
100
DictionaryVariables
280
     0
  1
0
  0
DICTIONARYVAR
  5
3FD
102
{ACAD_REACTORS
330
3F7
102
}
330
3F7
100
DictionaryVariables
280
     0
  1
1:1
  0
DICTIONARYVAR
  5
3F9
102
{ACAD_REACTORS
330
3F7
102
}
330
3F7
100
DictionaryVariables
280
     0
  1
STANDARD
  0
DICTIONARYVAR
  5
3F8
102
{ACAD_REACTORS
330
3F7
102
}
330
3F7
100
DictionaryVariables
280
     0
  1
STANDARD
  0
DICTIONARYVAR
  5
3FA
102
{ACAD_REACTORS
330
3F7
102
}
330
3F7
100
DictionaryVariables
280
     0
  1
Imperial24
  0
DICTIONARYVAR
  5
3FB
102
{ACAD_REACTORS
330
3F7
102
}
330
3F7
100
DictionaryVariables
280
     0
  1
Imperial24
  0
DICTIONARY
  5
405
330
6B
100
AcDbDictionary
280
     1
281
     1
  3
ACAD_XREC_ROUNDTRIP
360
406
  0
DICTIONARY
  5
1A
330
19
100
AcDbDictionary
280
     1
281
     1
  3
BUMPTILE
360
1C
  3
DIFFUSETILE
360
1B
  3
OPACITYTILE
360
1F
  3
REFLECTIONTILE
360
1E
  3
REFRACTIONTILE
360
20
  3
SPECULARTILE
360
1D
  0
DICTIONARY
  5
12
330
11
100
AcDbDictionary
280
     1
281
     1
  3
BUMPTILE
360
14
  3
DIFFUSETILE
360
13
  3
OPACITYTILE
360
17
  3
REFLECTIONTILE
360
16
  3
REFRACTIONTILE
360
18
  3
SPECULARTILE
360
15
  0
DICTIONARY
  5
22
330
21
100
AcDbDictionary
280
     1
281
     1
  3
BUMPTILE
360
24
  3
DIFFUSETILE
360
23
  3
OPACITYTILE
360
27
  3
REFLECTIONTILE
360
26
  3
REFRACTIONTILE
360
28
  3
SPECULARTILE
360
25
  0
DICTIONARY
  5
403
330
69
100
AcDbDictionary
280
     1
281
     1
  3
ACAD_XREC_ROUNDTRIP
360
404
  0
DICTIONARY
  5
3FE
330
65
100
AcDbDictionary
280
     1
281
     1
  3
ACAD_ROUNDTRIP_2008_TABLESTYLE_CELLSTYLEMAP
360
3FF
  0
XRECORD
  5
406
102
{ACAD_REACTORS
330
405
102
}
330
405
100
AcDbXrecord
280
     1
102
DISPLAYNAME
  1
Imperial24
102
FLAGS
 90
        0
  0
XRECORD
  5
1C
102
{ACAD_REACTORS
330
1A
102
}
330
1A
100
AcDbXrecord
280
     1
270
     1
271
     1
  0
XRECORD
  5
1B
102
{ACAD_REACTORS
330
1A
102
}
330
1A
100
AcDbXrecord
280
     1
270
     1
271
     1
  0
XRECORD
  5
1F
102
{ACAD_REACTORS
330
1A
102
}
330
1A
100
AcDbXrecord
280
     1
270
     1
271
     1
  0
XRECORD
  5
1E
102
{ACAD_REACTORS
330
1A
102
}
330
1A
100
AcDbXrecord
280
     1
270
     1
271
     1
  0
XRECORD
  5
20
102
{ACAD_REACTORS
330
1A
102
}
330
1A
100
AcDbXrecord
280
     1
270
     1
271
     1
  0
XRECORD
  5
1D
102
{ACAD_REACTORS
330
1A
102
}
330
1A
100
AcDbXrecord
280
     1
270
     1
271
     1
  0
XRECORD
  5
14
102
{ACAD_REACTORS
330
12
102
}
330
12
100
AcDbXrecord
280
     1
270
     1
271
     1
  0
XRECORD
  5
13
102
{ACAD_REACTORS
330
12
102
}
330
12
100
AcDbXrecord
280
     1
270
     1
271
     1
  0
XRECORD
  5
17
102
{ACAD_REACTORS
330
12
102
}
330
12
100
AcDbXrecord
280
     1
270
     1
271
     1
  0
XRECORD
  5
16
102
{ACAD_REACTORS
330
12
102
}
330
12
100
AcDbXrecord
280
     1
270
     1
271
     1
  0
XRECORD
  5
18
102
{ACAD_REACTORS
330
12
102
}
330
12
100
AcDbXrecord
280
     1
270
     1
271
     1
  0
XRECORD
  5
15
102
{ACAD_REACTORS
330
12
102
}
330
12
100
AcDbXrecord
280
     1
270
     1
271
     1
  0
XRECORD
  5
24
102
{ACAD_REACTORS
330
22
102
}
330
22
100
AcDbXrecord
280
     1
270
     1
271
     1
  0
XRECORD
  5
23
102
{ACAD_REACTORS
330
22
102
}
330
22
100
AcDbXrecord
280
     1
270
     1
271
     1
  0
XRECORD
  5
27
102
{ACAD_REACTORS
330
22
102
}
330
22
100
AcDbXrecord
280
     1
270
     1
271
     1
  0
XRECORD
  5
26
102
{ACAD_REACTORS
330
22
102
}
330
22
100
AcDbXrecord
280
     1
270
     1
271
     1
  0
XRECORD
  5
28
102
{ACAD_REACTORS
330
22
102
}
330
22
100
AcDbXrecord
280
     1
270
     1
271
     1
  0
XRECORD
  5
25
102
{ACAD_REACTORS
330
22
102
}
330
22
100
AcDbXrecord
280
     1
270
     1
271
     1
  0
XRECORD
  5
404
102
{ACAD_REACTORS
330
403
102
}
330
403
100
AcDbXrecord
280
     1
102
DISPLAYNAME
  1
Imperial24
102
FLAGS
 90
        0
  0
CELLSTYLEMAP
  5
3FF
102
{ACAD_REACTORS
330
3FE
102
}
330
3FE
100
AcDbCellStyleMap
 90
        3
300
CELLSTYLE
  1
TABLEFORMAT_BEGIN
 90
        5
170
     1
 91
        0
 92
    32768
 62
   257
 93
        1
300
CONTENTFORMAT
  1
CONTENTFORMAT_BEGIN
 90
        0
 91
        0
 92
      512
 93
        0
300

 40
0.0
140
1.0
 94
        5
 62
     0
340
55
144
0.25
309
CONTENTFORMAT_END
171
     0
 94
        0
309
TABLEFORMAT_END
  1
CELLSTYLE_BEGIN
 90
        1
 91
        1
300
_TITLE
309
CELLSTYLE_END
300
CELLSTYLE
  1
TABLEFORMAT_BEGIN
 90
        5
170
     1
 91
        0
 92
        0
 62
   257
 93
        1
300
CONTENTFORMAT
  1
CONTENTFORMAT_BEGIN
 90
        0
 91
        0
 92
      512
 93
        0
300

 40
0.0
140
1.0
 94
        5
 62
     0
340
55
144
0.18
309
CONTENTFORMAT_END
171
     0
 94
        0
309
TABLEFORMAT_END
  1
CELLSTYLE_BEGIN
 90
        2
 91
        1
300
_HEADER
309
CELLSTYLE_END
300
CELLSTYLE
  1
TABLEFORMAT_BEGIN
 90
        5
170
     1
 91
        0
 92
        0
 62
   257
 93
        1
300
CONTENTFORMAT
  1
CONTENTFORMAT_BEGIN
 90
        0
 91
        0
 92
      512
 93
        0
300

 40
0.0
140
1.0
 94
        2
 62
     0
340
55
144
0.18
309
CONTENTFORMAT_END
171
     0
 94
        0
309
TABLEFORMAT_END
  1
CELLSTYLE_BEGIN
 90
        3
 91
        2
300
_DATA
309
CELLSTYLE_END
  0
ENDSEC
  0
EOF
