  0
SECTION
  2
HEADER
  9
$ACADVER
  1
AC1027
  9
$ACADMAINTVER
 70
   125
  9
$DWGCODEPAGE
  3
ANSI_1252
  9
$LASTSAVEDBY
  1
Administrator
  9
$REQUIREDVERSIONS
160
                 0
  9
$INSBASE
 10
0.0
 20
0.0
 30
0.0
  9
$EXTMIN
 10
0.0
 20
0.0
 30
-1.11811
  9
$EXTMAX
 10
17.0
 20
11.0
 30
2.584849
  9
$LIMMIN
 10
0.0
 20
0.0
  9
$LIMMAX
 10
17.0
 20
11.0
  9
$ORTHOMODE
 70
     0
  9
$REGENMODE
 70
     1
  9
$FILLMODE
 70
     1
  9
$QTEXTMODE
 70
     0
  9
$MIRRTEXT
 70
     0
  9
$LTSCALE
 40
0.75
  9
$ATTMODE
 70
     1
  9
$TEXTSIZE
 40
0.12
  9
$TRACEWID
 40
0.05
  9
$TEXTSTYLE
  7
Standard
  9
$CLAYER
  8
Titleblock
  9
$CELTYPE
  6
ByLayer
  9
$CECOLOR
 62
   256
  9
$CELTSCALE
 40
1.0
  9
$DISPSILH
 70
     0
  9
$DIMSCALE
 40
1.0
  9
$DIMASZ
 40
0.12
  9
$DIMEXO
 40
0.07
  9
$DIMDLI
 40
0.36
  9
$DIMRND
 40
0.0
  9
$DIMDLE
 40
0.0
  9
$DIMEXE
 40
0.07
  9
$DIMTP
 40
0.01
  9
$DIMTM
 40
0.01
  9
$DIMTXT
 40
0.12
  9
$DIMCEN
 40
0.0
  9
$DIMTSZ
 40
0.0
  9
$DIMTOL
 70
     0
  9
$DIMLIM
 70
     0
  9
$DIMTIH
 70
     1
  9
$DIMTOH
 70
     1
  9
$DIMSE1
 70
     0
  9
$DIMSE2
 70
     0
  9
$DIMTAD
 70
     0
  9
$DIMZIN
 70
    12
  9
$DIMBLK
  1

  9
$DIMASO
 70
     1
  9
$DIMSHO
 70
     1
  9
$DIMPOST
  1
in
  9
$DIMAPOST
  1
mm
  9
$DIMALT
 70
     0
  9
$DIMALTD
 70
     2
  9
$DIMALTF
 40
25.4
  9
$DIMLFAC
 40
1.0
  9
$DIMTOFL
 70
     0
  9
$DIMTVP
 40
0.0
  9
$DIMTIX
 70
     0
  9
$DIMSOXD
 70
     0
  9
$DIMSAH
 70
     0
  9
$DIMBLK1
  1

  9
$DIMBLK2
  1

  9
$DIMSTYLE
  2
Standard
  9
$DIMCLRD
 70
   256
  9
$DIMCLRE
 70
   256
  9
$DIMCLRT
 70
   256
  9
$DIMTFAC
 40
1.0
  9
$DIMGAP
 40
0.05
  9
$DIMJUST
 70
     0
  9
$DIMSD1
 70
     0
  9
$DIMSD2
 70
     0
  9
$DIMTOLJ
 70
     1
  9
$DIMTZIN
 70
    12
  9
$DIMALTZ
 70
    12
  9
$DIMALTTZ
 70
    12
  9
$DIMUPT
 70
     0
  9
$DIMDEC
 70
     2
  9
$DIMTDEC
 70
     2
  9
$DIMALTU
 70
     2
  9
$DIMALTTD
 70
     2
  9
$DIMTXSTY
  7
Standard
  9
$DIMAUNIT
 70
     0
  9
$DIMADEC
 70
     2
  9
$DIMALTRND
 40
0.0
  9
$DIMAZIN
 70
     3
  9
$DIMDSEP
 70
    46
  9
$DIMATFIT
 70
     3
  9
$DIMFRAC
 70
     0
  9
$DIMLDRBLK
  1

  9
$DIMLUNIT
 70
     2
  9
$DIMLWD
 70
    -2
  9
$DIMLWE
 70
    -2
  9
$DIMTMOVE
 70
     0
  9
$DIMFXL
 40
1.0
  9
$DIMFXLON
 70
     0
  9
$DIMJOGANG
 40
0.785398
  9
$DIMTFILL
 70
     0
  9
$DIMTFILLCLR
 70
     0
  9
$DIMARCSYM
 70
     1
  9
$DIMLTYPE
  6

  9
$DIMLTEX1
  6

  9
$DIMLTEX2
  6

  9
$DIMTXTDIRECTION
 70
     0
  9
$LUNITS
 70
     2
  9
$LUPREC
 70
     4
  9
$SKETCHINC
 40
0.1
  9
$FILLETRAD
 40
0.0
  9
$AUNITS
 70
     0
  9
$AUPREC
 70
     0
  9
$MENU
  1
.
  9
$ELEVATION
 40
0.0
  9
$PELEVATION
 40
0.0
  9
$THICKNESS
 40
0.0
  9
$LIMCHECK
 70
     0
  9
$CHAMFERA
 40
0.0
  9
$CHAMFERB
 40
0.0
  9
$CHAMFERC
 40
0.0
  9
$CHAMFERD
 40
0.0
  9
$SKPOLY
 70
     0
  9
$TDCREATE
 40
2459467.555532408
  9
$TDUCREATE
 40
2459467.847199074
  9
$TDUPDATE
 40
2459467.555532408
  9
$TDUUPDATE
 40
2459467.847199074
  9
$TDINDWG
 40
0.0000115741
  9
$TDUSRTIMER
 40
0.0000115741
  9
$USRTIMER
 70
     1
  9
$ANGBASE
 50
0.0
  9
$ANGDIR
 70
     0
  9
$PDMODE
 70
     0
  9
$PDSIZE
 40
0.0
  9
$PLINEWID
 40
0.0
  9
$SPLFRAME
 70
     0
  9
$SPLINETYPE
 70
     6
  9
$SPLINESEGS
 70
     8
  9
$HANDSEED
  5
4CD
  9
$SURFTAB1
 70
     6
  9
$SURFTAB2
 70
     6
  9
$SURFTYPE
 70
     6
  9
$SURFU
 70
     6
  9
$SURFV
 70
     6
  9
$UCSBASE
  2

  9
$UCSNAME
  2

  9
$UCSORG
 10
0.0
 20
0.0
 30
0.0
  9
$UCSXDIR
 10
1.0
 20
0.0
 30
0.0
  9
$UCSYDIR
 10
0.0
 20
1.0
 30
0.0
  9
$UCSORTHOREF
  2

  9
$UCSORTHOVIEW
 70
     0
  9
$UCSORGTOP
 10
0.0
 20
0.0
 30
0.0
  9
$UCSORGBOTTOM
 10
0.0
 20
0.0
 30
0.0
  9
$UCSORGLEFT
 10
0.0
 20
0.0
 30
0.0
  9
$UCSORGRIGHT
 10
0.0
 20
0.0
 30
0.0
  9
$UCSORGFRONT
 10
0.0
 20
0.0
 30
0.0
  9
$UCSORGBACK
 10
0.0
 20
0.0
 30
0.0
  9
$PUCSBASE
  2

  9
$PUCSNAME
  2

  9
$PUCSORG
 10
0.0
 20
0.0
 30
0.0
  9
$PUCSXDIR
 10
1.0
 20
0.0
 30
0.0
  9
$PUCSYDIR
 10
0.0
 20
1.0
 30
0.0
  9
$PUCSORTHOREF
  2

  9
$PUCSORTHOVIEW
 70
     0
  9
$PUCSORGTOP
 10
0.0
 20
0.0
 30
0.0
  9
$PUCSORGBOTTOM
 10
0.0
 20
0.0
 30
0.0
  9
$PUCSORGLEFT
 10
0.0
 20
0.0
 30
0.0
  9
$PUCSORGRIGHT
 10
0.0
 20
0.0
 30
0.0
  9
$PUCSORGFRONT
 10
0.0
 20
0.0
 30
0.0
  9
$PUCSORGBACK
 10
0.0
 20
0.0
 30
0.0
  9
$USERI1
 70
     0
  9
$USERI2
 70
     0
  9
$USERI3
 70
     0
  9
$USERI4
 70
     0
  9
$USERI5
 70
     0
  9
$USERR1
 40
0.0
  9
$USERR2
 40
0.0
  9
$USERR3
 40
0.0
  9
$USERR4
 40
0.0
  9
$USERR5
 40
0.0
  9
$WORLDVIEW
 70
     1
  9
$SHADEDGE
 70
     3
  9
$SHADEDIF
 70
    70
  9
$TILEMODE
 70
     1
  9
$MAXACTVP
 70
    64
  9
$PINSBASE
 10
0.0
 20
0.0
 30
0.0
  9
$PLIMCHECK
 70
     0
  9
$PEXTMIN
 10
1.000000E+20
 20
1.000000E+20
 30
1.000000E+20
  9
$PEXTMAX
 10
-1.000000E+20
 20
-1.000000E+20
 30
-1.000000E+20
  9
$PLIMMIN
 10
0.0
 20
0.0
  9
$PLIMMAX
 10
12.0
 20
9.0
  9
$UNITMODE
 70
     0
  9
$VISRETAIN
 70
     1
  9
$PLINEGEN
 70
     0
  9
$PSLTSCALE
 70
     1
  9
$TREEDEPTH
 70
  3020
  9
$CMLSTYLE
  2
Standard
  9
$CMLJUST
 70
     0
  9
$CMLSCALE
 40
1.0
  9
$PROXYGRAPHICS
 70
     1
  9
$MEASUREMENT
 70
     0
  9
$CELWEIGHT
370
    -1
  9
$ENDCAPS
280
     0
  9
$JOINSTYLE
280
     0
  9
$LWDISPLAY
290
     0
  9
$INSUNITS
 70
     1
  9
$HYPERLINKBASE
  1

  9
$STYLESHEET
  1

  9
$XEDIT
290
     1
  9
$CEPSNTYPE
380
     0
  9
$PSTYLEMODE
290
     1
  9
$FINGERPRINTGUID
  2
{EACF66AA-06F4-CA41-9093-66683E2C7224}
  9
$VERSIONGUID
  2
{0481DC00-4955-E34E-BC64-E3C5E8C9E0F3}
  9
$EXTNAMES
290
     1
  9
$PSVPSCALE
 40
0.0
  9
$OLESTARTUP
290
     0
  9
$SORTENTS
280
   127
  9
$INDEXCTL
280
     0
  9
$HIDETEXT
280
     1
  9
$XCLIPFRAME
280
     0
  9
$HALOGAP
280
     0
  9
$OBSCOLOR
 70
   257
  9
$OBSLTYPE
280
     0
  9
$INTERSECTIONDISPLAY
280
     0
  9
$INTERSECTIONCOLOR
 70
   257
  9
$DIMASSOC
280
     2
  9
$PROJECTNAME
  1

  9
$CAMERADISPLAY
290
     0
  9
$LENSLENGTH
 40
50.0
  9
$CAMERAHEIGHT
 40
0.0
  9
$STEPSPERSEC
 40
2.0
  9
$STEPSIZE
 40
6.0
  9
$3DDWFPREC
 40
2.0
  9
$PSOLWIDTH
 40
0.25
  9
$PSOLHEIGHT
 40
4.0
  9
$LOFTANG1
 40
1.570796
  9
$LOFTANG2
 40
1.570796
  9
$LOFTMAG1
 40
0.0
  9
$LOFTMAG2
 40
0.0
  9
$LOFTPARAM
 70
     7
  9
$LOFTNORMALS
280
     1
  9
$LATITUDE
 40
37.795
  9
$LONGITUDE
 40
-122.394
  9
$NORTHDIRECTION
 40
0.0
  9
$TIMEZONE
 70
 -8000
  9
$LIGHTGLYPHDISPLAY
280
     1
  9
$TILEMODELIGHTSYNCH
280
     1
  9
$CMATERIAL
347
11
  9
$SOLIDHIST
280
     0
  9
$SHOWHIST
280
     1
  9
$DWFFRAME
280
     2
  9
$DGNFRAME
280
     0
  9
$REALWORLDSCALE
290
     1
  9
$INTERFERECOLOR
 62
     1
  9
$INTERFEREOBJVS
345
33
  9
$INTERFEREVPVS
346
30
  9
$CSHADOW
280
     0
  9
$SHADOWPLANELOCATION
 40
0.0
  0
ENDSEC
  0
SECTION
  2
CLASSES
  0
CLASS
  1
ACDBDICTIONARYWDFLT
  2
AcDbDictionaryWithDefault
  3
ObjectDBX Classes
 90
        0
 91
        1
280
     0
281
     0
  0
CLASS
  1
MATERIAL
  2
AcDbMaterial
  3
ObjectDBX Classes
 90
     1153
 91
        3
280
     0
281
     0
  0
CLASS
  1
VISUALSTYLE
  2
AcDbVisualStyle
  3
ObjectDBX Classes
 90
     4095
 91
       24
280
     0
281
     0
  0
CLASS
  1
SCALE
  2
AcDbScale
  3
ObjectDBX Classes
 90
     1153
 91
       33
280
     0
281
     0
  0
CLASS
  1
TABLESTYLE
  2
AcDbTableStyle
  3
ObjectDBX Classes
 90
     4095
 91
        1
280
     0
281
     0
  0
CLASS
  1
MLEADERSTYLE
  2
AcDbMLeaderStyle
  3
ACDB_MLEADERSTYLE_CLASS
 90
     4095
 91
        1
280
     0
281
     0
  0
CLASS
  1
ACDBSECTIONVIEWSTYLE
  2
AcDbSectionViewStyle
  3
ObjectDBX Classes
 90
     1025
 91
        1
280
     0
281
     0
  0
CLASS
  1
ACDBDETAILVIEWSTYLE
  2
AcDbDetailViewStyle
  3
ObjectDBX Classes
 90
     1025
 91
        1
280
     0
281
     0
  0
CLASS
  1
ACMESCOPE
  2
AcMeScope
  3
AcMeServices
 90
     1024
 91
        1
280
     0
281
     0
  0
CLASS
  1
ACMECOMMANDHISTORY
  2
AcMeCommandHistory
  3
AcMeServices
 90
     1024
 91
        1
280
     0
281
     0
  0
CLASS
  1
ACIMSYSVARMAN
  2
AcImSysVarManager
  3
AcMeServices
 90
     1024
 91
        1
280
     0
281
     0
  0
CLASS
  1
ACIMINTSYSVAR
  2
AcImIntSysVar
  3
AcMeServices
 90
     1024
 91
        1
280
     0
281
     0
  0
CLASS
  1
ACMESTATEMGR
  2
AcMeStateMgr
  3
AcMeServices
 90
     1024
 91
        1
280
     0
281
     0
  0
CLASS
  1
ACGREFMASTER
  2
AcGrefMaster
  3
AcAttribServices
 90
     1024
 91
        1
280
     0
281
     0
  0
CLASS
  1
SORTENTSTABLE
  2
AcDbSortentsTable
  3
ObjectDBX Classes
 90
        0
 91
        6
280
     0
281
     0
  0
CLASS
  1
IMAGE
  2
AcDbRasterImage
  3
ISM
 90
     2175
 91
        1
280
     0
281
     1
  0
CLASS
  1
IMAGEDEF
  2
AcDbRasterImageDef
  3
ISM
 90
        0
 91
        1
280
     0
281
     0
  0
CLASS
  1
IMAGEDEF_REACTOR
  2
AcDbRasterImageDefReactor
  3
ISM
 90
        1
 91
        2
280
     0
281
     0
  0
CLASS
  1
RASTERVARIABLES
  2
AcDbRasterVariables
  3
ISM
 90
        0
 91
        1
280
     0
281
     0
  0
CLASS
  1
DICTIONARYVAR
  2
AcDbDictionaryVar
  3
ObjectDBX Classes
 90
        0
 91
        6
280
     0
281
     0
  0
CLASS
  1
CELLSTYLEMAP
  2
AcDbCellStyleMap
  3
ObjectDBX Classes
 90
     1152
 91
        1
280
     0
281
     0
  0
ENDSEC
  0
SECTION
  2
TABLES
  0
TABLE
  2
VPORT
  5
8
330
0
100
AcDbSymbolTable
 70
     1
1001
ACAD
1000
DbSaveVer
1071
      246
  0
VPORT
  5
57
330
8
100
AcDbSymbolTableRecord
100
AcDbViewportTableRecord
  2
*Active
 70
     0
 10
0.0
 20
0.0
 11
1.0
 21
1.0
 12
8.5
 22
5.5
 13
0.0
 23
0.0
 14
0.5
 24
0.5
 15
0.0
 25
0.0
 16
0.0
 26
0.0
 36
1.0
 17
0.0
 27
0.0
 37
0.0
 40
11.0
 41
1.7981
 42
50.0
 43
0.0
 44
0.0
 50
0.0
 51
0.0
 71
     0
 72
 20000
 73
     1
 74
     0
 75
     0
 76
     0
 77
     0
 78
     0
281
     0
 65
     1
110
0.0
120
0.0
130
0.0
111
1.0
121
0.0
131
0.0
112
0.0
122
1.0
132
0.0
 79
     0
146
0.0
348
2F
 60
     3
 61
     5
292
     1
282
     1
141
0.0
142
0.0
 63
   250
421
  3355443
  0
ENDTAB
  0
TABLE
  2
LTYPE
  5
5
330
0
100
AcDbSymbolTable
 70
    10
  0
LTYPE
  5
5B
330
5
100
AcDbSymbolTableRecord
100
AcDbLinetypeTableRecord
  2
ByBlock
 70
     0
  3

 72
    65
 73
     0
 40
0.0
  0
LTYPE
  5
5C
330
5
100
AcDbSymbolTableRecord
100
AcDbLinetypeTableRecord
  2
ByLayer
 70
     0
  3

 72
    65
 73
     0
 40
0.0
  0
LTYPE
  5
5D
330
5
100
AcDbSymbolTableRecord
100
AcDbLinetypeTableRecord
  2
Continuous
 70
     0
  3
Solid line
 72
    65
 73
     0
 40
0.0
  0
LTYPE
  5
81
330
5
100
AcDbSymbolTableRecord
100
AcDbLinetypeTableRecord
  2
HIDDEN
 70
     0
  3
Hidden __ __ __ __ __ __ __ __ __ __ __ __ __ _
 72
    65
 73
     2
 40
0.375
 49
0.25
 74
     0
 49
-0.125
 74
     0
  0
LTYPE
  5
82
330
5
100
AcDbSymbolTableRecord
100
AcDbLinetypeTableRecord
  2
PHANTOM2
 70
     0
  3
Phantom (.5x) ___ _ _ ___ _ _ ___ _ _ ___ _ _
 72
    65
 73
     6
 40
1.25
 49
0.625
 74
     0
 49
-0.125
 74
     0
 49
0.125
 74
     0
 49
-0.125
 74
     0
 49
0.125
 74
     0
 49
-0.125
 74
     0
  0
LTYPE
  5
83
330
5
100
AcDbSymbolTableRecord
100
AcDbLinetypeTableRecord
  2
CENTER
 70
     0
  3
Center ____ _ ____ _ ____ _ ____ _ ____ _ ____
 72
    65
 73
     4
 40
2.0
 49
1.25
 74
     0
 49
-0.25
 74
     0
 49
0.25
 74
     0
 49
-0.25
 74
     0
  0
LTYPE
  5
9C
330
5
100
AcDbSymbolTableRecord
100
AcDbLinetypeTableRecord
  2
CENTER2
 70
     0
  3
Center (.5x) ___ _ ___ _ ___ _ ___ _ ___ _ ___
 72
    65
 73
     4
 40
1.125
 49
0.75
 74
     0
 49
-0.125
 74
     0
 49
0.125
 74
     0
 49
-0.125
 74
     0
  0
LTYPE
  5
9D
330
5
100
AcDbSymbolTableRecord
100
AcDbLinetypeTableRecord
  2
HIDDEN2
 70
     0
  3
Hidden (.5x) _ _ _ _ _ _ _ _ _ _ _ _ _ _ _ _ _
 72
    65
 73
     2
 40
0.1875
 49
0.125
 74
     0
 49
-0.0625
 74
     0
  0
LTYPE
  5
9E
330
5
100
AcDbSymbolTableRecord
100
AcDbLinetypeTableRecord
  2
Amconstr
 70
     0
  3
_______________________
 72
    65
 73
     2
 40
9999.0
 49
9999.0
 74
     0
 49
0.0
 74
     0
  0
LTYPE
  5
9F
330
5
100
AcDbSymbolTableRecord
100
AcDbLinetypeTableRecord
  2
Amzigzag2
 70
     0
  3
/\/-/\/-/\/-/\/-/\/-/\/
 72
    65
 73
     2
 40
0.4401
 49
0.0001
 74
     4
 75
   136
340
99
 46
0.0016
 50
0.0
 44
0.0
 45
0.0
 49
-0.44
 74
     0
  0
LTYPE
  5
A0
330
5
100
AcDbSymbolTableRecord
100
AcDbLinetypeTableRecord
  2
ACANSTGB
 70
     0
  3
__ . . __ . .
 72
    65
 73
     6
 40
0.354331
 49
0.15748
 74
     0
 49
-0.03937
 74
     0
 49
0.03937
 74
     0
 49
-0.03937
 74
     0
 49
0.03937
 74
     0
 49
-0.03937
 74
     0
  0
LTYPE
  5
A1
330
5
100
AcDbSymbolTableRecord
100
AcDbLinetypeTableRecord
  2
ACANSTGL
 70
     0
  3
_ _ _ _ _
 72
    65
 73
     2
 40
0.11811
 49
0.07874
 74
     0
 49
-0.03937
 74
     0
  0
ENDTAB
  0
TABLE
  2
LAYER
  5
2
330
0
100
AcDbSymbolTable
 70
    12
  0
LAYER
  5
54
330
2
100
AcDbSymbolTableRecord
100
AcDbLayerTableRecord
  2
0
 70
     0
 62
     7
  6
Continuous
370
    -3
390
F
347
21
348
0
1001
AcAecLayerStandard
1000

1000

  0
LAYER
  5
79
330
2
100
AcDbSymbolTableRecord
100
AcDbLayerTableRecord
  2
Defpoints
 70
     0
 62
     7
  6
Continuous
290
     0
370
    -3
390
F
347
21
348
0
1001
AcAecLayerStandard
1000

1000

  0
LAYER
  5
BB
330
2
100
AcDbSymbolTableRecord
100
AcDbLayerTableRecord
  2
Visible
 70
     0
 62
     7
  6
Continuous
370
    25
390
F
347
21
348
0
  0
LAYER
  5
16B
330
2
100
AcDbSymbolTableRecord
100
AcDbLayerTableRecord
  2
Hidden
 70
     0
 62
     7
  6
HIDDEN2
370
    13
390
F
347
21
348
0
  0
LAYER
  5
1AB
330
2
100
AcDbSymbolTableRecord
100
AcDbLayerTableRecord
  2
Titleblock
 70
     0
 62
     7
  6
Continuous
370
    -3
390
F
347
21
348
0
1001
AcAecLayerStandard
1000

1000

1001
AcCmTransparency
1071
        0
  0
LAYER
  5
1D0
330
2
100
AcDbSymbolTableRecord
100
AcDbLayerTableRecord
  2
Border
 70
     0
 62
     7
  6
Continuous
370
    -3
390
F
347
21
348
0
1001
AcAecLayerStandard
1000

1000

1001
AcCmTransparency
1071
        0
  0
LAYER
  5
1F1
330
2
100
AcDbSymbolTableRecord
100
AcDbLayerTableRecord
  2
Center Lines
 70
     0
 62
     7
  6
CENTER2
370
    13
390
F
347
21
348
0
  0
LAYER
  5
1F7
330
2
100
AcDbSymbolTableRecord
100
AcDbLayerTableRecord
  2
Dimensions
 70
     0
 62
     7
  6
Continuous
370
    13
390
F
347
21
348
0
  0
LAYER
  5
252
330
2
100
AcDbSymbolTableRecord
100
AcDbLayerTableRecord
  2
Annotations
 70
     0
 62
     7
  6
Continuous
370
    13
390
F
347
21
348
0
  0
ENDTAB
  0
TABLE
  2
STYLE
  5
3
330
0
100
AcDbSymbolTable
 70
     4
  0
STYLE
  5
55
330
3
100
AcDbSymbolTableRecord
100
AcDbTextStyleTableRecord
  2
Standard
 70
     0
 40
0.0
 41
1.0
 50
0.0
 71
     0
 42
0.12
  3
arial.ttf
  4

1001
ACAD
1000
Arial
1071
       34
  0
STYLE
  5
5A
330
3
100
AcDbSymbolTableRecord
100
AcDbTextStyleTableRecord
  2
Annotative
 70
     0
 40
0.0
 41
1.0
 50
0.0
 71
     0
 42
0.2
  3
txt
  4

1001
AcadAnnotative
1000
AnnotativeData
1002
{
1070
     1
1070
     1
1002
}
  0
STYLE
  5
99
330
3
100
AcDbSymbolTableRecord
100
AcDbTextStyleTableRecord
  2

 70
     1
 40
0.0
 41
1.0
 50
0.0
 71
     0
 42
0.12
  3
genltshp.shx
  4

  0
STYLE
  5
9A
330
3
100
AcDbSymbolTableRecord
100
AcDbTextStyleTableRecord
  2
ACANSGDT
 70
     0
 40
0.0
 41
1.0
 50
0.0
 71
     0
 42
0.12
  3
amgdt.shx
  4

  0
ENDTAB
  0
TABLE
  2
VIEW
  5
6
330
0
100
AcDbSymbolTable
 70
     0
  0
ENDTAB
  0
TABLE
  2
UCS
  5
7
330
0
100
AcDbSymbolTable
 70
     0
  0
ENDTAB
  0
TABLE
  2
APPID
  5
9
330
0
100
AcDbSymbolTable
 70
    26
  0
APPID
  5
56
330
9
100
AcDbSymbolTableRecord
100
AcDbRegAppTableRecord
  2
ACAD
 70
     0
  0
APPID
  5
5E
330
9
100
AcDbSymbolTableRecord
100
AcDbRegAppTableRecord
  2
AcadAnnotative
 70
     0
  0
APPID
  5
78
330
9
100
AcDbSymbolTableRecord
100
AcDbRegAppTableRecord
  2
ACAD_PSEXT
 70
     0
  0
APPID
  5
7A
330
9
100
AcDbSymbolTableRecord
100
AcDbRegAppTableRecord
  2
MCAD_NO_VIS
 70
     0
  0
APPID
  5
7B
330
9
100
AcDbSymbolTableRecord
100
AcDbRegAppTableRecord
  2
ACAD_TEMP_GRAPHIC
 70
     0
  0
APPID
  5
84
330
9
100
AcDbSymbolTableRecord
100
AcDbRegAppTableRecord
  2
ACAD_DSTYLE_DIMJAG
 70
     0
  0
APPID
  5
85
330
9
100
AcDbSymbolTableRecord
100
AcDbRegAppTableRecord
  2
ACAD_DSTYLE_DIMTALN
 70
     0
  0
APPID
  5
86
330
9
100
AcDbSymbolTableRecord
100
AcDbRegAppTableRecord
  2
ACAD_NAV_VCDISPLAY
 70
     0
  0
APPID
  5
87
330
9
100
AcDbSymbolTableRecord
100
AcDbRegAppTableRecord
  2
AcAecLayerStandard
 70
     0
  0
APPID
  5
88
330
9
100
AcDbSymbolTableRecord
100
AcDbRegAppTableRecord
  2
AcCmTransparency
 70
     0
  0
APPID
  5
89
330
9
100
AcDbSymbolTableRecord
100
AcDbRegAppTableRecord
  2
ACAD_DSTYLE_DIMBREAK
 70
     0
  0
APPID
  5
8A
330
9
100
AcDbSymbolTableRecord
100
AcDbRegAppTableRecord
  2
ACAD_DSTYLE_DIMRADIAL_EXTENSION
 70
     0
  0
APPID
  5
8B
330
9
100
AcDbSymbolTableRecord
100
AcDbRegAppTableRecord
  2
FUSIONTITLEBLOCK
 70
     0
  0
APPID
  5
8C
330
9
100
AcDbSymbolTableRecord
100
AcDbRegAppTableRecord
  2
FUSIONCURRENTTITLEBLOCK
 70
     0
  0
APPID
  5
8D
330
9
100
AcDbSymbolTableRecord
100
AcDbRegAppTableRecord
  2
AcSynergy
 70
     0
  0
APPID
  5
8E
330
9
100
AcDbSymbolTableRecord
100
AcDbRegAppTableRecord
  2
ACAD_VIEW_EDGE_ID
 70
     0
  0
APPID
  5
8F
330
9
100
AcDbSymbolTableRecord
100
AcDbRegAppTableRecord
  2
GENIUS_GENSCREG_15
 70
     0
  0
APPID
  5
90
330
9
100
AcDbSymbolTableRecord
100
AcDbRegAppTableRecord
  2
GENIUS_GENOBJ-N-SDF_13
 70
     0
  0
APPID
  5
91
330
9
100
AcDbSymbolTableRecord
100
AcDbRegAppTableRecord
  2
GENIUS_GENODEF_13
 70
     0
  0
APPID
  5
92
330
9
100
AcDbSymbolTableRecord
100
AcDbRegAppTableRecord
  2
ACAD_DIMASSOC_CALC_DIMLFAC
 70
     0
  0
APPID
  5
93
330
9
100
AcDbSymbolTableRecord
100
AcDbRegAppTableRecord
  2
ACAD_DIMASSOC_DIMLFAC
 70
     0
  0
APPID
  5
94
330
9
100
AcDbSymbolTableRecord
100
AcDbRegAppTableRecord
  2
ACAD_DIMASSOC_OVERRIDDEN_DIMLFAC
 70
     0
  0
APPID
  5
95
330
9
100
AcDbSymbolTableRecord
100
AcDbRegAppTableRecord
  2
FD_ATT_APPNAME
 70
     0
  0
APPID
  5
96
330
9
100
AcDbSymbolTableRecord
100
AcDbRegAppTableRecord
  2
ACAD_TC
 70
     0
  0
APPID
  5
97
330
9
100
AcDbSymbolTableRecord
100
AcDbRegAppTableRecord
  2
ACAD_DSTYLE_DIMJAG_POSITION
 70
     0
  0
APPID
  5
98
330
9
100
AcDbSymbolTableRecord
100
AcDbRegAppTableRecord
  2
ACATTRIBSERVICES
 70
     0
  0
ENDTAB
  0
TABLE
  2
DIMSTYLE
  5
A
330
0
100
AcDbSymbolTable
 70
     2
100
AcDbDimStyleTable
 71
     1
340
58
  0
DIMSTYLE
105
58
102
{ACAD_REACTORS
330
1F6
330
205
330
20F
330
219
330
227
330
235
330
243
102
}
330
A
100
AcDbSymbolTableRecord
100
AcDbDimStyleTableRecord
  2
Standard
 70
     0
  3
in
  4
mm
 41
0.12
 42
0.07
 43
0.36
 44
0.07
 47
0.01
 48
0.01
 78
    12
 79
     3
 90
        1
140
0.12
141
0.0
147
0.05
176
   256
177
   256
178
   256
179
     2
271
     2
272
     2
284
    12
285
    12
286
    12
340
55
  0
DIMSTYLE
105
59
330
A
100
AcDbSymbolTableRecord
100
AcDbDimStyleTableRecord
  2
Annotative
 70
     0
  3
in
  4
mm
 40
0.0
 41
0.12
 42
0.07
 43
0.36
 44
0.07
 78
    12
 79
     3
140
0.12
147
0.05
179
     2
271
     2
272
     2
284
    12
285
    12
286
    12
340
55
1001
AcadAnnotative
1000
AnnotativeData
1002
{
1070
     1
1070
     1
1002
}
  0
ENDTAB
  0
TABLE
  2
BLOCK_RECORD
  5
1
330
0
100
AcDbSymbolTable
 70
    21
  0
BLOCK_RECORD
  5
70
102
{ACAD_XDICTIONARY
360
B4
102
}
330
1
100
AcDbSymbolTableRecord
100
AcDbBlockTableRecord
  2
*Model_Space
340
73
 70
     0
280
     1
281
     0
  0
BLOCK_RECORD
  5
6C
330
1
100
AcDbSymbolTableRecord
100
AcDbBlockTableRecord
  2
*Paper_Space
340
6F
 70
     0
280
     1
281
     0
  0
BLOCK_RECORD
  5
74
330
1
100
AcDbSymbolTableRecord
100
AcDbBlockTableRecord
  2
*Paper_Space0
340
77
 70
     0
280
     1
281
     0
  0
BLOCK_RECORD
  5
1AC
102
{ACAD_XDICTIONARY
360
1AD
102
}
330
1
100
AcDbSymbolTableRecord
100
AcDbBlockTableRecord
  2
Shower
340
0
102
{BLKREFS
331
1AA
102
}
 70
     1
280
     1
281
     0
1001
FUSIONTITLEBLOCK
1000
TitleBlock
  0
BLOCK_RECORD
  5
1D1
330
1
100
AcDbSymbolTableRecord
100
AcDbBlockTableRecord
  2
ANSI_B_SHEET
340
0
310
2800000020000000200000000100080000000000000400000000000000000000000000000000000000000000000080000080000000808000800000008000800080800000C0C0C000C0DCC000F0CAA6000020400000206000002080000020A0000020C0000020E00000400000004020000040400000406000004080000040A0
310
000040C0000040E00000600000006020000060400000606000006080000060A0000060C0000060E00000800000008020000080400000806000008080000080A0000080C0000080E00000A0000000A0200000A0400000A0600000A0800000A0A00000A0C00000A0E00000C0000000C0200000C0400000C0600000C0800000C0
310
A00000C0C00000C0E00000E0000000E0200000E0400000E0600000E0800000E0A00000E0C00000E0E00040000000400020004000400040006000400080004000A0004000C0004000E00040200000402020004020400040206000402080004020A0004020C0004020E000404000004040200040404000404060004040800040
310
40A0004040C0004040E00040600000406020004060400040606000406080004060A0004060C0004060E00040800000408020004080400040806000408080004080A0004080C0004080E00040A0000040A0200040A0400040A0600040A0800040A0A00040A0C00040A0E00040C0000040C0200040C0400040C0600040C08000
310
40C0A00040C0C00040C0E00040E0000040E0200040E0400040E0600040E0800040E0A00040E0C00040E0E00080000000800020008000400080006000800080008000A0008000C0008000E00080200000802020008020400080206000802080008020A0008020C0008020E00080400000804020008040400080406000804080
310
008040A0008040C0008040E00080600000806020008060400080606000806080008060A0008060C0008060E00080800000808020008080400080806000808080008080A0008080C0008080E00080A0000080A0200080A0400080A0600080A0800080A0A00080A0C00080A0E00080C0000080C0200080C0400080C0600080C0
310
800080C0A00080C0C00080C0E00080E0000080E0200080E0400080E0600080E0800080E0A00080E0C00080E0E000C0000000C0002000C0004000C0006000C0008000C000A000C000C000C000E000C0200000C0202000C0204000C0206000C0208000C020A000C020C000C020E000C0400000C0402000C0404000C0406000C0
310
408000C040A000C040C000C040E000C0600000C0602000C0604000C0606000C0608000C060A000C060C000C060E000C0800000C0802000C0804000C0806000C0808000C080A000C080C000C080E000C0A00000C0A02000C0A04000C0A06000C0A08000C0A0A000C0A0C000C0A0E000C0C00000C0C02000C0C04000C0C06000
310
C0C08000C0C0A000F0FBFF00A4A0A000808080000000FF0000FF000000FFFF00FF000000FF00FF00FFFF0000FFFFFF0049494949494949494949494949494949494949494949494949494949494949494949494949494949494949494949494949494949494949494949494949494949494949494949494949494949494949
310
494949494949494949494949494949494949494949494949494949494949494949494949494949494949494949494949494949494949494949494949494949494949494949494949494949494949494949494949494949494949494949494949494949494949494949494949494949494949FFFF4949494949494949494949
310
494949494949494949494949494949FFFF4949FFFFFFFFFFFFFFFFFFFFFFFFFFFFFFFFFFFFFFFFFFFFFFFFFFFFFFFFFFFF494949FF4949494949494949494949494949494949494949494949494949FF49494949FF4949494949494949494949494949494949494949494949494949FF49494949FF49494949494949494949
310
49494949494949494949494949494949FF49494949FF4949494949494949494949494949494949494949494949494949FF49494949FF4949494949494949494949494949494949494949494949494949FF49494949FF4949494949494949494949494949494949494949494949494949FF49494949FF494949494949494949
310
4949494949494949494949494949494949FF49494949FF4949494949494949494949494949494949494949494949494949FF49494949FF4949494949494949494949494949494949494949494949494949FF49494949FF4949494949494949494949494949494949494949494949494949FF49494949FF4949494949494949
310
494949494949494949494949494949494949FF49494949FF4949494949494949494949494949494949494949494949494949FF49494949FF4949494949494949494949494949494949494949494949494949FF49494949FF4949494949494949494949494949494949494949494949494949FF49494949FF49494949494949
310
49494949494949494949494949494949494949FF49494949FF4949494949494949494949494949494949494949494949494949FF494949FFFFFFFFFFFFFFFFFFFFFFFFFFFFFFFFFFFFFFFFFFFFFFFFFFFFFFFFFFFF4949FFFF4949494949494949494949494949494949494949494949494949FFFF49494949494949494949
310
49494949494949494949494949494949494949494949494949494949494949494949494949494949494949494949494949494949494949494949494949494949494949494949494949494949494949494949494949494949494949494949494949494949494949494949494949494949494949494949494949494949494949
310
4949494949494949494949494949494949494949494949494949494949494949494949494949494949494949494949494949494949494949
102
{BLKREFS
331
1CF
102
}
 70
     1
280
     1
281
     0
  0
BLOCK_RECORD
  5
1F2
330
1
100
AcDbSymbolTableRecord
100
AcDbBlockTableRecord
  2
*U6
340
0
102
{BLKREFS
331
1F0
102
}
 70
     0
280
     1
281
     0
  0
BLOCK_RECORD
  5
1F8
330
1
100
AcDbSymbolTableRecord
100
AcDbBlockTableRecord
  2
*D7
340
0
 70
     0
280
     1
281
     0
  0
BLOCK_RECORD
  5
206
330
1
100
AcDbSymbolTableRecord
100
AcDbBlockTableRecord
  2
*D8
340
0
 70
     0
280
     1
281
     0
  0
BLOCK_RECORD
  5
210
330
1
100
AcDbSymbolTableRecord
100
AcDbBlockTableRecord
  2
*D9
340
0
 70
     0
280
     1
281
     0
  0
BLOCK_RECORD
  5
21A
330
1
100
AcDbSymbolTableRecord
100
AcDbBlockTableRecord
  2
*D10
340
0
 70
     0
280
     1
281
     0
  0
BLOCK_RECORD
  5
228
330
1
100
AcDbSymbolTableRecord
100
AcDbBlockTableRecord
  2
*D11
340
0
 70
     0
280
     1
281
     0
  0
BLOCK_RECORD
  5
236
330
1
100
AcDbSymbolTableRecord
100
AcDbBlockTableRecord
  2
*D12
340
0
 70
     0
280
     1
281
     0
  0
BLOCK_RECORD
  5
244
330
1
100
AcDbSymbolTableRecord
100
AcDbBlockTableRecord
  2
*D13
340
0
 70
     0
280
     1
281
     0
  0
BLOCK_RECORD
  5
254
330
1
100
AcDbSymbolTableRecord
100
AcDbBlockTableRecord
  2
*D14
340
0
 70
     0
280
     1
281
     0
  0
BLOCK_RECORD
  5
261
330
1
100
AcDbSymbolTableRecord
100
AcDbBlockTableRecord
  2
*D15
340
0
 70
     0
280
     1
281
     0
  0
BLOCK_RECORD
  5
26A
330
1
100
AcDbSymbolTableRecord
100
AcDbBlockTableRecord
  2
*D16
340
0
 70
     0
280
     1
281
     0
  0
BLOCK_RECORD
  5
273
330
1
100
AcDbSymbolTableRecord
100
AcDbBlockTableRecord
  2
*D17
340
0
 70
     0
280
     1
281
     0
  0
BLOCK_RECORD
  5
280
330
1
100
AcDbSymbolTableRecord
100
AcDbBlockTableRecord
  2
*D18
340
0
 70
     0
280
     1
281
     0
  0
BLOCK_RECORD
  5
28D
330
1
100
AcDbSymbolTableRecord
100
AcDbBlockTableRecord
  2
*D19
340
0
 70
     0
280
     1
281
     0
  0
BLOCK_RECORD
  5
29A
330
1
100
AcDbSymbolTableRecord
100
AcDbBlockTableRecord
  2
*D20
340
0
 70
     0
280
     1
281
     0
  0
ENDTAB
  0
ENDSEC
  0
SECTION
  2
BLOCKS
  0
BLOCK
  5
71
330
70
100
AcDbEntity
  8
0
100
AcDbBlockBegin
  2
*Model_Space
 70
     0
 10
0.0
 20
0.0
 30
0.0
  3
*Model_Space
  1

  0
ENDBLK
  5
72
330
70
100
AcDbEntity
  8
0
100
AcDbBlockEnd
  0
BLOCK
  5
6D
330
6C
100
AcDbEntity
 67
     1
  8
0
100
AcDbBlockBegin
  2
*Paper_Space
 70
     0
 10
0.0
 20
0.0
 30
0.0
  3
*Paper_Space
  1

  0
ENDBLK
  5
6E
330
6C
100
AcDbEntity
 67
     1
  8
0
100
AcDbBlockEnd
  0
BLOCK
  5
75
330
74
100
AcDbEntity
 67
     1
  8
0
100
AcDbBlockBegin
  2
*Paper_Space0
 70
     0
 10
0.0
 20
0.0
 30
0.0
  3
*Paper_Space0
  1

  0
ENDBLK
  5
76
330
74
100
AcDbEntity
 67
     1
  8
0
100
AcDbBlockEnd
  0
BLOCK
  5
1AF
330
1AC
100
AcDbEntity
  8
0
100
AcDbBlockBegin
  2
Shower
 70
     2
 10
0.0
 20
0.0
 30
0.0
  3
Shower
  1

  0
LWPOLYLINE
  5
1B0
330
1AC
100
AcDbEntity
  8
Titleblock
100
AcDbPolyline
 90
        4
 70
     1
 43
0.0
 10
0.0
 20
0.0
 10
-4.9375
 20
0.0
 10
-4.9375
 20
2.5
 10
0.0
 20
2.5
  0
IMAGE
  5
1B1
330
1AC
100
AcDbEntity
  8
Titleblock
  6
Continuous
160
               140
310
8C0000000100000084000000060000000500000000000000008013C000B87FA8928AB03F000000000000000000000000008013C035B4911D6523F03F000000000000000001000000008001C035B4911D6523F03F000000000000000001000000008001C000B87FA8928AB03F000000000000000000000000008013C000B87F
310
A8928AB03F0000000000000000
370
     0
100
AcDbRasterImage
 90
        0
 10
-4.875
 20
0.064614
 30
0.0
 11
0.0028349156118143
 21
0.0
 31
0.0
 12
0.0
 22
0.0028349156118143
 32
0.0
 13
948.0
 23
333.0
340
1B2
 70
    15
280
     0
281
    50
282
    50
283
     0
290
     0
360
1B4
 71
     1
 91
        2
 14
-0.5
 24
-0.5
 14
947.5
 24
332.5
  0
LWPOLYLINE
  5
1B6
330
1AC
100
AcDbEntity
  8
Titleblock
  6
Continuous
370
    25
100
AcDbPolyline
 90
        4
 70
     1
 43
0.0
 10
0.0
 20
1.0625
 10
-4.9375
 20
1.061638
 10
-4.9375
 20
0.0
 10
0.0
 20
0.0
  0
LWPOLYLINE
  5
1B7
330
1AC
100
AcDbEntity
  8
Titleblock
  6
Continuous
370
    25
100
AcDbPolyline
 90
        4
 70
     1
 43
0.0
 10
-1.75
 20
2.5
 10
0.0
 20
2.5
 10
0.0
 20
2.5
 10
-1.75
 20
2.5
  0
ATTDEF
  5
1B8
330
1AC
100
AcDbEntity
  8
Titleblock
  6
Continuous
370
    25
100
AcDbText
 10
-3.6875
 20
2.3125
 30
0.0
 40
0.12
  1

100
AcDbAttributeDefinition
280
     0
  3

  2
PROJECT
 70
     0
280
     1
  0
MTEXT
  5
1B9
330
1AC
100
AcDbEntity
  8
Titleblock
  6
Continuous
370
    25
100
AcDbMText
 10
-4.875
 20
1.653875
 30
0.0
 40
0.12
 41
0.6875
 46
0.0
 71
     1
 72
     5
  1
Description:
 73
     1
 44
1.0
1001
ACAD
1000
ACAD_MTEXT_COLUMN_INFO_BEGIN
1070
    75
1070
     2
1070
    79
1070
     0
1070
    76
1070
     1
1070
    78
1070
     0
1070
    48
1040
0.6875
1070
    49
1040
0.6
1070
    50
1070
     1
1040
0.0
1000
ACAD_MTEXT_COLUMN_INFO_END
  0
ATTDEF
  5
1BA
330
1AC
100
AcDbEntity
  8
Titleblock
  6
Continuous
370
    25
100
AcDbText
 10
-1.6875
 20
0.6875
 30
0.0
 40
0.12
  1

100
AcDbAttributeDefinition
280
     0
  3

  2
DRAWN_DATE
 70
     0
280
     1
  0
ATTDEF
  5
1BB
330
1AC
100
AcDbEntity
  8
Titleblock
  6
Continuous
370
    25
100
AcDbText
 10
-4.3125
 20
1.8125
 30
0.0
 40
0.3048
  1

100
AcDbAttributeDefinition
280
     0
  3

  2
TITLE_1
 70
     0
280
     1
  0
ATTDEF
  5
1BC
330
1AC
100
AcDbEntity
  8
Titleblock
  6
Continuous
370
    25
100
AcDbText
 10
-1.6875
 20
0.91994
 30
0.0
 40
0.12
  1

100
AcDbAttributeDefinition
280
     0
  3

  2
SCALE
 70
     0
280
     1
  0
LWPOLYLINE
  5
1BD
330
1AC
100
AcDbEntity
  8
Titleblock
  6
Continuous
370
    25
100
AcDbPolyline
 90
        4
 70
     1
 43
0.0
 10
0.0
 20
1.0625
 10
0.0
 20
1.0625
 10
0.0
 20
0.0
 10
0.0
 20
0.0
  0
LWPOLYLINE
  5
1BE
330
1AC
100
AcDbEntity
  8
Titleblock
  6
Continuous
370
    25
100
AcDbPolyline
 90
        4
 70
     1
 43
0.0
 10
0.0
 20
1.0625
 10
0.0
 20
1.0625
 10
0.0
 20
0.0
 10
0.0
 20
0.0
  0
LINE
  5
1BF
330
1AC
100
AcDbEntity
  8
Titleblock
  6
Continuous
370
    25
100
AcDbLine
 10
-2.125
 20
1.062165
 30
0.0
 11
-2.125
 21
0.0
 31
0.0
  0
LWPOLYLINE
  5
1C0
330
1AC
100
AcDbEntity
  8
Titleblock
  6
Continuous
370
    25
100
AcDbPolyline
 90
        4
 70
     1
 43
0.0
 10
-4.9375
 20
2.5
 10
0.0
 20
2.5
 10
0.0
 20
2.5
 10
-4.9375
 20
2.5
  0
LINE
  5
1C1
330
1AC
100
AcDbEntity
  8
Titleblock
  6
Continuous
370
    25
100
AcDbLine
 10
-4.9375
 20
2.25
 30
0.0
 11
0.0
 21
2.25
 31
0.0
  0
LINE
  5
1C2
330
1AC
100
AcDbEntity
  8
Titleblock
  6
Continuous
370
    25
100
AcDbLine
 10
-4.9375
 20
1.6875
 30
0.0
 11
0.0
 21
1.6875
 31
0.0
  0
MTEXT
  5
1C3
330
1AC
100
AcDbEntity
  8
Titleblock
100
AcDbMText
 10
-4.875
 20
2.467284
 30
0.0
 40
0.12
 41
0.375
 46
0.0
 71
     1
 72
     5
  1
Project:
 73
     1
 44
1.0
1001
ACAD
1000
ACAD_MTEXT_COLUMN_INFO_BEGIN
1070
    75
1070
     2
1070
    79
1070
     0
1070
    76
1070
     1
1070
    78
1070
     0
1070
    48
1040
0.375
1070
    49
1040
0.6
1070
    50
1070
     1
1040
0.0
1000
ACAD_MTEXT_COLUMN_INFO_END
  0
MTEXT
  5
1C4
330
1AC
100
AcDbEntity
  8
Titleblock
100
AcDbMText
 10
-2.0625
 20
1.045477
 30
0.0
 40
0.075
 41
0.375
 46
0.0
 71
     1
 72
     5
  1
Scale:
 73
     1
 44
1.0
1001
ACAD
1000
ACAD_MTEXT_COLUMN_INFO_BEGIN
1070
    75
1070
     2
1070
    79
1070
     0
1070
    76
1070
     1
1070
    78
1070
     0
1070
    48
1040
0.375
1070
    49
1040
0.6
1070
    50
1070
     1
1040
0.0
1000
ACAD_MTEXT_COLUMN_INFO_END
  0
MTEXT
  5
1C5
330
1AC
100
AcDbEntity
  8
Titleblock
100
AcDbMText
 10
-2.0625
 20
0.857735
 30
0.0
 40
0.075
 41
0.375
 46
0.0
 71
     1
 72
     5
  1
Date Drawn:
 73
     1
 44
1.0
1001
ACAD
1000
ACAD_MTEXT_COLUMN_INFO_BEGIN
1070
    75
1070
     2
1070
    79
1070
     0
1070
    76
1070
     1
1070
    78
1070
     0
1070
    48
1040
0.375
1070
    49
1040
0.6
1070
    50
1070
     1
1040
0.0
1000
ACAD_MTEXT_COLUMN_INFO_END
  0
LINE
  5
1C6
330
1AC
100
AcDbEntity
  8
Titleblock
100
AcDbLine
 10
-2.125
 20
0.875
 30
0.0
 11
0.0
 21
0.875
 31
0.0
  0
LINE
  5
1C7
330
1AC
100
AcDbEntity
  8
Titleblock
100
AcDbLine
 10
-2.125
 20
0.625
 30
0.0
 11
0.0
 21
0.625
 31
0.0
  0
MTEXT
  5
1C8
330
1AC
100
AcDbEntity
  8
Titleblock
100
AcDbMText
 10
-4.875
 20
2.220603
 30
0.0
 40
0.12
 41
0.625
 46
0.0
 71
     1
 72
     5
  1
Title:
 73
     1
 44
1.0
1001
ACAD
1000
ACAD_MTEXT_COLUMN_INFO_BEGIN
1070
    75
1070
     2
1070
    79
1070
     0
1070
    76
1070
     1
1070
    78
1070
     0
1070
    48
1040
0.625
1070
    49
1040
0.6
1070
    50
1070
     1
1040
0.0
1000
ACAD_MTEXT_COLUMN_INFO_END
  0
ENDBLK
  5
1C9
330
1AC
100
AcDbEntity
  8
0
100
AcDbBlockEnd
  0
BLOCK
  5
1D2
330
1D1
100
AcDbEntity
  8
0
100
AcDbBlockBegin
  2
ANSI_B_SHEET
 70
     0
 10
0.0
 20
0.0
 30
0.0
  3
ANSI_B_SHEET
  1

  0
LINE
  5
1D3
330
1D1
100
AcDbEntity
  8
Border
100
AcDbLine
 10
0.0
 20
0.0
 30
0.0
 11
0.5
 21
0.0
 31
0.0
  0
LINE
  5
1D4
330
1D1
100
AcDbEntity
  8
Border
100
AcDbLine
 10
16.5
 20
0.0
 30
0.0
 11
17.0
 21
0.0
 31
0.0
  0
LINE
  5
1D5
330
1D1
100
AcDbEntity
  8
Border
100
AcDbLine
 10
0.62
 20
0.38
 30
0.0
 11
16.38
 21
0.38
 31
0.0
  0
LINE
  5
1D6
330
1D1
100
AcDbEntity
  8
Border
100
AcDbLine
 10
17.0
 20
0.0
 30
0.0
 11
17.0
 21
0.5
 31
0.0
  0
LINE
  5
1D7
330
1D1
100
AcDbEntity
  8
Border
100
AcDbLine
 10
17.0
 20
10.5
 30
0.0
 11
17.0
 21
11.0
 31
0.0
  0
LINE
  5
1D8
330
1D1
100
AcDbEntity
  8
Border
100
AcDbLine
 10
16.38
 20
0.38
 30
0.0
 11
16.38
 21
10.62
 31
0.0
  0
LINE
  5
1D9
330
1D1
100
AcDbEntity
  8
Border
100
AcDbLine
 10
17.0
 20
11.0
 30
0.0
 11
16.5
 21
11.0
 31
0.0
  0
LINE
  5
1DA
330
1D1
100
AcDbEntity
  8
Border
100
AcDbLine
 10
0.5
 20
11.0
 30
0.0
 11
0.0
 21
11.0
 31
0.0
  0
LINE
  5
1DB
330
1D1
100
AcDbEntity
  8
Border
100
AcDbLine
 10
16.38
 20
10.62
 30
0.0
 11
0.62
 21
10.62
 31
0.0
  0
LINE
  5
1DC
330
1D1
100
AcDbEntity
  8
Border
100
AcDbLine
 10
0.0
 20
11.0
 30
0.0
 11
0.0
 21
10.5
 31
0.0
  0
LINE
  5
1DD
330
1D1
100
AcDbEntity
  8
Border
100
AcDbLine
 10
0.0
 20
0.5
 30
0.0
 11
0.0
 21
0.0
 31
0.0
  0
LINE
  5
1DE
330
1D1
100
AcDbEntity
  8
Border
100
AcDbLine
 10
0.62
 20
10.62
 30
0.0
 11
0.62
 21
0.38
 31
0.0
  0
LINE
  5
1DF
330
1D1
100
AcDbEntity
  8
Border
100
AcDbLine
 10
8.413397
 20
0.23
 30
0.0
 11
8.586603
 21
0.23
 31
0.0
  0
LINE
  5
1E0
330
1D1
100
AcDbEntity
  8
Border
100
AcDbLine
 10
8.5
 20
0.38
 30
0.0
 11
8.5
 21
0.13
 31
0.0
  0
LINE
  5
1E1
330
1D1
100
AcDbEntity
  8
Border
100
AcDbLine
 10
8.5
 20
0.38
 30
0.0
 11
8.413397
 21
0.23
 31
0.0
  0
LINE
  5
1E2
330
1D1
100
AcDbEntity
  8
Border
100
AcDbLine
 10
8.5
 20
0.38
 30
0.0
 11
8.586603
 21
0.23
 31
0.0
  0
LINE
  5
1E3
330
1D1
100
AcDbEntity
  8
Border
100
AcDbLine
 10
0.47
 20
5.586603
 30
0.0
 11
0.47
 21
5.413397
 31
0.0
  0
LINE
  5
1E4
330
1D1
100
AcDbEntity
  8
Border
100
AcDbLine
 10
0.62
 20
5.5
 30
0.0
 11
0.37
 21
5.5
 31
0.0
  0
LINE
  5
1E5
330
1D1
100
AcDbEntity
  8
Border
100
AcDbLine
 10
0.62
 20
5.5
 30
0.0
 11
0.47
 21
5.586603
 31
0.0
  0
LINE
  5
1E6
330
1D1
100
AcDbEntity
  8
Border
100
AcDbLine
 10
0.62
 20
5.5
 30
0.0
 11
0.47
 21
5.413397
 31
0.0
  0
LINE
  5
1E7
330
1D1
100
AcDbEntity
  8
Border
100
AcDbLine
 10
16.53
 20
5.586603
 30
0.0
 11
16.53
 21
5.413397
 31
0.0
  0
LINE
  5
1E8
330
1D1
100
AcDbEntity
  8
Border
100
AcDbLine
 10
16.38
 20
5.5
 30
0.0
 11
16.63
 21
5.5
 31
0.0
  0
LINE
  5
1E9
330
1D1
100
AcDbEntity
  8
Border
100
AcDbLine
 10
16.38
 20
5.5
 30
0.0
 11
16.53
 21
5.586603
 31
0.0
  0
LINE
  5
1EA
330
1D1
100
AcDbEntity
  8
Border
100
AcDbLine
 10
16.38
 20
5.5
 30
0.0
 11
16.53
 21
5.413397
 31
0.0
  0
LINE
  5
1EB
330
1D1
100
AcDbEntity
  8
Border
100
AcDbLine
 10
8.413397
 20
10.77
 30
0.0
 11
8.586603
 21
10.77
 31
0.0
  0
LINE
  5
1EC
330
1D1
100
AcDbEntity
  8
Border
100
AcDbLine
 10
8.5
 20
10.62
 30
0.0
 11
8.5
 21
10.87
 31
0.0
  0
LINE
  5
1ED
330
1D1
100
AcDbEntity
  8
Border
100
AcDbLine
 10
8.5
 20
10.62
 30
0.0
 11
8.413397
 21
10.77
 31
0.0
  0
LINE
  5
1EE
330
1D1
100
AcDbEntity
  8
Border
100
AcDbLine
 10
8.5
 20
10.62
 30
0.0
 11
8.586603
 21
10.77
 31
0.0
  0
ENDBLK
  5
1EF
330
1D1
100
AcDbEntity
  8
0
100
AcDbBlockEnd
  0
BLOCK
  5
1F3
330
1F2
100
AcDbEntity
  8
0
100
AcDbBlockBegin
  2
*U6
 70
     1
 10
0.0
 20
0.0
 30
0.0
  3
*U6
  1

  0
LINE
  5
1F4
330
1F2
100
AcDbEntity
  8
Center Lines
 62
     0
440
 16777216
 48
0.75
100
AcDbLine
 10
0.0
 20
0.179055
 30
0.0
 11
0.0
 21
-0.179055
 31
0.0
  0
ENDBLK
  5
1F5
330
1F2
100
AcDbEntity
  8
0
100
AcDbBlockEnd
  0
BLOCK
  5
1F9
330
1F8
100
AcDbEntity
  8
0
100
AcDbBlockBegin
  2
*D7
 70
     1
 10
0.0
 20
0.0
 30
0.0
  3
*D7
  1

  0
LINE
  5
1FA
330
1F8
100
AcDbEntity
  8
Dimensions
440
 16777216
370
    -2
100
AcDbLine
 10
5.674701
 20
8.063847
 30
0.0
 11
5.674701
 21
8.742669
 31
0.0
  0
LINE
  5
1FB
330
1F8
100
AcDbEntity
  8
Dimensions
440
 16777216
370
    -2
100
AcDbLine
 10
2.445475
 20
5.815966
 30
0.0
 11
2.445475
 21
8.742669
 31
0.0
  0
LINE
  5
1FC
330
1F8
100
AcDbEntity
  8
Dimensions
440
 16777216
370
    -2
100
AcDbLine
 10
5.554701
 20
8.672669
 30
0.0
 11
4.329174
 21
8.672669
 31
0.0
  0
LINE
  5
1FD
330
1F8
100
AcDbEntity
  8
Dimensions
440
 16777216
370
    -2
100
AcDbLine
 10
2.565475
 20
8.672669
 30
0.0
 11
3.791003
 21
8.672669
 31
0.0
  0
SOLID
  5
1FE
330
1F8
100
AcDbEntity
  8
Dimensions
440
 16777216
100
AcDbTrace
 10
5.554701
 20
8.692669
 30
0.0
 11
5.554701
 21
8.652669
 31
0.0
 12
5.674701
 22
8.672669
 32
0.0
 13
5.674701
 23
8.672669
 33
0.0
  0
SOLID
  5
1FF
330
1F8
100
AcDbEntity
  8
Dimensions
440
 16777216
100
AcDbTrace
 10
2.565475
 20
8.692669
 30
0.0
 11
2.565475
 21
8.652669
 31
0.0
 12
2.445475
 22
8.672669
 32
0.0
 13
2.445475
 23
8.672669
 33
0.0
  0
MTEXT
  5
200
330
1F8
100
AcDbEntity
  8
Dimensions
440
 16777216
100
AcDbMText
 10
4.060088
 20
8.672669
 30
0.0
 40
0.12
 41
0.0
 46
0.0
 71
     5
 72
     1
  1
\A1;3.23in
 73
     1
 44
1.0
  0
POINT
  5
201
330
1F8
100
AcDbEntity
  8
Defpoints
 62
     0
440
 16777216
100
AcDbPoint
 10
5.674701
 20
7.993847
 30
0.0
  0
POINT
  5
202
330
1F8
100
AcDbEntity
  8
Defpoints
 62
     0
440
 16777216
100
AcDbPoint
 10
2.445475
 20
5.745966
 30
0.0
  0
POINT
  5
203
330
1F8
100
AcDbEntity
  8
Defpoints
 62
     0
440
 16777216
100
AcDbPoint
 10
2.445475
 20
8.672669
 30
0.0
  0
ENDBLK
  5
204
330
1F8
100
AcDbEntity
  8
0
100
AcDbBlockEnd
  0
BLOCK
  5
207
330
206
100
AcDbEntity
  8
0
100
AcDbBlockBegin
  2
*D8
 70
     1
 10
0.0
 20
0.0
 30
0.0
  3
*D8
  1

  0
LINE
  5
208
330
206
100
AcDbEntity
  8
Dimensions
440
 16777216
370
    -2
100
AcDbLine
 10
7.393812
 20
3.320171
 30
0.0
 11
7.513812
 21
3.320171
 31
0.0
  0
LINE
  5
209
330
206
100
AcDbEntity
  8
Dimensions
440
 16777216
370
    -2
100
AcDbLine
 10
7.513812
 20
3.320171
 30
0.0
 11
7.923293
 21
3.899397
 31
0.0
  0
MTEXT
  5
20A
330
206
100
AcDbEntity
  8
Dimensions
440
 16777216
100
AcDbMText
 10
7.059406
 20
3.320171
 30
0.0
 40
0.12
 41
0.0
 46
0.0
 71
     5
 72
     1
  1
\A1;∅1.97in
 73
     1
 44
1.0
  0
SOLID
  5
20B
330
206
100
AcDbEntity
  8
Dimensions
440
 16777216
100
AcDbTrace
 10
7.906962
 20
3.910943
 30
0.0
 11
7.939624
 21
3.887852
 31
0.0
 12
7.992565
 22
3.997385
 32
0.0
 13
7.992565
 23
3.997385
 33
0.0
  0
POINT
  5
20C
330
206
100
AcDbEntity
  8
Defpoints
 62
     0
440
 16777216
100
AcDbPoint
 10
7.992565
 20
3.997385
 30
0.0
  0
POINT
  5
20D
330
206
100
AcDbEntity
  8
Defpoints
 62
     0
440
 16777216
100
AcDbPoint
 10
9.128907
 20
5.604784
 30
0.0
  0
ENDBLK
  5
20E
330
206
100
AcDbEntity
  8
0
100
AcDbBlockEnd
  0
BLOCK
  5
211
330
210
100
AcDbEntity
  8
0
100
AcDbBlockBegin
  2
*D9
 70
     1
 10
0.0
 20
0.0
 30
0.0
  3
*D9
  1

  0
LINE
  5
212
330
210
100
AcDbEntity
  8
Dimensions
440
 16777216
370
    -2
100
AcDbLine
 10
7.337801
 20
3.947169
 30
0.0
 11
7.457801
 21
3.947169
 31
0.0
  0
LINE
  5
213
330
210
100
AcDbEntity
  8
Dimensions
440
 16777216
370
    -2
100
AcDbLine
 10
7.457801
 20
3.947169
 30
0.0
 11
8.07672
 21
4.426349
 31
0.0
  0
MTEXT
  5
214
330
210
100
AcDbEntity
  8
Dimensions
440
 16777216
100
AcDbMText
 10
7.050011
 20
3.947169
 30
0.0
 40
0.12
 41
0.0
 46
0.0
 71
     5
 72
     1
  1
\A1;∅.98in
 73
     1
 44
1.0
  0
SOLID
  5
215
330
210
100
AcDbEntity
  8
Dimensions
440
 16777216
100
AcDbTrace
 10
8.064476
 20
4.442163
 30
0.0
 11
8.088963
 21
4.410535
 31
0.0
 12
8.171605
 22
4.499811
 32
0.0
 13
8.171605
 23
4.499811
 33
0.0
  0
POINT
  5
216
330
210
100
AcDbEntity
  8
Defpoints
 62
     0
440
 16777216
100
AcDbPoint
 10
8.171605
 20
4.499811
 30
0.0
  0
POINT
  5
217
330
210
100
AcDbEntity
  8
Defpoints
 62
     0
440
 16777216
100
AcDbPoint
 10
8.949866
 20
5.102357
 30
0.0
  0
ENDBLK
  5
218
330
210
100
AcDbEntity
  8
0
100
AcDbBlockEnd
  0
BLOCK
  5
21B
330
21A
100
AcDbEntity
  8
0
100
AcDbBlockBegin
  2
*D10
 70
     1
 10
0.0
 20
0.0
 30
0.0
  3
*D10
  1

  0
LINE
  5
21C
330
21A
100
AcDbEntity
  8
Dimensions
440
 16777216
370
    -2
100
AcDbLine
 10
8.285145
 20
3.842313
 30
0.0
 11
8.285145
 21
3.342029
 31
0.0
  0
LINE
  5
21D
330
21A
100
AcDbEntity
  8
Dimensions
440
 16777216
370
    -2
100
AcDbLine
 10
8.836326
 20
3.842313
 30
0.0
 11
8.836326
 21
3.342029
 31
0.0
  0
LINE
  5
21E
330
21A
100
AcDbEntity
  8
Dimensions
440
 16777216
370
    -2
100
AcDbLine
 10
8.165145
 20
3.412029
 30
0.0
 11
8.045145
 21
3.412029
 31
0.0
  0
LINE
  5
21F
330
21A
100
AcDbEntity
  8
Dimensions
440
 16777216
370
    -2
100
AcDbLine
 10
8.956326
 20
3.412029
 30
0.0
 11
9.076326
 21
3.412029
 31
0.0
  0
SOLID
  5
220
330
21A
100
AcDbEntity
  8
Dimensions
440
 16777216
100
AcDbTrace
 10
8.165145
 20
3.432029
 30
0.0
 11
8.165145
 21
3.392029
 31
0.0
 12
8.285145
 22
3.412029
 32
0.0
 13
8.285145
 23
3.412029
 33
0.0
  0
SOLID
  5
221
330
21A
100
AcDbEntity
  8
Dimensions
440
 16777216
100
AcDbTrace
 10
8.956326
 20
3.432029
 30
0.0
 11
8.956326
 21
3.392029
 31
0.0
 12
8.836326
 22
3.412029
 32
0.0
 13
8.836326
 23
3.412029
 33
0.0
  0
MTEXT
  5
222
330
21A
100
AcDbEntity
  8
Dimensions
440
 16777216
100
AcDbMText
 10
8.560736
 20
3.412029
 30
0.0
 40
0.12
 41
0.0
 46
0.0
 71
     5
 72
     1
  1
\A1;.55in
 73
     1
 44
1.0
  0
POINT
  5
223
330
21A
100
AcDbEntity
  8
Defpoints
 62
     0
440
 16777216
100
AcDbPoint
 10
8.285145
 20
3.912313
 30
0.0
  0
POINT
  5
224
330
21A
100
AcDbEntity
  8
Defpoints
 62
     0
440
 16777216
100
AcDbPoint
 10
8.836326
 20
3.912313
 30
0.0
  0
POINT
  5
225
330
21A
100
AcDbEntity
  8
Defpoints
 62
     0
440
 16777216
100
AcDbPoint
 10
8.836326
 20
3.412029
 30
0.0
  0
ENDBLK
  5
226
330
21A
100
AcDbEntity
  8
0
100
AcDbBlockEnd
  0
BLOCK
  5
229
330
228
100
AcDbEntity
  8
0
100
AcDbBlockBegin
  2
*D11
 70
     1
 10
0.0
 20
0.0
 30
0.0
  3
*D11
  1

  0
LINE
  5
22A
330
228
100
AcDbEntity
  8
Dimensions
440
 16777216
370
    -2
100
AcDbLine
 10
7.283936
 20
7.943847
 30
0.0
 11
7.283936
 21
8.303847
 31
0.0
  0
LINE
  5
22B
330
228
100
AcDbEntity
  8
Dimensions
440
 16777216
370
    -2
100
AcDbLine
 10
9.842991
 20
7.943847
 30
0.0
 11
9.842991
 21
8.303847
 31
0.0
  0
LINE
  5
22C
330
228
100
AcDbEntity
  8
Dimensions
440
 16777216
370
    -2
100
AcDbLine
 10
7.403936
 20
8.233847
 30
0.0
 11
8.293313
 21
8.233847
 31
0.0
  0
LINE
  5
22D
330
228
100
AcDbEntity
  8
Dimensions
440
 16777216
370
    -2
100
AcDbLine
 10
9.722991
 20
8.233847
 30
0.0
 11
8.833614
 21
8.233847
 31
0.0
  0
SOLID
  5
22E
330
228
100
AcDbEntity
  8
Dimensions
440
 16777216
100
AcDbTrace
 10
7.403936
 20
8.253847
 30
0.0
 11
7.403936
 21
8.213847
 31
0.0
 12
7.283936
 22
8.233847
 32
0.0
 13
7.283936
 23
8.233847
 33
0.0
  0
SOLID
  5
22F
330
228
100
AcDbEntity
  8
Dimensions
440
 16777216
100
AcDbTrace
 10
9.722991
 20
8.253847
 30
0.0
 11
9.722991
 21
8.213847
 31
0.0
 12
9.842991
 22
8.233847
 32
0.0
 13
9.842991
 23
8.233847
 33
0.0
  0
MTEXT
  5
230
330
228
100
AcDbEntity
  8
Dimensions
440
 16777216
100
AcDbMText
 10
8.563464
 20
8.233847
 30
0.0
 40
0.12
 41
0.0
 46
0.0
 71
     5
 72
     1
  1
\A1;2.56in
 73
     1
 44
1.0
  0
POINT
  5
231
330
228
100
AcDbEntity
  8
Defpoints
 62
     0
440
 16777216
100
AcDbPoint
 10
7.283936
 20
7.873847
 30
0.0
  0
POINT
  5
232
330
228
100
AcDbEntity
  8
Defpoints
 62
     0
440
 16777216
100
AcDbPoint
 10
9.842991
 20
7.873847
 30
0.0
  0
POINT
  5
233
330
228
100
AcDbEntity
  8
Defpoints
 62
     0
440
 16777216
100
AcDbPoint
 10
9.842991
 20
8.233847
 30
0.0
  0
ENDBLK
  5
234
330
228
100
AcDbEntity
  8
0
100
AcDbBlockEnd
  0
BLOCK
  5
237
330
236
100
AcDbEntity
  8
0
100
AcDbBlockBegin
  2
*D12
 70
     1
 10
0.0
 20
0.0
 30
0.0
  3
*D12
  1

  0
LINE
  5
238
330
236
100
AcDbEntity
  8
Dimensions
440
 16777216
370
    -2
100
AcDbLine
 10
12.642697
 20
3.899388
 30
0.0
 11
12.642697
 21
3.179388
 31
0.0
  0
LINE
  5
239
330
236
100
AcDbEntity
  8
Dimensions
440
 16777216
370
    -2
100
AcDbLine
 10
14.412697
 20
4.149388
 30
0.0
 11
14.412697
 21
3.179388
 31
0.0
  0
LINE
  5
23A
330
236
100
AcDbEntity
  8
Dimensions
440
 16777216
370
    -2
100
AcDbLine
 10
12.762697
 20
3.249388
 30
0.0
 11
13.264218
 21
3.249388
 31
0.0
  0
LINE
  5
23B
330
236
100
AcDbEntity
  8
Dimensions
440
 16777216
370
    -2
100
AcDbLine
 10
14.292697
 20
3.249388
 30
0.0
 11
13.791175
 21
3.249388
 31
0.0
  0
SOLID
  5
23C
330
236
100
AcDbEntity
  8
Dimensions
440
 16777216
100
AcDbTrace
 10
12.762697
 20
3.269388
 30
0.0
 11
12.762697
 21
3.229388
 31
0.0
 12
12.642697
 22
3.249388
 32
0.0
 13
12.642697
 23
3.249388
 33
0.0
  0
SOLID
  5
23D
330
236
100
AcDbEntity
  8
Dimensions
440
 16777216
100
AcDbTrace
 10
14.292697
 20
3.269388
 30
0.0
 11
14.292697
 21
3.229388
 31
0.0
 12
14.412697
 22
3.249388
 32
0.0
 13
14.412697
 23
3.249388
 33
0.0
  0
MTEXT
  5
23E
330
236
100
AcDbEntity
  8
Dimensions
440
 16777216
100
AcDbMText
 10
13.527697
 20
3.249388
 30
0.0
 40
0.12
 41
0.0
 46
0.0
 71
     5
 72
     1
  1
\A1;1.77in
 73
     1
 44
1.0
  0
POINT
  5
23F
330
236
100
AcDbEntity
  8
Defpoints
 62
     0
440
 16777216
100
AcDbPoint
 10
12.642697
 20
3.969388
 30
0.0
  0
POINT
  5
240
330
236
100
AcDbEntity
  8
Defpoints
 62
     0
440
 16777216
100
AcDbPoint
 10
14.412697
 20
4.219388
 30
0.0
  0
POINT
  5
241
330
236
100
AcDbEntity
  8
Defpoints
 62
     0
440
 16777216
100
AcDbPoint
 10
14.412697
 20
3.249388
 30
0.0
  0
ENDBLK
  5
242
330
236
100
AcDbEntity
  8
0
100
AcDbBlockEnd
  0
BLOCK
  5
245
330
244
100
AcDbEntity
  8
0
100
AcDbBlockBegin
  2
*D13
 70
     1
 10
0.0
 20
0.0
 30
0.0
  3
*D13
  1

  0
LINE
  5
246
330
244
100
AcDbEntity
  8
Dimensions
440
 16777216
370
    -2
100
AcDbLine
 10
8.630736
 20
4.801084
 30
0.0
 11
10.632991
 21
4.801084
 31
0.0
  0
LINE
  5
247
330
244
100
AcDbEntity
  8
Dimensions
440
 16777216
370
    -2
100
AcDbLine
 10
9.912991
 20
7.873847
 30
0.0
 11
10.632991
 21
7.873847
 31
0.0
  0
LINE
  5
248
330
244
100
AcDbEntity
  8
Dimensions
440
 16777216
370
    -2
100
AcDbLine
 10
10.562991
 20
4.921084
 30
0.0
 11
10.562991
 21
6.226156
 31
0.0
  0
LINE
  5
249
330
244
100
AcDbEntity
  8
Dimensions
440
 16777216
370
    -2
100
AcDbLine
 10
10.562991
 20
7.753847
 30
0.0
 11
10.562991
 21
6.448775
 31
0.0
  0
SOLID
  5
24A
330
244
100
AcDbEntity
  8
Dimensions
440
 16777216
100
AcDbTrace
 10
10.542991
 20
4.921084
 30
0.0
 11
10.582991
 21
4.921084
 31
0.0
 12
10.562991
 22
4.801084
 32
0.0
 13
10.562991
 23
4.801084
 33
0.0
  0
SOLID
  5
24B
330
244
100
AcDbEntity
  8
Dimensions
440
 16777216
100
AcDbTrace
 10
10.542991
 20
7.753847
 30
0.0
 11
10.582991
 21
7.753847
 31
0.0
 12
10.562991
 22
7.873847
 32
0.0
 13
10.562991
 23
7.873847
 33
0.0
  0
MTEXT
  5
24C
330
244
100
AcDbEntity
  8
Dimensions
440
 16777216
100
AcDbMText
 10
10.562991
 20
6.337466
 30
0.0
 40
0.12
 41
0.0
 46
0.0
 71
     5
 72
     1
  1
\A1;**3.07in
 73
     1
 44
1.0
  0
POINT
  5
24D
330
244
100
AcDbEntity
  8
Defpoints
 62
     0
440
 16777216
100
AcDbPoint
 10
8.560736
 20
4.801084
 30
0.0
  0
POINT
  5
24E
330
244
100
AcDbEntity
  8
Defpoints
 62
     0
440
 16777216
100
AcDbPoint
 10
9.842991
 20
7.873847
 30
0.0
  0
POINT
  5
24F
330
244
100
AcDbEntity
  8
Defpoints
 62
     0
440
 16777216
100
AcDbPoint
 10
10.562991
 20
7.873847
 30
0.0
  0
ENDBLK
  5
250
330
244
100
AcDbEntity
  8
0
100
AcDbBlockEnd
  0
BLOCK
  5
255
330
254
100
AcDbEntity
  8
0
100
AcDbBlockBegin
  2
*D14
 70
     1
 10
0.0
 20
0.0
 30
0.0
  3
*D14
  1

  0
LINE
  5
48F
330
254
100
AcDbEntity
  8
Dimensions
440
 16777216
370
    -2
100
AcDbLine
 10
5.674701
 20
8.063847
 30
0.0
 11
5.674701
 21
8.742669
 31
0.0
  0
LINE
  5
490
330
254
100
AcDbEntity
  8
Dimensions
440
 16777216
370
    -2
100
AcDbLine
 10
2.445475
 20
5.815966
 30
0.0
 11
2.445475
 21
8.742669
 31
0.0
  0
LINE
  5
491
330
254
100
AcDbEntity
  8
Dimensions
440
 16777216
370
    -2
100
AcDbLine
 10
5.554701
 20
8.672669
 30
0.0
 11
4.329174
 21
8.672669
 31
0.0
  0
LINE
  5
492
330
254
100
AcDbEntity
  8
Dimensions
440
 16777216
370
    -2
100
AcDbLine
 10
2.565475
 20
8.672669
 30
0.0
 11
3.791003
 21
8.672669
 31
0.0
  0
SOLID
  5
493
330
254
100
AcDbEntity
  8
Dimensions
440
 16777216
100
AcDbTrace
 10
5.554701
 20
8.692669
 30
0.0
 11
5.554701
 21
8.652669
 31
0.0
 12
5.674701
 22
8.672669
 32
0.0
 13
5.674701
 23
8.672669
 33
0.0
  0
SOLID
  5
494
330
254
100
AcDbEntity
  8
Dimensions
440
 16777216
100
AcDbTrace
 10
2.565475
 20
8.692669
 30
0.0
 11
2.565475
 21
8.652669
 31
0.0
 12
2.445475
 22
8.672669
 32
0.0
 13
2.445475
 23
8.672669
 33
0.0
  0
MTEXT
  5
495
330
254
100
AcDbEntity
  8
Dimensions
440
 16777216
100
AcDbMText
 10
4.060088
 20
8.672669
 30
0.0
 40
0.12
 41
0.0
 46
0.0
 71
     5
 72
     1
  1
\A1;3.23in
 73
     1
 44
1.0
  0
POINT
  5
496
330
254
100
AcDbEntity
  8
Defpoints
 62
     0
440
 16777216
100
AcDbPoint
 10
5.674701
 20
7.993847
 30
0.0
  0
POINT
  5
497
330
254
100
AcDbEntity
  8
Defpoints
 62
     0
440
 16777216
100
AcDbPoint
 10
2.445475
 20
5.745966
 30
0.0
  0
POINT
  5
498
330
254
100
AcDbEntity
  8
Defpoints
 62
     0
440
 16777216
100
AcDbPoint
 10
2.445475
 20
8.672669
 30
0.0
  0
ENDBLK
  5
256
330
254
100
AcDbEntity
  8
0
100
AcDbBlockEnd
  0
BLOCK
  5
262
330
261
100
AcDbEntity
  8
0
100
AcDbBlockBegin
  2
*D15
 70
     1
 10
0.0
 20
0.0
 30
0.0
  3
*D15
  1

  0
LINE
  5
499
330
261
100
AcDbEntity
  8
Dimensions
440
 16777216
370
    -2
100
AcDbLine
 10
7.393812
 20
3.320171
 30
0.0
 11
7.513812
 21
3.320171
 31
0.0
  0
LINE
  5
49A
330
261
100
AcDbEntity
  8
Dimensions
440
 16777216
370
    -2
100
AcDbLine
 10
7.513812
 20
3.320171
 30
0.0
 11
7.923293
 21
3.899397
 31
0.0
  0
MTEXT
  5
49B
330
261
100
AcDbEntity
  8
Dimensions
440
 16777216
100
AcDbMText
 10
7.059406
 20
3.320171
 30
0.0
 40
0.12
 41
0.0
 46
0.0
 71
     5
 72
     1
  1
\A1;∅1.97in
 73
     1
 44
1.0
  0
SOLID
  5
49C
330
261
100
AcDbEntity
  8
Dimensions
440
 16777216
100
AcDbTrace
 10
7.906962
 20
3.910943
 30
0.0
 11
7.939624
 21
3.887852
 31
0.0
 12
7.992565
 22
3.997385
 32
0.0
 13
7.992565
 23
3.997385
 33
0.0
  0
POINT
  5
49D
330
261
100
AcDbEntity
  8
Defpoints
 62
     0
440
 16777216
100
AcDbPoint
 10
7.992565
 20
3.997385
 30
0.0
  0
POINT
  5
49E
330
261
100
AcDbEntity
  8
Defpoints
 62
     0
440
 16777216
100
AcDbPoint
 10
9.128907
 20
5.604784
 30
0.0
  0
ENDBLK
  5
263
330
261
100
AcDbEntity
  8
0
100
AcDbBlockEnd
  0
BLOCK
  5
26B
330
26A
100
AcDbEntity
  8
0
100
AcDbBlockBegin
  2
*D16
 70
     1
 10
0.0
 20
0.0
 30
0.0
  3
*D16
  1

  0
LINE
  5
49F
330
26A
100
AcDbEntity
  8
Dimensions
440
 16777216
370
    -2
100
AcDbLine
 10
7.337801
 20
3.947169
 30
0.0
 11
7.457801
 21
3.947169
 31
0.0
  0
LINE
  5
4A0
330
26A
100
AcDbEntity
  8
Dimensions
440
 16777216
370
    -2
100
AcDbLine
 10
7.457801
 20
3.947169
 30
0.0
 11
8.07672
 21
4.426349
 31
0.0
  0
MTEXT
  5
4A1
330
26A
100
AcDbEntity
  8
Dimensions
440
 16777216
100
AcDbMText
 10
7.050011
 20
3.947169
 30
0.0
 40
0.12
 41
0.0
 46
0.0
 71
     5
 72
     1
  1
\A1;∅.98in
 73
     1
 44
1.0
  0
SOLID
  5
4A2
330
26A
100
AcDbEntity
  8
Dimensions
440
 16777216
100
AcDbTrace
 10
8.064476
 20
4.442163
 30
0.0
 11
8.088963
 21
4.410535
 31
0.0
 12
8.171605
 22
4.499811
 32
0.0
 13
8.171605
 23
4.499811
 33
0.0
  0
POINT
  5
4A3
330
26A
100
AcDbEntity
  8
Defpoints
 62
     0
440
 16777216
100
AcDbPoint
 10
8.171605
 20
4.499811
 30
0.0
  0
POINT
  5
4A4
330
26A
100
AcDbEntity
  8
Defpoints
 62
     0
440
 16777216
100
AcDbPoint
 10
8.949866
 20
5.102357
 30
0.0
  0
ENDBLK
  5
26C
330
26A
100
AcDbEntity
  8
0
100
AcDbBlockEnd
  0
BLOCK
  5
274
330
273
100
AcDbEntity
  8
0
100
AcDbBlockBegin
  2
*D17
 70
     1
 10
0.0
 20
0.0
 30
0.0
  3
*D17
  1

  0
LINE
  5
4A5
330
273
100
AcDbEntity
  8
Dimensions
440
 16777216
370
    -2
100
AcDbLine
 10
8.285145
 20
3.842313
 30
0.0
 11
8.285145
 21
3.342029
 31
0.0
  0
LINE
  5
4A6
330
273
100
AcDbEntity
  8
Dimensions
440
 16777216
370
    -2
100
AcDbLine
 10
8.836326
 20
3.842313
 30
0.0
 11
8.836326
 21
3.342029
 31
0.0
  0
LINE
  5
4A7
330
273
100
AcDbEntity
  8
Dimensions
440
 16777216
370
    -2
100
AcDbLine
 10
8.165145
 20
3.412029
 30
0.0
 11
8.045145
 21
3.412029
 31
0.0
  0
LINE
  5
4A8
330
273
100
AcDbEntity
  8
Dimensions
440
 16777216
370
    -2
100
AcDbLine
 10
8.956326
 20
3.412029
 30
0.0
 11
9.076326
 21
3.412029
 31
0.0
  0
SOLID
  5
4A9
330
273
100
AcDbEntity
  8
Dimensions
440
 16777216
100
AcDbTrace
 10
8.165145
 20
3.432029
 30
0.0
 11
8.165145
 21
3.392029
 31
0.0
 12
8.285145
 22
3.412029
 32
0.0
 13
8.285145
 23
3.412029
 33
0.0
  0
SOLID
  5
4AA
330
273
100
AcDbEntity
  8
Dimensions
440
 16777216
100
AcDbTrace
 10
8.956326
 20
3.432029
 30
0.0
 11
8.956326
 21
3.392029
 31
0.0
 12
8.836326
 22
3.412029
 32
0.0
 13
8.836326
 23
3.412029
 33
0.0
  0
MTEXT
  5
4AB
330
273
100
AcDbEntity
  8
Dimensions
440
 16777216
100
AcDbMText
 10
8.560736
 20
3.412029
 30
0.0
 40
0.12
 41
0.0
 46
0.0
 71
     5
 72
     1
  1
\A1;.55in
 73
     1
 44
1.0
  0
POINT
  5
4AC
330
273
100
AcDbEntity
  8
Defpoints
 62
     0
440
 16777216
100
AcDbPoint
 10
8.285145
 20
3.912313
 30
0.0
  0
POINT
  5
4AD
330
273
100
AcDbEntity
  8
Defpoints
 62
     0
440
 16777216
100
AcDbPoint
 10
8.836326
 20
3.912313
 30
0.0
  0
POINT
  5
4AE
330
273
100
AcDbEntity
  8
Defpoints
 62
     0
440
 16777216
100
AcDbPoint
 10
8.836326
 20
3.412029
 30
0.0
  0
ENDBLK
  5
275
330
273
100
AcDbEntity
  8
0
100
AcDbBlockEnd
  0
BLOCK
  5
281
330
280
100
AcDbEntity
  8
0
100
AcDbBlockBegin
  2
*D18
 70
     1
 10
0.0
 20
0.0
 30
0.0
  3
*D18
  1

  0
LINE
  5
4AF
330
280
100
AcDbEntity
  8
Dimensions
440
 16777216
370
    -2
100
AcDbLine
 10
7.283936
 20
7.943847
 30
0.0
 11
7.283936
 21
8.303847
 31
0.0
  0
LINE
  5
4B0
330
280
100
AcDbEntity
  8
Dimensions
440
 16777216
370
    -2
100
AcDbLine
 10
9.842991
 20
7.943847
 30
0.0
 11
9.842991
 21
8.303847
 31
0.0
  0
LINE
  5
4B1
330
280
100
AcDbEntity
  8
Dimensions
440
 16777216
370
    -2
100
AcDbLine
 10
7.403936
 20
8.233847
 30
0.0
 11
8.293313
 21
8.233847
 31
0.0
  0
LINE
  5
4B2
330
280
100
AcDbEntity
  8
Dimensions
440
 16777216
370
    -2
100
AcDbLine
 10
9.722991
 20
8.233847
 30
0.0
 11
8.833614
 21
8.233847
 31
0.0
  0
SOLID
  5
4B3
330
280
100
AcDbEntity
  8
Dimensions
440
 16777216
100
AcDbTrace
 10
7.403936
 20
8.253847
 30
0.0
 11
7.403936
 21
8.213847
 31
0.0
 12
7.283936
 22
8.233847
 32
0.0
 13
7.283936
 23
8.233847
 33
0.0
  0
SOLID
  5
4B4
330
280
100
AcDbEntity
  8
Dimensions
440
 16777216
100
AcDbTrace
 10
9.722991
 20
8.253847
 30
0.0
 11
9.722991
 21
8.213847
 31
0.0
 12
9.842991
 22
8.233847
 32
0.0
 13
9.842991
 23
8.233847
 33
0.0
  0
MTEXT
  5
4B5
330
280
100
AcDbEntity
  8
Dimensions
440
 16777216
100
AcDbMText
 10
8.563464
 20
8.233847
 30
0.0
 40
0.12
 41
0.0
 46
0.0
 71
     5
 72
     1
  1
\A1;2.56in
 73
     1
 44
1.0
  0
POINT
  5
4B6
330
280
100
AcDbEntity
  8
Defpoints
 62
     0
440
 16777216
100
AcDbPoint
 10
7.283936
 20
7.873847
 30
0.0
  0
POINT
  5
4B7
330
280
100
AcDbEntity
  8
Defpoints
 62
     0
440
 16777216
100
AcDbPoint
 10
9.842991
 20
7.873847
 30
0.0
  0
POINT
  5
4B8
330
280
100
AcDbEntity
  8
Defpoints
 62
     0
440
 16777216
100
AcDbPoint
 10
9.842991
 20
8.233847
 30
0.0
  0
ENDBLK
  5
282
330
280
100
AcDbEntity
  8
0
100
AcDbBlockEnd
  0
BLOCK
  5
28E
330
28D
100
AcDbEntity
  8
0
100
AcDbBlockBegin
  2
*D19
 70
     1
 10
0.0
 20
0.0
 30
0.0
  3
*D19
  1

  0
LINE
  5
4B9
330
28D
100
AcDbEntity
  8
Dimensions
440
 16777216
370
    -2
100
AcDbLine
 10
12.642697
 20
3.899388
 30
0.0
 11
12.642697
 21
3.179388
 31
0.0
  0
LINE
  5
4BA
330
28D
100
AcDbEntity
  8
Dimensions
440
 16777216
370
    -2
100
AcDbLine
 10
14.412697
 20
4.149388
 30
0.0
 11
14.412697
 21
3.179388
 31
0.0
  0
LINE
  5
4BB
330
28D
100
AcDbEntity
  8
Dimensions
440
 16777216
370
    -2
100
AcDbLine
 10
12.762697
 20
3.249388
 30
0.0
 11
13.264218
 21
3.249388
 31
0.0
  0
LINE
  5
4BC
330
28D
100
AcDbEntity
  8
Dimensions
440
 16777216
370
    -2
100
AcDbLine
 10
14.292697
 20
3.249388
 30
0.0
 11
13.791175
 21
3.249388
 31
0.0
  0
SOLID
  5
4BD
330
28D
100
AcDbEntity
  8
Dimensions
440
 16777216
100
AcDbTrace
 10
12.762697
 20
3.269388
 30
0.0
 11
12.762697
 21
3.229388
 31
0.0
 12
12.642697
 22
3.249388
 32
0.0
 13
12.642697
 23
3.249388
 33
0.0
  0
SOLID
  5
4BE
330
28D
100
AcDbEntity
  8
Dimensions
440
 16777216
100
AcDbTrace
 10
14.292697
 20
3.269388
 30
0.0
 11
14.292697
 21
3.229388
 31
0.0
 12
14.412697
 22
3.249388
 32
0.0
 13
14.412697
 23
3.249388
 33
0.0
  0
MTEXT
  5
4BF
330
28D
100
AcDbEntity
  8
Dimensions
440
 16777216
100
AcDbMText
 10
13.527697
 20
3.249388
 30
0.0
 40
0.12
 41
0.0
 46
0.0
 71
     5
 72
     1
  1
\A1;1.77in
 73
     1
 44
1.0
  0
POINT
  5
4C0
330
28D
100
AcDbEntity
  8
Defpoints
 62
     0
440
 16777216
100
AcDbPoint
 10
12.642697
 20
3.969388
 30
0.0
  0
POINT
  5
4C1
330
28D
100
AcDbEntity
  8
Defpoints
 62
     0
440
 16777216
100
AcDbPoint
 10
14.412697
 20
4.219388
 30
0.0
  0
POINT
  5
4C2
330
28D
100
AcDbEntity
  8
Defpoints
 62
     0
440
 16777216
100
AcDbPoint
 10
14.412697
 20
3.249388
 30
0.0
  0
ENDBLK
  5
28F
330
28D
100
AcDbEntity
  8
0
100
AcDbBlockEnd
  0
BLOCK
  5
29B
330
29A
100
AcDbEntity
  8
0
100
AcDbBlockBegin
  2
*D20
 70
     1
 10
0.0
 20
0.0
 30
0.0
  3
*D20
  1

  0
LINE
  5
4C3
330
29A
100
AcDbEntity
  8
Dimensions
440
 16777216
370
    -2
100
AcDbLine
 10
8.630736
 20
4.801084
 30
0.0
 11
10.632991
 21
4.801084
 31
0.0
  0
LINE
  5
4C4
330
29A
100
AcDbEntity
  8
Dimensions
440
 16777216
370
    -2
100
AcDbLine
 10
9.912991
 20
7.873847
 30
0.0
 11
10.632991
 21
7.873847
 31
0.0
  0
LINE
  5
4C5
330
29A
100
AcDbEntity
  8
Dimensions
440
 16777216
370
    -2
100
AcDbLine
 10
10.562991
 20
4.921084
 30
0.0
 11
10.562991
 21
6.226156
 31
0.0
  0
LINE
  5
4C6
330
29A
100
AcDbEntity
  8
Dimensions
440
 16777216
370
    -2
100
AcDbLine
 10
10.562991
 20
7.753847
 30
0.0
 11
10.562991
 21
6.448775
 31
0.0
  0
SOLID
  5
4C7
330
29A
100
AcDbEntity
  8
Dimensions
440
 16777216
100
AcDbTrace
 10
10.542991
 20
4.921084
 30
0.0
 11
10.582991
 21
4.921084
 31
0.0
 12
10.562991
 22
4.801084
 32
0.0
 13
10.562991
 23
4.801084
 33
0.0
  0
SOLID
  5
4C8
330
29A
100
AcDbEntity
  8
Dimensions
440
 16777216
100
AcDbTrace
 10
10.542991
 20
7.753847
 30
0.0
 11
10.582991
 21
7.753847
 31
0.0
 12
10.562991
 22
7.873847
 32
0.0
 13
10.562991
 23
7.873847
 33
0.0
  0
MTEXT
  5
4C9
330
29A
100
AcDbEntity
  8
Dimensions
440
 16777216
100
AcDbMText
 10
10.562991
 20
6.337466
 30
0.0
 40
0.12
 41
0.0
 46
0.0
 71
     5
 72
     1
  1
\A1;**3.07in
 73
     1
 44
1.0
  0
POINT
  5
4CA
330
29A
100
AcDbEntity
  8
Defpoints
 62
     0
440
 16777216
100
AcDbPoint
 10
8.560736
 20
4.801084
 30
0.0
  0
POINT
  5
4CB
330
29A
100
AcDbEntity
  8
Defpoints
 62
     0
440
 16777216
100
AcDbPoint
 10
9.842991
 20
7.873847
 30
0.0
  0
POINT
  5
4CC
330
29A
100
AcDbEntity
  8
Defpoints
 62
     0
440
 16777216
100
AcDbPoint
 10
10.562991
 20
7.873847
 30
0.0
  0
ENDBLK
  5
29C
330
29A
100
AcDbEntity
  8
0
100
AcDbBlockEnd
  0
ENDSEC
  0
SECTION
  2
ENTITIES
  0
INSERT
  5
1AA
330
70
100
AcDbEntity
  8
Titleblock
100
AcDbBlockReference
 66
     1
  2
Shower
 10
16.38
 20
0.38
 30
0.0
  0
ATTRIB
  5
1CA
330
1AA
100
AcDbEntity
  8
Titleblock
  6
Continuous
370
    25
100
AcDbText
 10
12.6925
 20
2.6925
 30
0.0
 40
0.12
  1
Railing Products and Mock Ups
100
AcDbAttribute
280
     0
  2
PROJECT
 70
     0
280
     1
1001
FD_ATT_APPNAME
1005
1B8
  0
ATTRIB
  5
1CB
330
1AA
100
AcDbEntity
  8
Titleblock
  6
Continuous
370
    25
100
AcDbText
 10
14.6925
 20
1.0675
 30
0.0
 40
0.12
  1
9/9/2021
100
AcDbAttribute
280
     0
  2
DRAWN_DATE
 70
     0
280
     1
1001
FD_ATT_APPNAME
1005
1BA
  0
ATTRIB
  5
1CC
330
1AA
100
AcDbEntity
  8
Titleblock
  6
Continuous
370
    25
100
AcDbText
 10
12.0675
 20
2.1925
 30
0.0
 40
0.3048
  1
R13-0155-000-12
100
AcDbAttribute
280
     0
  2
TITLE_1
 70
     0
280
     1
1001
FD_ATT_APPNAME
1005
1BB
  0
ATTRIB
  5
1CD
330
1AA
100
AcDbEntity
  8
Titleblock
  6
Continuous
370
    25
100
AcDbText
 10
14.6925
 20
1.29994
 30
0.0
 40
0.12
  1
1:1
100
AcDbAttribute
280
     0
  2
SCALE
 70
     0
280
     1
1001
FD_ATT_APPNAME
1005
1BC
  0
SEQEND
  5
1CE
330
1AA
100
AcDbEntity
  8
Titleblock
  0
INSERT
  5
1CF
330
70
100
AcDbEntity
  8
Border
100
AcDbBlockReference
  2
ANSI_B_SHEET
 10
0.0
 20
0.0
 30
0.0
  0
INSERT
  5
1F0
330
70
100
AcDbEntity
  8
Center Lines
 48
0.75
100
AcDbBlockReference
  2
*U6
 10
5.674701
 20
7.814792
 30
0.0
  0
DIMENSION
  5
1F6
330
70
100
AcDbEntity
  8
Dimensions
100
AcDbDimension
280
     0
  2
*D14
 10
2.445475
 20
8.672669
 30
0.0
 11
4.060088
 21
8.672669
 31
0.0
 70
    32
  1
<>
 71
     5
 42
3.229226
 73
     0
 74
     0
 75
     0
  3
Standard
100
AcDbAlignedDimension
 13
5.674701
 23
7.993847
 33
0.0
 14
2.445475
 24
5.745966
 34
0.0
100
AcDbRotatedDimension
1001
ACAD_DIMASSOC_CALC_DIMLFAC
1040
-1.0
1001
ACAD_DIMASSOC_DIMLFAC
1040
-1.0
1001
ACAD_DIMASSOC_OVERRIDDEN_DIMLFAC
1040
0.0
1001
ACAD_TC
1000
DSTYLE_TC
1002
{
1070
   177
1004
18000000020000008C8C8CC2000000000000000000000000
1070
   176
1004
18000000020000008C8C8CC2000000000000000000000000
1002
}
1001
ACAD_DSTYLE_DIMJAG_POSITION
1070
   387
1070
     0
1070
   389
1010
0.0
1020
0.0
1030
0.0
1001
ACAD
1000
DSTYLE
1002
{
1070
   177
1070
   256
1070
   176
1070
   256
1070
   144
1040
1.0
1002
}
  0
DIMENSION
  5
205
330
70
100
AcDbEntity
  8
Dimensions
100
AcDbDimension
280
     0
  2
*D15
 10
9.128907
 20
5.604784
 30
0.0
 11
7.059406
 21
3.320171
 31
0.0
 70
   163
 71
     5
 42
1.968504
 73
     0
 74
     0
 75
     0
  3
Standard
100
AcDbDiametricDimension
 15
7.992565
 25
3.997385
 35
0.0
 40
0.0
1001
ACAD_DIMASSOC_CALC_DIMLFAC
1040
-1.0
1001
ACAD_DIMASSOC_DIMLFAC
1040
-1.0
1001
ACAD_DIMASSOC_OVERRIDDEN_DIMLFAC
1040
0.0
1001
ACAD_TC
1000
DSTYLE_TC
1002
{
1070
   176
1004
18000000020000008C8C8CC2000000000000000000000000
1070
   177
1004
18000000020000008C8C8CC2000000000000000000000000
1002
}
1001
ACAD_DSTYLE_DIMJAG_POSITION
1070
   387
1070
     0
1070
   389
1010
0.0
1020
0.0
1030
0.0
1001
ACAD_DSTYLE_DIMRADIAL_EXTENSION
1070
   387
1070
     1
1070
   388
1040
0.0
1070
   390
1040
0.0
1001
ACAD
1000
DSTYLE
1002
{
1070
   144
1040
1.0
1070
   176
1070
   256
1070
   177
1070
   256
1002
}
  0
DIMENSION
  5
20F
330
70
100
AcDbEntity
  8
Dimensions
100
AcDbDimension
280
     0
  2
*D16
 10
8.949866
 20
5.102357
 30
0.0
 11
7.050011
 21
3.947169
 31
0.0
 70
   163
 71
     5
 42
0.984252
 73
     0
 74
     0
 75
     0
  3
Standard
100
AcDbDiametricDimension
 15
8.171605
 25
4.499811
 35
0.0
 40
0.0
1001
ACAD_DIMASSOC_CALC_DIMLFAC
1040
-1.0
1001
ACAD_DIMASSOC_DIMLFAC
1040
-1.0
1001
ACAD_DIMASSOC_OVERRIDDEN_DIMLFAC
1040
0.0
1001
ACAD_TC
1000
DSTYLE_TC
1002
{
1070
   176
1004
18000000020000008C8C8CC2000000000000000000000000
1070
   177
1004
18000000020000008C8C8CC2000000000000000000000000
1002
}
1001
ACAD_DSTYLE_DIMJAG_POSITION
1070
   387
1070
     0
1070
   389
1010
0.0
1020
0.0
1030
0.0
1001
ACAD_DSTYLE_DIMRADIAL_EXTENSION
1070
   387
1070
     1
1070
   388
1040
0.0
1070
   390
1040
0.0
1001
ACAD
1000
DSTYLE
1002
{
1070
   144
1040
1.0
1070
   176
1070
   256
1070
   177
1070
   256
1002
}
  0
DIMENSION
  5
219
330
70
100
AcDbEntity
  8
Dimensions
100
AcDbDimension
280
     0
  2
*D17
 10
8.836326
 20
3.412029
 30
0.0
 11
8.560736
 21
3.412029
 31
0.0
 70
    32
 71
     5
 42
0.551181
 73
     0
 74
     0
 75
     0
  3
Standard
100
AcDbAlignedDimension
 13
8.285145
 23
3.912313
 33
0.0
 14
8.836326
 24
3.912313
 34
0.0
 50
180.0
100
AcDbRotatedDimension
1001
ACAD_DIMASSOC_CALC_DIMLFAC
1040
-1.0
1001
ACAD_DIMASSOC_DIMLFAC
1040
-1.0
1001
ACAD_DIMASSOC_OVERRIDDEN_DIMLFAC
1040
0.0
1001
ACAD_TC
1000
DSTYLE_TC
1002
{
1070
   176
1004
18000000020000008C8C8CC2000000000000000000000000
1070
   177
1004
18000000020000008C8C8CC2000000000000000000000000
1002
}
1001
ACAD_DSTYLE_DIMJAG_POSITION
1070
   387
1070
     0
1070
   389
1010
0.0
1020
0.0
1030
0.0
1001
ACAD
1000
DSTYLE
1002
{
1070
   144
1040
1.0
1070
   176
1070
   256
1070
   177
1070
   256
1002
}
  0
DIMENSION
  5
227
330
70
100
AcDbEntity
  8
Dimensions
100
AcDbDimension
280
     0
  2
*D18
 10
9.842991
 20
8.233847
 30
0.0
 11
8.563464
 21
8.233847
 31
0.0
 70
    33
 71
     5
 42
2.559055
 73
     0
 74
     0
 75
     0
  3
Standard
100
AcDbAlignedDimension
 13
7.283936
 23
7.873847
 33
0.0
 14
9.842991
 24
7.873847
 34
0.0
1001
ACAD_DIMASSOC_CALC_DIMLFAC
1040
-1.0
1001
ACAD_DIMASSOC_DIMLFAC
1040
-1.0
1001
ACAD_DIMASSOC_OVERRIDDEN_DIMLFAC
1040
0.0
1001
ACAD_TC
1000
DSTYLE_TC
1002
{
1070
   176
1004
18000000020000008C8C8CC2000000000000000000000000
1070
   177
1004
18000000020000008C8C8CC2000000000000000000000000
1002
}
1001
ACAD_DSTYLE_DIMJAG_POSITION
1070
   387
1070
     0
1070
   389
1010
0.0
1020
0.0
1030
0.0
1001
ACAD
1000
DSTYLE
1002
{
1070
   144
1040
1.0
1070
   176
1070
   256
1070
   177
1070
   256
1002
}
  0
DIMENSION
  5
235
330
70
100
AcDbEntity
  8
Dimensions
100
AcDbDimension
280
     0
  2
*D19
 10
14.412697
 20
3.249388
 30
0.0
 11
13.527697
 21
3.249388
 31
0.0
 70
    32
 71
     5
 42
1.77
 73
     0
 74
     0
 75
     0
  3
Standard
100
AcDbAlignedDimension
 13
12.642697
 23
3.969388
 33
0.0
 14
14.412697
 24
4.219388
 34
0.0
100
AcDbRotatedDimension
1001
ACAD_DIMASSOC_CALC_DIMLFAC
1040
-1.0
1001
ACAD_DIMASSOC_DIMLFAC
1040
-1.0
1001
ACAD_DIMASSOC_OVERRIDDEN_DIMLFAC
1040
0.0
1001
ACAD_TC
1000
DSTYLE_TC
1002
{
1070
   177
1004
18000000020000008C8C8CC2000000000000000000000000
1070
   176
1004
18000000020000008C8C8CC2000000000000000000000000
1002
}
1001
ACAD_DSTYLE_DIMJAG_POSITION
1070
   387
1070
     0
1070
   389
1010
0.0
1020
0.0
1030
0.0
1001
ACAD
1000
DSTYLE
1002
{
1070
   177
1070
   256
1070
   176
1070
   256
1070
   144
1040
1.0
1002
}
  0
DIMENSION
  5
243
330
70
100
AcDbEntity
  8
Dimensions
100
AcDbDimension
280
     0
  2
*D20
 10
10.562991
 20
7.873847
 30
0.0
 11
10.562991
 21
6.337466
 31
0.0
 70
    32
  1
**<>
 71
     5
 42
3.072762
 73
     0
 74
     0
 75
     0
  3
Standard
100
AcDbAlignedDimension
 13
8.560736
 23
4.801084
 33
0.0
 14
9.842991
 24
7.873847
 34
0.0
 50
90.0
100
AcDbRotatedDimension
1001
ACAD_DIMASSOC_CALC_DIMLFAC
1040
-1.0
1001
ACAD_DIMASSOC_DIMLFAC
1040
-1.0
1001
ACAD_DIMASSOC_OVERRIDDEN_DIMLFAC
1040
0.0
1001
ACAD_TC
1000
DSTYLE_TC
1002
{
1070
   177
1004
18000000020000008C8C8CC2000000000000000000000000
1070
   176
1004
18000000020000008C8C8CC2000000000000000000000000
1002
}
1001
ACAD_DSTYLE_DIMJAG_POSITION
1070
   387
1070
     0
1070
   389
1010
0.0
1020
0.0
1030
0.0
1001
ACAD
1000
DSTYLE
1002
{
1070
   177
1070
   256
1070
   176
1070
   256
1070
   144
1040
1.0
1002
}
  0
MTEXT
  5
251
330
70
100
AcDbEntity
  8
Annotations
100
AcDbMText
 10
9.35392
 20
3.996736
 30
0.0
 40
0.12
 41
2.571012
 46
0.0
 71
     1
 72
     5
  1
** Riser adjustable 1.57" - 3.15"
 73
     1
 44
1.0
1001
ACAD
1000
ACAD_MTEXT_COLUMN_INFO_BEGIN
1070
    75
1070
     2
1070
    79
1070
     0
1070
    76
1070
     1
1070
    78
1070
     0
1070
    48
1040
2.571012
1070
    49
1040
0.6
1070
    50
1070
     1
1040
0.0
1000
ACAD_MTEXT_COLUMN_INFO_END
  0
CIRCLE
  5
362
330
70
100
AcDbEntity
  8
Visible
100
AcDbCircle
 10
8.560736
 20
4.801084
 30
2.228217
 40
0.4921259842519685
  0
ARC
  5
363
330
70
100
AcDbEntity
  8
Visible
100
AcDbCircle
 10
8.560736
 20
4.801084
 30
-1.11811
 40
0.984251968503937
100
AcDbArc
 50
106.260205
 51
73.739795
  0
SPLINE
  5
364
330
70
100
AcDbEntity
  8
Visible
100
AcDbSpline
 70
     3
 71
     3
 72
    46
 73
    42
 74
     0
 42
0.000000001
 43
0.0000000001
 40
0.0
 40
0.0
 40
0.0
 40
0.0
 40
0.1176160583361983
 40
0.1176160583361983
 40
0.2352321166723966
 40
0.2352321166723966
 40
0.4704642333447932
 40
0.4704642333447932
 40
0.6974993473189302
 40
0.6974993473189302
 40
0.9245344612930672
 40
0.9245344612930672
 40
1.151569575267204
 40
1.151569575267204
 40
1.378604689241342
 40
1.378604689241342
 40
1.613836805913738
 40
1.613836805913738
 40
1.731452864249937
 40
1.731452864249937
 40
1.849068922586135
 40
1.849068922586135
 40
1.966684980922334
 40
1.966684980922334
 40
2.084301039258532
 40
2.084301039258532
 40
2.31953315593093
 40
2.31953315593093
 40
2.546568269905066
 40
2.546568269905066
 40
2.773603383879203
 40
2.773603383879203
 40
3.000638497853339
 40
3.000638497853339
 40
3.227673611827476
 40
3.227673611827476
 40
3.462905728499873
 40
3.462905728499873
 40
3.580521786836072
 40
3.580521786836072
 40
3.698137845172271
 40
3.698137845172271
 40
3.698137845172271
 40
3.698137845172271
 10
8.336326261865906
 20
7.292476696585552
 30
1.994616139005302
 10
8.336326261865906
 20
7.307911874844896
 30
1.994616139005302
 10
8.33792393504882
 20
7.323146747292588
 30
1.996912374504972
 10
8.344008140786172
 20
7.352600734913343
 30
2.004953423900587
 10
8.348493806368423
 20
7.36683207843144
 30
2.010654036515916
 10
8.365748150254148
 20
7.407378583156585
 30
2.030174905517924
 10
8.382514324974181
 20
7.431618196919139
 30
2.04620762032755
 10
8.420913312840639
 20
7.470017184784504
 30
2.073249746401415
 10
8.445159049755602
 20
7.48714324301067
 30
2.086506658637517
 10
8.500141871438245
 20
7.510608354788273
 30
2.10505334879781
 10
8.53094107630568
 20
7.51688614540445
 30
2.110236220471051
 10
8.590530345065417
 20
7.51688614540445
 30
2.110236220471051
 10
8.621329549932852
 20
7.510608354788274
 30
2.10505334879781
 10
8.676312371615495
 20
7.48714324301067
 30
2.086506658637517
 10
8.700558108530458
 20
7.470017184784504
 30
2.073249746401415
 10
8.738957096396916
 20
7.431618196919139
 30
2.04620762032755
 10
8.755723271116949
 20
7.407378583156585
 30
2.030174905517924
 10
8.772977615002673
 20
7.36683207843144
 30
2.010654036515916
 10
8.777463280584925
 20
7.352600734913343
 30
2.004953423900587
 10
8.783547486322277
 20
7.323146747292588
 30
1.996912374504972
 10
8.785145159505191
 20
7.307911874844896
 30
1.994616139005302
 10
8.785145159505191
 20
7.277041518326209
 30
1.994616139005302
 10
8.783547486322277
 20
7.261806645878516
 30
1.996912374504972
 10
8.777463280584925
 20
7.232352658257761
 30
2.004953423900587
 10
8.772977615002673
 20
7.218121314739664
 30
2.010654036515916
 10
8.755723271116949
 20
7.177574810014519
 30
2.030174905517924
 10
8.738957096396916
 20
7.153335196251967
 30
2.04620762032755
 10
8.700558108530458
 20
7.114936208386602
 30
2.073249746401415
 10
8.676312371615495
 20
7.097810150160435
 30
2.086506658637517
 10
8.621329549932852
 20
7.074345038382832
 30
2.10505334879781
 10
8.590530345065417
 20
7.068067247766655
 30
2.110236220471051
 10
8.53094107630568
 20
7.068067247766655
 30
2.110236220471051
 10
8.500141871438245
 20
7.074345038382832
 30
2.10505334879781
 10
8.445159049755602
 20
7.097810150160434
 30
2.086506658637517
 10
8.420913312840639
 20
7.114936208386602
 30
2.073249746401415
 10
8.382514324974181
 20
7.153335196251967
 30
2.04620762032755
 10
8.365748150254148
 20
7.177574810014519
 30
2.030174905517924
 10
8.348493806368423
 20
7.218121314739664
 30
2.010654036515916
 10
8.344008140786172
 20
7.232352658257762
 30
2.004953423900587
 10
8.33792393504882
 20
7.261806645878517
 30
1.996912374504972
 10
8.336326261865906
 20
7.277041518326209
 30
1.994616139005302
 10
8.336326261865906
 20
7.292476696585552
 30
1.994616139005302
1001
ACAD_VIEW_EDGE_ID
1071
        2
1071
       -1
1071
        6
1071
        0
  0
LINE
  5
365
330
70
100
AcDbEntity
  8
Visible
100
AcDbLine
 10
8.824838
 20
7.098926
 30
1.913386
 11
8.824838
 21
7.243658
 31
1.913386
210
0.0
220
1.0
230
0.0
  0
LINE
  5
366
330
70
100
AcDbEntity
  8
Visible
100
AcDbLine
 10
8.296633
 20
7.464087
 30
1.913386
 11
8.296633
 21
7.098926
 31
1.913386
210
0.0
220
1.0
230
0.0
  0
SPLINE
  5
367
330
70
100
AcDbEntity
  8
Visible
100
AcDbSpline
 70
     0
 71
     3
 72
     8
 73
     4
 74
     0
 42
0.000000001
 43
0.0000000001
 40
0.0
 40
0.0
 40
0.0
 40
0.0
 40
0.2012950771902999
 40
0.2012950771902999
 40
0.2012950771902999
 40
0.2012950771902999
 10
8.836326261865906
 20
7.109743293887015
 30
1.834645669288875
 10
8.836326261865906
 20
7.109743293887015
 30
1.861062346086328
 10
8.832433184290493
 20
7.105795471755238
 30
1.887911567981063
 10
8.824838227712461
 20
7.098925575046353
 30
1.913385826770536
1001
ACAD_VIEW_EDGE_ID
1071
       10
1071
       -1
1071
        6
1071
        0
  0
SPLINE
  5
368
330
70
100
AcDbEntity
  8
Visible
100
AcDbSpline
 70
     0
 71
     3
 72
     8
 73
     4
 74
     0
 42
0.000000001
 43
0.0000000001
 40
2.008562787254438
 40
2.008562787254438
 40
2.008562787254438
 40
2.008562787254438
 40
2.209857864444705
 40
2.209857864444705
 40
2.209857864444705
 40
2.209857864444705
 10
8.296633193658635
 20
7.098925575046378
 30
1.913385826770536
 10
8.289038237080603
 20
7.105795471755261
 30
1.887911567981063
 10
8.285145159505191
 20
7.109743293887015
 30
1.861062346086328
 10
8.285145159505191
 20
7.109743293887015
 30
1.834645669288875
1001
ACAD_VIEW_EDGE_ID
1071
       14
1071
       -1
1071
        6
1071
        0
  0
SPLINE
  5
369
330
70
100
AcDbEntity
  8
Visible
100
AcDbSpline
 70
     0
 71
     3
 72
    14
 73
    10
 74
     0
 42
0.000000001
 43
0.0000000001
 40
-1.161707484134181
 40
-1.161707484134181
 40
-1.161707484134181
 40
-1.161707484134181
 40
-0.8798978209865015
 40
-0.8798978209865015
 40
-0.5980881578388218
 40
-0.5980881578388218
 40
-0.2990440789194109
 40
-0.2990440789194109
 40
-0.2126327301455481
 40
-0.2126327301455481
 40
-0.2126327301455481
 40
-0.2126327301455481
 10
8.560735710685548
 20
7.607437326506811
 30
2.110236220471051
 10
8.523752815259285
 20
7.607437326506811
 30
2.110236220471051
 10
8.485738239985948
 20
7.600483329493951
 30
2.102365478331194
 10
8.418256510374703
 20
7.575659281414044
 30
2.073388598430028
 10
8.388710768413147
 20
7.557907227119125
 30
2.052364622159075
 10
8.341619521170287
 20
7.520819972361476
 30
2.005273374918033
 10
8.32120303486954
 20
7.498344473309977
 30
1.975539492734242
 10
8.303150460940742
 20
7.473850812924023
 30
1.933167686314845
 10
8.299619856994468
 20
7.468683269105241
 30
1.923403400145616
 10
8.296633193654997
 20
7.464086891208739
 30
1.913385826765079
1001
ACAD_VIEW_EDGE_ID
1071
       20
1071
       -1
1071
        6
1071
        0
  0
SPLINE
  5
36A
330
70
100
AcDbEntity
  8
Visible
100
AcDbSpline
 70
     0
 71
     3
 72
    14
 73
    10
 74
     0
 42
0.000000001
 43
0.0000000001
 40
2.538578379883544
 40
2.538578379883544
 40
2.538578379883544
 40
2.538578379883544
 40
2.622459047187773
 40
2.622459047187773
 40
2.921503126107184
 40
2.921503126107184
 40
3.203312789254864
 40
3.203312789254864
 40
3.485122452402544
 40
3.485122452402544
 40
3.485122452402544
 40
3.485122452402544
 10
8.824574422518708
 20
7.46449218939274
 30
1.914265312156203
 10
8.821644323748841
 20
7.46898622452637
 30
1.923975095047353
 10
8.818202437480067
 20
7.474011624390172
 30
1.933445875536563
 10
8.800268386501556
 20
7.498344473309977
 30
1.975539492734242
 10
8.77985190020081
 20
7.520819972361476
 30
2.005273374918033
 10
8.732760652957949
 20
7.557907227119125
 30
2.052364622159075
 10
8.703214910996393
 20
7.575659281414044
 30
2.073388598430028
 10
8.635733181385148
 20
7.600483329493951
 30
2.102365478331194
 10
8.597718606111811
 20
7.607437326506811
 30
2.110236220471051
 10
8.560735710685548
 20
7.607437326506811
 30
2.110236220471051
1001
ACAD_VIEW_EDGE_ID
1071
       21
1071
       -1
1071
        6
1071
        0
  0
ARC
  5
36B
330
70
100
AcDbEntity
  8
Visible
100
AcDbCircle
 10
-8.560736
 20
1.834646
 30
3.912313
 40
0.2755905511811029
210
0.0
220
1.0
230
0.0
100
AcDbArc
 50
0.0
 51
180.0
  0
LINE
  5
36C
330
70
100
AcDbEntity
  8
Visible
100
AcDbLine
 10
8.285145
 20
3.912313
 30
1.834646
 11
8.285145
 21
4.393362
 31
1.834646
210
0.0
220
1.0
230
0.0
  0
LINE
  5
36D
330
70
100
AcDbEntity
  8
Visible
100
AcDbLine
 10
8.285145
 20
5.208807
 30
1.834646
 11
8.285145
 21
7.109743
 31
1.834646
210
0.0
220
1.0
230
0.0
  0
LINE
  5
36E
330
70
100
AcDbEntity
  8
Visible
100
AcDbLine
 10
8.836326
 20
3.912313
 30
1.834646
 11
8.836326
 21
4.393362
 31
1.834646
210
0.0
220
1.0
230
0.0
  0
LINE
  5
36F
330
70
100
AcDbEntity
  8
Visible
100
AcDbLine
 10
8.836326
 20
5.208807
 30
1.834646
 11
8.836326
 21
7.109743
 31
1.834646
210
0.0
220
1.0
230
0.0
  0
ARC
  5
370
330
70
100
AcDbEntity
  8
Visible
100
AcDbCircle
 10
-8.560736
 20
4.320036
 30
-1.834646
 40
0.4921259842519688
210
0.0000000000000001
220
0.0
230
-1.0
100
AcDbArc
 50
235.944202
 51
304.055798
  0
SPLINE
  5
371
330
70
100
AcDbEntity
  8
Visible
100
AcDbSpline
210
1.0
220
0.0
230
0.0
 70
    12
 71
     2
 72
     6
 73
     3
 74
     0
 42
0.000000001
 43
0.0000000001
 40
0.1355501852963379
 40
0.1355501852963379
 40
0.1355501852963379
 40
0.453233872459803
 40
0.453233872459803
 40
0.453233872459803
 10
8.641090166869616
 20
7.339051098915114
 30
2.098005208828908
 41
1.232050807568715
 10
8.641090166869616
 20
7.293590447797583
 30
2.07527488326923
 41
1.422649730812052
 10
8.641090166869616
 20
7.248129796680051
 30
2.098005208828908
 41
1.232050807568715
1001
ACAD_VIEW_EDGE_ID
1071
        0
1071
       -1
1071
        7
1071
        0
  0
ARC
  5
372
330
70
100
AcDbEntity
  8
Visible
100
AcDbCircle
 10
8.56235
 20
7.29359
 30
2.098005
 40
0.0909213022345877
100
AcDbArc
 50
330.0
 51
30.0
  0
CIRCLE
  5
373
330
70
100
AcDbEntity
  8
Visible
100
AcDbCircle
 10
8.56235
 20
7.29359
 30
1.987572
 40
0.2066929133858268
  0
CIRCLE
  5
374
330
70
100
AcDbEntity
  8
Visible
100
AcDbCircle
 10
8.56235
 20
7.29359
 30
2.098005
 40
0.1181102362204725
  0
ARC
  5
375
330
70
100
AcDbEntity
  8
Visible
100
AcDbCircle
 10
8.56235
 20
7.29359
 30
2.098005
 40
0.0909213022345878
100
AcDbArc
 50
150.0
 51
210.0
  0
ARC
  5
376
330
70
100
AcDbEntity
  8
Visible
100
AcDbCircle
 10
8.56235
 20
7.29359
 30
2.098005
 40
0.0909213022345859
100
AcDbArc
 50
90.0
 51
150.0
  0
ARC
  5
377
330
70
100
AcDbEntity
  8
Visible
100
AcDbCircle
 10
8.56235
 20
7.29359
 30
2.098005
 40
0.0909213022345862
100
AcDbArc
 50
30.0
 51
90.0
  0
ARC
  5
378
330
70
100
AcDbEntity
  8
Visible
100
AcDbCircle
 10
8.56235
 20
7.29359
 30
2.098005
 40
0.0909213022345863
100
AcDbArc
 50
270.0
 51
330.0
  0
ARC
  5
379
330
70
100
AcDbEntity
  8
Visible
100
AcDbCircle
 10
8.56235
 20
7.29359
 30
2.098005
 40
0.0909213022345862
100
AcDbArc
 50
210.0
 51
270.0
  0
SPLINE
  5
37A
330
70
100
AcDbEntity
  8
Visible
100
AcDbSpline
210
0.5000000000042025
220
0.8660254037820124
230
-0.0000000000200061
 70
    12
 71
     2
 72
     6
 73
     3
 74
     0
 42
0.000000001
 43
0.0000000001
 40
-0.45323387245921
 40
-0.45323387245921
 40
-0.45323387245921
 40
-0.1355501852959807
 40
-0.1355501852959807
 40
-0.1355501852959807
 10
8.641090166869616
 20
7.339051098914758
 30
2.098005208828908
 41
1.232050807568012
 10
8.601720088128786
 20
7.361781424473523
 30
2.07527488326923
 41
1.422649730811242
 10
8.562350009389774
 20
7.384511750032288
 30
2.098005208828908
 41
1.232050807568012
1001
ACAD_VIEW_EDGE_ID
1071
       23
1071
       -1
1071
        7
1071
        0
  0
SPLINE
  5
37B
330
70
100
AcDbEntity
  8
Visible
100
AcDbSpline
210
-0.4999999999955324
220
0.8660254037870181
230
-0.0000000000000507
 70
    12
 71
     2
 72
     6
 73
     3
 74
     0
 42
0.000000001
 43
0.0000000001
 40
-0.4532338724592102
 40
-0.4532338724592102
 40
-0.4532338724592102
 40
-0.1355501852959811
 40
-0.1355501852959811
 40
-0.1355501852959811
 10
8.562350009389774
 20
7.384511750032288
 30
2.098005208828908
 41
1.232050807568011
 10
8.522979930648943
 20
7.361781424473522
 30
2.07527488326923
 41
1.422649730811238
 10
8.483609851908113
 20
7.339051098914759
 30
2.098005208828908
 41
1.232050807568011
1001
ACAD_VIEW_EDGE_ID
1071
       24
1071
       -1
1071
        7
1071
        0
  0
SPLINE
  5
37C
330
70
100
AcDbEntity
  8
Visible
100
AcDbSpline
210
1.0
220
0.0
230
0.0
 70
    12
 71
     2
 72
     6
 73
     3
 74
     0
 42
0.000000001
 43
0.0000000001
 40
-0.4532338724592097
 40
-0.4532338724592097
 40
-0.4532338724592097
 40
-0.1355501852959807
 40
-0.1355501852959807
 40
-0.1355501852959807
 10
8.483609851908113
 20
7.339051098915116
 30
2.098005208828908
 41
1.232050807568013
 10
8.483609851908113
 20
7.293590447797582
 30
2.07527488326923
 41
1.422649730811242
 10
8.483609851908113
 20
7.248129796680052
 30
2.098005208828908
 41
1.232050807568012
1001
ACAD_VIEW_EDGE_ID
1071
       25
1071
       -1
1071
        7
1071
        0
  0
SPLINE
  5
37D
330
70
100
AcDbEntity
  8
Visible
100
AcDbSpline
210
0.4999999999955544
220
0.8660254037870053
230
0.0
 70
    12
 71
     2
 72
     6
 73
     3
 74
     0
 42
0.000000001
 43
0.0000000001
 40
-0.45323387245921
 40
-0.45323387245921
 40
-0.45323387245921
 40
-0.1355501852959808
 40
-0.1355501852959808
 40
-0.1355501852959808
 10
8.483609851908113
 20
7.248129796680409
 30
2.098005208828908
 41
1.232050807568012
 10
8.522979930648943
 20
7.225399471121643
 30
2.07527488326923
 41
1.422649730811241
 10
8.562350009389774
 20
7.202669145562877
 30
2.098005208828908
 41
1.232050807568012
1001
ACAD_VIEW_EDGE_ID
1071
       26
1071
       -1
1071
        7
1071
        0
  0
SPLINE
  5
37E
330
70
100
AcDbEntity
  8
Visible
100
AcDbSpline
210
-0.5000000000042172
220
0.8660254037820036
230
0.0000000000199723
 70
    12
 71
     2
 72
     6
 73
     3
 74
     0
 42
0.000000001
 43
0.0000000001
 40
-0.4532338724592098
 40
-0.4532338724592098
 40
-0.4532338724592098
 40
-0.1355501852959808
 40
-0.1355501852959808
 40
-0.1355501852959808
 10
8.562350009389774
 20
7.202669145562877
 30
2.098005208828908
 41
1.232050807568012
 10
8.601720088128786
 20
7.225399471121642
 30
2.07527488326923
 41
1.422649730811241
 10
8.641090166869616
 20
7.248129796680409
 30
2.098005208828908
 41
1.232050807568012
1001
ACAD_VIEW_EDGE_ID
1071
       27
1071
       -1
1071
        7
1071
        0
  0
LINE
  5
37F
330
70
100
AcDbEntity
  8
Visible
100
AcDbLine
 10
8.299361
 20
7.468214
 30
1.914265
 11
8.299361
 21
7.488813
 31
1.914265
210
0.0
220
1.0
230
0.0
  0
SPLINE
  5
380
330
70
100
AcDbEntity
  8
Visible
100
AcDbSpline
 70
     0
 71
     3
 72
    14
 73
    10
 74
     0
 42
0.000000001
 43
0.0000000001
 40
2.484784797578684
 40
2.484784797578684
 40
2.484784797578684
 40
2.484784797578684
 40
2.567628743438977
 40
2.567628743438977
 40
2.857760605478155
 40
2.857760605478155
 40
3.137002963788927
 40
3.137002963788927
 40
3.4162453220997
 40
3.4162453220997
 40
3.4162453220997
 40
3.4162453220997
 10
8.299360986453393
 20
7.4888134630214
 30
1.914265307106688
 10
8.302339523044793
 20
7.492641057711173
 30
1.924255622545388
 10
8.305864260622911
 20
7.49699749936587
 30
1.934006847797718
 10
8.324008695384691
 20
7.518065539603975
 30
1.976627790671045
 10
8.344573573696834
 20
7.538144138831546
 30
2.006379114984156
 10
8.391708072476831
 20
7.571906689383223
 30
2.053513613764152
 10
8.421450507996269
 20
7.588406809180109
 30
2.074543970458762
 10
8.48896684362262
 20
7.611488829102592
 30
2.103383213987399
 10
8.526817524700163
 20
7.617941287649145
 30
2.111115700807204
 10
8.563463503482125
 20
7.617941287649145
 30
2.111115700807204
1001
ACAD_VIEW_EDGE_ID
1071
        8
1071
       -1
1071
       10
1071
        0
  0
SPLINE
  5
381
330
70
100
AcDbEntity
  8
Visible
100
AcDbSpline
 70
     0
 71
     3
 72
    14
 73
    10
 74
     0
 42
0.000000001
 43
0.0000000001
 40
3.4162453220997
 40
3.4162453220997
 40
3.4162453220997
 40
3.4162453220997
 40
3.695487680410473
 40
3.695487680410473
 40
3.974730038721245
 40
3.974730038721245
 40
4.264861900760423
 40
4.264861900760423
 40
4.347705846620716
 40
4.347705846620716
 40
4.347705846620716
 40
4.347705846620716
 10
8.563463503482125
 20
7.617941287649145
 30
2.111115700807204
 10
8.600109482262269
 20
7.617941287649145
 30
2.111115700807204
 10
8.637960163339812
 20
7.611488829102592
 30
2.103383213987399
 10
8.705476498966163
 20
7.588406809180109
 30
2.074543970458762
 10
8.735218934485601
 20
7.571906689383223
 30
2.053513613764152
 10
8.782353433265598
 20
7.538144138831546
 30
2.006379114984156
 10
8.802918311577741
 20
7.518065539603975
 30
1.976627790671045
 10
8.821062746339521
 20
7.49699749936587
 30
1.934006847797718
 10
8.824587483917639
 20
7.492641057711173
 30
1.924255622545388
 10
8.827566020509038
 20
7.4888134630214
 30
1.914265307106688
1001
ACAD_VIEW_EDGE_ID
1071
        9
1071
       -1
1071
       10
1071
        0
  0
LINE
  5
382
330
70
100
AcDbEntity
  8
Visible
100
AcDbLine
 10
8.827566
 20
7.488813
 30
1.914265
 11
8.827566
 21
7.283296
 31
1.914265
210
0.0
220
1.0
230
0.0
  0
ARC
  5
383
330
70
100
AcDbEntity
  8
Visible
100
AcDbCircle
 10
-9.390235
 20
1.835525
 30
7.676996
 40
0.3740157480314965
210
0.0
220
1.0
230
0.0
100
AcDbArc
 50
90.0
 51
180.0
  0
LINE
  5
384
330
70
100
AcDbEntity
  8
Visible
100
AcDbLine
 10
7.736692
 20
7.676996
 30
2.209541
 11
9.390235
 21
7.676996
 31
2.209541
210
0.0
220
1.0
230
0.0
  0
ARC
  5
385
330
70
100
AcDbEntity
  8
Visible
100
AcDbCircle
 10
-7.736692
 20
1.835525
 30
7.676996
 40
0.3740157480314966
210
0.0
220
1.0
230
0.0
100
AcDbArc
 50
0.0
 51
90.0
  0
ARC
  5
386
330
70
100
AcDbEntity
  8
Visible
100
AcDbCircle
 10
8.563464
 20
7.283296
 30
1.914265
 40
0.2641025170275326
100
AcDbArc
 50
351.367951
 51
0.0
  0
LINE
  5
387
330
70
100
AcDbEntity
  8
Visible
100
AcDbLine
 10
7.736692
 20
7.873847
 30
2.288281
 11
9.390235
 21
7.873847
 31
2.288281
210
0.0
220
1.0
230
0.0
  0
ARC
  5
388
330
70
100
AcDbEntity
  8
Visible
100
AcDbCircle
 10
-9.390235
 20
1.835525
 30
7.873847
 40
0.4527559055118111
210
0.0
220
1.0
230
0.0
100
AcDbArc
 50
90.0
 51
180.0
  0
ARC
  5
389
330
70
100
AcDbEntity
  8
Visible
100
AcDbCircle
 10
-7.736692
 20
1.835525
 30
7.873847
 40
0.4527559055118115
210
0.0
220
1.0
230
0.0
100
AcDbArc
 50
0.0
 51
90.0
  0
ARC
  5
38A
330
70
100
AcDbEntity
  8
Visible
100
AcDbCircle
 10
-8.878424
 20
7.637626
 30
-1.835525
 40
0.0393700787401575
210
0.0000000000000001
220
0.0
230
-1.0
100
AcDbArc
 50
0.0
 51
90.0
  0
ARC
  5
38B
330
70
100
AcDbEntity
  8
Visible
100
AcDbCircle
 10
-8.248503
 20
7.637626
 30
-1.835525
 40
0.0393700787401575
210
0.0000000000000001
220
0.0
230
-1.0
100
AcDbArc
 50
90.0
 51
180.0
  0
LINE
  5
38C
330
70
100
AcDbEntity
  8
Visible
100
AcDbLine
 10
8.839054
 20
7.637626
 30
1.835525
 11
8.839054
 21
7.283296
 31
1.835525
210
0.0
220
1.0
230
0.0
  0
LINE
  5
38D
330
70
100
AcDbEntity
  8
Visible
100
AcDbLine
 10
8.287873
 20
7.637626
 30
1.835525
 11
8.287873
 21
7.283296
 31
1.835525
210
0.0
220
1.0
230
0.0
  0
ARC
  5
38E
330
70
100
AcDbEntity
  8
Visible
100
AcDbCircle
 10
-8.563464
 20
7.283296
 30
-1.835525
 40
0.2755905511811024
210
0.0000000000000001
220
0.0
230
-1.0
100
AcDbArc
 50
180.0
 51
198.483163
  0
ARC
  5
38F
330
70
100
AcDbEntity
  8
Visible
100
AcDbCircle
 10
-8.563464
 20
7.283296
 30
-1.835525
 40
0.2755905511811024
210
0.0000000000000001
220
0.0
230
-1.0
100
AcDbArc
 50
345.514927
 51
0.0
  0
ARC
  5
390
330
70
100
AcDbEntity
  8
Visible
100
AcDbCircle
 10
-9.764251
 20
7.755737
 30
-1.835525
 40
0.078740157480315
210
0.0000000000000001
220
0.0
230
-1.0
100
AcDbArc
 50
180.0
 51
270.0
  0
ARC
  5
391
330
70
100
AcDbEntity
  8
Visible
100
AcDbCircle
 10
-7.362676
 20
7.755737
 30
-1.835525
 40
0.078740157480315
210
0.0000000000000001
220
0.0
230
-1.0
100
AcDbArc
 50
270.0
 51
0.0
  0
LINE
  5
392
330
70
100
AcDbEntity
  8
Visible
100
AcDbLine
 10
9.842991
 20
7.873847
 30
1.835525
 11
9.842991
 21
7.755737
 31
1.835525
210
0.0
220
1.0
230
0.0
  0
LINE
  5
393
330
70
100
AcDbEntity
  8
Visible
100
AcDbLine
 10
7.283936
 20
7.873847
 30
1.835525
 11
7.283936
 21
7.755737
 31
1.835525
210
0.0
220
1.0
230
0.0
  0
LINE
  5
394
330
70
100
AcDbEntity
  8
Visible
100
AcDbLine
 10
1.76831
 20
5.78118
 30
0.093082
 11
1.61083
 21
5.78118
 31
0.093082
210
0.0
220
1.0
230
0.0
  0
ARC
  5
395
330
70
100
AcDbEntity
  8
Visible
100
AcDbCircle
 10
-4.801084
 20
0.002728
 30
-1.61083
 40
0.9842519685039489
210
-1.0
220
0.0
230
-0.0000000000002969
100
AcDbArc
 50
174.732832
 51
180.0
  0
ARC
  5
396
330
70
100
AcDbEntity
  8
Visible
100
AcDbCircle
 10
-4.801084
 20
0.002728
 30
-1.76831
 40
0.9842519685039372
210
-1.0
220
0.0000000000000003
230
-0.0000000000002969
100
AcDbArc
 50
0.0
 51
174.732832
  0
ARC
  5
397
330
70
100
AcDbEntity
  8
Visible
100
AcDbCircle
 10
-4.801084
 20
0.002728
 30
-1.53209
 40
0.9842519685039368
210
-1.0
220
-0.0000000000000003
230
-0.0000000000002969
100
AcDbArc
 50
0.0
 51
180.0
  0
LINE
  5
398
330
70
100
AcDbEntity
  8
Visible
100
AcDbLine
 10
1.76831
 20
3.816832
 30
0.002728
 11
1.53209
 21
3.816832
 31
0.002728
210
0.0
220
1.0
230
0.0
  0
LINE
  5
399
330
70
100
AcDbEntity
  8
Visible
100
AcDbLine
 10
1.61083
 20
5.785336
 30
0.002728
 11
1.53209
 21
5.785336
 31
0.002728
210
0.0
220
1.0
230
0.0
  0
ARC
  5
39A
330
70
100
AcDbEntity
  8
Visible
100
AcDbCircle
 10
4.801084
 20
0.002728
 30
2.366735
 40
0.2559055118110236
210
1.0
220
0.0000000000000003
230
0.0000000000002969
100
AcDbArc
 50
0.0
 51
180.0
  0
ARC
  5
39B
330
70
100
AcDbEntity
  8
Visible
100
AcDbCircle
 10
4.801084
 20
0.002728
 30
1.854924
 40
0.9448818897637798
210
1.0
220
0.0000000000000003
230
0.0000000000002969
100
AcDbArc
 50
0.0
 51
180.0
  0
LINE
  5
39C
330
70
100
AcDbEntity
  8
Visible
100
AcDbLine
 10
1.854924
 20
5.05699
 30
0.002728
 11
2.366735
 21
5.05699
 31
0.002728
210
0.0
220
1.0
230
0.0
  0
LINE
  5
39D
330
70
100
AcDbEntity
  8
Visible
100
AcDbLine
 10
1.854924
 20
4.545179
 30
0.002728
 11
2.366735
 21
4.545179
 31
0.002728
210
0.0
220
1.0
230
0.0
  0
LINE
  5
39E
330
70
100
AcDbEntity
  8
Visible
100
AcDbLine
 10
1.76831
 20
5.745966
 30
0.002728
 11
1.854924
 21
5.745966
 31
0.002728
210
0.0
220
1.0
230
0.0
  0
LINE
  5
39F
330
70
100
AcDbEntity
  8
Visible
100
AcDbLine
 10
1.76831
 20
3.856202
 30
0.002728
 11
1.854924
 21
3.856202
 31
0.002728
210
0.0
220
1.0
230
0.0
  0
ARC
  5
3A0
330
70
100
AcDbEntity
  8
Visible
100
AcDbCircle
 10
4.801084
 20
0.002728
 30
2.445475
 40
0.9448818897637799
210
1.0
220
-0.0000000000000021
230
0.000000000000297
100
AcDbArc
 50
0.0
 51
180.0
  0
LINE
  5
3A1
330
70
100
AcDbEntity
  8
Visible
100
AcDbLine
 10
2.445475
 20
5.745966
 30
0.002728
 11
2.524216
 21
5.745966
 31
0.002728
210
0.0
220
1.0
230
0.0
  0
LINE
  5
3A2
330
70
100
AcDbEntity
  8
Visible
100
AcDbLine
 10
2.445475
 20
3.856202
 30
0.002728
 11
2.524216
 21
3.856202
 31
0.002728
210
0.0
220
1.0
230
0.0
  0
SPLINE
  5
3A3
330
70
100
AcDbEntity
  8
Visible
100
AcDbSpline
 70
     0
 71
     3
 72
    22
 73
    18
 74
     0
 42
0.000000001
 43
0.0000000001
 40
0.3196412798768675
 40
0.3196412798768675
 40
0.3196412798768675
 40
0.3196412798768675
 40
0.3995504610194669
 40
0.3995504610194669
 40
0.4794596421620663
 40
0.4794596421620663
 40
0.5593711009579005
 40
0.5593711009579005
 40
0.639282559753735
 40
0.639282559753735
 40
0.7191940185495694
 40
0.7191940185495694
 40
0.7991054773454036
 40
0.7991054773454036
 40
0.879014658488003
 40
0.879014658488003
 40
0.9589238396306026
 40
0.9589238396306026
 40
0.9589238396306026
 40
0.9589238396306026
 10
5.782821524950122
 20
4.801084347857599
 30
0.4948537770524127
 10
5.782821524950122
 20
4.79059757867878
 30
0.4948537770524127
 10
5.78072160978445
 20
4.779425508546412
 30
0.494484525443113
 10
5.772209469118024
 20
4.758896521203668
 30
0.4931500360835344
 10
5.765798351694684
 20
4.749537941863237
 30
0.4922033649236255
 10
5.751021263658913
 20
4.734760853828261
 30
0.4904208981170087
 10
5.741662774655196
 20
4.728349901578313
 30
0.4894682294398081
 10
5.721134097926551
 20
4.719837880816928
 30
0.4881199684296007
 10
5.709962136341346
 20
4.717737891164685
 30
0.4877446507889545
 10
5.688988000174504
 20
4.717737891164685
 30
0.4877446507889545
 10
5.677816038589298
 20
4.719837880816928
 30
0.4881199684296007
 10
5.657287361860653
 20
4.728349901578313
 30
0.4894682294398081
 10
5.647928872856937
 20
4.734760853828261
 30
0.4904208981170087
 10
5.633151784821166
 20
4.749537941863237
 30
0.4922033649236255
 10
5.626740667397825
 20
4.758896521203668
 30
0.4931500360835344
 10
5.6182285267314
 20
4.779425508546412
 30
0.494484525443113
 10
5.616128611563908
 20
4.79059757867878
 30
0.4948537770524127
 10
5.616128611563908
 20
4.801084347857599
 30
0.4948537770524127
1001
ACAD_VIEW_EDGE_ID
1071
        3
1071
       -1
1071
        5
1071
        0
  0
SPLINE
  5
3A4
330
70
100
AcDbEntity
  8
Visible
100
AcDbSpline
 70
     0
 71
     3
 72
    23
 73
    19
 74
     0
 42
0.000000001
 43
0.0000000001
 40
0.9589238396306026
 40
0.9589238396306026
 40
0.9589238396306026
 40
0.9589238396306026
 40
1.038833020773202
 40
1.038833020773202
 40
1.118742201915801
 40
1.118742201915801
 40
1.198653660711635
 40
1.198653660711635
 40
1.27856511950747
 40
1.27856511950747
 40
1.27856511950747
 40
1.358476578303304
 40
1.358476578303304
 40
1.438388037099138
 40
1.438388037099138
 40
1.518297218241738
 40
1.518297218241738
 40
1.598206399384337
 40
1.598206399384337
 40
1.598206399384337
 40
1.598206399384337
 10
5.616128611563908
 20
4.801084347857599
 30
0.4948537770524127
 10
5.616128611563908
 20
4.811571117036417
 30
0.4948537770524127
 10
5.6182285267314
 20
4.822743187168785
 30
0.494484525443113
 10
5.626740667397825
 20
4.843272174511529
 30
0.4931500360835344
 10
5.633151784821166
 20
4.85263075385196
 30
0.4922033649236255
 10
5.647928872856937
 20
4.867407841886936
 30
0.4904208981170087
 10
5.657287361860653
 20
4.873818794136886
 30
0.4894682294398081
 10
5.677816038589298
 20
4.882330814898269
 30
0.4881199684296007
 10
5.688988000174504
 20
4.884430804550512
 30
0.4877446507889545
 10
5.699475068257015
 20
4.884430804550512
 30
0.4877446507889545
 10
5.709962136341346
 20
4.884430804550512
 30
0.4877446507889545
 10
5.721134097926551
 20
4.882330814898269
 30
0.4881199684296007
 10
5.741662774655196
 20
4.873818794136886
 30
0.4894682294398081
 10
5.751021263658913
 20
4.867407841886936
 30
0.4904208981170087
 10
5.765798351694684
 20
4.85263075385196
 30
0.4922033649236255
 10
5.772209469118024
 20
4.843272174511529
 30
0.4931500360835344
 10
5.78072160978445
 20
4.822743187168785
 30
0.494484525443113
 10
5.782821524950122
 20
4.811571117036417
 30
0.4948537770524127
 10
5.782821524950122
 20
4.801084347857599
 30
0.4948537770524127
1001
ACAD_VIEW_EDGE_ID
1071
        4
1071
       -1
1071
        5
1071
        0
  0
SPLINE
  5
3A5
330
70
100
AcDbEntity
  8
Visible
100
AcDbSpline
 70
     0
 71
     3
 72
    22
 73
    18
 74
     0
 42
0.000000001
 43
0.0000000001
 40
1.082898440392949
 40
1.082898440392949
 40
1.082898440396907
 40
1.082898440396907
 40
1.352995901063261
 40
1.352995901063261
 40
1.623093361729615
 40
1.623093361729615
 40
1.894445121261714
 40
1.894445121261714
 40
2.165796880793813
 40
2.165796880793813
 40
2.437148640325912
 40
2.437148640325912
 40
2.708500399858011
 40
2.708500399858011
 40
2.978597860524365
 40
2.978597860524365
 40
3.248695321190719
 40
3.248695321190719
 40
3.248695321193409
 40
3.248695321193409
 10
5.398231398854477
 20
4.30895836360563
 30
0.002727792800215
 10
5.398231398854477
 20
4.30895836360563
 30
0.0381736537801771
 10
5.40547930847606
 20
4.313128949550374
 30
0.0754585847844283
 10
5.43387114014331
 20
4.328147680065494
 30
0.1431597902774229
 10
5.454975776305218
 20
4.338846747988519
 30
0.1736255142131995
 10
5.503035561934666
 20
4.359571510353945
 30
0.2216852998408285
 10
5.533467537490651
 20
4.371119508506072
 30
0.2427105373590166
 10
5.601005301445184
 20
4.388200902397974
 30
0.2710350307279441
 10
5.638211482904807
 20
4.39336160814878
 30
0.2783183439805725
 10
5.709432417166681
 20
4.39336160814878
 30
0.2783183439805725
 10
5.746638598626304
 20
4.388200902397974
 30
0.2710350307279441
 10
5.814176362580838
 20
4.371119508506072
 30
0.2427105373590166
 10
5.844608338136822
 20
4.359571510353945
 30
0.2216852998408285
 10
5.89266812376627
 20
4.338846747988519
 30
0.1736255142131995
 10
5.913772759928178
 20
4.328147680065494
 30
0.1431597902774229
 10
5.942164591595428
 20
4.313128949550374
 30
0.0754585847844283
 10
5.949412501217011
 20
4.30895836360563
 30
0.0381736537801771
 10
5.949412501217011
 20
4.30895836360563
 30
0.002727792800215
1001
ACAD_VIEW_EDGE_ID
1071
        6
1071
       -1
1071
        5
1071
        0
  0
SPLINE
  5
3A6
330
70
100
AcDbEntity
  8
Visible
100
AcDbSpline
 70
     0
 71
     3
 72
    22
 73
    18
 74
     0
 42
0.000000001
 43
0.0000000001
 40
1.082898440392949
 40
1.082898440392949
 40
1.082898440396907
 40
1.082898440396907
 40
1.352995901063261
 40
1.352995901063261
 40
1.623093361729615
 40
1.623093361729615
 40
1.894445121261714
 40
1.894445121261714
 40
2.165796880793813
 40
2.165796880793813
 40
2.437148640325912
 40
2.437148640325912
 40
2.708500399858011
 40
2.708500399858011
 40
2.978597860524365
 40
2.978597860524365
 40
3.248695321190719
 40
3.248695321190719
 40
3.248695321193409
 40
3.248695321193409
 10
5.949412501217011
 20
5.293210332109567
 30
0.002727792800215
 10
5.949412501217011
 20
5.293210332109567
 30
0.0381736537801771
 10
5.942164591595428
 20
5.289039746164823
 30
0.0754585847844283
 10
5.913772759928178
 20
5.274021015649703
 30
0.1431597902774229
 10
5.89266812376627
 20
5.263321947726678
 30
0.1736255142131995
 10
5.844608338136822
 20
5.242597185361252
 30
0.2216852998408285
 10
5.814176362580838
 20
5.231049187209126
 30
0.2427105373590166
 10
5.746638598626304
 20
5.213967793317223
 30
0.2710350307279441
 10
5.709432417166681
 20
5.208807087566418
 30
0.2783183439805725
 10
5.638211482904807
 20
5.208807087566418
 30
0.2783183439805725
 10
5.601005301445184
 20
5.213967793317223
 30
0.2710350307279441
 10
5.533467537490651
 20
5.231049187209126
 30
0.2427105373590166
 10
5.503035561934666
 20
5.242597185361252
 30
0.2216852998408285
 10
5.454975776305218
 20
5.263321947726678
 30
0.1736255142131995
 10
5.43387114014331
 20
5.274021015649703
 30
0.1431597902774229
 10
5.40547930847606
 20
5.289039746164823
 30
0.0754585847844283
 10
5.398231398854477
 20
5.293210332109567
 30
0.0381736537801771
 10
5.398231398854477
 20
5.293210332109567
 30
0.002727792800215
1001
ACAD_VIEW_EDGE_ID
1071
        7
1071
       -1
1071
        5
1071
        0
  0
ARC
  5
3A7
330
70
100
AcDbEntity
  8
Visible
100
AcDbCircle
 10
4.801084
 20
0.002728
 30
6.067393
 40
0.4921259842519685
210
1.0
220
0.0
230
0.0000000000002969
100
AcDbArc
 50
0.0
 51
180.0
  0
ARC
  5
3A8
330
70
100
AcDbEntity
  8
Visible
100
AcDbCircle
 10
4.801084
 20
0.002728
 30
2.524216
 40
0.9842519685039372
210
1.0
220
-0.0000000000000004
230
0.0000000000002966
100
AcDbArc
 50
0.0
 51
180.0
  0
ARC
  5
3A9
330
70
100
AcDbEntity
  8
Visible
100
AcDbCircle
 10
4.801084
 20
0.002728
 30
2.721066
 40
0.9842519685039372
210
1.0
220
-0.0000000000000004
230
0.0000000000002967
100
AcDbArc
 50
0.0
 51
180.0
  0
ARC
  5
3AA
330
70
100
AcDbEntity
  8
Visible
100
AcDbCircle
 10
-4.57146
 20
4.801084
 30
-0.002728
 40
1.574803149606299
210
0.0000000000002969
220
0.0
230
-1.0
100
AcDbArc
 50
161.790043
 51
198.209957
  0
LINE
  5
3AB
330
70
100
AcDbEntity
  8
Visible
100
AcDbLine
 10
2.524216
 20
5.785336
 30
0.002728
 11
2.721066
 21
5.785336
 31
0.002728
210
0.0
220
1.0
230
0.0
  0
LINE
  5
3AC
330
70
100
AcDbEntity
  8
Visible
100
AcDbLine
 10
2.524216
 20
3.816832
 30
0.002728
 11
2.721066
 21
3.816832
 31
0.002728
210
0.0
220
1.0
230
0.0
  0
LINE
  5
3AD
330
70
100
AcDbEntity
  8
Visible
100
AcDbLine
 10
2.721066
 20
5.29321
 30
0.002728
 11
5.398231
 21
5.29321
 31
0.002728
210
0.0
220
1.0
230
0.0
  0
LINE
  5
3AE
330
70
100
AcDbEntity
  8
Visible
100
AcDbLine
 10
5.949413
 20
5.29321
 30
0.002728
 11
6.067393
 21
5.29321
 31
0.002728
210
0.0
220
1.0
230
0.0
  0
LINE
  5
3AF
330
70
100
AcDbEntity
  8
Visible
100
AcDbLine
 10
2.721066
 20
4.308958
 30
0.002728
 11
5.398231
 21
4.308958
 31
0.002728
210
0.0
220
1.0
230
0.0
  0
LINE
  5
3B0
330
70
100
AcDbEntity
  8
Visible
100
AcDbLine
 10
5.949413
 20
4.308958
 30
0.002728
 11
6.067393
 21
4.308958
 31
0.002728
210
0.0
220
1.0
230
0.0
  0
SPLINE
  5
3B1
330
70
100
AcDbEntity
  8
Visible
100
AcDbSpline
 70
     0
 71
     3
 72
    14
 73
    10
 74
     0
 42
0.000000001
 43
0.0000000001
 40
0.0
 40
0.0
 40
0.0
 40
0.0
 40
0.0957976978317546
 40
0.0957976978317546
 40
0.1915953956635092
 40
0.1915953956635092
 40
0.2873317529810546
 40
0.2873317529810546
 40
0.3830681102962301
 40
0.3830681102962301
 40
0.3830681102986
 40
0.3830681102986
 10
5.416671152708659
 20
7.292476677869118
 30
0.1018419660285872
 10
5.416671152708659
 20
7.279904801513245
 30
0.1018419660285872
 10
5.415652087058333
 20
7.266581539673366
 30
0.0993062965771969
 10
5.412080146184962
 20
7.242200883014215
 30
0.0891587595342571
 10
5.409589914299431
 20
7.231132241190614
 30
0.0815519641255378
 10
5.404995077116836
 20
7.21365810279563
 30
0.0640778257293278
 10
5.402577127502809
 20
7.206047022131198
 30
0.0530069951528276
 10
5.399174093077817
 20
7.195896259406875
 30
0.0286180730527121
 10
5.398231398854477
 20
7.193362504640896
 30
0.0152916192200792
 10
5.398231398854477
 20
7.193362504640772
 30
0.002727792800215
1001
ACAD_VIEW_EDGE_ID
1071
        0
1071
       -1
1071
        6
1071
        0
  0
SPLINE
  5
3B2
330
70
100
AcDbEntity
  8
Visible
100
AcDbSpline
 70
     0
 71
     3
 72
    14
 73
    10
 74
     0
 42
0.000000001
 43
0.0000000001
 40
1.149204330892424
 40
1.149204330892424
 40
1.149204330895799
 40
1.149204330895799
 40
1.244940688213344
 40
1.244940688213344
 40
1.340677045530889
 40
1.340677045530889
 40
1.436474743362644
 40
1.436474743362644
 40
1.532272441194398
 40
1.532272441194398
 40
1.532272441194398
 40
1.532272441194398
 10
5.398231398854477
 20
7.391590851097465
 30
0.002727792800215
 10
5.398231398854477
 20
7.391590851097465
 30
0.0152916192200792
 10
5.399174093077817
 20
7.389057096331487
 30
0.0286180730508932
 10
5.402577127502809
 20
7.378906333607038
 30
0.0530069951528276
 10
5.404995077116836
 20
7.371295252942607
 30
0.0640778257293278
 10
5.409589914299431
 20
7.353821114547622
 30
0.0815519641255378
 10
5.412080146184962
 20
7.342752472724022
 30
0.0891587595342571
 10
5.415652087058333
 20
7.31837181606487
 30
0.0993062965771969
 10
5.416671152708659
 20
7.305048554224992
 30
0.1018419660285872
 10
5.416671152708659
 20
7.292476677869118
 30
0.1018419660285872
1001
ACAD_VIEW_EDGE_ID
1071
        0
1071
       -1
1071
        6
1071
        0
  0
SPLINE
  5
3B3
330
70
100
AcDbEntity
  8
Visible
100
AcDbSpline
 70
     0
 71
     3
 72
    16
 73
    12
 74
     0
 42
0.000000001
 43
0.0000000001
 40
0.0
 40
0.0
 40
0.0
 40
0.0
 40
0.1176160583361983
 40
0.1176160583361983
 40
0.2352321166723966
 40
0.2352321166723966
 40
0.4704642333447932
 40
0.4704642333447932
 40
0.6974993473189302
 40
0.6974993473189302
 40
0.9245344612930672
 40
0.9245344612930672
 40
0.9245344612956508
 40
0.9245344612956508
 10
5.833792419751262
 20
7.292476677869117
 30
0.2271372416198574
 10
5.833792419751262
 20
7.307911856128462
 30
0.2271372416198574
 10
5.836088655250932
 20
7.323146728576153
 30
0.2255395684369432
 10
5.844129704646547
 20
7.352600716196908
 30
0.2194553626995912
 10
5.849830317261876
 20
7.366832059715005
 30
0.2149696971173398
 10
5.869351186263884
 20
7.407378564440151
 30
0.1977153532316151
 10
5.88538390107351
 20
7.431618178202704
 30
0.1809491785115824
 10
5.912426027147375
 20
7.470017166068069
 30
0.1425501906451245
 10
5.925682939383477
 20
7.487143224294236
 30
0.1183044537301612
 10
5.944229629543769
 20
7.510608336071839
 30
0.0633216320475185
 10
5.949412501217011
 20
7.516886126688016
 30
0.0325224271800835
 10
5.949412501217011
 20
7.516886126688016
 30
0.002727792800215
1001
ACAD_VIEW_EDGE_ID
1071
        2
1071
       -1
1071
        6
1071
        0
  0
SPLINE
  5
3B4
330
70
100
AcDbEntity
  8
Visible
100
AcDbSpline
 70
     0
 71
     3
 72
    16
 73
    12
 74
     0
 42
0.000000001
 43
0.0000000001
 40
2.773603383878245
 40
2.773603383878245
 40
2.773603383879203
 40
2.773603383879203
 40
3.000638497853339
 40
3.000638497853339
 40
3.227673611827476
 40
3.227673611827476
 40
3.462905728499873
 40
3.462905728499873
 40
3.580521786836072
 40
3.580521786836072
 40
3.698137845172271
 40
3.698137845172271
 40
3.698137845172271
 40
3.698137845172271
 10
5.949412501217011
 20
7.06806722905022
 30
0.002727792800215
 10
5.949412501217011
 20
7.06806722905022
 30
0.0325224271800835
 10
5.944229629543769
 20
7.074345019666397
 30
0.0633216320475185
 10
5.925682939383477
 20
7.097810131443999
 30
0.1183044537301612
 10
5.912426027147375
 20
7.114936189670167
 30
0.1425501906451245
 10
5.88538390107351
 20
7.153335177535533
 30
0.1809491785115824
 10
5.869351186263884
 20
7.177574791298084
 30
0.1977153532316151
 10
5.849830317261876
 20
7.218121296023229
 30
0.2149696971173398
 10
5.844129704646547
 20
7.232352639541328
 30
0.2194553626995912
 10
5.836088655250932
 20
7.261806627162083
 30
0.2255395684369432
 10
5.833792419751262
 20
7.277041499609774
 30
0.2271372416198574
 10
5.833792419751262
 20
7.292476677869117
 30
0.2271372416198574
1001
ACAD_VIEW_EDGE_ID
1071
        2
1071
       -1
1071
        6
1071
        0
  0
LINE
  5
3B5
330
70
100
AcDbEntity
  8
Visible
100
AcDbLine
 10
5.752562
 20
7.464087
 30
0.26683
 11
5.752562
 21
7.098926
 31
0.26683
210
0.0
220
1.0
230
0.0
  0
ARC
  5
3B6
330
70
100
AcDbEntity
  8
Visible
100
AcDbCircle
 10
7.292477
 20
0.002728
 30
5.752562
 40
0.3149606299223586
210
1.0
220
0.0
230
0.0000000000002969
100
AcDbArc
 50
56.16991
 51
56.984741
  0
SPLINE
  5
3B7
330
70
100
AcDbEntity
  8
Visible
100
AcDbSpline
 70
     0
 71
     3
 72
     8
 73
     4
 74
     0
 42
0.000000001
 43
0.0000000001
 40
2.209857864444705
 40
2.209857864444705
 40
2.209857864444705
 40
2.209857864444705
 40
2.411152941634972
 40
2.411152941634972
 40
2.411152941634972
 40
2.411152941634972
 10
5.673821950034835
 20
7.109743275170581
 30
0.2783183439805725
 10
5.647405273239201
 20
7.109743275170581
 30
0.2783183439805725
 10
5.620556051344465
 20
7.105795453038826
 30
0.2744252664051601
 10
5.595081792554992
 20
7.098925556329943
 30
0.2668303098271281
1001
ACAD_VIEW_EDGE_ID
1071
       13
1071
       -1
1071
        6
1071
        0
  0
SPLINE
  5
3B8
330
70
100
AcDbEntity
  8
Visible
100
AcDbSpline
 70
     0
 71
     3
 72
     8
 73
     4
 74
     0
 42
0.000000001
 43
0.0000000001
 40
2.008562787254438
 40
2.008562787254438
 40
2.008562787254438
 40
2.008562787254438
 40
2.209857864444705
 40
2.209857864444705
 40
2.209857864444705
 40
2.209857864444705
 10
5.752562107516496
 20
7.098925556329943
 30
0.2668303098271281
 10
5.727087848727023
 20
7.105795453038826
 30
0.2744252664051601
 10
5.700238626832287
 20
7.109743275170581
 30
0.2783183439805725
 10
5.673821950034835
 20
7.109743275170581
 30
0.2783183439805725
1001
ACAD_VIEW_EDGE_ID
1071
       14
1071
       -1
1071
        6
1071
        0
  0
ARC
  5
3B9
330
70
100
AcDbEntity
  8
Visible
100
AcDbCircle
 10
-7.292477
 20
0.002728
 30
-5.595082
 40
0.3149606299213107
210
-1.0
220
0.0
230
-0.0000000000002969
100
AcDbArc
 50
123.015259
 51
128.641402
  0
LINE
  5
3BA
330
70
100
AcDbEntity
  8
Visible
100
AcDbLine
 10
5.595082
 20
7.098926
 30
0.26683
 11
5.595082
 21
7.464087
 31
0.26683
210
0.0
220
1.0
230
0.0
  0
SPLINE
  5
3BB
330
70
100
AcDbEntity
  8
Visible
100
AcDbSpline
 70
     0
 71
     3
 72
    14
 73
    10
 74
     0
 42
0.000000001
 43
0.0000000001
 40
0.2126327301730622
 40
0.2126327301730622
 40
0.2126327301730622
 40
0.2126327301730622
 40
0.2990440789194104
 40
0.2990440789194104
 40
0.5980881578388209
 40
0.5980881578388209
 40
0.8798978209865008
 40
0.8798978209865008
 40
1.161707484134181
 40
1.161707484134181
 40
1.161707484134181
 40
1.161707484134181
 10
5.595081792554992
 20
7.464086872496702
 30
0.2668303098271281
 10
5.585064219179912
 20
7.468683250392109
 30
0.2638436464894767
 10
5.575299933007045
 20
7.473850794209337
 30
0.2603130425432027
 10
5.532928126591286
 20
7.498344454593542
 30
0.2422604686162231
 10
5.503194244407495
 20
7.520819953645041
 30
0.2218439823154767
 10
5.456102997166453
 20
7.557907208402689
 30
0.1747527350726159
 10
5.4350790208955
 20
7.575659262697609
 30
0.14520699311106
 10
5.406102140994335
 20
7.600483310777516
 30
0.0777252634998149
 10
5.398231398854477
 20
7.607437307790378
 30
0.039710688226478
 10
5.398231398854477
 20
7.607437307790378
 30
0.002727792800215
1001
ACAD_VIEW_EDGE_ID
1071
       19
1071
       -1
1071
        6
1071
        0
  0
SPLINE
  5
3BC
330
70
100
AcDbEntity
  8
Visible
100
AcDbSpline
 70
     0
 71
     3
 72
    14
 73
    10
 74
     0
 42
0.000000001
 43
0.0000000001
 40
-1.161707484134181
 40
-1.161707484134181
 40
-1.161707484134181
 40
-1.161707484134181
 40
-0.8798978209865015
 40
-0.8798978209865015
 40
-0.5980881578388218
 40
-0.5980881578388218
 40
-0.2990440789194109
 40
-0.2990440789194109
 40
-0.2126327301455481
 40
-0.2126327301455481
 40
-0.2126327301455481
 40
-0.2126327301455481
 10
5.949412501217011
 20
7.607437307790377
 30
0.002727792800215
 10
5.949412501217011
 20
7.607437307790377
 30
0.039710688226478
 10
5.941541759077153
 20
7.600483310777517
 30
0.0777252634998149
 10
5.912564879175988
 20
7.57565926269761
 30
0.14520699311106
 10
5.891540902905035
 20
7.55790720840269
 30
0.1747527350726159
 10
5.844449655663993
 20
7.520819953645041
 30
0.2218439823154767
 10
5.814715773480202
 20
7.498344454593542
 30
0.2422604686162231
 10
5.772343967060805
 20
7.473850794207589
 30
0.2603130425450217
 10
5.762579680891576
 20
7.468683250388806
 30
0.2638436464912957
 10
5.752562107511039
 20
7.464086872492305
 30
0.266830309830766
1001
ACAD_VIEW_EDGE_ID
1071
       20
1071
       -1
1071
        6
1071
        0
  0
ARC
  5
3BD
330
70
100
AcDbEntity
  8
Visible
100
AcDbCircle
 10
-5.673822
 20
0.002728
 30
3.912313
 40
0.2755905511811028
210
0.0
220
1.0
230
0.0
100
AcDbArc
 50
0.0
 51
180.0
  0
LINE
  5
3BE
330
70
100
AcDbEntity
  8
Visible
100
AcDbLine
 10
5.398231
 20
7.607437
 30
0.002728
 11
5.411965
 21
7.607437
 31
0.002728
210
0.0
220
1.0
230
0.0
  0
LINE
  5
3BF
330
70
100
AcDbEntity
  8
Visible
100
AcDbLine
 10
5.937438
 20
7.607437
 30
0.002728
 11
5.949413
 21
7.607437
 31
0.002728
210
0.0
220
1.0
230
0.0
  0
LINE
  5
3C0
330
70
100
AcDbEntity
  8
Visible
100
AcDbLine
 10
5.398231
 20
3.912313
 30
0.002728
 11
5.398231
 21
4.308958
 31
0.002728
210
0.0
220
1.0
230
0.0
  0
LINE
  5
3C1
330
70
100
AcDbEntity
  8
Visible
100
AcDbLine
 10
5.398231
 20
5.29321
 30
0.002728
 11
5.398231
 21
7.193363
 31
0.002728
210
0.0
220
1.0
230
0.0
  0
LINE
  5
3C2
330
70
100
AcDbEntity
  8
Visible
100
AcDbLine
 10
5.398231
 20
7.391591
 30
0.002728
 11
5.398231
 21
7.607437
 31
0.002728
210
0.0
220
1.0
230
0.0
  0
LINE
  5
3C3
330
70
100
AcDbEntity
  8
Visible
100
AcDbLine
 10
5.949413
 20
3.912313
 30
0.002728
 11
5.949413
 21
4.308958
 31
0.002728
210
0.0
220
1.0
230
0.0
  0
LINE
  5
3C4
330
70
100
AcDbEntity
  8
Visible
100
AcDbLine
 10
5.949413
 20
5.29321
 30
0.002728
 11
5.949413
 21
7.068067
 31
0.002728
210
0.0
220
1.0
230
0.0
  0
LINE
  5
3C5
330
70
100
AcDbEntity
  8
Visible
100
AcDbLine
 10
5.949413
 20
7.516886
 30
0.002728
 11
5.949413
 21
7.607437
 31
0.002728
210
0.0
220
1.0
230
0.0
  0
ARC
  5
3C6
330
70
100
AcDbEntity
  8
Visible
100
AcDbCircle
 10
-5.673822
 20
4.320036
 30
-0.002728
 40
0.4921259842519688
210
0.0000000000002969
220
0.0
230
-1.0
100
AcDbArc
 50
235.944202
 51
304.055798
  0
ARC
  5
3C7
330
70
100
AcDbEntity
  8
Visible
100
AcDbCircle
 10
7.29359
 20
0.001113
 30
5.937181
 40
0.1181102362204724
210
1.0
220
0.0
230
0.0000000000002969
100
AcDbArc
 50
0.0
 51
180.0
  0
ARC
  5
3C8
330
70
100
AcDbEntity
  8
Visible
100
AcDbCircle
 10
-7.29359
 20
0.001113
 30
-5.413559
 40
0.0885826771653545
210
-1.0
220
0.0
230
-0.0000000000002969
100
AcDbArc
 50
62.25462
 51
116.129222
  0
SPLINE
  5
3C9
330
70
100
AcDbEntity
  8
Visible
100
AcDbSpline
 70
     0
 71
     3
 72
    10
 73
     6
 74
     0
 42
0.000000001
 43
0.0000000001
 40
-7.291663372033962
 40
-7.291663372033962
 40
-7.291663372033962
 40
-7.291663372033962
 40
-7.260528220463851
 40
-7.260528220463851
 40
-7.248458017987125
 40
-7.248458017987125
 40
-7.248458017987125
 40
-7.248458017987125
 10
5.595970058320745
 20
7.175643013006141
 30
-0.0050858160848293
 10
5.595756203612836
 20
7.175426244821437
 30
-0.0009618110907468
 10
5.595543353661923
 20
7.175425531540652
 30
0.0031780992230779
 10
5.595248189531048
 20
7.175727608275476
 30
0.0089215022671851
 10
5.595165219474438
 20
7.175844653035978
 30
0.0105226522409794
 10
5.595081792520431
 20
7.1759941025747
 30
0.0121194638632005
1001
ACAD_VIEW_EDGE_ID
1071
       10
1071
       -1
1071
        7
1071
        0
  0
SPLINE
  5
3CA
330
70
100
AcDbEntity
  8
Visible
100
AcDbSpline
 70
     4
 71
     2
 72
     8
 73
     5
 74
     0
 42
0.000000001
 43
0.0000000001
 40
0.4645353044313648
 40
0.4645353044313648
 40
0.4645353044313648
 40
0.465909090909091
 40
0.465909090909091
 40
0.4666849304631653
 40
0.4666849304631653
 40
0.4666849304631653
 10
5.595081792554992
 20
7.364837860834281
 30
0.0601660101638117
 41
0.983820131547862
 10
5.59536867427596
 20
7.362080490800991
 30
0.0634928037779901
 41
0.9907975523355517
 10
5.595646056503028
 20
7.359025114781456
 30
0.0665481797968823
 41
1.0
 10
5.595802076106338
 20
7.357306552793298
 30
0.0682667417841003
 41
0.9948029602793907
 10
5.595961272891145
 20
7.355500150418766
 30
0.069892724895908
 41
0.9903155646991461
1001
ACAD_VIEW_EDGE_ID
1071
       13
1071
       -1
1071
        7
1071
        0
  0
SPLINE
  5
3CB
330
70
100
AcDbEntity
  8
Visible
100
AcDbSpline
210
-0.9975947063436041
220
-0.0265263380332562
230
0.0640402628489588
 70
    12
 71
     2
 72
     6
 73
     3
 74
     0
 42
0.000000001
 43
0.0000000001
 40
0.4545454545454545
 40
0.4545454545454545
 40
0.4545454545454545
 40
0.4553212940995303
 40
0.4553212940995303
 40
0.4553212940995303
 10
5.595646056503028
 20
7.386129049048143
 30
0.0011134940959892
 41
1.0
 10
5.595802076106338
 20
7.386129049048143
 30
0.00354390776738
 41
0.9948029602793814
 10
5.595961272892964
 20
7.386001473363075
 30
0.0059709708202718
 41
0.9903155646991301
1001
ACAD_VIEW_EDGE_ID
1071
       15
1071
       -1
1071
        7
1071
        0
  0
ARC
  5
3CC
330
70
100
AcDbEntity
  8
Visible
100
AcDbCircle
 10
-5.751696
 20
7.29359
 30
-0.001113
 40
0.2198972016140301
210
0.0000000000002969
220
0.0
230
-1.0
100
AcDbArc
 50
212.487506
 51
227.385391
  0
ARC
  5
3CD
330
70
100
AcDbEntity
  8
Visible
100
AcDbCircle
 10
-5.751696
 20
7.29359
 30
-0.001113
 40
0.21989720161403
210
0.0000000000002969
220
0.0
230
-1.0
100
AcDbArc
 50
132.953501
 51
147.512494
  0
LINE
  5
3CE
330
70
100
AcDbEntity
  8
Visible
100
AcDbLine
 10
5.595646
 20
7.17548
 30
0.001113
 11
5.595082
 21
7.17548
 31
0.001113
210
0.0
220
1.0
230
0.0
  0
LINE
  5
3CF
330
70
100
AcDbEntity
  8
Visible
100
AcDbLine
 10
5.595646
 20
7.386129
 30
0.001113
 11
5.595082
 21
7.386129
 31
0.001113
210
0.0
220
1.0
230
0.0
  0
SPLINE
  5
3D0
330
70
100
AcDbEntity
  8
Visible
100
AcDbSpline
210
0.1732997579376093
220
-0.0984888334125758
230
-0.9799322137738895
 70
     8
 71
     3
 72
     8
 73
     4
 74
     0
 42
0.000000001
 43
0.0000000001
 40
0.0018030025821458
 40
0.0018030025821458
 40
0.0018030025821458
 40
0.0018030025821458
 40
0.0051288694152184
 40
0.0051288694152184
 40
0.0051288694152184
 40
0.0051288694152184
 10
5.595303389272885
 20
7.386129049048141
 30
-0.0095250912145275
 10
5.595522696987245
 20
7.386506415573909
 30
-0.0095242344359576
 10
5.595741991366594
 20
7.386883789856792
 30
-0.009523380706014
 10
5.595961272892964
 20
7.387261171618161
 30
-0.0095225301793107
1001
ACAD_VIEW_EDGE_ID
1071
   -16399
1071
       -1
1071
        7
1071
        0
  0
ARC
  5
3D1
330
70
100
AcDbEntity
  8
Visible
100
AcDbCircle
 10
5.703029
 20
4.803367
 30
0.422257
 40
0.0492125984251985
100
AcDbArc
 50
270.0
 51
330.0
  0
ARC
  5
3D2
330
70
100
AcDbEntity
  8
Visible
100
AcDbCircle
 10
5.703029
 20
4.803367
 30
0.422257
 40
0.0492125984252003
100
AcDbArc
 50
330.0
 51
30.0
  0
ARC
  5
3D3
330
70
100
AcDbEntity
  8
Visible
100
AcDbCircle
 10
5.703029
 20
4.803367
 30
0.422257
 40
0.0492125984251985
100
AcDbArc
 50
30.0
 51
90.0
  0
ARC
  5
3D4
330
70
100
AcDbEntity
  8
Visible
100
AcDbCircle
 10
5.703029
 20
4.803367
 30
0.422257
 40
0.0492125984251983
100
AcDbArc
 50
90.0
 51
150.0
  0
ARC
  5
3D5
330
70
100
AcDbEntity
  8
Visible
100
AcDbCircle
 10
5.703029
 20
4.803367
 30
0.422257
 40
0.0492125984252003
100
AcDbArc
 50
150.0
 51
210.0
  0
ARC
  5
3D6
330
70
100
AcDbEntity
  8
Visible
100
AcDbCircle
 10
5.703029
 20
4.803367
 30
0.422257
 40
0.0492125984251985
100
AcDbArc
 50
210.0
 51
270.0
  0
SPLINE
  5
3D7
330
70
100
AcDbEntity
  8
Visible
100
AcDbSpline
210
0.0
220
1.0
230
0.0
 70
    12
 71
     2
 72
     6
 73
     3
 74
     0
 42
0.000000001
 43
0.0000000001
 40
-0.4364335524759582
 40
-0.4364335524759582
 40
-0.4364335524759582
 40
-0.1816138839659444
 40
-0.1816138839659444
 40
-0.1816138839659444
 10
5.731441455154708
 20
4.8525798546526
 30
0.4761004761385266
 41
1.606888365329756
 10
5.703028548208748
 20
4.8525798546526
 30
0.4661530103257974
 41
1.855474860566004
 10
5.67461564125915
 20
4.8525798546526
 30
0.4761004761385266
 41
1.606888365336845
1001
ACAD_VIEW_EDGE_ID
1071
        9
1071
       -1
1071
        8
1071
        0
  0
SPLINE
  5
3D8
330
70
100
AcDbEntity
  8
Visible
100
AcDbSpline
210
-0.866025403788617
220
-0.4999999999927628
230
-0.0000000000050731
 70
    12
 71
     2
 72
     6
 73
     3
 74
     0
 42
0.000000001
 43
0.0000000001
 40
-0.4364335524759576
 40
-0.4364335524759576
 40
-0.4364335524759576
 40
-0.181613883965944
 40
-0.181613883965944
 40
-0.181613883965944
 10
5.759854362102487
 20
4.803367256226983
 30
0.4761004761385266
 41
1.606888365329757
 10
5.745647908628598
 20
4.827973555439698
 30
0.4661530103257974
 41
1.855474860566004
 10
5.731441455154709
 20
4.85257985465221
 30
0.4761004761385265
 41
1.606888365336844
1001
ACAD_VIEW_EDGE_ID
1071
       10
1071
       -1
1071
        8
1071
        0
  0
SPLINE
  5
3D9
330
70
100
AcDbEntity
  8
Visible
100
AcDbSpline
210
-0.8660254037885477
220
0.4999999999928829
230
0.0000000000050224
 70
    12
 71
     2
 72
     6
 73
     3
 74
     0
 42
0.000000001
 43
0.0000000001
 40
-0.4364335524758947
 40
-0.4364335524758947
 40
-0.4364335524758947
 40
-0.1816138839659439
 40
-0.1816138839659439
 40
-0.1816138839659439
 10
5.731441455154708
 20
4.7541546578018
 30
0.4761004761385267
 41
1.606888365329876
 10
5.745647908628598
 20
4.778760957014506
 30
0.4661530103257974
 41
1.855474860565937
 10
5.759854362102487
 20
4.803367256227013
 30
0.4761004761385266
 41
1.60688836533684
1001
ACAD_VIEW_EDGE_ID
1071
       11
1071
       -1
1071
        8
1071
        0
  0
SPLINE
  5
3DA
330
70
100
AcDbEntity
  8
Visible
100
AcDbSpline
210
0.0
220
1.0
230
0.0
 70
    12
 71
     2
 72
     6
 73
     3
 74
     0
 42
0.000000001
 43
0.0000000001
 40
0.1816138839658646
 40
0.1816138839658646
 40
0.1816138839658646
 40
0.4364335524759569
 40
0.4364335524759569
 40
0.4364335524759569
 10
5.731441455154708
 20
4.754154657802207
 30
0.4761004761385266
 41
1.606888365336688
 10
5.703028548205111
 20
4.754154657802207
 30
0.4661530103257974
 41
1.855474860566078
 10
5.674615641257333
 20
4.754154657802207
 30
0.4761004761385266
 41
1.606888365329757
1001
ACAD_VIEW_EDGE_ID
1071
       12
1071
       -1
1071
        8
1071
        0
  0
SPLINE
  5
3DB
330
70
100
AcDbEntity
  8
Visible
100
AcDbSpline
210
-0.8660254037886064
220
-0.4999999999927815
230
0.0000000000050893
 70
    12
 71
     2
 72
     6
 73
     3
 74
     0
 42
0.000000001
 43
0.0000000001
 40
-0.4364335524759574
 40
-0.4364335524759574
 40
-0.4364335524759574
 40
-0.1816138839659437
 40
-0.1816138839659437
 40
-0.1816138839659437
 10
5.646202734309554
 20
4.803367256227823
 30
0.4761004761385266
 41
1.606888365329759
 10
5.660409187783443
 20
4.778760957015109
 30
0.4661530103257974
 41
1.855474860566005
 10
5.674615641257332
 20
4.754154657802597
 30
0.4761004761385265
 41
1.606888365336844
1001
ACAD_VIEW_EDGE_ID
1071
       13
1071
       -1
1071
        8
1071
        0
  0
SPLINE
  5
3DC
330
70
100
AcDbEntity
  8
Visible
100
AcDbSpline
210
-0.8660254037886103
220
0.4999999999927746
230
-0.000000000005067
 70
    12
 71
     2
 72
     6
 73
     3
 74
     0
 42
0.000000001
 43
0.0000000001
 40
-0.4364335524759579
 40
-0.4364335524759579
 40
-0.4364335524759579
 40
-0.1816138839659441
 40
-0.1816138839659441
 40
-0.1816138839659441
 10
5.674615641257332
 20
4.85257985465302
 30
0.4761004761385266
 41
1.606888365329759
 10
5.660409187783443
 20
4.827973555440306
 30
0.4661530103257974
 41
1.855474860566006
 10
5.646202734309554
 20
4.803367256227793
 30
0.4761004761385266
 41
1.606888365336846
1001
ACAD_VIEW_EDGE_ID
1071
       14
1071
       -1
1071
        8
1071
        0
  0
ARC
  5
3DD
330
70
100
AcDbEntity
  8
Visible
100
AcDbCircle
 10
5.703029
 20
4.803367
 30
0.483773
 40
0.078740157480315
100
AcDbArc
 50
95.282089
 51
39.717911
  0
SPLINE
  5
3DE
330
70
100
AcDbEntity
  8
Visible
100
AcDbSpline
 70
     0
 71
     3
 72
     8
 73
     4
 74
     0
 42
0.000000001
 43
0.0000000001
 40
0.1008847440133142
 40
0.1008847440133142
 40
0.1008847440133142
 40
0.1008847440133142
 40
0.1102725435020509
 40
0.1102725435020509
 40
0.1102725435020509
 40
0.1102725435020509
 10
5.700385352080047
 20
4.884426827181429
 30
0.482112043289817
 10
5.698852961601005
 20
4.883620047385193
 30
0.4826448890489701
 10
5.697311406302105
 20
4.882737880484607
 30
0.4831987835168548
 10
5.695779783676698
 20
4.881773045636229
 30
0.4837727704252757
1001
ACAD_VIEW_EDGE_ID
1071
       25
1071
       -1
1071
        8
1071
        0
  0
SPLINE
  5
3DF
330
70
100
AcDbEntity
  8
Visible
100
AcDbSpline
 70
     0
 71
     3
 72
     8
 73
     4
 74
     0
 42
0.000000001
 43
0.0000000001
 40
-0.0197938063911902
 40
-0.0197938063911902
 40
-0.0197938063911902
 40
-0.0197938063911902
 40
-0.0000010000000687
 40
-0.0000010000000687
 40
-0.0000010000000687
 40
-0.0000010000000687
 10
5.768565899674285
 20
4.847700747414213
 30
0.4835040250527527
 10
5.767008383985739
 20
4.849772844688051
 30
0.4835943969919754
 10
5.765349748769949
 20
4.851769359048724
 30
0.4836840923744603
 10
5.763595464135505
 20
4.853682871048666
 30
0.4837727704252757
1001
ACAD_VIEW_EDGE_ID
1071
       26
1071
       -1
1071
        8
1071
        0
  0
ARC
  5
3E0
330
70
100
AcDbEntity
  8
Visible
100
AcDbCircle
 10
-5.694527
 20
4.800821
 30
-0.483575
 40
0.0809802571766511
210
0.0000022826009729
220
0.0000377862080139
230
-0.9999999992834961
100
AcDbArc
 50
90.887053
 51
96.026827
  0
ARC
  5
3E1
330
70
100
AcDbEntity
  8
Visible
100
AcDbCircle
 10
-5.707211
 20
4.795523
 30
-0.484134
 40
0.0809817048615761
210
-0.0000320989017382
220
-0.0000362263122918
230
-0.9999999988286575
100
AcDbArc
 50
128.973219
 51
134.112901
  0
ARC
  5
3E2
330
70
100
AcDbEntity
  8
Visible
100
AcDbCircle
 10
-5.703029
 20
4.803367
 30
-0.483773
 40
0.0779679038476102
210
0.0000000000002942
220
0.0000000000000022
230
-1.0
100
AcDbArc
 50
90.0
 51
135.0
  0
SPLINE
  5
3E3
330
70
100
AcDbEntity
  8
Visible
100
AcDbSpline
 70
     0
 71
     3
 72
    26
 73
    22
 74
     0
 42
0.000000001
 43
0.0000000001
 40
-20.1037825506331
 40
-20.1037825506331
 40
-20.1037825506331
 40
-20.1037825506331
 40
-20.08293695285298
 40
-20.08293695285298
 40
-19.92420127259608
 40
-19.92420127259608
 40
-19.76966833312272
 40
-19.76966833312272
 40
-19.61110838288817
 40
-19.61110838288817
 40
-19.45658482162815
 40
-19.45658482162815
 40
-19.29820433221051
 40
-19.29820433221051
 40
-19.14368494538505
 40
-19.14368494538505
 40
-18.98548763271728
 40
-18.98548763271728
 40
-18.83096702423764
 40
-18.83096702423764
 40
-18.81336778662152
 40
-18.81336778662152
 40
-18.81336778662152
 40
-18.81336778662152
 10
2.394397059753828
 20
4.643096035798046
 30
-0.0104886725275719
 10
2.39426402967183
 20
4.642866429084018
 30
-0.0077625120648008
 10
2.394131982344333
 20
4.642707654159632
 30
-0.0050278541675652
 10
2.393004090863541
 20
4.641955425185384
 30
0.0185805853489001
 10
2.391978174746327
 20
4.645447038069398
 30
0.0393763250867778
 10
2.389875572946039
 20
4.660144024457814
 30
0.0778800545176637
 10
2.388842404800016
 20
4.671004378400189
 30
0.0952927042362717
 10
2.38687318268785
 20
4.699108344866687
 30
0.1254143996993662
 10
2.385850457476408
 20
4.716233117671751
 30
0.1376912289761094
 10
2.383748539154112
 20
4.753790873042938
 30
0.1546370046598895
 10
2.382714544715781
 20
4.773774811580054
 30
0.1593320244137431
 10
2.380743634736063
 20
4.814931916109222
 30
0.1608805754804052
 10
2.379724248819911
 20
4.835715931155713
 30
0.1575201321211352
 10
2.377623069782202
 20
4.874293869846169
 30
0.1430751482603227
 10
2.376588206529049
 20
4.891784797026879
 30
0.132316983275814
 10
2.374615511553201
 20
4.922062643795098
 30
0.1044121887716756
 10
2.373599611353711
 20
4.934429096765382
 30
0.0873947511172446
 10
2.371499231570851
 20
4.951619675897517
 30
0.0499710255789978
 10
2.370463456671132
 20
4.956450297778731
 30
0.0300054957224347
 10
2.36937599886005
 20
4.957450097486349
 30
0.0073571098891989
 10
2.369264633256534
 20
4.957501084527663
 30
0.0050415770256222
 10
2.369153045832717
 20
4.957501083652338
 30
0.00272796993886
1001
ACAD_VIEW_EDGE_ID
1071
       23
1071
       -1
1071
        9
1071
        0
  0
SPLINE
  5
3E4
330
70
100
AcDbEntity
  8
Visible
100
AcDbSpline
 70
     0
 71
     3
 72
    26
 73
    22
 74
     0
 42
0.000000001
 43
0.0000000001
 40
-22.62353042934528
 40
-22.62353042934528
 40
-22.62353042934528
 40
-22.62353042934528
 40
-22.59587439227068
 40
-22.59587439227068
 40
-22.43586084319367
 40
-22.43586084319367
 40
-22.28109012081012
 40
-22.28109012081012
 40
-22.12122472242591
 40
-22.12122472242591
 40
-21.96649762076992
 40
-21.96649762076992
 40
-21.80678345520427
 40
-21.80678345520427
 40
-21.65209640955183
 40
-21.65209640955183
 40
-21.49253668379856
 40
-21.49253668379856
 40
-21.33788593071876
 40
-21.33788593071876
 40
-21.32895177098556
 40
-21.32895177098556
 40
-21.32895177098556
 40
-21.32895177098556
 10
2.443609658264904
 20
4.643096041314405
 30
-0.0104886720564537
 10
2.443433864365943
 20
4.642792622678587
 30
-0.006886161845614
 10
2.443259812685937
 20
4.642612938385941
 30
-0.0032693477223802
 10
2.442092739254803
 20
4.642242354418815
 30
0.0213281347259908
 10
2.441046496878698
 20
4.646119629771169
 30
0.042157501769907
 10
2.438940007630662
 20
4.661554210014647
 30
0.0804381538091548
 10
2.437912024868637
 20
4.672710732226568
 30
0.0976181563619321
 10
2.435953198548304
 20
4.70139650689231
 30
0.1272783877611801
 10
2.434909019757469
 20
4.718837747950392
 30
0.1392897457844811
 10
2.432802891682513
 20
4.756784909657978
 30
0.1555109507626184
 10
2.431774388011035
 20
4.776817774096437
 30
0.1598067256782087
 10
2.429814531496958
 20
4.818066583283324
 30
0.1605679446893191
 10
2.428772544400999
 20
4.83888923870488
 30
0.1567688686373003
 10
2.426666807667061
 20
4.877215711245135
 30
0.1414834377283114
 10
2.425637749485758
 20
4.894443180233768
 30
0.1303864480960328
 10
2.423676793050617
 20
4.924197260969218
 30
0.1018181838480814
 10
2.42263713045213
 20
4.936262689660241
 30
0.084441214286926
 10
2.420531817722803
 20
4.952631388058119
 30
0.0465724379919266
 10
2.419502169963379
 20
4.95700817256729
 30
0.0265488653149078
 10
2.418480128755618
 20
4.957488002969018
 30
0.0050724390912364
 10
2.418424180445072
 20
4.957501086782402
 30
0.0038998609979899
 10
2.418368104181354
 20
4.957501086306164
 30
0.0027278508277959
1001
ACAD_VIEW_EDGE_ID
1071
       23
1071
       -1
1071
        9
1071
        0
  0
SPLINE
  5
3E5
330
70
100
AcDbEntity
  8
Visible
100
AcDbSpline
 70
     0
 71
     3
 72
    22
 73
    18
 74
     0
 42
0.000000001
 43
0.0000000001
 40
-41.54957991828759
 40
-41.54957991828759
 40
-41.54957991828759
 40
-41.54957991828759
 40
-41.47833982887194
 40
-41.47833982887194
 40
-41.32452675136618
 40
-41.32452675136618
 40
-41.16621546118397
 40
-41.16621546118397
 40
-41.01235923897059
 40
-41.01235923897059
 40
-40.85417524687054
 40
-40.85417524687054
 40
-40.70026434113636
 40
-40.70026434113636
 40
-40.5422082526975
 40
-40.5422082526975
 40
-40.47936451125253
 40
-40.47936451125253
 40
-40.47936451125253
 40
-40.47936451125253
 10
2.366735335574048
 20
4.940123729985542
 30
0.0746387724248052
 10
2.367208626261344
 20
4.935875091764473
 30
0.0829163520302245
 10
2.367678700402393
 20
4.930891035287425
 30
0.090821095785941
 10
2.369135776352777
 20
4.912975618912963
 30
0.1143015670768364
 10
2.37006753755304
 20
4.897760363325274
 30
0.1278456547897804
 10
2.372136781361405
 20
4.862536629338427
 30
0.1487533215422445
 10
2.373205940091793
 20
4.842747293451702
 30
0.1557185654473869
 10
2.375231111340326
 20
4.802185544486256
 30
0.1614826088425616
 10
2.376161052750831
 20
4.781834507451306
 30
0.1604523560799862
 10
2.378227586012144
 20
4.742078445296633
 30
0.1506254774994886
 10
2.379296328950658
 20
4.723106830709857
 30
0.1417073683041963
 10
2.38132506436159
 20
4.690167345655826
 30
0.1173590667913231
 10
2.382253501436935
 20
4.676385118664606
 30
0.1023386766100884
 10
2.384317218127762
 20
4.654962209582822
 30
0.0674455806220067
 10
2.385385475778093
 20
4.647707495229393
 30
0.0477952571909555
 10
2.386824218370747
 20
4.643182747208439
 30
0.0191569984344824
 10
2.387220933345815
 20
4.642540452147006
 30
0.0109397169999284
 10
2.387616319087101
 20
4.642540442558763
 30
0.0027280275771773
1001
ACAD_VIEW_EDGE_ID
1071
       25
1071
       -1
1071
        9
1071
        0
  0
SPLINE
  5
3E6
330
70
100
AcDbEntity
  8
Visible
100
AcDbSpline
 70
     0
 71
     3
 72
    24
 73
    20
 74
     0
 42
0.000000001
 43
0.0000000001
 40
-39.2527194845897
 40
-39.2527194845897
 40
-39.2527194845897
 40
-39.2527194845897
 40
-39.14012904111165
 40
-39.14012904111165
 40
-38.98270004708311
 40
-38.98270004708311
 40
-38.82835057893012
 40
-38.82835057893012
 40
-38.67079457465869
 40
-38.67079457465869
 40
-38.51655764875131
 40
-38.51655764875131
 40
-38.35887382474806
 40
-38.35887382474806
 40
-38.20473778250415
 40
-38.20473778250415
 40
-38.04692568146996
 40
-38.04692568146996
 40
-37.95859874582224
 40
-37.95859874582224
 40
-37.95859874582224
 40
-37.95859874582224
 10
2.411580243509888
 20
4.956945543324035
 30
-0.0104885072378238
 10
2.412294071156793
 20
4.958181267750946
 30
0.0041839705645543
 10
2.412987149133186
 20
4.957355345462639
 30
0.018984802201885
 10
2.414761373398505
 20
4.950434427148949
 30
0.0537453409760929
 10
2.415826213722539
 20
4.942449554786151
 30
0.07302074927793
 10
2.41787479866798
 20
4.919717335145659
 30
0.1070506010255485
 10
2.418801124742458
 20
4.905318616438514
 30
0.1215675167695736
 10
2.420847146504456
 20
4.871461928692756
 30
0.1445865562527615
 10
2.421912824162063
 20
4.852235423791185
 30
0.1527323634054483
 10
2.423964653626171
 20
4.812161587324979
 30
0.1610392324273562
 10
2.42489065283371
 20
4.791731846537097
 30
0.1612875809478282
 10
2.426933211969299
 20
4.751451350942799
 30
0.1539542719856399
 10
2.427999656232714
 20
4.732017894514211
 30
0.1462688397605234
 10
2.430054658521839
 20
4.697628773808998
 30
0.1240754041245964
 10
2.430980729977818
 20
4.68290315723415
 30
0.1099324122224061
 10
2.433019780077302
 20
4.659330559177166
 30
0.0764528690851876
 10
2.434086918785396
 20
4.650863558009347
 30
0.0573284215151944
 10
2.435711297812304
 20
4.643809123389398
 30
0.0258010650868528
 10
2.436264588068297
 20
4.642540431258673
 30
0.0142687462757749
 10
2.436820043660191
 20
4.64254044222583
 30
0.0027276003929728
1001
ACAD_VIEW_EDGE_ID
1071
       25
1071
       -1
1071
        9
1071
        0
  0
SPLINE
  5
3E7
330
70
100
AcDbEntity
  8
Visible
100
AcDbSpline
 70
     4
 71
     2
 72
    12
 73
     9
 74
     0
 42
0.000000001
 43
0.0000000001
 40
0.4150523165451793
 40
0.4150523165451793
 40
0.4150523165451793
 40
0.4176829268292683
 40
0.4176829268292683
 40
0.4207317073170732
 40
0.4207317073170732
 40
0.423780487804878
 40
0.423780487804878
 40
0.426829268292683
 40
0.426829268292683
 40
0.426829268292683
 10
2.388414238852419
 20
4.924832267076155
 30
0.0160058014535025
 41
0.9819827407397962
 10
2.391138761324327
 20
4.920139735262424
 30
0.0601149690610328
 41
0.9343202026494051
 10
2.393763017798846
 20
4.888773841986998
 30
0.0914808623365389
 41
1.0
 10
2.396838805199877
 20
4.852011116881853
 30
0.1282435874418297
 41
0.9238795325112867
 10
2.399914592600907
 20
4.800020772448363
 30
0.1282435874418297
 41
1.0
 10
2.402990380003757
 20
4.748030428014872
 30
0.1282435874418297
 41
0.9238795325112867
 10
2.406066167404787
 20
4.711267702909726
 30
0.0914808623365389
 41
1.0
 10
2.409141954805818
 20
4.674504977804581
 30
0.054718137231248
 41
0.9238795325112867
 10
2.412217742208667
 20
4.674504977804581
 30
0.002727792798396
 41
1.0
1001
ACAD_VIEW_EDGE_ID
1071
       42
1071
       -1
1071
        9
1071
        0
  0
SPLINE
  5
3E8
330
70
100
AcDbEntity
  8
Visible
100
AcDbSpline
 70
     4
 71
     2
 72
     8
 73
     5
 74
     0
 42
0.000000001
 43
0.0000000001
 40
0.4394425604476183
 40
0.4394425604476183
 40
0.4394425604476183
 40
0.4420731707317074
 40
0.4420731707317074
 40
0.4433226443036095
 40
0.4433226443036095
 40
0.4433226443036095
 10
2.437626837278003
 20
4.924832267076155
 30
0.0160058014535025
 41
0.9819827407397962
 10
2.440351359749911
 20
4.920139735262424
 30
0.0601149690610328
 41
0.9343202026494051
 10
2.44297561622443
 20
4.888773841986998
 30
0.0914808623365389
 41
1.0
 10
2.444177705619949
 20
4.874406112287605
 30
0.1058485920366365
 41
0.9688037519301817
 10
2.44547549334311
 20
4.856239183024566
 30
0.1149494708170096
 41
0.9631776540641293
1001
ACAD_VIEW_EDGE_ID
1071
       42
1071
       -1
1071
        9
1071
        0
  0
SPLINE
  5
3E9
330
70
100
AcDbEntity
  8
Visible
100
AcDbSpline
210
0.9979560350980049
220
0.024455093386494
230
0.059039820620724
 70
    12
 71
     2
 72
     6
 73
     3
 74
     0
 42
0.000000001
 43
0.0000000001
 40
0.4012271382108226
 40
0.4012271382108226
 40
0.4012271382108226
 40
0.4020208541865274
 40
0.4020208541865274
 40
0.4020208541865274
 10
2.366735335863268
 20
4.680533482750647
 30
0.0411595804980607
 41
0.9635392891858145
 10
2.367560146567484
 20
4.676576423779871
 30
0.0288567895040615
 41
0.9676018504369498
 10
2.368353922729511
 20
4.675209277820572
 30
0.0160058014535025
 41
0.9819827407397722
1001
ACAD_VIEW_EDGE_ID
1071
       43
1071
       -1
1071
        9
1071
        0
  0
SPLINE
  5
3EA
330
70
100
AcDbEntity
  8
Visible
100
AcDbSpline
 70
     4
 71
     2
 72
    12
 73
     9
 74
     0
 42
0.000000001
 43
0.0000000001
 40
0.4146341463414635
 40
0.4146341463414635
 40
0.4146341463414635
 40
0.4176829268292683
 40
0.4176829268292683
 40
0.4207317073170732
 40
0.4207317073170732
 40
0.423780487804878
 40
0.423780487804878
 40
0.4264110980889671
 40
0.4264110980889671
 40
0.4264110980889671
 10
2.393763017798846
 20
4.925536567092144
 30
0.002727792798396
 41
1.0
 10
2.396838805199877
 20
4.925536567092144
 30
0.054718137231248
 41
0.9238795325112867
 10
2.399914592600907
 20
4.888773841986998
 30
0.0914808623365389
 41
1.0
 10
2.402990380003757
 20
4.852011116881853
 30
0.1282435874418297
 41
0.9238795325112867
 10
2.406066167404787
 20
4.800020772448363
 30
0.1282435874418297
 41
1.0
 10
2.409141954805818
 20
4.748030428014872
 30
0.1282435874418297
 41
0.9238795325112867
 10
2.412217742208667
 20
4.711267702909726
 30
0.0914808623365389
 41
1.0
 10
2.414841998683186
 20
4.679901809634301
 30
0.0601149690610328
 41
0.9343202026494051
 10
2.417566521155094
 20
4.67520927782057
 30
0.0160058014535025
 41
0.9819827407397962
1001
ACAD_VIEW_EDGE_ID
1071
       43
1071
       -1
1071
        9
1071
        0
  0
SPLINE
  5
3EB
330
70
100
AcDbEntity
  8
Visible
100
AcDbSpline
210
-0.9979560350863076
220
-0.0244550942965975
230
0.0590398204414675
 70
    12
 71
     2
 72
     6
 73
     3
 74
     0
 42
0.000000001
 43
0.0000000001
 40
0.4390243902439025
 40
0.4390243902439025
 40
0.4390243902439025
 40
0.4402738638158059
 40
0.4402738638158059
 40
0.4402738638158059
 10
2.44297561622443
 20
4.925536567092144
 30
0.002727792798396
 41
1.0
 10
2.444177705619949
 20
4.925536567092144
 30
0.0230468310001015
 41
0.9688037519301511
 10
2.44547549334311
 20
4.919125901317508
 30
0.0423280829763826
 41
0.9631776540641183
1001
ACAD_VIEW_EDGE_ID
1071
       43
1071
       -1
1071
        9
1071
        0
  0
LINE
  5
3EC
330
70
100
AcDbEntity
  8
Visible
100
AcDbLine
 10
2.366735
 20
4.957501
 30
0.002728
 11
2.369157
 21
4.957501
 31
0.002728
210
0.0
220
1.0
230
0.0
  0
LINE
  5
3ED
330
70
100
AcDbEntity
  8
Visible
100
AcDbLine
 10
2.412218
 20
4.957501
 30
0.002728
 11
2.418369
 21
4.957501
 31
0.002728
210
0.0
220
1.0
230
0.0
  0
LINE
  5
3EE
330
70
100
AcDbEntity
  8
Visible
100
AcDbLine
 10
2.387611
 20
4.64254
 30
0.002728
 11
2.393763
 21
4.64254
 31
0.002728
210
0.0
220
1.0
230
0.0
  0
LINE
  5
3EF
330
70
100
AcDbEntity
  8
Visible
100
AcDbLine
 10
2.436824
 20
4.64254
 30
0.002728
 11
2.442976
 21
4.64254
 31
0.002728
210
0.0
220
1.0
230
0.0
  0
SPLINE
  5
3F0
330
70
100
AcDbEntity
  8
Visible
100
AcDbSpline
 70
     0
 71
     3
 72
     8
 73
     4
 74
     0
 42
0.000000001
 43
0.0000000001
 40
0.0020685770267444
 40
0.0020685770267444
 40
0.0020685770267444
 40
0.0020685770267444
 40
0.0942917788502743
 40
0.0942917788502743
 40
0.0942917788502743
 40
0.0942917788502743
 10
2.412611628267768
 20
4.674504977804581
 30
-0.0105487041691959
 10
2.406534969963104
 20
4.664038313394097
 30
-0.0105262938359374
 10
2.400464491249294
 20
4.653568055339038
 30
-0.0105063264163619
 10
2.394397059671973
 20
4.643096030509695
 30
-0.0104886729768623
1001
ACAD_VIEW_EDGE_ID
1071
   -26641
1071
       -1
1071
        9
1071
        0
  0
SPLINE
  5
3F1
330
70
100
AcDbEntity
  8
Visible
100
AcDbSpline
 70
     0
 71
     3
 72
     8
 73
     4
 74
     0
 42
0.000000001
 43
0.0000000001
 40
0.0848389264330905
 40
0.0848389264330905
 40
0.0848389264330905
 40
0.0848389264330905
 40
0.0942917788502773
 40
0.0942917788502773
 40
0.0942917788502773
 40
0.0942917788502773
 10
2.44547549334311
 20
4.646316108409691
 30
-0.0104941722329386
 10
2.444853512481131
 20
4.645242769861851
 30
-0.0104923153558048
 10
2.444231568139002
 20
4.644169410128528
 30
-0.0104904824493133
 10
2.443609658097557
 20
4.643096030509695
 30
-0.0104886729768623
1001
ACAD_VIEW_EDGE_ID
1071
   -26642
1071
       -1
1071
        9
1071
        0
  0
SPLINE
  5
3F2
330
70
100
AcDbEntity
  8
Visible
100
AcDbSpline
 70
     0
 71
     3
 72
     8
 73
     4
 74
     0
 42
0.000000001
 43
0.0000000001
 40
0.0
 40
0.0
 40
0.0
 40
0.0
 40
0.0942917788502744
 40
0.0942917788502744
 40
0.0942917788502744
 40
0.0942917788502744
 10
2.369790760460091
 20
4.95694551438703
 30
0.0159442585736542
 10
2.375994285224805
 20
4.946238600836008
 30
0.0159623079816811
 10
2.38220099535647
 20
4.935533534206053
 30
0.0159827763400244
 10
2.388414238852419
 20
4.924832267076155
 30
0.0160058014535025
1001
ACAD_VIEW_EDGE_ID
1071
   -26679
1071
       -1
1071
        9
1071
        0
  0
SPLINE
  5
3F3
330
70
100
AcDbEntity
  8
Visible
100
AcDbSpline
 70
     0
 71
     3
 72
     8
 73
     4
 74
     0
 42
0.000000001
 43
0.0000000001
 40
0.0
 40
0.0
 40
0.0
 40
0.0
 40
0.094291778850274
 40
0.094291778850274
 40
0.094291778850274
 40
0.094291778850274
 10
2.419003358885674
 20
4.95694551438703
 30
0.0159442585736542
 10
2.425206883650389
 20
4.946238600836008
 30
0.0159623079816811
 10
2.431413593780234
 20
4.935533534206053
 30
0.0159827763400244
 10
2.437626837278003
 20
4.924832267076155
 30
0.0160058014535025
1001
ACAD_VIEW_EDGE_ID
1071
   -26680
1071
       -1
1071
        9
1071
        0
  0
LINE
  5
3F4
330
70
100
AcDbEntity
  8
Visible
100
AcDbLine
 10
2.388005
 20
4.925537
 30
0.002728
 11
2.393763
 21
4.925537
 31
0.002728
210
0.0
220
1.0
230
0.0
  0
LINE
  5
3F5
330
70
100
AcDbEntity
  8
Visible
100
AcDbLine
 10
2.437218
 20
4.925537
 30
0.002728
 11
2.442976
 21
4.925537
 31
0.002728
210
0.0
220
1.0
230
0.0
  0
LINE
  5
3F6
330
70
100
AcDbEntity
  8
Visible
100
AcDbLine
 10
2.366735
 20
4.674505
 30
0.002728
 11
2.368763
 21
4.674505
 31
0.002728
210
0.0
220
1.0
230
0.0
  0
LINE
  5
3F7
330
70
100
AcDbEntity
  8
Visible
100
AcDbLine
 10
2.412218
 20
4.674505
 30
0.002728
 11
2.417975
 21
4.674505
 31
0.002728
210
0.0
220
1.0
230
0.0
  0
SPLINE
  5
3F8
330
70
100
AcDbEntity
  8
Visible
100
AcDbSpline
 70
     0
 71
     3
 72
     8
 73
     4
 74
     0
 42
0.000000001
 43
0.0000000001
 40
0.0
 40
0.0
 40
0.0
 40
0.0
 40
0.0942917788501596
 40
0.0942917788501596
 40
0.0942917788501596
 40
0.0942917788501596
 10
2.386977401121839
 20
4.643096030509736
 30
0.0159442585736542
 10
2.380773876355306
 20
4.653802944060744
 30
0.0159623079816811
 10
2.37456716622546
 20
4.664508010690687
 30
0.0159827763400244
 10
2.368353922729511
 20
4.675209277820572
 30
0.0160058014535025
1001
ACAD_VIEW_EDGE_ID
1071
   -30743
1071
       -1
1071
        9
1071
        0
  0
SPLINE
  5
3F9
330
70
100
AcDbEntity
  8
Visible
100
AcDbSpline
 70
     0
 71
     3
 72
     8
 73
     4
 74
     0
 42
0.000000001
 43
0.0000000001
 40
0.0
 40
0.0
 40
0.0
 40
0.0
 40
0.0942917788501532
 40
0.0942917788501532
 40
0.0942917788501532
 40
0.0942917788501532
 10
2.436189999547423
 20
4.643096030509736
 30
0.0159442585736542
 10
2.429986474780889
 20
4.653802944060744
 30
0.0159623079816811
 10
2.423779764651044
 20
4.664508010690686
 30
0.0159827763400244
 10
2.417566521155094
 20
4.67520927782057
 30
0.0160058014535025
1001
ACAD_VIEW_EDGE_ID
1071
   -30744
1071
       -1
1071
        9
1071
        0
  0
SPLINE
  5
3FA
330
70
100
AcDbEntity
  8
Visible
100
AcDbSpline
 70
     0
 71
     3
 72
     8
 73
     4
 74
     0
 42
0.000000001
 43
0.0000000001
 40
0.002068576355072
 40
0.002068576355072
 40
0.002068576355072
 40
0.002068576355072
 40
0.0942917788501688
 40
0.0942917788501688
 40
0.0942917788501688
 40
0.0942917788501688
 10
2.393369131212239
 20
4.925536567092144
 30
-0.010548703976383
 10
2.399445778126391
 20
4.936003238204785
 30
-0.0105262880861119
 10
2.405516268712744
 20
4.946473489481388
 30
-0.0105063264163619
 10
2.411583700333721
 20
4.956945514386988
 30
-0.0104886729768623
1001
ACAD_VIEW_EDGE_ID
1071
   -30775
1071
       -1
1071
        9
1071
        0
  0
SPLINE
  5
3FB
330
70
100
AcDbEntity
  8
Visible
100
AcDbSpline
 70
     0
 71
     3
 72
     8
 73
     4
 74
     0
 42
0.000000001
 43
0.0000000001
 40
0.002068576355055
 40
0.002068576355055
 40
0.002068576355055
 40
0.002068576355055
 40
0.0167101583849966
 40
0.0167101583849966
 40
0.0167101583849966
 40
0.0167101583849966
 10
2.442581729636003
 20
4.925536567092144
 30
-0.010548703976383
 10
2.443546473019523
 20
4.927198281492968
 30
-0.0105451451745466
 10
2.444511054945905
 20
4.928860089772081
 30
-0.0105416452479403
 10
2.44547549334311
 20
4.930521981498253
 30
-0.0105382064175501
1001
ACAD_VIEW_EDGE_ID
1071
   -30776
1071
       -1
1071
        9
1071
        0
  0
LINE
  5
3FC
330
70
100
AcDbEntity
  8
Visible
100
AcDbLine
 10
5.753442
 20
7.468214
 30
0.264103
 11
5.753442
 21
7.488813
 31
0.264103
210
0.0
220
1.0
230
0.0
  0
SPLINE
  5
3FD
330
70
100
AcDbEntity
  8
Visible
100
AcDbSpline
 70
     0
 71
     3
 72
    14
 73
    10
 74
     0
 42
0.000000001
 43
0.0000000001
 40
2.484784797578684
 40
2.484784797578684
 40
2.484784797578684
 40
2.484784797578684
 40
2.567628743438977
 40
2.567628743438977
 40
2.857760605478155
 40
2.857760605478155
 40
3.137002963788927
 40
3.137002963788927
 40
3.4162453220997
 40
3.4162453220997
 40
3.4162453220997
 40
3.4162453220997
 10
5.753441587852648
 20
7.488813444304965
 30
0.2641025170323701
 10
5.763431903291348
 20
7.492641038994738
 30
0.2611239804409706
 10
5.773183128543678
 20
7.496997480649436
 30
0.2575992428628524
 10
5.815804071417005
 20
7.518065520887541
 30
0.2394548081010726
 10
5.845555395730116
 20
7.538144120115111
 30
0.2188899297889293
 10
5.892689894510112
 20
7.571906670666789
 30
0.1717554310089326
 10
5.913720251204722
 20
7.588406790463674
 30
0.1420129954894946
 10
5.942559494733359
 20
7.611488810386157
 30
0.0744966598631436
 10
5.950291981553164
 20
7.61794126893271
 30
0.0366459787856002
 10
5.950291981553164
 20
7.61794126893271
 30
0.000000000003638
1001
ACAD_VIEW_EDGE_ID
1071
        8
1071
       -1
1071
       10
1071
        0
  0
SPLINE
  5
3FE
330
70
100
AcDbEntity
  8
Visible
100
AcDbSpline
 70
     0
 71
     3
 72
    14
 73
    10
 74
     0
 42
0.000000001
 43
0.0000000001
 40
1.1387484406999
 40
1.1387484406999
 40
1.1387484406999
 40
1.1387484406999
 40
1.417990799010673
 40
1.417990799010673
 40
1.697233157321445
 40
1.697233157321445
 40
1.987365019360623
 40
1.987365019360623
 40
2.070208965220916
 40
2.070208965220916
 40
2.070208965220916
 40
2.070208965220916
 10
5.399110879192448
 20
7.61794126893271
 30
0.000000000003638
 10
5.399110879192448
 20
7.61794126893271
 30
0.0366459787856002
 10
5.406843366012253
 20
7.611488810386157
 30
0.0744966598631436
 10
5.43568260954089
 20
7.588406790463674
 30
0.1420129954894946
 10
5.4567129662355
 20
7.571906670666789
 30
0.1717554310089326
 10
5.503847465015496
 20
7.538144120115111
 30
0.2188899297889293
 10
5.533598789328607
 20
7.518065520887541
 30
0.2394548081010726
 10
5.576219732201934
 20
7.496997480649436
 30
0.2575992428628524
 10
5.585970957454264
 20
7.492641038994738
 30
0.2611239804409706
 10
5.595961272892964
 20
7.488813444304965
 30
0.2641025170323701
1001
ACAD_VIEW_EDGE_ID
1071
       14
1071
       -1
1071
       10
1071
        0
  0
LINE
  5
3FF
330
70
100
AcDbEntity
  8
Visible
100
AcDbLine
 10
5.595961
 20
7.488813
 30
0.264103
 11
5.595961
 21
7.283296
 31
0.264103
210
0.0
220
1.0
230
0.0
  0
ARC
  5
400
330
70
100
AcDbEntity
  8
Visible
100
AcDbCircle
 10
-5.674701
 20
0.826772
 30
7.676996
 40
0.3740157480314965
210
0.0
220
1.0
230
0.0
100
AcDbArc
 50
0.0
 51
180.0
  0
ARC
  5
401
330
70
100
AcDbEntity
  8
Visible
100
AcDbCircle
 10
-7.283296
 20
0.0
 30
-5.595961
 40
0.2641025170275348
210
-1.0
220
0.0
230
-0.0000000000002969
100
AcDbArc
 50
45.79666
 51
90.0
  0
ARC
  5
402
330
70
100
AcDbEntity
  8
Visible
100
AcDbCircle
 10
-6.048717
 20
7.755737
 30
-0.826772
 40
0.0787401574803147
210
0.0000000000002969
220
0.0
230
-1.0
100
AcDbArc
 50
180.0
 51
270.0
  0
ARC
  5
403
330
70
100
AcDbEntity
  8
Visible
100
AcDbCircle
 10
-5.300686
 20
7.755737
 30
-0.826772
 40
0.078740157480315
210
0.0000000000002969
220
0.0
230
-1.0
100
AcDbArc
 50
270.0
 51
0.0
  0
LINE
  5
404
330
70
100
AcDbEntity
  8
Visible
100
AcDbLine
 10
6.127457
 20
7.873847
 30
0.826772
 11
6.127457
 21
7.755737
 31
0.826772
210
0.0
220
1.0
230
0.0
  0
LINE
  5
405
330
70
100
AcDbEntity
  8
Visible
100
AcDbLine
 10
5.221946
 20
7.873847
 30
0.826772
 11
5.221946
 21
7.755737
 31
0.826772
210
0.0
220
1.0
230
0.0
  0
ARC
  5
406
330
70
100
AcDbEntity
  8
Visible
100
AcDbCircle
 10
-5.674701
 20
0.826772
 30
7.873847
 40
0.4527559055118111
210
0.0
220
1.0
230
0.0
100
AcDbArc
 50
0.0
 51
180.0
  0
ARC
  5
407
330
70
100
AcDbEntity
  8
Visible
100
AcDbCircle
 10
-5.989662
 20
7.637626
 30
0.0
 40
0.0393700787401575
210
0.0000000000002969
220
0.0
230
-1.0
100
AcDbArc
 50
0.0
 51
90.0
  0
ARC
  5
408
330
70
100
AcDbEntity
  8
Visible
100
AcDbCircle
 10
-5.359741
 20
7.637626
 30
0.0
 40
0.0393700787401575
210
0.0000000000002969
220
0.0
230
-1.0
100
AcDbArc
 50
90.0
 51
180.0
  0
LINE
  5
409
330
70
100
AcDbEntity
  8
Visible
100
AcDbLine
 10
5.950292
 20
7.637626
 30
0.0
 11
5.950292
 21
7.617941
 31
0.0
210
0.0
220
1.0
230
0.0
  0
LINE
  5
40A
330
70
100
AcDbEntity
  8
Visible
100
AcDbLine
 10
5.399111
 20
7.637626
 30
0.0
 11
5.399111
 21
7.617941
 31
0.0
210
0.0
220
1.0
230
0.0
  0
SPLINE
  5
40B
330
70
100
AcDbEntity
  8
Hidden
100
AcDbSpline
 70
     0
 71
     3
 72
    23
 73
    19
 74
     0
 42
0.000000001
 43
0.0000000001
 40
1.160721776067565
 40
1.160721776067565
 40
1.160721776067565
 40
1.160721776067565
 40
1.257445605371134
 40
1.257445605371134
 40
1.354169434674703
 40
1.354169434674703
 40
1.450899234715728
 40
1.450899234715728
 40
1.547629034756754
 40
1.547629034756754
 40
1.547629034756754
 40
1.644358834797779
 40
1.644358834797779
 40
1.741088634838805
 40
1.741088634838805
 40
1.837812464142374
 40
1.837812464142374
 40
1.934536293445942
 40
1.934536293445942
 40
1.934536293445942
 40
1.934536293445942
 10
5.800262469832887
 20
4.801084347857599
 30
0.4948537770524127
 10
5.800262469832887
 20
4.813777763776702
 30
0.4948537770524127
 10
5.79771835118845
 20
4.827292986559767
 30
0.4943130591091176
 10
5.787421356912091
 20
4.852114589892706
 30
0.4923591655715427
 10
5.779670440517293
 20
4.863423885820481
 30
0.4909727942958853
 10
5.761814055102149
 20
4.881280271236208
 30
0.4883593644717621
 10
5.7505049928277
 20
4.889030756113371
 30
0.4869600743531919
 10
5.725684202974662
 20
4.899327437117323
 30
0.4849764518348821
 10
5.712169267737408
 20
4.901871749432402
 30
0.4844225966535305
 10
5.699475068257015
 20
4.901871749432402
 30
0.4844225966535305
 10
5.686780868776622
 20
4.901871749432402
 30
0.4844225966535305
 10
5.673265933539369
 20
4.899327437117323
 30
0.4849764518348821
 10
5.64844514368633
 20
4.889030756113371
 30
0.4869600743531919
 10
5.637136081411881
 20
4.881280271236208
 30
0.4883593644717621
 10
5.619279695996738
 20
4.863423885820481
 30
0.4909727942958853
 10
5.611528779603759
 20
4.852114589892706
 30
0.4923591655715427
 10
5.601231785327399
 20
4.827292986559767
 30
0.4943130591091176
 10
5.598687666682963
 20
4.813777763776702
 30
0.4948537770524127
 10
5.598687666682963
 20
4.801084347857599
 30
0.4948537770524127
1001
ACAD_VIEW_EDGE_ID
1071
-1073743361
1071
        2
1071
        5
1071
        0
  0
SPLINE
  5
40C
330
70
100
AcDbEntity
  8
Hidden
100
AcDbSpline
 70
     0
 71
     3
 72
    22
 73
    18
 74
     0
 42
0.000000001
 43
0.0000000001
 40
0.3869072586891886
 40
0.3869072586891886
 40
0.3869072586891886
 40
0.3869072586891886
 40
0.4836310879927574
 40
0.4836310879927574
 40
0.580354917296326
 40
0.580354917296326
 40
0.6770847173373516
 40
0.6770847173373516
 40
0.7738145173783772
 40
0.7738145173783772
 40
0.8705443174194027
 40
0.8705443174194027
 40
0.9672741174604283
 40
0.9672741174604283
 40
1.063997946763997
 40
1.063997946763997
 40
1.160721776067565
 40
1.160721776067565
 40
1.160721776067565
 40
1.160721776067565
 10
5.598687666682963
 20
4.801084347857599
 30
0.4948537770524127
 10
5.598687666682963
 20
4.788390931938495
 30
0.4948537770524127
 10
5.601231785327399
 20
4.774875709155431
 30
0.4943130591091176
 10
5.611528779603759
 20
4.750054105822491
 30
0.4923591655715427
 10
5.619279695996738
 20
4.738744809894716
 30
0.4909727942958853
 10
5.637136081411881
 20
4.72088842447899
 30
0.4883593644717621
 10
5.64844514368633
 20
4.713137939601827
 30
0.4869600743531919
 10
5.673265933539369
 20
4.702841258597874
 30
0.4849764518348821
 10
5.686780868776622
 20
4.700296946282795
 30
0.4844225966535305
 10
5.712169267737408
 20
4.700296946282795
 30
0.4844225966535305
 10
5.725684202974662
 20
4.702841258597874
 30
0.4849764518348821
 10
5.7505049928277
 20
4.713137939601827
 30
0.4869600743531919
 10
5.761814055102149
 20
4.72088842447899
 30
0.4883593644717621
 10
5.779670440517293
 20
4.738744809894716
 30
0.4909727942958853
 10
5.787421356912091
 20
4.750054105822491
 30
0.4923591655715427
 10
5.79771835118845
 20
4.774875709155431
 30
0.4943130591091176
 10
5.800262469832887
 20
4.788390931938495
 30
0.4948537770524127
 10
5.800262469832887
 20
4.801084347857599
 30
0.4948537770524127
1001
ACAD_VIEW_EDGE_ID
1071
-1073743873
1071
        2
1071
        5
1071
        0
  0
LINE
  5
40D
330
70
100
AcDbEntity
  8
Visible
100
AcDbLine
 10
13.615323
 20
8.158259
 30
-0.064159
 11
13.615323
 21
8.000779
 31
-0.064159
  0
LINE
  5
40E
330
70
100
AcDbEntity
  8
Visible
100
AcDbLine
 10
13.434614
 20
8.000779
 30
-0.064159
 11
13.434614
 21
8.158259
 31
-0.064159
  0
ARC
  5
40F
330
70
100
AcDbEntity
  8
Visible
100
AcDbCircle
 10
-13.524969
 20
-1.044255
 30
8.158259
 40
0.9842519685039228
210
0.0
220
1.0
230
0.0
100
AcDbArc
 50
84.732832
 51
95.267168
  0
ARC
  5
410
330
70
100
AcDbEntity
  8
Visible
100
AcDbCircle
 10
-13.524969
 20
-1.044255
 30
8.000779
 40
0.984251968503937
210
0.0
220
1.0
230
0.0000000000000003
100
AcDbArc
 50
95.267168
 51
180.0
  0
ARC
  5
411
330
70
100
AcDbEntity
  8
Visible
100
AcDbCircle
 10
-13.524969
 20
-1.044255
 30
8.000779
 40
0.9842519685039366
210
0.0
220
1.0
230
0.0000000000000003
100
AcDbArc
 50
360.0
 51
84.732832
  0
ARC
  5
412
330
70
100
AcDbEntity
  8
Visible
100
AcDbCircle
 10
-13.524969
 20
-1.044255
 30
8.237
 40
0.9842519685039368
210
0.0
220
1.0
230
-0.0000000000000002
100
AcDbArc
 50
0.0
 51
180.0
  0
LINE
  5
413
330
70
100
AcDbEntity
  8
Visible
100
AcDbLine
 10
12.540717
 20
8.000779
 30
-1.044255
 11
12.540717
 21
8.237
 31
-1.044255
  0
LINE
  5
414
330
70
100
AcDbEntity
  8
Visible
100
AcDbLine
 10
14.509221
 20
8.000779
 30
-1.044255
 11
14.509221
 21
8.237
 31
-1.044255
  0
ARC
  5
415
330
70
100
AcDbEntity
  8
Visible
100
AcDbCircle
 10
13.524969
 20
-1.044255
 30
-7.402354
 40
0.2559055118110236
210
0.0000000000000003
220
-1.0
230
0.0000000000000003
100
AcDbArc
 50
0.0
 51
180.0
  0
ARC
  5
416
330
70
100
AcDbEntity
  8
Visible
100
AcDbCircle
 10
13.524969
 20
-1.044255
 30
-7.914165
 40
0.9448818897637798
210
0.0
220
-1.0
230
0.0000000000000003
100
AcDbArc
 50
360.0
 51
180.0
  0
ARC
  5
417
330
70
100
AcDbEntity
  8
Visible
100
AcDbCircle
 10
13.524969
 20
-1.044255
 30
-8.000779
 40
0.9448818897637838
210
0.0
220
-1.0
230
0.0000000000000003
100
AcDbArc
 50
84.512707
 51
95.487293
  0
LINE
  5
418
330
70
100
AcDbEntity
  8
Visible
100
AcDbLine
 10
13.780874
 20
7.914165
 30
-1.044255
 11
13.780874
 21
7.402354
 31
-1.044255
  0
LINE
  5
419
330
70
100
AcDbEntity
  8
Visible
100
AcDbLine
 10
13.269063
 20
7.914165
 30
-1.044255
 11
13.269063
 21
7.402354
 31
-1.044255
  0
LINE
  5
41A
330
70
100
AcDbEntity
  8
Visible
100
AcDbLine
 10
14.469851
 20
8.000779
 30
-1.044255
 11
14.469851
 21
7.914165
 31
-1.044255
  0
LINE
  5
41B
330
70
100
AcDbEntity
  8
Visible
100
AcDbLine
 10
12.580087
 20
8.000779
 30
-1.044255
 11
12.580087
 21
7.914165
 31
-1.044255
  0
ARC
  5
41C
330
70
100
AcDbEntity
  8
Visible
100
AcDbCircle
 10
13.524969
 20
-1.044255
 30
-7.323614
 40
0.9448818897637799
210
-0.0000000000000002
220
-1.0
230
-0.000000000000002
100
AcDbArc
 50
0.0
 51
180.0
  0
LINE
  5
41D
330
70
100
AcDbEntity
  8
Visible
100
AcDbLine
 10
14.469851
 20
7.323614
 30
-1.044255
 11
14.469851
 21
7.244874
 31
-1.044255
  0
LINE
  5
41E
330
70
100
AcDbEntity
  8
Visible
100
AcDbLine
 10
12.580087
 20
7.323614
 30
-1.044255
 11
12.580087
 21
7.244874
 31
-1.044255
  0
ARC
  5
41F
330
70
100
AcDbEntity
  8
Visible
100
AcDbCircle
 10
13.524969
 20
-1.044255
 30
-7.244874
 40
0.9842519685039372
210
0.0000000000000003
220
-1.0
230
-0.0000000000000004
100
AcDbArc
 50
0.0
 51
180.0
  0
ARC
  5
420
330
70
100
AcDbEntity
  8
Visible
100
AcDbCircle
 10
13.524969
 20
-1.044255
 30
-7.048023
 40
0.9842519685039372
210
0.0000000000000004
220
-1.0
230
-0.0000000000000004
100
AcDbArc
 50
0.0
 51
180.0
  0
ARC
  5
421
330
70
100
AcDbEntity
  8
Visible
100
AcDbCircle
 10
-13.524969
 20
5.19763
 30
1.044255
 40
1.574803149606299
210
0.0
220
0.0
230
-1.0
100
AcDbArc
 50
261.136592
 51
278.863408
  0
LINE
  5
422
330
70
100
AcDbEntity
  8
Visible
100
AcDbLine
 10
14.509221
 20
7.244874
 30
-1.044255
 11
14.509221
 21
7.048023
 31
-1.044255
  0
LINE
  5
423
330
70
100
AcDbEntity
  8
Visible
100
AcDbLine
 10
12.540717
 20
7.244874
 30
-1.044255
 11
12.540717
 21
7.048023
 31
-1.044255
  0
LINE
  5
424
330
70
100
AcDbEntity
  8
Visible
100
AcDbLine
 10
14.017095
 20
7.048023
 30
-1.044255
 11
14.017095
 21
4.547144
 31
-1.044255
  0
LINE
  5
425
330
70
100
AcDbEntity
  8
Visible
100
AcDbLine
 10
13.032843
 20
7.048023
 30
-1.044255
 11
13.032843
 21
4.547144
 31
-1.044255
  0
SPLINE
  5
426
330
70
100
AcDbEntity
  8
Visible
100
AcDbSpline
 70
     0
 71
     3
 72
    18
 73
    14
 74
     0
 42
0.000000001
 43
0.0000000001
 40
-19.47511511799401
 40
-19.47511511799401
 40
-19.47511511799401
 40
-19.47511511799401
 40
-19.45658482162815
 40
-19.45658482162815
 40
-19.29820433221051
 40
-19.29820433221051
 40
-19.14368494538505
 40
-19.14368494538505
 40
-18.98548763271728
 40
-18.98548763271728
 40
-18.83096702423764
 40
-18.83096702423764
 40
-18.68887681948526
 40
-18.68887681948526
 40
-18.68887681948526
 40
-18.68887681948526
 10
13.36804399032553
 20
7.386995402162938
 30
-1.058535273048102
 10
13.36783969640783
 20
7.387113766841139
 30
-1.056109647701405
 10
13.36769147094674
 20
7.387231357579366
 30
-1.053677211543797
 10
13.36681594573201
 20
7.388345677552933
 30
-1.030407663939476
 10
13.37017638909128
 20
7.389365063469085
 30
-1.009623648892985
 10
13.38462137295209
 20
7.391466242506794
 30
-0.9710457102025287
 10
13.3953795379366
 20
7.392501105759947
 30
-0.9535547830218193
 10
13.42328433244074
 20
7.394473800735795
 30
-0.9232769362536002
 10
13.44030177009517
 20
7.395489700935286
 30
-0.9109104832833157
 10
13.47772549563342
 20
7.397590080718146
 30
-0.8937199041511815
 10
13.49769102548998
 20
7.398625855617865
 30
-0.8888892822699666
 10
13.53672055225615
 20
7.400499850704363
 30
-0.8871663467045898
 10
13.55540038442814
 20
7.401408866811834
 30
-0.8896811614959965
 10
13.57318772006874
 20
7.402354786194337
 30
-0.8954022381363802
1001
ACAD_VIEW_EDGE_ID
1071
       23
1071
       -1
1071
       11
1071
        0
  0
SPLINE
  5
427
330
70
100
AcDbEntity
  8
Visible
100
AcDbSpline
 70
     0
 71
     3
 72
    26
 73
    22
 74
     0
 42
0.000000001
 43
0.0000000001
 40
-21.9927692679055
 40
-21.9927692679055
 40
-21.9927692679055
 40
-21.9927692679055
 40
-21.96649762076992
 40
-21.96649762076992
 40
-21.80678345520427
 40
-21.80678345520427
 40
-21.65209640955183
 40
-21.65209640955183
 40
-21.49253668379856
 40
-21.49253668379856
 40
-21.33788593071876
 40
-21.33788593071876
 40
-21.17848396970479
 40
-21.17848396970479
 40
-21.02386554266697
 40
-21.02386554266697
 40
-20.86462477990747
 40
-20.86462477990747
 40
-20.71003450593548
 40
-20.71003450593548
 40
-20.69933027050207
 40
-20.69933027050207
 40
-20.69933027050207
 40
-20.69933027050207
 10
13.36804399601897
 20
7.337782803650043
 30
-1.058535272562945
 10
13.36775547012439
 20
7.33794996929646
 30
-1.055109579268199
 10
13.36757882256643
 20
7.338115564287363
 30
-1.051670854487317
 10
13.3671285765231
 20
7.339274780792038
 30
-1.027272996765374
 10
13.37092765257512
 20
7.340316767887998
 30
-1.006450341343818
 10
13.38621308348411
 20
7.342422504621936
 30
-0.9681238688035636
 10
13.39731007311639
 20
7.343451562803238
 30
-0.9508963998149308
 10
13.42587833736434
 20
7.345412519238379
 30
-0.921142319079481
 10
13.44325530692549
 20
7.346452181836866
 30
-0.9090768903884567
 10
13.48112408322049
 20
7.348557494566193
 30
-0.8927081919905791
 10
13.50114765589751
 20
7.349587142325617
 30
-0.8883314074814084
 10
13.54237841384929
 20
7.351549272021657
 30
-0.8874102220409177
 10
13.56319332151906
 20
7.352586473001792
 30
-0.8911198209750303
 10
13.60157185639582
 20
7.354691326381725
 30
-0.9062343346316367
 10
13.61885345664632
 20
7.355721600197284
 30
-0.9172628802972994
 10
13.64871474787469
 20
7.357684980130215
 30
-0.9456963986076621
 10
13.66084189246976
 20
7.358719578520322
 30
-0.9629998901482441
 10
13.67737899818712
 20
7.360823934324798
 30
-1.000778615672032
 10
13.68184844340067
 20
7.361854872024196
 30
-1.020791163731214
 10
13.68243023639479
 20
7.362890226773743
 30
-1.042507705719287
 10
13.68244904241874
 20
7.362957435367206
 30
-1.0439136141711
 10
13.68244904180028
 20
7.363024804384622
 30
-1.045318728034633
1001
ACAD_VIEW_EDGE_ID
1071
       23
1071
       -1
1071
       11
1071
        0
  0
SPLINE
  5
428
330
70
100
AcDbEntity
  8
Visible
100
AcDbSpline
 70
     0
 71
     3
 72
    14
 73
    10
 74
     0
 42
0.000000001
 43
0.0000000001
 40
-41.54957991828761
 40
-41.54957991828761
 40
-41.54957991828761
 40
-41.54957991828761
 40
-41.47833982887194
 40
-41.47833982887194
 40
-41.32452675136618
 40
-41.32452675136618
 40
-41.16621546118397
 40
-41.16621546118397
 40
-41.10961043122353
 40
-41.10961043122353
 40
-41.10961043122353
 40
-41.10961043122353
 10
13.45305774878761
 20
7.402353976714948
 30
-0.9052158500631517
 10
13.44478016918219
 20
7.401880686027652
 30
-0.9094644882842221
 10
13.43687542542648
 20
7.401410611886603
 30
-0.9144485447612714
 10
13.41339495413558
 20
7.399953535936219
 30
-0.9323639611357348
 10
13.39985086642264
 20
7.399021774735956
 30
-0.9475792167234242
 10
13.37894319967017
 20
7.396952530927592
 30
-0.9828029507102714
 10
13.37197795576503
 20
7.395883372197204
 30
-1.002592286596996
 10
13.36800961522203
 20
7.394489113234158
 30
-1.030517619887785
 10
13.36748841233566
 20
7.394131121320242
 30
-1.037921316349304
 10
13.3674884010361
 20
7.393774532036331
 30
-1.04531849489376
1001
ACAD_VIEW_EDGE_ID
1071
       25
1071
       -1
1071
       11
1071
        0
  0
SPLINE
  5
429
330
70
100
AcDbEntity
  8
Visible
100
AcDbSpline
 70
     0
 71
     3
 72
    24
 73
    20
 74
     0
 42
0.000000001
 43
0.0000000001
 40
-39.88289814400377
 40
-39.88289814400377
 40
-39.88289814400377
 40
-39.88289814400377
 40
-39.76369353753503
 40
-39.76369353753503
 40
-39.60651456410267
 40
-39.60651456410267
 40
-39.45190578144077
 40
-39.45190578144077
 40
-39.29460259207128
 40
-39.29460259207128
 40
-39.14012904111165
 40
-39.14012904111165
 40
-38.98270004708311
 40
-38.98270004708311
 40
-38.82835057893012
 40
-38.82835057893012
 40
-38.67079457465869
 40
-38.67079457465869
 40
-38.58879220294051
 40
-38.58879220294051
 40
-38.58879220294051
 40
-38.58879220294051
 10
13.68189349359272
 20
7.369810573087306
 30
-1.058535187052757
 10
13.68320228280754
 20
7.369053276197519
 30
-1.042995357617245
 10
13.6821976689589
 20
7.368321163894506
 30
-1.027320945753173
 10
13.67452875114577
 20
7.366499462859792
 30
-0.9918633638168335
 10
13.66624706699622
 20
7.365436499658244
 30
-0.972750708477864
 10
13.64297790703494
 20
7.363394574986159
 30
-0.9390845140202216
 10
13.62832148301277
 20
7.362466395872615
 30
-0.9247779513206047
 10
13.5940894726682
 20
7.360413633155985
 30
-0.9023198838219029
 10
13.57476542159566
 20
7.359349698794176
 30
-0.8944988307393957
 10
13.53456666566308
 20
7.357304418950661
 30
-0.8868288844762817
 10
13.51410347671117
 20
7.35637736566241
 30
-0.8869107208854156
 10
13.47395118023632
 20
7.354327938890492
 30
-0.8949051528997495
 10
13.45467577193449
 20
7.353263098566458
 30
-0.9028900252625479
 10
13.42064592018687
 20
7.351214513621016
 30
-0.9256222449030401
 10
13.40612900444284
 20
7.350288187546539
 30
-0.9400209636101841
 10
13.38310996495966
 20
7.34824216578454
 30
-0.9738776513559422
 10
13.37496415780697
 20
7.347176488126933
 30
-0.9931041562575133
 10
13.36858178072361
 20
7.345600015774834
 30
-1.023893896031317
 10
13.36748839566826
 20
7.345085535029284
 30
-1.034604751869449
 10
13.36748839997381
 20
7.344570212564576
 30
-1.04531889379526
1001
ACAD_VIEW_EDGE_ID
1071
       25
1071
       -1
1071
       11
1071
        0
  0
SPLINE
  5
42A
330
70
100
AcDbEntity
  8
Visible
100
AcDbSpline
 70
     4
 71
     2
 72
    12
 73
     9
 74
     0
 42
0.000000001
 43
0.0000000001
 40
0.4089547555695696
 40
0.4089547555695696
 40
0.4089547555695696
 40
0.4115853658536585
 40
0.4115853658536585
 40
0.4146341463414635
 40
0.4146341463414635
 40
0.4176829268292683
 40
0.4176829268292683
 40
0.4207317073170732
 40
0.4207317073170732
 40
0.4207317073170732
 10
13.6497802230424
 20
7.392978223042518
 30
-1.032040798945546
 41
0.9819827407397962
 10
13.64508769122767
 20
7.39025370057061
 30
-0.9879316313371248
 41
0.9343202026494051
 10
13.61372179795216
 20
7.387629444096091
 30
-0.9565657380616997
 41
1.0
 10
13.57695907284687
 20
7.384553656693242
 30
-0.9198030129565541
 41
0.9238795325112867
 10
13.52496872841402
 20
7.38147786929403
 30
-0.9198030129565541
 41
1.0
 10
13.47297838398117
 20
7.378402081891181
 30
-0.9198030129565541
 41
0.9238795325112867
 10
13.43621565887588
 20
7.37532629449015
 30
-0.9565657380616997
 41
1.0
 10
13.39945293377059
 20
7.37225050708912
 30
-0.9933284631668453
 41
0.9238795325112867
 10
13.39945293377059
 20
7.369174719688089
 30
-1.045318807600336
 41
1.0
1001
ACAD_VIEW_EDGE_ID
1071
       42
1071
       -1
1071
       11
1071
        0
  0
SPLINE
  5
42B
330
70
100
AcDbEntity
  8
Visible
100
AcDbSpline
 70
     4
 71
     2
 72
    12
 73
     9
 74
     0
 42
0.000000001
 43
0.0000000001
 40
0.4333449994720088
 40
0.4333449994720088
 40
0.4333449994720088
 40
0.4359756097560976
 40
0.4359756097560976
 40
0.4390243902439025
 40
0.4390243902439025
 40
0.4420731707317074
 40
0.4420731707317074
 40
0.4433226443036104
 40
0.4433226443036104
 40
0.4433226443036104
 10
13.6497802230424
 20
7.343765624618754
 30
-1.032040798945539
 41
0.9819827407397882
 10
13.64508769122767
 20
7.341041102145027
 30
-0.9879316313371219
 41
0.9343202026494108
 10
13.61372179795216
 20
7.338416845672327
 30
-0.9565657380616997
 41
1.0
 10
13.57695907284687
 20
7.335341058267658
 30
-0.9198030129565541
 41
0.9238795325112867
 10
13.52496872841402
 20
7.332265270868447
 30
-0.9198030129565541
 41
1.0
 10
13.47297838398117
 20
7.329189483467416
 30
-0.9198030129565541
 41
0.9238795325112867
 10
13.43621565887588
 20
7.326113696064567
 30
-0.9565657380616997
 41
1.0
 10
13.42184792917396
 20
7.324911606669047
 30
-0.9709334677611042
 41
0.9688037519301595
 10
13.41274705039541
 20
7.323613818945887
 30
-0.9891003970241579
 41
0.9631776540641215
1001
ACAD_VIEW_EDGE_ID
1071
       42
1071
       -1
1071
       11
1071
        0
  0
SPLINE
  5
42C
330
70
100
AcDbEntity
  8
Visible
100
AcDbSpline
 70
     4
 71
     2
 72
    12
 73
     9
 74
     0
 42
0.000000001
 43
0.0000000001
 40
0.4085365853658537
 40
0.4085365853658537
 40
0.4085365853658537
 40
0.4115853658536585
 40
0.4115853658536585
 40
0.4146341463414635
 40
0.4146341463414635
 40
0.4176829268292683
 40
0.4176829268292683
 40
0.4203135371133574
 40
0.4203135371133574
 40
0.4203135371133574
 10
13.65048452305746
 20
7.387629444096091
 30
-1.045318807600336
 41
1.0
 10
13.65048452305746
 20
7.384553656693242
 30
-0.9933284631668453
 41
0.9238795325112867
 10
13.61372179795216
 20
7.38147786929403
 30
-0.9565657380616997
 41
1.0
 10
13.57695907284687
 20
7.378402081891181
 30
-0.9198030129565541
 41
0.9238795325112867
 10
13.52496872841402
 20
7.37532629449015
 30
-0.9198030129565541
 41
1.0
 10
13.47297838398117
 20
7.37225050708912
 30
-0.9198030129565541
 41
0.9238795325112867
 10
13.43621565887588
 20
7.369174719688089
 30
-0.9565657380616997
 41
1.0
 10
13.40484976560037
 20
7.36655046321357
 30
-0.9879316313371248
 41
0.9343202026494051
 10
13.40015723378565
 20
7.363825940739843
 30
-1.032040798945546
 41
0.9819827407397962
1001
ACAD_VIEW_EDGE_ID
1071
       43
1071
       -1
1071
       11
1071
        0
  0
SPLINE
  5
42D
330
70
100
AcDbEntity
  8
Visible
100
AcDbSpline
 70
     4
 71
     2
 72
    10
 73
     7
 74
     0
 42
0.000000001
 43
0.0000000001
 40
0.4329268292682927
 40
0.4329268292682927
 40
0.4329268292682928
 40
0.4359756097560976
 40
0.4359756097560976
 40
0.4390243902439025
 40
0.4390243902439025
 40
0.4402738638158054
 40
0.4402738638158054
 40
0.4402738638158054
 10
13.65048452305746
 20
7.338416845672327
 30
-1.045318807600335
 41
0.9999999999999985
 10
13.65048452305564
 20
7.335341058269477
 30
-0.9933284631668445
 41
0.923879532511288
 10
13.61372179795216
 20
7.332265270868447
 30
-0.9565657380616997
 41
1.0
 10
13.57695907284687
 20
7.329189483467416
 30
-0.9198030129565541
 41
0.9238795325112867
 10
13.52496872841402
 20
7.326113696064567
 30
-0.9198030129565541
 41
1.0
 10
13.50464969021232
 20
7.324911606669047
 30
-0.9198030129565541
 41
0.9688037519301609
 10
13.48536843823604
 20
7.323613818945887
 30
-0.9262136787311852
 41
0.9631776540641219
1001
ACAD_VIEW_EDGE_ID
1071
       43
1071
       -1
1071
       11
1071
        0
  0
LINE
  5
42E
330
70
100
AcDbEntity
  8
Visible
100
AcDbLine
 10
13.682449
 20
7.369175
 30
-1.045319
 11
13.682449
 21
7.363023
 31
-1.045319
  0
LINE
  5
42F
330
70
100
AcDbEntity
  8
Visible
100
AcDbLine
 10
13.367488
 20
7.393781
 30
-1.045319
 11
13.367488
 21
7.387629
 31
-1.045319
  0
LINE
  5
430
330
70
100
AcDbEntity
  8
Visible
100
AcDbLine
 10
13.367488
 20
7.344568
 30
-1.045319
 11
13.367488
 21
7.338417
 31
-1.045319
  0
SPLINE
  5
431
330
70
100
AcDbEntity
  8
Visible
100
AcDbSpline
 70
     0
 71
     3
 72
     8
 73
     4
 74
     0
 42
0.000000001
 43
0.0000000001
 40
0.0020685770267443
 40
0.0020685770267443
 40
0.0020685770267443
 40
0.0020685770267443
 40
0.094291778850274
 40
0.094291778850274
 40
0.094291778850274
 40
0.094291778850274
 10
13.39945293377059
 20
7.36878083362717
 30
-1.058595304567537
 10
13.38898626935952
 20
7.374857491931834
 30
-1.058572894235568
 10
13.37851601130387
 20
7.380927970645643
 30
-1.058552926815242
 10
13.36804398647473
 20
7.386995402222964
 30
-1.058535273375839
1001
ACAD_VIEW_EDGE_ID
1071
   -26640
1071
       -1
1071
       11
1071
        0
  0
SPLINE
  5
432
330
70
100
AcDbEntity
  8
Visible
100
AcDbSpline
 70
     0
 71
     3
 72
     8
 73
     4
 74
     0
 42
0.000000001
 43
0.0000000001
 40
0.0225392713422101
 40
0.0225392713422101
 40
0.0225392713422101
 40
0.0225392713422101
 40
0.0942917788502755
 40
0.0942917788502755
 40
0.0942917788502755
 40
0.0942917788502755
 10
13.39248258107
 20
7.323613818945887
 30
-1.058580728674144
 10
13.3843379990376
 20
7.328339595487705
 30
-1.058564115134091
 10
13.37619154614913
 20
7.333062154099025
 30
-1.058549008298484
 10
13.36804398647473
 20
7.337782803797381
 30
-1.058535273375837
1001
ACAD_VIEW_EDGE_ID
1071
   -26641
1071
       -1
1071
       11
1071
        0
  0
SPLINE
  5
433
330
70
100
AcDbEntity
  8
Visible
100
AcDbSpline
 70
     0
 71
     3
 72
     8
 73
     4
 74
     0
 42
0.000000001
 43
0.0000000001
 40
0.0468399779080854
 40
0.0468399779080854
 40
0.0468399779080854
 40
0.0468399779080854
 40
0.0942917788502743
 40
0.0942917788502743
 40
0.0942917788502743
 40
0.0942917788502743
 10
13.66593894386278
 20
7.402353976425729
 30
-1.032073656301033
 10
13.66055191775558
 20
7.399230077293395
 30
-1.032063348310851
 10
13.65516557480623
 20
7.396105002462718
 30
-1.032052386202239
 10
13.6497802230424
 20
7.392978223042518
 30
-1.032040798945546
1001
ACAD_VIEW_EDGE_ID
1071
   -26679
1071
       -1
1071
       11
1071
        0
  0
SPLINE
  5
434
330
70
100
AcDbEntity
  8
Visible
100
AcDbSpline
 70
     0
 71
     3
 72
     8
 73
     4
 74
     0
 42
0.000000001
 43
0.0000000001
 40
0.0
 40
0.0
 40
0.0
 40
0.0
 40
0.0942917788502767
 40
0.0942917788502767
 40
0.0942917788502767
 40
0.0942917788502767
 10
13.68189347035331
 20
7.362389103009263
 30
-1.032102341824834
 10
13.67118655680133
 20
7.356185578244549
 30
-1.032084292416755
 10
13.66048149017115
 20
7.349978868114703
 30
-1.032063824057839
 10
13.6497802230424
 20
7.343765624618754
 30
-1.032040798945539
1001
ACAD_VIEW_EDGE_ID
1071
   -26680
1071
       -1
1071
       11
1071
        0
  0
LINE
  5
435
330
70
100
AcDbEntity
  8
Visible
100
AcDbLine
 10
13.650485
 20
7.393387
 30
-1.045319
 11
13.650485
 21
7.387629
 31
-1.045319
  0
LINE
  5
436
330
70
100
AcDbEntity
  8
Visible
100
AcDbLine
 10
13.650485
 20
7.344175
 30
-1.045319
 11
13.650485
 21
7.338417
 31
-1.045319
  0
LINE
  5
437
330
70
100
AcDbEntity
  8
Visible
100
AcDbLine
 10
13.399453
 20
7.369175
 30
-1.045319
 11
13.399453
 21
7.363417
 31
-1.045319
  0
SPLINE
  5
438
330
70
100
AcDbEntity
  8
Visible
100
AcDbSpline
 70
     0
 71
     3
 72
     8
 73
     4
 74
     0
 42
0.000000001
 43
0.0000000001
 40
0.0
 40
0.0
 40
0.0
 40
0.0
 40
0.0402127228402173
 40
0.0402127228402173
 40
0.0402127228402173
 40
0.0402127228402173
 10
13.36804398647473
 20
7.394415060773098
 30
-1.032102341824834
 10
13.37261017615128
 20
7.39706068507985
 30
-1.032094644273113
 10
13.37717600913311
 20
7.399706924619749
 30
-1.032086521289956
 10
13.38174137025089
 20
7.402353976425729
 30
-1.032077937658622
1001
ACAD_VIEW_EDGE_ID
1071
   -30743
1071
       -1
1071
       11
1071
        0
  0
SPLINE
  5
439
330
70
100
AcDbEntity
  8
Visible
100
AcDbSpline
 70
     0
 71
     3
 72
     8
 73
     4
 74
     0
 42
0.000000001
 43
0.0000000001
 40
0.0
 40
0.0
 40
0.0
 40
0.0
 40
0.0942917788501525
 40
0.0942917788501525
 40
0.0942917788501525
 40
0.0942917788501525
 10
13.36804398647473
 20
7.345202462349334
 30
-1.032102341824835
 10
13.37875090002671
 20
7.351405987114048
 30
-1.032084292416756
 10
13.3894559666569
 20
7.357612697243894
 30
-1.032063824057846
 10
13.40015723378565
 20
7.363825940739843
 30
-1.032040798945546
1001
ACAD_VIEW_EDGE_ID
1071
   -30744
1071
       -1
1071
       11
1071
        0
  0
SPLINE
  5
43A
330
70
100
AcDbEntity
  8
Visible
100
AcDbSpline
 70
     0
 71
     3
 72
     8
 73
     4
 74
     0
 42
0.000000001
 43
0.0000000001
 40
0.0020685763550538
 40
0.0020685763550538
 40
0.0020685763550538
 40
0.0020685763550538
 40
0.0942917788501522
 40
0.0942917788501522
 40
0.0942917788501522
 40
0.0942917788501522
 10
13.65048452305746
 20
7.388023330684518
 30
-1.058595304375596
 10
13.66095119416968
 20
7.381946683768546
 30
-1.058572888485233
 10
13.67142144544778
 20
7.375876193182193
 30
-1.058552926815367
 10
13.68189347035331
 20
7.369808761561216
 30
-1.058535273375836
1001
ACAD_VIEW_EDGE_ID
1071
   -30776
1071
       -1
1071
       11
1071
        0
  0
SPLINE
  5
43B
330
70
100
AcDbEntity
  8
Visible
100
AcDbSpline
 70
     0
 71
     3
 72
     8
 73
     4
 74
     0
 42
0.000000001
 43
0.0000000001
 40
0.0020685763550568
 40
0.0020685763550568
 40
0.0020685763550568
 40
0.0020685763550568
 40
0.079004025668381
 40
0.079004025668381
 40
0.079004025668381
 40
0.079004025668381
 10
13.65048452305746
 20
7.338810732258934
 30
-1.058595304375595
 10
13.65921614398576
 20
7.33374140536398
 30
-1.058576604346209
 10
13.66795028315209
 20
7.32867640896984
 30
-1.058559593979046
 10
13.67668581887665
 20
7.323613818945887
 30
-1.058544238697204
1001
ACAD_VIEW_EDGE_ID
1071
   -30777
1071
       -1
1071
       11
1071
        0
  0
CIRCLE
  5
43C
330
70
100
AcDbEntity
  8
Visible
100
AcDbCircle
 10
-14.412697
 20
4.219388
 30
-2.028507
 40
0.11
210
-0.0000000000000002
220
-0.0000000000000002
230
-1.0
  0
CIRCLE
  5
43D
330
70
100
AcDbEntity
  8
Visible
100
AcDbCircle
 10
-12.642697
 20
3.969388
 30
-2.028507
 40
0.1099999999999999
210
-0.0000000000000002
220
-0.0000000000000002
230
-1.0
  0
LINE
  5
43E
330
70
100
AcDbEntity
  8
Visible
100
AcDbLine
 10
12.700925
 20
3.641632
 30
2.028507
 11
14.354468
 21
3.641632
 31
2.028507
  0
ARC
  5
43F
330
70
100
AcDbEntity
  8
Visible
100
AcDbCircle
 10
14.354468
 20
4.094388
 30
2.028507
 40
0.4527559055118111
100
AcDbArc
 50
270.0
 51
90.0
  0
LINE
  5
440
330
70
100
AcDbEntity
  8
Visible
100
AcDbLine
 10
14.354468
 20
4.547144
 30
2.028507
 11
12.700925
 21
4.547144
 31
2.028507
  0
ARC
  5
441
330
70
100
AcDbEntity
  8
Visible
100
AcDbCircle
 10
12.700925
 20
4.094388
 30
2.028507
 40
0.4527559055118111
100
AcDbArc
 50
90.0
 51
270.0
  0
ENDSEC
  0
SECTION
  2
OBJECTS
  0
DICTIONARY
  5
C
330
0
100
AcDbDictionary
281
     1
  3
ACAD_COLOR
350
63
  3
ACAD_DETAILVIEWSTYLE
350
6A
  3
ACAD_GROUP
350
D
  3
ACAD_IMAGE_DICT
350
1B3
  3
ACAD_IMAGE_VARS
350
1B5
  3
ACAD_LAYOUT
350
62
  3
ACAD_MATERIAL
350
10
  3
ACAD_MLEADERSTYLE
350
66
  3
ACAD_MLINESTYLE
350
5F
  3
ACAD_PLOTSETTINGS
350
61
  3
ACAD_PLOTSTYLENAME
350
E
  3
ACAD_SCALELIST
350
42
  3
ACAD_SECTIONVIEWSTYLE
350
68
  3
ACAD_TABLESTYLE
350
64
  3
ACAD_VISUALSTYLE
350
29
  3
ACDB_RECOMPOSE_DATA
350
48A
  3
AcDbVariableDictionary
350
481
  0
DICTIONARY
  5
B4
330
70
100
AcDbDictionary
280
     1
281
     1
  3
ACAD_SORTENTS
360
1A9
  0
DICTIONARY
  5
1AD
330
1AC
100
AcDbDictionary
280
     1
281
     1
  3
ACAD_SORTENTS
360
361
  0
IMAGEDEF_REACTOR
  5
1B4
330
1B1
100
AcDbRasterImageDefReactor
 90
        2
330
1B1
  0
DICTIONARY
  5
63
102
{ACAD_REACTORS
330
C
102
}
330
C
100
AcDbDictionary
281
     1
  0
DICTIONARY
  5
6A
102
{ACAD_REACTORS
330
C
102
}
330
C
100
AcDbDictionary
281
     1
  3
Imperial24
350
6B
  0
DICTIONARY
  5
D
102
{ACAD_REACTORS
330
C
102
}
330
C
100
AcDbDictionary
281
     1
  0
DICTIONARY
  5
1B3
102
{ACAD_REACTORS
330
C
102
}
330
C
100
AcDbDictionary
281
     1
  3
morse_logo-16 (1)_01-2018(B)_1_1
350
1B2
  0
RASTERVARIABLES
  5
1B5
102
{ACAD_REACTORS
330
C
102
}
330
C
100
AcDbRasterVariables
 90
        0
 70
     0
 71
     1
 72
     5
  0
DICTIONARY
  5
62
102
{ACAD_REACTORS
330
C
102
}
330
C
100
AcDbDictionary
281
     1
  3
Model
350
73
  3
Sheet1
350
6F
  3
Sheet2
350
77
  0
DICTIONARY
  5
10
102
{ACAD_REACTORS
330
C
102
}
330
C
100
AcDbDictionary
281
     1
  3
ByBlock
350
19
  3
ByLayer
350
11
  3
Global
350
21
  0
DICTIONARY
  5
66
102
{ACAD_REACTORS
330
C
102
}
330
C
100
AcDbDictionary
281
     1
  3
Standard
350
67
  0
DICTIONARY
  5
5F
102
{ACAD_REACTORS
330
C
102
}
330
C
100
AcDbDictionary
281
     1
  3
Standard
350
60
  0
DICTIONARY
  5
61
102
{ACAD_REACTORS
330
C
102
}
330
C
100
AcDbDictionary
281
     1
  0
ACDBDICTIONARYWDFLT
  5
E
102
{ACAD_REACTORS
330
C
102
}
330
C
100
AcDbDictionary
281
     1
  3
Normal
350
F
100
AcDbDictionaryWithDefault
340
F
  0
DICTIONARY
  5
42
102
{ACAD_REACTORS
330
C
102
}
330
C
100
AcDbDictionary
281
     1
  3
*A1
350
A4
  3
*A10
350
AD
  3
*A11
350
AE
  3
*A12
350
AF
  3
*A13
350
B0
  3
*A14
350
B1
  3
*A15
350
B2
  3
*A16
350
B3
  3
*A2
350
A5
  3
*A3
350
A6
  3
*A4
350
A7
  3
*A5
350
A8
  3
*A6
350
A9
  3
*A7
350
AA
  3
*A8
350
AB
  3
*A9
350
AC
  3
A0
350
43
  3
A1
350
44
  3
A2
350
45
  3
A3
350
46
  3
A4
350
47
  3
A5
350
48
  3
A6
350
49
  3
A7
350
4A
  3
A8
350
4B
  3
A9
350
4C
  3
B0
350
4D
  3
B1
350
4E
  3
B2
350
4F
  3
B3
350
50
  3
B4
350
51
  3
B5
350
52
  3
B6
350
53
  0
DICTIONARY
  5
68
102
{ACAD_REACTORS
330
C
102
}
330
C
100
AcDbDictionary
281
     1
  3
Imperial24
350
69
  0
DICTIONARY
  5
64
102
{ACAD_REACTORS
330
C
102
}
330
C
100
AcDbDictionary
281
     1
  3
Standard
350
65
  0
DICTIONARY
  5
29
102
{ACAD_REACTORS
330
C
102
}
330
C
100
AcDbDictionary
281
     1
  3
2dWireframe
350
2F
  3
Basic
350
2E
  3
Brighten
350
35
  3
ColorChange
350
39
  3
Conceptual
350
32
  3
Dim
350
34
  3
EdgeColorOff
350
41
  3
Facepattern
350
38
  3
Flat
350
2A
  3
FlatWithEdges
350
2B
  3
Gouraud
350
2C
  3
GouraudWithEdges
350
2D
  3
Hidden
350
31
  3
JitterOff
350
3F
  3
Linepattern
350
37
  3
OverhangOff
350
40
  3
Realistic
350
33
  3
Shaded
350
3E
  3
Shaded with edges
350
3D
  3
Shades of Gray
350
3A
  3
Sketchy
350
3B
  3
Thicken
350
36
  3
Wireframe
350
30
  3
X-Ray
350
3C
  0
XRECORD
  5
48A
102
{ACAD_REACTORS
330
C
102
}
330
C
100
AcDbXrecord
280
     1
 90
        1
330
65
330
1B9
330
1C3
330
1C4
330
1C5
330
1C8
330
251
  0
DICTIONARY
  5
481
102
{ACAD_REACTORS
330
C
102
}
330
C
100
AcDbDictionary
281
     1
  3
ANNOALLVISIBLE
350
486
  3
CANNOSCALE
350
487
  3
CMLEADERSTYLE
350
483
  3
CTABLESTYLE
350
482
  3
CVIEWDETAILSTYLE
350
484
  3
CVIEWSECTIONSTYLE
350
485
  0
SORTENTSTABLE
  5
1A9
102
{ACAD_REACTORS
330
B4
102
}
330
B4
100
AcDbSortentsTable
330
70
  0
SORTENTSTABLE
  5
361
102
{ACAD_REACTORS
330
1AD
102
}
330
1AD
100
AcDbSortentsTable
330
1AC
  0
ACDBDETAILVIEWSTYLE
  5
6B
102
{ACAD_XDICTIONARY
360
48D
102
}
102
{ACAD_REACTORS
330
6A
102
}
330
6A
100
AcDbModelDocViewStyle
 70
     0
  3
Imperial24
290
     0
100
AcDbDetailViewStyle
 70
     0
 71
     0
 90
        3
 71
     1
340
55
 62
   256
 40
0.24
340
0
 62
   256
 40
0.24
300

 40
0.36
280
     3
 71
     2
340
5D
 90
       25
 62
   256
 71
     3
340
55
 62
   256
 40
0.24
 90
        1
 40
0.75
 90
        1
300
%<\AcVar ViewType \f "%tc1">% %<\AcVar ViewDetailId>%\PSCALE %<\AcVar ViewScale \f "%sn">%
 71
     4
340
5D
 90
       25
 62
   256
340
5D
 90
       25
 62
   256
280
     0
  0
IMAGEDEF
  5
1B2
102
{ACAD_REACTORS
330
1B3
330
1B4
330
442
102
}
330
1B3
100
AcDbRasterImageDef
 90
        0
  1
morse_logo-16 (1)_01-2018(B)_1_1.jpg
 10
948.0
 20
333.0
 11
0.264583
 21
0.264583
280
     1
281
     5
  0
LAYOUT
  5
73
102
{ACAD_REACTORS
330
62
102
}
330
62
100
AcDbPlotSettings
  1

  2
AutoCAD PDF (High Quality Print).pc3
  4
ANSI_full_bleed_B_(17.00_x_11.00_Inches)
  6

 40
0.0
 41
0.0
 42
0.0
 43
0.0
 44
431.799988
 45
279.399994
 46
0.0
 47
0.0
 48
0.0
 49
0.0
140
0.0
141
0.0
142
1.0
143
1.725798
 70
 11952
 72
     0
 73
     0
 74
     0
  7

 75
     0
147
0.579442
 76
     0
 77
     2
 78
   300
148
172.236617
149
73.018998
100
AcDbLayout
  1
Model
 70
     1
 71
     0
 10
0.0
 20
0.0
 11
12.0
 21
9.0
 12
0.0
 22
0.0
 32
0.0
 14
0.0
 24
0.0
 34
0.0
 15
0.0
 25
0.0
 35
0.0
146
0.0
 13
0.0
 23
0.0
 33
0.0
 16
1.0
 26
0.0
 36
0.0
 17
0.0
 27
1.0
 37
0.0
 76
     0
330
70
1001
ACAD_PSEXT
1000
AutoCAD PDF (High Quality Print).pc3
1000
DWG To PDF
1000
File
1000

1070
     0
  0
LAYOUT
  5
6F
102
{ACAD_REACTORS
330
62
102
}
330
62
100
AcDbPlotSettings
  1

  2
None
  4

  6

 40
0.0
 41
0.0
 42
0.0
 43
0.0
 44
0.0
 45
0.0
 46
0.0
 47
0.0
 48
0.0
 49
0.0
140
0.0
141
0.0
142
1.0
143
1.0
 70
   688
 72
     0
 73
     0
 74
     5
  7

 75
    16
147
1.0
 76
     0
 77
     2
 78
   300
148
0.0
149
0.0
100
AcDbLayout
  1
Sheet1
 70
     1
 71
     1
 10
0.0
 20
0.0
 11
12.0
 21
9.0
 12
0.0
 22
0.0
 32
0.0
 14
0.0
 24
0.0
 34
0.0
 15
0.0
 25
0.0
 35
0.0
146
0.0
 13
0.0
 23
0.0
 33
0.0
 16
1.0
 26
0.0
 36
0.0
 17
0.0
 27
1.0
 37
0.0
 76
     0
330
6C
  0
LAYOUT
  5
77
102
{ACAD_REACTORS
330
62
102
}
330
62
100
AcDbPlotSettings
  1

  2
None
  4

  6

 40
0.0
 41
0.0
 42
0.0
 43
0.0
 44
0.0
 45
0.0
 46
0.0
 47
0.0
 48
0.0
 49
0.0
140
0.0
141
0.0
142
1.0
143
1.0
 70
   688
 72
     0
 73
     0
 74
     5
  7

 75
    16
147
1.0
 76
     0
 77
     2
 78
   300
148
0.0
149
0.0
100
AcDbLayout
  1
Sheet2
 70
     1
 71
     2
 10
0.0
 20
0.0
 11
12.0
 21
9.0
 12
0.0
 22
0.0
 32
0.0
 14
0.0
 24
0.0
 34
0.0
 15
0.0
 25
0.0
 35
0.0
146
0.0
 13
0.0
 23
0.0
 33
0.0
 16
1.0
 26
0.0
 36
0.0
 17
0.0
 27
1.0
 37
0.0
 76
     0
330
74
  0
MATERIAL
  5
19
102
{ACAD_XDICTIONARY
360
1A
102
}
102
{ACAD_REACTORS
330
10
102
}
330
10
100
AcDbMaterial
  1
ByBlock
 72
     0
 43
0.020833
 43
0.0
 43
0.0
 43
0.0
 43
0.0
 43
0.020833
 43
0.0
 43
0.0
 43
0.0
 43
0.0
 43
1.0
 43
0.0
 43
0.0
 43
0.0
 43
0.0
 43
1.0
 77
     0
 47
0.020833
 47
0.0
 47
0.0
 47
0.0
 47
0.0
 47
0.020833
 47
0.0
 47
0.0
 47
0.0
 47
0.0
 47
1.0
 47
0.0
 47
0.0
 47
0.0
 47
0.0
 47
1.0
171
     0
 49
0.020833
 49
0.0
 49
0.0
 49
0.0
 49
0.0
 49
0.020833
 49
0.0
 49
0.0
 49
0.0
 49
0.0
 49
1.0
 49
0.0
 49
0.0
 49
0.0
 49
0.0
 49
1.0
175
     0
142
0.020833
142
0.0
142
0.0
142
0.0
142
0.0
142
0.020833
142
0.0
142
0.0
142
0.0
142
0.0
142
1.0
142
0.0
142
0.0
142
0.0
142
0.0
142
1.0
179
     0
144
0.020833
144
0.0
144
0.0
144
0.0
144
0.0
144
0.020833
144
0.0
144
0.0
144
0.0
144
0.0
144
1.0
144
0.0
144
0.0
144
0.0
144
0.0
144
1.0
147
0.020833
147
0.0
147
0.0
147
0.0
147
0.0
147
0.020833
147
0.0
147
0.0
147
0.0
147
0.0
147
1.0
147
0.0
147
0.0
147
0.0
147
0.0
147
1.0
  0
MATERIAL
  5
11
102
{ACAD_XDICTIONARY
360
12
102
}
102
{ACAD_REACTORS
330
10
102
}
330
10
100
AcDbMaterial
  1
ByLayer
 72
     0
 43
0.020833
 43
0.0
 43
0.0
 43
0.0
 43
0.0
 43
0.020833
 43
0.0
 43
0.0
 43
0.0
 43
0.0
 43
1.0
 43
0.0
 43
0.0
 43
0.0
 43
0.0
 43
1.0
 77
     0
 47
0.020833
 47
0.0
 47
0.0
 47
0.0
 47
0.0
 47
0.020833
 47
0.0
 47
0.0
 47
0.0
 47
0.0
 47
1.0
 47
0.0
 47
0.0
 47
0.0
 47
0.0
 47
1.0
171
     0
 49
0.020833
 49
0.0
 49
0.0
 49
0.0
 49
0.0
 49
0.020833
 49
0.0
 49
0.0
 49
0.0
 49
0.0
 49
1.0
 49
0.0
 49
0.0
 49
0.0
 49
0.0
 49
1.0
175
     0
142
0.020833
142
0.0
142
0.0
142
0.0
142
0.0
142
0.020833
142
0.0
142
0.0
142
0.0
142
0.0
142
1.0
142
0.0
142
0.0
142
0.0
142
0.0
142
1.0
179
     0
144
0.020833
144
0.0
144
0.0
144
0.0
144
0.0
144
0.020833
144
0.0
144
0.0
144
0.0
144
0.0
144
1.0
144
0.0
144
0.0
144
0.0
144
0.0
144
1.0
147
0.020833
147
0.0
147
0.0
147
0.0
147
0.0
147
0.020833
147
0.0
147
0.0
147
0.0
147
0.0
147
1.0
147
0.0
147
0.0
147
0.0
147
0.0
147
1.0
  0
MATERIAL
  5
21
102
{ACAD_XDICTIONARY
360
22
102
}
102
{ACAD_REACTORS
330
10
102
}
330
10
100
AcDbMaterial
  1
Global
 72
     0
 43
0.020833
 43
0.0
 43
0.0
 43
0.0
 43
0.0
 43
0.020833
 43
0.0
 43
0.0
 43
0.0
 43
0.0
 43
1.0
 43
0.0
 43
0.0
 43
0.0
 43
0.0
 43
1.0
 77
     0
 47
0.020833
 47
0.0
 47
0.0
 47
0.0
 47
0.0
 47
0.020833
 47
0.0
 47
0.0
 47
0.0
 47
0.0
 47
1.0
 47
0.0
 47
0.0
 47
0.0
 47
0.0
 47
1.0
171
     0
 49
0.020833
 49
0.0
 49
0.0
 49
0.0
 49
0.0
 49
0.020833
 49
0.0
 49
0.0
 49
0.0
 49
0.0
 49
1.0
 49
0.0
 49
0.0
 49
0.0
 49
0.0
 49
1.0
175
     0
142
0.020833
142
0.0
142
0.0
142
0.0
142
0.0
142
0.020833
142
0.0
142
0.0
142
0.0
142
0.0
142
1.0
142
0.0
142
0.0
142
0.0
142
0.0
142
1.0
179
     0
144
0.020833
144
0.0
144
0.0
144
0.0
144
0.0
144
0.020833
144
0.0
144
0.0
144
0.0
144
0.0
144
1.0
144
0.0
144
0.0
144
0.0
144
0.0
144
1.0
147
0.020833
147
0.0
147
0.0
147
0.0
147
0.0
147
0.020833
147
0.0
147
0.0
147
0.0
147
0.0
147
1.0
147
0.0
147
0.0
147
0.0
147
0.0
147
1.0
  0
MLEADERSTYLE
  5
67
102
{ACAD_REACTORS
330
66
102
}
330
66
100
AcDbMLeaderStyle
179
     2
170
     2
171
     1
172
     0
 90
        2
 40
0.0
 41
0.0
173
     1
 91
-1056964608
340
5B
 92
       -2
290
     1
 42
0.09
291
     1
 43
0.36
  3
Standard
 44
0.18
300

342
55
174
     1
178
     6
175
     1
176
     0
 93
-1056964608
 45
0.18
292
     0
297
     0
 46
0.18
 94
-1056964608
 47
1.0
 49
1.0
140
1.0
293
     1
141
0.0
294
     1
177
     0
142
1.0
295
     0
296
     0
143
0.125
271
     0
272
     9
273
     9
298
     1
  0
MLINESTYLE
  5
60
102
{ACAD_REACTORS
330
5F
102
}
330
5F
100
AcDbMlineStyle
  2
STANDARD
 70
     0
  3

 62
   256
 51
90.0
 52
90.0
 71
     0
  0
ACDBPLACEHOLDER
  5
F
102
{ACAD_REACTORS
330
E
102
}
330
E
  0
SCALE
  5
A4
102
{ACAD_REACTORS
330
42
102
}
330
42
100
AcDbScale
 70
     0
300
1:2
140
1.0
141
2.0
290
     0
  0
SCALE
  5
AD
102
{ACAD_REACTORS
330
42
102
}
330
42
100
AcDbScale
 70
     0
300
1:50
140
1.0
141
50.0
290
     0
  0
SCALE
  5
AE
102
{ACAD_REACTORS
330
42
102
}
330
42
100
AcDbScale
 70
     0
300
1:100
140
1.0
141
100.0
290
     0
  0
SCALE
  5
AF
102
{ACAD_REACTORS
330
42
102
}
330
42
100
AcDbScale
 70
     0
300
2:1
140
2.0
141
1.0
290
     0
  0
SCALE
  5
B0
102
{ACAD_REACTORS
330
42
102
}
330
42
100
AcDbScale
 70
     0
300
4:1
140
4.0
141
1.0
290
     0
  0
SCALE
  5
B1
102
{ACAD_REACTORS
330
42
102
}
330
42
100
AcDbScale
 70
     0
300
8:1
140
8.0
141
1.0
290
     0
  0
SCALE
  5
B2
102
{ACAD_REACTORS
330
42
102
}
330
42
100
AcDbScale
 70
     0
300
10:1
140
10.0
141
1.0
290
     0
  0
SCALE
  5
B3
102
{ACAD_REACTORS
330
42
102
}
330
42
100
AcDbScale
 70
     0
300
100:1
140
100.0
141
1.0
290
     0
  0
SCALE
  5
A5
102
{ACAD_REACTORS
330
42
102
}
330
42
100
AcDbScale
 70
     0
300
1:4
140
1.0
141
4.0
290
     0
  0
SCALE
  5
A6
102
{ACAD_REACTORS
330
42
102
}
330
42
100
AcDbScale
 70
     0
300
1:5
140
1.0
141
5.0
290
     0
  0
SCALE
  5
A7
102
{ACAD_REACTORS
330
42
102
}
330
42
100
AcDbScale
 70
     0
300
1:8
140
1.0
141
8.0
290
     0
  0
SCALE
  5
A8
102
{ACAD_REACTORS
330
42
102
}
330
42
100
AcDbScale
 70
     0
300
1:10
140
1.0
141
10.0
290
     0
  0
SCALE
  5
A9
102
{ACAD_REACTORS
330
42
102
}
330
42
100
AcDbScale
 70
     0
300
1:16
140
1.0
141
16.0
290
     0
  0
SCALE
  5
AA
102
{ACAD_REACTORS
330
42
102
}
330
42
100
AcDbScale
 70
     0
300
1:20
140
1.0
141
20.0
290
     0
  0
SCALE
  5
AB
102
{ACAD_REACTORS
330
42
102
}
330
42
100
AcDbScale
 70
     0
300
1:30
140
1.0
141
30.0
290
     0
  0
SCALE
  5
AC
102
{ACAD_REACTORS
330
42
102
}
330
42
100
AcDbScale
 70
     0
300
1:40
140
1.0
141
40.0
290
     0
  0
SCALE
  5
43
102
{ACAD_REACTORS
330
42
102
}
330
42
100
AcDbScale
 70
     0
300
1:1
140
1.0
141
1.0
290
     1
  0
SCALE
  5
44
102
{ACAD_REACTORS
330
42
102
}
330
42
100
AcDbScale
 70
     0
300
1/128" = 1'-0"
140
0.007813
141
12.0
290
     0
  0
SCALE
  5
45
102
{ACAD_REACTORS
330
42
102
}
330
42
100
AcDbScale
 70
     0
300
1/64" = 1'-0"
140
0.015625
141
12.0
290
     0
  0
SCALE
  5
46
102
{ACAD_REACTORS
330
42
102
}
330
42
100
AcDbScale
 70
     0
300
1/32" = 1'-0"
140
0.03125
141
12.0
290
     0
  0
SCALE
  5
47
102
{ACAD_REACTORS
330
42
102
}
330
42
100
AcDbScale
 70
     0
300
1/16" = 1'-0"
140
0.0625
141
12.0
290
     0
  0
SCALE
  5
48
102
{ACAD_REACTORS
330
42
102
}
330
42
100
AcDbScale
 70
     0
300
3/32" = 1'-0"
140
0.09375
141
12.0
290
     0
  0
SCALE
  5
49
102
{ACAD_REACTORS
330
42
102
}
330
42
100
AcDbScale
 70
     0
300
1/8" = 1'-0"
140
0.125
141
12.0
290
     0
  0
SCALE
  5
4A
102
{ACAD_REACTORS
330
42
102
}
330
42
100
AcDbScale
 70
     0
300
3/16" = 1'-0"
140
0.1875
141
12.0
290
     0
  0
SCALE
  5
4B
102
{ACAD_REACTORS
330
42
102
}
330
42
100
AcDbScale
 70
     0
300
1/4" = 1'-0"
140
0.25
141
12.0
290
     0
  0
SCALE
  5
4C
102
{ACAD_REACTORS
330
42
102
}
330
42
100
AcDbScale
 70
     0
300
3/8" = 1'-0"
140
0.375
141
12.0
290
     0
  0
SCALE
  5
4D
102
{ACAD_REACTORS
330
42
102
}
330
42
100
AcDbScale
 70
     0
300
1/2" = 1'-0"
140
0.5
141
12.0
290
     0
  0
SCALE
  5
4E
102
{ACAD_REACTORS
330
42
102
}
330
42
100
AcDbScale
 70
     0
300
3/4" = 1'-0"
140
0.75
141
12.0
290
     0
  0
SCALE
  5
4F
102
{ACAD_REACTORS
330
42
102
}
330
42
100
AcDbScale
 70
     0
300
1" = 1'-0"
140
1.0
141
12.0
290
     0
  0
SCALE
  5
50
102
{ACAD_REACTORS
330
42
102
}
330
42
100
AcDbScale
 70
     0
300
1-1/2" = 1'-0"
140
1.5
141
12.0
290
     0
  0
SCALE
  5
51
102
{ACAD_REACTORS
330
42
102
}
330
42
100
AcDbScale
 70
     0
300
3" = 1'-0"
140
3.0
141
12.0
290
     0
  0
SCALE
  5
52
102
{ACAD_REACTORS
330
42
102
}
330
42
100
AcDbScale
 70
     0
300
6" = 1'-0"
140
6.0
141
12.0
290
     0
  0
SCALE
  5
53
102
{ACAD_REACTORS
330
42
102
}
330
42
100
AcDbScale
 70
     0
300
1'-0" = 1'-0"
140
12.0
141
12.0
290
     0
  0
ACDBSECTIONVIEWSTYLE
  5
69
102
{ACAD_XDICTIONARY
360
48B
102
}
102
{ACAD_REACTORS
330
68
102
}
330
68
100
AcDbModelDocViewStyle
 70
     0
  3
Imperial24
290
     0
100
AcDbSectionViewStyle
 70
     0
 71
     0
 90
       78
 71
     1
340
55
 62
   256
 40
0.24
340
0
340
0
 62
   256
 40
0.24
300
I, O, Q, S, X, Z
 40
0.48
 90
        3
 40
0.18
 90
        1
 71
     2
340
5D
 90
       25
 62
   256
340
5D
 90
       50
 62
   256
 40
0.24
 40
0.0
 40
0.24
 71
     3
340
55
 62
   256
 40
0.24
 90
        1
 40
0.75
 90
        1
300
%<\AcVar ViewType \f "%tc1">% %<\AcVar ViewSectionStartId>%-%<\AcVar ViewSectionEndId>%\PSCALE %<\AcVar ViewScale \f "%sn">%
 71
     4
 62
   256
 62
   257
300
ANSI31
 40
1.0
 90
        0
290
     0
290
     0
 90
        6
 40
0.0
 40
1.570796
 40
0.261799
 40
1.308997
 40
-0.261799
 40
1.832596
  0
TABLESTYLE
  5
65
102
{ACAD_XDICTIONARY
360
488
102
}
102
{ACAD_REACTORS
330
64
102
}
330
64
100
AcDbTableStyle
280
     0
  3
Standard
 70
     0
 71
     0
 40
0.06
 41
0.06
280
     0
281
     0
  7
Standard
140
0.18
170
     2
 62
     0
 63
     7
283
     0
 90
      512
 91
        0
  1

274
    -2
284
     1
 64
     0
275
    -2
285
     1
 65
     0
276
    -2
286
     1
 66
     0
277
    -2
287
     1
 67
     0
278
    -2
288
     1
 68
     0
279
    -2
289
     1
 69
     0
  7
Standard
140
0.25
170
     5
 62
     0
 63
     7
283
     0
 90
      512
 91
        0
  1

274
    -2
284
     1
 64
     0
275
    -2
285
     1
 65
     0
276
    -2
286
     1
 66
     0
277
    -2
287
     1
 67
     0
278
    -2
288
     1
 68
     0
279
    -2
289
     1
 69
     0
  7
Standard
140
0.18
170
     5
 62
     0
 63
     7
283
     0
 90
      512
 91
        0
  1

274
    -2
284
     1
 64
     0
275
    -2
285
     1
 65
     0
276
    -2
286
     1
 66
     0
277
    -2
287
     1
 67
     0
278
    -2
288
     1
 68
     0
279
    -2
289
     1
 69
     0
  0
VISUALSTYLE
  5
2F
102
{ACAD_REACTORS
330
29
102
}
330
29
100
AcDbVisualStyle
  2
2dWireframe
 70
     4
177
     3
291
     0
 70
    58
 90
        0
176
     1
 90
        2
176
     1
 90
        0
176
     1
 90
        0
176
     1
 40
0.6
176
     1
 40
30.0
176
     1
 62
     7
420
 16777215
176
     1
 90
        1
176
     1
 90
        4
176
     1
 62
     7
176
     1
 62
   257
176
     1
 90
        1
176
     1
 90
        1
176
     1
 40
1.0
176
     1
 90
        0
176
     1
 62
   257
176
     1
 40
1.0
176
     1
 90
        1
176
     1
 90
        6
176
     1
 90
        2
176
     1
 62
     7
176
     1
 90
        5
176
     1
 90
        0
176
     1
 90
        0
176
     1
290
     0
176
     1
 90
        1
176
     1
 40
0.0
176
     1
 90
        0
176
     1
290
     1
176
     1
290
     1
176
     1
290
     0
176
     1
290
     0
176
     1
290
     0
176
     1
290
     0
176
     1
290
     0
176
     1
290
     0
176
     1
290
     0
176
     1
 90
       50
176
     1
 40
0.0
176
     1
 40
1.0
176
     1
 90
        0
176
     1
 62
    18
420
        0
176
     1
 90
       50
176
     1
 90
        3
176
     1
 62
     5
420
      255
176
     1
290
     0
176
     1
 90
       50
176
     1
 90
       50
176
     1
 90
       50
176
     1
290
     0
176
     1
 90
       50
176
     1
 62
   256
176
     0
 40
1.0
176
     0
 90
        2
176
     1
  1
strokes_ogs.tif
176
     1
290
     0
176
     1
 40
1.0
176
     1
 40
1.0
176
     1
1001
ACAD
1000
AcDbSavedByObjectVersion
1070
     0
  0
VISUALSTYLE
  5
2E
102
{ACAD_REACTORS
330
29
102
}
330
29
100
AcDbVisualStyle
  2
Basic
 70
     7
177
     3
291
     1
 70
    58
 90
        1
176
     1
 90
        0
176
     1
 90
        1
176
     1
 90
        0
176
     1
 40
0.6
176
     1
 40
30.0
176
     1
 62
     7
420
 16777215
176
     1
 90
        0
176
     1
 90
        4
176
     1
 62
     7
176
     1
 62
   257
176
     1
 90
        1
176
     1
 90
        1
176
     1
 40
1.0
176
     1
 90
        8
176
     1
 62
     7
176
     1
 40
1.0
176
     1
 90
        1
176
     1
 90
        6
176
     1
 90
        2
176
     1
 62
     7
176
     1
 90
        5
176
     1
 90
        0
176
     1
 90
        0
176
     1
290
     0
176
     1
 90
        1
176
     1
 40
0.0
176
     1
 90
        0
176
     1
290
     0
176
     1
290
     1
176
     1
290
     1
176
     1
290
     0
176
     1
290
     0
176
     1
290
     0
176
     1
290
     0
176
     1
290
     0
176
     1
290
     0
176
     1
 90
       50
176
     1
 40
0.0
176
     1
 40
1.0
176
     1
 90
        0
176
     1
 62
    18
420
        0
176
     1
 90
       50
176
     1
 90
        3
176
     1
 62
     5
420
      255
176
     1
290
     0
176
     1
 90
       50
176
     1
 90
       50
176
     1
 90
       50
176
     1
290
     0
176
     1
 90
       50
176
     1
 62
   256
176
     0
 40
1.0
176
     0
 90
        2
176
     1
  1
strokes_ogs.tif
176
     1
290
     0
176
     1
 40
1.0
176
     1
 40
1.0
176
     1
1001
ACAD
1000
AcDbSavedByObjectVersion
1070
     0
  0
VISUALSTYLE
  5
35
102
{ACAD_REACTORS
330
29
102
}
330
29
100
AcDbVisualStyle
  2
Brighten
 70
    12
177
     3
291
     1
 70
    58
 90
        2
176
     1
 90
        2
176
     1
 90
        0
176
     1
 90
        0
176
     1
 40
0.6
176
     1
 40
30.0
176
     1
 62
     7
420
 16777215
176
     1
 90
        1
176
     1
 90
        4
176
     1
 62
     7
176
     1
 62
   257
176
     1
 90
        1
176
     1
 90
        1
176
     1
 40
1.0
176
     1
 90
        8
176
     1
 62
     7
176
     1
 40
1.0
176
     1
 90
        1
176
     1
 90
        6
176
     1
 90
        2
176
     1
 62
     7
176
     1
 90
        5
176
     1
 90
        0
176
     1
 90
        0
176
     1
290
     0
176
     1
 90
        1
176
     1
 40
50.0
176
     1
 90
        0
176
     1
290
     0
176
     1
290
     1
176
     1
290
     1
176
     1
290
     0
176
     1
290
     0
176
     1
290
     0
176
     1
290
     0
176
     1
290
     0
176
     1
290
     0
176
     1
 90
       50
176
     1
 40
0.0
176
     1
 40
1.0
176
     1
 90
        0
176
     1
 62
    18
420
        0
176
     1
 90
       50
176
     1
 90
        3
176
     1
 62
     5
420
      255
176
     1
290
     0
176
     1
 90
       50
176
     1
 90
       50
176
     1
 90
       50
176
     1
290
     0
176
     1
 90
       50
176
     1
 62
   256
176
     0
 40
1.0
176
     0
 90
        2
176
     1
  1
strokes_ogs.tif
176
     1
290
     0
176
     1
 40
1.0
176
     1
 40
1.0
176
     1
1001
ACAD
1000
AcDbSavedByObjectVersion
1070
     0
  0
VISUALSTYLE
  5
39
102
{ACAD_REACTORS
330
29
102
}
330
29
100
AcDbVisualStyle
  2
ColorChange
 70
    16
177
     3
291
     1
 70
    58
 90
        2
176
     1
 90
        2
176
     1
 90
        3
176
     1
 90
        0
176
     1
 40
0.6
176
     1
 40
30.0
176
     1
 62
     8
420
  8421504
176
     1
 90
        1
176
     1
 90
        4
176
     1
 62
     7
176
     1
 62
   257
176
     1
 90
        1
176
     1
 90
        1
176
     1
 40
1.0
176
     1
 90
        8
176
     1
 62
     8
420
  8421504
176
     1
 40
1.0
176
     1
 90
        1
176
     1
 90
        6
176
     1
 90
        2
176
     1
 62
     7
176
     1
 90
        5
176
     1
 90
        0
176
     1
 90
        0
176
     1
290
     0
176
     1
 90
        1
176
     1
 40
0.0
176
     1
 90
        0
176
     1
290
     0
176
     1
290
     1
176
     1
290
     1
176
     1
290
     0
176
     1
290
     0
176
     1
290
     0
176
     1
290
     0
176
     1
290
     0
176
     1
290
     0
176
     1
 90
       50
176
     1
 40
0.0
176
     1
 40
1.0
176
     1
 90
        0
176
     1
 62
    18
420
        0
176
     1
 90
       50
176
     1
 90
        3
176
     1
 62
     5
420
      255
176
     1
290
     0
176
     1
 90
       50
176
     1
 90
       50
176
     1
 90
       50
176
     1
290
     0
176
     1
 90
       50
176
     1
 62
   256
176
     0
 40
1.0
176
     0
 90
        2
176
     1
  1
strokes_ogs.tif
176
     1
290
     0
176
     1
 40
1.0
176
     1
 40
1.0
176
     1
1001
ACAD
1000
AcDbSavedByObjectVersion
1070
     0
  0
VISUALSTYLE
  5
32
102
{ACAD_REACTORS
330
29
102
}
330
29
100
AcDbVisualStyle
  2
Conceptual
 70
     9
177
     3
291
     0
 70
    58
 90
        3
176
     1
 90
        2
176
     1
 90
        0
176
     1
 90
        0
176
     1
 40
0.6
176
     1
 40
30.0
176
     1
 62
     7
420
 16777215
176
     1
 90
        2
176
     1
 90
        2
176
     1
 62
     7
176
     1
 62
   257
176
     1
 90
        1
176
     1
 90
        1
176
     1
 40
179.0
176
     1
 90
        8
176
     1
 62
     7
176
     1
 40
1.0
176
     1
 90
        1
176
     1
 90
        6
176
     1
 90
        2
176
     1
 62
     7
176
     1
 90
        3
176
     1
 90
        0
176
     1
 90
        0
176
     1
290
     0
176
     1
 90
        1
176
     1
 40
0.0
176
     1
 90
        0
176
     1
290
     0
176
     1
290
     1
176
     1
290
     1
176
     1
290
     0
176
     1
290
     0
176
     1
290
     0
176
     1
290
     0
176
     1
290
     0
176
     1
290
     0
176
     1
 90
       50
176
     1
 40
0.0
176
     1
 40
1.0
176
     1
 90
        0
176
     1
 62
    18
420
        0
176
     1
 90
       50
176
     1
 90
        3
176
     1
 62
     5
420
      255
176
     1
290
     0
176
     1
 90
       50
176
     1
 90
       50
176
     1
 90
       50
176
     1
290
     0
176
     1
 90
       50
176
     1
 62
   256
176
     0
 40
1.0
176
     0
 90
        2
176
     1
  1
strokes_ogs.tif
176
     1
290
     0
176
     1
 40
1.0
176
     1
 40
1.0
176
     1
1001
ACAD
1000
AcDbSavedByObjectVersion
1070
     0
  0
VISUALSTYLE
  5
34
102
{ACAD_REACTORS
330
29
102
}
330
29
100
AcDbVisualStyle
  2
Dim
 70
    11
177
     3
291
     1
 70
    58
 90
        2
176
     1
 90
        2
176
     1
 90
        0
176
     1
 90
        0
176
     1
 40
0.6
176
     1
 40
30.0
176
     1
 62
     7
420
 16777215
176
     1
 90
        1
176
     1
 90
        4
176
     1
 62
     7
176
     1
 62
   257
176
     1
 90
        1
176
     1
 90
        1
176
     1
 40
1.0
176
     1
 90
        8
176
     1
 62
     7
176
     1
 40
1.0
176
     1
 90
        1
176
     1
 90
        6
176
     1
 90
        2
176
     1
 62
     7
176
     1
 90
        5
176
     1
 90
        0
176
     1
 90
        0
176
     1
290
     0
176
     1
 90
        1
176
     1
 40
-50.0
176
     1
 90
        0
176
     1
290
     0
176
     1
290
     1
176
     1
290
     1
176
     1
290
     0
176
     1
290
     0
176
     1
290
     0
176
     1
290
     0
176
     1
290
     0
176
     1
290
     0
176
     1
 90
       50
176
     1
 40
0.0
176
     1
 40
1.0
176
     1
 90
        0
176
     1
 62
    18
420
        0
176
     1
 90
       50
176
     1
 90
        3
176
     1
 62
     5
420
      255
176
     1
290
     0
176
     1
 90
       50
176
     1
 90
       50
176
     1
 90
       50
176
     1
290
     0
176
     1
 90
       50
176
     1
 62
   256
176
     0
 40
1.0
176
     0
 90
        2
176
     1
  1
strokes_ogs.tif
176
     1
290
     0
176
     1
 40
1.0
176
     1
 40
1.0
176
     1
1001
ACAD
1000
AcDbSavedByObjectVersion
1070
     0
  0
VISUALSTYLE
  5
41
102
{ACAD_REACTORS
330
29
102
}
330
29
100
AcDbVisualStyle
  2
EdgeColorOff
 70
    22
177
     3
291
     1
 70
    58
 90
        2
176
     0
 90
        2
176
     0
 90
        0
176
     0
 90
        0
176
     0
 40
0.6
176
     0
 40
30.0
176
     0
 62
     7
420
 16777215
176
     0
 90
        1
176
     0
 90
        4
176
     0
 62
     7
176
     0
 62
   257
176
     0
 90
        1
176
     0
 90
        1
176
     0
 40
1.0
176
     0
 90
        8
176
     2
 62
     7
176
     0
 40
1.0
176
     0
 90
        1
176
     0
 90
        6
176
     0
 90
        2
176
     0
 62
     7
176
     0
 90
        5
176
     0
 90
        0
176
     0
 90
        0
176
     0
290
     0
176
     0
 90
        1
176
     0
 40
0.0
176
     0
 90
        0
176
     0
290
     0
176
     0
290
     1
176
     0
290
     1
176
     0
290
     0
176
     0
290
     0
176
     0
290
     0
176
     0
290
     0
176
     0
290
     0
176
     0
290
     0
176
     0
 90
       50
176
     0
 40
0.0
176
     0
 40
1.0
176
     0
 90
        0
176
     0
 62
    18
420
        0
176
     0
 90
       50
176
     0
 90
        3
176
     0
 62
     5
420
      255
176
     0
290
     0
176
     0
 90
       50
176
     0
 90
       50
176
     0
 90
       50
176
     0
290
     0
176
     0
 90
       50
176
     0
 62
   256
176
     0
 40
1.0
176
     0
 90
        2
176
     0
  1
strokes_ogs.tif
176
     0
290
     0
176
     0
 40
1.0
176
     0
 40
1.0
176
     0
1001
ACAD
1000
AcDbSavedByObjectVersion
1070
     0
  0
VISUALSTYLE
  5
38
102
{ACAD_REACTORS
330
29
102
}
330
29
100
AcDbVisualStyle
  2
Facepattern
 70
    15
177
     3
291
     1
 70
    58
 90
        2
176
     1
 90
        2
176
     1
 90
        0
176
     1
 90
        0
176
     1
 40
0.6
176
     1
 40
30.0
176
     1
 62
     7
420
 16777215
176
     1
 90
        1
176
     1
 90
        4
176
     1
 62
     7
176
     1
 62
   257
176
     1
 90
        1
176
     1
 90
        1
176
     1
 40
1.0
176
     1
 90
        8
176
     1
 62
     7
176
     1
 40
1.0
176
     1
 90
        1
176
     1
 90
        6
176
     1
 90
        2
176
     1
 62
     7
176
     1
 90
        5
176
     1
 90
        0
176
     1
 90
        0
176
     1
290
     0
176
     1
 90
        1
176
     1
 40
0.0
176
     1
 90
        0
176
     1
290
     0
176
     1
290
     1
176
     1
290
     1
176
     1
290
     0
176
     1
290
     0
176
     1
290
     0
176
     1
290
     0
176
     1
290
     0
176
     1
290
     0
176
     1
 90
       50
176
     1
 40
0.0
176
     1
 40
1.0
176
     1
 90
        0
176
     1
 62
    18
420
        0
176
     1
 90
       50
176
     1
 90
        3
176
     1
 62
     5
420
      255
176
     1
290
     0
176
     1
 90
       50
176
     1
 90
       50
176
     1
 90
       50
176
     1
290
     0
176
     1
 90
       50
176
     1
 62
   256
176
     0
 40
1.0
176
     0
 90
        2
176
     1
  1
strokes_ogs.tif
176
     1
290
     0
176
     1
 40
1.0
176
     1
 40
1.0
176
     1
1001
ACAD
1000
AcDbSavedByObjectVersion
1070
     0
  0
VISUALSTYLE
  5
2A
102
{ACAD_REACTORS
330
29
102
}
330
29
100
AcDbVisualStyle
  2
Flat
 70
     0
177
     3
291
     1
 70
    58
 90
        2
176
     1
 90
        1
176
     1
 90
        1
176
     1
 90
        2
176
     1
 40
0.6
176
     1
 40
30.0
176
     1
 62
     7
420
 16777215
176
     1
 90
        0
176
     1
 90
        0
176
     1
 62
     7
176
     1
 62
   257
176
     1
 90
        1
176
     1
 90
        1
176
     1
 40
1.0
176
     1
 90
        8
176
     1
 62
     7
176
     1
 40
1.0
176
     1
 90
        1
176
     1
 90
        6
176
     1
 90
        2
176
     1
 62
     7
176
     1
 90
        5
176
     1
 90
        0
176
     1
 90
        0
176
     1
290
     0
176
     1
 90
       13
176
     1
 40
0.0
176
     1
 90
        0
176
     1
290
     0
176
     1
290
     1
176
     1
290
     1
176
     1
290
     0
176
     1
290
     0
176
     1
290
     0
176
     1
290
     0
176
     1
290
     0
176
     1
290
     0
176
     1
 90
       50
176
     1
 40
0.0
176
     1
 40
1.0
176
     1
 90
        0
176
     1
 62
    18
420
        0
176
     1
 90
       50
176
     1
 90
        3
176
     1
 62
     5
420
      255
176
     1
290
     0
176
     1
 90
       50
176
     1
 90
       50
176
     1
 90
       50
176
     1
290
     0
176
     1
 90
       50
176
     1
 62
   256
176
     0
 40
1.0
176
     0
 90
        2
176
     1
  1
strokes_ogs.tif
176
     1
290
     0
176
     1
 40
1.0
176
     1
 40
1.0
176
     1
1001
ACAD
1000
AcDbSavedByObjectVersion
1070
     0
  0
VISUALSTYLE
  5
2B
102
{ACAD_REACTORS
330
29
102
}
330
29
100
AcDbVisualStyle
  2
FlatWithEdges
 70
     1
177
     3
291
     1
 70
    58
 90
        2
176
     1
 90
        1
176
     1
 90
        1
176
     1
 90
        2
176
     1
 40
0.6
176
     1
 40
30.0
176
     1
 62
     7
420
 16777215
176
     1
 90
        1
176
     1
 90
        0
176
     1
 62
     7
176
     1
 62
   257
176
     1
 90
        1
176
     1
 90
        1
176
     1
 40
1.0
176
     1
 90
        0
176
     1
 62
   257
176
     1
 40
1.0
176
     1
 90
        1
176
     1
 90
        6
176
     1
 90
        2
176
     1
 62
     7
176
     1
 90
        5
176
     1
 90
        0
176
     1
 90
        0
176
     1
290
     0
176
     1
 90
       13
176
     1
 40
0.0
176
     1
 90
        0
176
     1
290
     0
176
     1
290
     1
176
     1
290
     1
176
     1
290
     0
176
     1
290
     0
176
     1
290
     0
176
     1
290
     0
176
     1
290
     0
176
     1
290
     0
176
     1
 90
       50
176
     1
 40
0.0
176
     1
 40
1.0
176
     1
 90
        0
176
     1
 62
    18
420
        0
176
     1
 90
       50
176
     1
 90
        3
176
     1
 62
     5
420
      255
176
     1
290
     0
176
     1
 90
       50
176
     1
 90
       50
176
     1
 90
       50
176
     1
290
     0
176
     1
 90
       50
176
     1
 62
   256
176
     0
 40
1.0
176
     0
 90
        2
176
     1
  1
strokes_ogs.tif
176
     1
290
     0
176
     1
 40
1.0
176
     1
 40
1.0
176
     1
1001
ACAD
1000
AcDbSavedByObjectVersion
1070
     0
  0
VISUALSTYLE
  5
2C
102
{ACAD_REACTORS
330
29
102
}
330
29
100
AcDbVisualStyle
  2
Gouraud
 70
     2
177
     3
291
     1
 70
    58
 90
        2
176
     1
 90
        2
176
     1
 90
        1
176
     1
 90
        2
176
     1
 40
0.6
176
     1
 40
30.0
176
     1
 62
     7
420
 16777215
176
     1
 90
        0
176
     1
 90
        0
176
     1
 62
     7
176
     1
 62
   257
176
     1
 90
        1
176
     1
 90
        1
176
     1
 40
1.0
176
     1
 90
        0
176
     1
 62
     7
176
     1
 40
1.0
176
     1
 90
        1
176
     1
 90
        6
176
     1
 90
        2
176
     1
 62
     7
176
     1
 90
        5
176
     1
 90
        0
176
     1
 90
        0
176
     1
290
     0
176
     1
 90
       13
176
     1
 40
0.0
176
     1
 90
        0
176
     1
290
     0
176
     1
290
     1
176
     1
290
     1
176
     1
290
     0
176
     1
290
     0
176
     1
290
     0
176
     1
290
     0
176
     1
290
     0
176
     1
290
     0
176
     1
 90
       50
176
     1
 40
0.0
176
     1
 40
1.0
176
     1
 90
        0
176
     1
 62
    18
420
        0
176
     1
 90
       50
176
     1
 90
        3
176
     1
 62
     5
420
      255
176
     1
290
     0
176
     1
 90
       50
176
     1
 90
       50
176
     1
 90
       50
176
     1
290
     0
176
     1
 90
       50
176
     1
 62
   256
176
     0
 40
1.0
176
     0
 90
        2
176
     1
  1
strokes_ogs.tif
176
     1
290
     0
176
     1
 40
1.0
176
     1
 40
1.0
176
     1
1001
ACAD
1000
AcDbSavedByObjectVersion
1070
     0
  0
VISUALSTYLE
  5
2D
102
{ACAD_REACTORS
330
29
102
}
330
29
100
AcDbVisualStyle
  2
GouraudWithEdges
 70
     3
177
     3
291
     1
 70
    58
 90
        2
176
     1
 90
        2
176
     1
 90
        1
176
     1
 90
        2
176
     1
 40
0.6
176
     1
 40
30.0
176
     1
 62
     7
420
 16777215
176
     1
 90
        1
176
     1
 90
        0
176
     1
 62
     7
176
     1
 62
   257
176
     1
 90
        1
176
     1
 90
        1
176
     1
 40
1.0
176
     1
 90
        0
176
     1
 62
   257
176
     1
 40
1.0
176
     1
 90
        1
176
     1
 90
        6
176
     1
 90
        2
176
     1
 62
     7
176
     1
 90
        5
176
     1
 90
        0
176
     1
 90
        0
176
     1
290
     0
176
     1
 90
       13
176
     1
 40
0.0
176
     1
 90
        0
176
     1
290
     0
176
     1
290
     1
176
     1
290
     1
176
     1
290
     0
176
     1
290
     0
176
     1
290
     0
176
     1
290
     0
176
     1
290
     0
176
     1
290
     0
176
     1
 90
       50
176
     1
 40
0.0
176
     1
 40
1.0
176
     1
 90
        0
176
     1
 62
    18
420
        0
176
     1
 90
       50
176
     1
 90
        3
176
     1
 62
     5
420
      255
176
     1
290
     0
176
     1
 90
       50
176
     1
 90
       50
176
     1
 90
       50
176
     1
290
     0
176
     1
 90
       50
176
     1
 62
   256
176
     0
 40
1.0
176
     0
 90
        2
176
     1
  1
strokes_ogs.tif
176
     1
290
     0
176
     1
 40
1.0
176
     1
 40
1.0
176
     1
1001
ACAD
1000
AcDbSavedByObjectVersion
1070
     0
  0
VISUALSTYLE
  5
31
102
{ACAD_REACTORS
330
29
102
}
330
29
100
AcDbVisualStyle
  2
Hidden
 70
     6
177
     3
291
     0
 70
    58
 90
        1
176
     1
 90
        2
176
     1
 90
        2
176
     1
 90
        0
176
     1
 40
0.6
176
     1
 40
30.0
176
     1
 62
     7
420
 16777215
176
     1
 90
        2
176
     1
 90
        2
176
     1
 62
     7
176
     1
 62
   257
176
     1
 90
        2
176
     1
 90
        1
176
     1
 40
40.0
176
     1
 90
        0
176
     1
 62
   257
176
     1
 40
1.0
176
     1
 90
        1
176
     1
 90
        6
176
     1
 90
        2
176
     1
 62
     7
176
     1
 90
        3
176
     1
 90
        0
176
     1
 90
        0
176
     1
290
     0
176
     1
 90
        1
176
     1
 40
0.0
176
     1
 90
        0
176
     1
290
     0
176
     1
290
     1
176
     1
290
     1
176
     1
290
     0
176
     1
290
     0
176
     1
290
     0
176
     1
290
     0
176
     1
290
     0
176
     1
290
     0
176
     1
 90
       50
176
     1
 40
0.0
176
     1
 40
1.0
176
     1
 90
        0
176
     1
 62
    18
420
        0
176
     1
 90
       50
176
     1
 90
        3
176
     1
 62
     5
420
      255
176
     1
290
     0
176
     1
 90
       50
176
     1
 90
       50
176
     1
 90
       50
176
     1
290
     0
176
     1
 90
       50
176
     1
 62
   256
176
     0
 40
1.0
176
     0
 90
        2
176
     1
  1
strokes_ogs.tif
176
     1
290
     0
176
     1
 40
1.0
176
     1
 40
1.0
176
     1
1001
ACAD
1000
AcDbSavedByObjectVersion
1070
     0
  0
VISUALSTYLE
  5
3F
102
{ACAD_REACTORS
330
29
102
}
330
29
100
AcDbVisualStyle
  2
JitterOff
 70
    20
177
     3
291
     1
 70
    58
 90
        2
176
     0
 90
        2
176
     0
 90
        0
176
     0
 90
        0
176
     0
 40
0.6
176
     0
 40
30.0
176
     0
 62
     7
420
 16777215
176
     0
 90
        1
176
     0
 90
        4
176
     0
 62
     7
176
     0
 62
   257
176
     0
 90
        1
176
     0
 90
        1
176
     0
 40
1.0
176
     0
 90
       10
176
     2
 62
     7
176
     0
 40
1.0
176
     0
 90
        1
176
     0
 90
        6
176
     0
 90
        2
176
     0
 62
     7
176
     0
 90
        5
176
     0
 90
        0
176
     0
 90
        0
176
     0
290
     0
176
     0
 90
        1
176
     0
 40
0.0
176
     0
 90
        0
176
     0
290
     0
176
     0
290
     1
176
     0
290
     1
176
     0
290
     0
176
     0
290
     0
176
     0
290
     0
176
     0
290
     0
176
     0
290
     0
176
     0
290
     0
176
     0
 90
       50
176
     0
 40
0.0
176
     0
 40
1.0
176
     0
 90
        0
176
     0
 62
    18
420
        0
176
     0
 90
       50
176
     0
 90
        3
176
     0
 62
     5
420
      255
176
     0
290
     0
176
     0
 90
       50
176
     0
 90
       50
176
     0
 90
       50
176
     0
290
     0
176
     0
 90
       50
176
     0
 62
   256
176
     0
 40
1.0
176
     0
 90
        2
176
     0
  1
strokes_ogs.tif
176
     0
290
     0
176
     0
 40
1.0
176
     0
 40
1.0
176
     0
1001
ACAD
1000
AcDbSavedByObjectVersion
1070
     0
  0
VISUALSTYLE
  5
37
102
{ACAD_REACTORS
330
29
102
}
330
29
100
AcDbVisualStyle
  2
Linepattern
 70
    14
177
     3
291
     1
 70
    58
 90
        2
176
     1
 90
        2
176
     1
 90
        0
176
     1
 90
        0
176
     1
 40
0.6
176
     1
 40
30.0
176
     1
 62
     7
420
 16777215
176
     1
 90
        1
176
     1
 90
        4
176
     1
 62
     7
176
     1
 62
   257
176
     1
 90
        7
176
     1
 90
        7
176
     1
 40
1.0
176
     1
 90
        8
176
     1
 62
     7
176
     1
 40
1.0
176
     1
 90
        1
176
     1
 90
        6
176
     1
 90
        2
176
     1
 62
     7
176
     1
 90
        5
176
     1
 90
        0
176
     1
 90
        0
176
     1
290
     0
176
     1
 90
        1
176
     1
 40
0.0
176
     1
 90
        0
176
     1
290
     0
176
     1
290
     1
176
     1
290
     1
176
     1
290
     0
176
     1
290
     0
176
     1
290
     0
176
     1
290
     0
176
     1
290
     0
176
     1
290
     0
176
     1
 90
       50
176
     1
 40
0.0
176
     1
 40
1.0
176
     1
 90
        0
176
     1
 62
    18
420
        0
176
     1
 90
       50
176
     1
 90
        3
176
     1
 62
     5
420
      255
176
     1
290
     0
176
     1
 90
       50
176
     1
 90
       50
176
     1
 90
       50
176
     1
290
     0
176
     1
 90
       50
176
     1
 62
   256
176
     0
 40
1.0
176
     0
 90
        2
176
     1
  1
strokes_ogs.tif
176
     1
290
     0
176
     1
 40
1.0
176
     1
 40
1.0
176
     1
1001
ACAD
1000
AcDbSavedByObjectVersion
1070
     0
  0
VISUALSTYLE
  5
40
102
{ACAD_REACTORS
330
29
102
}
330
29
100
AcDbVisualStyle
  2
OverhangOff
 70
    21
177
     3
291
     1
 70
    58
 90
        2
176
     0
 90
        2
176
     0
 90
        0
176
     0
 90
        0
176
     0
 40
0.6
176
     0
 40
30.0
176
     0
 62
     7
420
 16777215
176
     0
 90
        1
176
     0
 90
        4
176
     0
 62
     7
176
     0
 62
   257
176
     0
 90
        1
176
     0
 90
        1
176
     0
 40
1.0
176
     0
 90
        9
176
     2
 62
     7
176
     0
 40
1.0
176
     0
 90
        1
176
     0
 90
        6
176
     0
 90
        2
176
     0
 62
     7
176
     0
 90
        5
176
     0
 90
        0
176
     0
 90
        0
176
     0
290
     0
176
     0
 90
        1
176
     0
 40
0.0
176
     0
 90
        0
176
     0
290
     0
176
     0
290
     1
176
     0
290
     1
176
     0
290
     0
176
     0
290
     0
176
     0
290
     0
176
     0
290
     0
176
     0
290
     0
176
     0
290
     0
176
     0
 90
       50
176
     0
 40
0.0
176
     0
 40
1.0
176
     0
 90
        0
176
     0
 62
    18
420
        0
176
     0
 90
       50
176
     0
 90
        3
176
     0
 62
     5
420
      255
176
     0
290
     0
176
     0
 90
       50
176
     0
 90
       50
176
     0
 90
       50
176
     0
290
     0
176
     0
 90
       50
176
     0
 62
   256
176
     0
 40
1.0
176
     0
 90
        2
176
     0
  1
strokes_ogs.tif
176
     0
290
     0
176
     0
 40
1.0
176
     0
 40
1.0
176
     0
1001
ACAD
1000
AcDbSavedByObjectVersion
1070
     0
  0
VISUALSTYLE
  5
33
102
{ACAD_REACTORS
330
29
102
}
330
29
100
AcDbVisualStyle
  2
Realistic
 70
     8
177
     3
291
     0
 70
    58
 90
        2
176
     1
 90
        3
176
     1
 90
        0
176
     1
 90
        2
176
     1
 40
0.6
176
     1
 40
30.0
176
     1
 62
     7
420
 16777215
176
     1
 90
        0
176
     1
 90
        0
176
     1
 62
     7
176
     1
 62
   257
176
     1
 90
        1
176
     1
 90
        1
176
     1
 40
1.0
176
     1
 90
        8
176
     1
 62
   257
176
     1
 40
1.0
176
     1
 90
        1
176
     1
 90
        6
176
     1
 90
        2
176
     1
 62
     7
176
     1
 90
        3
176
     1
 90
        0
176
     1
 90
        0
176
     1
290
     0
176
     1
 90
       13
176
     1
 40
0.0
176
     1
 90
        0
176
     1
290
     0
176
     1
290
     1
176
     1
290
     1
176
     1
290
     0
176
     1
290
     0
176
     1
290
     0
176
     1
290
     0
176
     1
290
     0
176
     1
290
     0
176
     1
 90
       50
176
     1
 40
0.0
176
     1
 40
1.0
176
     1
 90
        0
176
     1
 62
    18
420
        0
176
     1
 90
       50
176
     1
 90
        3
176
     1
 62
     5
420
      255
176
     1
290
     0
176
     1
 90
       50
176
     1
 90
       50
176
     1
 90
       50
176
     1
290
     0
176
     1
 90
       50
176
     1
 62
   256
176
     0
 40
1.0
176
     0
 90
        2
176
     1
  1
strokes_ogs.tif
176
     1
290
     0
176
     1
 40
1.0
176
     1
 40
1.0
176
     1
1001
ACAD
1000
AcDbSavedByObjectVersion
1070
     0
  0
VISUALSTYLE
  5
3E
102
{ACAD_REACTORS
330
29
102
}
330
29
100
AcDbVisualStyle
  2
Shaded
 70
    27
177
     3
291
     0
 70
    58
 90
        2
176
     1
 90
        2
176
     1
 90
        1
176
     1
 90
        2
176
     1
 40
0.6
176
     1
 40
30.0
176
     1
 62
     7
420
 16777215
176
     1
 90
        0
176
     1
 90
        4
176
     1
 62
     7
176
     1
 62
   257
176
     1
 90
        1
176
     1
 90
        1
176
     1
 40
1.0
176
     1
 90
        8
176
     1
 62
   257
176
     1
 40
1.0
176
     1
 90
        1
176
     1
 90
        6
176
     1
 90
        2
176
     1
 62
     8
420
  7895160
176
     1
 90
        3
176
     1
 90
        0
176
     1
 90
        0
176
     1
290
     0
176
     1
 90
        5
176
     1
 40
0.0
176
     1
 90
        0
176
     1
290
     0
176
     1
290
     1
176
     1
290
     1
176
     1
290
     0
176
     1
290
     0
176
     1
290
     0
176
     1
290
     0
176
     1
290
     0
176
     1
290
     0
176
     1
 90
       50
176
     1
 40
0.0
176
     1
 40
1.0
176
     1
 90
        0
176
     1
 62
    18
420
        0
176
     1
 90
       50
176
     1
 90
        3
176
     1
 62
     5
420
      255
176
     1
290
     0
176
     1
 90
       50
176
     1
 90
       50
176
     1
 90
       50
176
     1
290
     0
176
     1
 90
       50
176
     1
 62
   256
176
     0
 40
1.0
176
     0
 90
        2
176
     1
  1
strokes_ogs.tif
176
     1
290
     0
176
     1
 40
1.0
176
     1
 40
1.0
176
     1
1001
ACAD
1000
AcDbSavedByObjectVersion
1070
     0
  0
VISUALSTYLE
  5
3D
102
{ACAD_REACTORS
330
29
102
}
330
29
100
AcDbVisualStyle
  2
Shaded with edges
 70
    26
177
     3
291
     0
 70
    58
 90
        2
176
     1
 90
        2
176
     1
 90
        1
176
     1
 90
        2
176
     1
 40
0.6
176
     1
 40
30.0
176
     1
 62
     7
420
 16777215
176
     1
 90
        1
176
     1
 90
        2
176
     1
 62
     7
176
     1
 62
   257
176
     1
 90
        2
176
     1
 90
        1
176
     1
 40
1.0
176
     1
 90
        8
176
     1
 62
   257
176
     1
 40
1.0
176
     1
 90
        1
176
     1
 90
        6
176
     1
 90
        2
176
     1
 62
     7
176
     1
 90
        3
176
     1
 90
        0
176
     1
 90
        0
176
     1
290
     0
176
     1
 90
        5
176
     1
 40
0.0
176
     1
 90
        0
176
     1
290
     0
176
     1
290
     1
176
     1
290
     1
176
     1
290
     0
176
     1
290
     0
176
     1
290
     0
176
     1
290
     0
176
     1
290
     0
176
     1
290
     0
176
     1
 90
       50
176
     1
 40
0.0
176
     1
 40
1.0
176
     1
 90
        0
176
     1
 62
    18
420
        0
176
     1
 90
       50
176
     1
 90
        3
176
     1
 62
     5
420
      255
176
     1
290
     0
176
     1
 90
       50
176
     1
 90
       50
176
     1
 90
       50
176
     1
290
     0
176
     1
 90
       50
176
     1
 62
   256
176
     0
 40
1.0
176
     0
 90
        2
176
     1
  1
strokes_ogs.tif
176
     1
290
     0
176
     1
 40
1.0
176
     1
 40
1.0
176
     1
1001
ACAD
1000
AcDbSavedByObjectVersion
1070
     0
  0
VISUALSTYLE
  5
3A
102
{ACAD_REACTORS
330
29
102
}
330
29
100
AcDbVisualStyle
  2
Shades of Gray
 70
    23
177
     3
291
     0
 70
    58
 90
        2
176
     1
 90
        2
176
     1
 90
        3
176
     1
 90
        0
176
     1
 40
0.6
176
     1
 40
30.0
176
     1
 62
     7
420
 16777215
176
     1
 90
        2
176
     1
 90
        2
176
     1
 62
     7
176
     1
 62
     7
176
     1
 90
        1
176
     1
 90
        1
176
     1
 40
40.0
176
     1
 90
        8
176
     1
 62
     7
176
     1
 40
1.0
176
     1
 90
        1
176
     1
 90
        6
176
     1
 90
        2
176
     1
 62
     7
176
     1
 90
        3
176
     1
 90
        0
176
     1
 90
        0
176
     1
290
     0
176
     1
 90
        1
176
     1
 40
0.0
176
     1
 90
        0
176
     1
290
     0
176
     1
290
     1
176
     1
290
     1
176
     1
290
     0
176
     1
290
     0
176
     1
290
     0
176
     1
290
     0
176
     1
290
     0
176
     1
290
     0
176
     1
 90
       50
176
     1
 40
0.0
176
     1
 40
1.0
176
     1
 90
        0
176
     1
 62
    18
420
        0
176
     1
 90
       50
176
     1
 90
        3
176
     1
 62
     5
420
      255
176
     1
290
     0
176
     1
 90
       50
176
     1
 90
       50
176
     1
 90
       50
176
     1
290
     0
176
     1
 90
       50
176
     1
 62
   256
176
     0
 40
1.0
176
     0
 90
        2
176
     1
  1
strokes_ogs.tif
176
     1
290
     0
176
     1
 40
1.0
176
     1
 40
1.0
176
     1
1001
ACAD
1000
AcDbSavedByObjectVersion
1070
     0
  0
VISUALSTYLE
  5
3B
102
{ACAD_REACTORS
330
29
102
}
330
29
100
AcDbVisualStyle
  2
Sketchy
 70
    24
177
     3
291
     0
 70
    58
 90
        1
176
     1
 90
        2
176
     1
 90
        2
176
     1
 90
        0
176
     1
 40
0.6
176
     1
 40
30.0
176
     1
 62
     7
420
 16777215
176
     1
 90
        2
176
     1
 90
        2
176
     1
 62
     7
176
     1
 62
     7
176
     1
 90
        1
176
     1
 90
        1
176
     1
 40
40.0
176
     1
 90
       11
176
     1
 62
     7
176
     1
 40
1.0
176
     1
 90
        1
176
     1
 90
        6
176
     1
 90
        2
176
     1
 62
     7
176
     1
 90
        6
176
     1
 90
        0
176
     1
 90
        0
176
     1
290
     0
176
     1
 90
        1
176
     1
 40
0.0
176
     1
 90
        0
176
     1
290
     0
176
     1
290
     1
176
     1
290
     1
176
     1
290
     0
176
     1
290
     0
176
     1
290
     0
176
     1
290
     0
176
     1
290
     0
176
     1
290
     0
176
     1
 90
       50
176
     1
 40
0.0
176
     1
 40
1.0
176
     1
 90
        0
176
     1
 62
    18
420
        0
176
     1
 90
       50
176
     1
 90
        3
176
     1
 62
     5
420
      255
176
     1
290
     0
176
     1
 90
       50
176
     1
 90
       50
176
     1
 90
       50
176
     1
290
     0
176
     1
 90
       50
176
     1
 62
   256
176
     0
 40
1.0
176
     0
 90
        2
176
     1
  1
strokes_ogs.tif
176
     1
290
     0
176
     1
 40
1.0
176
     1
 40
1.0
176
     1
1001
ACAD
1000
AcDbSavedByObjectVersion
1070
     0
  0
VISUALSTYLE
  5
36
102
{ACAD_REACTORS
330
29
102
}
330
29
100
AcDbVisualStyle
  2
Thicken
 70
    13
177
     3
291
     1
 70
    58
 90
        2
176
     1
 90
        2
176
     1
 90
        0
176
     1
 90
        0
176
     1
 40
0.6
176
     1
 40
30.0
176
     1
 62
     7
420
 16777215
176
     1
 90
        1
176
     1
 90
        4
176
     1
 62
     7
176
     1
 62
   257
176
     1
 90
        1
176
     1
 90
        1
176
     1
 40
1.0
176
     1
 90
       12
176
     1
 62
     7
176
     1
 40
1.0
176
     1
 90
        1
176
     1
 90
        6
176
     1
 90
        2
176
     1
 62
     7
176
     1
 90
        5
176
     1
 90
        0
176
     1
 90
        0
176
     1
290
     0
176
     1
 90
        1
176
     1
 40
0.0
176
     1
 90
        0
176
     1
290
     0
176
     1
290
     1
176
     1
290
     1
176
     1
290
     0
176
     1
290
     0
176
     1
290
     0
176
     1
290
     0
176
     1
290
     0
176
     1
290
     0
176
     1
 90
       50
176
     1
 40
0.0
176
     1
 40
1.0
176
     1
 90
        0
176
     1
 62
    18
420
        0
176
     1
 90
       50
176
     1
 90
        3
176
     1
 62
     5
420
      255
176
     1
290
     0
176
     1
 90
       50
176
     1
 90
       50
176
     1
 90
       50
176
     1
290
     0
176
     1
 90
       50
176
     1
 62
   256
176
     0
 40
1.0
176
     0
 90
        2
176
     1
  1
strokes_ogs.tif
176
     1
290
     0
176
     1
 40
1.0
176
     1
 40
1.0
176
     1
1001
ACAD
1000
AcDbSavedByObjectVersion
1070
     0
  0
VISUALSTYLE
  5
30
102
{ACAD_REACTORS
330
29
102
}
330
29
100
AcDbVisualStyle
  2
Wireframe
 70
     5
177
     3
291
     0
 70
    58
 90
        0
176
     1
 90
        2
176
     1
 90
        0
176
     1
 90
        0
176
     1
 40
0.6
176
     1
 40
30.0
176
     1
 62
     7
420
 16777215
176
     1
 90
        1
176
     1
 90
        4
176
     1
 62
     7
176
     1
 62
   257
176
     1
 90
        1
176
     1
 90
        1
176
     1
 40
1.0
176
     1
 90
        0
176
     1
 62
   257
176
     1
 40
1.0
176
     1
 90
        1
176
     1
 90
        6
176
     1
 90
        2
176
     1
 62
     7
176
     1
 90
        3
176
     1
 90
        0
176
     1
 90
        0
176
     1
290
     0
176
     1
 90
        1
176
     1
 40
0.0
176
     1
 90
        0
176
     1
290
     0
176
     1
290
     1
176
     1
290
     1
176
     1
290
     0
176
     1
290
     0
176
     1
290
     0
176
     1
290
     0
176
     1
290
     0
176
     1
290
     0
176
     1
 90
       50
176
     1
 40
0.0
176
     1
 40
1.0
176
     1
 90
        0
176
     1
 62
    18
420
        0
176
     1
 90
       50
176
     1
 90
        3
176
     1
 62
     5
420
      255
176
     1
290
     0
176
     1
 90
       50
176
     1
 90
       50
176
     1
 90
       50
176
     1
290
     0
176
     1
 90
       50
176
     1
 62
   256
176
     0
 40
1.0
176
     0
 90
        2
176
     1
  1
strokes_ogs.tif
176
     1
290
     0
176
     1
 40
1.0
176
     1
 40
1.0
176
     1
1001
ACAD
1000
AcDbSavedByObjectVersion
1070
     0
  0
VISUALSTYLE
  5
3C
102
{ACAD_REACTORS
330
29
102
}
330
29
100
AcDbVisualStyle
  2
X-Ray
 70
    25
177
     3
291
     0
 70
    58
 90
        2
176
     1
 90
        2
176
     1
 90
        1
176
     1
 90
        1
176
     1
 40
0.5
176
     1
 40
30.0
176
     1
 62
     7
420
 16777215
176
     1
 90
        1
176
     1
 90
        0
176
     1
 62
     7
176
     1
 62
   257
176
     1
 90
        1
176
     1
 90
        1
176
     1
 40
1.0
176
     1
 90
        8
176
     1
 62
     7
176
     1
 40
1.0
176
     1
 90
        1
176
     1
 90
        6
176
     1
 90
        2
176
     1
 62
     7
176
     1
 90
        3
176
     1
 90
        0
176
     1
 90
        0
176
     1
290
     0
176
     1
 90
       13
176
     1
 40
0.0
176
     1
 90
        0
176
     1
290
     0
176
     1
290
     1
176
     1
290
     1
176
     1
290
     0
176
     1
290
     0
176
     1
290
     0
176
     1
290
     0
176
     1
290
     0
176
     1
290
     0
176
     1
 90
       50
176
     1
 40
0.0
176
     1
 40
1.0
176
     1
 90
        0
176
     1
 62
    18
420
        0
176
     1
 90
       50
176
     1
 90
        3
176
     1
 62
     5
420
      255
176
     1
290
     0
176
     1
 90
       50
176
     1
 90
       50
176
     1
 90
       50
176
     1
290
     0
176
     1
 90
       50
176
     1
 62
   256
176
     0
 40
1.0
176
     0
 90
        2
176
     1
  1
strokes_ogs.tif
176
     1
290
     0
176
     1
 40
1.0
176
     1
 40
1.0
176
     1
1001
ACAD
1000
AcDbSavedByObjectVersion
1070
     0
  0
DICTIONARYVAR
  5
486
102
{ACAD_REACTORS
330
481
102
}
330
481
100
DictionaryVariables
280
     0
  1
0
  0
DICTIONARYVAR
  5
487
102
{ACAD_REACTORS
330
481
102
}
330
481
100
DictionaryVariables
280
     0
  1
1:1
  0
DICTIONARYVAR
  5
483
102
{ACAD_REACTORS
330
481
102
}
330
481
100
DictionaryVariables
280
     0
  1
STANDARD
  0
DICTIONARYVAR
  5
482
102
{ACAD_REACTORS
330
481
102
}
330
481
100
DictionaryVariables
280
     0
  1
STANDARD
  0
DICTIONARYVAR
  5
484
102
{ACAD_REACTORS
330
481
102
}
330
481
100
DictionaryVariables
280
     0
  1
Imperial24
  0
DICTIONARYVAR
  5
485
102
{ACAD_REACTORS
330
481
102
}
330
481
100
DictionaryVariables
280
     0
  1
Imperial24
  0
DICTIONARY
  5
48D
330
6B
100
AcDbDictionary
280
     1
281
     1
  3
ACAD_XREC_ROUNDTRIP
360
48E
  0
DICTIONARY
  5
1A
330
19
100
AcDbDictionary
280
     1
281
     1
  3
BUMPTILE
360
1C
  3
DIFFUSETILE
360
1B
  3
OPACITYTILE
360
1F
  3
REFLECTIONTILE
360
1E
  3
REFRACTIONTILE
360
20
  3
SPECULARTILE
360
1D
  0
DICTIONARY
  5
12
330
11
100
AcDbDictionary
280
     1
281
     1
  3
BUMPTILE
360
14
  3
DIFFUSETILE
360
13
  3
OPACITYTILE
360
17
  3
REFLECTIONTILE
360
16
  3
REFRACTIONTILE
360
18
  3
SPECULARTILE
360
15
  0
DICTIONARY
  5
22
330
21
100
AcDbDictionary
280
     1
281
     1
  3
BUMPTILE
360
24
  3
DIFFUSETILE
360
23
  3
OPACITYTILE
360
27
  3
REFLECTIONTILE
360
26
  3
REFRACTIONTILE
360
28
  3
SPECULARTILE
360
25
  0
DICTIONARY
  5
48B
330
69
100
AcDbDictionary
280
     1
281
     1
  3
ACAD_XREC_ROUNDTRIP
360
48C
  0
DICTIONARY
  5
488
330
65
100
AcDbDictionary
280
     1
281
     1
  3
ACAD_ROUNDTRIP_2008_TABLESTYLE_CELLSTYLEMAP
360
489
  0
XRECORD
  5
48E
102
{ACAD_REACTORS
330
48D
102
}
330
48D
100
AcDbXrecord
280
     1
102
DISPLAYNAME
  1
Imperial24
102
FLAGS
 90
        0
  0
XRECORD
  5
1C
102
{ACAD_REACTORS
330
1A
102
}
330
1A
100
AcDbXrecord
280
     1
270
     1
271
     1
  0
XRECORD
  5
1B
102
{ACAD_REACTORS
330
1A
102
}
330
1A
100
AcDbXrecord
280
     1
270
     1
271
     1
  0
XRECORD
  5
1F
102
{ACAD_REACTORS
330
1A
102
}
330
1A
100
AcDbXrecord
280
     1
270
     1
271
     1
  0
XRECORD
  5
1E
102
{ACAD_REACTORS
330
1A
102
}
330
1A
100
AcDbXrecord
280
     1
270
     1
271
     1
  0
XRECORD
  5
20
102
{ACAD_REACTORS
330
1A
102
}
330
1A
100
AcDbXrecord
280
     1
270
     1
271
     1
  0
XRECORD
  5
1D
102
{ACAD_REACTORS
330
1A
102
}
330
1A
100
AcDbXrecord
280
     1
270
     1
271
     1
  0
XRECORD
  5
14
102
{ACAD_REACTORS
330
12
102
}
330
12
100
AcDbXrecord
280
     1
270
     1
271
     1
  0
XRECORD
  5
13
102
{ACAD_REACTORS
330
12
102
}
330
12
100
AcDbXrecord
280
     1
270
     1
271
     1
  0
XRECORD
  5
17
102
{ACAD_REACTORS
330
12
102
}
330
12
100
AcDbXrecord
280
     1
270
     1
271
     1
  0
XRECORD
  5
16
102
{ACAD_REACTORS
330
12
102
}
330
12
100
AcDbXrecord
280
     1
270
     1
271
     1
  0
XRECORD
  5
18
102
{ACAD_REACTORS
330
12
102
}
330
12
100
AcDbXrecord
280
     1
270
     1
271
     1
  0
XRECORD
  5
15
102
{ACAD_REACTORS
330
12
102
}
330
12
100
AcDbXrecord
280
     1
270
     1
271
     1
  0
XRECORD
  5
24
102
{ACAD_REACTORS
330
22
102
}
330
22
100
AcDbXrecord
280
     1
270
     1
271
     1
  0
XRECORD
  5
23
102
{ACAD_REACTORS
330
22
102
}
330
22
100
AcDbXrecord
280
     1
270
     1
271
     1
  0
XRECORD
  5
27
102
{ACAD_REACTORS
330
22
102
}
330
22
100
AcDbXrecord
280
     1
270
     1
271
     1
  0
XRECORD
  5
26
102
{ACAD_REACTORS
330
22
102
}
330
22
100
AcDbXrecord
280
     1
270
     1
271
     1
  0
XRECORD
  5
28
102
{ACAD_REACTORS
330
22
102
}
330
22
100
AcDbXrecord
280
     1
270
     1
271
     1
  0
XRECORD
  5
25
102
{ACAD_REACTORS
330
22
102
}
330
22
100
AcDbXrecord
280
     1
270
     1
271
     1
  0
XRECORD
  5
48C
102
{ACAD_REACTORS
330
48B
102
}
330
48B
100
AcDbXrecord
280
     1
102
DISPLAYNAME
  1
Imperial24
102
FLAGS
 90
        0
  0
CELLSTYLEMAP
  5
489
102
{ACAD_REACTORS
330
488
102
}
330
488
100
AcDbCellStyleMap
 90
        3
300
CELLSTYLE
  1
TABLEFORMAT_BEGIN
 90
        5
170
     1
 91
        0
 92
    32768
 62
   257
 93
        1
300
CONTENTFORMAT
  1
CONTENTFORMAT_BEGIN
 90
        0
 91
        0
 92
      512
 93
        0
300

 40
0.0
140
1.0
 94
        5
 62
     0
340
55
144
0.25
309
CONTENTFORMAT_END
171
     0
 94
        0
309
TABLEFORMAT_END
  1
CELLSTYLE_BEGIN
 90
        1
 91
        1
300
_TITLE
309
CELLSTYLE_END
300
CELLSTYLE
  1
TABLEFORMAT_BEGIN
 90
        5
170
     1
 91
        0
 92
        0
 62
   257
 93
        1
300
CONTENTFORMAT
  1
CONTENTFORMAT_BEGIN
 90
        0
 91
        0
 92
      512
 93
        0
300

 40
0.0
140
1.0
 94
        5
 62
     0
340
55
144
0.18
309
CONTENTFORMAT_END
171
     0
 94
        0
309
TABLEFORMAT_END
  1
CELLSTYLE_BEGIN
 90
        2
 91
        1
300
_HEADER
309
CELLSTYLE_END
300
CELLSTYLE
  1
TABLEFORMAT_BEGIN
 90
        5
170
     1
 91
        0
 92
        0
 62
   257
 93
        1
300
CONTENTFORMAT
  1
CONTENTFORMAT_BEGIN
 90
        0
 91
        0
 92
      512
 93
        0
300

 40
0.0
140
1.0
 94
        2
 62
     0
340
55
144
0.18
309
CONTENTFORMAT_END
171
     0
 94
        0
309
TABLEFORMAT_END
  1
CELLSTYLE_BEGIN
 90
        3
 91
        2
300
_DATA
309
CELLSTYLE_END
  0
ENDSEC
  0
EOF
