  0
SECTION
  2
HEADER
  9
$ACADVER
  1
AC1027
  9
$ACADMAINTVER
 70
   125
  9
$DWGCODEPAGE
  3
ANSI_1252
  9
$LASTSAVEDBY
  1
Administrator
  9
$REQUIREDVERSIONS
160
                 0
  9
$INSBASE
 10
0.0
 20
0.0
 30
0.0
  9
$EXTMIN
 10
0.0
 20
0.0
 30
-1.130355
  9
$EXTMAX
 10
17.0
 20
11.0
 30
2.569763
  9
$LIMMIN
 10
0.0
 20
0.0
  9
$LIMMAX
 10
17.0
 20
11.0
  9
$ORTHOMODE
 70
     0
  9
$REGENMODE
 70
     1
  9
$FILLMODE
 70
     1
  9
$QTEXTMODE
 70
     0
  9
$MIRRTEXT
 70
     0
  9
$LTSCALE
 40
0.75
  9
$ATTMODE
 70
     1
  9
$TEXTSIZE
 40
0.12
  9
$TRACEWID
 40
0.05
  9
$TEXTSTYLE
  7
Standard
  9
$CLAYER
  8
Titleblock
  9
$CELTYPE
  6
ByLayer
  9
$CECOLOR
 62
   256
  9
$CELTSCALE
 40
1.0
  9
$DISPSILH
 70
     0
  9
$DIMSCALE
 40
1.0
  9
$DIMASZ
 40
0.12
  9
$DIMEXO
 40
0.07
  9
$DIMDLI
 40
0.36
  9
$DIMRND
 40
0.0
  9
$DIMDLE
 40
0.0
  9
$DIMEXE
 40
0.07
  9
$DIMTP
 40
0.01
  9
$DIMTM
 40
0.01
  9
$DIMTXT
 40
0.12
  9
$DIMCEN
 40
0.0
  9
$DIMTSZ
 40
0.0
  9
$DIMTOL
 70
     0
  9
$DIMLIM
 70
     0
  9
$DIMTIH
 70
     1
  9
$DIMTOH
 70
     1
  9
$DIMSE1
 70
     0
  9
$DIMSE2
 70
     0
  9
$DIMTAD
 70
     0
  9
$DIMZIN
 70
    12
  9
$DIMBLK
  1

  9
$DIMASO
 70
     1
  9
$DIMSHO
 70
     1
  9
$DIMPOST
  1
in
  9
$DIMAPOST
  1
mm
  9
$DIMALT
 70
     0
  9
$DIMALTD
 70
     2
  9
$DIMALTF
 40
25.4
  9
$DIMLFAC
 40
1.0
  9
$DIMTOFL
 70
     0
  9
$DIMTVP
 40
0.0
  9
$DIMTIX
 70
     0
  9
$DIMSOXD
 70
     0
  9
$DIMSAH
 70
     0
  9
$DIMBLK1
  1

  9
$DIMBLK2
  1

  9
$DIMSTYLE
  2
Standard
  9
$DIMCLRD
 70
   256
  9
$DIMCLRE
 70
   256
  9
$DIMCLRT
 70
   256
  9
$DIMTFAC
 40
1.0
  9
$DIMGAP
 40
0.05
  9
$DIMJUST
 70
     0
  9
$DIMSD1
 70
     0
  9
$DIMSD2
 70
     0
  9
$DIMTOLJ
 70
     1
  9
$DIMTZIN
 70
    12
  9
$DIMALTZ
 70
    12
  9
$DIMALTTZ
 70
    12
  9
$DIMUPT
 70
     0
  9
$DIMDEC
 70
     2
  9
$DIMTDEC
 70
     2
  9
$DIMALTU
 70
     2
  9
$DIMALTTD
 70
     2
  9
$DIMTXSTY
  7
Standard
  9
$DIMAUNIT
 70
     0
  9
$DIMADEC
 70
     2
  9
$DIMALTRND
 40
0.0
  9
$DIMAZIN
 70
     3
  9
$DIMDSEP
 70
    46
  9
$DIMATFIT
 70
     3
  9
$DIMFRAC
 70
     0
  9
$DIMLDRBLK
  1

  9
$DIMLUNIT
 70
     2
  9
$DIMLWD
 70
    -2
  9
$DIMLWE
 70
    -2
  9
$DIMTMOVE
 70
     0
  9
$DIMFXL
 40
1.0
  9
$DIMFXLON
 70
     0
  9
$DIMJOGANG
 40
0.785398
  9
$DIMTFILL
 70
     0
  9
$DIMTFILLCLR
 70
     0
  9
$DIMARCSYM
 70
     1
  9
$DIMLTYPE
  6

  9
$DIMLTEX1
  6

  9
$DIMLTEX2
  6

  9
$DIMTXTDIRECTION
 70
     0
  9
$LUNITS
 70
     2
  9
$LUPREC
 70
     4
  9
$SKETCHINC
 40
0.1
  9
$FILLETRAD
 40
0.0
  9
$AUNITS
 70
     0
  9
$AUPREC
 70
     0
  9
$MENU
  1
.
  9
$ELEVATION
 40
0.0
  9
$PELEVATION
 40
0.0
  9
$THICKNESS
 40
0.0
  9
$LIMCHECK
 70
     0
  9
$CHAMFERA
 40
0.0
  9
$CHAMFERB
 40
0.0
  9
$CHAMFERC
 40
0.0
  9
$CHAMFERD
 40
0.0
  9
$SKPOLY
 70
     0
  9
$TDCREATE
 40
2459467.563356481
  9
$TDUCREATE
 40
2459467.855023148
  9
$TDUPDATE
 40
2459467.563356481
  9
$TDUUPDATE
 40
2459467.855023148
  9
$TDINDWG
 40
0.0000000000
  9
$TDUSRTIMER
 40
0.0000000000
  9
$USRTIMER
 70
     1
  9
$ANGBASE
 50
0.0
  9
$ANGDIR
 70
     0
  9
$PDMODE
 70
     0
  9
$PDSIZE
 40
0.0
  9
$PLINEWID
 40
0.0
  9
$SPLFRAME
 70
     0
  9
$SPLINETYPE
 70
     6
  9
$SPLINESEGS
 70
     8
  9
$HANDSEED
  5
4B3
  9
$SURFTAB1
 70
     6
  9
$SURFTAB2
 70
     6
  9
$SURFTYPE
 70
     6
  9
$SURFU
 70
     6
  9
$SURFV
 70
     6
  9
$UCSBASE
  2

  9
$UCSNAME
  2

  9
$UCSORG
 10
0.0
 20
0.0
 30
0.0
  9
$UCSXDIR
 10
1.0
 20
0.0
 30
0.0
  9
$UCSYDIR
 10
0.0
 20
1.0
 30
0.0
  9
$UCSORTHOREF
  2

  9
$UCSORTHOVIEW
 70
     0
  9
$UCSORGTOP
 10
0.0
 20
0.0
 30
0.0
  9
$UCSORGBOTTOM
 10
0.0
 20
0.0
 30
0.0
  9
$UCSORGLEFT
 10
0.0
 20
0.0
 30
0.0
  9
$UCSORGRIGHT
 10
0.0
 20
0.0
 30
0.0
  9
$UCSORGFRONT
 10
0.0
 20
0.0
 30
0.0
  9
$UCSORGBACK
 10
0.0
 20
0.0
 30
0.0
  9
$PUCSBASE
  2

  9
$PUCSNAME
  2

  9
$PUCSORG
 10
0.0
 20
0.0
 30
0.0
  9
$PUCSXDIR
 10
1.0
 20
0.0
 30
0.0
  9
$PUCSYDIR
 10
0.0
 20
1.0
 30
0.0
  9
$PUCSORTHOREF
  2

  9
$PUCSORTHOVIEW
 70
     0
  9
$PUCSORGTOP
 10
0.0
 20
0.0
 30
0.0
  9
$PUCSORGBOTTOM
 10
0.0
 20
0.0
 30
0.0
  9
$PUCSORGLEFT
 10
0.0
 20
0.0
 30
0.0
  9
$PUCSORGRIGHT
 10
0.0
 20
0.0
 30
0.0
  9
$PUCSORGFRONT
 10
0.0
 20
0.0
 30
0.0
  9
$PUCSORGBACK
 10
0.0
 20
0.0
 30
0.0
  9
$USERI1
 70
     0
  9
$USERI2
 70
     0
  9
$USERI3
 70
     0
  9
$USERI4
 70
     0
  9
$USERI5
 70
     0
  9
$USERR1
 40
0.0
  9
$USERR2
 40
0.0
  9
$USERR3
 40
0.0
  9
$USERR4
 40
0.0
  9
$USERR5
 40
0.0
  9
$WORLDVIEW
 70
     1
  9
$SHADEDGE
 70
     3
  9
$SHADEDIF
 70
    70
  9
$TILEMODE
 70
     1
  9
$MAXACTVP
 70
    64
  9
$PINSBASE
 10
0.0
 20
0.0
 30
0.0
  9
$PLIMCHECK
 70
     0
  9
$PEXTMIN
 10
1.000000E+20
 20
1.000000E+20
 30
1.000000E+20
  9
$PEXTMAX
 10
-1.000000E+20
 20
-1.000000E+20
 30
-1.000000E+20
  9
$PLIMMIN
 10
0.0
 20
0.0
  9
$PLIMMAX
 10
12.0
 20
9.0
  9
$UNITMODE
 70
     0
  9
$VISRETAIN
 70
     1
  9
$PLINEGEN
 70
     0
  9
$PSLTSCALE
 70
     1
  9
$TREEDEPTH
 70
  3020
  9
$CMLSTYLE
  2
Standard
  9
$CMLJUST
 70
     0
  9
$CMLSCALE
 40
1.0
  9
$PROXYGRAPHICS
 70
     1
  9
$MEASUREMENT
 70
     0
  9
$CELWEIGHT
370
    -1
  9
$ENDCAPS
280
     0
  9
$JOINSTYLE
280
     0
  9
$LWDISPLAY
290
     0
  9
$INSUNITS
 70
     1
  9
$HYPERLINKBASE
  1

  9
$STYLESHEET
  1

  9
$XEDIT
290
     1
  9
$CEPSNTYPE
380
     0
  9
$PSTYLEMODE
290
     1
  9
$FINGERPRINTGUID
  2
{4B641943-438D-0743-906B-F080188E0C2A}
  9
$VERSIONGUID
  2
{1148C9B3-3D0A-7644-BB10-C5CBAD5EA4BB}
  9
$EXTNAMES
290
     1
  9
$PSVPSCALE
 40
0.0
  9
$OLESTARTUP
290
     0
  9
$SORTENTS
280
   127
  9
$INDEXCTL
280
     0
  9
$HIDETEXT
280
     1
  9
$XCLIPFRAME
280
     0
  9
$HALOGAP
280
     0
  9
$OBSCOLOR
 70
   257
  9
$OBSLTYPE
280
     0
  9
$INTERSECTIONDISPLAY
280
     0
  9
$INTERSECTIONCOLOR
 70
   257
  9
$DIMASSOC
280
     2
  9
$PROJECTNAME
  1

  9
$CAMERADISPLAY
290
     0
  9
$LENSLENGTH
 40
50.0
  9
$CAMERAHEIGHT
 40
0.0
  9
$STEPSPERSEC
 40
2.0
  9
$STEPSIZE
 40
6.0
  9
$3DDWFPREC
 40
2.0
  9
$PSOLWIDTH
 40
0.25
  9
$PSOLHEIGHT
 40
4.0
  9
$LOFTANG1
 40
1.570796
  9
$LOFTANG2
 40
1.570796
  9
$LOFTMAG1
 40
0.0
  9
$LOFTMAG2
 40
0.0
  9
$LOFTPARAM
 70
     7
  9
$LOFTNORMALS
280
     1
  9
$LATITUDE
 40
37.795
  9
$LONGITUDE
 40
-122.394
  9
$NORTHDIRECTION
 40
0.0
  9
$TIMEZONE
 70
 -8000
  9
$LIGHTGLYPHDISPLAY
280
     1
  9
$TILEMODELIGHTSYNCH
280
     1
  9
$CMATERIAL
347
11
  9
$SOLIDHIST
280
     0
  9
$SHOWHIST
280
     1
  9
$DWFFRAME
280
     2
  9
$DGNFRAME
280
     0
  9
$REALWORLDSCALE
290
     1
  9
$INTERFERECOLOR
 62
     1
  9
$INTERFEREOBJVS
345
33
  9
$INTERFEREVPVS
346
30
  9
$CSHADOW
280
     0
  9
$SHADOWPLANELOCATION
 40
0.0
  0
ENDSEC
  0
SECTION
  2
CLASSES
  0
CLASS
  1
ACDBDICTIONARYWDFLT
  2
AcDbDictionaryWithDefault
  3
ObjectDBX Classes
 90
        0
 91
        1
280
     0
281
     0
  0
CLASS
  1
MATERIAL
  2
AcDbMaterial
  3
ObjectDBX Classes
 90
     1153
 91
        3
280
     0
281
     0
  0
CLASS
  1
VISUALSTYLE
  2
AcDbVisualStyle
  3
ObjectDBX Classes
 90
     4095
 91
       24
280
     0
281
     0
  0
CLASS
  1
SCALE
  2
AcDbScale
  3
ObjectDBX Classes
 90
     1153
 91
       33
280
     0
281
     0
  0
CLASS
  1
TABLESTYLE
  2
AcDbTableStyle
  3
ObjectDBX Classes
 90
     4095
 91
        1
280
     0
281
     0
  0
CLASS
  1
MLEADERSTYLE
  2
AcDbMLeaderStyle
  3
ACDB_MLEADERSTYLE_CLASS
 90
     4095
 91
        1
280
     0
281
     0
  0
CLASS
  1
ACDBSECTIONVIEWSTYLE
  2
AcDbSectionViewStyle
  3
ObjectDBX Classes
 90
     1025
 91
        1
280
     0
281
     0
  0
CLASS
  1
ACDBDETAILVIEWSTYLE
  2
AcDbDetailViewStyle
  3
ObjectDBX Classes
 90
     1025
 91
        1
280
     0
281
     0
  0
CLASS
  1
ACMESCOPE
  2
AcMeScope
  3
AcMeServices
 90
     1024
 91
        1
280
     0
281
     0
  0
CLASS
  1
ACMECOMMANDHISTORY
  2
AcMeCommandHistory
  3
AcMeServices
 90
     1024
 91
        1
280
     0
281
     0
  0
CLASS
  1
ACIMSYSVARMAN
  2
AcImSysVarManager
  3
AcMeServices
 90
     1024
 91
        1
280
     0
281
     0
  0
CLASS
  1
ACIMINTSYSVAR
  2
AcImIntSysVar
  3
AcMeServices
 90
     1024
 91
        1
280
     0
281
     0
  0
CLASS
  1
ACMESTATEMGR
  2
AcMeStateMgr
  3
AcMeServices
 90
     1024
 91
        1
280
     0
281
     0
  0
CLASS
  1
ACGREFMASTER
  2
AcGrefMaster
  3
AcAttribServices
 90
     1024
 91
        1
280
     0
281
     0
  0
CLASS
  1
SORTENTSTABLE
  2
AcDbSortentsTable
  3
ObjectDBX Classes
 90
        0
 91
        6
280
     0
281
     0
  0
CLASS
  1
IMAGE
  2
AcDbRasterImage
  3
ISM
 90
     2175
 91
        1
280
     0
281
     1
  0
CLASS
  1
IMAGEDEF
  2
AcDbRasterImageDef
  3
ISM
 90
        0
 91
        1
280
     0
281
     0
  0
CLASS
  1
IMAGEDEF_REACTOR
  2
AcDbRasterImageDefReactor
  3
ISM
 90
        1
 91
        2
280
     0
281
     0
  0
CLASS
  1
RASTERVARIABLES
  2
AcDbRasterVariables
  3
ISM
 90
        0
 91
        1
280
     0
281
     0
  0
CLASS
  1
DICTIONARYVAR
  2
AcDbDictionaryVar
  3
ObjectDBX Classes
 90
        0
 91
        6
280
     0
281
     0
  0
CLASS
  1
CELLSTYLEMAP
  2
AcDbCellStyleMap
  3
ObjectDBX Classes
 90
     1152
 91
        1
280
     0
281
     0
  0
ENDSEC
  0
SECTION
  2
TABLES
  0
TABLE
  2
VPORT
  5
8
330
0
100
AcDbSymbolTable
 70
     1
1001
ACAD
1000
DbSaveVer
1071
      246
  0
VPORT
  5
57
330
8
100
AcDbSymbolTableRecord
100
AcDbViewportTableRecord
  2
*Active
 70
     0
 10
0.0
 20
0.0
 11
1.0
 21
1.0
 12
8.5
 22
5.5
 13
0.0
 23
0.0
 14
0.5
 24
0.5
 15
0.0
 25
0.0
 16
0.0
 26
0.0
 36
1.0
 17
0.0
 27
0.0
 37
0.0
 40
11.0
 41
1.7981
 42
50.0
 43
0.0
 44
0.0
 50
0.0
 51
0.0
 71
     0
 72
 20000
 73
     1
 74
     0
 75
     0
 76
     0
 77
     0
 78
     0
281
     0
 65
     1
110
0.0
120
0.0
130
0.0
111
1.0
121
0.0
131
0.0
112
0.0
122
1.0
132
0.0
 79
     0
146
0.0
348
2F
 60
     3
 61
     5
292
     1
282
     1
141
0.0
142
0.0
 63
   250
421
  3355443
  0
ENDTAB
  0
TABLE
  2
LTYPE
  5
5
330
0
100
AcDbSymbolTable
 70
    10
  0
LTYPE
  5
5B
330
5
100
AcDbSymbolTableRecord
100
AcDbLinetypeTableRecord
  2
ByBlock
 70
     0
  3

 72
    65
 73
     0
 40
0.0
  0
LTYPE
  5
5C
330
5
100
AcDbSymbolTableRecord
100
AcDbLinetypeTableRecord
  2
ByLayer
 70
     0
  3

 72
    65
 73
     0
 40
0.0
  0
LTYPE
  5
5D
330
5
100
AcDbSymbolTableRecord
100
AcDbLinetypeTableRecord
  2
Continuous
 70
     0
  3
Solid line
 72
    65
 73
     0
 40
0.0
  0
LTYPE
  5
81
330
5
100
AcDbSymbolTableRecord
100
AcDbLinetypeTableRecord
  2
HIDDEN
 70
     0
  3
Hidden __ __ __ __ __ __ __ __ __ __ __ __ __ _
 72
    65
 73
     2
 40
0.375
 49
0.25
 74
     0
 49
-0.125
 74
     0
  0
LTYPE
  5
82
330
5
100
AcDbSymbolTableRecord
100
AcDbLinetypeTableRecord
  2
PHANTOM2
 70
     0
  3
Phantom (.5x) ___ _ _ ___ _ _ ___ _ _ ___ _ _
 72
    65
 73
     6
 40
1.25
 49
0.625
 74
     0
 49
-0.125
 74
     0
 49
0.125
 74
     0
 49
-0.125
 74
     0
 49
0.125
 74
     0
 49
-0.125
 74
     0
  0
LTYPE
  5
83
330
5
100
AcDbSymbolTableRecord
100
AcDbLinetypeTableRecord
  2
CENTER
 70
     0
  3
Center ____ _ ____ _ ____ _ ____ _ ____ _ ____
 72
    65
 73
     4
 40
2.0
 49
1.25
 74
     0
 49
-0.25
 74
     0
 49
0.25
 74
     0
 49
-0.25
 74
     0
  0
LTYPE
  5
9C
330
5
100
AcDbSymbolTableRecord
100
AcDbLinetypeTableRecord
  2
CENTER2
 70
     0
  3
Center (.5x) ___ _ ___ _ ___ _ ___ _ ___ _ ___
 72
    65
 73
     4
 40
1.125
 49
0.75
 74
     0
 49
-0.125
 74
     0
 49
0.125
 74
     0
 49
-0.125
 74
     0
  0
LTYPE
  5
9D
330
5
100
AcDbSymbolTableRecord
100
AcDbLinetypeTableRecord
  2
HIDDEN2
 70
     0
  3
Hidden (.5x) _ _ _ _ _ _ _ _ _ _ _ _ _ _ _ _ _
 72
    65
 73
     2
 40
0.1875
 49
0.125
 74
     0
 49
-0.0625
 74
     0
  0
LTYPE
  5
9E
330
5
100
AcDbSymbolTableRecord
100
AcDbLinetypeTableRecord
  2
Amconstr
 70
     0
  3
_______________________
 72
    65
 73
     2
 40
9999.0
 49
9999.0
 74
     0
 49
0.0
 74
     0
  0
LTYPE
  5
9F
330
5
100
AcDbSymbolTableRecord
100
AcDbLinetypeTableRecord
  2
Amzigzag2
 70
     0
  3
/\/-/\/-/\/-/\/-/\/-/\/
 72
    65
 73
     2
 40
0.4401
 49
0.0001
 74
     4
 75
   136
340
99
 46
0.0016
 50
0.0
 44
0.0
 45
0.0
 49
-0.44
 74
     0
  0
LTYPE
  5
A0
330
5
100
AcDbSymbolTableRecord
100
AcDbLinetypeTableRecord
  2
ACANSTGB
 70
     0
  3
__ . . __ . .
 72
    65
 73
     6
 40
0.354331
 49
0.15748
 74
     0
 49
-0.03937
 74
     0
 49
0.03937
 74
     0
 49
-0.03937
 74
     0
 49
0.03937
 74
     0
 49
-0.03937
 74
     0
  0
LTYPE
  5
A1
330
5
100
AcDbSymbolTableRecord
100
AcDbLinetypeTableRecord
  2
ACANSTGL
 70
     0
  3
_ _ _ _ _
 72
    65
 73
     2
 40
0.11811
 49
0.07874
 74
     0
 49
-0.03937
 74
     0
  0
ENDTAB
  0
TABLE
  2
LAYER
  5
2
330
0
100
AcDbSymbolTable
 70
    11
  0
LAYER
  5
54
330
2
100
AcDbSymbolTableRecord
100
AcDbLayerTableRecord
  2
0
 70
     0
 62
     7
  6
Continuous
370
    -3
390
F
347
21
348
0
1001
AcAecLayerStandard
1000

1000

  0
LAYER
  5
79
330
2
100
AcDbSymbolTableRecord
100
AcDbLayerTableRecord
  2
Defpoints
 70
     0
 62
     7
  6
Continuous
290
     0
370
    -3
390
F
347
21
348
0
1001
AcAecLayerStandard
1000

1000

  0
LAYER
  5
BB
330
2
100
AcDbSymbolTableRecord
100
AcDbLayerTableRecord
  2
Visible
 70
     0
 62
     7
  6
Continuous
370
    25
390
F
347
21
348
0
  0
LAYER
  5
16C
330
2
100
AcDbSymbolTableRecord
100
AcDbLayerTableRecord
  2
Hidden
 70
     0
 62
     7
  6
HIDDEN2
370
    13
390
F
347
21
348
0
  0
LAYER
  5
1AF
330
2
100
AcDbSymbolTableRecord
100
AcDbLayerTableRecord
  2
Titleblock
 70
     0
 62
     7
  6
Continuous
370
    -3
390
F
347
21
348
0
1001
AcAecLayerStandard
1000

1000

1001
AcCmTransparency
1071
        0
  0
LAYER
  5
1D4
330
2
100
AcDbSymbolTableRecord
100
AcDbLayerTableRecord
  2
Border
 70
     0
 62
     7
  6
Continuous
370
    -3
390
F
347
21
348
0
1001
AcAecLayerStandard
1000

1000

1001
AcCmTransparency
1071
        0
  0
LAYER
  5
1F5
330
2
100
AcDbSymbolTableRecord
100
AcDbLayerTableRecord
  2
Dimensions
 70
     0
 62
     7
  6
Continuous
370
    13
390
F
347
21
348
0
  0
LAYER
  5
226
330
2
100
AcDbSymbolTableRecord
100
AcDbLayerTableRecord
  2
Annotations
 70
     0
 62
     7
  6
Continuous
370
    13
390
F
347
21
348
0
  0
ENDTAB
  0
TABLE
  2
STYLE
  5
3
330
0
100
AcDbSymbolTable
 70
     4
  0
STYLE
  5
55
330
3
100
AcDbSymbolTableRecord
100
AcDbTextStyleTableRecord
  2
Standard
 70
     0
 40
0.0
 41
1.0
 50
0.0
 71
     0
 42
0.12
  3
arial.ttf
  4

1001
ACAD
1000
Arial
1071
       34
  0
STYLE
  5
5A
330
3
100
AcDbSymbolTableRecord
100
AcDbTextStyleTableRecord
  2
Annotative
 70
     0
 40
0.0
 41
1.0
 50
0.0
 71
     0
 42
0.2
  3
txt
  4

1001
AcadAnnotative
1000
AnnotativeData
1002
{
1070
     1
1070
     1
1002
}
  0
STYLE
  5
99
330
3
100
AcDbSymbolTableRecord
100
AcDbTextStyleTableRecord
  2

 70
     1
 40
0.0
 41
1.0
 50
0.0
 71
     0
 42
0.12
  3
genltshp.shx
  4

  0
STYLE
  5
9A
330
3
100
AcDbSymbolTableRecord
100
AcDbTextStyleTableRecord
  2
ACANSGDT
 70
     0
 40
0.0
 41
1.0
 50
0.0
 71
     0
 42
0.12
  3
amgdt.shx
  4

  0
ENDTAB
  0
TABLE
  2
VIEW
  5
6
330
0
100
AcDbSymbolTable
 70
     0
  0
ENDTAB
  0
TABLE
  2
UCS
  5
7
330
0
100
AcDbSymbolTable
 70
     0
  0
ENDTAB
  0
TABLE
  2
APPID
  5
9
330
0
100
AcDbSymbolTable
 70
    26
  0
APPID
  5
56
330
9
100
AcDbSymbolTableRecord
100
AcDbRegAppTableRecord
  2
ACAD
 70
     0
  0
APPID
  5
5E
330
9
100
AcDbSymbolTableRecord
100
AcDbRegAppTableRecord
  2
AcadAnnotative
 70
     0
  0
APPID
  5
78
330
9
100
AcDbSymbolTableRecord
100
AcDbRegAppTableRecord
  2
ACAD_PSEXT
 70
     0
  0
APPID
  5
7A
330
9
100
AcDbSymbolTableRecord
100
AcDbRegAppTableRecord
  2
MCAD_NO_VIS
 70
     0
  0
APPID
  5
7B
330
9
100
AcDbSymbolTableRecord
100
AcDbRegAppTableRecord
  2
ACAD_TEMP_GRAPHIC
 70
     0
  0
APPID
  5
84
330
9
100
AcDbSymbolTableRecord
100
AcDbRegAppTableRecord
  2
ACAD_DSTYLE_DIMJAG
 70
     0
  0
APPID
  5
85
330
9
100
AcDbSymbolTableRecord
100
AcDbRegAppTableRecord
  2
ACAD_DSTYLE_DIMTALN
 70
     0
  0
APPID
  5
86
330
9
100
AcDbSymbolTableRecord
100
AcDbRegAppTableRecord
  2
ACAD_NAV_VCDISPLAY
 70
     0
  0
APPID
  5
87
330
9
100
AcDbSymbolTableRecord
100
AcDbRegAppTableRecord
  2
AcAecLayerStandard
 70
     0
  0
APPID
  5
88
330
9
100
AcDbSymbolTableRecord
100
AcDbRegAppTableRecord
  2
AcCmTransparency
 70
     0
  0
APPID
  5
89
330
9
100
AcDbSymbolTableRecord
100
AcDbRegAppTableRecord
  2
ACAD_DSTYLE_DIMBREAK
 70
     0
  0
APPID
  5
8A
330
9
100
AcDbSymbolTableRecord
100
AcDbRegAppTableRecord
  2
ACAD_DSTYLE_DIMRADIAL_EXTENSION
 70
     0
  0
APPID
  5
8B
330
9
100
AcDbSymbolTableRecord
100
AcDbRegAppTableRecord
  2
FUSIONTITLEBLOCK
 70
     0
  0
APPID
  5
8C
330
9
100
AcDbSymbolTableRecord
100
AcDbRegAppTableRecord
  2
FUSIONCURRENTTITLEBLOCK
 70
     0
  0
APPID
  5
8D
330
9
100
AcDbSymbolTableRecord
100
AcDbRegAppTableRecord
  2
AcSynergy
 70
     0
  0
APPID
  5
8E
330
9
100
AcDbSymbolTableRecord
100
AcDbRegAppTableRecord
  2
ACAD_VIEW_EDGE_ID
 70
     0
  0
APPID
  5
8F
330
9
100
AcDbSymbolTableRecord
100
AcDbRegAppTableRecord
  2
GENIUS_GENSCREG_15
 70
     0
  0
APPID
  5
90
330
9
100
AcDbSymbolTableRecord
100
AcDbRegAppTableRecord
  2
GENIUS_GENOBJ-N-SDF_13
 70
     0
  0
APPID
  5
91
330
9
100
AcDbSymbolTableRecord
100
AcDbRegAppTableRecord
  2
GENIUS_GENODEF_13
 70
     0
  0
APPID
  5
92
330
9
100
AcDbSymbolTableRecord
100
AcDbRegAppTableRecord
  2
ACAD_DIMASSOC_CALC_DIMLFAC
 70
     0
  0
APPID
  5
93
330
9
100
AcDbSymbolTableRecord
100
AcDbRegAppTableRecord
  2
ACAD_DIMASSOC_DIMLFAC
 70
     0
  0
APPID
  5
94
330
9
100
AcDbSymbolTableRecord
100
AcDbRegAppTableRecord
  2
ACAD_DIMASSOC_OVERRIDDEN_DIMLFAC
 70
     0
  0
APPID
  5
95
330
9
100
AcDbSymbolTableRecord
100
AcDbRegAppTableRecord
  2
FD_ATT_APPNAME
 70
     0
  0
APPID
  5
96
330
9
100
AcDbSymbolTableRecord
100
AcDbRegAppTableRecord
  2
ACAD_TC
 70
     0
  0
APPID
  5
97
330
9
100
AcDbSymbolTableRecord
100
AcDbRegAppTableRecord
  2
ACAD_DSTYLE_DIMJAG_POSITION
 70
     0
  0
APPID
  5
98
330
9
100
AcDbSymbolTableRecord
100
AcDbRegAppTableRecord
  2
ACATTRIBSERVICES
 70
     0
  0
ENDTAB
  0
TABLE
  2
DIMSTYLE
  5
A
330
0
100
AcDbSymbolTable
 70
     2
100
AcDbDimStyleTable
 71
     1
340
58
  0
DIMSTYLE
105
58
102
{ACAD_REACTORS
330
1F4
330
1FF
330
209
330
217
330
227
330
235
330
243
102
}
330
A
100
AcDbSymbolTableRecord
100
AcDbDimStyleTableRecord
  2
Standard
 70
     0
  3
in
  4
mm
 41
0.12
 42
0.07
 43
0.36
 44
0.07
 47
0.01
 48
0.01
 78
    12
 79
     3
 90
        1
140
0.12
141
0.0
147
0.05
176
   256
177
   256
178
   256
179
     2
271
     2
272
     2
284
    12
285
    12
286
    12
340
55
  0
DIMSTYLE
105
59
330
A
100
AcDbSymbolTableRecord
100
AcDbDimStyleTableRecord
  2
Annotative
 70
     0
  3
in
  4
mm
 40
0.0
 41
0.12
 42
0.07
 43
0.36
 44
0.07
 78
    12
 79
     3
140
0.12
147
0.05
179
     2
271
     2
272
     2
284
    12
285
    12
286
    12
340
55
1001
AcadAnnotative
1000
AnnotativeData
1002
{
1070
     1
1070
     1
1002
}
  0
ENDTAB
  0
TABLE
  2
BLOCK_RECORD
  5
1
330
0
100
AcDbSymbolTable
 70
    20
  0
BLOCK_RECORD
  5
70
102
{ACAD_XDICTIONARY
360
B4
102
}
330
1
100
AcDbSymbolTableRecord
100
AcDbBlockTableRecord
  2
*Model_Space
340
73
 70
     0
280
     1
281
     0
  0
BLOCK_RECORD
  5
6C
330
1
100
AcDbSymbolTableRecord
100
AcDbBlockTableRecord
  2
*Paper_Space
340
6F
 70
     0
280
     1
281
     0
  0
BLOCK_RECORD
  5
74
330
1
100
AcDbSymbolTableRecord
100
AcDbBlockTableRecord
  2
*Paper_Space0
340
77
 70
     0
280
     1
281
     0
  0
BLOCK_RECORD
  5
1B0
102
{ACAD_XDICTIONARY
360
1B1
102
}
330
1
100
AcDbSymbolTableRecord
100
AcDbBlockTableRecord
  2
Shower
340
0
102
{BLKREFS
331
1AE
102
}
 70
     1
280
     1
281
     0
1001
FUSIONTITLEBLOCK
1000
TitleBlock
  0
BLOCK_RECORD
  5
1D5
330
1
100
AcDbSymbolTableRecord
100
AcDbBlockTableRecord
  2
ANSI_B_SHEET
340
0
310
2800000020000000200000000100080000000000000400000000000000000000000000000000000000000000000080000080000000808000800000008000800080800000C0C0C000C0DCC000F0CAA6000020400000206000002080000020A0000020C0000020E00000400000004020000040400000406000004080000040A0
310
000040C0000040E00000600000006020000060400000606000006080000060A0000060C0000060E00000800000008020000080400000806000008080000080A0000080C0000080E00000A0000000A0200000A0400000A0600000A0800000A0A00000A0C00000A0E00000C0000000C0200000C0400000C0600000C0800000C0
310
A00000C0C00000C0E00000E0000000E0200000E0400000E0600000E0800000E0A00000E0C00000E0E00040000000400020004000400040006000400080004000A0004000C0004000E00040200000402020004020400040206000402080004020A0004020C0004020E000404000004040200040404000404060004040800040
310
40A0004040C0004040E00040600000406020004060400040606000406080004060A0004060C0004060E00040800000408020004080400040806000408080004080A0004080C0004080E00040A0000040A0200040A0400040A0600040A0800040A0A00040A0C00040A0E00040C0000040C0200040C0400040C0600040C08000
310
40C0A00040C0C00040C0E00040E0000040E0200040E0400040E0600040E0800040E0A00040E0C00040E0E00080000000800020008000400080006000800080008000A0008000C0008000E00080200000802020008020400080206000802080008020A0008020C0008020E00080400000804020008040400080406000804080
310
008040A0008040C0008040E00080600000806020008060400080606000806080008060A0008060C0008060E00080800000808020008080400080806000808080008080A0008080C0008080E00080A0000080A0200080A0400080A0600080A0800080A0A00080A0C00080A0E00080C0000080C0200080C0400080C0600080C0
310
800080C0A00080C0C00080C0E00080E0000080E0200080E0400080E0600080E0800080E0A00080E0C00080E0E000C0000000C0002000C0004000C0006000C0008000C000A000C000C000C000E000C0200000C0202000C0204000C0206000C0208000C020A000C020C000C020E000C0400000C0402000C0404000C0406000C0
310
408000C040A000C040C000C040E000C0600000C0602000C0604000C0606000C0608000C060A000C060C000C060E000C0800000C0802000C0804000C0806000C0808000C080A000C080C000C080E000C0A00000C0A02000C0A04000C0A06000C0A08000C0A0A000C0A0C000C0A0E000C0C00000C0C02000C0C04000C0C06000
310
C0C08000C0C0A000F0FBFF00A4A0A000808080000000FF0000FF000000FFFF00FF000000FF00FF00FFFF0000FFFFFF0049494949494949494949494949494949494949494949494949494949494949494949494949494949494949494949494949494949494949494949494949494949494949494949494949494949494949
310
494949494949494949494949494949494949494949494949494949494949494949494949494949494949494949494949494949494949494949494949494949494949494949494949494949494949494949494949494949494949494949494949494949494949494949494949494949494949FFFF4949494949494949494949
310
494949494949494949494949494949FFFF4949FFFFFFFFFFFFFFFFFFFFFFFFFFFFFFFFFFFFFFFFFFFFFFFFFFFFFFFFFFFF494949FF4949494949494949494949494949494949494949494949494949FF49494949FF4949494949494949494949494949494949494949494949494949FF49494949FF49494949494949494949
310
49494949494949494949494949494949FF49494949FF4949494949494949494949494949494949494949494949494949FF49494949FF4949494949494949494949494949494949494949494949494949FF49494949FF4949494949494949494949494949494949494949494949494949FF49494949FF494949494949494949
310
4949494949494949494949494949494949FF49494949FF4949494949494949494949494949494949494949494949494949FF49494949FF4949494949494949494949494949494949494949494949494949FF49494949FF4949494949494949494949494949494949494949494949494949FF49494949FF4949494949494949
310
494949494949494949494949494949494949FF49494949FF4949494949494949494949494949494949494949494949494949FF49494949FF4949494949494949494949494949494949494949494949494949FF49494949FF4949494949494949494949494949494949494949494949494949FF49494949FF49494949494949
310
49494949494949494949494949494949494949FF49494949FF4949494949494949494949494949494949494949494949494949FF494949FFFFFFFFFFFFFFFFFFFFFFFFFFFFFFFFFFFFFFFFFFFFFFFFFFFFFFFFFFFF4949FFFF4949494949494949494949494949494949494949494949494949FFFF49494949494949494949
310
49494949494949494949494949494949494949494949494949494949494949494949494949494949494949494949494949494949494949494949494949494949494949494949494949494949494949494949494949494949494949494949494949494949494949494949494949494949494949494949494949494949494949
310
4949494949494949494949494949494949494949494949494949494949494949494949494949494949494949494949494949494949494949
102
{BLKREFS
331
1D3
102
}
 70
     1
280
     1
281
     0
  0
BLOCK_RECORD
  5
1F6
330
1
100
AcDbSymbolTableRecord
100
AcDbBlockTableRecord
  2
*D6
340
0
 70
     0
280
     1
281
     0
  0
BLOCK_RECORD
  5
200
330
1
100
AcDbSymbolTableRecord
100
AcDbBlockTableRecord
  2
*D7
340
0
 70
     0
280
     1
281
     0
  0
BLOCK_RECORD
  5
20A
330
1
100
AcDbSymbolTableRecord
100
AcDbBlockTableRecord
  2
*D8
340
0
 70
     0
280
     1
281
     0
  0
BLOCK_RECORD
  5
218
330
1
100
AcDbSymbolTableRecord
100
AcDbBlockTableRecord
  2
*D9
340
0
 70
     0
280
     1
281
     0
  0
BLOCK_RECORD
  5
228
330
1
100
AcDbSymbolTableRecord
100
AcDbBlockTableRecord
  2
*D10
340
0
 70
     0
280
     1
281
     0
  0
BLOCK_RECORD
  5
236
330
1
100
AcDbSymbolTableRecord
100
AcDbBlockTableRecord
  2
*D11
340
0
 70
     0
280
     1
281
     0
  0
BLOCK_RECORD
  5
244
330
1
100
AcDbSymbolTableRecord
100
AcDbBlockTableRecord
  2
*D12
340
0
 70
     0
280
     1
281
     0
  0
BLOCK_RECORD
  5
24E
330
1
100
AcDbSymbolTableRecord
100
AcDbBlockTableRecord
  2
*D13
340
0
 70
     0
280
     1
281
     0
  0
BLOCK_RECORD
  5
257
330
1
100
AcDbSymbolTableRecord
100
AcDbBlockTableRecord
  2
*D14
340
0
 70
     0
280
     1
281
     0
  0
BLOCK_RECORD
  5
260
330
1
100
AcDbSymbolTableRecord
100
AcDbBlockTableRecord
  2
*D15
340
0
 70
     0
280
     1
281
     0
  0
BLOCK_RECORD
  5
26D
330
1
100
AcDbSymbolTableRecord
100
AcDbBlockTableRecord
  2
*D16
340
0
 70
     0
280
     1
281
     0
  0
BLOCK_RECORD
  5
27A
330
1
100
AcDbSymbolTableRecord
100
AcDbBlockTableRecord
  2
*D17
340
0
 70
     0
280
     1
281
     0
  0
BLOCK_RECORD
  5
287
330
1
100
AcDbSymbolTableRecord
100
AcDbBlockTableRecord
  2
*D18
340
0
 70
     0
280
     1
281
     0
  0
BLOCK_RECORD
  5
294
330
1
100
AcDbSymbolTableRecord
100
AcDbBlockTableRecord
  2
*D19
340
0
 70
     0
280
     1
281
     0
  0
ENDTAB
  0
ENDSEC
  0
SECTION
  2
BLOCKS
  0
BLOCK
  5
71
330
70
100
AcDbEntity
  8
0
100
AcDbBlockBegin
  2
*Model_Space
 70
     0
 10
0.0
 20
0.0
 30
0.0
  3
*Model_Space
  1

  0
ENDBLK
  5
72
330
70
100
AcDbEntity
  8
0
100
AcDbBlockEnd
  0
BLOCK
  5
6D
330
6C
100
AcDbEntity
 67
     1
  8
0
100
AcDbBlockBegin
  2
*Paper_Space
 70
     0
 10
0.0
 20
0.0
 30
0.0
  3
*Paper_Space
  1

  0
ENDBLK
  5
6E
330
6C
100
AcDbEntity
 67
     1
  8
0
100
AcDbBlockEnd
  0
BLOCK
  5
75
330
74
100
AcDbEntity
 67
     1
  8
0
100
AcDbBlockBegin
  2
*Paper_Space0
 70
     0
 10
0.0
 20
0.0
 30
0.0
  3
*Paper_Space0
  1

  0
ENDBLK
  5
76
330
74
100
AcDbEntity
 67
     1
  8
0
100
AcDbBlockEnd
  0
BLOCK
  5
1B3
330
1B0
100
AcDbEntity
  8
0
100
AcDbBlockBegin
  2
Shower
 70
     2
 10
0.0
 20
0.0
 30
0.0
  3
Shower
  1

  0
LWPOLYLINE
  5
1B4
330
1B0
100
AcDbEntity
  8
Titleblock
100
AcDbPolyline
 90
        4
 70
     1
 43
0.0
 10
0.0
 20
0.0
 10
-4.9375
 20
0.0
 10
-4.9375
 20
2.5
 10
0.0
 20
2.5
  0
IMAGE
  5
1B5
330
1B0
100
AcDbEntity
  8
Titleblock
  6
Continuous
160
               140
310
8C0000000100000084000000060000000500000000000000008013C000B87FA8928AB03F000000000000000000000000008013C035B4911D6523F03F000000000000000001000000008001C035B4911D6523F03F000000000000000001000000008001C000B87FA8928AB03F000000000000000000000000008013C000B87F
310
A8928AB03F0000000000000000
370
     0
100
AcDbRasterImage
 90
        0
 10
-4.875
 20
0.064614
 30
0.0
 11
0.0028349156118143
 21
0.0
 31
0.0
 12
0.0
 22
0.0028349156118143
 32
0.0
 13
948.0
 23
333.0
340
1B6
 70
    15
280
     0
281
    50
282
    50
283
     0
290
     0
360
1B8
 71
     1
 91
        2
 14
-0.5
 24
-0.5
 14
947.5
 24
332.5
  0
LWPOLYLINE
  5
1BA
330
1B0
100
AcDbEntity
  8
Titleblock
  6
Continuous
370
    25
100
AcDbPolyline
 90
        4
 70
     1
 43
0.0
 10
0.0
 20
1.0625
 10
-4.9375
 20
1.061638
 10
-4.9375
 20
0.0
 10
0.0
 20
0.0
  0
LWPOLYLINE
  5
1BB
330
1B0
100
AcDbEntity
  8
Titleblock
  6
Continuous
370
    25
100
AcDbPolyline
 90
        4
 70
     1
 43
0.0
 10
-1.75
 20
2.5
 10
0.0
 20
2.5
 10
0.0
 20
2.5
 10
-1.75
 20
2.5
  0
ATTDEF
  5
1BC
330
1B0
100
AcDbEntity
  8
Titleblock
  6
Continuous
370
    25
100
AcDbText
 10
-3.6875
 20
2.3125
 30
0.0
 40
0.12
  1

100
AcDbAttributeDefinition
280
     0
  3

  2
PROJECT
 70
     0
280
     1
  0
MTEXT
  5
1BD
330
1B0
100
AcDbEntity
  8
Titleblock
  6
Continuous
370
    25
100
AcDbMText
 10
-4.875
 20
1.653875
 30
0.0
 40
0.12
 41
0.6875
 46
0.0
 71
     1
 72
     5
  1
Description:
 73
     1
 44
1.0
1001
ACAD
1000
ACAD_MTEXT_COLUMN_INFO_BEGIN
1070
    75
1070
     2
1070
    79
1070
     0
1070
    76
1070
     1
1070
    78
1070
     0
1070
    48
1040
0.6875
1070
    49
1040
0.6
1070
    50
1070
     1
1040
0.0
1000
ACAD_MTEXT_COLUMN_INFO_END
  0
ATTDEF
  5
1BE
330
1B0
100
AcDbEntity
  8
Titleblock
  6
Continuous
370
    25
100
AcDbText
 10
-1.6875
 20
0.6875
 30
0.0
 40
0.12
  1

100
AcDbAttributeDefinition
280
     0
  3

  2
DRAWN_DATE
 70
     0
280
     1
  0
ATTDEF
  5
1BF
330
1B0
100
AcDbEntity
  8
Titleblock
  6
Continuous
370
    25
100
AcDbText
 10
-4.3125
 20
1.8125
 30
0.0
 40
0.3048
  1

100
AcDbAttributeDefinition
280
     0
  3

  2
TITLE_1
 70
     0
280
     1
  0
ATTDEF
  5
1C0
330
1B0
100
AcDbEntity
  8
Titleblock
  6
Continuous
370
    25
100
AcDbText
 10
-1.6875
 20
0.91994
 30
0.0
 40
0.12
  1

100
AcDbAttributeDefinition
280
     0
  3

  2
SCALE
 70
     0
280
     1
  0
LWPOLYLINE
  5
1C1
330
1B0
100
AcDbEntity
  8
Titleblock
  6
Continuous
370
    25
100
AcDbPolyline
 90
        4
 70
     1
 43
0.0
 10
0.0
 20
1.0625
 10
0.0
 20
1.0625
 10
0.0
 20
0.0
 10
0.0
 20
0.0
  0
LWPOLYLINE
  5
1C2
330
1B0
100
AcDbEntity
  8
Titleblock
  6
Continuous
370
    25
100
AcDbPolyline
 90
        4
 70
     1
 43
0.0
 10
0.0
 20
1.0625
 10
0.0
 20
1.0625
 10
0.0
 20
0.0
 10
0.0
 20
0.0
  0
LINE
  5
1C3
330
1B0
100
AcDbEntity
  8
Titleblock
  6
Continuous
370
    25
100
AcDbLine
 10
-2.125
 20
1.062165
 30
0.0
 11
-2.125
 21
0.0
 31
0.0
  0
LWPOLYLINE
  5
1C4
330
1B0
100
AcDbEntity
  8
Titleblock
  6
Continuous
370
    25
100
AcDbPolyline
 90
        4
 70
     1
 43
0.0
 10
-4.9375
 20
2.5
 10
0.0
 20
2.5
 10
0.0
 20
2.5
 10
-4.9375
 20
2.5
  0
LINE
  5
1C5
330
1B0
100
AcDbEntity
  8
Titleblock
  6
Continuous
370
    25
100
AcDbLine
 10
-4.9375
 20
2.25
 30
0.0
 11
0.0
 21
2.25
 31
0.0
  0
LINE
  5
1C6
330
1B0
100
AcDbEntity
  8
Titleblock
  6
Continuous
370
    25
100
AcDbLine
 10
-4.9375
 20
1.6875
 30
0.0
 11
0.0
 21
1.6875
 31
0.0
  0
MTEXT
  5
1C7
330
1B0
100
AcDbEntity
  8
Titleblock
100
AcDbMText
 10
-4.875
 20
2.467284
 30
0.0
 40
0.12
 41
0.375
 46
0.0
 71
     1
 72
     5
  1
Project:
 73
     1
 44
1.0
1001
ACAD
1000
ACAD_MTEXT_COLUMN_INFO_BEGIN
1070
    75
1070
     2
1070
    79
1070
     0
1070
    76
1070
     1
1070
    78
1070
     0
1070
    48
1040
0.375
1070
    49
1040
0.6
1070
    50
1070
     1
1040
0.0
1000
ACAD_MTEXT_COLUMN_INFO_END
  0
MTEXT
  5
1C8
330
1B0
100
AcDbEntity
  8
Titleblock
100
AcDbMText
 10
-2.0625
 20
1.045477
 30
0.0
 40
0.075
 41
0.375
 46
0.0
 71
     1
 72
     5
  1
Scale:
 73
     1
 44
1.0
1001
ACAD
1000
ACAD_MTEXT_COLUMN_INFO_BEGIN
1070
    75
1070
     2
1070
    79
1070
     0
1070
    76
1070
     1
1070
    78
1070
     0
1070
    48
1040
0.375
1070
    49
1040
0.6
1070
    50
1070
     1
1040
0.0
1000
ACAD_MTEXT_COLUMN_INFO_END
  0
MTEXT
  5
1C9
330
1B0
100
AcDbEntity
  8
Titleblock
100
AcDbMText
 10
-2.0625
 20
0.857735
 30
0.0
 40
0.075
 41
0.375
 46
0.0
 71
     1
 72
     5
  1
Date Drawn:
 73
     1
 44
1.0
1001
ACAD
1000
ACAD_MTEXT_COLUMN_INFO_BEGIN
1070
    75
1070
     2
1070
    79
1070
     0
1070
    76
1070
     1
1070
    78
1070
     0
1070
    48
1040
0.375
1070
    49
1040
0.6
1070
    50
1070
     1
1040
0.0
1000
ACAD_MTEXT_COLUMN_INFO_END
  0
LINE
  5
1CA
330
1B0
100
AcDbEntity
  8
Titleblock
100
AcDbLine
 10
-2.125
 20
0.875
 30
0.0
 11
0.0
 21
0.875
 31
0.0
  0
LINE
  5
1CB
330
1B0
100
AcDbEntity
  8
Titleblock
100
AcDbLine
 10
-2.125
 20
0.625
 30
0.0
 11
0.0
 21
0.625
 31
0.0
  0
MTEXT
  5
1CC
330
1B0
100
AcDbEntity
  8
Titleblock
100
AcDbMText
 10
-4.875
 20
2.220603
 30
0.0
 40
0.12
 41
0.625
 46
0.0
 71
     1
 72
     5
  1
Title:
 73
     1
 44
1.0
1001
ACAD
1000
ACAD_MTEXT_COLUMN_INFO_BEGIN
1070
    75
1070
     2
1070
    79
1070
     0
1070
    76
1070
     1
1070
    78
1070
     0
1070
    48
1040
0.625
1070
    49
1040
0.6
1070
    50
1070
     1
1040
0.0
1000
ACAD_MTEXT_COLUMN_INFO_END
  0
ENDBLK
  5
1CD
330
1B0
100
AcDbEntity
  8
0
100
AcDbBlockEnd
  0
BLOCK
  5
1D6
330
1D5
100
AcDbEntity
  8
0
100
AcDbBlockBegin
  2
ANSI_B_SHEET
 70
     0
 10
0.0
 20
0.0
 30
0.0
  3
ANSI_B_SHEET
  1

  0
LINE
  5
1D7
330
1D5
100
AcDbEntity
  8
Border
100
AcDbLine
 10
0.0
 20
0.0
 30
0.0
 11
0.5
 21
0.0
 31
0.0
  0
LINE
  5
1D8
330
1D5
100
AcDbEntity
  8
Border
100
AcDbLine
 10
16.5
 20
0.0
 30
0.0
 11
17.0
 21
0.0
 31
0.0
  0
LINE
  5
1D9
330
1D5
100
AcDbEntity
  8
Border
100
AcDbLine
 10
0.62
 20
0.38
 30
0.0
 11
16.38
 21
0.38
 31
0.0
  0
LINE
  5
1DA
330
1D5
100
AcDbEntity
  8
Border
100
AcDbLine
 10
17.0
 20
0.0
 30
0.0
 11
17.0
 21
0.5
 31
0.0
  0
LINE
  5
1DB
330
1D5
100
AcDbEntity
  8
Border
100
AcDbLine
 10
17.0
 20
10.5
 30
0.0
 11
17.0
 21
11.0
 31
0.0
  0
LINE
  5
1DC
330
1D5
100
AcDbEntity
  8
Border
100
AcDbLine
 10
16.38
 20
0.38
 30
0.0
 11
16.38
 21
10.62
 31
0.0
  0
LINE
  5
1DD
330
1D5
100
AcDbEntity
  8
Border
100
AcDbLine
 10
17.0
 20
11.0
 30
0.0
 11
16.5
 21
11.0
 31
0.0
  0
LINE
  5
1DE
330
1D5
100
AcDbEntity
  8
Border
100
AcDbLine
 10
0.5
 20
11.0
 30
0.0
 11
0.0
 21
11.0
 31
0.0
  0
LINE
  5
1DF
330
1D5
100
AcDbEntity
  8
Border
100
AcDbLine
 10
16.38
 20
10.62
 30
0.0
 11
0.62
 21
10.62
 31
0.0
  0
LINE
  5
1E0
330
1D5
100
AcDbEntity
  8
Border
100
AcDbLine
 10
0.0
 20
11.0
 30
0.0
 11
0.0
 21
10.5
 31
0.0
  0
LINE
  5
1E1
330
1D5
100
AcDbEntity
  8
Border
100
AcDbLine
 10
0.0
 20
0.5
 30
0.0
 11
0.0
 21
0.0
 31
0.0
  0
LINE
  5
1E2
330
1D5
100
AcDbEntity
  8
Border
100
AcDbLine
 10
0.62
 20
10.62
 30
0.0
 11
0.62
 21
0.38
 31
0.0
  0
LINE
  5
1E3
330
1D5
100
AcDbEntity
  8
Border
100
AcDbLine
 10
8.413397
 20
0.23
 30
0.0
 11
8.586603
 21
0.23
 31
0.0
  0
LINE
  5
1E4
330
1D5
100
AcDbEntity
  8
Border
100
AcDbLine
 10
8.5
 20
0.38
 30
0.0
 11
8.5
 21
0.13
 31
0.0
  0
LINE
  5
1E5
330
1D5
100
AcDbEntity
  8
Border
100
AcDbLine
 10
8.5
 20
0.38
 30
0.0
 11
8.413397
 21
0.23
 31
0.0
  0
LINE
  5
1E6
330
1D5
100
AcDbEntity
  8
Border
100
AcDbLine
 10
8.5
 20
0.38
 30
0.0
 11
8.586603
 21
0.23
 31
0.0
  0
LINE
  5
1E7
330
1D5
100
AcDbEntity
  8
Border
100
AcDbLine
 10
0.47
 20
5.586603
 30
0.0
 11
0.47
 21
5.413397
 31
0.0
  0
LINE
  5
1E8
330
1D5
100
AcDbEntity
  8
Border
100
AcDbLine
 10
0.62
 20
5.5
 30
0.0
 11
0.37
 21
5.5
 31
0.0
  0
LINE
  5
1E9
330
1D5
100
AcDbEntity
  8
Border
100
AcDbLine
 10
0.62
 20
5.5
 30
0.0
 11
0.47
 21
5.586603
 31
0.0
  0
LINE
  5
1EA
330
1D5
100
AcDbEntity
  8
Border
100
AcDbLine
 10
0.62
 20
5.5
 30
0.0
 11
0.47
 21
5.413397
 31
0.0
  0
LINE
  5
1EB
330
1D5
100
AcDbEntity
  8
Border
100
AcDbLine
 10
16.53
 20
5.586603
 30
0.0
 11
16.53
 21
5.413397
 31
0.0
  0
LINE
  5
1EC
330
1D5
100
AcDbEntity
  8
Border
100
AcDbLine
 10
16.38
 20
5.5
 30
0.0
 11
16.63
 21
5.5
 31
0.0
  0
LINE
  5
1ED
330
1D5
100
AcDbEntity
  8
Border
100
AcDbLine
 10
16.38
 20
5.5
 30
0.0
 11
16.53
 21
5.586603
 31
0.0
  0
LINE
  5
1EE
330
1D5
100
AcDbEntity
  8
Border
100
AcDbLine
 10
16.38
 20
5.5
 30
0.0
 11
16.53
 21
5.413397
 31
0.0
  0
LINE
  5
1EF
330
1D5
100
AcDbEntity
  8
Border
100
AcDbLine
 10
8.413397
 20
10.77
 30
0.0
 11
8.586603
 21
10.77
 31
0.0
  0
LINE
  5
1F0
330
1D5
100
AcDbEntity
  8
Border
100
AcDbLine
 10
8.5
 20
10.62
 30
0.0
 11
8.5
 21
10.87
 31
0.0
  0
LINE
  5
1F1
330
1D5
100
AcDbEntity
  8
Border
100
AcDbLine
 10
8.5
 20
10.62
 30
0.0
 11
8.413397
 21
10.77
 31
0.0
  0
LINE
  5
1F2
330
1D5
100
AcDbEntity
  8
Border
100
AcDbLine
 10
8.5
 20
10.62
 30
0.0
 11
8.586603
 21
10.77
 31
0.0
  0
ENDBLK
  5
1F3
330
1D5
100
AcDbEntity
  8
0
100
AcDbBlockEnd
  0
BLOCK
  5
1F7
330
1F6
100
AcDbEntity
  8
0
100
AcDbBlockBegin
  2
*D6
 70
     1
 10
0.0
 20
0.0
 30
0.0
  3
*D6
  1

  0
LINE
  5
1F8
330
1F6
100
AcDbEntity
  8
Dimensions
440
 16777216
370
    -2
100
AcDbLine
 10
7.852217
 20
2.984616
 30
0.0
 11
8.028834
 21
2.984616
 31
0.0
  0
LINE
  5
1F9
330
1F6
100
AcDbEntity
  8
Dimensions
440
 16777216
370
    -2
100
AcDbLine
 10
8.028834
 20
2.984616
 30
0.0
 11
8.354819
 21
3.514036
 31
0.0
  0
MTEXT
  5
1FA
330
1F6
100
AcDbEntity
  8
Dimensions
440
 16777216
100
AcDbMText
 10
7.517811
 20
2.984616
 30
0.0
 40
0.12
 41
0.0
 46
0.0
 71
     5
 72
     1
  1
\A1;∅1.97in
 73
     1
 44
1.0
  0
SOLID
  5
1FB
330
1F6
100
AcDbEntity
  8
Dimensions
440
 16777216
100
AcDbTrace
 10
8.337788
 20
3.524522
 30
0.0
 11
8.371849
 21
3.50355
 31
0.0
 12
8.417737
 22
3.616219
 32
0.0
 13
8.417737
 23
3.616219
 33
0.0
  0
POINT
  5
1FC
330
1F6
100
AcDbEntity
  8
Defpoints
 62
     0
440
 16777216
100
AcDbPoint
 10
8.417737
 20
3.616219
 30
0.0
  0
POINT
  5
1FD
330
1F6
100
AcDbEntity
  8
Defpoints
 62
     0
440
 16777216
100
AcDbPoint
 10
9.449856
 20
5.292446
 30
0.0
  0
ENDBLK
  5
1FE
330
1F6
100
AcDbEntity
  8
0
100
AcDbBlockEnd
  0
BLOCK
  5
201
330
200
100
AcDbEntity
  8
0
100
AcDbBlockBegin
  2
*D7
 70
     1
 10
0.0
 20
0.0
 30
0.0
  3
*D7
  1

  0
LINE
  5
202
330
200
100
AcDbEntity
  8
Dimensions
440
 16777216
370
    -2
100
AcDbLine
 10
7.783382
 20
3.557806
 30
0.0
 11
7.903382
 21
3.557806
 31
0.0
  0
LINE
  5
203
330
200
100
AcDbEntity
  8
Dimensions
440
 16777216
370
    -2
100
AcDbLine
 10
7.903382
 20
3.557806
 30
0.0
 11
8.471997
 21
4.052537
 31
0.0
  0
MTEXT
  5
204
330
200
100
AcDbEntity
  8
Dimensions
440
 16777216
100
AcDbMText
 10
7.495592
 20
3.557806
 30
0.0
 40
0.12
 41
0.0
 46
0.0
 71
     5
 72
     1
  1
\A1;∅.98in
 73
     1
 44
1.0
  0
SOLID
  5
205
330
200
100
AcDbEntity
  8
Dimensions
440
 16777216
100
AcDbTrace
 10
8.458869
 20
4.067625
 30
0.0
 11
8.485125
 21
4.037449
 31
0.0
 12
8.562527
 22
4.131304
 32
0.0
 13
8.562527
 23
4.131304
 33
0.0
  0
POINT
  5
206
330
200
100
AcDbEntity
  8
Defpoints
 62
     0
440
 16777216
100
AcDbPoint
 10
8.562527
 20
4.131304
 30
0.0
  0
POINT
  5
207
330
200
100
AcDbEntity
  8
Defpoints
 62
     0
440
 16777216
100
AcDbPoint
 10
9.305066
 20
4.777361
 30
0.0
  0
ENDBLK
  5
208
330
200
100
AcDbEntity
  8
0
100
AcDbBlockEnd
  0
BLOCK
  5
20B
330
20A
100
AcDbEntity
  8
0
100
AcDbBlockBegin
  2
*D8
 70
     1
 10
0.0
 20
0.0
 30
0.0
  3
*D8
  1

  0
LINE
  5
20C
330
20A
100
AcDbEntity
  8
Dimensions
440
 16777216
370
    -2
100
AcDbLine
 10
8.658206
 20
3.495561
 30
0.0
 11
8.658206
 21
2.631708
 31
0.0
  0
LINE
  5
20D
330
20A
100
AcDbEntity
  8
Dimensions
440
 16777216
370
    -2
100
AcDbLine
 10
9.209387
 20
3.495561
 30
0.0
 11
9.209387
 21
2.631708
 31
0.0
  0
LINE
  5
20E
330
20A
100
AcDbEntity
  8
Dimensions
440
 16777216
370
    -2
100
AcDbLine
 10
8.538206
 20
2.701708
 30
0.0
 11
8.418206
 21
2.701708
 31
0.0
  0
LINE
  5
20F
330
20A
100
AcDbEntity
  8
Dimensions
440
 16777216
370
    -2
100
AcDbLine
 10
9.329387
 20
2.701708
 30
0.0
 11
9.449387
 21
2.701708
 31
0.0
  0
SOLID
  5
210
330
20A
100
AcDbEntity
  8
Dimensions
440
 16777216
100
AcDbTrace
 10
8.538206
 20
2.721708
 30
0.0
 11
8.538206
 21
2.681708
 31
0.0
 12
8.658206
 22
2.701708
 32
0.0
 13
8.658206
 23
2.701708
 33
0.0
  0
SOLID
  5
211
330
20A
100
AcDbEntity
  8
Dimensions
440
 16777216
100
AcDbTrace
 10
9.329387
 20
2.721708
 30
0.0
 11
9.329387
 21
2.681708
 31
0.0
 12
9.209387
 22
2.701708
 32
0.0
 13
9.209387
 23
2.701708
 33
0.0
  0
MTEXT
  5
212
330
20A
100
AcDbEntity
  8
Dimensions
440
 16777216
100
AcDbMText
 10
8.933796
 20
2.701708
 30
0.0
 40
0.12
 41
0.0
 46
0.0
 71
     5
 72
     1
  1
\A1;.55in
 73
     1
 44
1.0
  0
POINT
  5
213
330
20A
100
AcDbEntity
  8
Defpoints
 62
     0
440
 16777216
100
AcDbPoint
 10
8.658206
 20
3.565561
 30
0.0
  0
POINT
  5
214
330
20A
100
AcDbEntity
  8
Defpoints
 62
     0
440
 16777216
100
AcDbPoint
 10
9.209387
 20
3.565561
 30
0.0
  0
POINT
  5
215
330
20A
100
AcDbEntity
  8
Defpoints
 62
     0
440
 16777216
100
AcDbPoint
 10
9.209387
 20
2.701708
 30
0.0
  0
ENDBLK
  5
216
330
20A
100
AcDbEntity
  8
0
100
AcDbBlockEnd
  0
BLOCK
  5
219
330
218
100
AcDbEntity
  8
0
100
AcDbBlockBegin
  2
*D9
 70
     1
 10
0.0
 20
0.0
 30
0.0
  3
*D9
  1

  0
LINE
  5
21A
330
218
100
AcDbEntity
  8
Dimensions
440
 16777216
370
    -2
100
AcDbLine
 10
10.282778
 20
7.446215
 30
0.0
 11
11.362778
 21
7.446215
 31
0.0
  0
LINE
  5
21B
330
218
100
AcDbEntity
  8
Dimensions
440
 16777216
370
    -2
100
AcDbLine
 10
9.003796
 20
4.454332
 30
0.0
 11
11.362778
 21
4.454332
 31
0.0
  0
LINE
  5
21C
330
218
100
AcDbEntity
  8
Dimensions
440
 16777216
370
    -2
100
AcDbLine
 10
11.292778
 20
7.326215
 30
0.0
 11
11.292778
 21
6.061542
 31
0.0
  0
LINE
  5
21D
330
218
100
AcDbEntity
  8
Dimensions
440
 16777216
370
    -2
100
AcDbLine
 10
11.292778
 20
4.574332
 30
0.0
 11
11.292778
 21
5.839005
 31
0.0
  0
SOLID
  5
21E
330
218
100
AcDbEntity
  8
Dimensions
440
 16777216
100
AcDbTrace
 10
11.272778
 20
7.326215
 30
0.0
 11
11.312778
 21
7.326215
 31
0.0
 12
11.292778
 22
7.446215
 32
0.0
 13
11.292778
 23
7.446215
 33
0.0
  0
SOLID
  5
21F
330
218
100
AcDbEntity
  8
Dimensions
440
 16777216
100
AcDbTrace
 10
11.272778
 20
4.574332
 30
0.0
 11
11.312778
 21
4.574332
 31
0.0
 12
11.292778
 22
4.454332
 32
0.0
 13
11.292778
 23
4.454332
 33
0.0
  0
MTEXT
  5
220
330
218
100
AcDbEntity
  8
Dimensions
440
 16777216
100
AcDbMText
 10
11.292778
 20
5.950274
 30
0.0
 40
0.12
 41
0.0
 46
0.0
 71
     5
 72
     1
  1
\A1;**2.99in
 73
     1
 44
1.0
  0
POINT
  5
221
330
218
100
AcDbEntity
  8
Defpoints
 62
     0
440
 16777216
100
AcDbPoint
 10
10.212778
 20
7.446215
 30
0.0
  0
POINT
  5
222
330
218
100
AcDbEntity
  8
Defpoints
 62
     0
440
 16777216
100
AcDbPoint
 10
8.933796
 20
4.454332
 30
0.0
  0
POINT
  5
223
330
218
100
AcDbEntity
  8
Defpoints
 62
     0
440
 16777216
100
AcDbPoint
 10
11.292778
 20
4.454332
 30
0.0
  0
ENDBLK
  5
224
330
218
100
AcDbEntity
  8
0
100
AcDbBlockEnd
  0
BLOCK
  5
229
330
228
100
AcDbEntity
  8
0
100
AcDbBlockBegin
  2
*D10
 70
     1
 10
0.0
 20
0.0
 30
0.0
  3
*D10
  1

  0
LINE
  5
22A
330
228
100
AcDbEntity
  8
Dimensions
440
 16777216
370
    -2
100
AcDbLine
 10
5.563116
 20
7.516215
 30
0.0
 11
5.563116
 21
8.596215
 31
0.0
  0
LINE
  5
22B
330
228
100
AcDbEntity
  8
Dimensions
440
 16777216
370
    -2
100
AcDbLine
 10
2.33451
 20
5.469214
 30
0.0
 11
2.33451
 21
8.596215
 31
0.0
  0
LINE
  5
22C
330
228
100
AcDbEntity
  8
Dimensions
440
 16777216
370
    -2
100
AcDbLine
 10
5.443116
 20
8.526215
 30
0.0
 11
4.217899
 21
8.526215
 31
0.0
  0
LINE
  5
22D
330
228
100
AcDbEntity
  8
Dimensions
440
 16777216
370
    -2
100
AcDbLine
 10
2.45451
 20
8.526215
 30
0.0
 11
3.679727
 21
8.526215
 31
0.0
  0
SOLID
  5
22E
330
228
100
AcDbEntity
  8
Dimensions
440
 16777216
100
AcDbTrace
 10
5.443116
 20
8.546215
 30
0.0
 11
5.443116
 21
8.506215
 31
0.0
 12
5.563116
 22
8.526215
 32
0.0
 13
5.563116
 23
8.526215
 33
0.0
  0
SOLID
  5
22F
330
228
100
AcDbEntity
  8
Dimensions
440
 16777216
100
AcDbTrace
 10
2.45451
 20
8.546215
 30
0.0
 11
2.45451
 21
8.506215
 31
0.0
 12
2.33451
 22
8.526215
 32
0.0
 13
2.33451
 23
8.526215
 33
0.0
  0
MTEXT
  5
230
330
228
100
AcDbEntity
  8
Dimensions
440
 16777216
100
AcDbMText
 10
3.948813
 20
8.526215
 30
0.0
 40
0.12
 41
0.0
 46
0.0
 71
     5
 72
     1
  1
\A1;3.23in
 73
     1
 44
1.0
  0
POINT
  5
231
330
228
100
AcDbEntity
  8
Defpoints
 62
     0
440
 16777216
100
AcDbPoint
 10
5.563116
 20
7.446215
 30
0.0
  0
POINT
  5
232
330
228
100
AcDbEntity
  8
Defpoints
 62
     0
440
 16777216
100
AcDbPoint
 10
2.33451
 20
5.399214
 30
0.0
  0
POINT
  5
233
330
228
100
AcDbEntity
  8
Defpoints
 62
     0
440
 16777216
100
AcDbPoint
 10
2.33451
 20
8.526215
 30
0.0
  0
ENDBLK
  5
234
330
228
100
AcDbEntity
  8
0
100
AcDbBlockEnd
  0
BLOCK
  5
237
330
236
100
AcDbEntity
  8
0
100
AcDbBlockBegin
  2
*D11
 70
     1
 10
0.0
 20
0.0
 30
0.0
  3
*D11
  1

  0
LINE
  5
238
330
236
100
AcDbEntity
  8
Dimensions
440
 16777216
370
    -2
100
AcDbLine
 10
14.486247
 20
4.046894
 30
0.0
 11
14.486247
 21
3.196057
 31
0.0
  0
LINE
  5
239
330
236
100
AcDbEntity
  8
Dimensions
440
 16777216
370
    -2
100
AcDbLine
 10
12.587155
 20
3.474333
 30
0.0
 11
12.587155
 21
3.196057
 31
0.0
  0
LINE
  5
23A
330
236
100
AcDbEntity
  8
Dimensions
440
 16777216
370
    -2
100
AcDbLine
 10
14.366247
 20
3.266057
 30
0.0
 11
13.753563
 21
3.266057
 31
0.0
  0
LINE
  5
23B
330
236
100
AcDbEntity
  8
Dimensions
440
 16777216
370
    -2
100
AcDbLine
 10
12.707155
 20
3.266057
 30
0.0
 11
13.319839
 21
3.266057
 31
0.0
  0
SOLID
  5
23C
330
236
100
AcDbEntity
  8
Dimensions
440
 16777216
100
AcDbTrace
 10
14.366247
 20
3.286057
 30
0.0
 11
14.366247
 21
3.246057
 31
0.0
 12
14.486247
 22
3.266057
 32
0.0
 13
14.486247
 23
3.266057
 33
0.0
  0
SOLID
  5
23D
330
236
100
AcDbEntity
  8
Dimensions
440
 16777216
100
AcDbTrace
 10
12.707155
 20
3.286057
 30
0.0
 11
12.707155
 21
3.246057
 31
0.0
 12
12.587155
 22
3.266057
 32
0.0
 13
12.587155
 23
3.266057
 33
0.0
  0
MTEXT
  5
23E
330
236
100
AcDbEntity
  8
Dimensions
440
 16777216
100
AcDbMText
 10
13.536701
 20
3.266057
 30
0.0
 40
0.12
 41
0.0
 46
0.0
 71
     5
 72
     1
  1
\A1;1.9in
 73
     1
 44
1.0
  0
POINT
  5
23F
330
236
100
AcDbEntity
  8
Defpoints
 62
     0
440
 16777216
100
AcDbPoint
 10
14.486247
 20
4.116894
 30
0.0
  0
POINT
  5
240
330
236
100
AcDbEntity
  8
Defpoints
 62
     0
440
 16777216
100
AcDbPoint
 10
12.587155
 20
3.544333
 30
0.0
  0
POINT
  5
241
330
236
100
AcDbEntity
  8
Defpoints
 62
     0
440
 16777216
100
AcDbPoint
 10
12.587155
 20
3.266057
 30
0.0
  0
ENDBLK
  5
242
330
236
100
AcDbEntity
  8
0
100
AcDbBlockEnd
  0
BLOCK
  5
245
330
244
100
AcDbEntity
  8
0
100
AcDbBlockBegin
  2
*D12
 70
     1
 10
0.0
 20
0.0
 30
0.0
  3
*D12
  1

  0
LINE
  5
246
330
244
100
AcDbEntity
  8
Dimensions
440
 16777216
370
    -2
100
AcDbLine
 10
6.273847
 20
8.388031
 30
0.0
 11
6.393838
 21
8.386516
 31
0.0
  0
MTEXT
  5
247
330
244
100
AcDbEntity
  8
Dimensions
440
 16777216
100
AcDbMText
 10
5.986057
 20
8.388031
 30
0.0
 40
0.12
 41
0.0
 46
0.0
 71
     5
 72
     1
  1
\A1;∅1.9in
 73
     1
 44
1.0
  0
SOLID
  5
248
330
244
100
AcDbEntity
  8
Dimensions
440
 16777216
100
AcDbTrace
 10
6.39409
 20
8.406515
 30
0.0
 11
6.393585
 21
8.366518
 31
0.0
 12
6.513828
 22
8.385002
 32
0.0
 13
6.513828
 23
8.385002
 33
0.0
  0
ARC
  5
249
330
244
100
AcDbEntity
  8
Dimensions
440
 16777216
370
    -2
100
AcDbCircle
 10
5.563116
 20
8.397002
 30
0.0
 40
0.9507874015746601
100
AcDbArc
 50
295.178482
 51
3.495112
  0
POINT
  5
24A
330
244
100
AcDbEntity
  8
Defpoints
 62
     0
440
 16777216
100
AcDbPoint
 10
6.513828
 20
8.385002
 30
0.0
  0
POINT
  5
24B
330
244
100
AcDbEntity
  8
Defpoints
 62
     0
440
 16777216
100
AcDbPoint
 10
4.612405
 20
8.409003
 30
0.0
  0
ENDBLK
  5
24C
330
244
100
AcDbEntity
  8
0
100
AcDbBlockEnd
  0
BLOCK
  5
24F
330
24E
100
AcDbEntity
  8
0
100
AcDbBlockBegin
  2
*D13
 70
     1
 10
0.0
 20
0.0
 30
0.0
  3
*D13
  1

  0
LINE
  5
479
330
24E
100
AcDbEntity
  8
Dimensions
440
 16777216
370
    -2
100
AcDbLine
 10
7.852217
 20
2.984616
 30
0.0
 11
8.028834
 21
2.984616
 31
0.0
  0
LINE
  5
47A
330
24E
100
AcDbEntity
  8
Dimensions
440
 16777216
370
    -2
100
AcDbLine
 10
8.028834
 20
2.984616
 30
0.0
 11
8.354819
 21
3.514036
 31
0.0
  0
MTEXT
  5
47B
330
24E
100
AcDbEntity
  8
Dimensions
440
 16777216
100
AcDbMText
 10
7.517811
 20
2.984616
 30
0.0
 40
0.12
 41
0.0
 46
0.0
 71
     5
 72
     1
  1
\A1;∅1.97in
 73
     1
 44
1.0
  0
SOLID
  5
47C
330
24E
100
AcDbEntity
  8
Dimensions
440
 16777216
100
AcDbTrace
 10
8.337788
 20
3.524522
 30
0.0
 11
8.371849
 21
3.50355
 31
0.0
 12
8.417737
 22
3.616219
 32
0.0
 13
8.417737
 23
3.616219
 33
0.0
  0
POINT
  5
47D
330
24E
100
AcDbEntity
  8
Defpoints
 62
     0
440
 16777216
100
AcDbPoint
 10
8.417737
 20
3.616219
 30
0.0
  0
POINT
  5
47E
330
24E
100
AcDbEntity
  8
Defpoints
 62
     0
440
 16777216
100
AcDbPoint
 10
9.449856
 20
5.292446
 30
0.0
  0
ENDBLK
  5
250
330
24E
100
AcDbEntity
  8
0
100
AcDbBlockEnd
  0
BLOCK
  5
258
330
257
100
AcDbEntity
  8
0
100
AcDbBlockBegin
  2
*D14
 70
     1
 10
0.0
 20
0.0
 30
0.0
  3
*D14
  1

  0
LINE
  5
47F
330
257
100
AcDbEntity
  8
Dimensions
440
 16777216
370
    -2
100
AcDbLine
 10
7.783382
 20
3.557806
 30
0.0
 11
7.903382
 21
3.557806
 31
0.0
  0
LINE
  5
480
330
257
100
AcDbEntity
  8
Dimensions
440
 16777216
370
    -2
100
AcDbLine
 10
7.903382
 20
3.557806
 30
0.0
 11
8.471997
 21
4.052537
 31
0.0
  0
MTEXT
  5
481
330
257
100
AcDbEntity
  8
Dimensions
440
 16777216
100
AcDbMText
 10
7.495592
 20
3.557806
 30
0.0
 40
0.12
 41
0.0
 46
0.0
 71
     5
 72
     1
  1
\A1;∅.98in
 73
     1
 44
1.0
  0
SOLID
  5
482
330
257
100
AcDbEntity
  8
Dimensions
440
 16777216
100
AcDbTrace
 10
8.458869
 20
4.067625
 30
0.0
 11
8.485125
 21
4.037449
 31
0.0
 12
8.562527
 22
4.131304
 32
0.0
 13
8.562527
 23
4.131304
 33
0.0
  0
POINT
  5
483
330
257
100
AcDbEntity
  8
Defpoints
 62
     0
440
 16777216
100
AcDbPoint
 10
8.562527
 20
4.131304
 30
0.0
  0
POINT
  5
484
330
257
100
AcDbEntity
  8
Defpoints
 62
     0
440
 16777216
100
AcDbPoint
 10
9.305066
 20
4.777361
 30
0.0
  0
ENDBLK
  5
259
330
257
100
AcDbEntity
  8
0
100
AcDbBlockEnd
  0
BLOCK
  5
261
330
260
100
AcDbEntity
  8
0
100
AcDbBlockBegin
  2
*D15
 70
     1
 10
0.0
 20
0.0
 30
0.0
  3
*D15
  1

  0
LINE
  5
485
330
260
100
AcDbEntity
  8
Dimensions
440
 16777216
370
    -2
100
AcDbLine
 10
8.658206
 20
3.495561
 30
0.0
 11
8.658206
 21
2.631708
 31
0.0
  0
LINE
  5
486
330
260
100
AcDbEntity
  8
Dimensions
440
 16777216
370
    -2
100
AcDbLine
 10
9.209387
 20
3.495561
 30
0.0
 11
9.209387
 21
2.631708
 31
0.0
  0
LINE
  5
487
330
260
100
AcDbEntity
  8
Dimensions
440
 16777216
370
    -2
100
AcDbLine
 10
8.538206
 20
2.701708
 30
0.0
 11
8.418206
 21
2.701708
 31
0.0
  0
LINE
  5
488
330
260
100
AcDbEntity
  8
Dimensions
440
 16777216
370
    -2
100
AcDbLine
 10
9.329387
 20
2.701708
 30
0.0
 11
9.449387
 21
2.701708
 31
0.0
  0
SOLID
  5
489
330
260
100
AcDbEntity
  8
Dimensions
440
 16777216
100
AcDbTrace
 10
8.538206
 20
2.721708
 30
0.0
 11
8.538206
 21
2.681708
 31
0.0
 12
8.658206
 22
2.701708
 32
0.0
 13
8.658206
 23
2.701708
 33
0.0
  0
SOLID
  5
48A
330
260
100
AcDbEntity
  8
Dimensions
440
 16777216
100
AcDbTrace
 10
9.329387
 20
2.721708
 30
0.0
 11
9.329387
 21
2.681708
 31
0.0
 12
9.209387
 22
2.701708
 32
0.0
 13
9.209387
 23
2.701708
 33
0.0
  0
MTEXT
  5
48B
330
260
100
AcDbEntity
  8
Dimensions
440
 16777216
100
AcDbMText
 10
8.933796
 20
2.701708
 30
0.0
 40
0.12
 41
0.0
 46
0.0
 71
     5
 72
     1
  1
\A1;.55in
 73
     1
 44
1.0
  0
POINT
  5
48C
330
260
100
AcDbEntity
  8
Defpoints
 62
     0
440
 16777216
100
AcDbPoint
 10
8.658206
 20
3.565561
 30
0.0
  0
POINT
  5
48D
330
260
100
AcDbEntity
  8
Defpoints
 62
     0
440
 16777216
100
AcDbPoint
 10
9.209387
 20
3.565561
 30
0.0
  0
POINT
  5
48E
330
260
100
AcDbEntity
  8
Defpoints
 62
     0
440
 16777216
100
AcDbPoint
 10
9.209387
 20
2.701708
 30
0.0
  0
ENDBLK
  5
262
330
260
100
AcDbEntity
  8
0
100
AcDbBlockEnd
  0
BLOCK
  5
26E
330
26D
100
AcDbEntity
  8
0
100
AcDbBlockBegin
  2
*D16
 70
     1
 10
0.0
 20
0.0
 30
0.0
  3
*D16
  1

  0
LINE
  5
48F
330
26D
100
AcDbEntity
  8
Dimensions
440
 16777216
370
    -2
100
AcDbLine
 10
10.282778
 20
7.446215
 30
0.0
 11
11.362778
 21
7.446215
 31
0.0
  0
LINE
  5
490
330
26D
100
AcDbEntity
  8
Dimensions
440
 16777216
370
    -2
100
AcDbLine
 10
9.003796
 20
4.454332
 30
0.0
 11
11.362778
 21
4.454332
 31
0.0
  0
LINE
  5
491
330
26D
100
AcDbEntity
  8
Dimensions
440
 16777216
370
    -2
100
AcDbLine
 10
11.292778
 20
7.326215
 30
0.0
 11
11.292778
 21
6.061542
 31
0.0
  0
LINE
  5
492
330
26D
100
AcDbEntity
  8
Dimensions
440
 16777216
370
    -2
100
AcDbLine
 10
11.292778
 20
4.574332
 30
0.0
 11
11.292778
 21
5.839005
 31
0.0
  0
SOLID
  5
493
330
26D
100
AcDbEntity
  8
Dimensions
440
 16777216
100
AcDbTrace
 10
11.272778
 20
7.326215
 30
0.0
 11
11.312778
 21
7.326215
 31
0.0
 12
11.292778
 22
7.446215
 32
0.0
 13
11.292778
 23
7.446215
 33
0.0
  0
SOLID
  5
494
330
26D
100
AcDbEntity
  8
Dimensions
440
 16777216
100
AcDbTrace
 10
11.272778
 20
4.574332
 30
0.0
 11
11.312778
 21
4.574332
 31
0.0
 12
11.292778
 22
4.454332
 32
0.0
 13
11.292778
 23
4.454332
 33
0.0
  0
MTEXT
  5
495
330
26D
100
AcDbEntity
  8
Dimensions
440
 16777216
100
AcDbMText
 10
11.292778
 20
5.950274
 30
0.0
 40
0.12
 41
0.0
 46
0.0
 71
     5
 72
     1
  1
\A1;**2.99in
 73
     1
 44
1.0
  0
POINT
  5
496
330
26D
100
AcDbEntity
  8
Defpoints
 62
     0
440
 16777216
100
AcDbPoint
 10
10.212778
 20
7.446215
 30
0.0
  0
POINT
  5
497
330
26D
100
AcDbEntity
  8
Defpoints
 62
     0
440
 16777216
100
AcDbPoint
 10
8.933796
 20
4.454332
 30
0.0
  0
POINT
  5
498
330
26D
100
AcDbEntity
  8
Defpoints
 62
     0
440
 16777216
100
AcDbPoint
 10
11.292778
 20
4.454332
 30
0.0
  0
ENDBLK
  5
26F
330
26D
100
AcDbEntity
  8
0
100
AcDbBlockEnd
  0
BLOCK
  5
27B
330
27A
100
AcDbEntity
  8
0
100
AcDbBlockBegin
  2
*D17
 70
     1
 10
0.0
 20
0.0
 30
0.0
  3
*D17
  1

  0
LINE
  5
499
330
27A
100
AcDbEntity
  8
Dimensions
440
 16777216
370
    -2
100
AcDbLine
 10
5.563116
 20
7.516215
 30
0.0
 11
5.563116
 21
8.596215
 31
0.0
  0
LINE
  5
49A
330
27A
100
AcDbEntity
  8
Dimensions
440
 16777216
370
    -2
100
AcDbLine
 10
2.33451
 20
5.469214
 30
0.0
 11
2.33451
 21
8.596215
 31
0.0
  0
LINE
  5
49B
330
27A
100
AcDbEntity
  8
Dimensions
440
 16777216
370
    -2
100
AcDbLine
 10
5.443116
 20
8.526215
 30
0.0
 11
4.217899
 21
8.526215
 31
0.0
  0
LINE
  5
49C
330
27A
100
AcDbEntity
  8
Dimensions
440
 16777216
370
    -2
100
AcDbLine
 10
2.45451
 20
8.526215
 30
0.0
 11
3.679727
 21
8.526215
 31
0.0
  0
SOLID
  5
49D
330
27A
100
AcDbEntity
  8
Dimensions
440
 16777216
100
AcDbTrace
 10
5.443116
 20
8.546215
 30
0.0
 11
5.443116
 21
8.506215
 31
0.0
 12
5.563116
 22
8.526215
 32
0.0
 13
5.563116
 23
8.526215
 33
0.0
  0
SOLID
  5
49E
330
27A
100
AcDbEntity
  8
Dimensions
440
 16777216
100
AcDbTrace
 10
2.45451
 20
8.546215
 30
0.0
 11
2.45451
 21
8.506215
 31
0.0
 12
2.33451
 22
8.526215
 32
0.0
 13
2.33451
 23
8.526215
 33
0.0
  0
MTEXT
  5
49F
330
27A
100
AcDbEntity
  8
Dimensions
440
 16777216
100
AcDbMText
 10
3.948813
 20
8.526215
 30
0.0
 40
0.12
 41
0.0
 46
0.0
 71
     5
 72
     1
  1
\A1;3.23in
 73
     1
 44
1.0
  0
POINT
  5
4A0
330
27A
100
AcDbEntity
  8
Defpoints
 62
     0
440
 16777216
100
AcDbPoint
 10
5.563116
 20
7.446215
 30
0.0
  0
POINT
  5
4A1
330
27A
100
AcDbEntity
  8
Defpoints
 62
     0
440
 16777216
100
AcDbPoint
 10
2.33451
 20
5.399214
 30
0.0
  0
POINT
  5
4A2
330
27A
100
AcDbEntity
  8
Defpoints
 62
     0
440
 16777216
100
AcDbPoint
 10
2.33451
 20
8.526215
 30
0.0
  0
ENDBLK
  5
27C
330
27A
100
AcDbEntity
  8
0
100
AcDbBlockEnd
  0
BLOCK
  5
288
330
287
100
AcDbEntity
  8
0
100
AcDbBlockBegin
  2
*D18
 70
     1
 10
0.0
 20
0.0
 30
0.0
  3
*D18
  1

  0
LINE
  5
4A3
330
287
100
AcDbEntity
  8
Dimensions
440
 16777216
370
    -2
100
AcDbLine
 10
14.486247
 20
4.046894
 30
0.0
 11
14.486247
 21
3.196057
 31
0.0
  0
LINE
  5
4A4
330
287
100
AcDbEntity
  8
Dimensions
440
 16777216
370
    -2
100
AcDbLine
 10
12.587155
 20
3.474333
 30
0.0
 11
12.587155
 21
3.196057
 31
0.0
  0
LINE
  5
4A5
330
287
100
AcDbEntity
  8
Dimensions
440
 16777216
370
    -2
100
AcDbLine
 10
14.366247
 20
3.266057
 30
0.0
 11
13.753563
 21
3.266057
 31
0.0
  0
LINE
  5
4A6
330
287
100
AcDbEntity
  8
Dimensions
440
 16777216
370
    -2
100
AcDbLine
 10
12.707155
 20
3.266057
 30
0.0
 11
13.319839
 21
3.266057
 31
0.0
  0
SOLID
  5
4A7
330
287
100
AcDbEntity
  8
Dimensions
440
 16777216
100
AcDbTrace
 10
14.366247
 20
3.286057
 30
0.0
 11
14.366247
 21
3.246057
 31
0.0
 12
14.486247
 22
3.266057
 32
0.0
 13
14.486247
 23
3.266057
 33
0.0
  0
SOLID
  5
4A8
330
287
100
AcDbEntity
  8
Dimensions
440
 16777216
100
AcDbTrace
 10
12.707155
 20
3.286057
 30
0.0
 11
12.707155
 21
3.246057
 31
0.0
 12
12.587155
 22
3.266057
 32
0.0
 13
12.587155
 23
3.266057
 33
0.0
  0
MTEXT
  5
4A9
330
287
100
AcDbEntity
  8
Dimensions
440
 16777216
100
AcDbMText
 10
13.536701
 20
3.266057
 30
0.0
 40
0.12
 41
0.0
 46
0.0
 71
     5
 72
     1
  1
\A1;1.9in
 73
     1
 44
1.0
  0
POINT
  5
4AA
330
287
100
AcDbEntity
  8
Defpoints
 62
     0
440
 16777216
100
AcDbPoint
 10
14.486247
 20
4.116894
 30
0.0
  0
POINT
  5
4AB
330
287
100
AcDbEntity
  8
Defpoints
 62
     0
440
 16777216
100
AcDbPoint
 10
12.587155
 20
3.544333
 30
0.0
  0
POINT
  5
4AC
330
287
100
AcDbEntity
  8
Defpoints
 62
     0
440
 16777216
100
AcDbPoint
 10
12.587155
 20
3.266057
 30
0.0
  0
ENDBLK
  5
289
330
287
100
AcDbEntity
  8
0
100
AcDbBlockEnd
  0
BLOCK
  5
295
330
294
100
AcDbEntity
  8
0
100
AcDbBlockBegin
  2
*D19
 70
     1
 10
0.0
 20
0.0
 30
0.0
  3
*D19
  1

  0
LINE
  5
4AD
330
294
100
AcDbEntity
  8
Dimensions
440
 16777216
370
    -2
100
AcDbLine
 10
6.273847
 20
8.388031
 30
0.0
 11
6.393838
 21
8.386516
 31
0.0
  0
MTEXT
  5
4AE
330
294
100
AcDbEntity
  8
Dimensions
440
 16777216
100
AcDbMText
 10
5.986057
 20
8.388031
 30
0.0
 40
0.12
 41
0.0
 46
0.0
 71
     5
 72
     1
  1
\A1;∅1.9in
 73
     1
 44
1.0
  0
SOLID
  5
4AF
330
294
100
AcDbEntity
  8
Dimensions
440
 16777216
100
AcDbTrace
 10
6.39409
 20
8.406515
 30
0.0
 11
6.393585
 21
8.366518
 31
0.0
 12
6.513828
 22
8.385002
 32
0.0
 13
6.513828
 23
8.385002
 33
0.0
  0
ARC
  5
4B0
330
294
100
AcDbEntity
  8
Dimensions
440
 16777216
370
    -2
100
AcDbCircle
 10
5.563116
 20
8.397002
 30
0.0
 40
0.9507874015746601
100
AcDbArc
 50
295.178482
 51
3.495112
  0
POINT
  5
4B1
330
294
100
AcDbEntity
  8
Defpoints
 62
     0
440
 16777216
100
AcDbPoint
 10
6.513828
 20
8.385002
 30
0.0
  0
POINT
  5
4B2
330
294
100
AcDbEntity
  8
Defpoints
 62
     0
440
 16777216
100
AcDbPoint
 10
4.612405
 20
8.409003
 30
0.0
  0
ENDBLK
  5
296
330
294
100
AcDbEntity
  8
0
100
AcDbBlockEnd
  0
ENDSEC
  0
SECTION
  2
ENTITIES
  0
INSERT
  5
1AE
330
70
100
AcDbEntity
  8
Titleblock
100
AcDbBlockReference
 66
     1
  2
Shower
 10
16.38
 20
0.38
 30
0.0
  0
ATTRIB
  5
1CE
330
1AE
100
AcDbEntity
  8
Titleblock
  6
Continuous
370
    25
100
AcDbText
 10
12.6925
 20
2.6925
 30
0.0
 40
0.12
  1
Railing Products and Mock Ups
100
AcDbAttribute
280
     0
  2
PROJECT
 70
     0
280
     1
1001
FD_ATT_APPNAME
1005
1BC
  0
ATTRIB
  5
1CF
330
1AE
100
AcDbEntity
  8
Titleblock
  6
Continuous
370
    25
100
AcDbText
 10
14.6925
 20
1.0675
 30
0.0
 40
0.12
  1
9/9/2021
100
AcDbAttribute
280
     0
  2
DRAWN_DATE
 70
     0
280
     1
1001
FD_ATT_APPNAME
1005
1BE
  0
ATTRIB
  5
1D0
330
1AE
100
AcDbEntity
  8
Titleblock
  6
Continuous
370
    25
100
AcDbText
 10
12.0675
 20
2.1925
 30
0.0
 40
0.3048
  1
R13-0155-048-12
100
AcDbAttribute
280
     0
  2
TITLE_1
 70
     0
280
     1
1001
FD_ATT_APPNAME
1005
1BF
  0
ATTRIB
  5
1D1
330
1AE
100
AcDbEntity
  8
Titleblock
  6
Continuous
370
    25
100
AcDbText
 10
14.6925
 20
1.29994
 30
0.0
 40
0.12
  1
1:1
100
AcDbAttribute
280
     0
  2
SCALE
 70
     0
280
     1
1001
FD_ATT_APPNAME
1005
1C0
  0
SEQEND
  5
1D2
330
1AE
100
AcDbEntity
  8
Titleblock
  0
INSERT
  5
1D3
330
70
100
AcDbEntity
  8
Border
100
AcDbBlockReference
  2
ANSI_B_SHEET
 10
0.0
 20
0.0
 30
0.0
  0
DIMENSION
  5
1F4
330
70
100
AcDbEntity
  8
Dimensions
100
AcDbDimension
280
     0
  2
*D13
 10
9.449856
 20
5.292446
 30
0.0
 11
7.517811
 21
2.984616
 31
0.0
 70
   163
 71
     5
 42
1.968504
 73
     0
 74
     0
 75
     0
  3
Standard
100
AcDbDiametricDimension
 15
8.417737
 25
3.616219
 35
0.0
 40
0.0
1001
ACAD_DIMASSOC_CALC_DIMLFAC
1040
-1.0
1001
ACAD_DIMASSOC_DIMLFAC
1040
-1.0
1001
ACAD_DIMASSOC_OVERRIDDEN_DIMLFAC
1040
0.0
1001
ACAD_TC
1000
DSTYLE_TC
1002
{
1070
   176
1004
18000000020000008C8C8CC2000000000000000000000000
1070
   177
1004
18000000020000008C8C8CC2000000000000000000000000
1002
}
1001
ACAD_DSTYLE_DIMJAG_POSITION
1070
   387
1070
     0
1070
   389
1010
0.0
1020
0.0
1030
0.0
1001
ACAD_DSTYLE_DIMRADIAL_EXTENSION
1070
   387
1070
     1
1070
   388
1040
0.0
1070
   390
1040
0.0
1001
ACAD
1000
DSTYLE
1002
{
1070
   144
1040
1.0
1070
   176
1070
   256
1070
   177
1070
   256
1002
}
  0
DIMENSION
  5
1FF
330
70
100
AcDbEntity
  8
Dimensions
100
AcDbDimension
280
     0
  2
*D14
 10
9.305066
 20
4.777361
 30
0.0
 11
7.495592
 21
3.557806
 31
0.0
 70
   163
 71
     5
 42
0.984252
 73
     0
 74
     0
 75
     0
  3
Standard
100
AcDbDiametricDimension
 15
8.562527
 25
4.131304
 35
0.0
 40
0.0
1001
ACAD_DIMASSOC_CALC_DIMLFAC
1040
-1.0
1001
ACAD_DIMASSOC_DIMLFAC
1040
-1.0
1001
ACAD_DIMASSOC_OVERRIDDEN_DIMLFAC
1040
0.0
1001
ACAD_TC
1000
DSTYLE_TC
1002
{
1070
   176
1004
18000000020000008C8C8CC2000000000000000000000000
1070
   177
1004
18000000020000008C8C8CC2000000000000000000000000
1002
}
1001
ACAD_DSTYLE_DIMJAG_POSITION
1070
   387
1070
     0
1070
   389
1010
0.0
1020
0.0
1030
0.0
1001
ACAD_DSTYLE_DIMRADIAL_EXTENSION
1070
   387
1070
     1
1070
   388
1040
0.0
1070
   390
1040
0.0
1001
ACAD
1000
DSTYLE
1002
{
1070
   144
1040
1.0
1070
   176
1070
   256
1070
   177
1070
   256
1002
}
  0
DIMENSION
  5
209
330
70
100
AcDbEntity
  8
Dimensions
100
AcDbDimension
280
     0
  2
*D15
 10
9.209387
 20
2.701708
 30
0.0
 11
8.933796
 21
2.701708
 31
0.0
 70
    32
 71
     5
 42
0.551181
 73
     0
 74
     0
 75
     0
  3
Standard
100
AcDbAlignedDimension
 13
8.658206
 23
3.565561
 33
0.0
 14
9.209387
 24
3.565561
 34
0.0
 50
180.0
100
AcDbRotatedDimension
1001
ACAD_DIMASSOC_CALC_DIMLFAC
1040
-1.0
1001
ACAD_DIMASSOC_DIMLFAC
1040
-1.0
1001
ACAD_DIMASSOC_OVERRIDDEN_DIMLFAC
1040
0.0
1001
ACAD_TC
1000
DSTYLE_TC
1002
{
1070
   176
1004
18000000020000008C8C8CC2000000000000000000000000
1070
   177
1004
18000000020000008C8C8CC2000000000000000000000000
1002
}
1001
ACAD_DSTYLE_DIMJAG_POSITION
1070
   387
1070
     0
1070
   389
1010
0.0
1020
0.0
1030
0.0
1001
ACAD
1000
DSTYLE
1002
{
1070
   144
1040
1.0
1070
   176
1070
   256
1070
   177
1070
   256
1002
}
  0
DIMENSION
  5
217
330
70
100
AcDbEntity
  8
Dimensions
100
AcDbDimension
280
     0
  2
*D16
 10
11.292778
 20
4.454332
 30
0.0
 11
11.292778
 21
5.950274
 31
0.0
 70
    32
  1
**<>
 71
     5
 42
2.991882
 73
     0
 74
     0
 75
     0
  3
Standard
100
AcDbAlignedDimension
 13
10.212778
 23
7.446215
 33
0.0
 14
8.933796
 24
4.454332
 34
0.0
 50
90.0
100
AcDbRotatedDimension
1001
ACAD_DIMASSOC_CALC_DIMLFAC
1040
-1.0
1001
ACAD_DIMASSOC_DIMLFAC
1040
-1.0
1001
ACAD_DIMASSOC_OVERRIDDEN_DIMLFAC
1040
0.0
1001
ACAD_TC
1000
DSTYLE_TC
1002
{
1070
   177
1004
18000000020000008C8C8CC2000000000000000000000000
1070
   176
1004
18000000020000008C8C8CC2000000000000000000000000
1002
}
1001
ACAD_DSTYLE_DIMJAG_POSITION
1070
   387
1070
     0
1070
   389
1010
0.0
1020
0.0
1030
0.0
1001
ACAD
1000
DSTYLE
1002
{
1070
   177
1070
   256
1070
   176
1070
   256
1070
   144
1040
1.0
1002
}
  0
MTEXT
  5
225
330
70
100
AcDbEntity
  8
Annotations
100
AcDbMText
 10
9.502882
 20
3.45281
 30
0.0
 40
0.12
 41
2.849538
 46
0.0
 71
     1
 72
     5
  1
** Riser is adjustable 1.57" - 3.15"
 73
     1
 44
1.0
1001
ACAD
1000
ACAD_MTEXT_COLUMN_INFO_BEGIN
1070
    75
1070
     2
1070
    79
1070
     0
1070
    76
1070
     1
1070
    78
1070
     0
1070
    48
1040
2.849538
1070
    49
1040
0.6
1070
    50
1070
     1
1040
0.0
1000
ACAD_MTEXT_COLUMN_INFO_END
  0
DIMENSION
  5
227
330
70
100
AcDbEntity
  8
Dimensions
100
AcDbDimension
280
     0
  2
*D17
 10
2.33451
 20
8.526215
 30
0.0
 11
3.948813
 21
8.526215
 31
0.0
 70
    32
 71
     5
 42
3.228606
 73
     0
 74
     0
 75
     0
  3
Standard
100
AcDbAlignedDimension
 13
5.563116
 23
7.446215
 33
0.0
 14
2.33451
 24
5.399214
 34
0.0
100
AcDbRotatedDimension
1001
ACAD_DIMASSOC_CALC_DIMLFAC
1040
-1.0
1001
ACAD_DIMASSOC_DIMLFAC
1040
-1.0
1001
ACAD_DIMASSOC_OVERRIDDEN_DIMLFAC
1040
0.0
1001
ACAD_TC
1000
DSTYLE_TC
1002
{
1070
   177
1004
18000000020000008C8C8CC2000000000000000000000000
1070
   176
1004
18000000020000008C8C8CC2000000000000000000000000
1002
}
1001
ACAD_DSTYLE_DIMJAG_POSITION
1070
   387
1070
     0
1070
   389
1010
0.0
1020
0.0
1030
0.0
1001
ACAD
1000
DSTYLE
1002
{
1070
   177
1070
   256
1070
   176
1070
   256
1070
   144
1040
1.0
1002
}
  0
DIMENSION
  5
235
330
70
100
AcDbEntity
  8
Dimensions
100
AcDbDimension
280
     0
  2
*D18
 10
12.587155
 20
3.266057
 30
0.0
 11
13.536701
 21
3.266057
 31
0.0
 70
   160
 71
     5
 42
1.899092
 73
     0
 74
     0
 75
     0
  3
Standard
100
AcDbAlignedDimension
 13
14.486247
 23
4.116894
 33
0.0
 14
12.587155
 24
3.544333
 34
0.0
100
AcDbRotatedDimension
1001
ACAD_DIMASSOC_CALC_DIMLFAC
1040
-1.0
1001
ACAD_DIMASSOC_DIMLFAC
1040
-1.0
1001
ACAD_DIMASSOC_OVERRIDDEN_DIMLFAC
1040
0.0
1001
ACAD_DSTYLE_DIMJAG_POSITION
1070
   387
1070
     0
1070
   389
1010
0.0
1020
0.0
1030
0.0
1001
ACAD
1000
DSTYLE
1002
{
1070
   144
1040
1.0
1002
}
  0
DIMENSION
  5
243
330
70
100
AcDbEntity
  8
Dimensions
100
AcDbDimension
280
     0
  2
*D19
 10
4.612405
 20
8.409003
 30
0.0
 11
6.273847
 21
8.388031
 31
0.0
 70
   163
 71
     5
 42
1.901575
 73
     0
 74
     0
 75
     0
  3
Standard
100
AcDbDiametricDimension
 15
6.513828
 25
8.385002
 35
0.0
 40
0.0
1001
ACAD_DIMASSOC_CALC_DIMLFAC
1040
-1.0
1001
ACAD_DIMASSOC_DIMLFAC
1040
-1.0
1001
ACAD_DIMASSOC_OVERRIDDEN_DIMLFAC
1040
0.0
1001
ACAD_DSTYLE_DIMJAG_POSITION
1070
   387
1070
     0
1070
   389
1010
0.0
1020
0.0
1030
0.0
1001
ACAD_DSTYLE_DIMRADIAL_EXTENSION
1070
   387
1070
     1
1070
   388
1040
4.346565
1070
   390
1040
5.078213
1001
ACAD
1000
DSTYLE
1002
{
1070
   144
1040
1.0
1070
   288
1070
     1
1002
}
  0
CIRCLE
  5
34C
330
70
100
AcDbEntity
  8
Visible
100
AcDbCircle
 10
8.933796
 20
4.454332
 30
2.215972
 40
0.4921259842519685
  0
ARC
  5
34D
330
70
100
AcDbEntity
  8
Visible
100
AcDbCircle
 10
8.933796
 20
4.454332
 30
-1.130355
 40
0.984251968503937
100
AcDbArc
 50
106.260205
 51
73.739795
  0
SPLINE
  5
34E
330
70
100
AcDbEntity
  8
Visible
100
AcDbSpline
 70
     3
 71
     3
 72
    46
 73
    42
 74
     0
 42
0.000000001
 43
0.0000000001
 40
0.0
 40
0.0
 40
0.0
 40
0.0
 40
0.1176160583361983
 40
0.1176160583361983
 40
0.2352321166723966
 40
0.2352321166723966
 40
0.4704642333447932
 40
0.4704642333447932
 40
0.6974993473189302
 40
0.6974993473189302
 40
0.9245344612930672
 40
0.9245344612930672
 40
1.151569575267204
 40
1.151569575267204
 40
1.378604689241342
 40
1.378604689241342
 40
1.613836805913738
 40
1.613836805913738
 40
1.731452864249937
 40
1.731452864249937
 40
1.849068922586135
 40
1.849068922586135
 40
1.966684980922334
 40
1.966684980922334
 40
2.084301039258532
 40
2.084301039258532
 40
2.31953315593093
 40
2.31953315593093
 40
2.546568269905066
 40
2.546568269905066
 40
2.773603383879203
 40
2.773603383879203
 40
3.000638497853339
 40
3.000638497853339
 40
3.227673611827476
 40
3.227673611827476
 40
3.462905728499873
 40
3.462905728499873
 40
3.580521786836072
 40
3.580521786836072
 40
3.698137845172271
 40
3.698137845172271
 40
3.698137845172271
 40
3.698137845172271
 10
8.709386957236347
 20
6.945724692749664
 30
1.982371625477753
 10
8.709386957236347
 20
6.961159871009007
 30
1.982371625477753
 10
8.710984630419261
 20
6.976394743456699
 30
1.984667860977424
 10
8.717068836156613
 20
7.005848731077453
 30
1.992708910373039
 10
8.721554501738864
 20
7.020080074595551
 30
1.998409522988367
 10
8.738808845624589
 20
7.060626579320695
 30
2.017930391990375
 10
8.755575020344622
 20
7.084866193083248
 30
2.033963106800001
 10
8.79397400821108
 20
7.123265180948614
 30
2.061005232873867
 10
8.818219745126043
 20
7.140391239174782
 30
2.074262145109969
 10
8.873202566808686
 20
7.163856350952384
 30
2.092808835270261
 10
8.904001771676121
 20
7.170134141568561
 30
2.097991706943503
 10
8.963591040435858
 20
7.170134141568561
 30
2.097991706943503
 10
8.994390245303293
 20
7.163856350952384
 30
2.092808835270261
 10
9.049373066985936
 20
7.140391239174782
 30
2.074262145109969
 10
9.073618803900899
 20
7.123265180948614
 30
2.061005232873867
 10
9.112017791767357
 20
7.084866193083248
 30
2.033963106800001
 10
9.128783966487389
 20
7.060626579320695
 30
2.017930391990375
 10
9.146038310373114
 20
7.020080074595551
 30
1.998409522988367
 10
9.150523975955366
 20
7.005848731077453
 30
1.992708910373039
 10
9.156608181692718
 20
6.976394743456699
 30
1.984667860977424
 10
9.158205854875632
 20
6.961159871009007
 30
1.982371625477753
 10
9.158205854875632
 20
6.930289514490319
 30
1.982371625477753
 10
9.156608181692718
 20
6.915054642042628
 30
1.984667860977424
 10
9.150523975955366
 20
6.885600654421873
 30
1.992708910373039
 10
9.146038310373114
 20
6.871369310903775
 30
1.998409522988367
 10
9.128783966487389
 20
6.83082280617863
 30
2.017930391990375
 10
9.112017791767357
 20
6.806583192416078
 30
2.033963106800001
 10
9.073618803900899
 20
6.768184204550712
 30
2.061005232873867
 10
9.049373066985936
 20
6.751058146324545
 30
2.074262145109969
 10
8.994390245303293
 20
6.727593034546942
 30
2.092808835270261
 10
8.963591040435858
 20
6.721315243930765
 30
2.097991706943503
 10
8.904001771676121
 20
6.721315243930765
 30
2.097991706943503
 10
8.873202566808686
 20
6.727593034546942
 30
2.092808835270261
 10
8.818219745126043
 20
6.751058146324544
 30
2.074262145109969
 10
8.79397400821108
 20
6.768184204550712
 30
2.061005232873867
 10
8.755575020344622
 20
6.806583192416077
 30
2.033963106800001
 10
8.738808845624589
 20
6.83082280617863
 30
2.017930391990375
 10
8.721554501738864
 20
6.871369310903775
 30
1.998409522988367
 10
8.717068836156613
 20
6.885600654421873
 30
1.992708910373039
 10
8.710984630419261
 20
6.915054642042628
 30
1.984667860977424
 10
8.709386957236347
 20
6.930289514490319
 30
1.982371625477753
 10
8.709386957236347
 20
6.945724692749664
 30
1.982371625477753
1001
ACAD_VIEW_EDGE_ID
1071
        2
1071
       -1
1071
        4
1071
        0
  0
LINE
  5
34F
330
70
100
AcDbEntity
  8
Visible
100
AcDbLine
 10
9.197899
 20
6.752174
 30
1.901141
 11
9.197899
 21
7.117335
 31
1.901141
210
0.0
220
1.0
230
0.0
  0
LINE
  5
350
330
70
100
AcDbEntity
  8
Visible
100
AcDbLine
 10
8.669694
 20
6.890021
 30
1.901141
 11
8.669694
 21
6.752174
 31
1.901141
210
0.0
220
1.0
230
0.0
  0
SPLINE
  5
351
330
70
100
AcDbEntity
  8
Visible
100
AcDbSpline
 70
     0
 71
     3
 72
     8
 73
     4
 74
     0
 42
0.000000001
 43
0.0000000001
 40
0.0
 40
0.0
 40
0.0
 40
0.0
 40
0.2012950771902999
 40
0.2012950771902999
 40
0.2012950771902999
 40
0.2012950771902999
 10
9.209386957236347
 20
6.762991290051125
 30
1.822401155761326
 10
9.209386957236347
 20
6.762991290051125
 30
1.848817832558779
 10
9.205493879660934
 20
6.759043467919349
 30
1.875667054453515
 10
9.197898923082902
 20
6.752173571210464
 30
1.901141313242987
1001
ACAD_VIEW_EDGE_ID
1071
       10
1071
       -1
1071
        4
1071
        0
  0
SPLINE
  5
352
330
70
100
AcDbEntity
  8
Visible
100
AcDbSpline
 70
     0
 71
     3
 72
     8
 73
     4
 74
     0
 42
0.000000001
 43
0.0000000001
 40
2.008562787254438
 40
2.008562787254438
 40
2.008562787254438
 40
2.008562787254438
 40
2.209857864444705
 40
2.209857864444705
 40
2.209857864444705
 40
2.209857864444705
 10
8.669693889029076
 20
6.752173571210487
 30
1.901141313242987
 10
8.662098932451044
 20
6.759043467919371
 30
1.875667054453515
 10
8.658205854875632
 20
6.762991290051125
 30
1.848817832558779
 10
8.658205854875632
 20
6.762991290051125
 30
1.822401155761326
1001
ACAD_VIEW_EDGE_ID
1071
       14
1071
       -1
1071
        4
1071
        0
  0
SPLINE
  5
353
330
70
100
AcDbEntity
  8
Visible
100
AcDbSpline
 70
     0
 71
     3
 72
    14
 73
    10
 74
     0
 42
0.000000001
 43
0.0000000001
 40
-1.161707484134181
 40
-1.161707484134181
 40
-1.161707484134181
 40
-1.161707484134181
 40
-0.8798978209865015
 40
-0.8798978209865015
 40
-0.5980881578388218
 40
-0.5980881578388218
 40
-0.2990440789194109
 40
-0.2990440789194109
 40
-0.2133789638241181
 40
-0.2133789638241181
 40
-0.2133789638241181
 40
-0.2133789638241181
 10
8.933796406055989
 20
7.260685322670923
 30
2.097991706943503
 10
8.896813510629726
 20
7.260685322670923
 30
2.097991706943503
 10
8.858798935356389
 20
7.253731325658062
 30
2.090120964803645
 10
8.791317205745144
 20
7.228907277578155
 30
2.06114408490248
 10
8.761771463783588
 20
7.211155223283235
 30
2.040120108631526
 10
8.714680216540727
 20
7.174067968525586
 30
1.993028861390484
 10
8.694263730239981
 20
7.151592469474087
 30
1.963294979206693
 10
8.676246105718746
 20
7.127146228304412
 30
1.921005203721506
 10
8.672741570266225
 20
7.122020541446001
 30
1.911327512247225
 10
8.669771387651053
 20
7.117454095609859
 30
1.901400786729936
1001
ACAD_VIEW_EDGE_ID
1071
       20
1071
       -1
1071
        4
1071
        0
  0
SPLINE
  5
354
330
70
100
AcDbEntity
  8
Visible
100
AcDbSpline
 70
     0
 71
     3
 72
    14
 73
    10
 74
     0
 42
0.000000001
 43
0.0000000001
 40
2.53604769841391
 40
2.53604769841391
 40
2.53604769841391
 40
2.53604769841391
 40
2.622459047187773
 40
2.622459047187773
 40
2.921503126107184
 40
2.921503126107184
 40
3.203312789254864
 40
3.203312789254864
 40
3.485122452402544
 40
3.485122452402544
 40
3.485122452402544
 40
3.485122452402544
 10
9.19789892308654
 20
7.11733488737285
 30
1.90114131323753
 10
9.19491225974707
 20
7.121931265269353
 30
1.911158886618068
 10
9.191381655800796
 20
7.127098809088133
 30
1.920923172787297
 10
9.173329081871997
 20
7.151592469474087
 30
1.963294979206693
 10
9.152912595571251
 20
7.174067968525586
 30
1.993028861390484
 10
9.10582134832839
 20
7.211155223283235
 30
2.040120108631526
 10
9.076275606366834
 20
7.228907277578155
 30
2.06114408490248
 10
9.008793876755589
 20
7.253731325658062
 30
2.090120964803645
 10
8.970779301482252
 20
7.260685322670923
 30
2.097991706943503
 10
8.933796406055989
 20
7.260685322670923
 30
2.097991706943503
1001
ACAD_VIEW_EDGE_ID
1071
       21
1071
       -1
1071
        4
1071
        0
  0
ARC
  5
355
330
70
100
AcDbEntity
  8
Visible
100
AcDbCircle
 10
-8.933796
 20
1.822401
 30
3.565561
 40
0.2755905511811029
210
0.0
220
1.0
230
0.0
100
AcDbArc
 50
0.0
 51
180.0
  0
LINE
  5
356
330
70
100
AcDbEntity
  8
Visible
100
AcDbLine
 10
8.658206
 20
3.565561
 30
1.822401
 11
8.658206
 21
4.04661
 31
1.822401
210
0.0
220
1.0
230
0.0
  0
LINE
  5
357
330
70
100
AcDbEntity
  8
Visible
100
AcDbLine
 10
8.658206
 20
4.862055
 30
1.822401
 11
8.658206
 21
6.762991
 31
1.822401
210
0.0
220
1.0
230
0.0
  0
LINE
  5
358
330
70
100
AcDbEntity
  8
Visible
100
AcDbLine
 10
9.209387
 20
3.565561
 30
1.822401
 11
9.209387
 21
4.04661
 31
1.822401
210
0.0
220
1.0
230
0.0
  0
LINE
  5
359
330
70
100
AcDbEntity
  8
Visible
100
AcDbLine
 10
9.209387
 20
4.862055
 30
1.822401
 11
9.209387
 21
6.762991
 31
1.822401
210
0.0
220
1.0
230
0.0
  0
ARC
  5
35A
330
70
100
AcDbEntity
  8
Visible
100
AcDbCircle
 10
-8.933796
 20
3.973284
 30
-1.822401
 40
0.4921259842519688
210
0.0000000000000001
220
0.0
230
-1.0
100
AcDbArc
 50
235.944202
 51
304.055798
  0
SPLINE
  5
35B
330
70
100
AcDbEntity
  8
Visible
100
AcDbSpline
210
1.0
220
0.0
230
0.0
 70
    12
 71
     2
 72
     6
 73
     3
 74
     0
 42
0.000000001
 43
0.0000000001
 40
0.1355501852963379
 40
0.1355501852963379
 40
0.1355501852963379
 40
0.453233872459803
 40
0.453233872459803
 40
0.453233872459803
 10
9.014150862240057
 20
6.992299095079224
 30
2.08576069530136
 41
1.232050807568715
 10
9.014150862240057
 20
6.946838443961693
 30
2.063030369741682
 41
1.422649730812052
 10
9.014150862240057
 20
6.901377792844161
 30
2.08576069530136
 41
1.232050807568715
1001
ACAD_VIEW_EDGE_ID
1071
        0
1071
       -1
1071
        5
1071
        0
  0
ARC
  5
35C
330
70
100
AcDbEntity
  8
Visible
100
AcDbCircle
 10
8.935411
 20
6.946838
 30
2.085761
 40
0.0909213022345877
100
AcDbArc
 50
330.0
 51
30.0
  0
CIRCLE
  5
35D
330
70
100
AcDbEntity
  8
Visible
100
AcDbCircle
 10
8.935411
 20
6.946838
 30
1.975328
 40
0.2066929133858268
  0
CIRCLE
  5
35E
330
70
100
AcDbEntity
  8
Visible
100
AcDbCircle
 10
8.935411
 20
6.946838
 30
2.085761
 40
0.1181102362204725
  0
ARC
  5
35F
330
70
100
AcDbEntity
  8
Visible
100
AcDbCircle
 10
8.935411
 20
6.946838
 30
2.085761
 40
0.0909213022345878
100
AcDbArc
 50
150.0
 51
210.0
  0
ARC
  5
360
330
70
100
AcDbEntity
  8
Visible
100
AcDbCircle
 10
8.935411
 20
6.946838
 30
2.085761
 40
0.0909213022345859
100
AcDbArc
 50
90.0
 51
150.0
  0
ARC
  5
361
330
70
100
AcDbEntity
  8
Visible
100
AcDbCircle
 10
8.935411
 20
6.946838
 30
2.085761
 40
0.0909213022345862
100
AcDbArc
 50
30.0
 51
90.0
  0
ARC
  5
362
330
70
100
AcDbEntity
  8
Visible
100
AcDbCircle
 10
8.935411
 20
6.946838
 30
2.085761
 40
0.0909213022345863
100
AcDbArc
 50
270.0
 51
330.0
  0
ARC
  5
363
330
70
100
AcDbEntity
  8
Visible
100
AcDbCircle
 10
8.935411
 20
6.946838
 30
2.085761
 40
0.0909213022345862
100
AcDbArc
 50
210.0
 51
270.0
  0
SPLINE
  5
364
330
70
100
AcDbEntity
  8
Visible
100
AcDbSpline
210
0.5000000000042244
220
0.8660254037819996
230
-0.0000000000200231
 70
    12
 71
     2
 72
     6
 73
     3
 74
     0
 42
0.000000001
 43
0.0000000001
 40
-0.45323387245921
 40
-0.45323387245921
 40
-0.45323387245921
 40
-0.1355501852959807
 40
-0.1355501852959807
 40
-0.1355501852959807
 10
9.014150862240057
 20
6.992299095078867
 30
2.08576069530136
 41
1.232050807568012
 10
8.974780783499227
 20
7.015029420637633
 30
2.063030369741682
 41
1.422649730811242
 10
8.935410704760215
 20
7.0377597461964
 30
2.08576069530136
 41
1.232050807568012
1001
ACAD_VIEW_EDGE_ID
1071
       23
1071
       -1
1071
        5
1071
        0
  0
SPLINE
  5
365
330
70
100
AcDbEntity
  8
Visible
100
AcDbSpline
210
-0.4999999999955544
220
0.8660254037870053
230
0.0
 70
    12
 71
     2
 72
     6
 73
     3
 74
     0
 42
0.000000001
 43
0.0000000001
 40
-0.4532338724592102
 40
-0.4532338724592102
 40
-0.4532338724592102
 40
-0.1355501852959811
 40
-0.1355501852959811
 40
-0.1355501852959811
 10
8.935410704760215
 20
7.0377597461964
 30
2.08576069530136
 41
1.232050807568011
 10
8.896040626019384
 20
7.015029420637634
 30
2.063030369741682
 41
1.422649730811238
 10
8.856670547278554
 20
6.992299095078868
 30
2.08576069530136
 41
1.232050807568011
1001
ACAD_VIEW_EDGE_ID
1071
       24
1071
       -1
1071
        5
1071
        0
  0
SPLINE
  5
366
330
70
100
AcDbEntity
  8
Visible
100
AcDbSpline
210
1.0
220
0.0
230
0.0
 70
    12
 71
     2
 72
     6
 73
     3
 74
     0
 42
0.000000001
 43
0.0000000001
 40
-0.4532338724592097
 40
-0.4532338724592097
 40
-0.4532338724592097
 40
-0.1355501852959807
 40
-0.1355501852959807
 40
-0.1355501852959807
 10
8.856670547278554
 20
6.992299095079226
 30
2.08576069530136
 41
1.232050807568013
 10
8.856670547278554
 20
6.946838443961693
 30
2.063030369741682
 41
1.422649730811242
 10
8.856670547278554
 20
6.901377792844161
 30
2.08576069530136
 41
1.232050807568012
1001
ACAD_VIEW_EDGE_ID
1071
       25
1071
       -1
1071
        5
1071
        0
  0
SPLINE
  5
367
330
70
100
AcDbEntity
  8
Visible
100
AcDbSpline
210
0.4999999999955544
220
0.8660254037870055
230
0.0000000000000339
 70
    12
 71
     2
 72
     6
 73
     3
 74
     0
 42
0.000000001
 43
0.0000000001
 40
-0.45323387245921
 40
-0.45323387245921
 40
-0.45323387245921
 40
-0.1355501852959808
 40
-0.1355501852959808
 40
-0.1355501852959808
 10
8.856670547278554
 20
6.901377792844519
 30
2.08576069530136
 41
1.232050807568012
 10
8.896040626019384
 20
6.878647467285754
 30
2.063030369741682
 41
1.422649730811241
 10
8.935410704760215
 20
6.855917141726987
 30
2.08576069530136
 41
1.232050807568012
1001
ACAD_VIEW_EDGE_ID
1071
       26
1071
       -1
1071
        5
1071
        0
  0
SPLINE
  5
368
330
70
100
AcDbEntity
  8
Visible
100
AcDbSpline
210
-0.5000000000042319
220
0.8660254037819953
230
0.0000000000199724
 70
    12
 71
     2
 72
     6
 73
     3
 74
     0
 42
0.000000001
 43
0.0000000001
 40
-0.4532338724592098
 40
-0.4532338724592098
 40
-0.4532338724592098
 40
-0.1355501852959808
 40
-0.1355501852959808
 40
-0.1355501852959808
 10
8.935410704760215
 20
6.855917141726987
 30
2.08576069530136
 41
1.232050807568012
 10
8.974780783499227
 20
6.878647467285753
 30
2.063030369741682
 41
1.422649730811241
 10
9.014150862240057
 20
6.90137779284452
 30
2.08576069530136
 41
1.232050807568012
1001
ACAD_VIEW_EDGE_ID
1071
       27
1071
       -1
1071
        5
1071
        0
  0
SPLINE
  5
369
330
70
100
AcDbEntity
  8
Visible
100
AcDbSpline
 70
     1
 71
     3
 72
    38
 73
    34
 74
     0
 42
0.000000001
 43
0.0000000001
 40
0.0
 40
0.0
 40
0.0
 40
0.0
 40
0.1052689684851128
 40
0.1052689684851128
 40
0.2105379369702256
 40
0.2105379369702256
 40
0.3161789691053775
 40
0.3161789691053775
 40
0.4218200012405294
 40
0.4218200012405294
 40
0.5286191472956594
 40
0.5286191472956594
 40
0.6354182933507896
 40
0.6354182933507896
 40
0.7407679423868473
 40
0.7407679423868473
 40
0.846117591422905
 40
0.846117591422905
 40
0.951467240458963
 40
0.951467240458963
 40
1.05681688949502
 40
1.05681688949502
 40
1.163616035550151
 40
1.163616035550151
 40
1.270415181605281
 40
1.270415181605281
 40
1.376094666302667
 40
1.376094666302667
 40
1.481774151000053
 40
1.481774151000053
 40
1.587004674487311
 40
1.587004674487311
 40
1.692235197974569
 40
1.692235197974569
 40
1.692235197974569
 40
1.692235197974569
 10
8.044636856522629
 20
7.348041922668643
 30
1.845667124554893
 10
8.030822031261777
 20
7.348041922668643
 30
1.845667124554893
 10
8.016086878624264
 20
7.348091093455133
 30
1.848428811535995
 10
7.988984200845152
 20
7.348427083331834
 30
1.859657026758213
 10
7.976616889807701
 20
7.348729507563724
 30
1.868123599408136
 10
7.957058829251764
 20
7.349760364657308
 30
1.887681659964073
 10
7.948585683363489
 20
7.350561685170633
 30
1.900084451403017
 10
7.937375432291446
 20
7.352922104442594
 30
1.927202265069354
 10
7.934636856523866
 20
7.354496812559698
 30
1.941915318382598
 10
7.934636856523866
 20
7.358031011891792
 30
1.969569688038973
 10
7.937429653560684
 20
7.360232447291709
 30
1.984355352802595
 10
7.948735149939238
 20
7.364834676286485
 30
2.011517472488776
 10
7.957246452731851
 20
7.367220410228131
 30
2.023897058134025
 10
7.976787024130317
 20
7.371208898334346
 30
2.043323381869413
 10
7.989084863769676
 20
7.373084128183604
 30
2.051727431162362
 10
8.01609571325207
 20
7.375647905388149
 30
2.062900557331886
 10
8.03081144326461
 20
7.376318699413976
 30
2.065667124554238
 10
8.058462269782467
 20
7.376318699413976
 30
2.065667124554238
 10
8.073177999795007
 20
7.375647905388149
 30
2.062900557331886
 10
8.100188849277401
 20
7.373084128183604
 30
2.051727431162362
 10
8.112486688914941
 20
7.371208898334346
 30
2.043323381869413
 10
8.132027260315226
 20
7.367220410228132
 30
2.023897058134025
 10
8.140538563106019
 20
7.364834676286485
 30
2.011517472488776
 10
8.151844059484574
 20
7.360232447291709
 30
1.984355352802595
 10
8.154636856523211
 20
7.358031011891792
 30
1.969569688038973
 10
8.154636856523211
 20
7.354496172854814
 30
1.941910312825712
 10
8.151896300190855
 20
7.352921049350824
 30
1.927192228371495
 10
8.140678526275223
 20
7.350560322862724
 30
1.900066713527849
 10
8.132199838852102
 20
7.349759089611302
 30
1.887661253598707
 10
8.112636404559452
 20
7.348728912408533
 30
1.868108531016332
 10
8.100271743805933
 20
7.348426767148465
 30
1.859647491961368
 10
8.073176752970539
 20
7.348091064484679
 30
1.84842681081318
 10
8.058446636508961
 20
7.348041922668643
 30
1.845667124554893
 10
8.044636856522629
 20
7.348041922668643
 30
1.845667124554893
1001
ACAD_VIEW_EDGE_ID
1071
        0
1071
       -1
1071
        8
1071
        0
  0
LINE
  5
36A
330
70
100
AcDbEntity
  8
Visible
100
AcDbLine
 10
8.666016
 20
6.934404
 30
1.901401
 11
8.666016
 21
7.139922
 31
1.901401
210
0.0
220
1.0
230
0.0
  0
SPLINE
  5
36B
330
70
100
AcDbEntity
  8
Visible
100
AcDbSpline
 70
     0
 71
     3
 72
    14
 73
    10
 74
     0
 42
0.000000001
 43
0.0000000001
 40
0.207287916178884
 40
0.207287916178884
 40
0.207287916178884
 40
0.207287916178884
 40
0.2901318620391773
 40
0.2901318620391773
 40
0.5802637240783547
 40
0.5802637240783547
 40
0.8595060823891273
 40
0.8595060823891273
 40
1.1387484406999
 40
1.1387484406999
 40
1.1387484406999
 40
1.1387484406999
 10
8.666016242497789
 20
7.139921674010199
 30
1.90140078627337
 10
8.668994779089189
 20
7.143749268699973
 30
1.91139110171025
 10
8.672519516667307
 20
7.148105710354672
 30
1.921142326962581
 10
8.690663951429087
 20
7.169173750592776
 30
1.963763269835908
 10
8.71122882974123
 20
7.189252349820348
 30
1.993514594149019
 10
8.758363328521227
 20
7.223014900372023
 30
2.040649092929015
 10
8.788105764040665
 20
7.23951502016891
 30
2.061679449625444
 10
8.855622099667016
 20
7.262597040091392
 30
2.090518693154081
 10
8.893472780744559
 20
7.269049498637945
 30
2.098251179973885
 10
8.930118759526521
 20
7.269049498637945
 30
2.098251179973885
1001
ACAD_VIEW_EDGE_ID
1071
       14
1071
       -1
1071
        8
1071
        0
  0
SPLINE
  5
36C
330
70
100
AcDbEntity
  8
Visible
100
AcDbSpline
 70
     0
 71
     3
 72
    14
 73
    10
 74
     0
 42
0.000000001
 43
0.0000000001
 40
1.1387484406999
 40
1.1387484406999
 40
1.1387484406999
 40
1.1387484406999
 40
1.417990799010673
 40
1.417990799010673
 40
1.697233157321445
 40
1.697233157321445
 40
1.987365019360623
 40
1.987365019360623
 40
2.070208965220916
 40
2.070208965220916
 40
2.070208965220916
 40
2.070208965220916
 10
8.930118759526521
 20
7.269049498637945
 30
2.098251179973885
 10
8.966764738306665
 20
7.269049498637945
 30
2.098251179973885
 10
9.004615419384208
 20
7.262597040091392
 30
2.090518693154081
 10
9.072131755010559
 20
7.23951502016891
 30
2.061679449625444
 10
9.101874190529997
 20
7.223014900372023
 30
2.040649092929015
 10
9.149008689309994
 20
7.189252349820348
 30
1.993514594149019
 10
9.169573567622137
 20
7.169173750592776
 30
1.963763269835908
 10
9.187718002383917
 20
7.148105710354672
 30
1.921142326962581
 10
9.191242739962035
 20
7.143749268699973
 30
1.91139110171025
 10
9.194221276553435
 20
7.139921674010199
 30
1.90140078627337
1001
ACAD_VIEW_EDGE_ID
1071
       15
1071
       -1
1071
        8
1071
        0
  0
LINE
  5
36D
330
70
100
AcDbEntity
  8
Visible
100
AcDbLine
 10
9.194221
 20
7.139922
 30
1.901401
 11
9.194221
 21
7.122866
 31
1.901401
210
0.0
220
1.0
230
0.0
  0
SPLINE
  5
36E
330
70
100
AcDbEntity
  8
Visible
100
AcDbSpline
 70
     0
 71
     3
 72
    12
 73
     8
 74
     0
 42
0.000000001
 43
0.0000000001
 40
0.0
 40
0.0
 40
0.0
 40
0.0
 40
0.4838518415719354
 40
0.4838518415719354
 40
0.8530400771407038
 40
0.8530400771407038
 40
0.9694177343031167
 40
0.9694177343031167
 40
0.9694177343031167
 40
0.9694177343031167
 10
7.780851821333271
 20
7.509129182628255
 30
2.162775449347464
 10
7.738558762961474
 20
7.492186567253133
 30
2.118546585887088
 10
7.705174453629297
 20
7.47601560290076
 30
2.066169540248665
 10
7.664849701342973
 20
7.455635532145318
 30
1.963630739330255
 10
7.653795796764825
 20
7.44963539385117
 30
1.916610566544477
 10
7.648135336112318
 20
7.446581669896432
 30
1.853145154314915
 10
7.647457459637735
 20
7.44621843017153
 30
1.837897444835107
 10
7.647456725329902
 20
7.446219840768518
 30
1.822660629381061
1001
ACAD_VIEW_EDGE_ID
1071
       21
1071
       -1
1071
        8
1071
        0
  0
SPLINE
  5
36F
330
70
100
AcDbEntity
  8
Visible
100
AcDbSpline
 70
     0
 71
     3
 72
    12
 73
     8
 74
     0
 42
0.000000001
 43
0.0000000001
 40
0.9694177343031149
 40
0.9694177343031149
 40
0.9694177343031149
 40
0.9694177343031149
 40
1.171409479092341
 40
1.171409479092341
 40
1.607240999172379
 40
1.607240999172379
 40
1.93858701140477
 40
1.93858701140477
 40
1.93858701140477
 40
1.93858701140477
 10
10.21278079372132
 20
7.446219840768518
 30
1.822660628204175
 10
10.21278206822899
 20
7.446222289081655
 30
1.849106520083296
 10
10.21074344742737
 20
7.447323248931873
 30
1.875519593631906
 10
10.19789205225788
 20
7.454202262424516
 30
1.958034226567178
 10
10.17986002847647
 20
7.463850513600001
 30
2.011863337149407
 10
10.13319517729906
 20
7.486230945709337
 30
2.098304571558401
 10
10.10835942677658
 20
7.497522295675116
 30
2.13247555721864
 10
10.07938569771795
 20
7.509129182628257
 30
2.162775449347464
1001
ACAD_VIEW_EDGE_ID
1071
       30
1071
       -1
1071
        8
1071
        0
  0
SPLINE
  5
370
330
70
100
AcDbEntity
  8
Visible
100
AcDbSpline
 70
     0
 71
     3
 72
    14
 73
    10
 74
     0
 42
0.000000001
 43
0.0000000001
 40
-0.9930250425076676
 40
-0.9930250425076676
 40
-0.9930250425076676
 40
-0.9930250425076676
 40
-0.9641267307338061
 40
-0.9641267307338061
 40
-0.4820633653669031
 40
-0.4820633653669031
 40
-0.2410316826834515
 40
-0.2410316826834515
 40
0.0
 40
0.0
 40
0.0
 40
0.0
 10
7.780851821333271
 20
7.509129182628258
 30
2.162775449347464
 10
7.783398618137653
 20
7.510149430403492
 30
2.16543881616235
 10
7.785964884094937
 20
7.51116827411313
 30
2.168062640357675
 10
7.831646626620567
 20
7.529134219176673
 30
2.213744382881486
 10
7.88614972864525
 20
7.547858618137959
 30
2.251354909305518
 10
7.976705101695188
 20
7.568455299821365
 30
2.289258330412849
 10
8.008352459501111
 20
7.574064675270259
 30
2.298922444455456
 10
8.072449908111593
 20
7.58158671088208
 30
2.311689327194471
 10
8.104902659435538
 20
7.583485998641094
 30
2.314786613043906
 10
8.136534113857123
 20
7.583485998641094
 30
2.314786613043906
1001
ACAD_VIEW_EDGE_ID
1071
       38
1071
       -1
1071
        8
1071
        0
  0
LINE
  5
371
330
70
100
AcDbEntity
  8
Visible
100
AcDbLine
 10
8.136534
 20
7.583486
 30
2.314787
 11
9.723703
 21
7.583486
 31
2.314787
210
0.0
220
1.0
230
0.0
  0
SPLINE
  5
372
330
70
100
AcDbEntity
  8
Visible
100
AcDbSpline
 70
     0
 71
     3
 72
    14
 73
    10
 74
     0
 42
0.000000001
 43
0.0000000001
 40
0.0
 40
0.0
 40
0.0
 40
0.0
 40
0.2410316826834516
 40
0.2410316826834516
 40
0.4820633653669033
 40
0.4820633653669033
 40
0.9641267307338065
 40
0.9641267307338065
 40
0.993025042507703
 40
0.993025042507703
 40
0.993025042507703
 40
0.993025042507703
 10
9.7237034051941
 20
7.583485998641096
 30
2.314786613043906
 10
9.755334859615686
 20
7.583485998641096
 30
2.314786613043906
 10
9.787787610939631
 20
7.581586710882081
 30
2.311689327194471
 10
9.851885059550113
 20
7.57406467527026
 30
2.298922444455456
 10
9.883532417356036
 20
7.568455299821366
 30
2.289258330412849
 10
9.974087790405974
 20
7.547858618137959
 30
2.251354909305518
 10
10.02859089243065
 20
7.529134219176673
 30
2.213744382881486
 10
10.07427263495628
 20
7.51116827411313
 30
2.168062640357675
 10
10.07683890091357
 20
7.51014943040349
 30
2.16543881616235
 10
10.07938569771795
 20
7.509129182628254
 30
2.162775449347464
1001
ACAD_VIEW_EDGE_ID
1071
       40
1071
       -1
1071
        8
1071
        0
  0
ARC
  5
373
330
70
100
AcDbEntity
  8
Visible
100
AcDbCircle
 10
-8.930119
 20
6.934404
 30
-1.901401
 40
0.2641025170275319
210
0.0000000000003682
220
0.0000000000000468
230
-1.0
100
AcDbArc
 50
350.326566
 51
0.0
  0
ARC
  5
374
330
70
100
AcDbEntity
  8
Visible
100
AcDbCircle
 10
-9.245079
 20
7.30842
 30
-1.822661
 40
0.0393700787401575
210
0.0000000000000001
220
-0.0000000000000221
230
-1.0
100
AcDbArc
 50
0.0
 51
90.0
  0
ARC
  5
375
330
70
100
AcDbEntity
  8
Visible
100
AcDbCircle
 10
8.615158
 20
7.30842
 30
1.822661
 40
0.0393700787401575
100
AcDbArc
 50
0.0
 51
90.0
  0
LINE
  5
376
330
70
100
AcDbEntity
  8
Visible
100
AcDbLine
 10
10.089845
 20
7.34779
 30
1.822661
 11
9.245079
 21
7.34779
 31
1.822661
210
0.0
220
1.0
230
0.0
  0
LINE
  5
377
330
70
100
AcDbEntity
  8
Visible
100
AcDbLine
 10
8.615158
 20
7.34779
 30
1.822661
 11
7.770392
 21
7.34779
 31
1.822661
210
0.0
220
1.0
230
0.0
  0
LINE
  5
378
330
70
100
AcDbEntity
  8
Visible
100
AcDbLine
 10
9.205709
 20
7.30842
 30
1.822661
 11
9.205709
 21
6.934404
 31
1.822661
210
0.0
220
1.0
230
0.0
  0
LINE
  5
379
330
70
100
AcDbEntity
  8
Visible
100
AcDbLine
 10
8.654528
 20
7.30842
 30
1.822661
 11
8.654528
 21
6.934404
 31
1.822661
210
0.0
220
1.0
230
0.0
  0
ARC
  5
37A
330
70
100
AcDbEntity
  8
Visible
100
AcDbCircle
 10
-7.770392
 20
7.473774
 30
-1.822661
 40
0.125984251968504
210
-0.0000000000000047
220
0.0
230
-1.0
100
AcDbArc
 50
270.0
 51
347.364375
  0
ARC
  5
37B
330
70
100
AcDbEntity
  8
Visible
100
AcDbCircle
 10
10.089845
 20
7.473774
 30
1.822661
 40
0.125984251968504
100
AcDbArc
 50
270.0
 51
347.364375
  0
ARC
  5
37C
330
70
100
AcDbEntity
  8
Visible
100
AcDbCircle
 10
-8.930119
 20
6.934404
 30
-1.822661
 40
0.2755905511811024
210
0.0000000000000001
220
0.0
230
-1.0
100
AcDbArc
 50
180.0
 51
193.673283
  0
ARC
  5
37D
330
70
100
AcDbEntity
  8
Visible
100
AcDbCircle
 10
-8.930119
 20
6.934404
 30
-1.822661
 40
0.2755905511811024
210
0.0000000000000001
220
0.0
230
-1.0
100
AcDbArc
 50
340.903736
 51
0.0
  0
LINE
  5
37E
330
70
100
AcDbEntity
  8
Visible
100
AcDbLine
 10
1.657345
 20
5.434428
 30
0.086677
 11
1.499865
 21
5.434428
 31
0.086677
210
0.0
220
1.0
230
0.0
  0
ARC
  5
37F
330
70
100
AcDbEntity
  8
Visible
100
AcDbCircle
 10
-4.454332
 20
-0.003678
 30
-1.499865
 40
0.9842519685039489
210
-1.0
220
0.0
230
-0.0000000000002969
100
AcDbArc
 50
174.732832
 51
180.0
  0
ARC
  5
380
330
70
100
AcDbEntity
  8
Visible
100
AcDbCircle
 10
-4.454332
 20
-0.003678
 30
-1.657345
 40
0.9842519685039372
210
-1.0
220
0.0000000000000003
230
-0.0000000000002969
100
AcDbArc
 50
0.0
 51
174.732832
  0
ARC
  5
381
330
70
100
AcDbEntity
  8
Visible
100
AcDbCircle
 10
-4.454332
 20
-0.003678
 30
-1.421125
 40
0.9842519685039368
210
-1.0
220
-0.0000000000000003
230
-0.0000000000002969
100
AcDbArc
 50
0.0
 51
180.0
  0
LINE
  5
382
330
70
100
AcDbEntity
  8
Visible
100
AcDbLine
 10
1.657345
 20
3.47008
 30
-0.003678
 11
1.421125
 21
3.47008
 31
-0.003678
210
0.0
220
1.0
230
0.0
  0
LINE
  5
383
330
70
100
AcDbEntity
  8
Visible
100
AcDbLine
 10
1.499865
 20
5.438584
 30
-0.003678
 11
1.421125
 21
5.438584
 31
-0.003678
210
0.0
220
1.0
230
0.0
  0
SPLINE
  5
384
330
70
100
AcDbEntity
  8
Visible
100
AcDbSpline
 70
     0
 71
     3
 72
    22
 73
    18
 74
     0
 42
0.000000001
 43
0.0000000001
 40
0.3196412798768675
 40
0.3196412798768675
 40
0.3196412798768675
 40
0.3196412798768675
 40
0.3995504610194669
 40
0.3995504610194669
 40
0.4794596421620663
 40
0.4794596421620663
 40
0.5593711009579005
 40
0.5593711009579005
 40
0.639282559753735
 40
0.639282559753735
 40
0.7191940185495694
 40
0.7191940185495694
 40
0.7991054773454036
 40
0.7991054773454036
 40
0.879014658488003
 40
0.879014658488003
 40
0.9589238396306026
 40
0.9589238396306026
 40
0.9589238396306026
 40
0.9589238396306026
 10
5.671856502269292
 20
4.454332362738144
 30
0.4884483377263678
 10
5.671856502269292
 20
4.443845593559325
 30
0.4884483377263678
 10
5.66975658710362
 20
4.432673523426958
 30
0.4880790861170681
 10
5.661244446437194
 20
4.412144536084213
 30
0.4867445967574895
 10
5.654833329013854
 20
4.402785956743782
 30
0.4857979255975807
 10
5.640056240978083
 20
4.388008868708807
 30
0.4840154587909638
 10
5.630697751974366
 20
4.381597916458858
 30
0.4830627901137632
 10
5.610169075245721
 20
4.373085895697474
 30
0.4817145291035559
 10
5.598997113660516
 20
4.37098590604523
 30
0.4813392114629096
 10
5.578022977493674
 20
4.37098590604523
 30
0.4813392114629096
 10
5.566851015908468
 20
4.373085895697474
 30
0.4817145291035559
 10
5.546322339179823
 20
4.381597916458858
 30
0.4830627901137632
 10
5.536963850176107
 20
4.388008868708807
 30
0.4840154587909638
 10
5.522186762140336
 20
4.402785956743782
 30
0.4857979255975807
 10
5.515775644716995
 20
4.412144536084213
 30
0.4867445967574895
 10
5.50726350405057
 20
4.432673523426958
 30
0.4880790861170681
 10
5.505163588883078
 20
4.443845593559325
 30
0.4884483377263678
 10
5.505163588883078
 20
4.454332362738144
 30
0.4884483377263678
1001
ACAD_VIEW_EDGE_ID
1071
        3
1071
       -1
1071
        3
1071
        0
  0
SPLINE
  5
385
330
70
100
AcDbEntity
  8
Visible
100
AcDbSpline
 70
     0
 71
     3
 72
    23
 73
    19
 74
     0
 42
0.000000001
 43
0.0000000001
 40
0.9589238396306026
 40
0.9589238396306026
 40
0.9589238396306026
 40
0.9589238396306026
 40
1.038833020773202
 40
1.038833020773202
 40
1.118742201915801
 40
1.118742201915801
 40
1.198653660711635
 40
1.198653660711635
 40
1.27856511950747
 40
1.27856511950747
 40
1.27856511950747
 40
1.358476578303304
 40
1.358476578303304
 40
1.438388037099138
 40
1.438388037099138
 40
1.518297218241738
 40
1.518297218241738
 40
1.598206399384337
 40
1.598206399384337
 40
1.598206399384337
 40
1.598206399384337
 10
5.505163588883078
 20
4.454332362738144
 30
0.4884483377263678
 10
5.505163588883078
 20
4.464819131916963
 30
0.4884483377263678
 10
5.50726350405057
 20
4.47599120204933
 30
0.4880790861170681
 10
5.515775644716995
 20
4.496520189392074
 30
0.4867445967574895
 10
5.522186762140336
 20
4.505878768732506
 30
0.4857979255975807
 10
5.536963850176107
 20
4.520655856767481
 30
0.4840154587909638
 10
5.546322339179823
 20
4.527066809017431
 30
0.4830627901137632
 10
5.566851015908468
 20
4.535578829778814
 30
0.4817145291035559
 10
5.578022977493674
 20
4.537678819431057
 30
0.4813392114629096
 10
5.588510045576185
 20
4.537678819431057
 30
0.4813392114629096
 10
5.598997113660516
 20
4.537678819431057
 30
0.4813392114629096
 10
5.610169075245721
 20
4.535578829778814
 30
0.4817145291035559
 10
5.630697751974366
 20
4.527066809017431
 30
0.4830627901137632
 10
5.640056240978083
 20
4.520655856767481
 30
0.4840154587909638
 10
5.654833329013854
 20
4.505878768732506
 30
0.4857979255975807
 10
5.661244446437194
 20
4.496520189392074
 30
0.4867445967574895
 10
5.66975658710362
 20
4.47599120204933
 30
0.4880790861170681
 10
5.671856502269292
 20
4.464819131916963
 30
0.4884483377263678
 10
5.671856502269292
 20
4.454332362738144
 30
0.4884483377263678
1001
ACAD_VIEW_EDGE_ID
1071
        4
1071
       -1
1071
        3
1071
        0
  0
SPLINE
  5
386
330
70
100
AcDbEntity
  8
Visible
100
AcDbSpline
 70
     0
 71
     3
 72
    22
 73
    18
 74
     0
 42
0.000000001
 43
0.0000000001
 40
1.082898440396907
 40
1.082898440396907
 40
1.082898440396908
 40
1.082898440396908
 40
1.352995901063261
 40
1.352995901063261
 40
1.623093361729615
 40
1.623093361729615
 40
1.894445121261714
 40
1.894445121261714
 40
2.165796880793813
 40
2.165796880793813
 40
2.437148640325912
 40
2.437148640325912
 40
2.708500399858011
 40
2.708500399858011
 40
2.978597860524365
 40
2.978597860524365
 40
3.248695321190719
 40
3.248695321190719
 40
3.248695321190719
 40
3.248695321190719
 10
5.287266376173647
 20
3.962206378486175
 30
-0.0036776465258299
 10
5.287266376173647
 20
3.962206378486175
 30
0.0317682144541323
 10
5.29451428579523
 20
3.966376964430919
 30
0.0690531454583834
 10
5.32290611746248
 20
3.98139569494604
 30
0.136754350951378
 10
5.344010753624388
 20
3.992094762869064
 30
0.1672200748871546
 10
5.392070539252017
 20
4.01281952523449
 30
0.2152798605147836
 10
5.422502514808002
 20
4.024367523386617
 30
0.2363050980329717
 10
5.490040278762535
 20
4.041448917278519
 30
0.2646295914018992
 10
5.527246460222158
 20
4.046609623029326
 30
0.2719129046545277
 10
5.598467394484032
 20
4.046609623029326
 30
0.2719129046545277
 10
5.635673575943656
 20
4.041448917278519
 30
0.2646295914018992
 10
5.703211339898189
 20
4.024367523386617
 30
0.2363050980329717
 10
5.733643315454173
 20
4.01281952523449
 30
0.2152798605147836
 10
5.78170310108544
 20
3.992094762869064
 30
0.1672200748871546
 10
5.802807737247348
 20
3.98139569494604
 30
0.136754350951378
 10
5.831199568914598
 20
3.966376964430919
 30
0.0690531454583834
 10
5.838447478536181
 20
3.962206378486175
 30
0.0317682144541323
 10
5.838447478536181
 20
3.962206378486175
 30
-0.0036776465258299
1001
ACAD_VIEW_EDGE_ID
1071
        6
1071
       -1
1071
        3
1071
        0
  0
SPLINE
  5
387
330
70
100
AcDbEntity
  8
Visible
100
AcDbSpline
 70
     0
 71
     3
 72
    22
 73
    18
 74
     0
 42
0.000000001
 43
0.0000000001
 40
1.082898440396907
 40
1.082898440396907
 40
1.082898440396908
 40
1.082898440396908
 40
1.352995901063261
 40
1.352995901063261
 40
1.623093361729615
 40
1.623093361729615
 40
1.894445121261714
 40
1.894445121261714
 40
2.165796880793813
 40
2.165796880793813
 40
2.437148640325912
 40
2.437148640325912
 40
2.708500399858011
 40
2.708500399858011
 40
2.978597860524365
 40
2.978597860524365
 40
3.248695321190719
 40
3.248695321190719
 40
3.248695321190719
 40
3.248695321190719
 10
5.838447478536181
 20
4.946458346990112
 30
-0.0036776465258299
 10
5.838447478536181
 20
4.946458346990112
 30
0.0317682144541323
 10
5.831199568914598
 20
4.942287761045369
 30
0.0690531454583834
 10
5.802807737247348
 20
4.927269030530249
 30
0.136754350951378
 10
5.78170310108544
 20
4.916569962607224
 30
0.1672200748871546
 10
5.733643315454173
 20
4.895845200241797
 30
0.2152798605147836
 10
5.703211339898189
 20
4.884297202089671
 30
0.2363050980329717
 10
5.635673575943656
 20
4.867215808197769
 30
0.2646295914018992
 10
5.598467394484032
 20
4.862055102446963
 30
0.2719129046545277
 10
5.527246460222158
 20
4.862055102446963
 30
0.2719129046545277
 10
5.490040278762535
 20
4.867215808197769
 30
0.2646295914018992
 10
5.422502514808002
 20
4.884297202089671
 30
0.2363050980329717
 10
5.392070539252017
 20
4.895845200241797
 30
0.2152798605147836
 10
5.344010753624388
 20
4.916569962607224
 30
0.1672200748871546
 10
5.32290611746248
 20
4.927269030530248
 30
0.136754350951378
 10
5.29451428579523
 20
4.942287761045369
 30
0.0690531454583834
 10
5.287266376173647
 20
4.946458346990112
 30
0.0317682144541323
 10
5.287266376173647
 20
4.946458346990112
 30
-0.0036776465258299
1001
ACAD_VIEW_EDGE_ID
1071
        7
1071
       -1
1071
        3
1071
        0
  0
ARC
  5
388
330
70
100
AcDbEntity
  8
Visible
100
AcDbCircle
 10
4.454332
 20
-0.003678
 30
5.956428
 40
0.4921259842519685
210
1.0
220
0.0
230
0.0000000000002969
100
AcDbArc
 50
0.0
 51
180.0
  0
ARC
  5
389
330
70
100
AcDbEntity
  8
Visible
100
AcDbCircle
 10
4.454332
 20
-0.003678
 30
2.413251
 40
0.9842519685039372
210
1.0
220
-0.0000000000000004
230
0.0000000000002966
100
AcDbArc
 50
0.0
 51
180.0
  0
ARC
  5
38A
330
70
100
AcDbEntity
  8
Visible
100
AcDbCircle
 10
4.454332
 20
-0.003678
 30
2.610101
 40
0.9842519685039372
210
1.0
220
-0.0000000000000004
230
0.0000000000002967
100
AcDbArc
 50
0.0
 51
180.0
  0
ARC
  5
38B
330
70
100
AcDbEntity
  8
Visible
100
AcDbCircle
 10
-4.460495
 20
4.454332
 30
0.003678
 40
1.574803149606299
210
0.0000000000002969
220
0.0
230
-1.0
100
AcDbArc
 50
161.790043
 51
198.209957
  0
LINE
  5
38C
330
70
100
AcDbEntity
  8
Visible
100
AcDbLine
 10
2.413251
 20
5.438584
 30
-0.003678
 11
2.610101
 21
5.438584
 31
-0.003678
210
0.0
220
1.0
230
0.0
  0
LINE
  5
38D
330
70
100
AcDbEntity
  8
Visible
100
AcDbLine
 10
2.413251
 20
3.47008
 30
-0.003678
 11
2.610101
 21
3.47008
 31
-0.003678
210
0.0
220
1.0
230
0.0
  0
LINE
  5
38E
330
70
100
AcDbEntity
  8
Visible
100
AcDbLine
 10
2.610101
 20
4.946458
 30
-0.003678
 11
5.287266
 21
4.946458
 31
-0.003678
210
0.0
220
1.0
230
0.0
  0
LINE
  5
38F
330
70
100
AcDbEntity
  8
Visible
100
AcDbLine
 10
5.838447
 20
4.946458
 30
-0.003678
 11
5.956428
 21
4.946458
 31
-0.003678
210
0.0
220
1.0
230
0.0
  0
LINE
  5
390
330
70
100
AcDbEntity
  8
Visible
100
AcDbLine
 10
2.610101
 20
3.962206
 30
-0.003678
 11
5.287266
 21
3.962206
 31
-0.003678
210
0.0
220
1.0
230
0.0
  0
LINE
  5
391
330
70
100
AcDbEntity
  8
Visible
100
AcDbLine
 10
5.838447
 20
3.962206
 30
-0.003678
 11
5.956428
 21
3.962206
 31
-0.003678
210
0.0
220
1.0
230
0.0
  0
SPLINE
  5
392
330
70
100
AcDbEntity
  8
Visible
100
AcDbSpline
 70
     0
 71
     3
 72
    14
 73
    10
 74
     0
 42
0.000000001
 43
0.0000000001
 40
0.0
 40
0.0
 40
0.0
 40
0.0
 40
0.0957976978317546
 40
0.0957976978317546
 40
0.1915953956635092
 40
0.1915953956635092
 40
0.2873317529810546
 40
0.2873317529810546
 40
0.3830681102962301
 40
0.3830681102962301
 40
0.3830681102986
 40
0.3830681102986
 10
5.305706130027829
 20
6.945724692749664
 30
0.0954365267025423
 10
5.305706130027829
 20
6.93315281639379
 30
0.0954365267025423
 10
5.304687064377503
 20
6.919829554553912
 30
0.0929008572511521
 10
5.301115123504132
 20
6.89544889789476
 30
0.0827533202082123
 10
5.298624891618601
 20
6.884380256071159
 30
0.0751465247994929
 10
5.294030054436007
 20
6.866906117676175
 30
0.0576723864032829
 10
5.291612104821979
 20
6.859295037011744
 30
0.0466015558267827
 10
5.288209070396987
 20
6.849144274287421
 30
0.0222126337266673
 10
5.287266376173647
 20
6.846610519521442
 30
0.0088861798940343
 10
5.287266376173647
 20
6.846610519521316
 30
-0.0036776465258299
1001
ACAD_VIEW_EDGE_ID
1071
        0
1071
       -1
1071
        4
1071
        0
  0
SPLINE
  5
393
330
70
100
AcDbEntity
  8
Visible
100
AcDbSpline
 70
     0
 71
     3
 72
    14
 73
    10
 74
     0
 42
0.000000001
 43
0.0000000001
 40
1.149204330895799
 40
1.149204330895799
 40
1.149204330895799
 40
1.149204330895799
 40
1.244940688213344
 40
1.244940688213344
 40
1.340677045530889
 40
1.340677045530889
 40
1.436474743362644
 40
1.436474743362644
 40
1.532272441194398
 40
1.532272441194398
 40
1.532272441194398
 40
1.532272441194398
 10
5.287266376173647
 20
7.04483886597801
 30
-0.0036776465258299
 10
5.287266376173647
 20
7.04483886597801
 30
0.0088861798940343
 10
5.288209070396987
 20
7.042305111212033
 30
0.0222126337248483
 10
5.291612104821979
 20
7.032154348487583
 30
0.0466015558267827
 10
5.294030054436007
 20
7.024543267823151
 30
0.0576723864032829
 10
5.298624891618601
 20
7.007069129428169
 30
0.0751465247994929
 10
5.301115123504132
 20
6.996000487604567
 30
0.0827533202082123
 10
5.304687064377503
 20
6.971619830945416
 30
0.0929008572511521
 10
5.305706130027829
 20
6.958296569105537
 30
0.0954365267025423
 10
5.305706130027829
 20
6.945724692749664
 30
0.0954365267025423
1001
ACAD_VIEW_EDGE_ID
1071
        0
1071
       -1
1071
        4
1071
        0
  0
SPLINE
  5
394
330
70
100
AcDbEntity
  8
Visible
100
AcDbSpline
 70
     0
 71
     3
 72
    16
 73
    12
 74
     0
 42
0.000000001
 43
0.0000000001
 40
0.0
 40
0.0
 40
0.0
 40
0.0
 40
0.1176160583361983
 40
0.1176160583361983
 40
0.2352321166723966
 40
0.2352321166723966
 40
0.4704642333447932
 40
0.4704642333447932
 40
0.6974993473189302
 40
0.6974993473189302
 40
0.9245344612930672
 40
0.9245344612930672
 40
0.9245344612930676
 40
0.9245344612930676
 10
5.722827397068613
 20
6.945724692749664
 30
0.2207318022938125
 10
5.722827397068613
 20
6.961159871009007
 30
0.2207318022938125
 10
5.725123632568283
 20
6.976394743456699
 30
0.2191341291108984
 10
5.733164681963899
 20
7.005848731077453
 30
0.2130499233735463
 10
5.738865294579227
 20
7.020080074595551
 30
0.2085642577912949
 10
5.758386163581235
 20
7.060626579320695
 30
0.1913099139055703
 10
5.77441887839268
 20
7.084866193083248
 30
0.1745437391855376
 10
5.801461004466546
 20
7.123265180948614
 30
0.1361447513190797
 10
5.814717916702647
 20
7.140391239174782
 30
0.1118990144041163
 10
5.83326460686294
 20
7.163856350952384
 30
0.0569161927214736
 10
5.838447478536181
 20
7.170134141568561
 30
0.0261169878540386
 10
5.838447478536181
 20
7.170134141568561
 30
-0.0036776465258299
1001
ACAD_VIEW_EDGE_ID
1071
        2
1071
       -1
1071
        4
1071
        0
  0
SPLINE
  5
395
330
70
100
AcDbEntity
  8
Visible
100
AcDbSpline
 70
     0
 71
     3
 72
    16
 73
    12
 74
     0
 42
0.000000001
 43
0.0000000001
 40
2.773603383879203
 40
2.773603383879203
 40
2.773603383879203
 40
2.773603383879203
 40
3.000638497853339
 40
3.000638497853339
 40
3.227673611827476
 40
3.227673611827476
 40
3.462905728499873
 40
3.462905728499873
 40
3.580521786836072
 40
3.580521786836072
 40
3.698137845172271
 40
3.698137845172271
 40
3.698137845172271
 40
3.698137845172271
 10
5.838447478536181
 20
6.721315243930765
 30
-0.0036776465258299
 10
5.838447478536181
 20
6.721315243930765
 30
0.0261169878540386
 10
5.83326460686294
 20
6.727593034546942
 30
0.0569161927214736
 10
5.814717916702647
 20
6.751058146324544
 30
0.1118990144041163
 10
5.801461004466546
 20
6.768184204550712
 30
0.1361447513190797
 10
5.77441887839268
 20
6.806583192416077
 30
0.1745437391855376
 10
5.758386163581235
 20
6.83082280617863
 30
0.1913099139055703
 10
5.738865294579227
 20
6.871369310903775
 30
0.2085642577912949
 10
5.733164681963899
 20
6.885600654421873
 30
0.2130499233735463
 10
5.725123632568283
 20
6.915054642042628
 30
0.2191341291108984
 10
5.722827397068613
 20
6.930289514490319
 30
0.2207318022938125
 10
5.722827397068613
 20
6.945724692749664
 30
0.2207318022938125
1001
ACAD_VIEW_EDGE_ID
1071
        2
1071
       -1
1071
        4
1071
        0
  0
LINE
  5
396
330
70
100
AcDbEntity
  8
Visible
100
AcDbLine
 10
5.641597
 20
6.890021
 30
0.260425
 11
5.641597
 21
6.752174
 31
0.260425
210
0.0
220
1.0
230
0.0
  0
SPLINE
  5
397
330
70
100
AcDbEntity
  8
Visible
100
AcDbSpline
 70
     0
 71
     3
 72
     8
 73
     4
 74
     0
 42
0.000000001
 43
0.0000000001
 40
2.209857864444705
 40
2.209857864444705
 40
2.209857864444705
 40
2.209857864444705
 40
2.411152941634972
 40
2.411152941634972
 40
2.411152941634972
 40
2.411152941634972
 10
5.562856927352186
 20
6.762991290051125
 30
0.2719129046545277
 10
5.536440250556552
 20
6.762991290051126
 30
0.2719129046545277
 10
5.509591028661816
 20
6.75904346791937
 30
0.2680198270791152
 10
5.484116769872343
 20
6.752173571210487
 30
0.2604248705010832
1001
ACAD_VIEW_EDGE_ID
1071
       13
1071
       -1
1071
        4
1071
        0
  0
SPLINE
  5
398
330
70
100
AcDbEntity
  8
Visible
100
AcDbSpline
 70
     0
 71
     3
 72
     8
 73
     4
 74
     0
 42
0.000000001
 43
0.0000000001
 40
2.008562787254438
 40
2.008562787254438
 40
2.008562787254438
 40
2.008562787254438
 40
2.209857864444705
 40
2.209857864444705
 40
2.209857864444705
 40
2.209857864444705
 10
5.641597084833847
 20
6.752173571210487
 30
0.2604248705010832
 10
5.616122826044374
 20
6.759043467919371
 30
0.2680198270791152
 10
5.589273604149639
 20
6.762991290051125
 30
0.2719129046545277
 10
5.562856927352186
 20
6.762991290051125
 30
0.2719129046545277
1001
ACAD_VIEW_EDGE_ID
1071
       14
1071
       -1
1071
        4
1071
        0
  0
ARC
  5
399
330
70
100
AcDbEntity
  8
Visible
100
AcDbCircle
 10
-6.945725
 20
-0.003678
 30
-5.484117
 40
0.3149606299213902
210
-1.0
220
0.0
230
-0.0000000000002969
100
AcDbArc
 50
123.015259
 51
128.089488
  0
LINE
  5
39A
330
70
100
AcDbEntity
  8
Visible
100
AcDbLine
 10
5.484117
 20
6.752174
 30
0.260425
 11
5.484117
 21
7.117335
 31
0.260425
210
0.0
220
1.0
230
0.0
  0
SPLINE
  5
39B
330
70
100
AcDbEntity
  8
Visible
100
AcDbSpline
 70
     0
 71
     3
 72
    14
 73
    10
 74
     0
 42
0.000000001
 43
0.0000000001
 40
0.2126327301730622
 40
0.2126327301730622
 40
0.2126327301730622
 40
0.2126327301730622
 40
0.2990440789194104
 40
0.2990440789194104
 40
0.5980881578388209
 40
0.5980881578388209
 40
0.8798978209865008
 40
0.8798978209865008
 40
1.161707484134181
 40
1.161707484134181
 40
1.161707484134181
 40
1.161707484134181
 10
5.484116769872343
 20
7.117334887377248
 30
0.2604248705010832
 10
5.474099196497263
 20
7.121931265272654
 30
0.2574382071634318
 10
5.464334910324396
 20
7.127098809089881
 30
0.2539076032171579
 10
5.421963103908638
 20
7.151592469474087
 30
0.2358550292901782
 10
5.392229221724846
 20
7.174067968525586
 30
0.2154385429894319
 10
5.345137974485623
 20
7.211155223283235
 30
0.168347295746571
 10
5.32411399821467
 20
7.228907277578155
 30
0.1388015537850151
 10
5.295137118313505
 20
7.253731325658062
 30
0.07131982417377
 10
5.287266376173647
 20
7.260685322670923
 30
0.0333052489004331
 10
5.287266376173647
 20
7.260685322670923
 30
-0.0036776465258299
1001
ACAD_VIEW_EDGE_ID
1071
       19
1071
       -1
1071
        4
1071
        0
  0
SPLINE
  5
39C
330
70
100
AcDbEntity
  8
Visible
100
AcDbSpline
 70
     0
 71
     3
 72
    14
 73
    10
 74
     0
 42
0.000000001
 43
0.0000000001
 40
-1.161707484134181
 40
-1.161707484134181
 40
-1.161707484134181
 40
-1.161707484134181
 40
-0.8798978209865015
 40
-0.8798978209865015
 40
-0.5980881578388218
 40
-0.5980881578388218
 40
-0.2990440789194109
 40
-0.2990440789194109
 40
-0.2133789638241176
 40
-0.2133789638241176
 40
-0.2133789638241176
 40
-0.2133789638241176
 10
5.838447478536181
 20
7.260685322670923
 30
-0.0036776465258299
 10
5.838447478536181
 20
7.260685322670923
 30
0.0333052489004331
 10
5.830576736396324
 20
7.253731325658062
 30
0.07131982417377
 10
5.801599856495158
 20
7.228907277578155
 30
0.1388015537850151
 10
5.780575880224205
 20
7.211155223283235
 30
0.168347295746571
 10
5.733484632981344
 20
7.174067968525586
 30
0.2154385429894319
 10
5.703750750797553
 20
7.151592469474087
 30
0.2358550292901782
 10
5.661460975312365
 20
7.127146228304412
 30
0.2538726538114133
 10
5.651783283838085
 20
7.122020541446001
 30
0.2573771892639343
 10
5.641856558320796
 20
7.117454095609859
 30
0.2603473718791065
1001
ACAD_VIEW_EDGE_ID
1071
       20
1071
       -1
1071
        4
1071
        0
  0
ARC
  5
39D
330
70
100
AcDbEntity
  8
Visible
100
AcDbCircle
 10
-5.562857
 20
-0.003678
 30
3.565561
 40
0.2755905511811028
210
0.0
220
1.0
230
0.0
100
AcDbArc
 50
0.0
 51
180.0
  0
LINE
  5
39E
330
70
100
AcDbEntity
  8
Visible
100
AcDbLine
 10
5.287266
 20
7.260685
 30
-0.003678
 11
5.297745
 21
7.260685
 31
-0.003678
210
0.0
220
1.0
230
0.0
  0
LINE
  5
39F
330
70
100
AcDbEntity
  8
Visible
100
AcDbLine
 10
5.828488
 20
7.260685
 30
-0.003678
 11
5.838447
 21
7.260685
 31
-0.003678
210
0.0
220
1.0
230
0.0
  0
LINE
  5
3A0
330
70
100
AcDbEntity
  8
Visible
100
AcDbLine
 10
5.287266
 20
3.565561
 30
-0.003678
 11
5.287266
 21
3.962206
 31
-0.003678
210
0.0
220
1.0
230
0.0
  0
LINE
  5
3A1
330
70
100
AcDbEntity
  8
Visible
100
AcDbLine
 10
5.287266
 20
4.946458
 30
-0.003678
 11
5.287266
 21
6.846611
 31
-0.003678
210
0.0
220
1.0
230
0.0
  0
LINE
  5
3A2
330
70
100
AcDbEntity
  8
Visible
100
AcDbLine
 10
5.287266
 20
7.044839
 30
-0.003678
 11
5.287266
 21
7.260685
 31
-0.003678
210
0.0
220
1.0
230
0.0
  0
LINE
  5
3A3
330
70
100
AcDbEntity
  8
Visible
100
AcDbLine
 10
5.838447
 20
3.565561
 30
-0.003678
 11
5.838447
 21
3.962206
 31
-0.003678
210
0.0
220
1.0
230
0.0
  0
LINE
  5
3A4
330
70
100
AcDbEntity
  8
Visible
100
AcDbLine
 10
5.838447
 20
4.946458
 30
-0.003678
 11
5.838447
 21
6.721315
 31
-0.003678
210
0.0
220
1.0
230
0.0
  0
LINE
  5
3A5
330
70
100
AcDbEntity
  8
Visible
100
AcDbLine
 10
5.838447
 20
7.170134
 30
-0.003678
 11
5.838447
 21
7.260685
 31
-0.003678
210
0.0
220
1.0
230
0.0
  0
ARC
  5
3A6
330
70
100
AcDbEntity
  8
Visible
100
AcDbCircle
 10
-5.562857
 20
3.973284
 30
0.003678
 40
0.4921259842519688
210
0.0000000000002969
220
0.0
230
-1.0
100
AcDbArc
 50
235.944202
 51
304.055798
  0
ARC
  5
3A7
330
70
100
AcDbEntity
  8
Visible
100
AcDbCircle
 10
6.946838
 20
-0.005292
 30
5.826216
 40
0.1181102362204724
210
1.0
220
0.0
230
0.0000000000002969
100
AcDbArc
 50
0.0
 51
180.0
  0
ARC
  5
3A8
330
70
100
AcDbEntity
  8
Visible
100
AcDbCircle
 10
-6.946838
 20
-0.005292
 30
-5.302594
 40
0.0885826771653545
210
-1.0
220
0.0
230
-0.0000000000002969
100
AcDbArc
 50
62.25462
 51
116.129222
  0
SPLINE
  5
3A9
330
70
100
AcDbEntity
  8
Visible
100
AcDbSpline
 70
     0
 71
     3
 72
    10
 73
     6
 74
     0
 42
0.000000001
 43
0.0000000001
 40
-7.261046411555364
 40
-7.261046411555364
 40
-7.261046411555364
 40
-7.261046411555364
 40
-7.260528220463851
 40
-7.260528220463851
 40
-7.248458017987125
 40
-7.248458017987125
 40
-7.248458017987125
 40
-7.248458017987125
 10
5.484376246760803
 20
6.828880544964254
 30
0.0007048843508528
 10
5.484372706572685
 20
6.828884046993323
 30
0.0007737693704257
 10
5.484369166430042
 20
6.828887609507952
 30
0.0008426541808149
 10
5.484283166850218
 20
6.828975623156021
 30
0.0025160629411403
 10
5.484200196793608
 20
6.829092667916524
 30
0.0041172129149345
 10
5.484116769839602
 20
6.829242117455245
 30
0.0057140245371556
1001
ACAD_VIEW_EDGE_ID
1071
       10
1071
       -1
1071
        5
1071
        0
  0
SPLINE
  5
3AA
330
70
100
AcDbEntity
  8
Visible
100
AcDbSpline
210
-0.9975947062242989
220
-0.0265263470934621
230
0.0640402609545905
 70
    12
 71
     2
 72
     6
 73
     3
 74
     0
 42
0.000000001
 43
0.0000000001
 40
0.4645353044313648
 40
0.4645353044313648
 40
0.4645353044313648
 40
0.4651585522923693
 40
0.4651585522923693
 40
0.4651585522923693
 10
5.484116769874162
 20
7.018085875714827
 30
0.0537605708377669
 41
0.983820131547862
 10
5.484247422622502
 20
7.016830103920227
 30
0.0552756716533622
 41
0.9869855889546446
 10
5.484376242904545
 20
7.015511058229821
 30
0.0567360181012191
 41
0.9906089966954517
1001
ACAD_VIEW_EDGE_ID
1071
       13
1071
       -1
1071
        5
1071
        0
  0
ARC
  5
3AB
330
70
100
AcDbEntity
  8
Visible
100
AcDbCircle
 10
-5.640731
 20
6.946838
 30
0.005292
 40
0.2198972016140301
210
0.0000000000002969
220
0.0
230
-1.0
100
AcDbArc
 50
212.487506
 51
227.385391
  0
ARC
  5
3AC
330
70
100
AcDbEntity
  8
Visible
100
AcDbCircle
 10
-5.640731
 20
6.946838
 30
0.005292
 40
0.21989720161403
210
0.0000000000002969
220
0.0
230
-1.0
100
AcDbArc
 50
132.953501
 51
147.512494
  0
LINE
  5
3AD
330
70
100
AcDbEntity
  8
Visible
100
AcDbLine
 10
5.484376
 20
6.828728
 30
-0.005292
 11
5.484117
 21
6.828728
 31
-0.005292
210
0.0
220
1.0
230
0.0
  0
LINE
  5
3AE
330
70
100
AcDbEntity
  8
Visible
100
AcDbLine
 10
5.484376
 20
7.039377
 30
-0.005292
 11
5.484117
 21
7.039377
 31
-0.005292
210
0.0
220
1.0
230
0.0
  0
SPLINE
  5
3AF
330
70
100
AcDbEntity
  8
Visible
100
AcDbSpline
210
-0.8645992160140952
220
0.5024621335661149
230
0.0
 70
    24
 71
     3
 72
     8
 73
     4
 74
     0
 42
0.000000001
 43
0.0000000001
 40
0.0018030025821458
 40
0.0018030025821458
 40
0.0018030025821458
 40
0.0018030025821458
 40
0.0019944717741192
 40
0.0019944717741192
 40
0.0019944717741192
 40
0.0019944717741192
 10
5.484338366592055
 20
7.039377063928687
 30
-0.0159305305405724
 10
5.484350992073814
 20
7.039398788810467
 30
-0.0159304812150367
 10
5.484363617511917
 20
7.03942051371796
 30
-0.015930431902234
 10
5.484376242904545
 20
7.039442238651112
 30
-0.0159303825967072
1001
ACAD_VIEW_EDGE_ID
1071
   -16399
1071
       -1
1071
        5
1071
        0
  0
ARC
  5
3B0
330
70
100
AcDbEntity
  8
Visible
100
AcDbCircle
 10
5.592064
 20
4.456615
 30
0.415852
 40
0.0492125984251985
100
AcDbArc
 50
270.0
 51
330.0
  0
ARC
  5
3B1
330
70
100
AcDbEntity
  8
Visible
100
AcDbCircle
 10
5.592064
 20
4.456615
 30
0.415852
 40
0.0492125984252003
100
AcDbArc
 50
330.0
 51
30.0
  0
ARC
  5
3B2
330
70
100
AcDbEntity
  8
Visible
100
AcDbCircle
 10
5.592064
 20
4.456615
 30
0.415852
 40
0.0492125984251985
100
AcDbArc
 50
30.0
 51
90.0
  0
ARC
  5
3B3
330
70
100
AcDbEntity
  8
Visible
100
AcDbCircle
 10
5.592064
 20
4.456615
 30
0.415852
 40
0.0492125984251983
100
AcDbArc
 50
90.0
 51
150.0
  0
ARC
  5
3B4
330
70
100
AcDbEntity
  8
Visible
100
AcDbCircle
 10
5.592064
 20
4.456615
 30
0.415852
 40
0.0492125984252003
100
AcDbArc
 50
150.0
 51
210.0
  0
ARC
  5
3B5
330
70
100
AcDbEntity
  8
Visible
100
AcDbCircle
 10
5.592064
 20
4.456615
 30
0.415852
 40
0.0492125984251985
100
AcDbArc
 50
210.0
 51
270.0
  0
SPLINE
  5
3B6
330
70
100
AcDbEntity
  8
Visible
100
AcDbSpline
210
0.0
220
1.0
230
0.0
 70
    12
 71
     2
 72
     6
 73
     3
 74
     0
 42
0.000000001
 43
0.0000000001
 40
-0.4364335524759582
 40
-0.4364335524759582
 40
-0.4364335524759582
 40
-0.1816138839659444
 40
-0.1816138839659444
 40
-0.1816138839659444
 10
5.620476432473879
 20
4.505827869533145
 30
0.4696950368124817
 41
1.606888365329756
 10
5.5920635255261
 20
4.505827869533145
 30
0.4597475709997525
 41
1.855474860566004
 10
5.56365061857832
 20
4.505827869533145
 30
0.4696950368124817
 41
1.606888365336845
1001
ACAD_VIEW_EDGE_ID
1071
        9
1071
       -1
1071
        6
1071
        0
  0
SPLINE
  5
3B7
330
70
100
AcDbEntity
  8
Visible
100
AcDbSpline
210
-0.8660254037886103
220
-0.4999999999927746
230
-0.0000000000051116
 70
    12
 71
     2
 72
     6
 73
     3
 74
     0
 42
0.000000001
 43
0.0000000001
 40
-0.4364335524759576
 40
-0.4364335524759576
 40
-0.4364335524759576
 40
-0.181613883965944
 40
-0.181613883965944
 40
-0.181613883965944
 10
5.648889339421657
 20
4.456615271107528
 30
0.4696950368124817
 41
1.606888365329757
 10
5.634682885947768
 20
4.481221570320244
 30
0.4597475709997525
 41
1.855474860566004
 10
5.620476432473878
 20
4.505827869532756
 30
0.4696950368124817
 41
1.606888365336844
1001
ACAD_VIEW_EDGE_ID
1071
       10
1071
       -1
1071
        6
1071
        0
  0
SPLINE
  5
3B8
330
70
100
AcDbEntity
  8
Visible
100
AcDbSpline
210
-0.866025403788541
220
0.4999999999928945
230
0.0000000000050283
 70
    12
 71
     2
 72
     6
 73
     3
 74
     0
 42
0.000000001
 43
0.0000000001
 40
-0.4364335524758947
 40
-0.4364335524758947
 40
-0.4364335524758947
 40
-0.1816138839659439
 40
-0.1816138839659439
 40
-0.1816138839659439
 10
5.620476432473878
 20
4.407402672682345
 30
0.4696950368124817
 41
1.606888365329876
 10
5.634682885947768
 20
4.432008971895053
 30
0.4597475709997525
 41
1.855474860565937
 10
5.648889339421657
 20
4.456615271107558
 30
0.4696950368124817
 41
1.60688836533684
1001
ACAD_VIEW_EDGE_ID
1071
       11
1071
       -1
1071
        6
1071
        0
  0
SPLINE
  5
3B9
330
70
100
AcDbEntity
  8
Visible
100
AcDbSpline
210
0.0
220
1.0
230
0.0
 70
    12
 71
     2
 72
     6
 73
     3
 74
     0
 42
0.000000001
 43
0.0000000001
 40
0.1816138839658646
 40
0.1816138839658646
 40
0.1816138839658646
 40
0.4364335524759569
 40
0.4364335524759569
 40
0.4364335524759569
 10
5.620476432473878
 20
4.407402672682752
 30
0.4696950368124817
 41
1.606888365336688
 10
5.592063525524281
 20
4.407402672682752
 30
0.4597475709997525
 41
1.855474860566078
 10
5.563650618576502
 20
4.407402672682752
 30
0.4696950368124817
 41
1.606888365329757
1001
ACAD_VIEW_EDGE_ID
1071
       12
1071
       -1
1071
        6
1071
        0
  0
SPLINE
  5
3BA
330
70
100
AcDbEntity
  8
Visible
100
AcDbSpline
210
-0.8660254037885996
220
-0.4999999999927931
230
0.0000000000049733
 70
    12
 71
     2
 72
     6
 73
     3
 74
     0
 42
0.000000001
 43
0.0000000001
 40
-0.4364335524759574
 40
-0.4364335524759574
 40
-0.4364335524759574
 40
-0.1816138839659437
 40
-0.1816138839659437
 40
-0.1816138839659437
 10
5.535237711628723
 20
4.456615271108368
 30
0.4696950368124818
 41
1.606888365329759
 10
5.549444165102614
 20
4.432008971895654
 30
0.4597475709997525
 41
1.855474860566005
 10
5.563650618576502
 20
4.407402672683142
 30
0.4696950368124817
 41
1.606888365336844
1001
ACAD_VIEW_EDGE_ID
1071
       13
1071
       -1
1071
        6
1071
        0
  0
SPLINE
  5
3BB
330
70
100
AcDbEntity
  8
Visible
100
AcDbSpline
210
-0.8660254037886103
220
0.4999999999927745
230
0.0000000001532941
 70
    12
 71
     2
 72
     6
 73
     3
 74
     0
 42
0.000000001
 43
0.0000000001
 40
-0.4364335524759579
 40
-0.4364335524759579
 40
-0.4364335524759579
 40
-0.1816138839659441
 40
-0.1816138839659441
 40
-0.1816138839659441
 10
5.563650618576502
 20
4.505827869533566
 30
0.4696950368124818
 41
1.606888365329759
 10
5.549444165100794
 20
4.481221570320851
 30
0.4597475709997525
 41
1.855474860566006
 10
5.535237711628724
 20
4.456615271108338
 30
0.4696950368124817
 41
1.606888365336846
1001
ACAD_VIEW_EDGE_ID
1071
       14
1071
       -1
1071
        6
1071
        0
  0
ARC
  5
3BC
330
70
100
AcDbEntity
  8
Visible
100
AcDbCircle
 10
5.592064
 20
4.456615
 30
0.477367
 40
0.078740157480315
100
AcDbArc
 50
95.282089
 51
39.717911
  0
SPLINE
  5
3BD
330
70
100
AcDbEntity
  8
Visible
100
AcDbSpline
 70
     0
 71
     3
 72
     8
 73
     4
 74
     0
 42
0.000000001
 43
0.0000000001
 40
0.1008847440133142
 40
0.1008847440133142
 40
0.1008847440133142
 40
0.1008847440133142
 40
0.1102725435020509
 40
0.1102725435020509
 40
0.1102725435020509
 40
0.1102725435020509
 10
5.589420329399217
 20
4.537674842061974
 30
0.4757066039637721
 10
5.587887938920175
 20
4.536868062265738
 30
0.4762394497229252
 10
5.586346383621275
 20
4.535985895365152
 30
0.4767933441908099
 10
5.584814760995868
 20
4.535021060516775
 30
0.4773673310992308
1001
ACAD_VIEW_EDGE_ID
1071
       25
1071
       -1
1071
        6
1071
        0
  0
SPLINE
  5
3BE
330
70
100
AcDbEntity
  8
Visible
100
AcDbSpline
 70
     0
 71
     3
 72
     8
 73
     4
 74
     0
 42
0.000000001
 43
0.0000000001
 40
-0.0197938063911902
 40
-0.0197938063911902
 40
-0.0197938063911902
 40
-0.0197938063911902
 40
-0.0000010000000687
 40
-0.0000010000000687
 40
-0.0000010000000687
 40
-0.0000010000000687
 10
5.657600876993456
 20
4.500948762294759
 30
0.4770985857267079
 10
5.656043361304909
 20
4.503020859568596
 30
0.4771889576659305
 10
5.654384726089119
 20
4.50501737392927
 30
0.4772786530484155
 10
5.652630441454675
 20
4.506930885929211
 30
0.4773673310992308
1001
ACAD_VIEW_EDGE_ID
1071
       26
1071
       -1
1071
        6
1071
        0
  0
ARC
  5
3BF
330
70
100
AcDbEntity
  8
Visible
100
AcDbCircle
 10
-5.583562
 20
4.454069
 30
-0.477183
 40
0.0809802571766511
210
0.0000022826009729
220
0.0000377862080139
230
-0.9999999992834961
100
AcDbArc
 50
90.887053
 51
96.026827
  0
ARC
  5
3C0
330
70
100
AcDbEntity
  8
Visible
100
AcDbCircle
 10
-5.596246
 20
4.448771
 30
-0.477712
 40
0.0809817048615761
210
-0.0000320989017382
220
-0.0000362263122918
230
-0.9999999988286575
100
AcDbArc
 50
128.973219
 51
134.112901
  0
ARC
  5
3C1
330
70
100
AcDbEntity
  8
Visible
100
AcDbCircle
 10
-5.592064
 20
4.456615
 30
-0.477367
 40
0.0779679038476102
210
0.0000000000002942
220
0.0000000000000022
230
-1.0
100
AcDbArc
 50
90.0
 51
135.0
  0
SPLINE
  5
3C2
330
70
100
AcDbEntity
  8
Visible
100
AcDbSpline
 70
     0
 71
     3
 72
    26
 73
    22
 74
     0
 42
0.000000001
 43
0.0000000001
 40
-20.1037825506331
 40
-20.1037825506331
 40
-20.1037825506331
 40
-20.1037825506331
 40
-20.08293695285298
 40
-20.08293695285298
 40
-19.92420127259608
 40
-19.92420127259608
 40
-19.76966833312272
 40
-19.76966833312272
 40
-19.61110838288817
 40
-19.61110838288817
 40
-19.45658482162815
 40
-19.45658482162815
 40
-19.29820433221051
 40
-19.29820433221051
 40
-19.14368494538505
 40
-19.14368494538505
 40
-18.98548763271728
 40
-18.98548763271728
 40
-18.83096702423764
 40
-18.83096702423764
 40
-18.81336778662152
 40
-18.81336778662152
 40
-18.81336778662152
 40
-18.81336778662152
 10
2.283432037072998
 20
4.296344050678591
 30
-0.0168941118536168
 10
2.283299006991001
 20
4.296114443964563
 30
-0.0141679513908457
 10
2.283166959663503
 20
4.295955669040178
 30
-0.0114332934936101
 10
2.282039068182712
 20
4.295203440065929
 30
0.0121751460228552
 10
2.281013152065497
 20
4.298695052949943
 30
0.0329708857607329
 10
2.278910550265209
 20
4.313392039338359
 30
0.0714746151916188
 10
2.277877382119186
 20
4.324252393280734
 30
0.0888872649102268
 10
2.27590816000702
 20
4.352356359747232
 30
0.1190089603733213
 10
2.274885434795578
 20
4.369481132552296
 30
0.1312857896500645
 10
2.272783516473282
 20
4.407038887923484
 30
0.1482315653338446
 10
2.271749522034951
 20
4.427022826460599
 30
0.1529265850876982
 10
2.269778612055233
 20
4.468179930989768
 30
0.1544751361543604
 10
2.268759226139081
 20
4.488963946036259
 30
0.1511146927950904
 10
2.266658047101373
 20
4.527541884726715
 30
0.1366697089342779
 10
2.265623183848219
 20
4.545032811907424
 30
0.1259115439497691
 10
2.263650488872372
 20
4.575310658675643
 30
0.0980067494456307
 10
2.262634588672881
 20
4.587677111645928
 30
0.0809893117911997
 10
2.260534208890021
 20
4.604867690778062
 30
0.0435655862529529
 10
2.259498433990302
 20
4.609698312659277
 30
0.0236000563963899
 10
2.25841097617922
 20
4.610698112366894
 30
0.000951670563154
 10
2.258299610575704
 20
4.610749099408208
 30
-0.0013638623004226
 10
2.258188023151888
 20
4.610749098532883
 30
-0.0036774693871848
1001
ACAD_VIEW_EDGE_ID
1071
       23
1071
       -1
1071
        7
1071
        0
  0
SPLINE
  5
3C3
330
70
100
AcDbEntity
  8
Visible
100
AcDbSpline
 70
     0
 71
     3
 72
    26
 73
    22
 74
     0
 42
0.000000001
 43
0.0000000001
 40
-22.62353042934528
 40
-22.62353042934528
 40
-22.62353042934528
 40
-22.62353042934528
 40
-22.59587439227068
 40
-22.59587439227068
 40
-22.43586084319367
 40
-22.43586084319367
 40
-22.28109012081012
 40
-22.28109012081012
 40
-22.12122472242591
 40
-22.12122472242591
 40
-21.96649762076992
 40
-21.96649762076992
 40
-21.80678345520427
 40
-21.80678345520427
 40
-21.65209640955183
 40
-21.65209640955183
 40
-21.49253668379856
 40
-21.49253668379856
 40
-21.33788593071876
 40
-21.33788593071876
 40
-21.32895177098556
 40
-21.32895177098556
 40
-21.32895177098556
 40
-21.32895177098556
 10
2.332644635584074
 20
4.29634405619495
 30
-0.0168941113824985
 10
2.332468841685113
 20
4.296040637559133
 30
-0.0132916011716589
 10
2.332294790005107
 20
4.295860953266486
 30
-0.0096747870484251
 10
2.331127716573973
 20
4.29549036929936
 30
0.014922695399946
 10
2.330081474197868
 20
4.299367644651715
 30
0.0357520624438621
 10
2.327974984949833
 20
4.314802224895192
 30
0.0740327144831099
 10
2.326947002187807
 20
4.325958747107113
 30
0.0912127170358872
 10
2.324988175867474
 20
4.354644521772855
 30
0.1208729484351352
 10
2.323943997076639
 20
4.372085762830937
 30
0.1328843064584362
 10
2.321837869001683
 20
4.410032924538524
 30
0.1491055114365736
 10
2.320809365330205
 20
4.430065788976982
 30
0.1534012863521639
 10
2.318849508816128
 20
4.47131459816387
 30
0.1541625053632742
 10
2.317807521720169
 20
4.492137253585426
 30
0.1503634293112555
 10
2.315701784986231
 20
4.53046372612568
 30
0.1350779984022665
 10
2.314672726804928
 20
4.547691195114313
 30
0.123981008769988
 10
2.312711770369787
 20
4.577445275849763
 30
0.0954127445220365
 10
2.3116721077713
 20
4.589510704540787
 30
0.0780357749608811
 10
2.309566795041973
 20
4.605879402938664
 30
0.0401669986658817
 10
2.308537147282549
 20
4.610256187447835
 30
0.0201434259888629
 10
2.307515106074788
 20
4.610736017849563
 30
-0.0013330002348084
 10
2.307459157764242
 20
4.610749101662947
 30
-0.002505578328055
 10
2.307403081500524
 20
4.610749101186709
 30
-0.003677588498249
1001
ACAD_VIEW_EDGE_ID
1071
       23
1071
       -1
1071
        7
1071
        0
  0
SPLINE
  5
3C4
330
70
100
AcDbEntity
  8
Visible
100
AcDbSpline
 70
     0
 71
     3
 72
    22
 73
    18
 74
     0
 42
0.000000001
 43
0.0000000001
 40
-41.54957991828759
 40
-41.54957991828759
 40
-41.54957991828759
 40
-41.54957991828759
 40
-41.47833982887194
 40
-41.47833982887194
 40
-41.32452675136618
 40
-41.32452675136618
 40
-41.16621546118397
 40
-41.16621546118397
 40
-41.01235923897059
 40
-41.01235923897059
 40
-40.85417524687054
 40
-40.85417524687054
 40
-40.70026434113636
 40
-40.70026434113636
 40
-40.5422082526975
 40
-40.5422082526975
 40
-40.47936451125253
 40
-40.47936451125253
 40
-40.47936451125253
 40
-40.47936451125253
 10
2.255770312893218
 20
4.593371744866088
 30
0.0682333330987604
 10
2.256243603580514
 20
4.589123106645018
 30
0.0765109127041797
 10
2.256713677721563
 20
4.58413905016797
 30
0.0844156564598961
 10
2.258170753671947
 20
4.566223633793509
 30
0.1078961277507915
 10
2.259102514872211
 20
4.551008378205819
 30
0.1214402154637355
 10
2.261171758680575
 20
4.515784644218972
 30
0.1423478822161996
 10
2.262240917410963
 20
4.495995308332247
 30
0.1493131261213421
 10
2.264266088659496
 20
4.455433559366801
 30
0.1550771695165167
 10
2.265196030070001
 20
4.435082522331851
 30
0.1540469167539413
 10
2.267262563331314
 20
4.395326460177178
 30
0.1442200381734437
 10
2.268331306269828
 20
4.376354845590403
 30
0.1353019289781514
 10
2.27036004168076
 20
4.343415360536371
 30
0.1109536274652783
 10
2.271288478756105
 20
4.329633133545151
 30
0.0959332372840436
 10
2.273352195446932
 20
4.308210224463367
 30
0.0610401412959618
 10
2.274420453097263
 20
4.300955510109938
 30
0.0413898178649106
 10
2.275859195689918
 20
4.296430762088984
 30
0.0127515591084375
 10
2.276255910664986
 20
4.295788467027551
 30
0.0045342776738835
 10
2.276651296406271
 20
4.295788457439308
 30
-0.0036774117488676
1001
ACAD_VIEW_EDGE_ID
1071
       25
1071
       -1
1071
        7
1071
        0
  0
SPLINE
  5
3C5
330
70
100
AcDbEntity
  8
Visible
100
AcDbSpline
 70
     0
 71
     3
 72
    24
 73
    20
 74
     0
 42
0.000000001
 43
0.0000000001
 40
-39.2527194845897
 40
-39.2527194845897
 40
-39.2527194845897
 40
-39.2527194845897
 40
-39.14012904111165
 40
-39.14012904111165
 40
-38.98270004708311
 40
-38.98270004708311
 40
-38.82835057893012
 40
-38.82835057893012
 40
-38.67079457465869
 40
-38.67079457465869
 40
-38.51655764875131
 40
-38.51655764875131
 40
-38.35887382474806
 40
-38.35887382474806
 40
-38.20473778250415
 40
-38.20473778250415
 40
-38.04692568146996
 40
-38.04692568146996
 40
-37.95859874582224
 40
-37.95859874582224
 40
-37.95859874582224
 40
-37.95859874582224
 10
2.300615220829058
 20
4.61019355820458
 30
-0.0168939465638687
 10
2.301329048475963
 20
4.611429282631491
 30
-0.0022214687614905
 10
2.302022126452357
 20
4.610603360343184
 30
0.0125793628758402
 10
2.303796350717675
 20
4.603682442029494
 30
0.047339901650048
 10
2.304861191041709
 20
4.595697569666696
 30
0.0666153099518851
 10
2.306909775987151
 20
4.572965350026204
 30
0.1006451616995037
 10
2.307836102061628
 20
4.55856663131906
 30
0.1151620774435287
 10
2.309882123823626
 20
4.524709943573301
 30
0.1381811169267166
 10
2.310947801481233
 20
4.50548343867173
 30
0.1463269240794034
 10
2.312999630945341
 20
4.465409602205524
 30
0.1546337931013113
 10
2.31392563015288
 20
4.444979861417643
 30
0.1548821416217834
 10
2.315968189288469
 20
4.404699365823344
 30
0.1475488326595951
 10
2.317034633551884
 20
4.385265909394756
 30
0.1398634004344785
 10
2.31908963584101
 20
4.350876788689543
 30
0.1176699647985515
 10
2.320015707296988
 20
4.336151172114695
 30
0.1035269728963613
 10
2.322054757396472
 20
4.312578574057711
 30
0.0700474297591427
 10
2.323121896104566
 20
4.304111572889892
 30
0.0509229821891495
 10
2.324746275131474
 20
4.297057138269943
 30
0.0193956257608079
 10
2.325299565387467
 20
4.295788446139218
 30
0.00786330694973
 10
2.325855020979361
 20
4.295788457106375
 30
-0.0036778389330721
1001
ACAD_VIEW_EDGE_ID
1071
       25
1071
       -1
1071
        7
1071
        0
  0
SPLINE
  5
3C6
330
70
100
AcDbEntity
  8
Visible
100
AcDbSpline
 70
     4
 71
     2
 72
    12
 73
     9
 74
     0
 42
0.000000001
 43
0.0000000001
 40
0.4150523165451793
 40
0.4150523165451793
 40
0.4150523165451793
 40
0.4176829268292683
 40
0.4176829268292683
 40
0.4207317073170732
 40
0.4207317073170732
 40
0.423780487804878
 40
0.423780487804878
 40
0.426829268292683
 40
0.426829268292683
 40
0.426829268292683
 10
2.277449216171589
 20
4.5780802819567
 30
0.0096003621274576
 41
0.9819827407397962
 10
2.280173738643497
 20
4.573387750142969
 30
0.0537095297349879
 41
0.9343202026494051
 10
2.282797995118016
 20
4.542021856867544
 30
0.085075423010494
 41
1.0
 10
2.285873782519047
 20
4.505259131762398
 30
0.1218381481157849
 41
0.9238795325112867
 10
2.288949569920077
 20
4.453268787328908
 30
0.1218381481157849
 41
1.0
 10
2.292025357322927
 20
4.401278442895417
 30
0.1218381481157849
 41
0.9238795325112867
 10
2.295101144723957
 20
4.364515717790271
 30
0.085075423010494
 41
1.0
 10
2.298176932124988
 20
4.327752992685126
 30
0.0483126979052031
 41
0.9238795325112867
 10
2.301252719527838
 20
4.327752992685126
 30
-0.0036776465276489
 41
1.0
1001
ACAD_VIEW_EDGE_ID
1071
       42
1071
       -1
1071
        7
1071
        0
  0
SPLINE
  5
3C7
330
70
100
AcDbEntity
  8
Visible
100
AcDbSpline
 70
     4
 71
     2
 72
     8
 73
     5
 74
     0
 42
0.000000001
 43
0.0000000001
 40
0.4394425604476183
 40
0.4394425604476183
 40
0.4394425604476183
 40
0.4420731707317074
 40
0.4420731707317074
 40
0.4433226443036095
 40
0.4433226443036095
 40
0.4433226443036095
 10
2.326661814597172
 20
4.5780802819567
 30
0.0096003621274576
 41
0.9819827407397962
 10
2.329386337067262
 20
4.573387750142969
 30
0.0537095297349879
 41
0.9343202026494051
 10
2.3320105935436
 20
4.542021856867544
 30
0.085075423010494
 41
1.0
 10
2.333212682939119
 20
4.52765412716815
 30
0.0994431527105917
 41
0.9688037519301817
 10
2.33451047066228
 20
4.509487197905111
 30
0.1085440314909647
 41
0.9631776540641293
1001
ACAD_VIEW_EDGE_ID
1071
       42
1071
       -1
1071
        7
1071
        0
  0
SPLINE
  5
3C8
330
70
100
AcDbEntity
  8
Visible
100
AcDbSpline
210
0.9979560350980051
220
0.0244550933864942
230
0.059039820620724
 70
    12
 71
     2
 72
     6
 73
     3
 74
     0
 42
0.000000001
 43
0.0000000001
 40
0.4012271382108226
 40
0.4012271382108226
 40
0.4012271382108226
 40
0.4020208541865274
 40
0.4020208541865274
 40
0.4020208541865274
 10
2.255770313182438
 20
4.333781497631192
 30
0.0347541411720158
 41
0.9635392891858145
 10
2.256595123886654
 20
4.329824438660416
 30
0.0224513501780166
 41
0.9676018504369498
 10
2.257388900048681
 20
4.328457292701117
 30
0.0096003621274576
 41
0.9819827407397722
1001
ACAD_VIEW_EDGE_ID
1071
       43
1071
       -1
1071
        7
1071
        0
  0
SPLINE
  5
3C9
330
70
100
AcDbEntity
  8
Visible
100
AcDbSpline
 70
     4
 71
     2
 72
    12
 73
     9
 74
     0
 42
0.000000001
 43
0.0000000001
 40
0.4146341463414635
 40
0.4146341463414635
 40
0.4146341463414635
 40
0.4176829268292683
 40
0.4176829268292683
 40
0.4207317073170732
 40
0.4207317073170732
 40
0.423780487804878
 40
0.423780487804878
 40
0.4264110980889671
 40
0.4264110980889671
 40
0.4264110980889671
 10
2.282797995118016
 20
4.57878458197269
 30
-0.0036776465276489
 41
1.0
 10
2.285873782519047
 20
4.57878458197269
 30
0.0483126979052031
 41
0.9238795325112867
 10
2.288949569920077
 20
4.542021856867544
 30
0.085075423010494
 41
1.0
 10
2.292025357322927
 20
4.505259131762398
 30
0.1218381481157849
 41
0.9238795325112867
 10
2.295101144723957
 20
4.453268787328908
 30
0.1218381481157849
 41
1.0
 10
2.298176932124988
 20
4.401278442895417
 30
0.1218381481157849
 41
0.9238795325112867
 10
2.301252719527838
 20
4.364515717790271
 30
0.085075423010494
 41
1.0
 10
2.303876976002356
 20
4.333149824514846
 30
0.0537095297349879
 41
0.9343202026494051
 10
2.306601498474265
 20
4.328457292701116
 30
0.0096003621274576
 41
0.9819827407397962
1001
ACAD_VIEW_EDGE_ID
1071
       43
1071
       -1
1071
        7
1071
        0
  0
SPLINE
  5
3CA
330
70
100
AcDbEntity
  8
Visible
100
AcDbSpline
210
-0.9979560350863076
220
-0.0244550942966009
230
0.0590398204414675
 70
    12
 71
     2
 72
     6
 73
     3
 74
     0
 42
0.000000001
 43
0.0000000001
 40
0.4390243902439025
 40
0.4390243902439025
 40
0.4390243902439025
 40
0.4402738638158059
 40
0.4402738638158059
 40
0.4402738638158059
 10
2.3320105935436
 20
4.57878458197269
 30
-0.0036776465276489
 41
1.0
 10
2.333212682939119
 20
4.57878458197269
 30
0.0166413916740567
 41
0.9688037519301511
 10
2.33451047066228
 20
4.572373916198054
 30
0.0359226436503377
 41
0.9631776540641183
1001
ACAD_VIEW_EDGE_ID
1071
       43
1071
       -1
1071
        7
1071
        0
  0
LINE
  5
3CB
330
70
100
AcDbEntity
  8
Visible
100
AcDbLine
 10
2.25577
 20
4.610749
 30
-0.003678
 11
2.258192
 21
4.610749
 31
-0.003678
210
0.0
220
1.0
230
0.0
  0
LINE
  5
3CC
330
70
100
AcDbEntity
  8
Visible
100
AcDbLine
 10
2.301253
 20
4.610749
 30
-0.003678
 11
2.307404
 21
4.610749
 31
-0.003678
210
0.0
220
1.0
230
0.0
  0
LINE
  5
3CD
330
70
100
AcDbEntity
  8
Visible
100
AcDbLine
 10
2.276646
 20
4.295788
 30
-0.003678
 11
2.282798
 21
4.295788
 31
-0.003678
210
0.0
220
1.0
230
0.0
  0
LINE
  5
3CE
330
70
100
AcDbEntity
  8
Visible
100
AcDbLine
 10
2.325859
 20
4.295788
 30
-0.003678
 11
2.332011
 21
4.295788
 31
-0.003678
210
0.0
220
1.0
230
0.0
  0
SPLINE
  5
3CF
330
70
100
AcDbEntity
  8
Visible
100
AcDbSpline
 70
     0
 71
     3
 72
     8
 73
     4
 74
     0
 42
0.000000001
 43
0.0000000001
 40
0.0020685770267444
 40
0.0020685770267444
 40
0.0020685770267444
 40
0.0020685770267444
 40
0.0942917788502743
 40
0.0942917788502743
 40
0.0942917788502743
 40
0.0942917788502743
 10
2.301646605586938
 20
4.327752992685126
 30
-0.0169541434952407
 10
2.295569947282274
 20
4.317286328274642
 30
-0.0169317331619823
 10
2.289499468568465
 20
4.306816070219583
 30
-0.0169117657424067
 10
2.283432036991143
 20
4.29634404539024
 30
-0.0168941123029072
1001
ACAD_VIEW_EDGE_ID
1071
   -26641
1071
       -1
1071
        7
1071
        0
  0
SPLINE
  5
3D0
330
70
100
AcDbEntity
  8
Visible
100
AcDbSpline
 70
     0
 71
     3
 72
     8
 73
     4
 74
     0
 42
0.000000001
 43
0.0000000001
 40
0.0848389264330905
 40
0.0848389264330905
 40
0.0848389264330905
 40
0.0848389264330905
 40
0.0942917788502773
 40
0.0942917788502773
 40
0.0942917788502773
 40
0.0942917788502773
 10
2.33451047066228
 20
4.299564123290236
 30
-0.0168996115589835
 10
2.333888489800301
 20
4.298490784742396
 30
-0.0168977546818496
 10
2.333266545458172
 20
4.297417425009073
 30
-0.0168959217753582
 10
2.332644635416727
 20
4.29634404539024
 30
-0.0168941123029072
1001
ACAD_VIEW_EDGE_ID
1071
   -26642
1071
       -1
1071
        7
1071
        0
  0
SPLINE
  5
3D1
330
70
100
AcDbEntity
  8
Visible
100
AcDbSpline
 70
     0
 71
     3
 72
     8
 73
     4
 74
     0
 42
0.000000001
 43
0.0000000001
 40
0.0
 40
0.0
 40
0.0
 40
0.0
 40
0.0942917788502744
 40
0.0942917788502744
 40
0.0942917788502744
 40
0.0942917788502744
 10
2.258825737779261
 20
4.610193529267575
 30
0.0095388192476094
 10
2.265029262543976
 20
4.599486615716553
 30
0.0095568686556362
 10
2.27123597267564
 20
4.588781549086598
 30
0.0095773370139796
 10
2.277449216171589
 20
4.5780802819567
 30
0.0096003621274576
1001
ACAD_VIEW_EDGE_ID
1071
   -26679
1071
       -1
1071
        7
1071
        0
  0
SPLINE
  5
3D2
330
70
100
AcDbEntity
  8
Visible
100
AcDbSpline
 70
     0
 71
     3
 72
     8
 73
     4
 74
     0
 42
0.000000001
 43
0.0000000001
 40
0.0
 40
0.0
 40
0.0
 40
0.0
 40
0.094291778850274
 40
0.094291778850274
 40
0.094291778850274
 40
0.094291778850274
 10
2.308038336204845
 20
4.610193529267575
 30
0.0095388192476094
 10
2.314241860969559
 20
4.599486615716553
 30
0.0095568686556362
 10
2.320448571099404
 20
4.588781549086598
 30
0.0095773370139796
 10
2.326661814597173
 20
4.5780802819567
 30
0.0096003621274576
1001
ACAD_VIEW_EDGE_ID
1071
   -26680
1071
       -1
1071
        7
1071
        0
  0
LINE
  5
3D3
330
70
100
AcDbEntity
  8
Visible
100
AcDbLine
 10
2.27704
 20
4.578785
 30
-0.003678
 11
2.282798
 21
4.578785
 31
-0.003678
210
0.0
220
1.0
230
0.0
  0
LINE
  5
3D4
330
70
100
AcDbEntity
  8
Visible
100
AcDbLine
 10
2.326253
 20
4.578785
 30
-0.003678
 11
2.332011
 21
4.578785
 31
-0.003678
210
0.0
220
1.0
230
0.0
  0
LINE
  5
3D5
330
70
100
AcDbEntity
  8
Visible
100
AcDbLine
 10
2.25577
 20
4.327753
 30
-0.003678
 11
2.257798
 21
4.327753
 31
-0.003678
210
0.0
220
1.0
230
0.0
  0
LINE
  5
3D6
330
70
100
AcDbEntity
  8
Visible
100
AcDbLine
 10
2.301253
 20
4.327753
 30
-0.003678
 11
2.30701
 21
4.327753
 31
-0.003678
210
0.0
220
1.0
230
0.0
  0
SPLINE
  5
3D7
330
70
100
AcDbEntity
  8
Visible
100
AcDbSpline
 70
     0
 71
     3
 72
     8
 73
     4
 74
     0
 42
0.000000001
 43
0.0000000001
 40
0.0
 40
0.0
 40
0.0
 40
0.0
 40
0.0942917788501596
 40
0.0942917788501596
 40
0.0942917788501596
 40
0.0942917788501596
 10
2.276012378441009
 20
4.296344045390282
 30
0.0095388192476094
 10
2.269808853674476
 20
4.30705095894129
 30
0.0095568686556362
 10
2.26360214354463
 20
4.317756025571232
 30
0.0095773370139796
 10
2.257388900048681
 20
4.328457292701117
 30
0.0096003621274576
1001
ACAD_VIEW_EDGE_ID
1071
   -30743
1071
       -1
1071
        7
1071
        0
  0
SPLINE
  5
3D8
330
70
100
AcDbEntity
  8
Visible
100
AcDbSpline
 70
     0
 71
     3
 72
     8
 73
     4
 74
     0
 42
0.000000001
 43
0.0000000001
 40
0.0
 40
0.0
 40
0.0
 40
0.0
 40
0.0942917788501532
 40
0.0942917788501532
 40
0.0942917788501532
 40
0.0942917788501532
 10
2.325224976866593
 20
4.296344045390282
 30
0.0095388192476094
 10
2.319021452100059
 20
4.30705095894129
 30
0.0095568686556362
 10
2.312814741970214
 20
4.317756025571231
 30
0.0095773370139796
 10
2.306601498474265
 20
4.328457292701116
 30
0.0096003621274576
1001
ACAD_VIEW_EDGE_ID
1071
   -30744
1071
       -1
1071
        7
1071
        0
  0
SPLINE
  5
3D9
330
70
100
AcDbEntity
  8
Visible
100
AcDbSpline
 70
     0
 71
     3
 72
     8
 73
     4
 74
     0
 42
0.000000001
 43
0.0000000001
 40
0.002068576355072
 40
0.002068576355072
 40
0.002068576355072
 40
0.002068576355072
 40
0.0942917788501688
 40
0.0942917788501688
 40
0.0942917788501688
 40
0.0942917788501688
 10
2.282404108531409
 20
4.57878458197269
 30
-0.0169541433024279
 10
2.288480755445561
 20
4.58925125308533
 30
-0.0169317274121568
 10
2.294551246031915
 20
4.599721504361934
 30
-0.0169117657424067
 10
2.300618677652892
 20
4.610193529267533
 30
-0.0168941123029072
1001
ACAD_VIEW_EDGE_ID
1071
   -30775
1071
       -1
1071
        7
1071
        0
  0
SPLINE
  5
3DA
330
70
100
AcDbEntity
  8
Visible
100
AcDbSpline
 70
     0
 71
     3
 72
     8
 73
     4
 74
     0
 42
0.000000001
 43
0.0000000001
 40
0.002068576355055
 40
0.002068576355055
 40
0.002068576355055
 40
0.002068576355055
 40
0.0167101583849966
 40
0.0167101583849966
 40
0.0167101583849966
 40
0.0167101583849966
 10
2.331616706955173
 20
4.57878458197269
 30
-0.0169541433024279
 10
2.332581450338693
 20
4.580446296373513
 30
-0.0169505845005915
 10
2.333546032265076
 20
4.582108104652627
 30
-0.0169470845739852
 10
2.33451047066228
 20
4.583769996378799
 30
-0.016943645743595
1001
ACAD_VIEW_EDGE_ID
1071
   -30776
1071
       -1
1071
        7
1071
        0
  0
SPLINE
  5
3DB
330
70
100
AcDbEntity
  8
Visible
100
AcDbSpline
 70
     0
 71
     3
 72
    22
 73
    18
 74
     0
 42
0.000000001
 43
0.0000000001
 40
-2.936439152134089
 40
-2.936439152134089
 40
-2.936439152134089
 40
-2.936439152134089
 40
-2.415221202630288
 40
-2.415221202630288
 40
-1.945390938288834
 40
-1.945390938288834
 40
-1.651747023075425
 40
-1.651747023075425
 40
-1.468219576067044
 40
-1.468219576067044
 40
-1.210430525664445
 40
-1.210430525664445
 40
-0.7979680450202875
 40
-0.7979680450202875
 40
-0.1380280759896338
 40
-0.1380280759896338
 40
0.0
 40
0.0
 40
0.0
 40
0.0
 10
5.147010764334481
 20
7.433828762205642
 30
0.793584645673036
 10
5.147010764334481
 20
7.433828762205642
 30
0.8619859513837582
 10
5.169618608661039
 20
7.423408662728949
 30
0.930521402051454
 10
5.24722143962208
 20
7.395711423560186
 30
1.039587166489582
 10
5.29871773661398
 20
7.379792317242802
 30
1.082785952530684
 10
5.396659864527464
 20
7.360366274507937
 30
1.131302635983956
 10
5.438290155016147
 20
7.354352875589686
 30
1.144979445018179
 10
5.50801289690753
 20
7.348892425977791
 30
1.157298857022396
 10
5.535472250237944
 20
7.347792467387288
 30
1.159720140494755
 10
5.601689266863104
 20
7.347785720408482
 30
1.159735110257315
 10
5.640101214121386
 20
7.349955232960882
 30
1.154996248495081
 10
5.736359990136406
 20
7.36047700933156
 30
1.130866057725143
 10
5.791002907037182
 20
7.371741519210414
 30
1.104557676955664
 10
5.909925199235658
 20
7.403867160086534
 30
1.013220123340943
 10
5.959876862361852
 20
7.425567994313967
 30
0.9342367612116504
 10
5.977684124596635
 20
7.433160000370379
 30
0.8299429032613261
 10
5.979222036432474
 20
7.433828762205642
 30
0.8116985664073581
 10
5.979222036432474
 20
7.433828762205642
 30
0.793584645673036
1001
ACAD_VIEW_EDGE_ID
1071
        7
1071
       -1
1071
        8
1071
        0
  0
LINE
  5
3DC
330
70
100
AcDbEntity
  8
Visible
100
AcDbLine
 10
5.484376
 20
7.139922
 30
0.264103
 11
5.484376
 21
6.934404
 31
0.264103
210
0.0
220
1.0
230
0.0
  0
LINE
  5
3DD
330
70
100
AcDbEntity
  8
Visible
100
AcDbLine
 10
5.641857
 20
6.934404
 30
0.264103
 11
5.641857
 21
7.139922
 31
0.264103
210
0.0
220
1.0
230
0.0
  0
SPLINE
  5
3DE
330
70
100
AcDbEntity
  8
Visible
100
AcDbSpline
 70
     0
 71
     3
 72
    14
 73
    10
 74
     0
 42
0.000000001
 43
0.0000000001
 40
0.207287916178884
 40
0.207287916178884
 40
0.207287916178884
 40
0.207287916178884
 40
0.2901318620391773
 40
0.2901318620391773
 40
0.5802637240783547
 40
0.5802637240783547
 40
0.8595060823891273
 40
0.8595060823891273
 40
1.1387484406999
 40
1.1387484406999
 40
1.1387484406999
 40
1.1387484406999
 10
5.64185655786423
 20
7.139921674010199
 30
0.2641025170323701
 10
5.65184687330111
 20
7.143749268699973
 30
0.2611239804409706
 10
5.66159809855344
 20
7.148105710354672
 30
0.2575992428628524
 10
5.704219041426767
 20
7.169173750592776
 30
0.2394548081010726
 10
5.733970365739878
 20
7.189252349820348
 30
0.2188899297889293
 10
5.781104864521694
 20
7.223014900372023
 30
0.1717554310089326
 10
5.802135221218122
 20
7.23951502016891
 30
0.1420129954894946
 10
5.830974464746759
 20
7.262597040091392
 30
0.0744966598631436
 10
5.838706951566564
 20
7.269049498637945
 30
0.0366459787856002
 10
5.838706951566564
 20
7.269049498637945
 30
0.000000000003638
1001
ACAD_VIEW_EDGE_ID
1071
       14
1071
       -1
1071
        8
1071
        0
  0
SPLINE
  5
3DF
330
70
100
AcDbEntity
  8
Visible
100
AcDbSpline
 70
     0
 71
     3
 72
    14
 73
    10
 74
     0
 42
0.000000001
 43
0.0000000001
 40
3.4162453220997
 40
3.4162453220997
 40
3.4162453220997
 40
3.4162453220997
 40
3.695487680410473
 40
3.695487680410473
 40
3.974730038721246
 40
3.974730038721246
 40
4.264861900760423
 40
4.264861900760423
 40
4.347705846620716
 40
4.347705846620716
 40
4.347705846620716
 40
4.347705846620716
 10
5.28752584920403
 20
7.269049498637945
 30
0.000000000005457
 10
5.28752584920403
 20
7.269049498637945
 30
0.0366459787856002
 10
5.295258336023834
 20
7.262597040091392
 30
0.0744966598631436
 10
5.324097579552471
 20
7.23951502016891
 30
0.1420129954894946
 10
5.345127936247081
 20
7.223014900372023
 30
0.1717554310089326
 10
5.392262435025259
 20
7.189252349820346
 30
0.2188899297889293
 10
5.422013759340188
 20
7.169173750592776
 30
0.2394548081010726
 10
5.464634702211697
 20
7.148105710354672
 30
0.2575992428628524
 10
5.474385927464027
 20
7.143749268699973
 30
0.2611239804409706
 10
5.484376242902726
 20
7.139921674010199
 30
0.2641025170323701
1001
ACAD_VIEW_EDGE_ID
1071
       20
1071
       -1
1071
        8
1071
        0
  0
SPLINE
  5
3E0
330
70
100
AcDbEntity
  8
Visible
100
AcDbSpline
 70
     0
 71
     3
 72
    16
 73
    12
 74
     0
 42
0.000000001
 43
0.0000000001
 40
0.0
 40
0.0
 40
0.0
 40
0.0
 40
0.4838518415719354
 40
0.4838518415719354
 40
0.8530400771407038
 40
0.8530400771407038
 40
1.171409479092346
 40
1.171409479092346
 40
1.607240999172383
 40
1.607240999172383
 40
1.938587011404752
 40
1.938587011404752
 40
1.938587011404752
 40
1.938587011404752
 10
5.903231220938323
 20
7.509129182628255
 30
1.149266938196888
 10
5.859002357477947
 20
7.492186567253133
 30
1.191559996568685
 10
5.806625311839525
 20
7.47601560290076
 30
1.224944305900862
 10
5.704086510921115
 20
7.455635532145318
 30
1.265269058187186
 10
5.657066338135336
 20
7.44963539385117
 30
1.276322962765334
 10
5.567199793656982
 20
7.445311343790427
 30
1.284338132305492
 10
5.525313110354545
 20
7.446068099554363
 30
1.282969562018479
 10
5.427742802608918
 20
7.454202262424518
 30
1.267773292736819
 10
5.37391369202669
 20
7.463850513600002
 30
1.249741268955403
 10
5.287472457617695
 20
7.486230945709338
 30
1.203076417777992
 10
5.253301471957456
 20
7.497522295675116
 30
1.178240667255522
 10
5.223001579828633
 20
7.509129182628255
 30
1.149266938196888
1001
ACAD_VIEW_EDGE_ID
1071
       21
1071
       -1
1071
        8
1071
        0
  0
ARC
  5
3E1
330
70
100
AcDbEntity
  8
Visible
100
AcDbCircle
 10
5.196975
 20
7.549482
 30
0.793585
 40
0.1259842519685047
100
AcDbArc
 50
180.0
 51
246.634919
  0
ARC
  5
3E2
330
70
100
AcDbEntity
  8
Visible
100
AcDbCircle
 10
5.929258
 20
7.549482
 30
0.793585
 40
0.1259842519685034
100
AcDbArc
 50
293.365081
 51
0.0
  0
LINE
  5
3E3
330
70
100
AcDbEntity
  8
Visible
100
AcDbLine
 10
5.07099
 20
7.549482
 30
0.793585
 11
5.07099
 21
7.583486
 31
0.793585
210
0.0
220
1.0
230
0.0
  0
SPLINE
  5
3E4
330
70
100
AcDbEntity
  8
Visible
100
AcDbSpline
 70
     0
 71
     3
 72
    14
 73
    10
 74
     0
 42
0.000000001
 43
0.0000000001
 40
-3.850344731470829
 40
-3.850344731470829
 40
-3.850344731470829
 40
-3.850344731470829
 40
-3.609313048787377
 40
-3.609313048787377
 40
-3.368281366103925
 40
-3.368281366103925
 40
-2.886218000737022
 40
-2.886218000737022
 40
-2.857319688963139
 40
-2.857319688963139
 40
-2.857319688963139
 40
-2.857319688963139
 10
5.07099041613219
 20
7.583485998641094
 30
0.793584645673036
 10
5.07099041613219
 20
7.583485998641094
 30
0.8252161000946216
 10
5.074087701981625
 20
7.581586710882081
 30
0.8576688514185661
 10
5.08685458472064
 20
7.574064675270259
 30
0.9217663000290485
 10
5.096518698761428
 20
7.568455299821365
 30
0.9534136578349716
 10
5.134422119870578
 20
7.547858618137959
 30
1.043969030884909
 10
5.17203264629461
 20
7.529134219176673
 30
1.098472132909591
 10
5.217714388818421
 20
7.51116827411313
 30
1.144153875435222
 10
5.220338213013747
 20
7.510149430403491
 30
1.146720141392506
 10
5.223001579828633
 20
7.509129182628255
 30
1.149266938196888
1001
ACAD_VIEW_EDGE_ID
1071
       37
1071
       -1
1071
        8
1071
        0
  0
SPLINE
  5
3E5
330
70
100
AcDbEntity
  8
Visible
100
AcDbSpline
 70
     0
 71
     3
 72
    14
 73
    10
 74
     0
 42
0.000000001
 43
0.0000000001
 40
-0.9930250425076676
 40
-0.9930250425076676
 40
-0.9930250425076676
 40
-0.9930250425076676
 40
-0.9641267307338061
 40
-0.9641267307338061
 40
-0.4820633653669031
 40
-0.4820633653669031
 40
-0.2410316826834515
 40
-0.2410316826834515
 40
0.0
 40
0.0
 40
0.0
 40
0.0
 10
5.903231220938323
 20
7.509129182628258
 30
1.149266938196888
 10
5.905894587753209
 20
7.510149430403492
 30
1.146720141392506
 10
5.908518411948534
 20
7.51116827411313
 30
1.144153875435222
 10
5.954200154472346
 20
7.529134219176673
 30
1.098472132909591
 10
5.991810680896378
 20
7.547858618137959
 30
1.043969030884909
 10
6.029714102003708
 20
7.568455299821365
 30
0.9534136578349716
 10
6.039378216046316
 20
7.574064675270259
 30
0.9217663000290485
 10
6.052145098785331
 20
7.58158671088208
 30
0.8576688514185661
 10
6.055242384634766
 20
7.583485998641094
 30
0.8252161000946216
 10
6.055242384634766
 20
7.583485998641094
 30
0.793584645673036
1001
ACAD_VIEW_EDGE_ID
1071
       38
1071
       -1
1071
        8
1071
        0
  0
ARC
  5
3E6
330
70
100
AcDbEntity
  8
Visible
100
AcDbCircle
 10
6.934404
 20
0.0
 30
5.484376
 40
0.2641025170275345
210
1.0
220
-0.0000000000000092
230
0.0000000000002333
100
AcDbArc
 50
90.0
 51
133.609028
  0
ARC
  5
3E7
330
70
100
AcDbEntity
  8
Visible
100
AcDbCircle
 10
-6.934404
 20
0.0
 30
-5.641857
 40
0.2641025170275319
210
-1.0
220
0.0000000000000468
230
-0.000000000000665
100
AcDbArc
 50
80.326566
 51
90.0
  0
LINE
  5
3E8
330
70
100
AcDbEntity
  8
Visible
100
AcDbLine
 10
6.055242
 20
7.549482
 30
0.793585
 11
6.055242
 21
7.583486
 31
0.793585
210
0.0
220
1.0
230
0.0
  0
ARC
  5
3E9
330
70
100
AcDbEntity
  8
Visible
100
AcDbCircle
 10
-5.878077
 20
7.354979
 30
0.0
 40
0.0393700787401575
210
0.0000000000003033
220
0.0000000000000236
230
-1.0
100
AcDbArc
 50
0.0
 51
73.182096
  0
ARC
  5
3EA
330
70
100
AcDbEntity
  8
Visible
100
AcDbCircle
 10
5.248156
 20
7.354979
 30
0.0
 40
0.0393700787401575
100
AcDbArc
 50
360.0
 51
73.182096
  0
LINE
  5
3EB
330
70
100
AcDbEntity
  8
Visible
100
AcDbLine
 10
5.838707
 20
7.354979
 30
0.0
 11
5.838707
 21
7.269049
 31
0.0
210
0.0
220
1.0
230
0.0
  0
LINE
  5
3EC
330
70
100
AcDbEntity
  8
Visible
100
AcDbLine
 10
5.287526
 20
7.354979
 30
0.0
 11
5.287526
 21
7.269049
 31
0.0
210
0.0
220
1.0
230
0.0
  0
ARC
  5
3ED
330
70
100
AcDbEntity
  8
Visible
100
AcDbCircle
 10
4.454332
 20
-0.003678
 30
2.25577
 40
0.2559055118110236
210
1.0
220
0.0000000000000003
230
0.0000000000002969
100
AcDbArc
 50
0.0
 51
180.0
  0
ARC
  5
3EE
330
70
100
AcDbEntity
  8
Visible
100
AcDbCircle
 10
4.454332
 20
-0.003678
 30
1.743959
 40
0.9448818897637798
210
1.0
220
0.0000000000000003
230
0.0000000000002969
100
AcDbArc
 50
0.0
 51
180.0
  0
LINE
  5
3EF
330
70
100
AcDbEntity
  8
Visible
100
AcDbLine
 10
1.743959
 20
4.710238
 30
-0.003678
 11
2.25577
 21
4.710238
 31
-0.003678
210
0.0
220
1.0
230
0.0
  0
LINE
  5
3F0
330
70
100
AcDbEntity
  8
Visible
100
AcDbLine
 10
1.743959
 20
4.198427
 30
-0.003678
 11
2.25577
 21
4.198427
 31
-0.003678
210
0.0
220
1.0
230
0.0
  0
LINE
  5
3F1
330
70
100
AcDbEntity
  8
Visible
100
AcDbLine
 10
1.657345
 20
5.399214
 30
-0.003678
 11
1.743959
 21
5.399214
 31
-0.003678
210
0.0
220
1.0
230
0.0
  0
LINE
  5
3F2
330
70
100
AcDbEntity
  8
Visible
100
AcDbLine
 10
1.657345
 20
3.50945
 30
-0.003678
 11
1.743959
 21
3.50945
 31
-0.003678
210
0.0
220
1.0
230
0.0
  0
ARC
  5
3F3
330
70
100
AcDbEntity
  8
Visible
100
AcDbCircle
 10
4.454332
 20
-0.003678
 30
2.33451
 40
0.9448818897637799
210
1.0
220
-0.0000000000000021
230
0.000000000000297
100
AcDbArc
 50
0.0
 51
180.0
  0
LINE
  5
3F4
330
70
100
AcDbEntity
  8
Visible
100
AcDbLine
 10
2.33451
 20
5.399214
 30
-0.003678
 11
2.413251
 21
5.399214
 31
-0.003678
210
0.0
220
1.0
230
0.0
  0
LINE
  5
3F5
330
70
100
AcDbEntity
  8
Visible
100
AcDbLine
 10
2.33451
 20
3.50945
 30
-0.003678
 11
2.413251
 21
3.50945
 31
-0.003678
210
0.0
220
1.0
230
0.0
  0
SPLINE
  5
3F6
330
70
100
AcDbEntity
  8
Hidden
100
AcDbSpline
 70
     0
 71
     3
 72
    23
 73
    19
 74
     0
 42
0.000000001
 43
0.0000000001
 40
1.160721776067565
 40
1.160721776067565
 40
1.160721776067565
 40
1.160721776067565
 40
1.257445605371134
 40
1.257445605371134
 40
1.354169434674703
 40
1.354169434674703
 40
1.450899234715728
 40
1.450899234715728
 40
1.547629034756754
 40
1.547629034756754
 40
1.547629034756754
 40
1.644358834797779
 40
1.644358834797779
 40
1.741088634838805
 40
1.741088634838805
 40
1.837812464142374
 40
1.837812464142374
 40
1.934536293445942
 40
1.934536293445942
 40
1.934536293445942
 40
1.934536293445942
 10
5.689297447152057
 20
4.454332362738144
 30
0.4884483377263678
 10
5.689297447152057
 20
4.467025778657247
 30
0.4884483377263678
 10
5.68675332850762
 20
4.480541001440312
 30
0.4879076197830728
 10
5.676456334231261
 20
4.505362604773251
 30
0.4859537262454979
 10
5.668705417836463
 20
4.516671900701027
 30
0.4845673549698404
 10
5.650849032421319
 20
4.534528286116753
 30
0.4819539251457173
 10
5.63953997014687
 20
4.542278770993916
 30
0.4805546350271471
 10
5.614719180293832
 20
4.552575451997868
 30
0.4785710125088372
 10
5.601204245056578
 20
4.555119764312947
 30
0.4780171573274857
 10
5.588510045576185
 20
4.555119764312947
 30
0.4780171573274857
 10
5.575815846095792
 20
4.555119764312947
 30
0.4780171573274857
 10
5.562300910858539
 20
4.552575451997868
 30
0.4785710125088372
 10
5.537480121005501
 20
4.542278770993916
 30
0.4805546350271471
 10
5.526171058731051
 20
4.534528286116753
 30
0.4819539251457173
 10
5.508314673315908
 20
4.516671900701027
 30
0.4845673549698404
 10
5.500563756922929
 20
4.505362604773251
 30
0.4859537262454979
 10
5.490266762646569
 20
4.480541001440312
 30
0.4879076197830728
 10
5.487722644002133
 20
4.467025778657247
 30
0.4884483377263678
 10
5.487722644002133
 20
4.454332362738144
 30
0.4884483377263678
1001
ACAD_VIEW_EDGE_ID
1071
-1073743361
1071
        2
1071
        3
1071
        0
  0
SPLINE
  5
3F7
330
70
100
AcDbEntity
  8
Hidden
100
AcDbSpline
 70
     0
 71
     3
 72
    22
 73
    18
 74
     0
 42
0.000000001
 43
0.0000000001
 40
0.3869072586891886
 40
0.3869072586891886
 40
0.3869072586891886
 40
0.3869072586891886
 40
0.4836310879927574
 40
0.4836310879927574
 40
0.580354917296326
 40
0.580354917296326
 40
0.6770847173373516
 40
0.6770847173373516
 40
0.7738145173783772
 40
0.7738145173783772
 40
0.8705443174194027
 40
0.8705443174194027
 40
0.9672741174604283
 40
0.9672741174604283
 40
1.063997946763997
 40
1.063997946763997
 40
1.160721776067565
 40
1.160721776067565
 40
1.160721776067565
 40
1.160721776067565
 10
5.487722644002133
 20
4.454332362738144
 30
0.4884483377263678
 10
5.487722644002133
 20
4.441638946819041
 30
0.4884483377263678
 10
5.490266762646569
 20
4.428123724035976
 30
0.4879076197830728
 10
5.500563756922929
 20
4.403302120703036
 30
0.4859537262454979
 10
5.508314673315908
 20
4.391992824775261
 30
0.4845673549698404
 10
5.526171058731051
 20
4.374136439359535
 30
0.4819539251457173
 10
5.537480121005501
 20
4.366385954482372
 30
0.4805546350271471
 10
5.562300910858539
 20
4.35608927347842
 30
0.4785710125088372
 10
5.575815846095792
 20
4.353544961163341
 30
0.4780171573274857
 10
5.601204245056578
 20
4.353544961163341
 30
0.4780171573274857
 10
5.614719180293832
 20
4.35608927347842
 30
0.4785710125088372
 10
5.63953997014687
 20
4.366385954482372
 30
0.4805546350271471
 10
5.650849032421319
 20
4.374136439359535
 30
0.4819539251457173
 10
5.668705417836463
 20
4.391992824775261
 30
0.4845673549698404
 10
5.676456334231261
 20
4.403302120703036
 30
0.4859537262454979
 10
5.68675332850762
 20
4.428123724035976
 30
0.4879076197830728
 10
5.689297447152057
 20
4.441638946819041
 30
0.4884483377263678
 10
5.689297447152057
 20
4.454332362738144
 30
0.4884483377263678
1001
ACAD_VIEW_EDGE_ID
1071
-1073743873
1071
        2
1071
        3
1071
        0
  0
LINE
  5
3F8
330
70
100
AcDbEntity
  8
Visible
100
AcDbLine
 10
13.695761
 20
8.063152
 30
-0.09244
 11
13.695761
 21
7.905672
 31
-0.09244
  0
LINE
  5
3F9
330
70
100
AcDbEntity
  8
Visible
100
AcDbLine
 10
13.515053
 20
7.905672
 30
-0.09244
 11
13.515053
 21
8.063152
 31
-0.09244
  0
ARC
  5
3FA
330
70
100
AcDbEntity
  8
Visible
100
AcDbCircle
 10
-13.605407
 20
-1.072536
 30
8.063152
 40
0.9842519685039228
210
0.0
220
1.0
230
0.0
100
AcDbArc
 50
84.732832
 51
95.267168
  0
ARC
  5
3FB
330
70
100
AcDbEntity
  8
Visible
100
AcDbCircle
 10
-13.605407
 20
-1.072536
 30
7.905672
 40
0.984251968503937
210
0.0
220
1.0
230
0.0000000000000003
100
AcDbArc
 50
95.267168
 51
180.0
  0
ARC
  5
3FC
330
70
100
AcDbEntity
  8
Visible
100
AcDbCircle
 10
-13.605407
 20
-1.072536
 30
7.905672
 40
0.9842519685039366
210
0.0
220
1.0
230
0.0000000000000003
100
AcDbArc
 50
360.0
 51
84.732832
  0
ARC
  5
3FD
330
70
100
AcDbEntity
  8
Visible
100
AcDbCircle
 10
-13.605407
 20
-1.072536
 30
8.141892
 40
0.9842519685039368
210
0.0
220
1.0
230
-0.0000000000000002
100
AcDbArc
 50
0.0
 51
180.0
  0
LINE
  5
3FE
330
70
100
AcDbEntity
  8
Visible
100
AcDbLine
 10
12.621155
 20
7.905672
 30
-1.072536
 11
12.621155
 21
8.141892
 31
-1.072536
  0
LINE
  5
3FF
330
70
100
AcDbEntity
  8
Visible
100
AcDbLine
 10
14.589659
 20
7.905672
 30
-1.072536
 11
14.589659
 21
8.141892
 31
-1.072536
  0
ARC
  5
400
330
70
100
AcDbEntity
  8
Visible
100
AcDbCircle
 10
13.605407
 20
-1.072536
 30
-7.307247
 40
0.2559055118110236
210
0.0000000000000003
220
-1.0
230
0.0000000000000003
100
AcDbArc
 50
0.0
 51
180.0
  0
ARC
  5
401
330
70
100
AcDbEntity
  8
Visible
100
AcDbCircle
 10
13.605407
 20
-1.072536
 30
-7.819058
 40
0.9448818897637798
210
0.0
220
-1.0
230
0.0000000000000003
100
AcDbArc
 50
360.0
 51
180.0
  0
ARC
  5
402
330
70
100
AcDbEntity
  8
Visible
100
AcDbCircle
 10
13.605407
 20
-1.072536
 30
-7.905672
 40
0.9448818897637838
210
0.0
220
-1.0
230
0.0000000000000003
100
AcDbArc
 50
84.512707
 51
95.487293
  0
LINE
  5
403
330
70
100
AcDbEntity
  8
Visible
100
AcDbLine
 10
13.861312
 20
7.819058
 30
-1.072536
 11
13.861312
 21
7.307247
 31
-1.072536
  0
LINE
  5
404
330
70
100
AcDbEntity
  8
Visible
100
AcDbLine
 10
13.349501
 20
7.819058
 30
-1.072536
 11
13.349501
 21
7.307247
 31
-1.072536
  0
LINE
  5
405
330
70
100
AcDbEntity
  8
Visible
100
AcDbLine
 10
14.550289
 20
7.905672
 30
-1.072536
 11
14.550289
 21
7.819058
 31
-1.072536
  0
LINE
  5
406
330
70
100
AcDbEntity
  8
Visible
100
AcDbLine
 10
12.660525
 20
7.905672
 30
-1.072536
 11
12.660525
 21
7.819058
 31
-1.072536
  0
ARC
  5
407
330
70
100
AcDbEntity
  8
Visible
100
AcDbCircle
 10
13.605407
 20
-1.072536
 30
-7.228507
 40
0.9448818897637799
210
-0.0000000000000002
220
-1.0
230
-0.000000000000002
100
AcDbArc
 50
0.0
 51
180.0
  0
LINE
  5
408
330
70
100
AcDbEntity
  8
Visible
100
AcDbLine
 10
14.550289
 20
7.228507
 30
-1.072536
 11
14.550289
 21
7.149766
 31
-1.072536
  0
LINE
  5
409
330
70
100
AcDbEntity
  8
Visible
100
AcDbLine
 10
12.660525
 20
7.228507
 30
-1.072536
 11
12.660525
 21
7.149766
 31
-1.072536
  0
ARC
  5
40A
330
70
100
AcDbEntity
  8
Visible
100
AcDbCircle
 10
13.605407
 20
-1.072536
 30
-7.149766
 40
0.9842519685039372
210
0.0000000000000003
220
-1.0
230
-0.0000000000000004
100
AcDbArc
 50
0.0
 51
180.0
  0
ARC
  5
40B
330
70
100
AcDbEntity
  8
Visible
100
AcDbCircle
 10
13.605407
 20
-1.072536
 30
-6.952916
 40
0.9842519685039372
210
0.0000000000000004
220
-1.0
230
-0.0000000000000004
100
AcDbArc
 50
0.0
 51
180.0
  0
LINE
  5
40C
330
70
100
AcDbEntity
  8
Visible
100
AcDbLine
 10
14.589659
 20
7.149766
 30
-1.072536
 11
14.589659
 21
6.952916
 31
-1.072536
  0
LINE
  5
40D
330
70
100
AcDbEntity
  8
Visible
100
AcDbLine
 10
12.621155
 20
7.149766
 30
-1.072536
 11
12.621155
 21
6.952916
 31
-1.072536
  0
LINE
  5
40E
330
70
100
AcDbEntity
  8
Visible
100
AcDbLine
 10
14.097533
 20
6.952916
 30
-1.072536
 11
14.097533
 21
4.492027
 31
-1.072536
  0
LINE
  5
40F
330
70
100
AcDbEntity
  8
Visible
100
AcDbLine
 10
13.113281
 20
6.952916
 30
-1.072536
 11
13.113281
 21
4.492027
 31
-1.072536
  0
SPLINE
  5
410
330
70
100
AcDbEntity
  8
Visible
100
AcDbSpline
 70
     0
 71
     3
 72
    18
 73
    14
 74
     0
 42
0.000000001
 43
0.0000000001
 40
-19.47511511799401
 40
-19.47511511799401
 40
-19.47511511799401
 40
-19.47511511799401
 40
-19.45658482162815
 40
-19.45658482162815
 40
-19.29820433221051
 40
-19.29820433221051
 40
-19.14368494538505
 40
-19.14368494538505
 40
-18.98548763271728
 40
-18.98548763271728
 40
-18.83096702423764
 40
-18.83096702423764
 40
-18.68887681948526
 40
-18.68887681948526
 40
-18.68887681948526
 40
-18.68887681948526
 10
13.4484821171718
 20
7.291888090870997
 30
-1.086815831331464
 10
13.4482778232541
 20
7.292006455549199
 30
-1.084390205984767
 10
13.44812959779301
 20
7.292124046287426
 30
-1.081957769827159
 10
13.44725407257829
 20
7.293238366260993
 30
-1.058688222222838
 10
13.45061451593756
 20
7.294257752177145
 30
-1.037904207176347
 10
13.46505949979837
 20
7.296358931214854
 30
-0.9993262684858908
 10
13.47581766478288
 20
7.297393794468007
 30
-0.9818353413051815
 10
13.50372245928702
 20
7.299366489443855
 30
-0.9515574945369621
 10
13.52073989694145
 20
7.300382389643345
 30
-0.9391910415666778
 10
13.55816362247969
 20
7.302482769426205
 30
-0.9220004624345435
 10
13.57812915233626
 20
7.303518544325925
 30
-0.9171698405533287
 10
13.61715867910243
 20
7.305392539412423
 30
-0.9154469049879519
 10
13.63583851127441
 20
7.306301555519894
 30
-0.9179617197793586
 10
13.65362584691502
 20
7.307247474902396
 30
-0.9236827964197424
1001
ACAD_VIEW_EDGE_ID
1071
       23
1071
       -1
1071
       11
1071
        0
  0
SPLINE
  5
411
330
70
100
AcDbEntity
  8
Visible
100
AcDbSpline
 70
     0
 71
     3
 72
    26
 73
    22
 74
     0
 42
0.000000001
 43
0.0000000001
 40
-21.9927692679055
 40
-21.9927692679055
 40
-21.9927692679055
 40
-21.9927692679055
 40
-21.96649762076992
 40
-21.96649762076992
 40
-21.80678345520427
 40
-21.80678345520427
 40
-21.65209640955183
 40
-21.65209640955183
 40
-21.49253668379856
 40
-21.49253668379856
 40
-21.33788593071876
 40
-21.33788593071876
 40
-21.17848396970479
 40
-21.17848396970479
 40
-21.02386554266697
 40
-21.02386554266697
 40
-20.86462477990747
 40
-20.86462477990747
 40
-20.71003450593548
 40
-20.71003450593548
 40
-20.69933027050207
 40
-20.69933027050207
 40
-20.69933027050207
 40
-20.69933027050207
 10
13.44848212286524
 20
7.242675492358102
 30
-1.086815830846307
 10
13.44819359697067
 20
7.242842658004519
 30
-1.083390137551561
 10
13.4480169494127
 20
7.243008252995423
 30
-1.079951412770679
 10
13.44756670336937
 20
7.244167469500098
 30
-1.055553555048736
 10
13.45136577942139
 20
7.245209456596057
 30
-1.03473089962718
 10
13.46665121033038
 20
7.247315193329995
 30
-0.9964044270869257
 10
13.47774819996266
 20
7.248344251511298
 30
-0.9791769580982929
 10
13.50631646421061
 20
7.250305207946439
 30
-0.9494228773628432
 10
13.52369343377177
 20
7.251344870544926
 30
-0.9373574486718187
 10
13.56156221006677
 20
7.253450183274253
 30
-0.9209887502739412
 10
13.58158578274379
 20
7.254479831033677
 30
-0.9166119657647705
 10
13.62281654069557
 20
7.256441960729716
 30
-0.9156907803242798
 10
13.64363144836534
 20
7.257479161709852
 30
-0.9194003792583924
 10
13.6820099832421
 20
7.259584015089785
 30
-0.9345148929149988
 10
13.69929158349259
 20
7.260614288905344
 30
-0.9455434385806615
 10
13.72915287472096
 20
7.262577668838275
 30
-0.9739769568910242
 10
13.74128001931604
 20
7.263612267228381
 30
-0.991280448431606
 10
13.7578171250334
 20
7.265716623032858
 30
-1.029059173955394
 10
13.76228657024694
 20
7.266747560732255
 30
-1.049071722014576
 10
13.76286836324107
 20
7.267782915481802
 30
-1.070788264002649
 10
13.76288716926501
 20
7.267850124075266
 30
-1.072194172454462
 10
13.76288716864656
 20
7.267917493092681
 30
-1.073599286317995
1001
ACAD_VIEW_EDGE_ID
1071
       23
1071
       -1
1071
       11
1071
        0
  0
SPLINE
  5
412
330
70
100
AcDbEntity
  8
Visible
100
AcDbSpline
 70
     0
 71
     3
 72
    14
 73
    10
 74
     0
 42
0.000000001
 43
0.0000000001
 40
-41.54957991828761
 40
-41.54957991828761
 40
-41.54957991828761
 40
-41.54957991828761
 40
-41.47833982887194
 40
-41.47833982887194
 40
-41.32452675136618
 40
-41.32452675136618
 40
-41.16621546118397
 40
-41.16621546118397
 40
-41.10961043122353
 40
-41.10961043122353
 40
-41.10961043122353
 40
-41.10961043122353
 10
13.53349587563389
 20
7.307246665423008
 30
-0.9334964083465138
 10
13.52521829602847
 20
7.306773374735712
 30
-0.9377450465675842
 10
13.51731355227275
 20
7.306303300594663
 30
-0.9427291030446335
 10
13.49383308098186
 20
7.304846224644279
 30
-0.9606445194190968
 10
13.48028899326891
 20
7.303914463444016
 30
-0.9758597750067863
 10
13.45938132651645
 20
7.301845219635652
 30
-1.011083508993633
 10
13.45241608261131
 20
7.300776060905263
 30
-1.030872844880358
 10
13.44844774206831
 20
7.299381801942217
 30
-1.058798178171147
 10
13.44792653918193
 20
7.299023810028302
 30
-1.066201874632666
 10
13.44792652788237
 20
7.298667220744391
 30
-1.073599053177122
1001
ACAD_VIEW_EDGE_ID
1071
       25
1071
       -1
1071
       11
1071
        0
  0
SPLINE
  5
413
330
70
100
AcDbEntity
  8
Visible
100
AcDbSpline
 70
     0
 71
     3
 72
    24
 73
    20
 74
     0
 42
0.000000001
 43
0.0000000001
 40
-39.88289814400377
 40
-39.88289814400377
 40
-39.88289814400377
 40
-39.88289814400377
 40
-39.76369353753503
 40
-39.76369353753503
 40
-39.60651456410267
 40
-39.60651456410267
 40
-39.45190578144077
 40
-39.45190578144077
 40
-39.29460259207128
 40
-39.29460259207128
 40
-39.14012904111165
 40
-39.14012904111165
 40
-38.98270004708311
 40
-38.98270004708311
 40
-38.82835057893012
 40
-38.82835057893012
 40
-38.67079457465869
 40
-38.67079457465869
 40
-38.58879220294051
 40
-38.58879220294051
 40
-38.58879220294051
 40
-38.58879220294051
 10
13.762331620439
 20
7.274703261795366
 30
-1.086815745336119
 10
13.76364040965382
 20
7.273945964905578
 30
-1.071275915900608
 10
13.76263579580518
 20
7.273213852602566
 30
-1.055601504036535
 10
13.75496687799204
 20
7.271392151567852
 30
-1.020143922100195
 10
13.74668519384249
 20
7.270329188366304
 30
-1.001031266761226
 10
13.72341603388122
 20
7.268287263694219
 30
-0.9673650723035837
 10
13.70875960985904
 20
7.267359084580675
 30
-0.9530585096039668
 10
13.67452759951447
 20
7.265306321864045
 30
-0.9306004421052648
 10
13.65520354844193
 20
7.264242387502235
 30
-0.9227793890227577
 10
13.61500479250935
 20
7.262197107658721
 30
-0.9151094427596436
 10
13.59454160355744
 20
7.26127005437047
 30
-0.9151912791687777
 10
13.5543893070826
 20
7.259220627598551
 30
-0.9231857111831116
 10
13.53511389878076
 20
7.258155787274517
 30
-0.9311705835459099
 10
13.50108404703314
 20
7.256107202329076
 30
-0.9539028031864022
 10
13.48656713128912
 20
7.255180876254598
 30
-0.9683015218935462
 10
13.46354809180593
 20
7.2531348544926
 30
-1.002158209639304
 10
13.45540228465324
 20
7.252069176834993
 30
-1.021384714540875
 10
13.44901990756989
 20
7.250492704482894
 30
-1.052174454314679
 10
13.44792652251453
 20
7.249978223737343
 30
-1.062885310152811
 10
13.44792652682008
 20
7.249462901272636
 30
-1.073599452078622
1001
ACAD_VIEW_EDGE_ID
1071
       25
1071
       -1
1071
       11
1071
        0
  0
SPLINE
  5
414
330
70
100
AcDbEntity
  8
Visible
100
AcDbSpline
 70
     4
 71
     2
 72
    12
 73
     9
 74
     0
 42
0.000000001
 43
0.0000000001
 40
0.4089547555695696
 40
0.4089547555695696
 40
0.4089547555695696
 40
0.4115853658536585
 40
0.4115853658536585
 40
0.4146341463414635
 40
0.4146341463414635
 40
0.4176829268292683
 40
0.4176829268292683
 40
0.4207317073170732
 40
0.4207317073170732
 40
0.4207317073170732
 10
13.73021834988867
 20
7.297870911750578
 30
-1.060321357228908
 41
0.9819827407397962
 10
13.72552581807394
 20
7.29514638927867
 30
-1.016212189620486
 41
0.9343202026494051
 10
13.69415992479844
 20
7.292522132804151
 30
-0.9848462963450618
 41
1.0
 10
13.65739719969315
 20
7.28944634540312
 30
-0.948083571239916
 41
0.9238795325112867
 10
13.6054068552603
 20
7.28637055800209
 30
-0.948083571239916
 41
1.0
 10
13.55341651082744
 20
7.283294770599241
 30
-0.948083571239916
 41
0.9238795325112867
 10
13.51665378572215
 20
7.28021898319821
 30
-0.9848462963450616
 41
1.0
 10
13.47989106061686
 20
7.27714319579718
 30
-1.021609021450207
 41
0.9238795325112867
 10
13.47989106061686
 20
7.274067408396149
 30
-1.073599365883698
 41
1.0
1001
ACAD_VIEW_EDGE_ID
1071
       42
1071
       -1
1071
       11
1071
        0
  0
SPLINE
  5
415
330
70
100
AcDbEntity
  8
Visible
100
AcDbSpline
 70
     4
 71
     2
 72
    12
 73
     9
 74
     0
 42
0.000000001
 43
0.0000000001
 40
0.4333449994720088
 40
0.4333449994720088
 40
0.4333449994720088
 40
0.4359756097560976
 40
0.4359756097560976
 40
0.4390243902439025
 40
0.4390243902439025
 40
0.4420731707317074
 40
0.4420731707317074
 40
0.4433226443036104
 40
0.4433226443036104
 40
0.4433226443036104
 10
13.73021834988867
 20
7.248658313326814
 30
-1.060321357228901
 41
0.9819827407397882
 10
13.72552581807395
 20
7.245933790853086
 30
-1.016212189620484
 41
0.9343202026494108
 10
13.69415992479844
 20
7.243309534380387
 30
-0.9848462963450618
 41
1.0
 10
13.65739719969315
 20
7.240233746977538
 30
-0.9480835712399162
 41
0.9238795325112867
 10
13.6054068552603
 20
7.237157959576506
 30
-0.948083571239916
 41
1.0
 10
13.55341651082744
 20
7.234082172175476
 30
-0.948083571239916
 41
0.9238795325112867
 10
13.51665378572215
 20
7.231006384772626
 30
-0.9848462963450618
 41
1.0
 10
13.50228605602206
 20
7.229804295377107
 30
-0.9992140260444664
 41
0.9688037519301595
 10
13.49318517724168
 20
7.228506507653946
 30
-1.017380955307519
 41
0.9631776540641215
1001
ACAD_VIEW_EDGE_ID
1071
       42
1071
       -1
1071
       11
1071
        0
  0
SPLINE
  5
416
330
70
100
AcDbEntity
  8
Visible
100
AcDbSpline
 70
     4
 71
     2
 72
    12
 73
     9
 74
     0
 42
0.000000001
 43
0.0000000001
 40
0.4085365853658537
 40
0.4085365853658537
 40
0.4085365853658537
 40
0.4115853658536585
 40
0.4115853658536585
 40
0.4146341463414635
 40
0.4146341463414635
 40
0.4176829268292683
 40
0.4176829268292683
 40
0.4203135371133574
 40
0.4203135371133574
 40
0.4203135371133574
 10
13.73092264990373
 20
7.292522132804151
 30
-1.073599365883698
 41
1.0
 10
13.73092264990373
 20
7.28944634540312
 30
-1.021609021450207
 41
0.9238795325112867
 10
13.69415992479844
 20
7.28637055800209
 30
-0.9848462963450618
 41
1.0
 10
13.65739719969315
 20
7.283294770599241
 30
-0.948083571239916
 41
0.9238795325112867
 10
13.6054068552603
 20
7.28021898319821
 30
-0.948083571239916
 41
1.0
 10
13.55341651082744
 20
7.27714319579718
 30
-0.948083571239916
 41
0.9238795325112867
 10
13.51665378572215
 20
7.274067408396149
 30
-0.9848462963450616
 41
1.0
 10
13.48528789244665
 20
7.27144315192163
 30
-1.016212189620486
 41
0.9343202026494051
 10
13.48059536063192
 20
7.268718629447903
 30
-1.060321357228908
 41
0.9819827407397962
1001
ACAD_VIEW_EDGE_ID
1071
       43
1071
       -1
1071
       11
1071
        0
  0
SPLINE
  5
417
330
70
100
AcDbEntity
  8
Visible
100
AcDbSpline
 70
     4
 71
     2
 72
    10
 73
     7
 74
     0
 42
0.000000001
 43
0.0000000001
 40
0.4329268292682927
 40
0.4329268292682927
 40
0.4329268292682928
 40
0.4359756097560976
 40
0.4359756097560976
 40
0.4390243902439025
 40
0.4390243902439025
 40
0.4402738638158054
 40
0.4402738638158054
 40
0.4402738638158054
 10
13.73092264990373
 20
7.243309534380387
 30
-1.073599365883697
 41
0.9999999999999985
 10
13.73092264990373
 20
7.240233746977537
 30
-1.021609021450206
 41
0.923879532511288
 10
13.69415992479844
 20
7.237157959576506
 30
-0.9848462963450618
 41
1.0
 10
13.65739719969315
 20
7.234082172175476
 30
-0.9480835712399162
 41
0.9238795325112867
 10
13.6054068552603
 20
7.231006384772626
 30
-0.948083571239916
 41
1.0
 10
13.58508781705859
 20
7.229804295377107
 30
-0.948083571239916
 41
0.9688037519301609
 10
13.56580656508231
 20
7.228506507653946
 30
-0.9544942370145474
 41
0.9631776540641219
1001
ACAD_VIEW_EDGE_ID
1071
       43
1071
       -1
1071
       11
1071
        0
  0
LINE
  5
418
330
70
100
AcDbEntity
  8
Visible
100
AcDbLine
 10
13.762887
 20
7.274067
 30
-1.073599
 11
13.762887
 21
7.267916
 31
-1.073599
  0
LINE
  5
419
330
70
100
AcDbEntity
  8
Visible
100
AcDbLine
 10
13.447927
 20
7.298674
 30
-1.073599
 11
13.447927
 21
7.292522
 31
-1.073599
  0
LINE
  5
41A
330
70
100
AcDbEntity
  8
Visible
100
AcDbLine
 10
13.447927
 20
7.249461
 30
-1.073599
 11
13.447927
 21
7.24331
 31
-1.073599
  0
SPLINE
  5
41B
330
70
100
AcDbEntity
  8
Visible
100
AcDbSpline
 70
     0
 71
     3
 72
     8
 73
     4
 74
     0
 42
0.000000001
 43
0.0000000001
 40
0.0020685770267443
 40
0.0020685770267443
 40
0.0020685770267443
 40
0.0020685770267443
 40
0.094291778850274
 40
0.094291778850274
 40
0.094291778850274
 40
0.094291778850274
 10
13.47989106061686
 20
7.273673522335229
 30
-1.086875862850899
 10
13.46942439620579
 20
7.279750180639894
 30
-1.08685345251893
 10
13.45895413815014
 20
7.285820659353703
 30
-1.086833485098604
 10
13.448482113321
 20
7.291888090931024
 30
-1.086815831659201
1001
ACAD_VIEW_EDGE_ID
1071
   -26640
1071
       -1
1071
       11
1071
        0
  0
SPLINE
  5
41C
330
70
100
AcDbEntity
  8
Visible
100
AcDbSpline
 70
     0
 71
     3
 72
     8
 73
     4
 74
     0
 42
0.000000001
 43
0.0000000001
 40
0.0225392713422101
 40
0.0225392713422101
 40
0.0225392713422101
 40
0.0225392713422101
 40
0.0942917788502755
 40
0.0942917788502755
 40
0.0942917788502755
 40
0.0942917788502755
 10
13.47292070791627
 20
7.228506507653946
 30
-1.086861286957506
 10
13.46477612588387
 20
7.233232284195764
 30
-1.086844673417453
 10
13.4566296729954
 20
7.237954842807084
 30
-1.086829566581846
 10
13.448482113321
 20
7.242675492505441
 30
-1.086815831659199
1001
ACAD_VIEW_EDGE_ID
1071
   -26641
1071
       -1
1071
       11
1071
        0
  0
SPLINE
  5
41D
330
70
100
AcDbEntity
  8
Visible
100
AcDbSpline
 70
     0
 71
     3
 72
     8
 73
     4
 74
     0
 42
0.000000001
 43
0.0000000001
 40
0.0468399779080854
 40
0.0468399779080854
 40
0.0468399779080854
 40
0.0468399779080854
 40
0.0942917788502743
 40
0.0942917788502743
 40
0.0942917788502743
 40
0.0942917788502743
 10
13.74637707070906
 20
7.307246665133789
 30
-1.060354214584395
 10
13.74099004460186
 20
7.304122766001455
 30
-1.060343906594213
 10
13.73560370165251
 20
7.300997691170778
 30
-1.060332944485601
 10
13.73021834988867
 20
7.297870911750578
 30
-1.060321357228908
1001
ACAD_VIEW_EDGE_ID
1071
   -26679
1071
       -1
1071
       11
1071
        0
  0
SPLINE
  5
41E
330
70
100
AcDbEntity
  8
Visible
100
AcDbSpline
 70
     0
 71
     3
 72
     8
 73
     4
 74
     0
 42
0.000000001
 43
0.0000000001
 40
0.0
 40
0.0
 40
0.0
 40
0.0
 40
0.0942917788502767
 40
0.0942917788502767
 40
0.0942917788502767
 40
0.0942917788502767
 10
13.76233159719959
 20
7.267281791717323
 30
-1.060382900108196
 10
13.7516246836476
 20
7.261078266952608
 30
-1.060364850700117
 10
13.74091961701742
 20
7.254871556822763
 30
-1.060344382341201
 10
13.73021834988867
 20
7.248658313326814
 30
-1.060321357228901
1001
ACAD_VIEW_EDGE_ID
1071
   -26680
1071
       -1
1071
       11
1071
        0
  0
LINE
  5
41F
330
70
100
AcDbEntity
  8
Visible
100
AcDbLine
 10
13.730923
 20
7.29828
 30
-1.073599
 11
13.730923
 21
7.292522
 31
-1.073599
  0
LINE
  5
420
330
70
100
AcDbEntity
  8
Visible
100
AcDbLine
 10
13.730923
 20
7.249067
 30
-1.073599
 11
13.730923
 21
7.24331
 31
-1.073599
  0
LINE
  5
421
330
70
100
AcDbEntity
  8
Visible
100
AcDbLine
 10
13.479891
 20
7.274067
 30
-1.073599
 11
13.479891
 21
7.26831
 31
-1.073599
  0
SPLINE
  5
422
330
70
100
AcDbEntity
  8
Visible
100
AcDbSpline
 70
     0
 71
     3
 72
     8
 73
     4
 74
     0
 42
0.000000001
 43
0.0000000001
 40
0.0
 40
0.0
 40
0.0
 40
0.0
 40
0.0402127228402173
 40
0.0402127228402173
 40
0.0402127228402173
 40
0.0402127228402173
 10
13.448482113321
 20
7.299307749481158
 30
-1.060382900108196
 10
13.45304830299756
 20
7.30195337378791
 30
-1.060375202556475
 10
13.45761413597938
 20
7.304599613327809
 30
-1.060367079573318
 10
13.46217949709717
 20
7.307246665133789
 30
-1.060358495941984
1001
ACAD_VIEW_EDGE_ID
1071
   -30743
1071
       -1
1071
       11
1071
        0
  0
SPLINE
  5
423
330
70
100
AcDbEntity
  8
Visible
100
AcDbSpline
 70
     0
 71
     3
 72
     8
 73
     4
 74
     0
 42
0.000000001
 43
0.0000000001
 40
0.0
 40
0.0
 40
0.0
 40
0.0
 40
0.0942917788501525
 40
0.0942917788501525
 40
0.0942917788501525
 40
0.0942917788501525
 10
13.448482113321
 20
7.250095151057394
 30
-1.060382900108197
 10
13.45918902687299
 20
7.256298675822108
 30
-1.060364850700118
 10
13.46989409350317
 20
7.262505385951953
 30
-1.060344382341208
 10
13.48059536063192
 20
7.268718629447903
 30
-1.060321357228908
1001
ACAD_VIEW_EDGE_ID
1071
   -30744
1071
       -1
1071
       11
1071
        0
  0
SPLINE
  5
424
330
70
100
AcDbEntity
  8
Visible
100
AcDbSpline
 70
     0
 71
     3
 72
     8
 73
     4
 74
     0
 42
0.000000001
 43
0.0000000001
 40
0.0020685763550538
 40
0.0020685763550538
 40
0.0020685763550538
 40
0.0020685763550538
 40
0.0942917788501522
 40
0.0942917788501522
 40
0.0942917788501522
 40
0.0942917788501522
 10
13.73092264990373
 20
7.292916019392578
 30
-1.086875862658958
 10
13.74138932101596
 20
7.286839372476606
 30
-1.086853446768595
 10
13.75185957229405
 20
7.280768881890253
 30
-1.086833485098729
 10
13.76233159719959
 20
7.274701450269276
 30
-1.086815831659198
1001
ACAD_VIEW_EDGE_ID
1071
   -30776
1071
       -1
1071
       11
1071
        0
  0
SPLINE
  5
425
330
70
100
AcDbEntity
  8
Visible
100
AcDbSpline
 70
     0
 71
     3
 72
     8
 73
     4
 74
     0
 42
0.000000001
 43
0.0000000001
 40
0.0020685763550568
 40
0.0020685763550568
 40
0.0020685763550568
 40
0.0020685763550568
 40
0.079004025668381
 40
0.079004025668381
 40
0.079004025668381
 40
0.079004025668381
 10
13.73092264990373
 20
7.243703420966994
 30
-1.086875862658957
 10
13.73965427083203
 20
7.23863409407204
 30
-1.086857162629571
 10
13.74838840999837
 20
7.2335690976779
 30
-1.086840152262408
 10
13.75712394572292
 20
7.228506507653946
 30
-1.086824796980566
1001
ACAD_VIEW_EDGE_ID
1071
   -30777
1071
       -1
1071
       11
1071
        0
  0
SPLINE
  5
426
330
70
100
AcDbEntity
  8
Visible
100
AcDbSpline
 70
     3
 71
     3
 72
    38
 73
    34
 74
     0
 42
0.000000001
 43
0.0000000001
 40
0.0
 40
0.0
 40
0.0
 40
0.0
 40
0.1052270626182654
 40
0.1052270626182654
 40
0.2104541252365308
 40
0.2104541252365308
 40
0.3162289059359384
 40
0.3162289059359384
 40
0.4220036866353461
 40
0.4220036866353461
 40
0.5291511966677055
 40
0.5291511966677055
 40
0.6362987067000649
 40
0.6362987067000649
 40
0.741674034279468
 40
0.741674034279468
 40
0.847049361858871
 40
0.847049361858871
 40
0.9524246894382743
 40
0.9524246894382743
 40
1.057800017017677
 40
1.057800017017677
 40
1.164947527050037
 40
1.164947527050037
 40
1.272095037082396
 40
1.272095037082396
 40
1.377869817781803
 40
1.377869817781803
 40
1.483644598481211
 40
1.483644598481211
 40
1.588871661099476
 40
1.588871661099476
 40
1.694098723717741
 40
1.694098723717741
 40
1.694098723717741
 40
1.694098723717741
 10
12.71624730572694
 20
3.976894082168655
 30
1.919625088145741
 10
12.7300566315298
 20
3.976894082168655
 30
1.919625088145741
 10
12.74478623121649
 20
3.974134531343224
 30
1.919679316703238
 10
12.77187974838853
 20
3.962914993770027
 30
1.920049761180504
 10
12.78424340578022
 20
3.954454953323875
 30
1.92038317384886
 10
12.8038135731349
 20
3.934897843846556
 30
1.921520497269583
 10
12.81229512553
 20
3.922484413518759
 30
1.922405690776282
 10
12.82351109084266
 20
3.895353684229121
 30
1.925013818129213
 10
12.82624730572752
 20
3.880638792054014
 30
1.926754009708182
 10
12.82624730572752
 20
3.852970995489158
 30
1.930662918991797
 10
12.82344711341102
 20
3.838173308720797
 30
1.933100431549032
 10
12.81212373337439
 20
3.810997820430202
 30
1.938198719378027
 10
12.80360228744212
 20
3.798616203079291
 30
1.940843009445852
 10
12.78406025748336
 20
3.779213745205197
 30
1.945260405640769
 10
12.77177846054837
 20
3.770823506856686
 30
1.947337513571166
 10
12.74478806889601
 20
3.759662142481829
 30
1.950180112558328
 10
12.73007608887383
 20
3.75689408216931
 30
1.950925460155754
 10
12.70241852258005
 20
3.75689408216931
 30
1.950925460155754
 10
12.68770654255786
 20
3.759662142481829
 30
1.950180112558328
 10
12.6607161509055
 20
3.770823506856686
 30
1.947337513571166
 10
12.64843435397233
 20
3.779213745205197
 30
1.945260405640769
 10
12.62889232401358
 20
3.798616203079291
 30
1.940843009445852
 10
12.6203708780813
 20
3.810997820430202
 30
1.938198719378028
 10
12.60904749804285
 20
3.838173308720797
 30
1.933100431549032
 10
12.60624730572817
 20
3.852970995489158
 30
1.930662918991797
 10
12.60624730572817
 20
3.880638792054014
 30
1.926754009708182
 10
12.60898352061303
 20
3.895353684229121
 30
1.925013818129213
 10
12.62019948592387
 20
3.922484413518759
 30
1.922405690776282
 10
12.62868103831897
 20
3.934897843846556
 30
1.921520497269583
 10
12.64825120567366
 20
3.954454953323875
 30
1.92038317384886
 10
12.66061486306716
 20
3.962914993770027
 30
1.920049761180504
 10
12.6877083802392
 20
3.974134531343224
 30
1.919679316703238
 10
12.70243797992407
 20
3.976894082168655
 30
1.919625088145741
 10
12.71624730572694
 20
3.976894082168655
 30
1.919625088145741
1001
ACAD_VIEW_EDGE_ID
1071
        1
1071
       -1
1071
       12
1071
        0
  0
SPLINE
  5
427
330
70
100
AcDbEntity
  8
Visible
100
AcDbSpline
 70
     3
 71
     3
 72
    38
 73
    34
 74
     0
 42
0.000000001
 43
0.0000000001
 40
0.0
 40
0.0
 40
0.0
 40
0.0
 40
0.1053761078676369
 40
0.1053761078676369
 40
0.2107522157352737
 40
0.2107522157352737
 40
0.3175575673180363
 40
0.3175575673180363
 40
0.4243629189007989
 40
0.4243629189007989
 40
0.5299695457441525
 40
0.5299695457441525
 40
0.635576172587506
 40
0.635576172587506
 40
0.7408235194103613
 40
0.7408235194103613
 40
0.8460708662332166
 40
0.8460708662332166
 40
0.9513182130560718
 40
0.9513182130560718
 40
1.056565559878926
 40
1.056565559878926
 40
1.16217218672228
 40
1.16217218672228
 40
1.267778813565634
 40
1.267778813565634
 40
1.374584165148396
 40
1.374584165148396
 40
1.481389516731159
 40
1.481389516731159
 40
1.586765624598795
 40
1.586765624598795
 40
1.692141732466432
 40
1.692141732466432
 40
1.692141732466432
 40
1.692141732466432
 10
14.48624730572737
 20
4.226894082168655
 30
1.946840739485841
 10
14.50007619127427
 20
4.226894082168655
 30
1.946840739485841
 10
14.5147932554737
 20
4.22412618346425
 30
1.9461468080716
 10
14.54180293664649
 20
4.212952226902416
 30
1.943506541448685
 10
14.55409858283383
 20
4.204548844070814
 30
1.941579912064234
 10
14.57363386504766
 20
4.185127897690108
 30
1.937510228895827
 10
14.58214419671458
 20
4.172752567596035
 30
1.935089387879503
 10
14.59345174641567
 20
4.14559237690446
 30
1.93047441496492
 10
14.59624730572796
 20
4.130804015725516
 30
1.928296836275326
 10
14.59624730572796
 20
4.103140266086484
 30
1.9248667711686
 10
14.59350770916171
 20
4.088424293058778
 30
1.923378973542342
 10
14.58229411439788
 20
4.061303312715608
 30
1.921233988420292
 10
14.57381871306461
 20
4.048900252242674
 30
1.920559555889259
 10
14.55425885416843
 20
4.029343879446969
 30
1.919752480796728
 10
14.54189160289934
 20
4.020879437011899
 30
1.919561601120124
 10
14.51479175339773
 20
4.009654563184085
 30
1.919380163432468
 10
14.50005929349936
 20
4.00689408216931
 30
1.919372420418206
 10
14.47243531795538
 20
4.00689408216931
 30
1.919372420418206
 10
14.45770285805702
 20
4.009654563184085
 30
1.919380163432468
 10
14.43060300855541
 20
4.020879437011899
 30
1.919561601120124
 10
14.41823575728631
 20
4.029343879446969
 30
1.919752480796728
 10
14.39867589839014
 20
4.048900252242674
 30
1.920559555889259
 10
14.39020049705687
 20
4.061303312715608
 30
1.921233988420292
 10
14.37898690229303
 20
4.088424293058778
 30
1.923378973542342
 10
14.37624730572679
 20
4.103140266086484
 30
1.9248667711686
 10
14.37624730572679
 20
4.130804015725516
 30
1.928296836275326
 10
14.37904286503908
 20
4.14559237690446
 30
1.930474414964921
 10
14.39035041474017
 20
4.172752567596035
 30
1.935089387879504
 10
14.39886074640708
 20
4.185127897690108
 30
1.937510228895827
 10
14.41839602862092
 20
4.204548844070814
 30
1.941579912064234
 10
14.43069167480826
 20
4.212952226902416
 30
1.943506541448685
 10
14.45770135598104
 20
4.22412618346425
 30
1.9461468080716
 10
14.47241842018047
 20
4.226894082168655
 30
1.946840739485841
 10
14.48624730572737
 20
4.226894082168655
 30
1.946840739485841
1001
ACAD_VIEW_EDGE_ID
1071
        3
1071
       -1
1071
       12
1071
        0
  0
SPLINE
  5
428
330
70
100
AcDbEntity
  8
Visible
100
AcDbSpline
 70
     0
 71
     3
 72
    16
 73
    12
 74
     0
 42
0.000000001
 43
0.0000000001
 40
0.0
 40
0.0
 40
0.0
 40
0.0
 40
0.4838518415719354
 40
0.4838518415719354
 40
0.8530400771407038
 40
0.8530400771407038
 40
1.171409479092346
 40
1.171409479092346
 40
1.607240999172383
 40
1.607240999172383
 40
1.938587011404752
 40
1.938587011404752
 40
1.938587011404752
 40
1.938587011404752
 10
12.45246227053758
 20
3.659785757376084
 30
1.982261029415649
 10
12.41016921216578
 20
3.70401462083646
 30
1.965318414040527
 10
12.3767849028336
 20
3.756391666474883
 30
1.949147449688154
 10
12.33646015054728
 20
3.858930467393292
 30
1.928767378932712
 10
12.32540624596913
 20
3.905950640179071
 30
1.922767240638563
 10
12.31739107642897
 20
3.995817184657425
 30
1.91844319057782
 10
12.31875964671599
 20
4.037703867959862
 30
1.919199946341757
 10
12.33395591599765
 20
4.13527417570549
 30
1.927334109211911
 10
12.35198793977906
 20
4.189103286287718
 30
1.936982360387396
 10
12.39865279095647
 20
4.275544520696712
 30
1.959362792496732
 10
12.42348854147894
 20
4.309715506356951
 30
1.97065414246251
 10
12.45246227053758
 20
4.340015398485775
 30
1.982261029415649
1001
ACAD_VIEW_EDGE_ID
1071
       21
1071
       -1
1071
       12
1071
        0
  0
SPLINE
  5
429
330
70
100
AcDbEntity
  8
Visible
100
AcDbSpline
 70
     0
 71
     3
 72
    16
 73
    12
 74
     0
 42
0.000000001
 43
0.0000000001
 40
0.0
 40
0.0
 40
0.0
 40
0.0
 40
0.4838518415719263
 40
0.4838518415719263
 40
0.853040077140691
 40
0.853040077140691
 40
1.171409479092341
 40
1.171409479092341
 40
1.607240999172379
 40
1.607240999172379
 40
1.93858701140477
 40
1.93858701140477
 40
1.93858701140477
 40
1.93858701140477
 10
14.75099614692226
 20
4.340015398485775
 30
1.98226102941565
 10
14.79328920529406
 20
4.295786535025399
 30
1.965318414040528
 10
14.82667351462623
 20
4.243409489386976
 30
1.949147449688154
 10
14.86699826691256
 20
4.140870688468567
 30
1.928767378932712
 10
14.87805217149071
 20
4.093850515684607
 30
1.922767240638564
 10
14.88606734103086
 20
4.003983971204434
 30
1.91844319057782
 10
14.88469877074385
 20
3.962097287901997
 30
1.919199946341757
 10
14.86950250146219
 20
3.864526980156369
 30
1.92733410921191
 10
14.85147047768078
 20
3.810697869574141
 30
1.936982360387395
 10
14.80480562650337
 20
3.724256635165147
 30
1.95936279249673
 10
14.77996987598089
 20
3.690085649504908
 30
1.97065414246251
 10
14.75099614692226
 20
3.659785757376084
 30
1.98226102941565
1001
ACAD_VIEW_EDGE_ID
1071
       30
1071
       -1
1071
       12
1071
        0
  0
SPLINE
  5
42A
330
70
100
AcDbEntity
  8
Visible
100
AcDbSpline
 70
     0
 71
     3
 72
    14
 73
    10
 74
     0
 42
0.000000001
 43
0.0000000001
 40
2.857319688963153
 40
2.857319688963153
 40
2.857319688963153
 40
2.857319688963153
 40
2.886218000737023
 40
2.886218000737023
 40
3.368281366103926
 40
3.368281366103926
 40
3.609313048787377
 40
3.609313048787377
 40
3.850344731470829
 40
3.850344731470829
 40
3.850344731470829
 40
3.850344731470829
 10
14.75099614692226
 20
4.340015398485775
 30
1.98226102941565
 10
14.74844935011788
 20
4.342678765300661
 30
1.983281277190885
 10
14.74588308416059
 20
4.345302589495986
 30
1.984300120900524
 10
14.70020134163496
 20
4.390984332019797
 30
2.002266065964066
 10
14.64569823961028
 20
4.42859485844383
 30
2.020990464925352
 10
14.55514286656034
 20
4.466498279552979
 30
2.04158714660876
 10
14.52349550875442
 20
4.476162393593767
 30
2.047196522057654
 10
14.45939806014394
 20
4.488929276332783
 30
2.054718557669476
 10
14.42694530881999
 20
4.492026562184037
 30
2.05661784542849
 10
14.39531385439841
 20
4.492026562184037
 30
2.05661784542849
1001
ACAD_VIEW_EDGE_ID
1071
       34
1071
       -1
1071
       12
1071
        0
  0
LINE
  5
42B
330
70
100
AcDbEntity
  8
Visible
100
AcDbLine
 10
14.395314
 20
4.492027
 30
2.056618
 11
12.808145
 21
4.492027
 31
2.056618
  0
SPLINE
  5
42C
330
70
100
AcDbEntity
  8
Visible
100
AcDbSpline
 70
     0
 71
     3
 72
    14
 73
    10
 74
     0
 42
0.000000001
 43
0.0000000001
 40
-3.850344731470829
 40
-3.850344731470829
 40
-3.850344731470829
 40
-3.850344731470829
 40
-3.609313048787377
 40
-3.609313048787377
 40
-3.368281366103925
 40
-3.368281366103925
 40
-2.886218000737022
 40
-2.886218000737022
 40
-2.857319688963139
 40
-2.857319688963139
 40
-2.857319688963139
 40
-2.857319688963139
 10
12.80814456306143
 20
4.492026562182218
 30
2.056617845428489
 10
12.77651310863985
 20
4.492026562182218
 30
2.056617845428489
 10
12.7440603573159
 20
4.488929276332783
 30
2.054718557669476
 10
12.67996290870542
 20
4.476162393593767
 30
2.047196522057652
 10
12.6483155508995
 20
4.466498279552979
 30
2.041587146608758
 10
12.55776017784956
 20
4.42859485844383
 30
2.020990464925352
 10
12.50325707582488
 20
4.390984332019797
 30
2.002266065964066
 10
12.45757533329924
 20
4.345302589495986
 30
1.984300120900524
 10
12.45500906734196
 20
4.342678765300661
 30
1.983281277190885
 10
12.45246227053758
 20
4.340015398485775
 30
1.982261029415649
1001
ACAD_VIEW_EDGE_ID
1071
       37
1071
       -1
1071
       12
1071
        0
  0
SPLINE
  5
42D
330
70
100
AcDbEntity
  8
Visible
100
AcDbSpline
 70
     0
 71
     3
 72
    14
 73
    10
 74
     0
 42
0.000000001
 43
0.0000000001
 40
-0.9930250425076676
 40
-0.9930250425076676
 40
-0.9930250425076676
 40
-0.9930250425076676
 40
-0.9641267307338061
 40
-0.9641267307338061
 40
-0.4820633653669031
 40
-0.4820633653669031
 40
-0.2410316826834515
 40
-0.2410316826834515
 40
0.0
 40
0.0
 40
0.0
 40
0.0
 10
12.45246227053758
 20
3.659785757376084
 30
1.982261029415651
 10
12.45500906734196
 20
3.657122390561198
 30
1.983281277190885
 10
12.45757533329924
 20
3.654498566365873
 30
1.984300120900524
 10
12.50325707582488
 20
3.608816823842062
 30
2.002266065964066
 10
12.55776017784956
 20
3.571206297418029
 30
2.020990464925352
 10
12.6483155508995
 20
3.533302876310699
 30
2.041587146608758
 10
12.67996290870542
 20
3.523638762268092
 30
2.047196522057652
 10
12.7440603573159
 20
3.510871879529076
 30
2.054718557669474
 10
12.77651310863985
 20
3.507774593679641
 30
2.056617845428489
 10
12.80814456306143
 20
3.507774593679641
 30
2.056617845428489
1001
ACAD_VIEW_EDGE_ID
1071
       38
1071
       -1
1071
       12
1071
        0
  0
LINE
  5
42E
330
70
100
AcDbEntity
  8
Visible
100
AcDbLine
 10
12.808145
 20
3.507775
 30
2.056618
 11
14.395314
 21
3.507775
 31
2.056618
  0
SPLINE
  5
42F
330
70
100
AcDbEntity
  8
Visible
100
AcDbSpline
 70
     0
 71
     3
 72
    14
 73
    10
 74
     0
 42
0.000000001
 43
0.0000000001
 40
0.0
 40
0.0
 40
0.0
 40
0.0
 40
0.2410316826834516
 40
0.2410316826834516
 40
0.4820633653669033
 40
0.4820633653669033
 40
0.9641267307338065
 40
0.9641267307338065
 40
0.993025042507703
 40
0.993025042507703
 40
0.993025042507703
 40
0.993025042507703
 10
14.39531385439841
 20
3.507774593679641
 30
2.05661784542849
 10
14.42694530881999
 20
3.507774593679641
 30
2.05661784542849
 10
14.45939806014394
 20
3.510871879529076
 30
2.054718557669476
 10
14.52349550875442
 20
3.523638762268092
 30
2.047196522057654
 10
14.55514286656034
 20
3.533302876310699
 30
2.04158714660876
 10
14.64569823961028
 20
3.571206297418029
 30
2.020990464925352
 10
14.70020134163496
 20
3.608816823842062
 30
2.002266065964066
 10
14.74588308416059
 20
3.654498566365873
 30
1.984300120900524
 10
14.74844935011788
 20
3.657122390561198
 30
1.983281277190884
 10
14.75099614692226
 20
3.659785757376084
 30
1.982261029415648
1001
ACAD_VIEW_EDGE_ID
1071
       40
1071
       -1
1071
       12
1071
        0
  0
ENDSEC
  0
SECTION
  2
OBJECTS
  0
DICTIONARY
  5
C
330
0
100
AcDbDictionary
281
     1
  3
ACAD_COLOR
350
63
  3
ACAD_DETAILVIEWSTYLE
350
6A
  3
ACAD_GROUP
350
D
  3
ACAD_IMAGE_DICT
350
1B7
  3
ACAD_IMAGE_VARS
350
1B9
  3
ACAD_LAYOUT
350
62
  3
ACAD_MATERIAL
350
10
  3
ACAD_MLEADERSTYLE
350
66
  3
ACAD_MLINESTYLE
350
5F
  3
ACAD_PLOTSETTINGS
350
61
  3
ACAD_PLOTSTYLENAME
350
E
  3
ACAD_SCALELIST
350
42
  3
ACAD_SECTIONVIEWSTYLE
350
68
  3
ACAD_TABLESTYLE
350
64
  3
ACAD_VISUALSTYLE
350
29
  3
ACDB_RECOMPOSE_DATA
350
474
  3
AcDbVariableDictionary
350
46B
  0
DICTIONARY
  5
B4
330
70
100
AcDbDictionary
280
     1
281
     1
  3
ACAD_SORTENTS
360
1AD
  0
DICTIONARY
  5
1B1
330
1B0
100
AcDbDictionary
280
     1
281
     1
  3
ACAD_SORTENTS
360
34B
  0
IMAGEDEF_REACTOR
  5
1B8
330
1B5
100
AcDbRasterImageDefReactor
 90
        2
330
1B5
  0
DICTIONARY
  5
63
102
{ACAD_REACTORS
330
C
102
}
330
C
100
AcDbDictionary
281
     1
  0
DICTIONARY
  5
6A
102
{ACAD_REACTORS
330
C
102
}
330
C
100
AcDbDictionary
281
     1
  3
Imperial24
350
6B
  0
DICTIONARY
  5
D
102
{ACAD_REACTORS
330
C
102
}
330
C
100
AcDbDictionary
281
     1
  0
DICTIONARY
  5
1B7
102
{ACAD_REACTORS
330
C
102
}
330
C
100
AcDbDictionary
281
     1
  3
morse_logo-16 (1)_01-2018(B)_1_1
350
1B6
  0
RASTERVARIABLES
  5
1B9
102
{ACAD_REACTORS
330
C
102
}
330
C
100
AcDbRasterVariables
 90
        0
 70
     0
 71
     1
 72
     5
  0
DICTIONARY
  5
62
102
{ACAD_REACTORS
330
C
102
}
330
C
100
AcDbDictionary
281
     1
  3
Model
350
73
  3
Sheet1
350
6F
  3
Sheet2
350
77
  0
DICTIONARY
  5
10
102
{ACAD_REACTORS
330
C
102
}
330
C
100
AcDbDictionary
281
     1
  3
ByBlock
350
19
  3
ByLayer
350
11
  3
Global
350
21
  0
DICTIONARY
  5
66
102
{ACAD_REACTORS
330
C
102
}
330
C
100
AcDbDictionary
281
     1
  3
Standard
350
67
  0
DICTIONARY
  5
5F
102
{ACAD_REACTORS
330
C
102
}
330
C
100
AcDbDictionary
281
     1
  3
Standard
350
60
  0
DICTIONARY
  5
61
102
{ACAD_REACTORS
330
C
102
}
330
C
100
AcDbDictionary
281
     1
  0
ACDBDICTIONARYWDFLT
  5
E
102
{ACAD_REACTORS
330
C
102
}
330
C
100
AcDbDictionary
281
     1
  3
Normal
350
F
100
AcDbDictionaryWithDefault
340
F
  0
DICTIONARY
  5
42
102
{ACAD_REACTORS
330
C
102
}
330
C
100
AcDbDictionary
281
     1
  3
*A1
350
A4
  3
*A10
350
AD
  3
*A11
350
AE
  3
*A12
350
AF
  3
*A13
350
B0
  3
*A14
350
B1
  3
*A15
350
B2
  3
*A16
350
B3
  3
*A2
350
A5
  3
*A3
350
A6
  3
*A4
350
A7
  3
*A5
350
A8
  3
*A6
350
A9
  3
*A7
350
AA
  3
*A8
350
AB
  3
*A9
350
AC
  3
A0
350
43
  3
A1
350
44
  3
A2
350
45
  3
A3
350
46
  3
A4
350
47
  3
A5
350
48
  3
A6
350
49
  3
A7
350
4A
  3
A8
350
4B
  3
A9
350
4C
  3
B0
350
4D
  3
B1
350
4E
  3
B2
350
4F
  3
B3
350
50
  3
B4
350
51
  3
B5
350
52
  3
B6
350
53
  0
DICTIONARY
  5
68
102
{ACAD_REACTORS
330
C
102
}
330
C
100
AcDbDictionary
281
     1
  3
Imperial24
350
69
  0
DICTIONARY
  5
64
102
{ACAD_REACTORS
330
C
102
}
330
C
100
AcDbDictionary
281
     1
  3
Standard
350
65
  0
DICTIONARY
  5
29
102
{ACAD_REACTORS
330
C
102
}
330
C
100
AcDbDictionary
281
     1
  3
2dWireframe
350
2F
  3
Basic
350
2E
  3
Brighten
350
35
  3
ColorChange
350
39
  3
Conceptual
350
32
  3
Dim
350
34
  3
EdgeColorOff
350
41
  3
Facepattern
350
38
  3
Flat
350
2A
  3
FlatWithEdges
350
2B
  3
Gouraud
350
2C
  3
GouraudWithEdges
350
2D
  3
Hidden
350
31
  3
JitterOff
350
3F
  3
Linepattern
350
37
  3
OverhangOff
350
40
  3
Realistic
350
33
  3
Shaded
350
3E
  3
Shaded with edges
350
3D
  3
Shades of Gray
350
3A
  3
Sketchy
350
3B
  3
Thicken
350
36
  3
Wireframe
350
30
  3
X-Ray
350
3C
  0
XRECORD
  5
474
102
{ACAD_REACTORS
330
C
102
}
330
C
100
AcDbXrecord
280
     1
 90
        1
330
65
330
1BD
330
1C7
330
1C8
330
1C9
330
1CC
330
225
  0
DICTIONARY
  5
46B
102
{ACAD_REACTORS
330
C
102
}
330
C
100
AcDbDictionary
281
     1
  3
ANNOALLVISIBLE
350
470
  3
CANNOSCALE
350
471
  3
CMLEADERSTYLE
350
46D
  3
CTABLESTYLE
350
46C
  3
CVIEWDETAILSTYLE
350
46E
  3
CVIEWSECTIONSTYLE
350
46F
  0
SORTENTSTABLE
  5
1AD
102
{ACAD_REACTORS
330
B4
102
}
330
B4
100
AcDbSortentsTable
330
70
  0
SORTENTSTABLE
  5
34B
102
{ACAD_REACTORS
330
1B1
102
}
330
1B1
100
AcDbSortentsTable
330
1B0
  0
ACDBDETAILVIEWSTYLE
  5
6B
102
{ACAD_XDICTIONARY
360
477
102
}
102
{ACAD_REACTORS
330
6A
102
}
330
6A
100
AcDbModelDocViewStyle
 70
     0
  3
Imperial24
290
     0
100
AcDbDetailViewStyle
 70
     0
 71
     0
 90
        3
 71
     1
340
55
 62
   256
 40
0.24
340
0
 62
   256
 40
0.24
300

 40
0.36
280
     3
 71
     2
340
5D
 90
       25
 62
   256
 71
     3
340
55
 62
   256
 40
0.24
 90
        1
 40
0.75
 90
        1
300
%<\AcVar ViewType \f "%tc1">% %<\AcVar ViewDetailId>%\PSCALE %<\AcVar ViewScale \f "%sn">%
 71
     4
340
5D
 90
       25
 62
   256
340
5D
 90
       25
 62
   256
280
     0
  0
IMAGEDEF
  5
1B6
102
{ACAD_REACTORS
330
1B7
330
1B8
330
430
102
}
330
1B7
100
AcDbRasterImageDef
 90
        0
  1
morse_logo-16 (1)_01-2018(B)_1_1.jpg
 10
948.0
 20
333.0
 11
0.264583
 21
0.264583
280
     1
281
     5
  0
LAYOUT
  5
73
102
{ACAD_REACTORS
330
62
102
}
330
62
100
AcDbPlotSettings
  1

  2
AutoCAD PDF (High Quality Print).pc3
  4
ANSI_full_bleed_B_(17.00_x_11.00_Inches)
  6

 40
0.0
 41
0.0
 42
0.0
 43
0.0
 44
431.799988
 45
279.399994
 46
0.0
 47
0.0
 48
0.0
 49
0.0
140
0.0
141
0.0
142
1.0
143
1.705766
 70
 11952
 72
     0
 73
     0
 74
     0
  7

 75
     0
147
0.586247
 76
     0
 77
     2
 78
   300
148
149.631827
149
82.122529
100
AcDbLayout
  1
Model
 70
     1
 71
     0
 10
0.0
 20
0.0
 11
12.0
 21
9.0
 12
0.0
 22
0.0
 32
0.0
 14
0.0
 24
0.0
 34
0.0
 15
0.0
 25
0.0
 35
0.0
146
0.0
 13
0.0
 23
0.0
 33
0.0
 16
1.0
 26
0.0
 36
0.0
 17
0.0
 27
1.0
 37
0.0
 76
     0
330
70
1001
ACAD_PSEXT
1000
AutoCAD PDF (High Quality Print).pc3
1000
DWG To PDF
1000
File
1000

1070
     0
  0
LAYOUT
  5
6F
102
{ACAD_REACTORS
330
62
102
}
330
62
100
AcDbPlotSettings
  1

  2
None
  4

  6

 40
0.0
 41
0.0
 42
0.0
 43
0.0
 44
0.0
 45
0.0
 46
0.0
 47
0.0
 48
0.0
 49
0.0
140
0.0
141
0.0
142
1.0
143
1.0
 70
   688
 72
     0
 73
     0
 74
     5
  7

 75
    16
147
1.0
 76
     0
 77
     2
 78
   300
148
0.0
149
0.0
100
AcDbLayout
  1
Sheet1
 70
     1
 71
     1
 10
0.0
 20
0.0
 11
12.0
 21
9.0
 12
0.0
 22
0.0
 32
0.0
 14
0.0
 24
0.0
 34
0.0
 15
0.0
 25
0.0
 35
0.0
146
0.0
 13
0.0
 23
0.0
 33
0.0
 16
1.0
 26
0.0
 36
0.0
 17
0.0
 27
1.0
 37
0.0
 76
     0
330
6C
  0
LAYOUT
  5
77
102
{ACAD_REACTORS
330
62
102
}
330
62
100
AcDbPlotSettings
  1

  2
None
  4

  6

 40
0.0
 41
0.0
 42
0.0
 43
0.0
 44
0.0
 45
0.0
 46
0.0
 47
0.0
 48
0.0
 49
0.0
140
0.0
141
0.0
142
1.0
143
1.0
 70
   688
 72
     0
 73
     0
 74
     5
  7

 75
    16
147
1.0
 76
     0
 77
     2
 78
   300
148
0.0
149
0.0
100
AcDbLayout
  1
Sheet2
 70
     1
 71
     2
 10
0.0
 20
0.0
 11
12.0
 21
9.0
 12
0.0
 22
0.0
 32
0.0
 14
0.0
 24
0.0
 34
0.0
 15
0.0
 25
0.0
 35
0.0
146
0.0
 13
0.0
 23
0.0
 33
0.0
 16
1.0
 26
0.0
 36
0.0
 17
0.0
 27
1.0
 37
0.0
 76
     0
330
74
  0
MATERIAL
  5
19
102
{ACAD_XDICTIONARY
360
1A
102
}
102
{ACAD_REACTORS
330
10
102
}
330
10
100
AcDbMaterial
  1
ByBlock
 72
     0
 43
0.020833
 43
0.0
 43
0.0
 43
0.0
 43
0.0
 43
0.020833
 43
0.0
 43
0.0
 43
0.0
 43
0.0
 43
1.0
 43
0.0
 43
0.0
 43
0.0
 43
0.0
 43
1.0
 77
     0
 47
0.020833
 47
0.0
 47
0.0
 47
0.0
 47
0.0
 47
0.020833
 47
0.0
 47
0.0
 47
0.0
 47
0.0
 47
1.0
 47
0.0
 47
0.0
 47
0.0
 47
0.0
 47
1.0
171
     0
 49
0.020833
 49
0.0
 49
0.0
 49
0.0
 49
0.0
 49
0.020833
 49
0.0
 49
0.0
 49
0.0
 49
0.0
 49
1.0
 49
0.0
 49
0.0
 49
0.0
 49
0.0
 49
1.0
175
     0
142
0.020833
142
0.0
142
0.0
142
0.0
142
0.0
142
0.020833
142
0.0
142
0.0
142
0.0
142
0.0
142
1.0
142
0.0
142
0.0
142
0.0
142
0.0
142
1.0
179
     0
144
0.020833
144
0.0
144
0.0
144
0.0
144
0.0
144
0.020833
144
0.0
144
0.0
144
0.0
144
0.0
144
1.0
144
0.0
144
0.0
144
0.0
144
0.0
144
1.0
147
0.020833
147
0.0
147
0.0
147
0.0
147
0.0
147
0.020833
147
0.0
147
0.0
147
0.0
147
0.0
147
1.0
147
0.0
147
0.0
147
0.0
147
0.0
147
1.0
  0
MATERIAL
  5
11
102
{ACAD_XDICTIONARY
360
12
102
}
102
{ACAD_REACTORS
330
10
102
}
330
10
100
AcDbMaterial
  1
ByLayer
 72
     0
 43
0.020833
 43
0.0
 43
0.0
 43
0.0
 43
0.0
 43
0.020833
 43
0.0
 43
0.0
 43
0.0
 43
0.0
 43
1.0
 43
0.0
 43
0.0
 43
0.0
 43
0.0
 43
1.0
 77
     0
 47
0.020833
 47
0.0
 47
0.0
 47
0.0
 47
0.0
 47
0.020833
 47
0.0
 47
0.0
 47
0.0
 47
0.0
 47
1.0
 47
0.0
 47
0.0
 47
0.0
 47
0.0
 47
1.0
171
     0
 49
0.020833
 49
0.0
 49
0.0
 49
0.0
 49
0.0
 49
0.020833
 49
0.0
 49
0.0
 49
0.0
 49
0.0
 49
1.0
 49
0.0
 49
0.0
 49
0.0
 49
0.0
 49
1.0
175
     0
142
0.020833
142
0.0
142
0.0
142
0.0
142
0.0
142
0.020833
142
0.0
142
0.0
142
0.0
142
0.0
142
1.0
142
0.0
142
0.0
142
0.0
142
0.0
142
1.0
179
     0
144
0.020833
144
0.0
144
0.0
144
0.0
144
0.0
144
0.020833
144
0.0
144
0.0
144
0.0
144
0.0
144
1.0
144
0.0
144
0.0
144
0.0
144
0.0
144
1.0
147
0.020833
147
0.0
147
0.0
147
0.0
147
0.0
147
0.020833
147
0.0
147
0.0
147
0.0
147
0.0
147
1.0
147
0.0
147
0.0
147
0.0
147
0.0
147
1.0
  0
MATERIAL
  5
21
102
{ACAD_XDICTIONARY
360
22
102
}
102
{ACAD_REACTORS
330
10
102
}
330
10
100
AcDbMaterial
  1
Global
 72
     0
 43
0.020833
 43
0.0
 43
0.0
 43
0.0
 43
0.0
 43
0.020833
 43
0.0
 43
0.0
 43
0.0
 43
0.0
 43
1.0
 43
0.0
 43
0.0
 43
0.0
 43
0.0
 43
1.0
 77
     0
 47
0.020833
 47
0.0
 47
0.0
 47
0.0
 47
0.0
 47
0.020833
 47
0.0
 47
0.0
 47
0.0
 47
0.0
 47
1.0
 47
0.0
 47
0.0
 47
0.0
 47
0.0
 47
1.0
171
     0
 49
0.020833
 49
0.0
 49
0.0
 49
0.0
 49
0.0
 49
0.020833
 49
0.0
 49
0.0
 49
0.0
 49
0.0
 49
1.0
 49
0.0
 49
0.0
 49
0.0
 49
0.0
 49
1.0
175
     0
142
0.020833
142
0.0
142
0.0
142
0.0
142
0.0
142
0.020833
142
0.0
142
0.0
142
0.0
142
0.0
142
1.0
142
0.0
142
0.0
142
0.0
142
0.0
142
1.0
179
     0
144
0.020833
144
0.0
144
0.0
144
0.0
144
0.0
144
0.020833
144
0.0
144
0.0
144
0.0
144
0.0
144
1.0
144
0.0
144
0.0
144
0.0
144
0.0
144
1.0
147
0.020833
147
0.0
147
0.0
147
0.0
147
0.0
147
0.020833
147
0.0
147
0.0
147
0.0
147
0.0
147
1.0
147
0.0
147
0.0
147
0.0
147
0.0
147
1.0
  0
MLEADERSTYLE
  5
67
102
{ACAD_REACTORS
330
66
102
}
330
66
100
AcDbMLeaderStyle
179
     2
170
     2
171
     1
172
     0
 90
        2
 40
0.0
 41
0.0
173
     1
 91
-1056964608
340
5B
 92
       -2
290
     1
 42
0.09
291
     1
 43
0.36
  3
Standard
 44
0.18
300

342
55
174
     1
178
     6
175
     1
176
     0
 93
-1056964608
 45
0.18
292
     0
297
     0
 46
0.18
 94
-1056964608
 47
1.0
 49
1.0
140
1.0
293
     1
141
0.0
294
     1
177
     0
142
1.0
295
     0
296
     0
143
0.125
271
     0
272
     9
273
     9
298
     1
  0
MLINESTYLE
  5
60
102
{ACAD_REACTORS
330
5F
102
}
330
5F
100
AcDbMlineStyle
  2
STANDARD
 70
     0
  3

 62
   256
 51
90.0
 52
90.0
 71
     0
  0
ACDBPLACEHOLDER
  5
F
102
{ACAD_REACTORS
330
E
102
}
330
E
  0
SCALE
  5
A4
102
{ACAD_REACTORS
330
42
102
}
330
42
100
AcDbScale
 70
     0
300
1:2
140
1.0
141
2.0
290
     0
  0
SCALE
  5
AD
102
{ACAD_REACTORS
330
42
102
}
330
42
100
AcDbScale
 70
     0
300
1:50
140
1.0
141
50.0
290
     0
  0
SCALE
  5
AE
102
{ACAD_REACTORS
330
42
102
}
330
42
100
AcDbScale
 70
     0
300
1:100
140
1.0
141
100.0
290
     0
  0
SCALE
  5
AF
102
{ACAD_REACTORS
330
42
102
}
330
42
100
AcDbScale
 70
     0
300
2:1
140
2.0
141
1.0
290
     0
  0
SCALE
  5
B0
102
{ACAD_REACTORS
330
42
102
}
330
42
100
AcDbScale
 70
     0
300
4:1
140
4.0
141
1.0
290
     0
  0
SCALE
  5
B1
102
{ACAD_REACTORS
330
42
102
}
330
42
100
AcDbScale
 70
     0
300
8:1
140
8.0
141
1.0
290
     0
  0
SCALE
  5
B2
102
{ACAD_REACTORS
330
42
102
}
330
42
100
AcDbScale
 70
     0
300
10:1
140
10.0
141
1.0
290
     0
  0
SCALE
  5
B3
102
{ACAD_REACTORS
330
42
102
}
330
42
100
AcDbScale
 70
     0
300
100:1
140
100.0
141
1.0
290
     0
  0
SCALE
  5
A5
102
{ACAD_REACTORS
330
42
102
}
330
42
100
AcDbScale
 70
     0
300
1:4
140
1.0
141
4.0
290
     0
  0
SCALE
  5
A6
102
{ACAD_REACTORS
330
42
102
}
330
42
100
AcDbScale
 70
     0
300
1:5
140
1.0
141
5.0
290
     0
  0
SCALE
  5
A7
102
{ACAD_REACTORS
330
42
102
}
330
42
100
AcDbScale
 70
     0
300
1:8
140
1.0
141
8.0
290
     0
  0
SCALE
  5
A8
102
{ACAD_REACTORS
330
42
102
}
330
42
100
AcDbScale
 70
     0
300
1:10
140
1.0
141
10.0
290
     0
  0
SCALE
  5
A9
102
{ACAD_REACTORS
330
42
102
}
330
42
100
AcDbScale
 70
     0
300
1:16
140
1.0
141
16.0
290
     0
  0
SCALE
  5
AA
102
{ACAD_REACTORS
330
42
102
}
330
42
100
AcDbScale
 70
     0
300
1:20
140
1.0
141
20.0
290
     0
  0
SCALE
  5
AB
102
{ACAD_REACTORS
330
42
102
}
330
42
100
AcDbScale
 70
     0
300
1:30
140
1.0
141
30.0
290
     0
  0
SCALE
  5
AC
102
{ACAD_REACTORS
330
42
102
}
330
42
100
AcDbScale
 70
     0
300
1:40
140
1.0
141
40.0
290
     0
  0
SCALE
  5
43
102
{ACAD_REACTORS
330
42
102
}
330
42
100
AcDbScale
 70
     0
300
1:1
140
1.0
141
1.0
290
     1
  0
SCALE
  5
44
102
{ACAD_REACTORS
330
42
102
}
330
42
100
AcDbScale
 70
     0
300
1/128" = 1'-0"
140
0.007813
141
12.0
290
     0
  0
SCALE
  5
45
102
{ACAD_REACTORS
330
42
102
}
330
42
100
AcDbScale
 70
     0
300
1/64" = 1'-0"
140
0.015625
141
12.0
290
     0
  0
SCALE
  5
46
102
{ACAD_REACTORS
330
42
102
}
330
42
100
AcDbScale
 70
     0
300
1/32" = 1'-0"
140
0.03125
141
12.0
290
     0
  0
SCALE
  5
47
102
{ACAD_REACTORS
330
42
102
}
330
42
100
AcDbScale
 70
     0
300
1/16" = 1'-0"
140
0.0625
141
12.0
290
     0
  0
SCALE
  5
48
102
{ACAD_REACTORS
330
42
102
}
330
42
100
AcDbScale
 70
     0
300
3/32" = 1'-0"
140
0.09375
141
12.0
290
     0
  0
SCALE
  5
49
102
{ACAD_REACTORS
330
42
102
}
330
42
100
AcDbScale
 70
     0
300
1/8" = 1'-0"
140
0.125
141
12.0
290
     0
  0
SCALE
  5
4A
102
{ACAD_REACTORS
330
42
102
}
330
42
100
AcDbScale
 70
     0
300
3/16" = 1'-0"
140
0.1875
141
12.0
290
     0
  0
SCALE
  5
4B
102
{ACAD_REACTORS
330
42
102
}
330
42
100
AcDbScale
 70
     0
300
1/4" = 1'-0"
140
0.25
141
12.0
290
     0
  0
SCALE
  5
4C
102
{ACAD_REACTORS
330
42
102
}
330
42
100
AcDbScale
 70
     0
300
3/8" = 1'-0"
140
0.375
141
12.0
290
     0
  0
SCALE
  5
4D
102
{ACAD_REACTORS
330
42
102
}
330
42
100
AcDbScale
 70
     0
300
1/2" = 1'-0"
140
0.5
141
12.0
290
     0
  0
SCALE
  5
4E
102
{ACAD_REACTORS
330
42
102
}
330
42
100
AcDbScale
 70
     0
300
3/4" = 1'-0"
140
0.75
141
12.0
290
     0
  0
SCALE
  5
4F
102
{ACAD_REACTORS
330
42
102
}
330
42
100
AcDbScale
 70
     0
300
1" = 1'-0"
140
1.0
141
12.0
290
     0
  0
SCALE
  5
50
102
{ACAD_REACTORS
330
42
102
}
330
42
100
AcDbScale
 70
     0
300
1-1/2" = 1'-0"
140
1.5
141
12.0
290
     0
  0
SCALE
  5
51
102
{ACAD_REACTORS
330
42
102
}
330
42
100
AcDbScale
 70
     0
300
3" = 1'-0"
140
3.0
141
12.0
290
     0
  0
SCALE
  5
52
102
{ACAD_REACTORS
330
42
102
}
330
42
100
AcDbScale
 70
     0
300
6" = 1'-0"
140
6.0
141
12.0
290
     0
  0
SCALE
  5
53
102
{ACAD_REACTORS
330
42
102
}
330
42
100
AcDbScale
 70
     0
300
1'-0" = 1'-0"
140
12.0
141
12.0
290
     0
  0
ACDBSECTIONVIEWSTYLE
  5
69
102
{ACAD_XDICTIONARY
360
475
102
}
102
{ACAD_REACTORS
330
68
102
}
330
68
100
AcDbModelDocViewStyle
 70
     0
  3
Imperial24
290
     0
100
AcDbSectionViewStyle
 70
     0
 71
     0
 90
       78
 71
     1
340
55
 62
   256
 40
0.24
340
0
340
0
 62
   256
 40
0.24
300
I, O, Q, S, X, Z
 40
0.48
 90
        3
 40
0.18
 90
        1
 71
     2
340
5D
 90
       25
 62
   256
340
5D
 90
       50
 62
   256
 40
0.24
 40
0.0
 40
0.24
 71
     3
340
55
 62
   256
 40
0.24
 90
        1
 40
0.75
 90
        1
300
%<\AcVar ViewType \f "%tc1">% %<\AcVar ViewSectionStartId>%-%<\AcVar ViewSectionEndId>%\PSCALE %<\AcVar ViewScale \f "%sn">%
 71
     4
 62
   256
 62
   257
300
ANSI31
 40
1.0
 90
        0
290
     0
290
     0
 90
        6
 40
0.0
 40
1.570796
 40
0.261799
 40
1.308997
 40
-0.261799
 40
1.832596
  0
TABLESTYLE
  5
65
102
{ACAD_XDICTIONARY
360
472
102
}
102
{ACAD_REACTORS
330
64
102
}
330
64
100
AcDbTableStyle
280
     0
  3
Standard
 70
     0
 71
     0
 40
0.06
 41
0.06
280
     0
281
     0
  7
Standard
140
0.18
170
     2
 62
     0
 63
     7
283
     0
 90
      512
 91
        0
  1

274
    -2
284
     1
 64
     0
275
    -2
285
     1
 65
     0
276
    -2
286
     1
 66
     0
277
    -2
287
     1
 67
     0
278
    -2
288
     1
 68
     0
279
    -2
289
     1
 69
     0
  7
Standard
140
0.25
170
     5
 62
     0
 63
     7
283
     0
 90
      512
 91
        0
  1

274
    -2
284
     1
 64
     0
275
    -2
285
     1
 65
     0
276
    -2
286
     1
 66
     0
277
    -2
287
     1
 67
     0
278
    -2
288
     1
 68
     0
279
    -2
289
     1
 69
     0
  7
Standard
140
0.18
170
     5
 62
     0
 63
     7
283
     0
 90
      512
 91
        0
  1

274
    -2
284
     1
 64
     0
275
    -2
285
     1
 65
     0
276
    -2
286
     1
 66
     0
277
    -2
287
     1
 67
     0
278
    -2
288
     1
 68
     0
279
    -2
289
     1
 69
     0
  0
VISUALSTYLE
  5
2F
102
{ACAD_REACTORS
330
29
102
}
330
29
100
AcDbVisualStyle
  2
2dWireframe
 70
     4
177
     3
291
     0
 70
    58
 90
        0
176
     1
 90
        2
176
     1
 90
        0
176
     1
 90
        0
176
     1
 40
0.6
176
     1
 40
30.0
176
     1
 62
     7
420
 16777215
176
     1
 90
        1
176
     1
 90
        4
176
     1
 62
     7
176
     1
 62
   257
176
     1
 90
        1
176
     1
 90
        1
176
     1
 40
1.0
176
     1
 90
        0
176
     1
 62
   257
176
     1
 40
1.0
176
     1
 90
        1
176
     1
 90
        6
176
     1
 90
        2
176
     1
 62
     7
176
     1
 90
        5
176
     1
 90
        0
176
     1
 90
        0
176
     1
290
     0
176
     1
 90
        1
176
     1
 40
0.0
176
     1
 90
        0
176
     1
290
     1
176
     1
290
     1
176
     1
290
     0
176
     1
290
     0
176
     1
290
     0
176
     1
290
     0
176
     1
290
     0
176
     1
290
     0
176
     1
290
     0
176
     1
 90
       50
176
     1
 40
0.0
176
     1
 40
1.0
176
     1
 90
        0
176
     1
 62
    18
420
        0
176
     1
 90
       50
176
     1
 90
        3
176
     1
 62
     5
420
      255
176
     1
290
     0
176
     1
 90
       50
176
     1
 90
       50
176
     1
 90
       50
176
     1
290
     0
176
     1
 90
       50
176
     1
 62
   256
176
     0
 40
1.0
176
     0
 90
        2
176
     1
  1
strokes_ogs.tif
176
     1
290
     0
176
     1
 40
1.0
176
     1
 40
1.0
176
     1
1001
ACAD
1000
AcDbSavedByObjectVersion
1070
     0
  0
VISUALSTYLE
  5
2E
102
{ACAD_REACTORS
330
29
102
}
330
29
100
AcDbVisualStyle
  2
Basic
 70
     7
177
     3
291
     1
 70
    58
 90
        1
176
     1
 90
        0
176
     1
 90
        1
176
     1
 90
        0
176
     1
 40
0.6
176
     1
 40
30.0
176
     1
 62
     7
420
 16777215
176
     1
 90
        0
176
     1
 90
        4
176
     1
 62
     7
176
     1
 62
   257
176
     1
 90
        1
176
     1
 90
        1
176
     1
 40
1.0
176
     1
 90
        8
176
     1
 62
     7
176
     1
 40
1.0
176
     1
 90
        1
176
     1
 90
        6
176
     1
 90
        2
176
     1
 62
     7
176
     1
 90
        5
176
     1
 90
        0
176
     1
 90
        0
176
     1
290
     0
176
     1
 90
        1
176
     1
 40
0.0
176
     1
 90
        0
176
     1
290
     0
176
     1
290
     1
176
     1
290
     1
176
     1
290
     0
176
     1
290
     0
176
     1
290
     0
176
     1
290
     0
176
     1
290
     0
176
     1
290
     0
176
     1
 90
       50
176
     1
 40
0.0
176
     1
 40
1.0
176
     1
 90
        0
176
     1
 62
    18
420
        0
176
     1
 90
       50
176
     1
 90
        3
176
     1
 62
     5
420
      255
176
     1
290
     0
176
     1
 90
       50
176
     1
 90
       50
176
     1
 90
       50
176
     1
290
     0
176
     1
 90
       50
176
     1
 62
   256
176
     0
 40
1.0
176
     0
 90
        2
176
     1
  1
strokes_ogs.tif
176
     1
290
     0
176
     1
 40
1.0
176
     1
 40
1.0
176
     1
1001
ACAD
1000
AcDbSavedByObjectVersion
1070
     0
  0
VISUALSTYLE
  5
35
102
{ACAD_REACTORS
330
29
102
}
330
29
100
AcDbVisualStyle
  2
Brighten
 70
    12
177
     3
291
     1
 70
    58
 90
        2
176
     1
 90
        2
176
     1
 90
        0
176
     1
 90
        0
176
     1
 40
0.6
176
     1
 40
30.0
176
     1
 62
     7
420
 16777215
176
     1
 90
        1
176
     1
 90
        4
176
     1
 62
     7
176
     1
 62
   257
176
     1
 90
        1
176
     1
 90
        1
176
     1
 40
1.0
176
     1
 90
        8
176
     1
 62
     7
176
     1
 40
1.0
176
     1
 90
        1
176
     1
 90
        6
176
     1
 90
        2
176
     1
 62
     7
176
     1
 90
        5
176
     1
 90
        0
176
     1
 90
        0
176
     1
290
     0
176
     1
 90
        1
176
     1
 40
50.0
176
     1
 90
        0
176
     1
290
     0
176
     1
290
     1
176
     1
290
     1
176
     1
290
     0
176
     1
290
     0
176
     1
290
     0
176
     1
290
     0
176
     1
290
     0
176
     1
290
     0
176
     1
 90
       50
176
     1
 40
0.0
176
     1
 40
1.0
176
     1
 90
        0
176
     1
 62
    18
420
        0
176
     1
 90
       50
176
     1
 90
        3
176
     1
 62
     5
420
      255
176
     1
290
     0
176
     1
 90
       50
176
     1
 90
       50
176
     1
 90
       50
176
     1
290
     0
176
     1
 90
       50
176
     1
 62
   256
176
     0
 40
1.0
176
     0
 90
        2
176
     1
  1
strokes_ogs.tif
176
     1
290
     0
176
     1
 40
1.0
176
     1
 40
1.0
176
     1
1001
ACAD
1000
AcDbSavedByObjectVersion
1070
     0
  0
VISUALSTYLE
  5
39
102
{ACAD_REACTORS
330
29
102
}
330
29
100
AcDbVisualStyle
  2
ColorChange
 70
    16
177
     3
291
     1
 70
    58
 90
        2
176
     1
 90
        2
176
     1
 90
        3
176
     1
 90
        0
176
     1
 40
0.6
176
     1
 40
30.0
176
     1
 62
     8
420
  8421504
176
     1
 90
        1
176
     1
 90
        4
176
     1
 62
     7
176
     1
 62
   257
176
     1
 90
        1
176
     1
 90
        1
176
     1
 40
1.0
176
     1
 90
        8
176
     1
 62
     8
420
  8421504
176
     1
 40
1.0
176
     1
 90
        1
176
     1
 90
        6
176
     1
 90
        2
176
     1
 62
     7
176
     1
 90
        5
176
     1
 90
        0
176
     1
 90
        0
176
     1
290
     0
176
     1
 90
        1
176
     1
 40
0.0
176
     1
 90
        0
176
     1
290
     0
176
     1
290
     1
176
     1
290
     1
176
     1
290
     0
176
     1
290
     0
176
     1
290
     0
176
     1
290
     0
176
     1
290
     0
176
     1
290
     0
176
     1
 90
       50
176
     1
 40
0.0
176
     1
 40
1.0
176
     1
 90
        0
176
     1
 62
    18
420
        0
176
     1
 90
       50
176
     1
 90
        3
176
     1
 62
     5
420
      255
176
     1
290
     0
176
     1
 90
       50
176
     1
 90
       50
176
     1
 90
       50
176
     1
290
     0
176
     1
 90
       50
176
     1
 62
   256
176
     0
 40
1.0
176
     0
 90
        2
176
     1
  1
strokes_ogs.tif
176
     1
290
     0
176
     1
 40
1.0
176
     1
 40
1.0
176
     1
1001
ACAD
1000
AcDbSavedByObjectVersion
1070
     0
  0
VISUALSTYLE
  5
32
102
{ACAD_REACTORS
330
29
102
}
330
29
100
AcDbVisualStyle
  2
Conceptual
 70
     9
177
     3
291
     0
 70
    58
 90
        3
176
     1
 90
        2
176
     1
 90
        0
176
     1
 90
        0
176
     1
 40
0.6
176
     1
 40
30.0
176
     1
 62
     7
420
 16777215
176
     1
 90
        2
176
     1
 90
        2
176
     1
 62
     7
176
     1
 62
   257
176
     1
 90
        1
176
     1
 90
        1
176
     1
 40
179.0
176
     1
 90
        8
176
     1
 62
     7
176
     1
 40
1.0
176
     1
 90
        1
176
     1
 90
        6
176
     1
 90
        2
176
     1
 62
     7
176
     1
 90
        3
176
     1
 90
        0
176
     1
 90
        0
176
     1
290
     0
176
     1
 90
        1
176
     1
 40
0.0
176
     1
 90
        0
176
     1
290
     0
176
     1
290
     1
176
     1
290
     1
176
     1
290
     0
176
     1
290
     0
176
     1
290
     0
176
     1
290
     0
176
     1
290
     0
176
     1
290
     0
176
     1
 90
       50
176
     1
 40
0.0
176
     1
 40
1.0
176
     1
 90
        0
176
     1
 62
    18
420
        0
176
     1
 90
       50
176
     1
 90
        3
176
     1
 62
     5
420
      255
176
     1
290
     0
176
     1
 90
       50
176
     1
 90
       50
176
     1
 90
       50
176
     1
290
     0
176
     1
 90
       50
176
     1
 62
   256
176
     0
 40
1.0
176
     0
 90
        2
176
     1
  1
strokes_ogs.tif
176
     1
290
     0
176
     1
 40
1.0
176
     1
 40
1.0
176
     1
1001
ACAD
1000
AcDbSavedByObjectVersion
1070
     0
  0
VISUALSTYLE
  5
34
102
{ACAD_REACTORS
330
29
102
}
330
29
100
AcDbVisualStyle
  2
Dim
 70
    11
177
     3
291
     1
 70
    58
 90
        2
176
     1
 90
        2
176
     1
 90
        0
176
     1
 90
        0
176
     1
 40
0.6
176
     1
 40
30.0
176
     1
 62
     7
420
 16777215
176
     1
 90
        1
176
     1
 90
        4
176
     1
 62
     7
176
     1
 62
   257
176
     1
 90
        1
176
     1
 90
        1
176
     1
 40
1.0
176
     1
 90
        8
176
     1
 62
     7
176
     1
 40
1.0
176
     1
 90
        1
176
     1
 90
        6
176
     1
 90
        2
176
     1
 62
     7
176
     1
 90
        5
176
     1
 90
        0
176
     1
 90
        0
176
     1
290
     0
176
     1
 90
        1
176
     1
 40
-50.0
176
     1
 90
        0
176
     1
290
     0
176
     1
290
     1
176
     1
290
     1
176
     1
290
     0
176
     1
290
     0
176
     1
290
     0
176
     1
290
     0
176
     1
290
     0
176
     1
290
     0
176
     1
 90
       50
176
     1
 40
0.0
176
     1
 40
1.0
176
     1
 90
        0
176
     1
 62
    18
420
        0
176
     1
 90
       50
176
     1
 90
        3
176
     1
 62
     5
420
      255
176
     1
290
     0
176
     1
 90
       50
176
     1
 90
       50
176
     1
 90
       50
176
     1
290
     0
176
     1
 90
       50
176
     1
 62
   256
176
     0
 40
1.0
176
     0
 90
        2
176
     1
  1
strokes_ogs.tif
176
     1
290
     0
176
     1
 40
1.0
176
     1
 40
1.0
176
     1
1001
ACAD
1000
AcDbSavedByObjectVersion
1070
     0
  0
VISUALSTYLE
  5
41
102
{ACAD_REACTORS
330
29
102
}
330
29
100
AcDbVisualStyle
  2
EdgeColorOff
 70
    22
177
     3
291
     1
 70
    58
 90
        2
176
     0
 90
        2
176
     0
 90
        0
176
     0
 90
        0
176
     0
 40
0.6
176
     0
 40
30.0
176
     0
 62
     7
420
 16777215
176
     0
 90
        1
176
     0
 90
        4
176
     0
 62
     7
176
     0
 62
   257
176
     0
 90
        1
176
     0
 90
        1
176
     0
 40
1.0
176
     0
 90
        8
176
     2
 62
     7
176
     0
 40
1.0
176
     0
 90
        1
176
     0
 90
        6
176
     0
 90
        2
176
     0
 62
     7
176
     0
 90
        5
176
     0
 90
        0
176
     0
 90
        0
176
     0
290
     0
176
     0
 90
        1
176
     0
 40
0.0
176
     0
 90
        0
176
     0
290
     0
176
     0
290
     1
176
     0
290
     1
176
     0
290
     0
176
     0
290
     0
176
     0
290
     0
176
     0
290
     0
176
     0
290
     0
176
     0
290
     0
176
     0
 90
       50
176
     0
 40
0.0
176
     0
 40
1.0
176
     0
 90
        0
176
     0
 62
    18
420
        0
176
     0
 90
       50
176
     0
 90
        3
176
     0
 62
     5
420
      255
176
     0
290
     0
176
     0
 90
       50
176
     0
 90
       50
176
     0
 90
       50
176
     0
290
     0
176
     0
 90
       50
176
     0
 62
   256
176
     0
 40
1.0
176
     0
 90
        2
176
     0
  1
strokes_ogs.tif
176
     0
290
     0
176
     0
 40
1.0
176
     0
 40
1.0
176
     0
1001
ACAD
1000
AcDbSavedByObjectVersion
1070
     0
  0
VISUALSTYLE
  5
38
102
{ACAD_REACTORS
330
29
102
}
330
29
100
AcDbVisualStyle
  2
Facepattern
 70
    15
177
     3
291
     1
 70
    58
 90
        2
176
     1
 90
        2
176
     1
 90
        0
176
     1
 90
        0
176
     1
 40
0.6
176
     1
 40
30.0
176
     1
 62
     7
420
 16777215
176
     1
 90
        1
176
     1
 90
        4
176
     1
 62
     7
176
     1
 62
   257
176
     1
 90
        1
176
     1
 90
        1
176
     1
 40
1.0
176
     1
 90
        8
176
     1
 62
     7
176
     1
 40
1.0
176
     1
 90
        1
176
     1
 90
        6
176
     1
 90
        2
176
     1
 62
     7
176
     1
 90
        5
176
     1
 90
        0
176
     1
 90
        0
176
     1
290
     0
176
     1
 90
        1
176
     1
 40
0.0
176
     1
 90
        0
176
     1
290
     0
176
     1
290
     1
176
     1
290
     1
176
     1
290
     0
176
     1
290
     0
176
     1
290
     0
176
     1
290
     0
176
     1
290
     0
176
     1
290
     0
176
     1
 90
       50
176
     1
 40
0.0
176
     1
 40
1.0
176
     1
 90
        0
176
     1
 62
    18
420
        0
176
     1
 90
       50
176
     1
 90
        3
176
     1
 62
     5
420
      255
176
     1
290
     0
176
     1
 90
       50
176
     1
 90
       50
176
     1
 90
       50
176
     1
290
     0
176
     1
 90
       50
176
     1
 62
   256
176
     0
 40
1.0
176
     0
 90
        2
176
     1
  1
strokes_ogs.tif
176
     1
290
     0
176
     1
 40
1.0
176
     1
 40
1.0
176
     1
1001
ACAD
1000
AcDbSavedByObjectVersion
1070
     0
  0
VISUALSTYLE
  5
2A
102
{ACAD_REACTORS
330
29
102
}
330
29
100
AcDbVisualStyle
  2
Flat
 70
     0
177
     3
291
     1
 70
    58
 90
        2
176
     1
 90
        1
176
     1
 90
        1
176
     1
 90
        2
176
     1
 40
0.6
176
     1
 40
30.0
176
     1
 62
     7
420
 16777215
176
     1
 90
        0
176
     1
 90
        0
176
     1
 62
     7
176
     1
 62
   257
176
     1
 90
        1
176
     1
 90
        1
176
     1
 40
1.0
176
     1
 90
        8
176
     1
 62
     7
176
     1
 40
1.0
176
     1
 90
        1
176
     1
 90
        6
176
     1
 90
        2
176
     1
 62
     7
176
     1
 90
        5
176
     1
 90
        0
176
     1
 90
        0
176
     1
290
     0
176
     1
 90
       13
176
     1
 40
0.0
176
     1
 90
        0
176
     1
290
     0
176
     1
290
     1
176
     1
290
     1
176
     1
290
     0
176
     1
290
     0
176
     1
290
     0
176
     1
290
     0
176
     1
290
     0
176
     1
290
     0
176
     1
 90
       50
176
     1
 40
0.0
176
     1
 40
1.0
176
     1
 90
        0
176
     1
 62
    18
420
        0
176
     1
 90
       50
176
     1
 90
        3
176
     1
 62
     5
420
      255
176
     1
290
     0
176
     1
 90
       50
176
     1
 90
       50
176
     1
 90
       50
176
     1
290
     0
176
     1
 90
       50
176
     1
 62
   256
176
     0
 40
1.0
176
     0
 90
        2
176
     1
  1
strokes_ogs.tif
176
     1
290
     0
176
     1
 40
1.0
176
     1
 40
1.0
176
     1
1001
ACAD
1000
AcDbSavedByObjectVersion
1070
     0
  0
VISUALSTYLE
  5
2B
102
{ACAD_REACTORS
330
29
102
}
330
29
100
AcDbVisualStyle
  2
FlatWithEdges
 70
     1
177
     3
291
     1
 70
    58
 90
        2
176
     1
 90
        1
176
     1
 90
        1
176
     1
 90
        2
176
     1
 40
0.6
176
     1
 40
30.0
176
     1
 62
     7
420
 16777215
176
     1
 90
        1
176
     1
 90
        0
176
     1
 62
     7
176
     1
 62
   257
176
     1
 90
        1
176
     1
 90
        1
176
     1
 40
1.0
176
     1
 90
        0
176
     1
 62
   257
176
     1
 40
1.0
176
     1
 90
        1
176
     1
 90
        6
176
     1
 90
        2
176
     1
 62
     7
176
     1
 90
        5
176
     1
 90
        0
176
     1
 90
        0
176
     1
290
     0
176
     1
 90
       13
176
     1
 40
0.0
176
     1
 90
        0
176
     1
290
     0
176
     1
290
     1
176
     1
290
     1
176
     1
290
     0
176
     1
290
     0
176
     1
290
     0
176
     1
290
     0
176
     1
290
     0
176
     1
290
     0
176
     1
 90
       50
176
     1
 40
0.0
176
     1
 40
1.0
176
     1
 90
        0
176
     1
 62
    18
420
        0
176
     1
 90
       50
176
     1
 90
        3
176
     1
 62
     5
420
      255
176
     1
290
     0
176
     1
 90
       50
176
     1
 90
       50
176
     1
 90
       50
176
     1
290
     0
176
     1
 90
       50
176
     1
 62
   256
176
     0
 40
1.0
176
     0
 90
        2
176
     1
  1
strokes_ogs.tif
176
     1
290
     0
176
     1
 40
1.0
176
     1
 40
1.0
176
     1
1001
ACAD
1000
AcDbSavedByObjectVersion
1070
     0
  0
VISUALSTYLE
  5
2C
102
{ACAD_REACTORS
330
29
102
}
330
29
100
AcDbVisualStyle
  2
Gouraud
 70
     2
177
     3
291
     1
 70
    58
 90
        2
176
     1
 90
        2
176
     1
 90
        1
176
     1
 90
        2
176
     1
 40
0.6
176
     1
 40
30.0
176
     1
 62
     7
420
 16777215
176
     1
 90
        0
176
     1
 90
        0
176
     1
 62
     7
176
     1
 62
   257
176
     1
 90
        1
176
     1
 90
        1
176
     1
 40
1.0
176
     1
 90
        0
176
     1
 62
     7
176
     1
 40
1.0
176
     1
 90
        1
176
     1
 90
        6
176
     1
 90
        2
176
     1
 62
     7
176
     1
 90
        5
176
     1
 90
        0
176
     1
 90
        0
176
     1
290
     0
176
     1
 90
       13
176
     1
 40
0.0
176
     1
 90
        0
176
     1
290
     0
176
     1
290
     1
176
     1
290
     1
176
     1
290
     0
176
     1
290
     0
176
     1
290
     0
176
     1
290
     0
176
     1
290
     0
176
     1
290
     0
176
     1
 90
       50
176
     1
 40
0.0
176
     1
 40
1.0
176
     1
 90
        0
176
     1
 62
    18
420
        0
176
     1
 90
       50
176
     1
 90
        3
176
     1
 62
     5
420
      255
176
     1
290
     0
176
     1
 90
       50
176
     1
 90
       50
176
     1
 90
       50
176
     1
290
     0
176
     1
 90
       50
176
     1
 62
   256
176
     0
 40
1.0
176
     0
 90
        2
176
     1
  1
strokes_ogs.tif
176
     1
290
     0
176
     1
 40
1.0
176
     1
 40
1.0
176
     1
1001
ACAD
1000
AcDbSavedByObjectVersion
1070
     0
  0
VISUALSTYLE
  5
2D
102
{ACAD_REACTORS
330
29
102
}
330
29
100
AcDbVisualStyle
  2
GouraudWithEdges
 70
     3
177
     3
291
     1
 70
    58
 90
        2
176
     1
 90
        2
176
     1
 90
        1
176
     1
 90
        2
176
     1
 40
0.6
176
     1
 40
30.0
176
     1
 62
     7
420
 16777215
176
     1
 90
        1
176
     1
 90
        0
176
     1
 62
     7
176
     1
 62
   257
176
     1
 90
        1
176
     1
 90
        1
176
     1
 40
1.0
176
     1
 90
        0
176
     1
 62
   257
176
     1
 40
1.0
176
     1
 90
        1
176
     1
 90
        6
176
     1
 90
        2
176
     1
 62
     7
176
     1
 90
        5
176
     1
 90
        0
176
     1
 90
        0
176
     1
290
     0
176
     1
 90
       13
176
     1
 40
0.0
176
     1
 90
        0
176
     1
290
     0
176
     1
290
     1
176
     1
290
     1
176
     1
290
     0
176
     1
290
     0
176
     1
290
     0
176
     1
290
     0
176
     1
290
     0
176
     1
290
     0
176
     1
 90
       50
176
     1
 40
0.0
176
     1
 40
1.0
176
     1
 90
        0
176
     1
 62
    18
420
        0
176
     1
 90
       50
176
     1
 90
        3
176
     1
 62
     5
420
      255
176
     1
290
     0
176
     1
 90
       50
176
     1
 90
       50
176
     1
 90
       50
176
     1
290
     0
176
     1
 90
       50
176
     1
 62
   256
176
     0
 40
1.0
176
     0
 90
        2
176
     1
  1
strokes_ogs.tif
176
     1
290
     0
176
     1
 40
1.0
176
     1
 40
1.0
176
     1
1001
ACAD
1000
AcDbSavedByObjectVersion
1070
     0
  0
VISUALSTYLE
  5
31
102
{ACAD_REACTORS
330
29
102
}
330
29
100
AcDbVisualStyle
  2
Hidden
 70
     6
177
     3
291
     0
 70
    58
 90
        1
176
     1
 90
        2
176
     1
 90
        2
176
     1
 90
        0
176
     1
 40
0.6
176
     1
 40
30.0
176
     1
 62
     7
420
 16777215
176
     1
 90
        2
176
     1
 90
        2
176
     1
 62
     7
176
     1
 62
   257
176
     1
 90
        2
176
     1
 90
        1
176
     1
 40
40.0
176
     1
 90
        0
176
     1
 62
   257
176
     1
 40
1.0
176
     1
 90
        1
176
     1
 90
        6
176
     1
 90
        2
176
     1
 62
     7
176
     1
 90
        3
176
     1
 90
        0
176
     1
 90
        0
176
     1
290
     0
176
     1
 90
        1
176
     1
 40
0.0
176
     1
 90
        0
176
     1
290
     0
176
     1
290
     1
176
     1
290
     1
176
     1
290
     0
176
     1
290
     0
176
     1
290
     0
176
     1
290
     0
176
     1
290
     0
176
     1
290
     0
176
     1
 90
       50
176
     1
 40
0.0
176
     1
 40
1.0
176
     1
 90
        0
176
     1
 62
    18
420
        0
176
     1
 90
       50
176
     1
 90
        3
176
     1
 62
     5
420
      255
176
     1
290
     0
176
     1
 90
       50
176
     1
 90
       50
176
     1
 90
       50
176
     1
290
     0
176
     1
 90
       50
176
     1
 62
   256
176
     0
 40
1.0
176
     0
 90
        2
176
     1
  1
strokes_ogs.tif
176
     1
290
     0
176
     1
 40
1.0
176
     1
 40
1.0
176
     1
1001
ACAD
1000
AcDbSavedByObjectVersion
1070
     0
  0
VISUALSTYLE
  5
3F
102
{ACAD_REACTORS
330
29
102
}
330
29
100
AcDbVisualStyle
  2
JitterOff
 70
    20
177
     3
291
     1
 70
    58
 90
        2
176
     0
 90
        2
176
     0
 90
        0
176
     0
 90
        0
176
     0
 40
0.6
176
     0
 40
30.0
176
     0
 62
     7
420
 16777215
176
     0
 90
        1
176
     0
 90
        4
176
     0
 62
     7
176
     0
 62
   257
176
     0
 90
        1
176
     0
 90
        1
176
     0
 40
1.0
176
     0
 90
       10
176
     2
 62
     7
176
     0
 40
1.0
176
     0
 90
        1
176
     0
 90
        6
176
     0
 90
        2
176
     0
 62
     7
176
     0
 90
        5
176
     0
 90
        0
176
     0
 90
        0
176
     0
290
     0
176
     0
 90
        1
176
     0
 40
0.0
176
     0
 90
        0
176
     0
290
     0
176
     0
290
     1
176
     0
290
     1
176
     0
290
     0
176
     0
290
     0
176
     0
290
     0
176
     0
290
     0
176
     0
290
     0
176
     0
290
     0
176
     0
 90
       50
176
     0
 40
0.0
176
     0
 40
1.0
176
     0
 90
        0
176
     0
 62
    18
420
        0
176
     0
 90
       50
176
     0
 90
        3
176
     0
 62
     5
420
      255
176
     0
290
     0
176
     0
 90
       50
176
     0
 90
       50
176
     0
 90
       50
176
     0
290
     0
176
     0
 90
       50
176
     0
 62
   256
176
     0
 40
1.0
176
     0
 90
        2
176
     0
  1
strokes_ogs.tif
176
     0
290
     0
176
     0
 40
1.0
176
     0
 40
1.0
176
     0
1001
ACAD
1000
AcDbSavedByObjectVersion
1070
     0
  0
VISUALSTYLE
  5
37
102
{ACAD_REACTORS
330
29
102
}
330
29
100
AcDbVisualStyle
  2
Linepattern
 70
    14
177
     3
291
     1
 70
    58
 90
        2
176
     1
 90
        2
176
     1
 90
        0
176
     1
 90
        0
176
     1
 40
0.6
176
     1
 40
30.0
176
     1
 62
     7
420
 16777215
176
     1
 90
        1
176
     1
 90
        4
176
     1
 62
     7
176
     1
 62
   257
176
     1
 90
        7
176
     1
 90
        7
176
     1
 40
1.0
176
     1
 90
        8
176
     1
 62
     7
176
     1
 40
1.0
176
     1
 90
        1
176
     1
 90
        6
176
     1
 90
        2
176
     1
 62
     7
176
     1
 90
        5
176
     1
 90
        0
176
     1
 90
        0
176
     1
290
     0
176
     1
 90
        1
176
     1
 40
0.0
176
     1
 90
        0
176
     1
290
     0
176
     1
290
     1
176
     1
290
     1
176
     1
290
     0
176
     1
290
     0
176
     1
290
     0
176
     1
290
     0
176
     1
290
     0
176
     1
290
     0
176
     1
 90
       50
176
     1
 40
0.0
176
     1
 40
1.0
176
     1
 90
        0
176
     1
 62
    18
420
        0
176
     1
 90
       50
176
     1
 90
        3
176
     1
 62
     5
420
      255
176
     1
290
     0
176
     1
 90
       50
176
     1
 90
       50
176
     1
 90
       50
176
     1
290
     0
176
     1
 90
       50
176
     1
 62
   256
176
     0
 40
1.0
176
     0
 90
        2
176
     1
  1
strokes_ogs.tif
176
     1
290
     0
176
     1
 40
1.0
176
     1
 40
1.0
176
     1
1001
ACAD
1000
AcDbSavedByObjectVersion
1070
     0
  0
VISUALSTYLE
  5
40
102
{ACAD_REACTORS
330
29
102
}
330
29
100
AcDbVisualStyle
  2
OverhangOff
 70
    21
177
     3
291
     1
 70
    58
 90
        2
176
     0
 90
        2
176
     0
 90
        0
176
     0
 90
        0
176
     0
 40
0.6
176
     0
 40
30.0
176
     0
 62
     7
420
 16777215
176
     0
 90
        1
176
     0
 90
        4
176
     0
 62
     7
176
     0
 62
   257
176
     0
 90
        1
176
     0
 90
        1
176
     0
 40
1.0
176
     0
 90
        9
176
     2
 62
     7
176
     0
 40
1.0
176
     0
 90
        1
176
     0
 90
        6
176
     0
 90
        2
176
     0
 62
     7
176
     0
 90
        5
176
     0
 90
        0
176
     0
 90
        0
176
     0
290
     0
176
     0
 90
        1
176
     0
 40
0.0
176
     0
 90
        0
176
     0
290
     0
176
     0
290
     1
176
     0
290
     1
176
     0
290
     0
176
     0
290
     0
176
     0
290
     0
176
     0
290
     0
176
     0
290
     0
176
     0
290
     0
176
     0
 90
       50
176
     0
 40
0.0
176
     0
 40
1.0
176
     0
 90
        0
176
     0
 62
    18
420
        0
176
     0
 90
       50
176
     0
 90
        3
176
     0
 62
     5
420
      255
176
     0
290
     0
176
     0
 90
       50
176
     0
 90
       50
176
     0
 90
       50
176
     0
290
     0
176
     0
 90
       50
176
     0
 62
   256
176
     0
 40
1.0
176
     0
 90
        2
176
     0
  1
strokes_ogs.tif
176
     0
290
     0
176
     0
 40
1.0
176
     0
 40
1.0
176
     0
1001
ACAD
1000
AcDbSavedByObjectVersion
1070
     0
  0
VISUALSTYLE
  5
33
102
{ACAD_REACTORS
330
29
102
}
330
29
100
AcDbVisualStyle
  2
Realistic
 70
     8
177
     3
291
     0
 70
    58
 90
        2
176
     1
 90
        3
176
     1
 90
        0
176
     1
 90
        2
176
     1
 40
0.6
176
     1
 40
30.0
176
     1
 62
     7
420
 16777215
176
     1
 90
        0
176
     1
 90
        0
176
     1
 62
     7
176
     1
 62
   257
176
     1
 90
        1
176
     1
 90
        1
176
     1
 40
1.0
176
     1
 90
        8
176
     1
 62
   257
176
     1
 40
1.0
176
     1
 90
        1
176
     1
 90
        6
176
     1
 90
        2
176
     1
 62
     7
176
     1
 90
        3
176
     1
 90
        0
176
     1
 90
        0
176
     1
290
     0
176
     1
 90
       13
176
     1
 40
0.0
176
     1
 90
        0
176
     1
290
     0
176
     1
290
     1
176
     1
290
     1
176
     1
290
     0
176
     1
290
     0
176
     1
290
     0
176
     1
290
     0
176
     1
290
     0
176
     1
290
     0
176
     1
 90
       50
176
     1
 40
0.0
176
     1
 40
1.0
176
     1
 90
        0
176
     1
 62
    18
420
        0
176
     1
 90
       50
176
     1
 90
        3
176
     1
 62
     5
420
      255
176
     1
290
     0
176
     1
 90
       50
176
     1
 90
       50
176
     1
 90
       50
176
     1
290
     0
176
     1
 90
       50
176
     1
 62
   256
176
     0
 40
1.0
176
     0
 90
        2
176
     1
  1
strokes_ogs.tif
176
     1
290
     0
176
     1
 40
1.0
176
     1
 40
1.0
176
     1
1001
ACAD
1000
AcDbSavedByObjectVersion
1070
     0
  0
VISUALSTYLE
  5
3E
102
{ACAD_REACTORS
330
29
102
}
330
29
100
AcDbVisualStyle
  2
Shaded
 70
    27
177
     3
291
     0
 70
    58
 90
        2
176
     1
 90
        2
176
     1
 90
        1
176
     1
 90
        2
176
     1
 40
0.6
176
     1
 40
30.0
176
     1
 62
     7
420
 16777215
176
     1
 90
        0
176
     1
 90
        4
176
     1
 62
     7
176
     1
 62
   257
176
     1
 90
        1
176
     1
 90
        1
176
     1
 40
1.0
176
     1
 90
        8
176
     1
 62
   257
176
     1
 40
1.0
176
     1
 90
        1
176
     1
 90
        6
176
     1
 90
        2
176
     1
 62
     8
420
  7895160
176
     1
 90
        3
176
     1
 90
        0
176
     1
 90
        0
176
     1
290
     0
176
     1
 90
        5
176
     1
 40
0.0
176
     1
 90
        0
176
     1
290
     0
176
     1
290
     1
176
     1
290
     1
176
     1
290
     0
176
     1
290
     0
176
     1
290
     0
176
     1
290
     0
176
     1
290
     0
176
     1
290
     0
176
     1
 90
       50
176
     1
 40
0.0
176
     1
 40
1.0
176
     1
 90
        0
176
     1
 62
    18
420
        0
176
     1
 90
       50
176
     1
 90
        3
176
     1
 62
     5
420
      255
176
     1
290
     0
176
     1
 90
       50
176
     1
 90
       50
176
     1
 90
       50
176
     1
290
     0
176
     1
 90
       50
176
     1
 62
   256
176
     0
 40
1.0
176
     0
 90
        2
176
     1
  1
strokes_ogs.tif
176
     1
290
     0
176
     1
 40
1.0
176
     1
 40
1.0
176
     1
1001
ACAD
1000
AcDbSavedByObjectVersion
1070
     0
  0
VISUALSTYLE
  5
3D
102
{ACAD_REACTORS
330
29
102
}
330
29
100
AcDbVisualStyle
  2
Shaded with edges
 70
    26
177
     3
291
     0
 70
    58
 90
        2
176
     1
 90
        2
176
     1
 90
        1
176
     1
 90
        2
176
     1
 40
0.6
176
     1
 40
30.0
176
     1
 62
     7
420
 16777215
176
     1
 90
        1
176
     1
 90
        2
176
     1
 62
     7
176
     1
 62
   257
176
     1
 90
        2
176
     1
 90
        1
176
     1
 40
1.0
176
     1
 90
        8
176
     1
 62
   257
176
     1
 40
1.0
176
     1
 90
        1
176
     1
 90
        6
176
     1
 90
        2
176
     1
 62
     7
176
     1
 90
        3
176
     1
 90
        0
176
     1
 90
        0
176
     1
290
     0
176
     1
 90
        5
176
     1
 40
0.0
176
     1
 90
        0
176
     1
290
     0
176
     1
290
     1
176
     1
290
     1
176
     1
290
     0
176
     1
290
     0
176
     1
290
     0
176
     1
290
     0
176
     1
290
     0
176
     1
290
     0
176
     1
 90
       50
176
     1
 40
0.0
176
     1
 40
1.0
176
     1
 90
        0
176
     1
 62
    18
420
        0
176
     1
 90
       50
176
     1
 90
        3
176
     1
 62
     5
420
      255
176
     1
290
     0
176
     1
 90
       50
176
     1
 90
       50
176
     1
 90
       50
176
     1
290
     0
176
     1
 90
       50
176
     1
 62
   256
176
     0
 40
1.0
176
     0
 90
        2
176
     1
  1
strokes_ogs.tif
176
     1
290
     0
176
     1
 40
1.0
176
     1
 40
1.0
176
     1
1001
ACAD
1000
AcDbSavedByObjectVersion
1070
     0
  0
VISUALSTYLE
  5
3A
102
{ACAD_REACTORS
330
29
102
}
330
29
100
AcDbVisualStyle
  2
Shades of Gray
 70
    23
177
     3
291
     0
 70
    58
 90
        2
176
     1
 90
        2
176
     1
 90
        3
176
     1
 90
        0
176
     1
 40
0.6
176
     1
 40
30.0
176
     1
 62
     7
420
 16777215
176
     1
 90
        2
176
     1
 90
        2
176
     1
 62
     7
176
     1
 62
     7
176
     1
 90
        1
176
     1
 90
        1
176
     1
 40
40.0
176
     1
 90
        8
176
     1
 62
     7
176
     1
 40
1.0
176
     1
 90
        1
176
     1
 90
        6
176
     1
 90
        2
176
     1
 62
     7
176
     1
 90
        3
176
     1
 90
        0
176
     1
 90
        0
176
     1
290
     0
176
     1
 90
        1
176
     1
 40
0.0
176
     1
 90
        0
176
     1
290
     0
176
     1
290
     1
176
     1
290
     1
176
     1
290
     0
176
     1
290
     0
176
     1
290
     0
176
     1
290
     0
176
     1
290
     0
176
     1
290
     0
176
     1
 90
       50
176
     1
 40
0.0
176
     1
 40
1.0
176
     1
 90
        0
176
     1
 62
    18
420
        0
176
     1
 90
       50
176
     1
 90
        3
176
     1
 62
     5
420
      255
176
     1
290
     0
176
     1
 90
       50
176
     1
 90
       50
176
     1
 90
       50
176
     1
290
     0
176
     1
 90
       50
176
     1
 62
   256
176
     0
 40
1.0
176
     0
 90
        2
176
     1
  1
strokes_ogs.tif
176
     1
290
     0
176
     1
 40
1.0
176
     1
 40
1.0
176
     1
1001
ACAD
1000
AcDbSavedByObjectVersion
1070
     0
  0
VISUALSTYLE
  5
3B
102
{ACAD_REACTORS
330
29
102
}
330
29
100
AcDbVisualStyle
  2
Sketchy
 70
    24
177
     3
291
     0
 70
    58
 90
        1
176
     1
 90
        2
176
     1
 90
        2
176
     1
 90
        0
176
     1
 40
0.6
176
     1
 40
30.0
176
     1
 62
     7
420
 16777215
176
     1
 90
        2
176
     1
 90
        2
176
     1
 62
     7
176
     1
 62
     7
176
     1
 90
        1
176
     1
 90
        1
176
     1
 40
40.0
176
     1
 90
       11
176
     1
 62
     7
176
     1
 40
1.0
176
     1
 90
        1
176
     1
 90
        6
176
     1
 90
        2
176
     1
 62
     7
176
     1
 90
        6
176
     1
 90
        0
176
     1
 90
        0
176
     1
290
     0
176
     1
 90
        1
176
     1
 40
0.0
176
     1
 90
        0
176
     1
290
     0
176
     1
290
     1
176
     1
290
     1
176
     1
290
     0
176
     1
290
     0
176
     1
290
     0
176
     1
290
     0
176
     1
290
     0
176
     1
290
     0
176
     1
 90
       50
176
     1
 40
0.0
176
     1
 40
1.0
176
     1
 90
        0
176
     1
 62
    18
420
        0
176
     1
 90
       50
176
     1
 90
        3
176
     1
 62
     5
420
      255
176
     1
290
     0
176
     1
 90
       50
176
     1
 90
       50
176
     1
 90
       50
176
     1
290
     0
176
     1
 90
       50
176
     1
 62
   256
176
     0
 40
1.0
176
     0
 90
        2
176
     1
  1
strokes_ogs.tif
176
     1
290
     0
176
     1
 40
1.0
176
     1
 40
1.0
176
     1
1001
ACAD
1000
AcDbSavedByObjectVersion
1070
     0
  0
VISUALSTYLE
  5
36
102
{ACAD_REACTORS
330
29
102
}
330
29
100
AcDbVisualStyle
  2
Thicken
 70
    13
177
     3
291
     1
 70
    58
 90
        2
176
     1
 90
        2
176
     1
 90
        0
176
     1
 90
        0
176
     1
 40
0.6
176
     1
 40
30.0
176
     1
 62
     7
420
 16777215
176
     1
 90
        1
176
     1
 90
        4
176
     1
 62
     7
176
     1
 62
   257
176
     1
 90
        1
176
     1
 90
        1
176
     1
 40
1.0
176
     1
 90
       12
176
     1
 62
     7
176
     1
 40
1.0
176
     1
 90
        1
176
     1
 90
        6
176
     1
 90
        2
176
     1
 62
     7
176
     1
 90
        5
176
     1
 90
        0
176
     1
 90
        0
176
     1
290
     0
176
     1
 90
        1
176
     1
 40
0.0
176
     1
 90
        0
176
     1
290
     0
176
     1
290
     1
176
     1
290
     1
176
     1
290
     0
176
     1
290
     0
176
     1
290
     0
176
     1
290
     0
176
     1
290
     0
176
     1
290
     0
176
     1
 90
       50
176
     1
 40
0.0
176
     1
 40
1.0
176
     1
 90
        0
176
     1
 62
    18
420
        0
176
     1
 90
       50
176
     1
 90
        3
176
     1
 62
     5
420
      255
176
     1
290
     0
176
     1
 90
       50
176
     1
 90
       50
176
     1
 90
       50
176
     1
290
     0
176
     1
 90
       50
176
     1
 62
   256
176
     0
 40
1.0
176
     0
 90
        2
176
     1
  1
strokes_ogs.tif
176
     1
290
     0
176
     1
 40
1.0
176
     1
 40
1.0
176
     1
1001
ACAD
1000
AcDbSavedByObjectVersion
1070
     0
  0
VISUALSTYLE
  5
30
102
{ACAD_REACTORS
330
29
102
}
330
29
100
AcDbVisualStyle
  2
Wireframe
 70
     5
177
     3
291
     0
 70
    58
 90
        0
176
     1
 90
        2
176
     1
 90
        0
176
     1
 90
        0
176
     1
 40
0.6
176
     1
 40
30.0
176
     1
 62
     7
420
 16777215
176
     1
 90
        1
176
     1
 90
        4
176
     1
 62
     7
176
     1
 62
   257
176
     1
 90
        1
176
     1
 90
        1
176
     1
 40
1.0
176
     1
 90
        0
176
     1
 62
   257
176
     1
 40
1.0
176
     1
 90
        1
176
     1
 90
        6
176
     1
 90
        2
176
     1
 62
     7
176
     1
 90
        3
176
     1
 90
        0
176
     1
 90
        0
176
     1
290
     0
176
     1
 90
        1
176
     1
 40
0.0
176
     1
 90
        0
176
     1
290
     0
176
     1
290
     1
176
     1
290
     1
176
     1
290
     0
176
     1
290
     0
176
     1
290
     0
176
     1
290
     0
176
     1
290
     0
176
     1
290
     0
176
     1
 90
       50
176
     1
 40
0.0
176
     1
 40
1.0
176
     1
 90
        0
176
     1
 62
    18
420
        0
176
     1
 90
       50
176
     1
 90
        3
176
     1
 62
     5
420
      255
176
     1
290
     0
176
     1
 90
       50
176
     1
 90
       50
176
     1
 90
       50
176
     1
290
     0
176
     1
 90
       50
176
     1
 62
   256
176
     0
 40
1.0
176
     0
 90
        2
176
     1
  1
strokes_ogs.tif
176
     1
290
     0
176
     1
 40
1.0
176
     1
 40
1.0
176
     1
1001
ACAD
1000
AcDbSavedByObjectVersion
1070
     0
  0
VISUALSTYLE
  5
3C
102
{ACAD_REACTORS
330
29
102
}
330
29
100
AcDbVisualStyle
  2
X-Ray
 70
    25
177
     3
291
     0
 70
    58
 90
        2
176
     1
 90
        2
176
     1
 90
        1
176
     1
 90
        1
176
     1
 40
0.5
176
     1
 40
30.0
176
     1
 62
     7
420
 16777215
176
     1
 90
        1
176
     1
 90
        0
176
     1
 62
     7
176
     1
 62
   257
176
     1
 90
        1
176
     1
 90
        1
176
     1
 40
1.0
176
     1
 90
        8
176
     1
 62
     7
176
     1
 40
1.0
176
     1
 90
        1
176
     1
 90
        6
176
     1
 90
        2
176
     1
 62
     7
176
     1
 90
        3
176
     1
 90
        0
176
     1
 90
        0
176
     1
290
     0
176
     1
 90
       13
176
     1
 40
0.0
176
     1
 90
        0
176
     1
290
     0
176
     1
290
     1
176
     1
290
     1
176
     1
290
     0
176
     1
290
     0
176
     1
290
     0
176
     1
290
     0
176
     1
290
     0
176
     1
290
     0
176
     1
 90
       50
176
     1
 40
0.0
176
     1
 40
1.0
176
     1
 90
        0
176
     1
 62
    18
420
        0
176
     1
 90
       50
176
     1
 90
        3
176
     1
 62
     5
420
      255
176
     1
290
     0
176
     1
 90
       50
176
     1
 90
       50
176
     1
 90
       50
176
     1
290
     0
176
     1
 90
       50
176
     1
 62
   256
176
     0
 40
1.0
176
     0
 90
        2
176
     1
  1
strokes_ogs.tif
176
     1
290
     0
176
     1
 40
1.0
176
     1
 40
1.0
176
     1
1001
ACAD
1000
AcDbSavedByObjectVersion
1070
     0
  0
DICTIONARYVAR
  5
470
102
{ACAD_REACTORS
330
46B
102
}
330
46B
100
DictionaryVariables
280
     0
  1
0
  0
DICTIONARYVAR
  5
471
102
{ACAD_REACTORS
330
46B
102
}
330
46B
100
DictionaryVariables
280
     0
  1
1:1
  0
DICTIONARYVAR
  5
46D
102
{ACAD_REACTORS
330
46B
102
}
330
46B
100
DictionaryVariables
280
     0
  1
STANDARD
  0
DICTIONARYVAR
  5
46C
102
{ACAD_REACTORS
330
46B
102
}
330
46B
100
DictionaryVariables
280
     0
  1
STANDARD
  0
DICTIONARYVAR
  5
46E
102
{ACAD_REACTORS
330
46B
102
}
330
46B
100
DictionaryVariables
280
     0
  1
Imperial24
  0
DICTIONARYVAR
  5
46F
102
{ACAD_REACTORS
330
46B
102
}
330
46B
100
DictionaryVariables
280
     0
  1
Imperial24
  0
DICTIONARY
  5
477
330
6B
100
AcDbDictionary
280
     1
281
     1
  3
ACAD_XREC_ROUNDTRIP
360
478
  0
DICTIONARY
  5
1A
330
19
100
AcDbDictionary
280
     1
281
     1
  3
BUMPTILE
360
1C
  3
DIFFUSETILE
360
1B
  3
OPACITYTILE
360
1F
  3
REFLECTIONTILE
360
1E
  3
REFRACTIONTILE
360
20
  3
SPECULARTILE
360
1D
  0
DICTIONARY
  5
12
330
11
100
AcDbDictionary
280
     1
281
     1
  3
BUMPTILE
360
14
  3
DIFFUSETILE
360
13
  3
OPACITYTILE
360
17
  3
REFLECTIONTILE
360
16
  3
REFRACTIONTILE
360
18
  3
SPECULARTILE
360
15
  0
DICTIONARY
  5
22
330
21
100
AcDbDictionary
280
     1
281
     1
  3
BUMPTILE
360
24
  3
DIFFUSETILE
360
23
  3
OPACITYTILE
360
27
  3
REFLECTIONTILE
360
26
  3
REFRACTIONTILE
360
28
  3
SPECULARTILE
360
25
  0
DICTIONARY
  5
475
330
69
100
AcDbDictionary
280
     1
281
     1
  3
ACAD_XREC_ROUNDTRIP
360
476
  0
DICTIONARY
  5
472
330
65
100
AcDbDictionary
280
     1
281
     1
  3
ACAD_ROUNDTRIP_2008_TABLESTYLE_CELLSTYLEMAP
360
473
  0
XRECORD
  5
478
102
{ACAD_REACTORS
330
477
102
}
330
477
100
AcDbXrecord
280
     1
102
DISPLAYNAME
  1
Imperial24
102
FLAGS
 90
        0
  0
XRECORD
  5
1C
102
{ACAD_REACTORS
330
1A
102
}
330
1A
100
AcDbXrecord
280
     1
270
     1
271
     1
  0
XRECORD
  5
1B
102
{ACAD_REACTORS
330
1A
102
}
330
1A
100
AcDbXrecord
280
     1
270
     1
271
     1
  0
XRECORD
  5
1F
102
{ACAD_REACTORS
330
1A
102
}
330
1A
100
AcDbXrecord
280
     1
270
     1
271
     1
  0
XRECORD
  5
1E
102
{ACAD_REACTORS
330
1A
102
}
330
1A
100
AcDbXrecord
280
     1
270
     1
271
     1
  0
XRECORD
  5
20
102
{ACAD_REACTORS
330
1A
102
}
330
1A
100
AcDbXrecord
280
     1
270
     1
271
     1
  0
XRECORD
  5
1D
102
{ACAD_REACTORS
330
1A
102
}
330
1A
100
AcDbXrecord
280
     1
270
     1
271
     1
  0
XRECORD
  5
14
102
{ACAD_REACTORS
330
12
102
}
330
12
100
AcDbXrecord
280
     1
270
     1
271
     1
  0
XRECORD
  5
13
102
{ACAD_REACTORS
330
12
102
}
330
12
100
AcDbXrecord
280
     1
270
     1
271
     1
  0
XRECORD
  5
17
102
{ACAD_REACTORS
330
12
102
}
330
12
100
AcDbXrecord
280
     1
270
     1
271
     1
  0
XRECORD
  5
16
102
{ACAD_REACTORS
330
12
102
}
330
12
100
AcDbXrecord
280
     1
270
     1
271
     1
  0
XRECORD
  5
18
102
{ACAD_REACTORS
330
12
102
}
330
12
100
AcDbXrecord
280
     1
270
     1
271
     1
  0
XRECORD
  5
15
102
{ACAD_REACTORS
330
12
102
}
330
12
100
AcDbXrecord
280
     1
270
     1
271
     1
  0
XRECORD
  5
24
102
{ACAD_REACTORS
330
22
102
}
330
22
100
AcDbXrecord
280
     1
270
     1
271
     1
  0
XRECORD
  5
23
102
{ACAD_REACTORS
330
22
102
}
330
22
100
AcDbXrecord
280
     1
270
     1
271
     1
  0
XRECORD
  5
27
102
{ACAD_REACTORS
330
22
102
}
330
22
100
AcDbXrecord
280
     1
270
     1
271
     1
  0
XRECORD
  5
26
102
{ACAD_REACTORS
330
22
102
}
330
22
100
AcDbXrecord
280
     1
270
     1
271
     1
  0
XRECORD
  5
28
102
{ACAD_REACTORS
330
22
102
}
330
22
100
AcDbXrecord
280
     1
270
     1
271
     1
  0
XRECORD
  5
25
102
{ACAD_REACTORS
330
22
102
}
330
22
100
AcDbXrecord
280
     1
270
     1
271
     1
  0
XRECORD
  5
476
102
{ACAD_REACTORS
330
475
102
}
330
475
100
AcDbXrecord
280
     1
102
DISPLAYNAME
  1
Imperial24
102
FLAGS
 90
        0
  0
CELLSTYLEMAP
  5
473
102
{ACAD_REACTORS
330
472
102
}
330
472
100
AcDbCellStyleMap
 90
        3
300
CELLSTYLE
  1
TABLEFORMAT_BEGIN
 90
        5
170
     1
 91
        0
 92
    32768
 62
   257
 93
        1
300
CONTENTFORMAT
  1
CONTENTFORMAT_BEGIN
 90
        0
 91
        0
 92
      512
 93
        0
300

 40
0.0
140
1.0
 94
        5
 62
     0
340
55
144
0.25
309
CONTENTFORMAT_END
171
     0
 94
        0
309
TABLEFORMAT_END
  1
CELLSTYLE_BEGIN
 90
        1
 91
        1
300
_TITLE
309
CELLSTYLE_END
300
CELLSTYLE
  1
TABLEFORMAT_BEGIN
 90
        5
170
     1
 91
        0
 92
        0
 62
   257
 93
        1
300
CONTENTFORMAT
  1
CONTENTFORMAT_BEGIN
 90
        0
 91
        0
 92
      512
 93
        0
300

 40
0.0
140
1.0
 94
        5
 62
     0
340
55
144
0.18
309
CONTENTFORMAT_END
171
     0
 94
        0
309
TABLEFORMAT_END
  1
CELLSTYLE_BEGIN
 90
        2
 91
        1
300
_HEADER
309
CELLSTYLE_END
300
CELLSTYLE
  1
TABLEFORMAT_BEGIN
 90
        5
170
     1
 91
        0
 92
        0
 62
   257
 93
        1
300
CONTENTFORMAT
  1
CONTENTFORMAT_BEGIN
 90
        0
 91
        0
 92
      512
 93
        0
300

 40
0.0
140
1.0
 94
        2
 62
     0
340
55
144
0.18
309
CONTENTFORMAT_END
171
     0
 94
        0
309
TABLEFORMAT_END
  1
CELLSTYLE_BEGIN
 90
        3
 91
        2
300
_DATA
309
CELLSTYLE_END
  0
ENDSEC
  0
EOF
