  0
SECTION
  2
HEADER
  9
$ACADVER
  1
AC1027
  9
$ACADMAINTVER
 70
   125
  9
$DWGCODEPAGE
  3
ANSI_1252
  9
$LASTSAVEDBY
  1
Administrator
  9
$REQUIREDVERSIONS
160
                 0
  9
$INSBASE
 10
0.0
 20
0.0
 30
0.0
  9
$EXTMIN
 10
0.0
 20
0.0
 30
-1.617828
  9
$EXTMAX
 10
17.0
 20
11.0
 30
2.772022
  9
$LIMMIN
 10
0.0
 20
0.0
  9
$LIMMAX
 10
17.0
 20
11.0
  9
$ORTHOMODE
 70
     0
  9
$REGENMODE
 70
     1
  9
$FILLMODE
 70
     1
  9
$QTEXTMODE
 70
     0
  9
$MIRRTEXT
 70
     0
  9
$LTSCALE
 40
0.75
  9
$ATTMODE
 70
     1
  9
$TEXTSIZE
 40
0.12
  9
$TRACEWID
 40
0.05
  9
$TEXTSTYLE
  7
Standard
  9
$CLAYER
  8
Titleblock
  9
$CELTYPE
  6
ByLayer
  9
$CECOLOR
 62
   256
  9
$CELTSCALE
 40
1.0
  9
$DISPSILH
 70
     0
  9
$DIMSCALE
 40
1.0
  9
$DIMASZ
 40
0.12
  9
$DIMEXO
 40
0.07
  9
$DIMDLI
 40
0.36
  9
$DIMRND
 40
0.0
  9
$DIMDLE
 40
0.0
  9
$DIMEXE
 40
0.07
  9
$DIMTP
 40
0.01
  9
$DIMTM
 40
0.01
  9
$DIMTXT
 40
0.12
  9
$DIMCEN
 40
0.0
  9
$DIMTSZ
 40
0.0
  9
$DIMTOL
 70
     0
  9
$DIMLIM
 70
     0
  9
$DIMTIH
 70
     1
  9
$DIMTOH
 70
     1
  9
$DIMSE1
 70
     0
  9
$DIMSE2
 70
     0
  9
$DIMTAD
 70
     0
  9
$DIMZIN
 70
    12
  9
$DIMBLK
  1

  9
$DIMASO
 70
     1
  9
$DIMSHO
 70
     1
  9
$DIMPOST
  1
in
  9
$DIMAPOST
  1
mm
  9
$DIMALT
 70
     0
  9
$DIMALTD
 70
     2
  9
$DIMALTF
 40
25.4
  9
$DIMLFAC
 40
1.0
  9
$DIMTOFL
 70
     0
  9
$DIMTVP
 40
0.0
  9
$DIMTIX
 70
     0
  9
$DIMSOXD
 70
     0
  9
$DIMSAH
 70
     0
  9
$DIMBLK1
  1

  9
$DIMBLK2
  1

  9
$DIMSTYLE
  2
Standard
  9
$DIMCLRD
 70
   256
  9
$DIMCLRE
 70
   256
  9
$DIMCLRT
 70
   256
  9
$DIMTFAC
 40
1.0
  9
$DIMGAP
 40
0.05
  9
$DIMJUST
 70
     0
  9
$DIMSD1
 70
     0
  9
$DIMSD2
 70
     0
  9
$DIMTOLJ
 70
     1
  9
$DIMTZIN
 70
    12
  9
$DIMALTZ
 70
    12
  9
$DIMALTTZ
 70
    12
  9
$DIMUPT
 70
     0
  9
$DIMDEC
 70
     2
  9
$DIMTDEC
 70
     2
  9
$DIMALTU
 70
     2
  9
$DIMALTTD
 70
     2
  9
$DIMTXSTY
  7
Standard
  9
$DIMAUNIT
 70
     0
  9
$DIMADEC
 70
     2
  9
$DIMALTRND
 40
0.0
  9
$DIMAZIN
 70
     3
  9
$DIMDSEP
 70
    46
  9
$DIMATFIT
 70
     3
  9
$DIMFRAC
 70
     0
  9
$DIMLDRBLK
  1

  9
$DIMLUNIT
 70
     2
  9
$DIMLWD
 70
    -2
  9
$DIMLWE
 70
    -2
  9
$DIMTMOVE
 70
     0
  9
$DIMFXL
 40
1.0
  9
$DIMFXLON
 70
     0
  9
$DIMJOGANG
 40
0.785398
  9
$DIMTFILL
 70
     0
  9
$DIMTFILLCLR
 70
     0
  9
$DIMARCSYM
 70
     1
  9
$DIMLTYPE
  6

  9
$DIMLTEX1
  6

  9
$DIMLTEX2
  6

  9
$DIMTXTDIRECTION
 70
     0
  9
$LUNITS
 70
     2
  9
$LUPREC
 70
     4
  9
$SKETCHINC
 40
0.1
  9
$FILLETRAD
 40
0.0
  9
$AUNITS
 70
     0
  9
$AUPREC
 70
     0
  9
$MENU
  1
.
  9
$ELEVATION
 40
0.0
  9
$PELEVATION
 40
0.0
  9
$THICKNESS
 40
0.0
  9
$LIMCHECK
 70
     0
  9
$CHAMFERA
 40
0.0
  9
$CHAMFERB
 40
0.0
  9
$CHAMFERC
 40
0.0
  9
$CHAMFERD
 40
0.0
  9
$SKPOLY
 70
     0
  9
$TDCREATE
 40
2459467.571307871
  9
$TDUCREATE
 40
2459467.862974537
  9
$TDUPDATE
 40
2459467.571307871
  9
$TDUUPDATE
 40
2459467.862974537
  9
$TDINDWG
 40
0.0000000000
  9
$TDUSRTIMER
 40
0.0000000000
  9
$USRTIMER
 70
     1
  9
$ANGBASE
 50
0.0
  9
$ANGDIR
 70
     0
  9
$PDMODE
 70
     0
  9
$PDSIZE
 40
0.0
  9
$PLINEWID
 40
0.0
  9
$SPLFRAME
 70
     0
  9
$SPLINETYPE
 70
     6
  9
$SPLINESEGS
 70
     8
  9
$HANDSEED
  5
428
  9
$SURFTAB1
 70
     6
  9
$SURFTAB2
 70
     6
  9
$SURFTYPE
 70
     6
  9
$SURFU
 70
     6
  9
$SURFV
 70
     6
  9
$UCSBASE
  2

  9
$UCSNAME
  2

  9
$UCSORG
 10
0.0
 20
0.0
 30
0.0
  9
$UCSXDIR
 10
1.0
 20
0.0
 30
0.0
  9
$UCSYDIR
 10
0.0
 20
1.0
 30
0.0
  9
$UCSORTHOREF
  2

  9
$UCSORTHOVIEW
 70
     0
  9
$UCSORGTOP
 10
0.0
 20
0.0
 30
0.0
  9
$UCSORGBOTTOM
 10
0.0
 20
0.0
 30
0.0
  9
$UCSORGLEFT
 10
0.0
 20
0.0
 30
0.0
  9
$UCSORGRIGHT
 10
0.0
 20
0.0
 30
0.0
  9
$UCSORGFRONT
 10
0.0
 20
0.0
 30
0.0
  9
$UCSORGBACK
 10
0.0
 20
0.0
 30
0.0
  9
$PUCSBASE
  2

  9
$PUCSNAME
  2

  9
$PUCSORG
 10
0.0
 20
0.0
 30
0.0
  9
$PUCSXDIR
 10
1.0
 20
0.0
 30
0.0
  9
$PUCSYDIR
 10
0.0
 20
1.0
 30
0.0
  9
$PUCSORTHOREF
  2

  9
$PUCSORTHOVIEW
 70
     0
  9
$PUCSORGTOP
 10
0.0
 20
0.0
 30
0.0
  9
$PUCSORGBOTTOM
 10
0.0
 20
0.0
 30
0.0
  9
$PUCSORGLEFT
 10
0.0
 20
0.0
 30
0.0
  9
$PUCSORGRIGHT
 10
0.0
 20
0.0
 30
0.0
  9
$PUCSORGFRONT
 10
0.0
 20
0.0
 30
0.0
  9
$PUCSORGBACK
 10
0.0
 20
0.0
 30
0.0
  9
$USERI1
 70
     0
  9
$USERI2
 70
     0
  9
$USERI3
 70
     0
  9
$USERI4
 70
     0
  9
$USERI5
 70
     0
  9
$USERR1
 40
0.0
  9
$USERR2
 40
0.0
  9
$USERR3
 40
0.0
  9
$USERR4
 40
0.0
  9
$USERR5
 40
0.0
  9
$WORLDVIEW
 70
     1
  9
$SHADEDGE
 70
     3
  9
$SHADEDIF
 70
    70
  9
$TILEMODE
 70
     1
  9
$MAXACTVP
 70
    64
  9
$PINSBASE
 10
0.0
 20
0.0
 30
0.0
  9
$PLIMCHECK
 70
     0
  9
$PEXTMIN
 10
1.000000E+20
 20
1.000000E+20
 30
1.000000E+20
  9
$PEXTMAX
 10
-1.000000E+20
 20
-1.000000E+20
 30
-1.000000E+20
  9
$PLIMMIN
 10
0.0
 20
0.0
  9
$PLIMMAX
 10
12.0
 20
9.0
  9
$UNITMODE
 70
     0
  9
$VISRETAIN
 70
     1
  9
$PLINEGEN
 70
     0
  9
$PSLTSCALE
 70
     1
  9
$TREEDEPTH
 70
  3020
  9
$CMLSTYLE
  2
Standard
  9
$CMLJUST
 70
     0
  9
$CMLSCALE
 40
1.0
  9
$PROXYGRAPHICS
 70
     1
  9
$MEASUREMENT
 70
     0
  9
$CELWEIGHT
370
    -1
  9
$ENDCAPS
280
     0
  9
$JOINSTYLE
280
     0
  9
$LWDISPLAY
290
     0
  9
$INSUNITS
 70
     1
  9
$HYPERLINKBASE
  1

  9
$STYLESHEET
  1

  9
$XEDIT
290
     1
  9
$CEPSNTYPE
380
     0
  9
$PSTYLEMODE
290
     1
  9
$FINGERPRINTGUID
  2
{CA20DC0F-E885-6D4A-BDB0-07E71FE3A979}
  9
$VERSIONGUID
  2
{F6EB97E5-0837-1C4B-9F17-05ED6D6105E4}
  9
$EXTNAMES
290
     1
  9
$PSVPSCALE
 40
0.0
  9
$OLESTARTUP
290
     0
  9
$SORTENTS
280
   127
  9
$INDEXCTL
280
     0
  9
$HIDETEXT
280
     1
  9
$XCLIPFRAME
280
     0
  9
$HALOGAP
280
     0
  9
$OBSCOLOR
 70
   257
  9
$OBSLTYPE
280
     0
  9
$INTERSECTIONDISPLAY
280
     0
  9
$INTERSECTIONCOLOR
 70
   257
  9
$DIMASSOC
280
     2
  9
$PROJECTNAME
  1

  9
$CAMERADISPLAY
290
     0
  9
$LENSLENGTH
 40
50.0
  9
$CAMERAHEIGHT
 40
0.0
  9
$STEPSPERSEC
 40
2.0
  9
$STEPSIZE
 40
6.0
  9
$3DDWFPREC
 40
2.0
  9
$PSOLWIDTH
 40
0.25
  9
$PSOLHEIGHT
 40
4.0
  9
$LOFTANG1
 40
1.570796
  9
$LOFTANG2
 40
1.570796
  9
$LOFTMAG1
 40
0.0
  9
$LOFTMAG2
 40
0.0
  9
$LOFTPARAM
 70
     7
  9
$LOFTNORMALS
280
     1
  9
$LATITUDE
 40
37.795
  9
$LONGITUDE
 40
-122.394
  9
$NORTHDIRECTION
 40
0.0
  9
$TIMEZONE
 70
 -8000
  9
$LIGHTGLYPHDISPLAY
280
     1
  9
$TILEMODELIGHTSYNCH
280
     1
  9
$CMATERIAL
347
11
  9
$SOLIDHIST
280
     0
  9
$SHOWHIST
280
     1
  9
$DWFFRAME
280
     2
  9
$DGNFRAME
280
     0
  9
$REALWORLDSCALE
290
     1
  9
$INTERFERECOLOR
 62
     1
  9
$INTERFEREOBJVS
345
33
  9
$INTERFEREVPVS
346
30
  9
$CSHADOW
280
     0
  9
$SHADOWPLANELOCATION
 40
0.0
  0
ENDSEC
  0
SECTION
  2
CLASSES
  0
CLASS
  1
ACDBDICTIONARYWDFLT
  2
AcDbDictionaryWithDefault
  3
ObjectDBX Classes
 90
        0
 91
        1
280
     0
281
     0
  0
CLASS
  1
MATERIAL
  2
AcDbMaterial
  3
ObjectDBX Classes
 90
     1153
 91
        3
280
     0
281
     0
  0
CLASS
  1
VISUALSTYLE
  2
AcDbVisualStyle
  3
ObjectDBX Classes
 90
     4095
 91
       24
280
     0
281
     0
  0
CLASS
  1
SCALE
  2
AcDbScale
  3
ObjectDBX Classes
 90
     1153
 91
       33
280
     0
281
     0
  0
CLASS
  1
TABLESTYLE
  2
AcDbTableStyle
  3
ObjectDBX Classes
 90
     4095
 91
        1
280
     0
281
     0
  0
CLASS
  1
MLEADERSTYLE
  2
AcDbMLeaderStyle
  3
ACDB_MLEADERSTYLE_CLASS
 90
     4095
 91
        1
280
     0
281
     0
  0
CLASS
  1
ACDBSECTIONVIEWSTYLE
  2
AcDbSectionViewStyle
  3
ObjectDBX Classes
 90
     1025
 91
        1
280
     0
281
     0
  0
CLASS
  1
ACDBDETAILVIEWSTYLE
  2
AcDbDetailViewStyle
  3
ObjectDBX Classes
 90
     1025
 91
        1
280
     0
281
     0
  0
CLASS
  1
ACMESCOPE
  2
AcMeScope
  3
AcMeServices
 90
     1024
 91
        1
280
     0
281
     0
  0
CLASS
  1
ACMECOMMANDHISTORY
  2
AcMeCommandHistory
  3
AcMeServices
 90
     1024
 91
        1
280
     0
281
     0
  0
CLASS
  1
ACIMSYSVARMAN
  2
AcImSysVarManager
  3
AcMeServices
 90
     1024
 91
        1
280
     0
281
     0
  0
CLASS
  1
ACIMINTSYSVAR
  2
AcImIntSysVar
  3
AcMeServices
 90
     1024
 91
        1
280
     0
281
     0
  0
CLASS
  1
ACMESTATEMGR
  2
AcMeStateMgr
  3
AcMeServices
 90
     1024
 91
        1
280
     0
281
     0
  0
CLASS
  1
ACGREFMASTER
  2
AcGrefMaster
  3
AcAttribServices
 90
     1024
 91
        1
280
     0
281
     0
  0
CLASS
  1
SORTENTSTABLE
  2
AcDbSortentsTable
  3
ObjectDBX Classes
 90
        0
 91
        6
280
     0
281
     0
  0
CLASS
  1
IMAGE
  2
AcDbRasterImage
  3
ISM
 90
     2175
 91
        1
280
     0
281
     1
  0
CLASS
  1
IMAGEDEF
  2
AcDbRasterImageDef
  3
ISM
 90
        0
 91
        1
280
     0
281
     0
  0
CLASS
  1
IMAGEDEF_REACTOR
  2
AcDbRasterImageDefReactor
  3
ISM
 90
        1
 91
        2
280
     0
281
     0
  0
CLASS
  1
RASTERVARIABLES
  2
AcDbRasterVariables
  3
ISM
 90
        0
 91
        1
280
     0
281
     0
  0
CLASS
  1
DICTIONARYVAR
  2
AcDbDictionaryVar
  3
ObjectDBX Classes
 90
        0
 91
        6
280
     0
281
     0
  0
CLASS
  1
CELLSTYLEMAP
  2
AcDbCellStyleMap
  3
ObjectDBX Classes
 90
     1152
 91
        1
280
     0
281
     0
  0
ENDSEC
  0
SECTION
  2
TABLES
  0
TABLE
  2
VPORT
  5
8
330
0
100
AcDbSymbolTable
 70
     1
1001
ACAD
1000
DbSaveVer
1071
      246
  0
VPORT
  5
57
330
8
100
AcDbSymbolTableRecord
100
AcDbViewportTableRecord
  2
*Active
 70
     0
 10
0.0
 20
0.0
 11
1.0
 21
1.0
 12
8.5
 22
5.5
 13
0.0
 23
0.0
 14
0.5
 24
0.5
 15
0.0
 25
0.0
 16
0.0
 26
0.0
 36
1.0
 17
0.0
 27
0.0
 37
0.0
 40
11.0
 41
1.7981
 42
50.0
 43
0.0
 44
0.0
 50
0.0
 51
0.0
 71
     0
 72
 20000
 73
     1
 74
     0
 75
     0
 76
     0
 77
     0
 78
     0
281
     0
 65
     1
110
0.0
120
0.0
130
0.0
111
1.0
121
0.0
131
0.0
112
0.0
122
1.0
132
0.0
 79
     0
146
0.0
348
2F
 60
     3
 61
     5
292
     1
282
     1
141
0.0
142
0.0
 63
   250
421
  3355443
  0
ENDTAB
  0
TABLE
  2
LTYPE
  5
5
330
0
100
AcDbSymbolTable
 70
    10
  0
LTYPE
  5
5B
330
5
100
AcDbSymbolTableRecord
100
AcDbLinetypeTableRecord
  2
ByBlock
 70
     0
  3

 72
    65
 73
     0
 40
0.0
  0
LTYPE
  5
5C
330
5
100
AcDbSymbolTableRecord
100
AcDbLinetypeTableRecord
  2
ByLayer
 70
     0
  3

 72
    65
 73
     0
 40
0.0
  0
LTYPE
  5
5D
330
5
100
AcDbSymbolTableRecord
100
AcDbLinetypeTableRecord
  2
Continuous
 70
     0
  3
Solid line
 72
    65
 73
     0
 40
0.0
  0
LTYPE
  5
81
330
5
100
AcDbSymbolTableRecord
100
AcDbLinetypeTableRecord
  2
HIDDEN
 70
     0
  3
Hidden __ __ __ __ __ __ __ __ __ __ __ __ __ _
 72
    65
 73
     2
 40
0.375
 49
0.25
 74
     0
 49
-0.125
 74
     0
  0
LTYPE
  5
82
330
5
100
AcDbSymbolTableRecord
100
AcDbLinetypeTableRecord
  2
PHANTOM2
 70
     0
  3
Phantom (.5x) ___ _ _ ___ _ _ ___ _ _ ___ _ _
 72
    65
 73
     6
 40
1.25
 49
0.625
 74
     0
 49
-0.125
 74
     0
 49
0.125
 74
     0
 49
-0.125
 74
     0
 49
0.125
 74
     0
 49
-0.125
 74
     0
  0
LTYPE
  5
83
330
5
100
AcDbSymbolTableRecord
100
AcDbLinetypeTableRecord
  2
CENTER
 70
     0
  3
Center ____ _ ____ _ ____ _ ____ _ ____ _ ____
 72
    65
 73
     4
 40
2.0
 49
1.25
 74
     0
 49
-0.25
 74
     0
 49
0.25
 74
     0
 49
-0.25
 74
     0
  0
LTYPE
  5
9C
330
5
100
AcDbSymbolTableRecord
100
AcDbLinetypeTableRecord
  2
CENTER2
 70
     0
  3
Center (.5x) ___ _ ___ _ ___ _ ___ _ ___ _ ___
 72
    65
 73
     4
 40
1.125
 49
0.75
 74
     0
 49
-0.125
 74
     0
 49
0.125
 74
     0
 49
-0.125
 74
     0
  0
LTYPE
  5
9D
330
5
100
AcDbSymbolTableRecord
100
AcDbLinetypeTableRecord
  2
HIDDEN2
 70
     0
  3
Hidden (.5x) _ _ _ _ _ _ _ _ _ _ _ _ _ _ _ _ _
 72
    65
 73
     2
 40
0.1875
 49
0.125
 74
     0
 49
-0.0625
 74
     0
  0
LTYPE
  5
9E
330
5
100
AcDbSymbolTableRecord
100
AcDbLinetypeTableRecord
  2
Amconstr
 70
     0
  3
_______________________
 72
    65
 73
     2
 40
9999.0
 49
9999.0
 74
     0
 49
0.0
 74
     0
  0
LTYPE
  5
9F
330
5
100
AcDbSymbolTableRecord
100
AcDbLinetypeTableRecord
  2
Amzigzag2
 70
     0
  3
/\/-/\/-/\/-/\/-/\/-/\/
 72
    65
 73
     2
 40
0.4401
 49
0.0001
 74
     4
 75
   136
340
99
 46
0.0016
 50
0.0
 44
0.0
 45
0.0
 49
-0.44
 74
     0
  0
LTYPE
  5
A0
330
5
100
AcDbSymbolTableRecord
100
AcDbLinetypeTableRecord
  2
ACANSTGB
 70
     0
  3
__ . . __ . .
 72
    65
 73
     6
 40
0.354331
 49
0.15748
 74
     0
 49
-0.03937
 74
     0
 49
0.03937
 74
     0
 49
-0.03937
 74
     0
 49
0.03937
 74
     0
 49
-0.03937
 74
     0
  0
LTYPE
  5
A1
330
5
100
AcDbSymbolTableRecord
100
AcDbLinetypeTableRecord
  2
ACANSTGL
 70
     0
  3
_ _ _ _ _
 72
    65
 73
     2
 40
0.11811
 49
0.07874
 74
     0
 49
-0.03937
 74
     0
  0
ENDTAB
  0
TABLE
  2
LAYER
  5
2
330
0
100
AcDbSymbolTable
 70
     9
  0
LAYER
  5
54
330
2
100
AcDbSymbolTableRecord
100
AcDbLayerTableRecord
  2
0
 70
     0
 62
     7
  6
Continuous
370
    -3
390
F
347
21
348
0
1001
AcAecLayerStandard
1000

1000

  0
LAYER
  5
79
330
2
100
AcDbSymbolTableRecord
100
AcDbLayerTableRecord
  2
Defpoints
 70
     0
 62
     7
  6
Continuous
290
     0
370
    -3
390
F
347
21
348
0
1001
AcAecLayerStandard
1000

1000

  0
LAYER
  5
BB
330
2
100
AcDbSymbolTableRecord
100
AcDbLayerTableRecord
  2
Visible
 70
     0
 62
     7
  6
Continuous
370
    25
390
F
347
21
348
0
  0
LAYER
  5
1A9
330
2
100
AcDbSymbolTableRecord
100
AcDbLayerTableRecord
  2
Titleblock
 70
     0
 62
     7
  6
Continuous
370
    -3
390
F
347
21
348
0
1001
AcAecLayerStandard
1000

1000

1001
AcCmTransparency
1071
        0
  0
LAYER
  5
1CE
330
2
100
AcDbSymbolTableRecord
100
AcDbLayerTableRecord
  2
Border
 70
     0
 62
     7
  6
Continuous
370
    -3
390
F
347
21
348
0
1001
AcAecLayerStandard
1000

1000

1001
AcCmTransparency
1071
        0
  0
LAYER
  5
1EF
330
2
100
AcDbSymbolTableRecord
100
AcDbLayerTableRecord
  2
Dimensions
 70
     0
 62
     7
  6
Continuous
370
    13
390
F
347
21
348
0
  0
ENDTAB
  0
TABLE
  2
STYLE
  5
3
330
0
100
AcDbSymbolTable
 70
     4
  0
STYLE
  5
55
330
3
100
AcDbSymbolTableRecord
100
AcDbTextStyleTableRecord
  2
Standard
 70
     0
 40
0.0
 41
1.0
 50
0.0
 71
     0
 42
0.12
  3
arial.ttf
  4

1001
ACAD
1000
Arial
1071
       34
  0
STYLE
  5
5A
330
3
100
AcDbSymbolTableRecord
100
AcDbTextStyleTableRecord
  2
Annotative
 70
     0
 40
0.0
 41
1.0
 50
0.0
 71
     0
 42
0.2
  3
txt
  4

1001
AcadAnnotative
1000
AnnotativeData
1002
{
1070
     1
1070
     1
1002
}
  0
STYLE
  5
99
330
3
100
AcDbSymbolTableRecord
100
AcDbTextStyleTableRecord
  2

 70
     1
 40
0.0
 41
1.0
 50
0.0
 71
     0
 42
0.12
  3
genltshp.shx
  4

  0
STYLE
  5
9A
330
3
100
AcDbSymbolTableRecord
100
AcDbTextStyleTableRecord
  2
ACANSGDT
 70
     0
 40
0.0
 41
1.0
 50
0.0
 71
     0
 42
0.12
  3
amgdt.shx
  4

  0
ENDTAB
  0
TABLE
  2
VIEW
  5
6
330
0
100
AcDbSymbolTable
 70
     0
  0
ENDTAB
  0
TABLE
  2
UCS
  5
7
330
0
100
AcDbSymbolTable
 70
     0
  0
ENDTAB
  0
TABLE
  2
APPID
  5
9
330
0
100
AcDbSymbolTable
 70
    26
  0
APPID
  5
56
330
9
100
AcDbSymbolTableRecord
100
AcDbRegAppTableRecord
  2
ACAD
 70
     0
  0
APPID
  5
5E
330
9
100
AcDbSymbolTableRecord
100
AcDbRegAppTableRecord
  2
AcadAnnotative
 70
     0
  0
APPID
  5
78
330
9
100
AcDbSymbolTableRecord
100
AcDbRegAppTableRecord
  2
ACAD_PSEXT
 70
     0
  0
APPID
  5
7A
330
9
100
AcDbSymbolTableRecord
100
AcDbRegAppTableRecord
  2
MCAD_NO_VIS
 70
     0
  0
APPID
  5
7B
330
9
100
AcDbSymbolTableRecord
100
AcDbRegAppTableRecord
  2
ACAD_TEMP_GRAPHIC
 70
     0
  0
APPID
  5
84
330
9
100
AcDbSymbolTableRecord
100
AcDbRegAppTableRecord
  2
ACAD_DSTYLE_DIMJAG
 70
     0
  0
APPID
  5
85
330
9
100
AcDbSymbolTableRecord
100
AcDbRegAppTableRecord
  2
ACAD_DSTYLE_DIMTALN
 70
     0
  0
APPID
  5
86
330
9
100
AcDbSymbolTableRecord
100
AcDbRegAppTableRecord
  2
ACAD_NAV_VCDISPLAY
 70
     0
  0
APPID
  5
87
330
9
100
AcDbSymbolTableRecord
100
AcDbRegAppTableRecord
  2
AcAecLayerStandard
 70
     0
  0
APPID
  5
88
330
9
100
AcDbSymbolTableRecord
100
AcDbRegAppTableRecord
  2
AcCmTransparency
 70
     0
  0
APPID
  5
89
330
9
100
AcDbSymbolTableRecord
100
AcDbRegAppTableRecord
  2
ACAD_DSTYLE_DIMBREAK
 70
     0
  0
APPID
  5
8A
330
9
100
AcDbSymbolTableRecord
100
AcDbRegAppTableRecord
  2
ACAD_DSTYLE_DIMRADIAL_EXTENSION
 70
     0
  0
APPID
  5
8B
330
9
100
AcDbSymbolTableRecord
100
AcDbRegAppTableRecord
  2
FUSIONTITLEBLOCK
 70
     0
  0
APPID
  5
8C
330
9
100
AcDbSymbolTableRecord
100
AcDbRegAppTableRecord
  2
FUSIONCURRENTTITLEBLOCK
 70
     0
  0
APPID
  5
8D
330
9
100
AcDbSymbolTableRecord
100
AcDbRegAppTableRecord
  2
AcSynergy
 70
     0
  0
APPID
  5
8E
330
9
100
AcDbSymbolTableRecord
100
AcDbRegAppTableRecord
  2
ACAD_VIEW_EDGE_ID
 70
     0
  0
APPID
  5
8F
330
9
100
AcDbSymbolTableRecord
100
AcDbRegAppTableRecord
  2
GENIUS_GENSCREG_15
 70
     0
  0
APPID
  5
90
330
9
100
AcDbSymbolTableRecord
100
AcDbRegAppTableRecord
  2
GENIUS_GENOBJ-N-SDF_13
 70
     0
  0
APPID
  5
91
330
9
100
AcDbSymbolTableRecord
100
AcDbRegAppTableRecord
  2
GENIUS_GENODEF_13
 70
     0
  0
APPID
  5
92
330
9
100
AcDbSymbolTableRecord
100
AcDbRegAppTableRecord
  2
ACAD_DIMASSOC_CALC_DIMLFAC
 70
     0
  0
APPID
  5
93
330
9
100
AcDbSymbolTableRecord
100
AcDbRegAppTableRecord
  2
ACAD_DIMASSOC_DIMLFAC
 70
     0
  0
APPID
  5
94
330
9
100
AcDbSymbolTableRecord
100
AcDbRegAppTableRecord
  2
ACAD_DIMASSOC_OVERRIDDEN_DIMLFAC
 70
     0
  0
APPID
  5
95
330
9
100
AcDbSymbolTableRecord
100
AcDbRegAppTableRecord
  2
FD_ATT_APPNAME
 70
     0
  0
APPID
  5
96
330
9
100
AcDbSymbolTableRecord
100
AcDbRegAppTableRecord
  2
ACAD_TC
 70
     0
  0
APPID
  5
97
330
9
100
AcDbSymbolTableRecord
100
AcDbRegAppTableRecord
  2
ACAD_DSTYLE_DIMJAG_POSITION
 70
     0
  0
APPID
  5
98
330
9
100
AcDbSymbolTableRecord
100
AcDbRegAppTableRecord
  2
ACATTRIBSERVICES
 70
     0
  0
ENDTAB
  0
TABLE
  2
DIMSTYLE
  5
A
330
0
100
AcDbSymbolTable
 70
     2
100
AcDbDimStyleTable
 71
     1
340
58
  0
DIMSTYLE
105
58
102
{ACAD_REACTORS
330
1EE
330
1FD
330
207
330
211
330
21F
102
}
330
A
100
AcDbSymbolTableRecord
100
AcDbDimStyleTableRecord
  2
Standard
 70
     0
  3
in
  4
mm
 41
0.12
 42
0.07
 43
0.36
 44
0.07
 47
0.01
 48
0.01
 78
    12
 79
     3
 90
        1
140
0.12
141
0.0
147
0.05
176
   256
177
   256
178
   256
179
     2
271
     2
272
     2
284
    12
285
    12
286
    12
340
55
  0
DIMSTYLE
105
59
330
A
100
AcDbSymbolTableRecord
100
AcDbDimStyleTableRecord
  2
Annotative
 70
     0
  3
in
 40
0.0
 41
0.12
 42
0.07
 43
0.36
 44
0.07
 78
    12
 79
     3
140
0.12
147
0.05
179
     2
271
     2
272
     2
284
    12
285
    12
286
    12
340
55
1001
AcadAnnotative
1000
AnnotativeData
1002
{
1070
     1
1070
     1
1002
}
  0
ENDTAB
  0
TABLE
  2
BLOCK_RECORD
  5
1
330
0
100
AcDbSymbolTable
 70
    16
  0
BLOCK_RECORD
  5
70
102
{ACAD_XDICTIONARY
360
B4
102
}
330
1
100
AcDbSymbolTableRecord
100
AcDbBlockTableRecord
  2
*Model_Space
340
73
 70
     0
280
     1
281
     0
  0
BLOCK_RECORD
  5
6C
330
1
100
AcDbSymbolTableRecord
100
AcDbBlockTableRecord
  2
*Paper_Space
340
6F
 70
     0
280
     1
281
     0
  0
BLOCK_RECORD
  5
74
330
1
100
AcDbSymbolTableRecord
100
AcDbBlockTableRecord
  2
*Paper_Space0
340
77
 70
     0
280
     1
281
     0
  0
BLOCK_RECORD
  5
1AA
102
{ACAD_XDICTIONARY
360
1AB
102
}
330
1
100
AcDbSymbolTableRecord
100
AcDbBlockTableRecord
  2
Shower
340
0
102
{BLKREFS
331
1A8
102
}
 70
     1
280
     1
281
     0
1001
FUSIONTITLEBLOCK
1000
TitleBlock
  0
BLOCK_RECORD
  5
1CF
330
1
100
AcDbSymbolTableRecord
100
AcDbBlockTableRecord
  2
ANSI_B_SHEET
340
0
310
2800000020000000200000000100080000000000000400000000000000000000000000000000000000000000000080000080000000808000800000008000800080800000C0C0C000C0DCC000F0CAA6000020400000206000002080000020A0000020C0000020E00000400000004020000040400000406000004080000040A0
310
000040C0000040E00000600000006020000060400000606000006080000060A0000060C0000060E00000800000008020000080400000806000008080000080A0000080C0000080E00000A0000000A0200000A0400000A0600000A0800000A0A00000A0C00000A0E00000C0000000C0200000C0400000C0600000C0800000C0
310
A00000C0C00000C0E00000E0000000E0200000E0400000E0600000E0800000E0A00000E0C00000E0E00040000000400020004000400040006000400080004000A0004000C0004000E00040200000402020004020400040206000402080004020A0004020C0004020E000404000004040200040404000404060004040800040
310
40A0004040C0004040E00040600000406020004060400040606000406080004060A0004060C0004060E00040800000408020004080400040806000408080004080A0004080C0004080E00040A0000040A0200040A0400040A0600040A0800040A0A00040A0C00040A0E00040C0000040C0200040C0400040C0600040C08000
310
40C0A00040C0C00040C0E00040E0000040E0200040E0400040E0600040E0800040E0A00040E0C00040E0E00080000000800020008000400080006000800080008000A0008000C0008000E00080200000802020008020400080206000802080008020A0008020C0008020E00080400000804020008040400080406000804080
310
008040A0008040C0008040E00080600000806020008060400080606000806080008060A0008060C0008060E00080800000808020008080400080806000808080008080A0008080C0008080E00080A0000080A0200080A0400080A0600080A0800080A0A00080A0C00080A0E00080C0000080C0200080C0400080C0600080C0
310
800080C0A00080C0C00080C0E00080E0000080E0200080E0400080E0600080E0800080E0A00080E0C00080E0E000C0000000C0002000C0004000C0006000C0008000C000A000C000C000C000E000C0200000C0202000C0204000C0206000C0208000C020A000C020C000C020E000C0400000C0402000C0404000C0406000C0
310
408000C040A000C040C000C040E000C0600000C0602000C0604000C0606000C0608000C060A000C060C000C060E000C0800000C0802000C0804000C0806000C0808000C080A000C080C000C080E000C0A00000C0A02000C0A04000C0A06000C0A08000C0A0A000C0A0C000C0A0E000C0C00000C0C02000C0C04000C0C06000
310
C0C08000C0C0A000F0FBFF00A4A0A000808080000000FF0000FF000000FFFF00FF000000FF00FF00FFFF0000FFFFFF0049494949494949494949494949494949494949494949494949494949494949494949494949494949494949494949494949494949494949494949494949494949494949494949494949494949494949
310
494949494949494949494949494949494949494949494949494949494949494949494949494949494949494949494949494949494949494949494949494949494949494949494949494949494949494949494949494949494949494949494949494949494949494949494949494949494949FFFF4949494949494949494949
310
494949494949494949494949494949FFFF4949FFFFFFFFFFFFFFFFFFFFFFFFFFFFFFFFFFFFFFFFFFFFFFFFFFFFFFFFFFFF494949FF4949494949494949494949494949494949494949494949494949FF49494949FF4949494949494949494949494949494949494949494949494949FF49494949FF49494949494949494949
310
49494949494949494949494949494949FF49494949FF4949494949494949494949494949494949494949494949494949FF49494949FF4949494949494949494949494949494949494949494949494949FF49494949FF4949494949494949494949494949494949494949494949494949FF49494949FF494949494949494949
310
4949494949494949494949494949494949FF49494949FF4949494949494949494949494949494949494949494949494949FF49494949FF4949494949494949494949494949494949494949494949494949FF49494949FF4949494949494949494949494949494949494949494949494949FF49494949FF4949494949494949
310
494949494949494949494949494949494949FF49494949FF4949494949494949494949494949494949494949494949494949FF49494949FF4949494949494949494949494949494949494949494949494949FF49494949FF4949494949494949494949494949494949494949494949494949FF49494949FF49494949494949
310
49494949494949494949494949494949494949FF49494949FF4949494949494949494949494949494949494949494949494949FF494949FFFFFFFFFFFFFFFFFFFFFFFFFFFFFFFFFFFFFFFFFFFFFFFFFFFFFFFFFFFF4949FFFF4949494949494949494949494949494949494949494949494949FFFF49494949494949494949
310
49494949494949494949494949494949494949494949494949494949494949494949494949494949494949494949494949494949494949494949494949494949494949494949494949494949494949494949494949494949494949494949494949494949494949494949494949494949494949494949494949494949494949
310
4949494949494949494949494949494949494949494949494949494949494949494949494949494949494949494949494949494949494949
102
{BLKREFS
331
1CD
102
}
 70
     1
280
     1
281
     0
  0
BLOCK_RECORD
  5
1F0
330
1
100
AcDbSymbolTableRecord
100
AcDbBlockTableRecord
  2
*D6
340
0
 70
     0
280
     1
281
     0
  0
BLOCK_RECORD
  5
1FE
330
1
100
AcDbSymbolTableRecord
100
AcDbBlockTableRecord
  2
*D7
340
0
 70
     0
280
     1
281
     0
  0
BLOCK_RECORD
  5
208
330
1
100
AcDbSymbolTableRecord
100
AcDbBlockTableRecord
  2
*D8
340
0
 70
     0
280
     1
281
     0
  0
BLOCK_RECORD
  5
212
330
1
100
AcDbSymbolTableRecord
100
AcDbBlockTableRecord
  2
*D9
340
0
 70
     0
280
     1
281
     0
  0
BLOCK_RECORD
  5
220
330
1
100
AcDbSymbolTableRecord
100
AcDbBlockTableRecord
  2
*D10
340
0
 70
     0
280
     1
281
     0
  0
BLOCK_RECORD
  5
22E
330
1
100
AcDbSymbolTableRecord
100
AcDbBlockTableRecord
  2
*D11
340
0
 70
     0
280
     1
281
     0
  0
BLOCK_RECORD
  5
23B
330
1
100
AcDbSymbolTableRecord
100
AcDbBlockTableRecord
  2
*D12
340
0
 70
     0
280
     1
281
     0
  0
BLOCK_RECORD
  5
244
330
1
100
AcDbSymbolTableRecord
100
AcDbBlockTableRecord
  2
*D13
340
0
 70
     0
280
     1
281
     0
  0
BLOCK_RECORD
  5
24D
330
1
100
AcDbSymbolTableRecord
100
AcDbBlockTableRecord
  2
*D14
340
0
 70
     0
280
     1
281
     0
  0
BLOCK_RECORD
  5
25A
330
1
100
AcDbSymbolTableRecord
100
AcDbBlockTableRecord
  2
*D15
340
0
 70
     0
280
     1
281
     0
  0
ENDTAB
  0
ENDSEC
  0
SECTION
  2
BLOCKS
  0
BLOCK
  5
71
330
70
100
AcDbEntity
  8
0
100
AcDbBlockBegin
  2
*Model_Space
 70
     0
 10
0.0
 20
0.0
 30
0.0
  3
*Model_Space
  1

  0
ENDBLK
  5
72
330
70
100
AcDbEntity
  8
0
100
AcDbBlockEnd
  0
BLOCK
  5
6D
330
6C
100
AcDbEntity
 67
     1
  8
0
100
AcDbBlockBegin
  2
*Paper_Space
 70
     0
 10
0.0
 20
0.0
 30
0.0
  3
*Paper_Space
  1

  0
ENDBLK
  5
6E
330
6C
100
AcDbEntity
 67
     1
  8
0
100
AcDbBlockEnd
  0
BLOCK
  5
75
330
74
100
AcDbEntity
 67
     1
  8
0
100
AcDbBlockBegin
  2
*Paper_Space0
 70
     0
 10
0.0
 20
0.0
 30
0.0
  3
*Paper_Space0
  1

  0
ENDBLK
  5
76
330
74
100
AcDbEntity
 67
     1
  8
0
100
AcDbBlockEnd
  0
BLOCK
  5
1AD
330
1AA
100
AcDbEntity
  8
0
100
AcDbBlockBegin
  2
Shower
 70
     2
 10
0.0
 20
0.0
 30
0.0
  3
Shower
  1

  0
LWPOLYLINE
  5
1AE
330
1AA
100
AcDbEntity
  8
Titleblock
100
AcDbPolyline
 90
        4
 70
     1
 43
0.0
 10
0.0
 20
0.0
 10
-4.9375
 20
0.0
 10
-4.9375
 20
2.5
 10
0.0
 20
2.5
  0
IMAGE
  5
1AF
330
1AA
100
AcDbEntity
  8
Titleblock
  6
Continuous
160
               140
310
8C0000000100000084000000060000000500000000000000008013C000B87FA8928AB03F000000000000000000000000008013C035B4911D6523F03F000000000000000001000000008001C035B4911D6523F03F000000000000000001000000008001C000B87FA8928AB03F000000000000000000000000008013C000B87F
310
A8928AB03F0000000000000000
370
     0
100
AcDbRasterImage
 90
        0
 10
-4.875
 20
0.064614
 30
0.0
 11
0.0028349156118143
 21
0.0
 31
0.0
 12
0.0
 22
0.0028349156118143
 32
0.0
 13
948.0
 23
333.0
340
1B0
 70
    15
280
     0
281
    50
282
    50
283
     0
290
     0
360
1B2
 71
     1
 91
        2
 14
-0.5
 24
-0.5
 14
947.5
 24
332.5
  0
LWPOLYLINE
  5
1B4
330
1AA
100
AcDbEntity
  8
Titleblock
  6
Continuous
370
    25
100
AcDbPolyline
 90
        4
 70
     1
 43
0.0
 10
0.0
 20
1.0625
 10
-4.9375
 20
1.061638
 10
-4.9375
 20
0.0
 10
0.0
 20
0.0
  0
LWPOLYLINE
  5
1B5
330
1AA
100
AcDbEntity
  8
Titleblock
  6
Continuous
370
    25
100
AcDbPolyline
 90
        4
 70
     1
 43
0.0
 10
-1.75
 20
2.5
 10
0.0
 20
2.5
 10
0.0
 20
2.5
 10
-1.75
 20
2.5
  0
ATTDEF
  5
1B6
330
1AA
100
AcDbEntity
  8
Titleblock
  6
Continuous
370
    25
100
AcDbText
 10
-3.6875
 20
2.3125
 30
0.0
 40
0.12
  1

100
AcDbAttributeDefinition
280
     0
  3

  2
PROJECT
 70
     0
280
     1
  0
MTEXT
  5
1B7
330
1AA
100
AcDbEntity
  8
Titleblock
  6
Continuous
370
    25
100
AcDbMText
 10
-4.875
 20
1.653875
 30
0.0
 40
0.12
 41
0.6875
 46
0.0
 71
     1
 72
     5
  1
Description:
 73
     1
 44
1.0
1001
ACAD
1000
ACAD_MTEXT_COLUMN_INFO_BEGIN
1070
    75
1070
     2
1070
    79
1070
     0
1070
    76
1070
     1
1070
    78
1070
     0
1070
    48
1040
0.6875
1070
    49
1040
0.6
1070
    50
1070
     1
1040
0.0
1000
ACAD_MTEXT_COLUMN_INFO_END
  0
ATTDEF
  5
1B8
330
1AA
100
AcDbEntity
  8
Titleblock
  6
Continuous
370
    25
100
AcDbText
 10
-1.6875
 20
0.6875
 30
0.0
 40
0.12
  1

100
AcDbAttributeDefinition
280
     0
  3

  2
DRAWN_DATE
 70
     0
280
     1
  0
ATTDEF
  5
1B9
330
1AA
100
AcDbEntity
  8
Titleblock
  6
Continuous
370
    25
100
AcDbText
 10
-4.3125
 20
1.8125
 30
0.0
 40
0.3048
  1

100
AcDbAttributeDefinition
280
     0
  3

  2
TITLE_1
 70
     0
280
     1
  0
ATTDEF
  5
1BA
330
1AA
100
AcDbEntity
  8
Titleblock
  6
Continuous
370
    25
100
AcDbText
 10
-1.6875
 20
0.91994
 30
0.0
 40
0.12
  1

100
AcDbAttributeDefinition
280
     0
  3

  2
SCALE
 70
     0
280
     1
  0
LWPOLYLINE
  5
1BB
330
1AA
100
AcDbEntity
  8
Titleblock
  6
Continuous
370
    25
100
AcDbPolyline
 90
        4
 70
     1
 43
0.0
 10
0.0
 20
1.0625
 10
0.0
 20
1.0625
 10
0.0
 20
0.0
 10
0.0
 20
0.0
  0
LWPOLYLINE
  5
1BC
330
1AA
100
AcDbEntity
  8
Titleblock
  6
Continuous
370
    25
100
AcDbPolyline
 90
        4
 70
     1
 43
0.0
 10
0.0
 20
1.0625
 10
0.0
 20
1.0625
 10
0.0
 20
0.0
 10
0.0
 20
0.0
  0
LINE
  5
1BD
330
1AA
100
AcDbEntity
  8
Titleblock
  6
Continuous
370
    25
100
AcDbLine
 10
-2.125
 20
1.062165
 30
0.0
 11
-2.125
 21
0.0
 31
0.0
  0
LWPOLYLINE
  5
1BE
330
1AA
100
AcDbEntity
  8
Titleblock
  6
Continuous
370
    25
100
AcDbPolyline
 90
        4
 70
     1
 43
0.0
 10
-4.9375
 20
2.5
 10
0.0
 20
2.5
 10
0.0
 20
2.5
 10
-4.9375
 20
2.5
  0
LINE
  5
1BF
330
1AA
100
AcDbEntity
  8
Titleblock
  6
Continuous
370
    25
100
AcDbLine
 10
-4.9375
 20
2.25
 30
0.0
 11
0.0
 21
2.25
 31
0.0
  0
LINE
  5
1C0
330
1AA
100
AcDbEntity
  8
Titleblock
  6
Continuous
370
    25
100
AcDbLine
 10
-4.9375
 20
1.6875
 30
0.0
 11
0.0
 21
1.6875
 31
0.0
  0
MTEXT
  5
1C1
330
1AA
100
AcDbEntity
  8
Titleblock
100
AcDbMText
 10
-4.875
 20
2.467284
 30
0.0
 40
0.12
 41
0.375
 46
0.0
 71
     1
 72
     5
  1
Project:
 73
     1
 44
1.0
1001
ACAD
1000
ACAD_MTEXT_COLUMN_INFO_BEGIN
1070
    75
1070
     2
1070
    79
1070
     0
1070
    76
1070
     1
1070
    78
1070
     0
1070
    48
1040
0.375
1070
    49
1040
0.6
1070
    50
1070
     1
1040
0.0
1000
ACAD_MTEXT_COLUMN_INFO_END
  0
MTEXT
  5
1C2
330
1AA
100
AcDbEntity
  8
Titleblock
100
AcDbMText
 10
-2.0625
 20
1.045477
 30
0.0
 40
0.075
 41
0.375
 46
0.0
 71
     1
 72
     5
  1
Scale:
 73
     1
 44
1.0
1001
ACAD
1000
ACAD_MTEXT_COLUMN_INFO_BEGIN
1070
    75
1070
     2
1070
    79
1070
     0
1070
    76
1070
     1
1070
    78
1070
     0
1070
    48
1040
0.375
1070
    49
1040
0.6
1070
    50
1070
     1
1040
0.0
1000
ACAD_MTEXT_COLUMN_INFO_END
  0
MTEXT
  5
1C3
330
1AA
100
AcDbEntity
  8
Titleblock
100
AcDbMText
 10
-2.0625
 20
0.857735
 30
0.0
 40
0.075
 41
0.375
 46
0.0
 71
     1
 72
     5
  1
Date Drawn:
 73
     1
 44
1.0
1001
ACAD
1000
ACAD_MTEXT_COLUMN_INFO_BEGIN
1070
    75
1070
     2
1070
    79
1070
     0
1070
    76
1070
     1
1070
    78
1070
     0
1070
    48
1040
0.375
1070
    49
1040
0.6
1070
    50
1070
     1
1040
0.0
1000
ACAD_MTEXT_COLUMN_INFO_END
  0
LINE
  5
1C4
330
1AA
100
AcDbEntity
  8
Titleblock
100
AcDbLine
 10
-2.125
 20
0.875
 30
0.0
 11
0.0
 21
0.875
 31
0.0
  0
LINE
  5
1C5
330
1AA
100
AcDbEntity
  8
Titleblock
100
AcDbLine
 10
-2.125
 20
0.625
 30
0.0
 11
0.0
 21
0.625
 31
0.0
  0
MTEXT
  5
1C6
330
1AA
100
AcDbEntity
  8
Titleblock
100
AcDbMText
 10
-4.875
 20
2.220603
 30
0.0
 40
0.12
 41
0.625
 46
0.0
 71
     1
 72
     5
  1
Title:
 73
     1
 44
1.0
1001
ACAD
1000
ACAD_MTEXT_COLUMN_INFO_BEGIN
1070
    75
1070
     2
1070
    79
1070
     0
1070
    76
1070
     1
1070
    78
1070
     0
1070
    48
1040
0.625
1070
    49
1040
0.6
1070
    50
1070
     1
1040
0.0
1000
ACAD_MTEXT_COLUMN_INFO_END
  0
ENDBLK
  5
1C7
330
1AA
100
AcDbEntity
  8
0
100
AcDbBlockEnd
  0
BLOCK
  5
1D0
330
1CF
100
AcDbEntity
  8
0
100
AcDbBlockBegin
  2
ANSI_B_SHEET
 70
     0
 10
0.0
 20
0.0
 30
0.0
  3
ANSI_B_SHEET
  1

  0
LINE
  5
1D1
330
1CF
100
AcDbEntity
  8
Border
100
AcDbLine
 10
0.0
 20
0.0
 30
0.0
 11
0.5
 21
0.0
 31
0.0
  0
LINE
  5
1D2
330
1CF
100
AcDbEntity
  8
Border
100
AcDbLine
 10
16.5
 20
0.0
 30
0.0
 11
17.0
 21
0.0
 31
0.0
  0
LINE
  5
1D3
330
1CF
100
AcDbEntity
  8
Border
100
AcDbLine
 10
0.62
 20
0.38
 30
0.0
 11
16.38
 21
0.38
 31
0.0
  0
LINE
  5
1D4
330
1CF
100
AcDbEntity
  8
Border
100
AcDbLine
 10
17.0
 20
0.0
 30
0.0
 11
17.0
 21
0.5
 31
0.0
  0
LINE
  5
1D5
330
1CF
100
AcDbEntity
  8
Border
100
AcDbLine
 10
17.0
 20
10.5
 30
0.0
 11
17.0
 21
11.0
 31
0.0
  0
LINE
  5
1D6
330
1CF
100
AcDbEntity
  8
Border
100
AcDbLine
 10
16.38
 20
0.38
 30
0.0
 11
16.38
 21
10.62
 31
0.0
  0
LINE
  5
1D7
330
1CF
100
AcDbEntity
  8
Border
100
AcDbLine
 10
17.0
 20
11.0
 30
0.0
 11
16.5
 21
11.0
 31
0.0
  0
LINE
  5
1D8
330
1CF
100
AcDbEntity
  8
Border
100
AcDbLine
 10
0.5
 20
11.0
 30
0.0
 11
0.0
 21
11.0
 31
0.0
  0
LINE
  5
1D9
330
1CF
100
AcDbEntity
  8
Border
100
AcDbLine
 10
16.38
 20
10.62
 30
0.0
 11
0.62
 21
10.62
 31
0.0
  0
LINE
  5
1DA
330
1CF
100
AcDbEntity
  8
Border
100
AcDbLine
 10
0.0
 20
11.0
 30
0.0
 11
0.0
 21
10.5
 31
0.0
  0
LINE
  5
1DB
330
1CF
100
AcDbEntity
  8
Border
100
AcDbLine
 10
0.0
 20
0.5
 30
0.0
 11
0.0
 21
0.0
 31
0.0
  0
LINE
  5
1DC
330
1CF
100
AcDbEntity
  8
Border
100
AcDbLine
 10
0.62
 20
10.62
 30
0.0
 11
0.62
 21
0.38
 31
0.0
  0
LINE
  5
1DD
330
1CF
100
AcDbEntity
  8
Border
100
AcDbLine
 10
8.413397
 20
0.23
 30
0.0
 11
8.586603
 21
0.23
 31
0.0
  0
LINE
  5
1DE
330
1CF
100
AcDbEntity
  8
Border
100
AcDbLine
 10
8.5
 20
0.38
 30
0.0
 11
8.5
 21
0.13
 31
0.0
  0
LINE
  5
1DF
330
1CF
100
AcDbEntity
  8
Border
100
AcDbLine
 10
8.5
 20
0.38
 30
0.0
 11
8.413397
 21
0.23
 31
0.0
  0
LINE
  5
1E0
330
1CF
100
AcDbEntity
  8
Border
100
AcDbLine
 10
8.5
 20
0.38
 30
0.0
 11
8.586603
 21
0.23
 31
0.0
  0
LINE
  5
1E1
330
1CF
100
AcDbEntity
  8
Border
100
AcDbLine
 10
0.47
 20
5.586603
 30
0.0
 11
0.47
 21
5.413397
 31
0.0
  0
LINE
  5
1E2
330
1CF
100
AcDbEntity
  8
Border
100
AcDbLine
 10
0.62
 20
5.5
 30
0.0
 11
0.37
 21
5.5
 31
0.0
  0
LINE
  5
1E3
330
1CF
100
AcDbEntity
  8
Border
100
AcDbLine
 10
0.62
 20
5.5
 30
0.0
 11
0.47
 21
5.586603
 31
0.0
  0
LINE
  5
1E4
330
1CF
100
AcDbEntity
  8
Border
100
AcDbLine
 10
0.62
 20
5.5
 30
0.0
 11
0.47
 21
5.413397
 31
0.0
  0
LINE
  5
1E5
330
1CF
100
AcDbEntity
  8
Border
100
AcDbLine
 10
16.53
 20
5.586603
 30
0.0
 11
16.53
 21
5.413397
 31
0.0
  0
LINE
  5
1E6
330
1CF
100
AcDbEntity
  8
Border
100
AcDbLine
 10
16.38
 20
5.5
 30
0.0
 11
16.63
 21
5.5
 31
0.0
  0
LINE
  5
1E7
330
1CF
100
AcDbEntity
  8
Border
100
AcDbLine
 10
16.38
 20
5.5
 30
0.0
 11
16.53
 21
5.586603
 31
0.0
  0
LINE
  5
1E8
330
1CF
100
AcDbEntity
  8
Border
100
AcDbLine
 10
16.38
 20
5.5
 30
0.0
 11
16.53
 21
5.413397
 31
0.0
  0
LINE
  5
1E9
330
1CF
100
AcDbEntity
  8
Border
100
AcDbLine
 10
8.413397
 20
10.77
 30
0.0
 11
8.586603
 21
10.77
 31
0.0
  0
LINE
  5
1EA
330
1CF
100
AcDbEntity
  8
Border
100
AcDbLine
 10
8.5
 20
10.62
 30
0.0
 11
8.5
 21
10.87
 31
0.0
  0
LINE
  5
1EB
330
1CF
100
AcDbEntity
  8
Border
100
AcDbLine
 10
8.5
 20
10.62
 30
0.0
 11
8.413397
 21
10.77
 31
0.0
  0
LINE
  5
1EC
330
1CF
100
AcDbEntity
  8
Border
100
AcDbLine
 10
8.5
 20
10.62
 30
0.0
 11
8.586603
 21
10.77
 31
0.0
  0
ENDBLK
  5
1ED
330
1CF
100
AcDbEntity
  8
0
100
AcDbBlockEnd
  0
BLOCK
  5
1F1
330
1F0
100
AcDbEntity
  8
0
100
AcDbBlockBegin
  2
*D6
 70
     1
 10
0.0
 20
0.0
 30
0.0
  3
*D6
  1

  0
LINE
  5
1F2
330
1F0
100
AcDbEntity
  8
Dimensions
440
 16777216
370
    -2
100
AcDbLine
 10
5.060434
 20
7.880408
 30
0.0
 11
5.060434
 21
8.55923
 31
0.0
  0
LINE
  5
1F3
330
1F0
100
AcDbEntity
  8
Dimensions
440
 16777216
370
    -2
100
AcDbLine
 10
2.798909
 20
6.213122
 30
0.0
 11
2.798909
 21
8.55923
 31
0.0
  0
LINE
  5
1F4
330
1F0
100
AcDbEntity
  8
Dimensions
440
 16777216
370
    -2
100
AcDbLine
 10
4.940434
 20
8.48923
 30
0.0
 11
4.199821
 21
8.48923
 31
0.0
  0
LINE
  5
1F5
330
1F0
100
AcDbEntity
  8
Dimensions
440
 16777216
370
    -2
100
AcDbLine
 10
2.918909
 20
8.48923
 30
0.0
 11
3.659521
 21
8.48923
 31
0.0
  0
SOLID
  5
1F6
330
1F0
100
AcDbEntity
  8
Dimensions
440
 16777216
100
AcDbTrace
 10
4.940434
 20
8.50923
 30
0.0
 11
4.940434
 21
8.46923
 31
0.0
 12
5.060434
 22
8.48923
 32
0.0
 13
5.060434
 23
8.48923
 33
0.0
  0
SOLID
  5
1F7
330
1F0
100
AcDbEntity
  8
Dimensions
440
 16777216
100
AcDbTrace
 10
2.918909
 20
8.50923
 30
0.0
 11
2.918909
 21
8.46923
 31
0.0
 12
2.798909
 22
8.48923
 32
0.0
 13
2.798909
 23
8.48923
 33
0.0
  0
MTEXT
  5
1F8
330
1F0
100
AcDbEntity
  8
Dimensions
440
 16777216
100
AcDbMText
 10
3.929671
 20
8.48923
 30
0.0
 40
0.12
 41
0.0
 46
0.0
 71
     5
 72
     1
  1
\A1;2.26in
 73
     1
 44
1.0
  0
POINT
  5
1F9
330
1F0
100
AcDbEntity
  8
Defpoints
 62
     0
440
 16777216
100
AcDbPoint
 10
5.060434
 20
7.810408
 30
0.0
  0
POINT
  5
1FA
330
1F0
100
AcDbEntity
  8
Defpoints
 62
     0
440
 16777216
100
AcDbPoint
 10
2.798909
 20
6.143122
 30
0.0
  0
POINT
  5
1FB
330
1F0
100
AcDbEntity
  8
Defpoints
 62
     0
440
 16777216
100
AcDbPoint
 10
2.798909
 20
8.48923
 30
0.0
  0
ENDBLK
  5
1FC
330
1F0
100
AcDbEntity
  8
0
100
AcDbBlockEnd
  0
BLOCK
  5
1FF
330
1FE
100
AcDbEntity
  8
0
100
AcDbBlockBegin
  2
*D7
 70
     1
 10
0.0
 20
0.0
 30
0.0
  3
*D7
  1

  0
LINE
  5
200
330
1FE
100
AcDbEntity
  8
Dimensions
440
 16777216
370
    -2
100
AcDbLine
 10
7.341831
 20
3.757698
 30
0.0
 11
7.461831
 21
3.757698
 31
0.0
  0
LINE
  5
201
330
1FE
100
AcDbEntity
  8
Dimensions
440
 16777216
370
    -2
100
AcDbLine
 10
7.461831
 20
3.757698
 30
0.0
 11
7.873921
 21
4.312036
 31
0.0
  0
MTEXT
  5
202
330
1FE
100
AcDbEntity
  8
Dimensions
440
 16777216
100
AcDbMText
 10
7.007424
 20
3.757698
 30
0.0
 40
0.12
 41
0.0
 46
0.0
 71
     5
 72
     1
  1
\A1;∅1.97in
 73
     1
 44
1.0
  0
SOLID
  5
203
330
1FE
100
AcDbEntity
  8
Dimensions
440
 16777216
100
AcDbTrace
 10
7.857871
 20
4.323968
 30
0.0
 11
7.889972
 21
4.300104
 31
0.0
 12
7.945513
 22
4.40834
 32
0.0
 13
7.945513
 23
4.40834
 33
0.0
  0
POINT
  5
204
330
1FE
100
AcDbEntity
  8
Defpoints
 62
     0
440
 16777216
100
AcDbPoint
 10
7.945513
 20
4.40834
 30
0.0
  0
POINT
  5
205
330
1FE
100
AcDbEntity
  8
Defpoints
 62
     0
440
 16777216
100
AcDbPoint
 10
9.119924
 20
5.98814
 30
0.0
  0
ENDBLK
  5
206
330
1FE
100
AcDbEntity
  8
0
100
AcDbBlockEnd
  0
BLOCK
  5
209
330
208
100
AcDbEntity
  8
0
100
AcDbBlockBegin
  2
*D8
 70
     1
 10
0.0
 20
0.0
 30
0.0
  3
*D8
  1

  0
LINE
  5
20A
330
208
100
AcDbEntity
  8
Dimensions
440
 16777216
370
    -2
100
AcDbLine
 10
7.24311
 20
4.448377
 30
0.0
 11
7.36311
 21
4.448377
 31
0.0
  0
LINE
  5
20B
330
208
100
AcDbEntity
  8
Dimensions
440
 16777216
370
    -2
100
AcDbLine
 10
7.36311
 20
4.448377
 30
0.0
 11
8.017406
 21
4.867861
 31
0.0
  0
MTEXT
  5
20C
330
208
100
AcDbEntity
  8
Dimensions
440
 16777216
100
AcDbMText
 10
6.95532
 20
4.448377
 30
0.0
 40
0.12
 41
0.0
 46
0.0
 71
     5
 72
     1
  1
\A1;∅.98in
 73
     1
 44
1.0
  0
SOLID
  5
20D
330
208
100
AcDbEntity
  8
Dimensions
440
 16777216
100
AcDbTrace
 10
8.006611
 20
4.884698
 30
0.0
 11
8.0282
 21
4.851024
 31
0.0
 12
8.118427
 22
4.932628
 32
0.0
 13
8.118427
 23
4.932628
 33
0.0
  0
POINT
  5
20E
330
208
100
AcDbEntity
  8
Defpoints
 62
     0
440
 16777216
100
AcDbPoint
 10
8.118427
 20
4.932628
 30
0.0
  0
POINT
  5
20F
330
208
100
AcDbEntity
  8
Defpoints
 62
     0
440
 16777216
100
AcDbPoint
 10
8.947011
 20
5.463853
 30
0.0
  0
ENDBLK
  5
210
330
208
100
AcDbEntity
  8
0
100
AcDbBlockEnd
  0
BLOCK
  5
213
330
212
100
AcDbEntity
  8
0
100
AcDbBlockBegin
  2
*D9
 70
     1
 10
0.0
 20
0.0
 30
0.0
  3
*D9
  1

  0
LINE
  5
214
330
212
100
AcDbEntity
  8
Dimensions
440
 16777216
370
    -2
100
AcDbLine
 10
8.259667
 20
3.862228
 30
0.0
 11
8.259667
 21
2.976687
 31
0.0
  0
LINE
  5
215
330
212
100
AcDbEntity
  8
Dimensions
440
 16777216
370
    -2
100
AcDbLine
 10
8.810848
 20
3.862228
 30
0.0
 11
8.810848
 21
2.976687
 31
0.0
  0
LINE
  5
216
330
212
100
AcDbEntity
  8
Dimensions
440
 16777216
370
    -2
100
AcDbLine
 10
8.139667
 20
3.046687
 30
0.0
 11
8.019667
 21
3.046687
 31
0.0
  0
LINE
  5
217
330
212
100
AcDbEntity
  8
Dimensions
440
 16777216
370
    -2
100
AcDbLine
 10
8.930848
 20
3.046687
 30
0.0
 11
9.050848
 21
3.046687
 31
0.0
  0
SOLID
  5
218
330
212
100
AcDbEntity
  8
Dimensions
440
 16777216
100
AcDbTrace
 10
8.139667
 20
3.066687
 30
0.0
 11
8.139667
 21
3.026687
 31
0.0
 12
8.259667
 22
3.046687
 32
0.0
 13
8.259667
 23
3.046687
 33
0.0
  0
SOLID
  5
219
330
212
100
AcDbEntity
  8
Dimensions
440
 16777216
100
AcDbTrace
 10
8.930848
 20
3.066687
 30
0.0
 11
8.930848
 21
3.026687
 31
0.0
 12
8.810848
 22
3.046687
 32
0.0
 13
8.810848
 23
3.046687
 33
0.0
  0
MTEXT
  5
21A
330
212
100
AcDbEntity
  8
Dimensions
440
 16777216
100
AcDbMText
 10
8.535257
 20
3.046687
 30
0.0
 40
0.12
 41
0.0
 46
0.0
 71
     5
 72
     1
  1
\A1;.55in
 73
     1
 44
1.0
  0
POINT
  5
21B
330
212
100
AcDbEntity
  8
Defpoints
 62
     0
440
 16777216
100
AcDbPoint
 10
8.259667
 20
3.932228
 30
0.0
  0
POINT
  5
21C
330
212
100
AcDbEntity
  8
Defpoints
 62
     0
440
 16777216
100
AcDbPoint
 10
8.810848
 20
3.932228
 30
0.0
  0
POINT
  5
21D
330
212
100
AcDbEntity
  8
Defpoints
 62
     0
440
 16777216
100
AcDbPoint
 10
8.810848
 20
3.046687
 30
0.0
  0
ENDBLK
  5
21E
330
212
100
AcDbEntity
  8
0
100
AcDbBlockEnd
  0
BLOCK
  5
221
330
220
100
AcDbEntity
  8
0
100
AcDbBlockBegin
  2
*D10
 70
     1
 10
0.0
 20
0.0
 30
0.0
  3
*D10
  1

  0
LINE
  5
222
330
220
100
AcDbEntity
  8
Dimensions
440
 16777216
370
    -2
100
AcDbLine
 10
7.25573
 20
7.880408
 30
0.0
 11
7.25573
 21
8.600408
 31
0.0
  0
LINE
  5
223
330
220
100
AcDbEntity
  8
Dimensions
440
 16777216
370
    -2
100
AcDbLine
 10
9.814785
 20
7.880408
 30
0.0
 11
9.814785
 21
8.600408
 31
0.0
  0
LINE
  5
224
330
220
100
AcDbEntity
  8
Dimensions
440
 16777216
370
    -2
100
AcDbLine
 10
7.37573
 20
8.530408
 30
0.0
 11
8.265107
 21
8.530408
 31
0.0
  0
LINE
  5
225
330
220
100
AcDbEntity
  8
Dimensions
440
 16777216
370
    -2
100
AcDbLine
 10
9.694785
 20
8.530408
 30
0.0
 11
8.805407
 21
8.530408
 31
0.0
  0
SOLID
  5
226
330
220
100
AcDbEntity
  8
Dimensions
440
 16777216
100
AcDbTrace
 10
7.37573
 20
8.550408
 30
0.0
 11
7.37573
 21
8.510408
 31
0.0
 12
7.25573
 22
8.530408
 32
0.0
 13
7.25573
 23
8.530408
 33
0.0
  0
SOLID
  5
227
330
220
100
AcDbEntity
  8
Dimensions
440
 16777216
100
AcDbTrace
 10
9.694785
 20
8.550408
 30
0.0
 11
9.694785
 21
8.510408
 31
0.0
 12
9.814785
 22
8.530408
 32
0.0
 13
9.814785
 23
8.530408
 33
0.0
  0
MTEXT
  5
228
330
220
100
AcDbEntity
  8
Dimensions
440
 16777216
100
AcDbMText
 10
8.535257
 20
8.530408
 30
0.0
 40
0.12
 41
0.0
 46
0.0
 71
     5
 72
     1
  1
\A1;2.56in
 73
     1
 44
1.0
  0
POINT
  5
229
330
220
100
AcDbEntity
  8
Defpoints
 62
     0
440
 16777216
100
AcDbPoint
 10
7.25573
 20
7.810408
 30
0.0
  0
POINT
  5
22A
330
220
100
AcDbEntity
  8
Defpoints
 62
     0
440
 16777216
100
AcDbPoint
 10
9.814785
 20
7.810408
 30
0.0
  0
POINT
  5
22B
330
220
100
AcDbEntity
  8
Defpoints
 62
     0
440
 16777216
100
AcDbPoint
 10
9.814785
 20
8.530408
 30
0.0
  0
ENDBLK
  5
22C
330
220
100
AcDbEntity
  8
0
100
AcDbBlockEnd
  0
BLOCK
  5
22F
330
22E
100
AcDbEntity
  8
0
100
AcDbBlockBegin
  2
*D11
 70
     1
 10
0.0
 20
0.0
 30
0.0
  3
*D11
  1

  0
LINE
  5
3FE
330
22E
100
AcDbEntity
  8
Dimensions
440
 16777216
370
    -2
100
AcDbLine
 10
5.060434
 20
7.880408
 30
0.0
 11
5.060434
 21
8.55923
 31
0.0
  0
LINE
  5
3FF
330
22E
100
AcDbEntity
  8
Dimensions
440
 16777216
370
    -2
100
AcDbLine
 10
2.798909
 20
6.213122
 30
0.0
 11
2.798909
 21
8.55923
 31
0.0
  0
LINE
  5
400
330
22E
100
AcDbEntity
  8
Dimensions
440
 16777216
370
    -2
100
AcDbLine
 10
4.940434
 20
8.48923
 30
0.0
 11
4.199821
 21
8.48923
 31
0.0
  0
LINE
  5
401
330
22E
100
AcDbEntity
  8
Dimensions
440
 16777216
370
    -2
100
AcDbLine
 10
2.918909
 20
8.48923
 30
0.0
 11
3.659521
 21
8.48923
 31
0.0
  0
SOLID
  5
402
330
22E
100
AcDbEntity
  8
Dimensions
440
 16777216
100
AcDbTrace
 10
4.940434
 20
8.50923
 30
0.0
 11
4.940434
 21
8.46923
 31
0.0
 12
5.060434
 22
8.48923
 32
0.0
 13
5.060434
 23
8.48923
 33
0.0
  0
SOLID
  5
403
330
22E
100
AcDbEntity
  8
Dimensions
440
 16777216
100
AcDbTrace
 10
2.918909
 20
8.50923
 30
0.0
 11
2.918909
 21
8.46923
 31
0.0
 12
2.798909
 22
8.48923
 32
0.0
 13
2.798909
 23
8.48923
 33
0.0
  0
MTEXT
  5
404
330
22E
100
AcDbEntity
  8
Dimensions
440
 16777216
100
AcDbMText
 10
3.929671
 20
8.48923
 30
0.0
 40
0.12
 41
0.0
 46
0.0
 71
     5
 72
     1
  1
\A1;2.26in
 73
     1
 44
1.0
  0
POINT
  5
405
330
22E
100
AcDbEntity
  8
Defpoints
 62
     0
440
 16777216
100
AcDbPoint
 10
5.060434
 20
7.810408
 30
0.0
  0
POINT
  5
406
330
22E
100
AcDbEntity
  8
Defpoints
 62
     0
440
 16777216
100
AcDbPoint
 10
2.798909
 20
6.143122
 30
0.0
  0
POINT
  5
407
330
22E
100
AcDbEntity
  8
Defpoints
 62
     0
440
 16777216
100
AcDbPoint
 10
2.798909
 20
8.48923
 30
0.0
  0
ENDBLK
  5
230
330
22E
100
AcDbEntity
  8
0
100
AcDbBlockEnd
  0
BLOCK
  5
23C
330
23B
100
AcDbEntity
  8
0
100
AcDbBlockBegin
  2
*D12
 70
     1
 10
0.0
 20
0.0
 30
0.0
  3
*D12
  1

  0
LINE
  5
408
330
23B
100
AcDbEntity
  8
Dimensions
440
 16777216
370
    -2
100
AcDbLine
 10
7.341831
 20
3.757698
 30
0.0
 11
7.461831
 21
3.757698
 31
0.0
  0
LINE
  5
409
330
23B
100
AcDbEntity
  8
Dimensions
440
 16777216
370
    -2
100
AcDbLine
 10
7.461831
 20
3.757698
 30
0.0
 11
7.873921
 21
4.312036
 31
0.0
  0
MTEXT
  5
40A
330
23B
100
AcDbEntity
  8
Dimensions
440
 16777216
100
AcDbMText
 10
7.007424
 20
3.757698
 30
0.0
 40
0.12
 41
0.0
 46
0.0
 71
     5
 72
     1
  1
\A1;∅1.97in
 73
     1
 44
1.0
  0
SOLID
  5
40B
330
23B
100
AcDbEntity
  8
Dimensions
440
 16777216
100
AcDbTrace
 10
7.857871
 20
4.323968
 30
0.0
 11
7.889972
 21
4.300104
 31
0.0
 12
7.945513
 22
4.40834
 32
0.0
 13
7.945513
 23
4.40834
 33
0.0
  0
POINT
  5
40C
330
23B
100
AcDbEntity
  8
Defpoints
 62
     0
440
 16777216
100
AcDbPoint
 10
7.945513
 20
4.40834
 30
0.0
  0
POINT
  5
40D
330
23B
100
AcDbEntity
  8
Defpoints
 62
     0
440
 16777216
100
AcDbPoint
 10
9.119924
 20
5.98814
 30
0.0
  0
ENDBLK
  5
23D
330
23B
100
AcDbEntity
  8
0
100
AcDbBlockEnd
  0
BLOCK
  5
245
330
244
100
AcDbEntity
  8
0
100
AcDbBlockBegin
  2
*D13
 70
     1
 10
0.0
 20
0.0
 30
0.0
  3
*D13
  1

  0
LINE
  5
40E
330
244
100
AcDbEntity
  8
Dimensions
440
 16777216
370
    -2
100
AcDbLine
 10
7.24311
 20
4.448377
 30
0.0
 11
7.36311
 21
4.448377
 31
0.0
  0
LINE
  5
40F
330
244
100
AcDbEntity
  8
Dimensions
440
 16777216
370
    -2
100
AcDbLine
 10
7.36311
 20
4.448377
 30
0.0
 11
8.017406
 21
4.867861
 31
0.0
  0
MTEXT
  5
410
330
244
100
AcDbEntity
  8
Dimensions
440
 16777216
100
AcDbMText
 10
6.95532
 20
4.448377
 30
0.0
 40
0.12
 41
0.0
 46
0.0
 71
     5
 72
     1
  1
\A1;∅.98in
 73
     1
 44
1.0
  0
SOLID
  5
411
330
244
100
AcDbEntity
  8
Dimensions
440
 16777216
100
AcDbTrace
 10
8.006611
 20
4.884698
 30
0.0
 11
8.0282
 21
4.851024
 31
0.0
 12
8.118427
 22
4.932628
 32
0.0
 13
8.118427
 23
4.932628
 33
0.0
  0
POINT
  5
412
330
244
100
AcDbEntity
  8
Defpoints
 62
     0
440
 16777216
100
AcDbPoint
 10
8.118427
 20
4.932628
 30
0.0
  0
POINT
  5
413
330
244
100
AcDbEntity
  8
Defpoints
 62
     0
440
 16777216
100
AcDbPoint
 10
8.947011
 20
5.463853
 30
0.0
  0
ENDBLK
  5
246
330
244
100
AcDbEntity
  8
0
100
AcDbBlockEnd
  0
BLOCK
  5
24E
330
24D
100
AcDbEntity
  8
0
100
AcDbBlockBegin
  2
*D14
 70
     1
 10
0.0
 20
0.0
 30
0.0
  3
*D14
  1

  0
LINE
  5
414
330
24D
100
AcDbEntity
  8
Dimensions
440
 16777216
370
    -2
100
AcDbLine
 10
8.259667
 20
3.862228
 30
0.0
 11
8.259667
 21
2.976687
 31
0.0
  0
LINE
  5
415
330
24D
100
AcDbEntity
  8
Dimensions
440
 16777216
370
    -2
100
AcDbLine
 10
8.810848
 20
3.862228
 30
0.0
 11
8.810848
 21
2.976687
 31
0.0
  0
LINE
  5
416
330
24D
100
AcDbEntity
  8
Dimensions
440
 16777216
370
    -2
100
AcDbLine
 10
8.139667
 20
3.046687
 30
0.0
 11
8.019667
 21
3.046687
 31
0.0
  0
LINE
  5
417
330
24D
100
AcDbEntity
  8
Dimensions
440
 16777216
370
    -2
100
AcDbLine
 10
8.930848
 20
3.046687
 30
0.0
 11
9.050848
 21
3.046687
 31
0.0
  0
SOLID
  5
418
330
24D
100
AcDbEntity
  8
Dimensions
440
 16777216
100
AcDbTrace
 10
8.139667
 20
3.066687
 30
0.0
 11
8.139667
 21
3.026687
 31
0.0
 12
8.259667
 22
3.046687
 32
0.0
 13
8.259667
 23
3.046687
 33
0.0
  0
SOLID
  5
419
330
24D
100
AcDbEntity
  8
Dimensions
440
 16777216
100
AcDbTrace
 10
8.930848
 20
3.066687
 30
0.0
 11
8.930848
 21
3.026687
 31
0.0
 12
8.810848
 22
3.046687
 32
0.0
 13
8.810848
 23
3.046687
 33
0.0
  0
MTEXT
  5
41A
330
24D
100
AcDbEntity
  8
Dimensions
440
 16777216
100
AcDbMText
 10
8.535257
 20
3.046687
 30
0.0
 40
0.12
 41
0.0
 46
0.0
 71
     5
 72
     1
  1
\A1;.55in
 73
     1
 44
1.0
  0
POINT
  5
41B
330
24D
100
AcDbEntity
  8
Defpoints
 62
     0
440
 16777216
100
AcDbPoint
 10
8.259667
 20
3.932228
 30
0.0
  0
POINT
  5
41C
330
24D
100
AcDbEntity
  8
Defpoints
 62
     0
440
 16777216
100
AcDbPoint
 10
8.810848
 20
3.932228
 30
0.0
  0
POINT
  5
41D
330
24D
100
AcDbEntity
  8
Defpoints
 62
     0
440
 16777216
100
AcDbPoint
 10
8.810848
 20
3.046687
 30
0.0
  0
ENDBLK
  5
24F
330
24D
100
AcDbEntity
  8
0
100
AcDbBlockEnd
  0
BLOCK
  5
25B
330
25A
100
AcDbEntity
  8
0
100
AcDbBlockBegin
  2
*D15
 70
     1
 10
0.0
 20
0.0
 30
0.0
  3
*D15
  1

  0
LINE
  5
41E
330
25A
100
AcDbEntity
  8
Dimensions
440
 16777216
370
    -2
100
AcDbLine
 10
7.25573
 20
7.880408
 30
0.0
 11
7.25573
 21
8.600408
 31
0.0
  0
LINE
  5
41F
330
25A
100
AcDbEntity
  8
Dimensions
440
 16777216
370
    -2
100
AcDbLine
 10
9.814785
 20
7.880408
 30
0.0
 11
9.814785
 21
8.600408
 31
0.0
  0
LINE
  5
420
330
25A
100
AcDbEntity
  8
Dimensions
440
 16777216
370
    -2
100
AcDbLine
 10
7.37573
 20
8.530408
 30
0.0
 11
8.265107
 21
8.530408
 31
0.0
  0
LINE
  5
421
330
25A
100
AcDbEntity
  8
Dimensions
440
 16777216
370
    -2
100
AcDbLine
 10
9.694785
 20
8.530408
 30
0.0
 11
8.805407
 21
8.530408
 31
0.0
  0
SOLID
  5
422
330
25A
100
AcDbEntity
  8
Dimensions
440
 16777216
100
AcDbTrace
 10
7.37573
 20
8.550408
 30
0.0
 11
7.37573
 21
8.510408
 31
0.0
 12
7.25573
 22
8.530408
 32
0.0
 13
7.25573
 23
8.530408
 33
0.0
  0
SOLID
  5
423
330
25A
100
AcDbEntity
  8
Dimensions
440
 16777216
100
AcDbTrace
 10
9.694785
 20
8.550408
 30
0.0
 11
9.694785
 21
8.510408
 31
0.0
 12
9.814785
 22
8.530408
 32
0.0
 13
9.814785
 23
8.530408
 33
0.0
  0
MTEXT
  5
424
330
25A
100
AcDbEntity
  8
Dimensions
440
 16777216
100
AcDbMText
 10
8.535257
 20
8.530408
 30
0.0
 40
0.12
 41
0.0
 46
0.0
 71
     5
 72
     1
  1
\A1;2.56in
 73
     1
 44
1.0
  0
POINT
  5
425
330
25A
100
AcDbEntity
  8
Defpoints
 62
     0
440
 16777216
100
AcDbPoint
 10
7.25573
 20
7.810408
 30
0.0
  0
POINT
  5
426
330
25A
100
AcDbEntity
  8
Defpoints
 62
     0
440
 16777216
100
AcDbPoint
 10
9.814785
 20
7.810408
 30
0.0
  0
POINT
  5
427
330
25A
100
AcDbEntity
  8
Defpoints
 62
     0
440
 16777216
100
AcDbPoint
 10
9.814785
 20
8.530408
 30
0.0
  0
ENDBLK
  5
25C
330
25A
100
AcDbEntity
  8
0
100
AcDbBlockEnd
  0
ENDSEC
  0
SECTION
  2
ENTITIES
  0
INSERT
  5
1A8
330
70
100
AcDbEntity
  8
Titleblock
100
AcDbBlockReference
 66
     1
  2
Shower
 10
16.38
 20
0.38
 30
0.0
  0
ATTRIB
  5
1C8
330
1A8
100
AcDbEntity
  8
Titleblock
  6
Continuous
370
    25
100
AcDbText
 10
12.6925
 20
2.6925
 30
0.0
 40
0.12
  1
Railing Products and Mock Ups
100
AcDbAttribute
280
     0
  2
PROJECT
 70
     0
280
     1
1001
FD_ATT_APPNAME
1005
1B6
  0
ATTRIB
  5
1C9
330
1A8
100
AcDbEntity
  8
Titleblock
  6
Continuous
370
    25
100
AcDbText
 10
14.6925
 20
1.0675
 30
0.0
 40
0.12
  1
9/9/2021
100
AcDbAttribute
280
     0
  2
DRAWN_DATE
 70
     0
280
     1
1001
FD_ATT_APPNAME
1005
1B8
  0
ATTRIB
  5
1CA
330
1A8
100
AcDbEntity
  8
Titleblock
  6
Continuous
370
    25
100
AcDbText
 10
12.0675
 20
2.1925
 30
0.0
 40
0.3048
  1
R13-0156-038-12
100
AcDbAttribute
280
     0
  2
TITLE_1
 70
     0
280
     1
1001
FD_ATT_APPNAME
1005
1B9
  0
ATTRIB
  5
1CB
330
1A8
100
AcDbEntity
  8
Titleblock
  6
Continuous
370
    25
100
AcDbText
 10
14.6925
 20
1.29994
 30
0.0
 40
0.12
  1
1:1
100
AcDbAttribute
280
     0
  2
SCALE
 70
     0
280
     1
1001
FD_ATT_APPNAME
1005
1BA
  0
SEQEND
  5
1CC
330
1A8
100
AcDbEntity
  8
Titleblock
  0
INSERT
  5
1CD
330
70
100
AcDbEntity
  8
Border
100
AcDbBlockReference
  2
ANSI_B_SHEET
 10
0.0
 20
0.0
 30
0.0
  0
DIMENSION
  5
1EE
330
70
100
AcDbEntity
  8
Dimensions
100
AcDbDimension
280
     0
  2
*D11
 10
2.798909
 20
8.48923
 30
0.0
 11
3.929671
 21
8.48923
 31
0.0
 70
    32
 71
     5
 42
2.261525
 73
     0
 74
     0
 75
     0
  3
Standard
100
AcDbAlignedDimension
 13
5.060434
 23
7.810408
 33
0.0
 14
2.798909
 24
6.143122
 34
0.0
100
AcDbRotatedDimension
1001
ACAD_DIMASSOC_CALC_DIMLFAC
1040
-1.0
1001
ACAD_DIMASSOC_DIMLFAC
1040
-1.0
1001
ACAD_DIMASSOC_OVERRIDDEN_DIMLFAC
1040
0.0
1001
ACAD_TC
1000
DSTYLE_TC
1002
{
1070
   177
1004
18000000020000008C8C8CC2000000000000000000000000
1070
   176
1004
18000000020000008C8C8CC2000000000000000000000000
1002
}
1001
ACAD_DSTYLE_DIMJAG_POSITION
1070
   387
1070
     0
1070
   389
1010
0.0
1020
0.0
1030
0.0
1001
ACAD
1000
DSTYLE
1002
{
1070
   177
1070
   256
1070
   176
1070
   256
1070
   144
1040
1.0
1002
}
  0
DIMENSION
  5
1FD
330
70
100
AcDbEntity
  8
Dimensions
100
AcDbDimension
280
     0
  2
*D12
 10
9.119924
 20
5.98814
 30
0.0
 11
7.007424
 21
3.757698
 31
0.0
 70
   163
 71
     5
 42
1.968504
 73
     0
 74
     0
 75
     0
  3
Standard
100
AcDbDiametricDimension
 15
7.945513
 25
4.40834
 35
0.0
 40
0.0
1001
ACAD_DIMASSOC_CALC_DIMLFAC
1040
-1.0
1001
ACAD_DIMASSOC_DIMLFAC
1040
-1.0
1001
ACAD_DIMASSOC_OVERRIDDEN_DIMLFAC
1040
0.0
1001
ACAD_TC
1000
DSTYLE_TC
1002
{
1070
   176
1004
18000000020000008C8C8CC2000000000000000000000000
1070
   177
1004
18000000020000008C8C8CC2000000000000000000000000
1002
}
1001
ACAD_DSTYLE_DIMJAG_POSITION
1070
   387
1070
     0
1070
   389
1010
0.0
1020
0.0
1030
0.0
1001
ACAD_DSTYLE_DIMRADIAL_EXTENSION
1070
   387
1070
     1
1070
   388
1040
0.0
1070
   390
1040
0.0
1001
ACAD
1000
DSTYLE
1002
{
1070
   144
1040
1.0
1070
   176
1070
   256
1070
   177
1070
   256
1002
}
  0
DIMENSION
  5
207
330
70
100
AcDbEntity
  8
Dimensions
100
AcDbDimension
280
     0
  2
*D13
 10
8.947011
 20
5.463853
 30
0.0
 11
6.95532
 21
4.448377
 31
0.0
 70
   163
 71
     5
 42
0.984252
 73
     0
 74
     0
 75
     0
  3
Standard
100
AcDbDiametricDimension
 15
8.118427
 25
4.932628
 35
0.0
 40
0.0
1001
ACAD_DIMASSOC_CALC_DIMLFAC
1040
-1.0
1001
ACAD_DIMASSOC_DIMLFAC
1040
-1.0
1001
ACAD_DIMASSOC_OVERRIDDEN_DIMLFAC
1040
0.0
1001
ACAD_TC
1000
DSTYLE_TC
1002
{
1070
   176
1004
18000000020000008C8C8CC2000000000000000000000000
1070
   177
1004
18000000020000008C8C8CC2000000000000000000000000
1002
}
1001
ACAD_DSTYLE_DIMJAG_POSITION
1070
   387
1070
     0
1070
   389
1010
0.0
1020
0.0
1030
0.0
1001
ACAD_DSTYLE_DIMRADIAL_EXTENSION
1070
   387
1070
     1
1070
   388
1040
0.0
1070
   390
1040
0.0
1001
ACAD
1000
DSTYLE
1002
{
1070
   144
1040
1.0
1070
   176
1070
   256
1070
   177
1070
   256
1002
}
  0
DIMENSION
  5
211
330
70
100
AcDbEntity
  8
Dimensions
100
AcDbDimension
280
     0
  2
*D14
 10
8.810848
 20
3.046687
 30
0.0
 11
8.535257
 21
3.046687
 31
0.0
 70
    32
 71
     5
 42
0.551181
 73
     0
 74
     0
 75
     0
  3
Standard
100
AcDbAlignedDimension
 13
8.259667
 23
3.932228
 33
0.0
 14
8.810848
 24
3.932228
 34
0.0
 50
180.0
100
AcDbRotatedDimension
1001
ACAD_DIMASSOC_CALC_DIMLFAC
1040
-1.0
1001
ACAD_DIMASSOC_DIMLFAC
1040
-1.0
1001
ACAD_DIMASSOC_OVERRIDDEN_DIMLFAC
1040
0.0
1001
ACAD_TC
1000
DSTYLE_TC
1002
{
1070
   176
1004
18000000020000008C8C8CC2000000000000000000000000
1070
   177
1004
18000000020000008C8C8CC2000000000000000000000000
1002
}
1001
ACAD_DSTYLE_DIMJAG_POSITION
1070
   387
1070
     0
1070
   389
1010
0.0
1020
0.0
1030
0.0
1001
ACAD
1000
DSTYLE
1002
{
1070
   144
1040
1.0
1070
   176
1070
   256
1070
   177
1070
   256
1002
}
  0
DIMENSION
  5
21F
330
70
100
AcDbEntity
  8
Dimensions
100
AcDbDimension
280
     0
  2
*D15
 10
9.814785
 20
8.530408
 30
0.0
 11
8.535257
 21
8.530408
 31
0.0
 70
    33
 71
     5
 42
2.559055
 73
     0
 74
     0
 75
     0
  3
Standard
100
AcDbAlignedDimension
 13
7.25573
 23
7.810408
 33
0.0
 14
9.814785
 24
7.810408
 34
0.0
1001
ACAD_DIMASSOC_CALC_DIMLFAC
1040
-1.0
1001
ACAD_DIMASSOC_DIMLFAC
1040
-1.0
1001
ACAD_DIMASSOC_OVERRIDDEN_DIMLFAC
1040
0.0
1001
ACAD_TC
1000
DSTYLE_TC
1002
{
1070
   176
1004
18000000020000008C8C8CC2000000000000000000000000
1070
   177
1004
18000000020000008C8C8CC2000000000000000000000000
1002
}
1001
ACAD_DSTYLE_DIMJAG_POSITION
1070
   387
1070
     0
1070
   389
1010
0.0
1020
0.0
1030
0.0
1001
ACAD
1000
DSTYLE
1002
{
1070
   144
1040
1.0
1070
   176
1070
   256
1070
   177
1070
   256
1002
}
  0
CIRCLE
  5
2E6
330
70
100
AcDbEntity
  8
Visible
100
AcDbCircle
 10
8.532719
 20
5.19824
 30
1.695992
 40
0.4921259842519686
  0
ARC
  5
2E7
330
70
100
AcDbEntity
  8
Visible
100
AcDbCircle
 10
8.532719
 20
5.19824
 30
-0.671989
 40
0.9842519685039372
100
AcDbArc
 50
286.414183
 51
73.585817
  0
ARC
  5
2E8
330
70
100
AcDbEntity
  8
Visible
100
AcDbCircle
 10
8.532719
 20
5.19824
 30
-0.671989
 40
0.9842519685039372
100
AcDbArc
 50
106.106347
 51
253.893653
  0
SPLINE
  5
2E9
330
70
100
AcDbEntity
  8
Visible
100
AcDbSpline
 70
     3
 71
     3
 72
    46
 73
    42
 74
     0
 42
0.000000001
 43
0.0000000001
 40
0.0
 40
0.0
 40
0.0
 40
0.0
 40
0.1176160583361983
 40
0.1176160583361983
 40
0.2352321166723966
 40
0.2352321166723966
 40
0.4704642333447932
 40
0.4704642333447932
 40
0.6974993473189302
 40
0.6974993473189302
 40
0.9245344612930672
 40
0.9245344612930672
 40
1.151569575267204
 40
1.151569575267204
 40
1.378604689241342
 40
1.378604689241342
 40
1.613836805913738
 40
1.613836805913738
 40
1.731452864249937
 40
1.731452864249937
 40
1.849068922586135
 40
1.849068922586135
 40
1.966684980922334
 40
1.966684980922334
 40
2.084301039258532
 40
2.084301039258532
 40
2.31953315593093
 40
2.31953315593093
 40
2.546568269905066
 40
2.546568269905066
 40
2.773603383879203
 40
2.773603383879203
 40
3.000638497853339
 40
3.000638497853339
 40
3.227673611827476
 40
3.227673611827476
 40
3.462905728499873
 40
3.462905728499873
 40
3.580521786836072
 40
3.580521786836072
 40
3.698137845172271
 40
3.698137845172271
 40
3.698137845172271
 40
3.698137845172271
 10
8.310847627772091
 20
7.312391353593767
 30
1.466157827693677
 10
8.310847627772091
 20
7.327826531853111
 30
1.466157827693677
 10
8.312445300955005
 20
7.343061404300803
 30
1.468454063193348
 10
8.318529506692357
 20
7.372515391921557
 30
1.476495112588963
 10
8.323015172274608
 20
7.386746735439654
 30
1.482195725204292
 10
8.340269516160333
 20
7.427293240164799
 30
1.5017165942063
 10
8.357035690880366
 20
7.451532853927353
 30
1.517749309015925
 10
8.395434678746823
 20
7.489931841792718
 30
1.544791435089791
 10
8.419680415661787
 20
7.507057900018885
 30
1.558048347325893
 10
8.474663237344429
 20
7.530523011796488
 30
1.576595037486185
 10
8.505462442211864
 20
7.536800802412665
 30
1.581777909159427
 10
8.565051710971602
 20
7.536800802412665
 30
1.581777909159427
 10
8.595850915839037
 20
7.530523011796488
 30
1.576595037486185
 10
8.650833737521679
 20
7.507057900018885
 30
1.558048347325893
 10
8.675079474436643
 20
7.489931841792718
 30
1.544791435089791
 10
8.7134784623031
 20
7.451532853927353
 30
1.517749309015925
 10
8.730244637023133
 20
7.427293240164799
 30
1.5017165942063
 10
8.747498980908858
 20
7.386746735439654
 30
1.482195725204292
 10
8.751984646491109
 20
7.372515391921557
 30
1.476495112588963
 10
8.758068852228461
 20
7.343061404300803
 30
1.468454063193348
 10
8.759666525411375
 20
7.327826531853111
 30
1.466157827693677
 10
8.759666525411375
 20
7.296956175334424
 30
1.466157827693677
 10
8.758068852228461
 20
7.281721302886731
 30
1.468454063193348
 10
8.751984646491109
 20
7.252267315265976
 30
1.476495112588963
 10
8.747498980908858
 20
7.238035971747878
 30
1.482195725204292
 10
8.730244637023133
 20
7.197489467022734
 30
1.5017165942063
 10
8.7134784623031
 20
7.173249853260182
 30
1.517749309015925
 10
8.675079474436643
 20
7.134850865394816
 30
1.544791435089791
 10
8.650833737521679
 20
7.11772480716865
 30
1.558048347325893
 10
8.595850915839037
 20
7.094259695391047
 30
1.576595037486185
 10
8.565051710971602
 20
7.08798190477487
 30
1.581777909159427
 10
8.505462442211864
 20
7.08798190477487
 30
1.581777909159427
 10
8.474663237344429
 20
7.094259695391047
 30
1.576595037486185
 10
8.419680415661787
 20
7.117724807168649
 30
1.558048347325893
 10
8.395434678746823
 20
7.134850865394816
 30
1.544791435089791
 10
8.357035690880366
 20
7.173249853260181
 30
1.517749309015925
 10
8.340269516160333
 20
7.197489467022734
 30
1.5017165942063
 10
8.323015172274608
 20
7.238035971747879
 30
1.482195725204292
 10
8.318529506692357
 20
7.252267315265977
 30
1.476495112588963
 10
8.312445300955005
 20
7.281721302886731
 30
1.468454063193348
 10
8.310847627772091
 20
7.296956175334424
 30
1.466157827693677
 10
8.310847627772091
 20
7.312391353593767
 30
1.466157827693677
1001
ACAD_VIEW_EDGE_ID
1071
        2
1071
       -1
1071
        7
1071
        0
  0
LINE
  5
2EA
330
70
100
AcDbEntity
  8
Visible
100
AcDbLine
 10
8.79936
 20
7.11884
 30
1.384928
 11
8.79936
 21
7.484002
 31
1.384928
210
0.0
220
1.0
230
0.0
  0
LINE
  5
2EB
330
70
100
AcDbEntity
  8
Visible
100
AcDbLine
 10
8.271155
 20
7.484002
 30
1.384928
 11
8.271155
 21
7.11884
 31
1.384928
210
0.0
220
1.0
230
0.0
  0
SPLINE
  5
2EC
330
70
100
AcDbEntity
  8
Visible
100
AcDbSpline
 70
     0
 71
     3
 72
     8
 73
     4
 74
     0
 42
0.000000001
 43
0.0000000001
 40
0.0
 40
0.0
 40
0.0
 40
0.0
 40
0.2012950771902999
 40
0.2012950771902999
 40
0.2012950771902999
 40
0.2012950771902999
 10
8.810847627772091
 20
7.12965795089523
 30
1.30618735797725
 10
8.810847627772091
 20
7.12965795089523
 30
1.332604034774703
 10
8.806954550196678
 20
7.125710128763453
 30
1.359453256669439
 10
8.799359593618646
 20
7.118840232054568
 30
1.384927515458912
1001
ACAD_VIEW_EDGE_ID
1071
       10
1071
       -1
1071
        7
1071
        0
  0
SPLINE
  5
2ED
330
70
100
AcDbEntity
  8
Visible
100
AcDbSpline
 70
     0
 71
     3
 72
     8
 73
     4
 74
     0
 42
0.000000001
 43
0.0000000001
 40
2.008562787254438
 40
2.008562787254438
 40
2.008562787254438
 40
2.008562787254438
 40
2.209857864444705
 40
2.209857864444705
 40
2.209857864444705
 40
2.209857864444705
 10
8.27115455956482
 20
7.118840232054592
 30
1.384927515458912
 10
8.263559602986788
 20
7.125710128763476
 30
1.359453256669439
 10
8.259666525411375
 20
7.12965795089523
 30
1.332604034774703
 10
8.259666525411375
 20
7.12965795089523
 30
1.30618735797725
1001
ACAD_VIEW_EDGE_ID
1071
       14
1071
       -1
1071
        7
1071
        0
  0
SPLINE
  5
2EE
330
70
100
AcDbEntity
  8
Visible
100
AcDbSpline
 70
     0
 71
     3
 72
    14
 73
    10
 74
     0
 42
0.000000001
 43
0.0000000001
 40
-1.161707484134181
 40
-1.161707484134181
 40
-1.161707484134181
 40
-1.161707484134181
 40
-0.8798978209865015
 40
-0.8798978209865015
 40
-0.5980881578388218
 40
-0.5980881578388218
 40
-0.2990440789194109
 40
-0.2990440789194109
 40
-0.2126327301455481
 40
-0.2126327301455481
 40
-0.2126327301455481
 40
-0.2126327301455481
 10
8.535257076591733
 20
7.627351983515026
 30
1.581777909159427
 10
8.49827418116547
 20
7.627351983515026
 30
1.581777909159427
 10
8.460259605892133
 20
7.620397986502166
 30
1.573907167019569
 10
8.392777876280888
 20
7.595573938422259
 30
1.544930287118404
 10
8.363232134319332
 20
7.577821884127339
 30
1.523906310847451
 10
8.316140887076471
 20
7.540734629369691
 30
1.476815063606409
 10
8.295724400775725
 20
7.518259130318192
 30
1.447081181422618
 10
8.277671826846926
 20
7.493765469932238
 30
1.404709375003221
 10
8.274141222900652
 20
7.488597926113456
 30
1.394945088833992
 10
8.271154559561182
 20
7.484001548216954
 30
1.384927515453455
1001
ACAD_VIEW_EDGE_ID
1071
       20
1071
       -1
1071
        7
1071
        0
  0
SPLINE
  5
2EF
330
70
100
AcDbEntity
  8
Visible
100
AcDbSpline
 70
     0
 71
     3
 72
    14
 73
    10
 74
     0
 42
0.000000001
 43
0.0000000001
 40
2.53604769841391
 40
2.53604769841391
 40
2.53604769841391
 40
2.53604769841391
 40
2.622459047187773
 40
2.622459047187773
 40
2.921503126107184
 40
2.921503126107184
 40
3.203312789254864
 40
3.203312789254864
 40
3.485122452402544
 40
3.485122452402544
 40
3.485122452402544
 40
3.485122452402544
 10
8.799359593622284
 20
7.484001548216954
 30
1.384927515453455
 10
8.796372930282814
 20
7.488597926113456
 30
1.394945088833992
 10
8.79284232633654
 20
7.493765469932237
 30
1.404709375003221
 10
8.774789752407741
 20
7.518259130318192
 30
1.447081181422618
 10
8.754373266106995
 20
7.540734629369691
 30
1.476815063606409
 10
8.707282018864134
 20
7.577821884127339
 30
1.523906310847451
 10
8.677736276902578
 20
7.595573938422259
 30
1.544930287118404
 10
8.610254547289514
 20
7.620397986502166
 30
1.573907167019569
 10
8.572239972017996
 20
7.627351983515026
 30
1.581777909159427
 10
8.535257076591733
 20
7.627351983515026
 30
1.581777909159427
1001
ACAD_VIEW_EDGE_ID
1071
       21
1071
       -1
1071
        7
1071
        0
  0
ARC
  5
2F0
330
70
100
AcDbEntity
  8
Visible
100
AcDbCircle
 10
-8.535257
 20
1.306187
 30
3.932228
 40
0.2755905511811029
210
0.0
220
1.0
230
0.0
100
AcDbArc
 50
0.0
 51
180.0
  0
LINE
  5
2F1
330
70
100
AcDbEntity
  8
Visible
100
AcDbLine
 10
8.259667
 20
3.932228
 30
1.306187
 11
8.259667
 21
4.788813
 31
1.306187
210
0.0
220
1.0
230
0.0
  0
LINE
  5
2F2
330
70
100
AcDbEntity
  8
Visible
100
AcDbLine
 10
8.259667
 20
5.607667
 30
1.306187
 11
8.259667
 21
7.129658
 31
1.306187
210
0.0
220
1.0
230
0.0
  0
LINE
  5
2F3
330
70
100
AcDbEntity
  8
Visible
100
AcDbLine
 10
8.810848
 20
3.932228
 30
1.306187
 11
8.810848
 21
4.792245
 31
1.306187
210
0.0
220
1.0
230
0.0
  0
LINE
  5
2F4
330
70
100
AcDbEntity
  8
Visible
100
AcDbLine
 10
8.810848
 20
5.604236
 30
1.306187
 11
8.810848
 21
7.129658
 31
1.306187
210
0.0
220
1.0
230
0.0
  0
ARC
  5
2F5
330
70
100
AcDbEntity
  8
Visible
100
AcDbCircle
 10
-8.535257
 20
4.33995
 30
-1.306187
 40
0.4921259842519688
210
0.0000000000000001
220
0.0
230
-1.0
100
AcDbArc
 50
235.944202
 51
304.055798
  0
SPLINE
  5
2F6
330
70
100
AcDbEntity
  8
Visible
100
AcDbSpline
210
1.0
220
0.0
230
0.0
 70
    12
 71
     2
 72
     6
 73
     3
 74
     0
 42
0.000000001
 43
0.0000000001
 40
0.1355501852963379
 40
0.1355501852963379
 40
0.1355501852963379
 40
0.453233872459803
 40
0.453233872459803
 40
0.453233872459803
 10
8.615611532775801
 20
7.358965755923329
 30
1.569546897517284
 41
1.232050807568715
 10
8.615611532775801
 20
7.313505104805797
 30
1.546816571957606
 41
1.422649730812052
 10
8.615611532775801
 20
7.268044453688265
 30
1.569546897517284
 41
1.232050807568715
1001
ACAD_VIEW_EDGE_ID
1071
        0
1071
       -1
1071
        8
1071
        0
  0
ARC
  5
2F7
330
70
100
AcDbEntity
  8
Visible
100
AcDbCircle
 10
8.536871
 20
7.313505
 30
1.569547
 40
0.0909213022345871
100
AcDbArc
 50
330.0
 51
30.0
  0
CIRCLE
  5
2F8
330
70
100
AcDbEntity
  8
Visible
100
AcDbCircle
 10
8.536871
 20
7.313505
 30
1.459114
 40
0.2066929133858268
  0
CIRCLE
  5
2F9
330
70
100
AcDbEntity
  8
Visible
100
AcDbCircle
 10
8.536871
 20
7.313505
 30
1.569547
 40
0.1181102362204725
  0
ARC
  5
2FA
330
70
100
AcDbEntity
  8
Visible
100
AcDbCircle
 10
8.536871
 20
7.313505
 30
1.569547
 40
0.0909213022345869
100
AcDbArc
 50
150.0
 51
210.0
  0
ARC
  5
2FB
330
70
100
AcDbEntity
  8
Visible
100
AcDbCircle
 10
8.536871
 20
7.313505
 30
1.569547
 40
0.0909213022345864
100
AcDbArc
 50
90.0
 51
150.0
  0
ARC
  5
2FC
330
70
100
AcDbEntity
  8
Visible
100
AcDbCircle
 10
8.536871
 20
7.313505
 30
1.569547
 40
0.0909213022345868
100
AcDbArc
 50
30.0
 51
90.0
  0
ARC
  5
2FD
330
70
100
AcDbEntity
  8
Visible
100
AcDbCircle
 10
8.536871
 20
7.313505
 30
1.569547
 40
0.0909213022345869
100
AcDbArc
 50
270.0
 51
330.0
  0
ARC
  5
2FE
330
70
100
AcDbEntity
  8
Visible
100
AcDbCircle
 10
8.536871
 20
7.313505
 30
1.569547
 40
0.0909213022345868
100
AcDbArc
 50
210.0
 51
270.0
  0
SPLINE
  5
2FF
330
70
100
AcDbEntity
  8
Visible
100
AcDbSpline
210
0.5000000000042246
220
0.8660254037819996
230
-0.0000000000199554
 70
    12
 71
     2
 72
     6
 73
     3
 74
     0
 42
0.000000001
 43
0.0000000001
 40
-0.45323387245921
 40
-0.45323387245921
 40
-0.45323387245921
 40
-0.1355501852959807
 40
-0.1355501852959807
 40
-0.1355501852959807
 10
8.615611532775801
 20
7.35896575592297
 30
1.569546897517284
 41
1.232050807568012
 10
8.57624145403497
 20
7.381696081481738
 30
1.546816571957606
 41
1.422649730811242
 10
8.536871375295959
 20
7.404426407040503
 30
1.569546897517284
 41
1.232050807568012
1001
ACAD_VIEW_EDGE_ID
1071
       23
1071
       -1
1071
        8
1071
        0
  0
SPLINE
  5
300
330
70
100
AcDbEntity
  8
Visible
100
AcDbSpline
210
-0.4999999999955616
220
0.8660254037870011
230
-0.0000000000000169
 70
    12
 71
     2
 72
     6
 73
     3
 74
     0
 42
0.000000001
 43
0.0000000001
 40
-0.4532338724592102
 40
-0.4532338724592102
 40
-0.4532338724592102
 40
-0.1355501852959811
 40
-0.1355501852959811
 40
-0.1355501852959811
 10
8.536871375295959
 20
7.404426407040504
 30
1.569546897517284
 41
1.232050807568011
 10
8.497501296555128
 20
7.381696081481737
 30
1.546816571957606
 41
1.422649730811238
 10
8.458131217814297
 20
7.358965755922971
 30
1.569546897517284
 41
1.232050807568011
1001
ACAD_VIEW_EDGE_ID
1071
       24
1071
       -1
1071
        8
1071
        0
  0
SPLINE
  5
301
330
70
100
AcDbEntity
  8
Visible
100
AcDbSpline
210
1.0
220
0.0
230
0.0
 70
    12
 71
     2
 72
     6
 73
     3
 74
     0
 42
0.000000001
 43
0.0000000001
 40
-0.4532338724592097
 40
-0.4532338724592097
 40
-0.4532338724592097
 40
-0.1355501852959807
 40
-0.1355501852959807
 40
-0.1355501852959807
 10
8.458131217814297
 20
7.358965755923328
 30
1.569546897517284
 41
1.232050807568013
 10
8.458131217814297
 20
7.313505104805797
 30
1.546816571957606
 41
1.422649730811242
 10
8.458131217814297
 20
7.268044453688266
 30
1.569546897517284
 41
1.232050807568012
1001
ACAD_VIEW_EDGE_ID
1071
       25
1071
       -1
1071
        8
1071
        0
  0
SPLINE
  5
302
330
70
100
AcDbEntity
  8
Visible
100
AcDbSpline
210
0.4999999999955616
220
0.8660254037870011
230
0.0000000000000169
 70
    12
 71
     2
 72
     6
 73
     3
 74
     0
 42
0.000000001
 43
0.0000000001
 40
-0.45323387245921
 40
-0.45323387245921
 40
-0.45323387245921
 40
-0.1355501852959808
 40
-0.1355501852959808
 40
-0.1355501852959808
 10
8.458131217814297
 20
7.268044453688624
 30
1.569546897517284
 41
1.232050807568012
 10
8.497501296555128
 20
7.245314128129858
 30
1.546816571957606
 41
1.422649730811241
 10
8.536871375295959
 20
7.222583802571091
 30
1.569546897517284
 41
1.232050807568012
1001
ACAD_VIEW_EDGE_ID
1071
       26
1071
       -1
1071
        8
1071
        0
  0
SPLINE
  5
303
330
70
100
AcDbEntity
  8
Visible
100
AcDbSpline
210
-0.5000000000042172
220
0.8660254037820036
230
0.0000000000200062
 70
    12
 71
     2
 72
     6
 73
     3
 74
     0
 42
0.000000001
 43
0.0000000001
 40
-0.4532338724592098
 40
-0.4532338724592098
 40
-0.4532338724592098
 40
-0.1355501852959808
 40
-0.1355501852959808
 40
-0.1355501852959808
 10
8.536871375295959
 20
7.222583802571092
 30
1.569546897517284
 41
1.232050807568012
 10
8.57624145403497
 20
7.245314128129858
 30
1.546816571957606
 41
1.422649730811241
 10
8.615611532775801
 20
7.268044453688624
 30
1.569546897517284
 41
1.232050807568012
1001
ACAD_VIEW_EDGE_ID
1071
       27
1071
       -1
1071
        8
1071
        0
  0
SPLINE
  5
304
330
70
100
AcDbEntity
  8
Visible
100
AcDbSpline
 70
     1
 71
     3
 72
    38
 73
    34
 74
     0
 42
0.000000001
 43
0.0000000001
 40
0.0
 40
0.0
 40
0.0
 40
0.0
 40
0.1054838284653477
 40
0.1054838284653477
 40
0.2109676569306954
 40
0.2109676569306954
 40
0.3167758624501248
 40
0.3167758624501248
 40
0.4225840679695543
 40
0.4225840679695543
 40
0.5292062853356539
 40
0.5292062853356539
 40
0.6358285027017536
 40
0.6358285027017536
 40
0.7418578570909686
 40
0.7418578570909686
 40
0.8478872114801838
 40
0.8478872114801838
 40
0.9534983864974076
 40
0.9534983864974076
 40
1.059109561514631
 40
1.059109561514631
 40
1.166149557102843
 40
1.166149557102843
 40
1.273189552691055
 40
1.273189552691055
 40
1.379002637297842
 40
1.379002637297842
 40
1.48481572190463
 40
1.48481572190463
 40
1.590294672585504
 40
1.590294672585504
 40
1.695773623266378
 40
1.695773623266378
 40
1.695773623266378
 40
1.695773623266378
 10
9.545283306773853
 20
7.711986600424835
 30
1.308742459706991
 10
9.531440284665222
 20
7.711986600424835
 30
1.308742459706991
 10
9.516674820139087
 20
7.711981618962502
 30
1.31150938933024
 10
9.489514385515576
 20
7.712116164959523
 30
1.322760587390803
 10
9.477119525774469
 20
7.712273430295521
 30
1.331244903121842
 10
9.457519439522002
 20
7.713014536195993
 30
1.350844989374309
 10
9.449027509323059
 20
7.713652169087267
 30
1.363273644832588
 10
9.437792025091766
 20
7.715737686919354
 30
1.390450557202711
 10
9.435047086300983
 20
7.717203364590937
 30
1.405196873272871
 10
9.435047086300983
 20
7.720605467904869
 30
1.432866514347551
 10
9.437827952238876
 20
7.722773284174199
 30
1.447633646392205
 10
9.449079546626308
 20
7.727388515761849
 30
1.474769330921844
 10
9.457548532978762
 20
7.729819106947383
 30
1.487141464442174
 10
9.477066108391227
 20
7.733933817937546
 30
1.506659039856458
 10
9.489415592108343
 20
7.735895193527918
 30
1.515139510314838
 10
9.516565292775339
 20
7.73858620667462
 30
1.526418812032716
 10
9.531368693336844
 20
7.739295179080524
 30
1.529214900652732
 10
9.559143041027709
 20
7.739295179080524
 30
1.529214900652732
 10
9.573892111260647
 20
7.738591820959806
 30
1.526440614918101
 10
9.600959253992186
 20
7.7359193537398
 30
1.515242487177602
 10
9.613280467674485
 20
7.733970626324042
 30
1.50682138328375
 10
9.632856046511733
 20
7.729862751447072
 30
1.487360615432407
 10
9.641384434331484
 20
7.727423255251447
 30
1.474960014649695
 10
9.652717048349586
 20
7.722789427934213
 30
1.447741987205517
 10
9.655519527244905
 20
7.720612158682276
 30
1.432920931098124
 10
9.655519527244905
 20
7.717203286451662
 30
1.405196237757991
 10
9.652774336995207
 20
7.715737563012273
 30
1.39044928293697
 10
9.641537897921807
 20
7.713652022416413
 30
1.363271393083778
 10
9.633045264450629
 20
7.71301440951732
 30
1.35084239907519
 10
9.613444496775628
 20
7.712273386644431
 30
1.331242990887403
 10
9.601049973469343
 20
7.712116146040032
 30
1.322759377444526
 10
9.57389051429709
 20
7.711981620378081
 30
1.311509135490268
 10
9.559125688752828
 20
7.711986600424835
 30
1.308742459706991
 10
9.545283306773853
 20
7.711986600424835
 30
1.308742459706991
1001
ACAD_VIEW_EDGE_ID
1071
        0
1071
       -1
1071
       10
1071
        0
  0
SPLINE
  5
305
330
70
100
AcDbEntity
  8
Visible
100
AcDbSpline
 70
     0
 71
     3
 72
    10
 73
     6
 74
     0
 42
0.000000001
 43
0.0000000001
 40
0.787629289151899
 40
0.787629289151899
 40
0.787629289151899
 40
0.787629289151899
 40
0.8475837638844783
 40
0.8475837638844783
 40
0.9075382386170545
 40
0.9075382386170545
 40
0.9075382386170545
 40
0.9075382386170545
 10
7.503911188365236
 20
7.711980376618691
 30
1.306044040586129
 10
7.511988237476543
 20
7.711979831313572
 30
1.307848611633744
 10
7.52015425702848
 20
7.711986600424835
 30
1.308742459706991
 10
7.535890339635443
 20
7.711986600424835
 30
1.308742459706991
 10
7.544056359189198
 20
7.711979831313572
 30
1.307848611633744
 10
7.552133408298686
 20
7.711980376618691
 30
1.306044040586129
1001
ACAD_VIEW_EDGE_ID
1071
        2
1071
       -1
1071
       10
1071
        0
  0
ELLIPSE
  5
306
330
70
100
AcDbEntity
  8
Visible
100
AcDbEllipse
 10
8.535257
 20
7.298597
 30
1.306072
 11
-0.0000000000242221
 21
-0.2755905511407422
 31
0.2755905511407422
210
-0.0000000000000002
220
0.7071067811865474
230
0.7071067811865474
 40
0.7071067812881923
 41
-1.57079632675095
 42
-1.281044625272133
1001
ACAD_VIEW_EDGE_ID
1071
        7
1071
       -1
1071
       10
1071
        0
  0
ELLIPSE
  5
307
330
70
100
AcDbEntity
  8
Visible
100
AcDbEllipse
 10
8.535257
 20
7.298597
 30
1.306072
 11
0.0000000000242222
 21
-0.2755905511407422
 31
0.2755905511407422
210
-0.0000000000000002
220
0.7071067811865476
230
0.7071067811865476
 40
0.7071067812881921
 41
1.281044625272133
 42
1.570796326750949
1001
ACAD_VIEW_EDGE_ID
1071
       11
1071
       -1
1071
       10
1071
        0
  0
LINE
  5
308
330
70
100
AcDbEntity
  8
Visible
100
AcDbLine
 10
8.79936
 20
7.504115
 30
1.384812
 11
8.79936
 21
7.484002
 31
1.384812
210
0.0
220
1.0
230
0.0
  0
LINE
  5
309
330
70
100
AcDbEntity
  8
Visible
100
AcDbLine
 10
8.271155
 20
7.484002
 30
1.384812
 11
8.271155
 21
7.504115
 31
1.384812
210
0.0
220
1.0
230
0.0
  0
SPLINE
  5
30A
330
70
100
AcDbEntity
  8
Visible
100
AcDbSpline
 70
     0
 71
     3
 72
    14
 73
    10
 74
     0
 42
0.000000001
 43
0.0000000001
 40
1.1387484406999
 40
1.1387484406999
 40
1.1387484406999
 40
1.1387484406999
 40
1.417990799010673
 40
1.417990799010673
 40
1.697233157321445
 40
1.697233157321445
 40
1.987365019360623
 40
1.987365019360623
 40
2.070208965220916
 40
2.070208965220916
 40
2.070208965220916
 40
2.070208965220916
 10
8.535257076591733
 20
7.633242588772503
 30
1.581662482707542
 10
8.571903055371876
 20
7.633242588772503
 30
1.581662482707542
 10
8.609753736451239
 20
7.62679013022595
 30
1.573929995887738
 10
8.67727007207759
 20
7.603708110303467
 30
1.545090752359101
 10
8.707012507597028
 20
7.587207990506581
 30
1.524060395662672
 10
8.754147006377024
 20
7.553445439954905
 30
1.476925896882676
 10
8.774711884687349
 20
7.533366840727333
 30
1.447174572569565
 10
8.792856319449128
 20
7.512298800489229
 30
1.404553629696238
 10
8.796381057027247
 20
7.507942358834531
 30
1.394802404443908
 10
8.799359593618646
 20
7.504114764144757
 30
1.384812089007027
1001
ACAD_VIEW_EDGE_ID
1071
       20
1071
       -1
1071
       10
1071
        0
  0
SPLINE
  5
30B
330
70
100
AcDbEntity
  8
Visible
100
AcDbSpline
 70
     0
 71
     3
 72
    14
 73
    10
 74
     0
 42
0.000000001
 43
0.0000000001
 40
0.2072879161788841
 40
0.2072879161788841
 40
0.2072879161788841
 40
0.2072879161788841
 40
0.2901318620391773
 40
0.2901318620391773
 40
0.5802637240783547
 40
0.5802637240783547
 40
0.8595060823891273
 40
0.8595060823891273
 40
1.1387484406999
 40
1.1387484406999
 40
1.1387484406999
 40
1.1387484406999
 10
8.27115455956482
 20
7.504114764144757
 30
1.384812089007027
 10
8.274133096156219
 20
7.507942358834531
 30
1.394802404443908
 10
8.277657833734338
 20
7.512298800489229
 30
1.404553629696238
 10
8.295802268496117
 20
7.533366840727333
 30
1.447174572569565
 10
8.316367146806442
 20
7.553445439954905
 30
1.476925896882676
 10
8.363501645586438
 20
7.587207990506581
 30
1.524060395662672
 10
8.393244081105876
 20
7.603708110303467
 30
1.545090752359101
 10
8.460760416732227
 20
7.62679013022595
 30
1.573929995887738
 10
8.49861109781159
 20
7.633242588772503
 30
1.581662482707542
 10
8.535257076591733
 20
7.633242588772503
 30
1.581662482707542
1001
ACAD_VIEW_EDGE_ID
1071
       21
1071
       -1
1071
       10
1071
        0
  0
SPLINE
  5
30C
330
70
100
AcDbEntity
  8
Visible
100
AcDbSpline
 70
     0
 71
     3
 72
    14
 73
    10
 74
     0
 42
0.000000001
 43
0.0000000001
 40
0.0
 40
0.0
 40
0.0
 40
0.0
 40
0.2654666869753293
 40
0.2654666869753293
 40
0.5309333739506586
 40
0.5309333739506586
 40
0.7963232942024937
 40
0.7963232942024937
 40
1.061713214454328
 40
1.061713214454328
 40
1.061713214454329
 40
1.061713214454329
 10
8.535257076591733
 20
7.753981396875866
 30
1.581662482707542
 10
8.570095224487886
 20
7.753981396875866
 30
1.581662482707542
 10
8.607099303098948
 20
7.751704357455519
 30
1.574656582641182
 10
8.674929535183764
 20
7.743639742499273
 30
1.54646875904109
 10
8.705775753151101
 20
7.737985440606932
 30
1.525297150108599
 10
8.754475252781048
 20
7.727492591676409
 30
1.476597650478652
 10
8.775652316877312
 20
7.721949860483094
 30
1.445748567532064
 10
8.803844165866394
 20
7.714144049419681
 30
1.377907932956077
 10
8.810847627772091
 20
7.711982746252818
 30
1.340900005050571
 10
8.810847627772091
 20
7.711982746252818
 30
1.306071931525366
1001
ACAD_VIEW_EDGE_ID
1071
       22
1071
       -1
1071
       10
1071
        0
  0
SPLINE
  5
30D
330
70
100
AcDbEntity
  8
Visible
100
AcDbSpline
 70
     0
 71
     3
 72
    14
 73
    10
 74
     0
 42
0.000000001
 43
0.0000000001
 40
3.185139643362986
 40
3.185139643362986
 40
3.185139643379668
 40
3.185139643379668
 40
3.450529563614821
 40
3.450529563614821
 40
3.715919483866656
 40
3.715919483866656
 40
3.981386170841986
 40
3.981386170841986
 40
4.246852857817315
 40
4.246852857817315
 40
4.246852857817315
 40
4.246852857817315
 10
8.259666525411375
 20
7.711982746252818
 30
1.306071931530823
 10
8.259666525411375
 20
7.71198274625309
 30
1.340900005054209
 10
8.266669987317072
 20
7.714144049419926
 30
1.377907932957896
 10
8.294861836306154
 20
7.721949860483094
 30
1.445748567532064
 10
8.316038900402418
 20
7.727492591676409
 30
1.476597650478652
 10
8.364738400032365
 20
7.737985440606932
 30
1.525297150108599
 10
8.395584617999702
 20
7.743639742499273
 30
1.54646875904109
 10
8.463414850084518
 20
7.751704357455519
 30
1.574656582641182
 10
8.500418928693761
 20
7.753981396875866
 30
1.581662482707542
 10
8.535257076591733
 20
7.753981396875866
 30
1.581662482707542
1001
ACAD_VIEW_EDGE_ID
1071
       22
1071
       -1
1071
       10
1071
        0
  0
SPLINE
  5
30E
330
70
100
AcDbEntity
  8
Visible
100
AcDbSpline
 70
     0
 71
     3
 72
    22
 73
    18
 74
     0
 42
0.000000001
 43
0.0000000001
 40
0.3437529438379148
 40
0.3437529438379148
 40
0.3437529438379148
 40
0.3437529438379148
 40
0.3513109660372399
 40
0.3513109660372399
 40
0.3588689882365649
 40
0.3588689882365649
 40
0.3739850326352148
 40
0.3739850326352148
 40
0.4042171214325149
 40
0.4042171214325149
 40
0.464681299027115
 40
0.464681299027115
 40
0.5856096542163152
 40
0.5856096542163152
 40
0.6474638112548118
 40
0.6474638112548118
 40
0.6483697357685667
 40
0.6483697357685667
 40
0.6483697357685667
 40
0.6483697357685667
 10
7.747854660279699
 20
7.973952299333374
 30
1.79819707426941
 10
7.746862793848777
 20
7.973952299333374
 30
1.79819707426941
 10
7.745892976414324
 20
7.974127682825174
 30
1.798194142680586
 10
7.743929685278999
 20
7.974390712947112
 30
1.798182402071688
 10
7.742943757624743
 20
7.974531904000119
 30
1.79817356759122
 10
7.739966195644228
 20
7.974939308781173
 30
1.798137859592316
 10
7.737958633386369
 20
7.97522591576825
 30
1.798101739203048
 10
7.731880572486261
 20
7.976073390384084
 30
1.797954451960322
 10
7.727745388780022
 20
7.976645542351005
 30
1.797803836727325
 10
7.715212740125934
 20
7.978335569709414
 30
1.797184588449454
 10
7.706645940261296
 20
7.97943699406187
 30
1.796543713326173
 10
7.681045439972876
 20
7.982331495721673
 30
1.793942790825894
 10
7.663985921160929
 20
7.9837603647914
 30
1.791257497550759
 10
7.640493673772652
 20
7.983610829012596
 30
1.786412085375559
 10
7.631022038554874
 20
7.983109902678811
 30
1.784193838298961
 10
7.62321437695391
 20
7.981465002580134
 30
1.782151724693903
 10
7.623100797463848
 20
7.9814407590961
 30
1.782121974916663
 10
7.622986430411401
 20
7.981416009994648
 30
1.782091974475406
1001
ACAD_VIEW_EDGE_ID
1071
       23
1071
       -1
1071
       10
1071
        0
  0
SPLINE
  5
30F
330
70
100
AcDbEntity
  8
Visible
100
AcDbSpline
 70
     0
 71
     3
 72
    16
 73
    12
 74
     0
 42
0.000000001
 43
0.0000000001
 40
0.3166829533326489
 40
0.3166829533326489
 40
0.3166829533326489
 40
0.3166829533326489
 40
0.4922883918078198
 40
0.4922883918078198
 40
0.9845767836156394
 40
0.9845767836156394
 40
1.47181069110683
 40
1.47181069110683
 40
1.715427644852425
 40
1.715427644852425
 40
1.959044598598021
 40
1.959044598598021
 40
1.959044598598021
 40
1.959044598598021
 10
7.622986430411401
 20
7.981416009994648
 30
1.782091974475406
 10
7.600312048611158
 20
7.976509259634931
 30
1.776144094841583
 10
7.578095620645399
 20
7.970416963463448
 30
1.768575702297312
 10
7.496599475685798
 20
7.944226623333499
 30
1.734216422788449
 10
7.442691072013985
 20
7.918782086239788
 30
1.696878394512168
 10
7.357487858855165
 20
7.874005316779999
 30
1.611675181355167
 10
7.3198569452652
 20
7.851224790326233
 30
1.557667172908622
 10
7.281662043063988
 20
7.827275193625069
 30
1.467085501313704
 10
7.27186408757916
 20
7.820939112439285
 30
1.435311650779112
 10
7.258895190903785
 20
7.812503068344713
 30
1.370791075889428
 10
7.255729517537474
 20
7.810407943103212
 30
1.338042660363498
 10
7.255729517537474
 20
7.810407943103212
 30
1.306071931525366
1001
ACAD_VIEW_EDGE_ID
1071
       24
1071
       -1
1071
       10
1071
        0
  0
SPLINE
  5
310
330
70
100
AcDbEntity
  8
Visible
100
AcDbSpline
 70
     0
 71
     3
 72
    14
 73
    10
 74
     0
 42
0.000000001
 43
0.0000000001
 40
5.783789440326742
 40
5.783789440326742
 40
5.783789440326742
 40
5.783789440326742
 40
6.024342796720238
 40
6.024342796720238
 40
6.264896153113734
 40
6.264896153113734
 40
6.746002865900726
 40
6.746002865900726
 40
6.850303376631917
 40
6.850303376631917
 40
6.850303376631917
 40
6.850303376631917
 10
7.255729517537474
 20
7.711982746252818
 30
1.306071931525366
 10
7.255729517537474
 20
7.711982746252818
 30
1.337640613466646
 10
7.258816226252747
 20
7.713636917188059
 30
1.370089643780374
 10
7.27158896144283
 20
7.72033636756312
 30
1.434243073148536
 10
7.281270456989659
 20
7.725377617064608
 30
1.465948794984797
 10
7.319254790894774
 20
7.744419931376722
 30
1.556644048014277
 10
7.356957521005824
 20
7.762499879506433
 30
1.611144843504007
 10
7.409172675435911
 20
7.783695409918895
 30
1.663359997934094
 10
7.418990130383463
 20
7.78755438524282
 30
1.672429248870685
 10
7.429284321915474
 20
7.79143192958286
 30
1.681172045675339
1001
ACAD_VIEW_EDGE_ID
1071
       30
1071
       -1
1071
       10
1071
        0
  0
SPLINE
  5
311
330
70
100
AcDbEntity
  8
Visible
100
AcDbSpline
 70
     0
 71
     3
 72
    24
 73
    20
 74
     0
 42
0.000000001
 43
0.0000000001
 40
5.389073406529078
 40
5.389073406529078
 40
5.389073406529078
 40
5.389073406529078
 40
5.527564862621652
 40
5.527564862621652
 40
5.841899878117944
 40
5.841899878117944
 40
6.156234893614236
 40
6.156234893614236
 40
6.313402401362382
 40
6.313402401362382
 40
6.391986155236455
 40
6.391986155236455
 40
6.431278032173492
 40
6.431278032173492
 40
6.45092397064201
 40
6.45092397064201
 40
6.460746939876269
 40
6.460746939876269
 40
6.470569909110528
 40
6.470569909110528
 40
6.470569909110528
 40
6.470569909110528
 10
7.429284321915474
 20
7.79143192958286
 30
1.681172045675339
 10
7.442213127891591
 20
7.796301862134341
 30
1.692152405154047
 10
7.455442753876923
 20
7.801971246298721
 30
1.702239858996108
 10
7.499423921202833
 20
7.822398063547176
 30
1.732502112074143
 10
7.531093819674424
 20
7.83951824322635
 30
1.749205832962616
 10
7.594363435135164
 20
7.875817021769609
 30
1.774893090543628
 10
7.627440846254103
 20
7.895920627993691
 30
1.784277737333468
 10
7.673923110141913
 20
7.924721453700355
 30
1.792867076273978
 10
7.68949681183767
 20
7.934474073783715
 30
1.794946128691663
 10
7.711477770562851
 20
7.948252862363541
 30
1.796905896246244
 10
7.718768569191524
 20
7.952832094251958
 30
1.797387457043441
 10
7.729341971251415
 20
7.959400080303289
 30
1.797861400562396
 10
7.732832846617384
 20
7.96156467772488
 30
1.797980269782783
 10
7.73809461862038
 20
7.964701079836792
 30
1.798103409688337
 10
7.739837474433443
 20
7.965730029061727
 30
1.798135182012629
 10
7.742581364213037
 20
7.967176356181139
 30
1.798169663403314
 10
7.743508445746556
 20
7.967644302232599
 30
1.798178895418459
 10
7.745505349706945
 20
7.968446350417915
 30
1.798192479147473
 10
7.746565556704808
 20
7.968804184114752
 30
1.79819707426941
 10
7.747854660279699
 20
7.968804184114752
 30
1.79819707426941
1001
ACAD_VIEW_EDGE_ID
1071
       31
1071
       -1
1071
       10
1071
        0
  0
SPLINE
  5
312
330
70
100
AcDbEntity
  8
Visible
100
AcDbSpline
 70
     0
 71
     3
 72
    16
 73
    12
 74
     0
 42
0.000000001
 43
0.0000000001
 40
5.87713379579406
 40
5.87713379579406
 40
5.87713379579406
 40
5.87713379579406
 40
6.120750749539656
 40
6.120750749539656
 40
6.364367703285251
 40
6.364367703285251
 40
6.851601610776441
 40
6.851601610776441
 40
7.343890002584261
 40
7.343890002584261
 40
7.519495441059433
 40
7.519495441059433
 40
7.519495441059433
 40
7.519495441059433
 10
9.814784635645992
 20
7.810407943103212
 30
1.306071931525366
 10
9.814784635645992
 20
7.810407943103212
 30
1.338042660363498
 10
9.81161896227968
 20
7.812503068344713
 30
1.370791075889428
 10
9.798650065604306
 20
7.820939112439285
 30
1.435311650779112
 10
9.788852110119478
 20
7.827275193625069
 30
1.467085501313704
 10
9.750657207918266
 20
7.851224790326233
 30
1.557667172908622
 10
9.713026294326482
 20
7.874005316779999
 30
1.611675181355167
 10
9.627823081169481
 20
7.918782086239788
 30
1.696878394512168
 10
9.573914677497668
 20
7.944226623333499
 30
1.734216422788449
 10
9.492418532538067
 20
7.97041696346345
 30
1.768575702297312
 10
9.470202104570489
 20
7.976509259634931
 30
1.776144094841583
 10
9.447527722772065
 20
7.981416009994648
 30
1.782091974475406
1001
ACAD_VIEW_EDGE_ID
1071
       37
1071
       -1
1071
       10
1071
        0
  0
SPLINE
  5
313
330
70
100
AcDbEntity
  8
Visible
100
AcDbSpline
 70
     0
 71
     3
 72
    22
 73
    18
 74
     0
 42
0.000000001
 43
0.0000000001
 40
0.0391361519072636
 40
0.0391361519072636
 40
0.0391361519072636
 40
0.0391361519072636
 40
0.0400420764210185
 40
0.0400420764210185
 40
0.1018962334595151
 40
0.1018962334595151
 40
0.222824588648715
 40
0.222824588648715
 40
0.2832887662433149
 40
0.2832887662433149
 40
0.3135208550406149
 40
0.3135208550406149
 40
0.3286368994392649
 40
0.3286368994392649
 40
0.3361949216385899
 40
0.3361949216385899
 40
0.3437529438379149
 40
0.3437529438379149
 40
0.3437529438379149
 40
0.3437529438379149
 10
9.447527722772065
 20
7.981416009994648
 30
1.782091974475406
 10
9.447413355719618
 20
7.9814407590961
 30
1.782121974916663
 10
9.447299776229556
 20
7.981465002580134
 30
1.782151724693903
 10
9.439492114628592
 20
7.983109902678811
 30
1.784193838298961
 10
9.430020479410814
 20
7.983610829012596
 30
1.786412085375559
 10
9.406528232022537
 20
7.9837603647914
 30
1.791257497550759
 10
9.38946871321059
 20
7.982331495721673
 30
1.793942790825894
 10
9.363868212920351
 20
7.97943699406187
 30
1.796543713326173
 10
9.355301413055713
 20
7.978335569709414
 30
1.797184588449454
 10
9.342768764403444
 20
7.976645542351005
 30
1.797803836727325
 10
9.338633580697205
 20
7.976073390384084
 30
1.797954451960322
 10
9.332555519797097
 20
7.97522591576825
 30
1.798101739203048
 10
9.330547957539238
 20
7.974939308781173
 30
1.798137859592316
 10
9.327570395558723
 20
7.974531904000119
 30
1.79817356759122
 10
9.326584467904467
 20
7.974390712947112
 30
1.798182402071688
 10
9.324621176769142
 20
7.974127682825174
 30
1.798194142680586
 10
9.323651359334689
 20
7.973952299333374
 30
1.79819707426941
 10
9.322659492903767
 20
7.973952299333374
 30
1.79819707426941
1001
ACAD_VIEW_EDGE_ID
1071
       38
1071
       -1
1071
       10
1071
        0
  0
SPLINE
  5
314
330
70
100
AcDbEntity
  8
Visible
100
AcDbSpline
 70
     0
 71
     3
 72
    24
 73
    20
 74
     0
 42
0.000000001
 43
0.0000000001
 40
6.470569909110528
 40
6.470569909110528
 40
6.470569909110528
 40
6.470569909110528
 40
6.480392878344787
 40
6.480392878344787
 40
6.490215847579046
 40
6.490215847579046
 40
6.509861786047564
 40
6.509861786047564
 40
6.5491536629846
 40
6.5491536629846
 40
6.627737416858674
 40
6.627737416858674
 40
6.78490492460682
 40
6.78490492460682
 40
7.099239940103112
 40
7.099239940103112
 40
7.413574955599404
 40
7.413574955599404
 40
7.552066411691978
 40
7.552066411691978
 40
7.552066411691978
 40
7.552066411691978
 10
9.322659492903767
 20
7.968804184114752
 30
1.79819707426941
 10
9.323948596478658
 20
7.968804184114752
 30
1.79819707426941
 10
9.325008803476521
 20
7.968446350417915
 30
1.798192479147473
 10
9.32700570743691
 20
7.967644302232599
 30
1.798178895418459
 10
9.327932788970429
 20
7.967176356181139
 30
1.798169663403314
 10
9.330676678750023
 20
7.965730029061727
 30
1.798135182012629
 10
9.332419534563086
 20
7.964701079836792
 30
1.798103409688337
 10
9.337681306566082
 20
7.96156467772488
 30
1.797980269782783
 10
9.341172181932051
 20
7.959400080303289
 30
1.797861400562396
 10
9.351745583991942
 20
7.952832094251958
 30
1.797387457043441
 10
9.359036382620615
 20
7.948252862363541
 30
1.796905896246244
 10
9.381017341345796
 20
7.934474073783715
 30
1.794946128691663
 10
9.396591043041553
 20
7.924721453700355
 30
1.792867076273978
 10
9.443073306929363
 20
7.895920627993691
 30
1.784277737333468
 10
9.476150718048302
 20
7.875817021769609
 30
1.774893090543628
 10
9.539420333507223
 20
7.83951824322635
 30
1.749205832962616
 10
9.571090231980633
 20
7.822398063547176
 30
1.732502112074143
 10
9.615071399306543
 20
7.801971246298721
 30
1.702239858996108
 10
9.628301025291875
 20
7.796301862134341
 30
1.692152405154047
 10
9.641229831267992
 20
7.79143192958286
 30
1.681172045675339
1001
ACAD_VIEW_EDGE_ID
1071
       40
1071
       -1
1071
       10
1071
        0
  0
SPLINE
  5
315
330
70
100
AcDbEntity
  8
Visible
100
AcDbSpline
 70
     0
 71
     3
 72
    14
 73
    10
 74
     0
 42
0.000000001
 43
0.0000000001
 40
0.8614158771370725
 40
0.8614158771370725
 40
0.8614158771370725
 40
0.8614158771370725
 40
0.9657163878682641
 40
0.9657163878682641
 40
1.446823100655255
 40
1.446823100655255
 40
1.687376457048751
 40
1.687376457048751
 40
1.927929813442247
 40
1.927929813442247
 40
1.927929813442247
 40
1.927929813442247
 10
9.641229831267992
 20
7.79143192958286
 30
1.681172045675339
 10
9.651524022800003
 20
7.78755438524282
 30
1.672429248870685
 10
9.661341477747555
 20
7.783695409918895
 30
1.663359997934094
 10
9.713556632177642
 20
7.762499879506433
 30
1.611144843504007
 10
9.751259362288692
 20
7.744419931376722
 30
1.556644048014277
 10
9.789243696193807
 20
7.725377617064608
 30
1.465948794984797
 10
9.798925191740636
 20
7.72033636756312
 30
1.434243073148536
 10
9.811697926930719
 20
7.713636917188059
 30
1.370089643780374
 10
9.814784635645992
 20
7.711982746252818
 30
1.337640613466646
 10
9.814784635645992
 20
7.711982746252818
 30
1.306071931525366
1001
ACAD_VIEW_EDGE_ID
1071
       41
1071
       -1
1071
       10
1071
        0
  0
LINE
  5
316
330
70
100
AcDbEntity
  8
Visible
100
AcDbLine
 10
9.322659
 20
7.973952
 30
1.798197
 11
7.747855
 21
7.973952
 31
1.798197
210
0.0
220
1.0
230
0.0
  0
LINE
  5
317
330
70
100
AcDbEntity
  8
Visible
100
AcDbLine
 10
7.747855
 20
7.968804
 30
1.798197
 11
9.322659
 21
7.968804
 31
1.798197
210
0.0
220
1.0
230
0.0
  0
LINE
  5
318
330
70
100
AcDbEntity
  8
Visible
100
AcDbLine
 10
8.810848
 20
7.711983
 30
1.306072
 11
8.810848
 21
7.298597
 31
1.306072
210
0.0
220
1.0
230
0.0
  0
LINE
  5
319
330
70
100
AcDbEntity
  8
Visible
100
AcDbLine
 10
8.259667
 20
7.711983
 30
1.306072
 11
8.259667
 21
7.298597
 31
1.306072
210
0.0
220
1.0
230
0.0
  0
LINE
  5
31A
330
70
100
AcDbEntity
  8
Visible
100
AcDbLine
 10
7.25573
 20
7.810408
 30
1.306072
 11
7.25573
 21
7.711983
 31
1.306072
210
0.0
220
1.0
230
0.0
  0
LINE
  5
31B
330
70
100
AcDbEntity
  8
Visible
100
AcDbLine
 10
9.814785
 20
7.810408
 30
1.306072
 11
9.814785
 21
7.711983
 31
1.306072
210
0.0
220
1.0
230
0.0
  0
LINE
  5
31C
330
70
100
AcDbEntity
  8
Visible
100
AcDbLine
 10
9.420587
 20
7.983666
 30
1.788355
 11
7.649927
 21
7.983666
 31
1.788355
210
0.0
220
1.0
230
0.0
  0
LINE
  5
31D
330
70
100
AcDbEntity
  8
Visible
100
AcDbLine
 10
9.814785
 20
7.711983
 30
1.306072
 11
8.810848
 21
7.711983
 31
1.306072
210
0.0
220
1.0
230
0.0
  0
LINE
  5
31E
330
70
100
AcDbEntity
  8
Visible
100
AcDbLine
 10
8.259667
 20
7.711983
 30
1.306072
 11
7.55214
 21
7.711983
 31
1.306072
210
0.0
220
1.0
230
0.0
  0
LINE
  5
31F
330
70
100
AcDbEntity
  8
Visible
100
AcDbLine
 10
7.503905
 20
7.711983
 30
1.306072
 11
7.25573
 21
7.711983
 31
1.306072
210
0.0
220
1.0
230
0.0
  0
ARC
  5
320
330
70
100
AcDbEntity
  8
Visible
100
AcDbCircle
 10
5.19824
 20
0.002538
 30
2.798909
 40
0.9448818897637794
210
1.0
220
-0.0000000000000022
230
0.0000000000002969
100
AcDbArc
 50
0.0
 51
180.0
  0
LINE
  5
321
330
70
100
AcDbEntity
  8
Visible
100
AcDbLine
 10
2.798909
 20
6.143122
 30
0.002538
 11
2.885523
 21
6.143122
 31
0.002538
210
0.0
220
1.0
230
0.0
  0
LINE
  5
322
330
70
100
AcDbEntity
  8
Visible
100
AcDbLine
 10
2.798909
 20
4.253358
 30
0.002538
 11
2.885523
 21
4.253358
 31
0.002538
210
0.0
220
1.0
230
0.0
  0
SPLINE
  5
323
330
70
100
AcDbEntity
  8
Visible
100
AcDbSpline
 70
     0
 71
     3
 72
    18
 73
    14
 74
     0
 42
0.000000001
 43
0.0000000001
 40
1.082898440396907
 40
1.082898440396907
 40
1.082898440396907
 40
1.082898440396907
 40
1.352995901063261
 40
1.352995901063261
 40
1.623093361729615
 40
1.623093361729615
 40
1.894445121261714
 40
1.894445121261714
 40
2.165796880793814
 40
2.165796880793814
 40
2.437148640325914
 40
2.437148640325914
 40
2.577411281356953
 40
2.577411281356953
 40
2.577411281356953
 40
2.577411281356953
 10
4.781192276619549
 20
4.706114179528998
 30
0.0025383049214724
 10
4.781192276619549
 20
4.706114179528998
 30
0.0379841659014346
 10
4.788440186239313
 20
4.710284765473742
 30
0.0752690969056857
 10
4.816832017906563
 20
4.725303495988862
 30
0.1429703023986804
 10
4.83793665407029
 20
4.736002563911887
 30
0.173436026334457
 10
4.885996439697919
 20
4.756727326277314
 30
0.221495811962086
 10
4.916428415253903
 20
4.768275324429439
 30
0.2425210494802741
 10
4.983966179210256
 20
4.785356718321342
 30
0.2708455428492016
 10
5.021172360669879
 20
4.790517424072148
 30
0.27812885610183
 10
5.092393294929934
 20
4.790517424072147
 30
0.27812885610183
 10
5.129599476389557
 20
4.785356718321342
 30
0.2708455428492016
 10
5.180823607521233
 20
4.772401306276618
 30
0.2493627830190235
 10
5.197387271644402
 20
4.767183073069675
 30
0.2402085535159131
 10
5.212643704502625
 20
4.761737094301582
 30
0.2297457978656894
1001
ACAD_VIEW_EDGE_ID
1071
        0
1071
       -1
1071
        3
1071
        0
  0
SPLINE
  5
324
330
70
100
AcDbEntity
  8
Visible
100
AcDbSpline
 70
     0
 71
     3
 72
    18
 73
    14
 74
     0
 42
0.000000001
 43
0.0000000001
 40
1.754182480230681
 40
1.754182480230681
 40
1.754182480230681
 40
1.754182480230681
 40
1.894445121261714
 40
1.894445121261714
 40
2.165796880793814
 40
2.165796880793814
 40
2.437148640325913
 40
2.437148640325913
 40
2.708500399858013
 40
2.708500399858013
 40
2.978597860524367
 40
2.978597860524367
 40
3.24869532119072
 40
3.24869532119072
 40
3.24869532119072
 40
3.24869532119072
 10
5.212643704502625
 20
5.634743233260349
 30
0.2297457978656894
 10
5.197387271644402
 20
5.629297254492257
 30
0.2402085535159131
 10
5.180823607521233
 20
5.624079021285314
 30
0.2493627830190235
 10
5.129599476389557
 20
5.611123609240591
 30
0.2708455428492016
 10
5.092393294929934
 20
5.605962903489785
 30
0.27812885610183
 10
5.021172360669879
 20
5.605962903489785
 30
0.27812885610183
 10
4.983966179210256
 20
5.611123609240591
 30
0.2708455428492016
 10
4.916428415253903
 20
5.628205003132493
 30
0.2425210494802741
 10
4.885996439697919
 20
5.63975300128462
 30
0.221495811962086
 10
4.83793665407029
 20
5.660477763650046
 30
0.173436026334457
 10
4.816832017906563
 20
5.671176831573071
 30
0.1429703023986804
 10
4.788440186239313
 20
5.686195562088192
 30
0.0752690969056857
 10
4.781192276619549
 20
5.690366148032936
 30
0.0379841659014346
 10
4.781192276619549
 20
5.690366148032936
 30
0.0025383049214724
1001
ACAD_VIEW_EDGE_ID
1071
        1
1071
       -1
1071
        3
1071
        0
  0
ARC
  5
325
330
70
100
AcDbEntity
  8
Visible
100
AcDbCircle
 10
5.19824
 20
0.002538
 30
5.450354
 40
0.4921259842519687
210
1.0
220
0.0
230
0.0000000000002969
100
AcDbArc
 50
0.0
 51
180.0
  0
ARC
  5
326
330
70
100
AcDbEntity
  8
Visible
100
AcDbCircle
 10
5.19824
 20
0.002538
 30
2.885523
 40
0.9842519685039372
210
1.0
220
-0.0000000000000005
230
0.0000000000002972
100
AcDbArc
 50
0.0
 51
180.0
  0
ARC
  5
327
330
70
100
AcDbEntity
  8
Visible
100
AcDbCircle
 10
5.19824
 20
0.002538
 30
3.082373
 40
0.9842519685039372
210
1.0
220
-0.0000000000000005
230
0.0000000000002972
100
AcDbArc
 50
0.0
 51
180.0
  0
ARC
  5
328
330
70
100
AcDbEntity
  8
Visible
100
AcDbCircle
 10
-3.954421
 20
5.19824
 30
-0.002538
 40
1.574803149606299
210
0.0000000000002969
220
0.0
230
-1.0
100
AcDbArc
 50
161.790043
 51
198.209957
  0
LINE
  5
329
330
70
100
AcDbEntity
  8
Visible
100
AcDbLine
 10
2.885523
 20
6.182492
 30
0.002538
 11
3.082373
 21
6.182492
 31
0.002538
210
0.0
220
1.0
230
0.0
  0
LINE
  5
32A
330
70
100
AcDbEntity
  8
Visible
100
AcDbLine
 10
2.885523
 20
4.213988
 30
0.002538
 11
3.082373
 21
4.213988
 31
0.002538
210
0.0
220
1.0
230
0.0
  0
LINE
  5
32B
330
70
100
AcDbEntity
  8
Visible
100
AcDbLine
 10
3.082373
 20
5.690366
 30
0.002538
 11
4.781192
 21
5.690366
 31
0.002538
210
0.0
220
1.0
230
0.0
  0
LINE
  5
32C
330
70
100
AcDbEntity
  8
Visible
100
AcDbLine
 10
5.336128
 20
5.690366
 30
0.002538
 11
5.450354
 21
5.690366
 31
0.002538
210
0.0
220
1.0
230
0.0
  0
LINE
  5
32D
330
70
100
AcDbEntity
  8
Visible
100
AcDbLine
 10
3.082373
 20
4.706114
 30
0.002538
 11
4.781192
 21
4.706114
 31
0.002538
210
0.0
220
1.0
230
0.0
  0
LINE
  5
32E
330
70
100
AcDbEntity
  8
Visible
100
AcDbLine
 10
5.336128
 20
4.706114
 30
0.002538
 11
5.450354
 21
4.706114
 31
0.002538
210
0.0
220
1.0
230
0.0
  0
LINE
  5
32F
330
70
100
AcDbEntity
  8
Visible
100
AcDbLine
 10
2.192295
 20
6.178336
 30
0.092893
 11
2.034814
 21
6.178336
 31
0.092893
210
0.0
220
1.0
230
0.0
  0
ARC
  5
330
330
70
100
AcDbEntity
  8
Visible
100
AcDbCircle
 10
-5.19824
 20
0.002538
 30
-2.034814
 40
0.9842519685039484
210
-1.0
220
0.0
230
-0.0000000000002969
100
AcDbArc
 50
174.732832
 51
180.0
  0
ARC
  5
331
330
70
100
AcDbEntity
  8
Visible
100
AcDbCircle
 10
-5.19824
 20
0.002538
 30
-2.192295
 40
0.9842519685039372
210
-1.0
220
0.0000000000000003
230
-0.0000000000002969
100
AcDbArc
 50
0.0
 51
174.732832
  0
ARC
  5
332
330
70
100
AcDbEntity
  8
Visible
100
AcDbCircle
 10
-5.19824
 20
0.002538
 30
-1.956074
 40
0.9842519685039368
210
-1.0
220
-0.0000000000000002
230
-0.0000000000002969
100
AcDbArc
 50
0.0
 51
180.0
  0
LINE
  5
333
330
70
100
AcDbEntity
  8
Visible
100
AcDbLine
 10
2.192295
 20
4.213988
 30
0.002538
 11
1.956074
 21
4.213988
 31
0.002538
210
0.0
220
1.0
230
0.0
  0
LINE
  5
334
330
70
100
AcDbEntity
  8
Visible
100
AcDbLine
 10
2.034814
 20
6.182492
 30
0.002538
 11
1.956074
 21
6.182492
 31
0.002538
210
0.0
220
1.0
230
0.0
  0
ARC
  5
335
330
70
100
AcDbEntity
  8
Visible
100
AcDbCircle
 10
5.19824
 20
0.002538
 30
2.79072
 40
0.2559055118110236
210
1.0
220
0.0
230
0.0000000000002969
100
AcDbArc
 50
0.0
 51
180.0
  0
ARC
  5
336
330
70
100
AcDbEntity
  8
Visible
100
AcDbCircle
 10
5.19824
 20
0.002538
 30
2.278909
 40
0.9448818897637798
210
1.0
220
0.0000000000000003
230
0.0000000000002969
100
AcDbArc
 50
0.0
 51
180.0
  0
LINE
  5
337
330
70
100
AcDbEntity
  8
Visible
100
AcDbLine
 10
2.278909
 20
5.454146
 30
0.002538
 11
2.79072
 21
5.454146
 31
0.002538
210
0.0
220
1.0
230
0.0
  0
LINE
  5
338
330
70
100
AcDbEntity
  8
Visible
100
AcDbLine
 10
2.278909
 20
4.942335
 30
0.002538
 11
2.79072
 21
4.942335
 31
0.002538
210
0.0
220
1.0
230
0.0
  0
LINE
  5
339
330
70
100
AcDbEntity
  8
Visible
100
AcDbLine
 10
2.192295
 20
6.143122
 30
0.002538
 11
2.278909
 21
6.143122
 31
0.002538
210
0.0
220
1.0
230
0.0
  0
LINE
  5
33A
330
70
100
AcDbEntity
  8
Visible
100
AcDbLine
 10
2.192295
 20
4.253358
 30
0.002538
 11
2.278909
 21
4.253358
 31
0.002538
210
0.0
220
1.0
230
0.0
  0
SPLINE
  5
33B
330
70
100
AcDbEntity
  8
Visible
100
AcDbSpline
 70
     0
 71
     3
 72
    12
 73
     8
 74
     0
 42
0.000000001
 43
0.0000000001
 40
-19.10695690625505
 40
-19.10695690625505
 40
-19.10695690625505
 40
-19.10695690625505
 40
-18.98548763271728
 40
-18.98548763271728
 40
-18.83096702423764
 40
-18.83096702423764
 40
-18.81336778662152
 40
-18.81336778662152
 40
-18.81336778662152
 40
-18.81336778662152
 10
2.798899628709477
 20
5.314083613884434
 30
0.1080503381890594
 10
2.798125782583156
 20
5.324762777232367
 30
0.0962177700930624
 10
2.79733742613098
 20
5.333603908788223
 30
0.0828099281370669
 10
2.795483731382773
 20
5.348775491820883
 30
0.0497815377002553
 10
2.794447956483054
 20
5.353606113702098
 30
0.0298160078436922
 10
2.793360498671972
 20
5.354605913409716
 30
0.0071676220104564
 10
2.793249133068457
 20
5.35465690045103
 30
0.0048520891468797
 10
2.793137545642821
 20
5.354656899575704
 30
0.0025384820601175
1001
ACAD_VIEW_EDGE_ID
1071
       23
1071
       -1
1071
        6
1071
        0
  0
SPLINE
  5
33C
330
70
100
AcDbEntity
  8
Visible
100
AcDbSpline
 70
     0
 71
     3
 72
    14
 73
    10
 74
     0
 42
0.000000001
 43
0.0000000001
 40
-41.54957991828758
 40
-41.54957991828758
 40
-41.54957991828758
 40
-41.54957991828758
 40
-41.47833982887194
 40
-41.47833982887194
 40
-41.32452675136618
 40
-41.32452675136618
 40
-41.16621546118397
 40
-41.16621546118397
 40
-41.13016367148244
 40
-41.13016367148244
 40
-41.13016367148244
 40
-41.13016367148244
 10
2.790719835385971
 20
5.337279545908907
 30
0.0744492845460627
 10
2.791193126073267
 20
5.333030907687838
 30
0.082726864151482
 10
2.791663200214316
 20
5.328046851210791
 30
0.0906316079071985
 10
2.7931202761647
 20
5.31013143483633
 30
0.1141120791980938
 10
2.794052037363144
 20
5.294916179248641
 30
0.1276561669110379
 10
2.796121281173327
 20
5.259692445261793
 30
0.148563833663502
 10
2.797190439903715
 20
5.239903109375068
 30
0.1555290775686444
 10
2.798451360740727
 20
5.214648378689306
 30
0.1591179110710073
 10
2.798681500689781
 20
5.20994421467775
 30
0.1595710415331268
 10
2.798909918730714
 20
5.205234565452244
 30
0.1598123429539555
1001
ACAD_VIEW_EDGE_ID
1071
       25
1071
       -1
1071
        6
1071
        0
  0
SPLINE
  5
33D
330
70
100
AcDbEntity
  8
Visible
100
AcDbSpline
210
0.9979560350855726
220
0.0244550940716627
230
0.0590398205470647
 70
    12
 71
     2
 72
     6
 73
     3
 74
     0
 42
0.000000001
 43
0.0000000001
 40
0.4012271382108226
 40
0.4012271382108226
 40
0.4012271382108226
 40
0.4020208541865274
 40
0.4020208541865274
 40
0.4020208541865274
 10
2.790719835673371
 20
5.077689298674012
 30
0.0409700926193182
 41
0.9635392891858153
 10
2.791544646379406
 20
5.073732239703238
 30
0.028667301625319
 41
0.9676018504369508
 10
2.792338422541433
 20
5.072365093743939
 30
0.01581631357476
 41
0.981982740739772
1001
ACAD_VIEW_EDGE_ID
1071
       43
1071
       -1
1071
        6
1071
        0
  0
LINE
  5
33E
330
70
100
AcDbEntity
  8
Visible
100
AcDbLine
 10
2.79072
 20
5.354657
 30
0.002538
 11
2.793141
 21
5.354657
 31
0.002538
210
0.0
220
1.0
230
0.0
  0
SPLINE
  5
33F
330
70
100
AcDbEntity
  8
Visible
100
AcDbSpline
 70
     0
 71
     3
 72
     8
 73
     4
 74
     0
 42
0.000000001
 43
0.0000000001
 40
0.0
 40
0.0
 40
0.0
 40
0.0
 40
0.0260053141338363
 40
0.0260053141338363
 40
0.0260053141338363
 40
0.0260053141338363
 10
2.793775260272013
 20
5.354101330310396
 30
0.0157547706949117
 10
2.79548616881766
 20
5.351148404257953
 30
0.0157597486540908
 10
2.797197336129102
 20
5.348195628227397
 30
0.0157649041411787
 10
2.798908812052104
 20
5.345243031374221
 30
0.0157702475971746
1001
ACAD_VIEW_EDGE_ID
1071
   -26679
1071
       -1
1071
        6
1071
        0
  0
LINE
  5
340
330
70
100
AcDbEntity
  8
Visible
100
AcDbLine
 10
2.79072
 20
5.071661
 30
0.002538
 11
2.792747
 21
5.071661
 31
0.002538
210
0.0
220
1.0
230
0.0
  0
SPLINE
  5
341
330
70
100
AcDbEntity
  8
Visible
100
AcDbSpline
 70
     0
 71
     3
 72
     8
 73
     4
 74
     0
 42
0.000000001
 43
0.0000000001
 40
0.0610429254081497
 40
0.0610429254081497
 40
0.0610429254081497
 40
0.0610429254081497
 40
0.0942917788501591
 40
0.0942917788501591
 40
0.0942917788501591
 40
0.0942917788501591
 10
2.798908812052104
 20
5.061043426411656
 30
0.0157929041251919
 10
2.796719396705157
 20
5.064817730874259
 30
0.0158003934011504
 10
2.794529315797262
 20
5.068591648521203
 30
0.0158081945355662
 10
2.792338422541433
 20
5.072365093743939
 30
0.01581631357476
1001
ACAD_VIEW_EDGE_ID
1071
   -30743
1071
       -1
1071
        6
1071
        0
  0
SPLINE
  5
342
330
70
100
AcDbEntity
  8
Visible
100
AcDbSpline
 70
     0
 71
     3
 72
    14
 73
    10
 74
     0
 42
0.000000001
 43
0.0000000001
 40
0.0
 40
0.0
 40
0.0
 40
0.0
 40
0.0957976978317546
 40
0.0957976978317546
 40
0.1915953956635092
 40
0.1915953956635092
 40
0.2873317529810546
 40
0.2873317529810546
 40
0.3830681102962296
 40
0.3830681102962296
 40
0.3830681102986
 40
0.3830681102986
 10
4.803398487805679
 20
7.31239131915301
 30
0.0991141732320102
 10
4.803398487805679
 20
7.299819442797137
 30
0.0991141732320102
 10
4.802379422155354
 20
7.286496180957258
 30
0.09657850378062
 10
4.798807481281983
 20
7.262115524298106
 30
0.0864309667376802
 10
4.796317249396452
 20
7.251046882474505
 30
0.0788241713289608
 10
4.791722412213857
 20
7.233572744079522
 30
0.0613500329327508
 10
4.78930446259983
 20
7.225961663415089
 30
0.0502792023562506
 10
4.785901428174838
 20
7.215810900690767
 30
0.0258902802561352
 10
4.784958733951498
 20
7.213277145924788
 30
0.0125638264235022
 10
4.784958733951498
 20
7.213277145924663
 30
0.000000000003638
1001
ACAD_VIEW_EDGE_ID
1071
        0
1071
       -1
1071
        7
1071
        0
  0
SPLINE
  5
343
330
70
100
AcDbEntity
  8
Visible
100
AcDbSpline
 70
     0
 71
     3
 72
    14
 73
    10
 74
     0
 42
0.000000001
 43
0.0000000001
 40
1.149204330895798
 40
1.149204330895798
 40
1.149204330895799
 40
1.149204330895799
 40
1.244940688213344
 40
1.244940688213344
 40
1.340677045530889
 40
1.340677045530889
 40
1.436474743362644
 40
1.436474743362644
 40
1.532272441194398
 40
1.532272441194398
 40
1.532272441194398
 40
1.532272441194398
 10
4.784958733951498
 20
7.411505492381357
 30
0.000000000003638
 10
4.784958733951498
 20
7.411505492381357
 30
0.0125638264235022
 10
4.785901428174838
 20
7.408971737615379
 30
0.0258902802543162
 10
4.78930446259983
 20
7.39882097489093
 30
0.0502792023562506
 10
4.791722412213857
 20
7.391209894226498
 30
0.0613500329327508
 10
4.796317249396452
 20
7.373735755831514
 30
0.0788241713289608
 10
4.798807481281983
 20
7.362667114007914
 30
0.0864309667376802
 10
4.802379422155354
 20
7.338286457348762
 30
0.09657850378062
 10
4.803398487805679
 20
7.324963195508884
 30
0.0991141732320102
 10
4.803398487805679
 20
7.31239131915301
 30
0.0991141732320102
1001
ACAD_VIEW_EDGE_ID
1071
        0
1071
       -1
1071
        7
1071
        0
  0
SPLINE
  5
344
330
70
100
AcDbEntity
  8
Visible
100
AcDbSpline
 70
     0
 71
     3
 72
    16
 73
    12
 74
     0
 42
0.000000001
 43
0.0000000001
 40
0.0
 40
0.0
 40
0.0
 40
0.0
 40
0.1176160583361983
 40
0.1176160583361983
 40
0.2352321166723966
 40
0.2352321166723966
 40
0.4704642333447932
 40
0.4704642333447932
 40
0.6974993473189302
 40
0.6974993473189302
 40
0.9245344612930672
 40
0.9245344612930672
 40
0.9245344612930677
 40
0.9245344612930677
 10
5.220519754848282
 20
7.312391319153009
 30
0.2244094488232804
 10
5.220519754848282
 20
7.327826497412353
 30
0.2244094488232804
 10
5.222815990347953
 20
7.343061369860045
 30
0.2228117756403662
 10
5.230857039743568
 20
7.372515357480799
 30
0.2167275699030142
 10
5.236557652358897
 20
7.386746700998896
 30
0.2122419043207628
 10
5.256078521360905
 20
7.427293205724041
 30
0.1949875604350382
 10
5.27211123617053
 20
7.451532819486595
 30
0.1782213857150054
 10
5.299153362244396
 20
7.48993180735196
 30
0.1398223978485475
 10
5.312410274480498
 20
7.507057865578127
 30
0.1155766609335842
 10
5.33095696464079
 20
7.53052297735573
 30
0.0605938392509415
 10
5.336139836314032
 20
7.536800767971907
 30
0.0297946343835065
 10
5.336139836314032
 20
7.536800767971907
 30
0.000000000003638
1001
ACAD_VIEW_EDGE_ID
1071
        2
1071
       -1
1071
        7
1071
        0
  0
SPLINE
  5
345
330
70
100
AcDbEntity
  8
Visible
100
AcDbSpline
 70
     0
 71
     3
 72
    16
 73
    12
 74
     0
 42
0.000000001
 43
0.0000000001
 40
2.773603383879202
 40
2.773603383879202
 40
2.773603383879203
 40
2.773603383879203
 40
3.000638497853339
 40
3.000638497853339
 40
3.227673611827476
 40
3.227673611827476
 40
3.462905728499873
 40
3.462905728499873
 40
3.580521786836072
 40
3.580521786836072
 40
3.698137845172271
 40
3.698137845172271
 40
3.698137845172271
 40
3.698137845172271
 10
5.336139836314032
 20
7.087981870334112
 30
0.000000000003638
 10
5.336139836314032
 20
7.087981870334112
 30
0.0297946343835065
 10
5.33095696464079
 20
7.094259660950289
 30
0.0605938392509415
 10
5.312410274480498
 20
7.117724772727891
 30
0.1155766609335842
 10
5.299153362244396
 20
7.134850830954058
 30
0.1398223978485475
 10
5.27211123617053
 20
7.173249818819424
 30
0.1782213857150054
 10
5.256078521360905
 20
7.197489432581976
 30
0.1949875604350382
 10
5.236557652358897
 20
7.238035937307121
 30
0.2122419043207628
 10
5.230857039743568
 20
7.252267280825219
 30
0.2167275699030142
 10
5.222815990347953
 20
7.281721268445974
 30
0.2228117756403662
 10
5.220519754848282
 20
7.296956140893666
 30
0.2244094488232804
 10
5.220519754848282
 20
7.312391319153009
 30
0.2244094488232804
1001
ACAD_VIEW_EDGE_ID
1071
        2
1071
       -1
1071
        7
1071
        0
  0
LINE
  5
346
330
70
100
AcDbEntity
  8
Visible
100
AcDbLine
 10
5.139289
 20
7.484002
 30
0.264103
 11
5.139289
 21
7.11884
 31
0.264103
210
0.0
220
1.0
230
0.0
  0
ARC
  5
347
330
70
100
AcDbEntity
  8
Visible
100
AcDbCircle
 10
7.312391
 20
0.0
 30
5.139289
 40
0.3149606299213461
210
1.0
220
0.0
230
0.0000000000002969
100
AcDbArc
 50
52.492713
 51
56.984741
  0
SPLINE
  5
348
330
70
100
AcDbEntity
  8
Visible
100
AcDbSpline
 70
     0
 71
     3
 72
     8
 73
     4
 74
     0
 42
0.000000001
 43
0.0000000001
 40
2.209857864444705
 40
2.209857864444705
 40
2.209857864444705
 40
2.209857864444705
 40
2.411152941634972
 40
2.411152941634972
 40
2.411152941634972
 40
2.411152941634972
 10
5.060549285131855
 20
7.129657916454472
 30
0.2755905511839956
 10
5.034132608336221
 20
7.129657916454473
 30
0.2755905511839956
 10
5.007283386441486
 20
7.125710094322718
 30
0.2716974736085831
 10
4.981809127652013
 20
7.118840197613835
 30
0.2641025170305511
1001
ACAD_VIEW_EDGE_ID
1071
       13
1071
       -1
1071
        7
1071
        0
  0
SPLINE
  5
349
330
70
100
AcDbEntity
  8
Visible
100
AcDbSpline
 70
     0
 71
     3
 72
     8
 73
     4
 74
     0
 42
0.000000001
 43
0.0000000001
 40
2.008562787254438
 40
2.008562787254438
 40
2.008562787254438
 40
2.008562787254438
 40
2.209857864444705
 40
2.209857864444705
 40
2.209857864444705
 40
2.209857864444705
 10
5.139289442613517
 20
7.118840197613835
 30
0.2641025170305511
 10
5.113815183824044
 20
7.125710094322718
 30
0.2716974736085831
 10
5.086965961929308
 20
7.129657916454472
 30
0.2755905511839956
 10
5.060549285131855
 20
7.129657916454472
 30
0.2755905511839956
1001
ACAD_VIEW_EDGE_ID
1071
       14
1071
       -1
1071
        7
1071
        0
  0
LINE
  5
34A
330
70
100
AcDbEntity
  8
Visible
100
AcDbLine
 10
4.981809
 20
7.11884
 30
0.264103
 11
4.981809
 21
7.219857
 31
0.264103
210
0.0
220
1.0
230
0.0
  0
SPLINE
  5
34B
330
70
100
AcDbEntity
  8
Visible
100
AcDbSpline
 70
     0
 71
     3
 72
    14
 73
    10
 74
     0
 42
0.000000001
 43
0.0000000001
 40
0.2129646512800869
 40
0.2129646512800869
 40
0.2129646512800869
 40
0.2129646512800869
 40
0.2990440789194104
 40
0.2990440789194104
 40
0.5980881578388209
 40
0.5980881578388209
 40
0.8798978209865008
 40
0.8798978209865008
 40
1.161707484134181
 40
1.161707484134181
 40
1.161707484134181
 40
1.161707484134181
 10
4.981693701109179
 20
7.484054505523281
 30
0.2640680760669056
 10
4.971716545529488
 20
7.48863759532785
 30
0.26108872273835
 10
4.961990781144777
 20
7.493786527329757
 30
0.2575697044194385
 10
4.919655461688307
 20
7.518259095877433
 30
0.2395326758196461
 10
4.889921579504516
 20
7.540734594928933
 30
0.2191161895188998
 10
4.842830332263474
 20
7.577821849686581
 30
0.1720249422760389
 10
4.821806355992521
 20
7.595573903981501
 30
0.142479200314483
 10
4.792829476091355
 20
7.620397952061408
 30
0.0749974707032379
 10
4.784958733951498
 20
7.627351949074269
 30
0.036982895429901
 10
4.784958733951498
 20
7.627351949074269
 30
0.000000000003638
1001
ACAD_VIEW_EDGE_ID
1071
       19
1071
       -1
1071
        7
1071
        0
  0
SPLINE
  5
34C
330
70
100
AcDbEntity
  8
Visible
100
AcDbSpline
 70
     0
 71
     3
 72
    14
 73
    10
 74
     0
 42
0.000000001
 43
0.0000000001
 40
-1.161707484134181
 40
-1.161707484134181
 40
-1.161707484134181
 40
-1.161707484134181
 40
-0.8798978209865015
 40
-0.8798978209865015
 40
-0.5980881578388218
 40
-0.5980881578388218
 40
-0.2990440789194109
 40
-0.2990440789194109
 40
-0.2126327301455481
 40
-0.2126327301455481
 40
-0.2126327301455481
 40
-0.2126327301455481
 10
5.336139836314032
 20
7.627351949074268
 30
0.000000000003638
 10
5.336139836314032
 20
7.627351949074268
 30
0.036982895429901
 10
5.328269094174174
 20
7.620397952061408
 30
0.0749974707032379
 10
5.299292214273009
 20
7.595573903981502
 30
0.142479200314483
 10
5.278268238002056
 20
7.577821849686581
 30
0.1720249422760389
 10
5.231176990761014
 20
7.540734594928933
 30
0.2191161895188998
 10
5.201443108577223
 20
7.518259095877434
 30
0.2395326758196461
 10
5.159071302157826
 20
7.49376543549148
 30
0.2575852497484448
 10
5.149307015988597
 20
7.488597891672698
 30
0.2611158536947187
 10
5.13928944260806
 20
7.484001513776196
 30
0.2641025170341891
1001
ACAD_VIEW_EDGE_ID
1071
       20
1071
       -1
1071
        7
1071
        0
  0
ARC
  5
34D
330
70
100
AcDbEntity
  8
Visible
100
AcDbCircle
 10
-5.060549
 20
0.0
 30
3.932228
 40
0.2755905511811031
210
0.0
220
1.0
230
0.0
100
AcDbArc
 50
0.0
 51
180.0
  0
LINE
  5
34E
330
70
100
AcDbEntity
  8
Visible
100
AcDbLine
 10
4.784959
 20
7.627352
 30
0.0
 11
4.792027
 21
7.627352
 31
0.0
210
0.0
220
1.0
230
0.0
  0
LINE
  5
34F
330
70
100
AcDbEntity
  8
Visible
100
AcDbLine
 10
5.328841
 20
7.627352
 30
0.0
 11
5.33614
 21
7.627352
 31
0.0
210
0.0
220
1.0
230
0.0
  0
LINE
  5
350
330
70
100
AcDbEntity
  8
Visible
100
AcDbLine
 10
4.784959
 20
3.932228
 30
0.0
 11
4.784959
 21
4.708213
 31
0.0
210
0.0
220
1.0
230
0.0
  0
LINE
  5
351
330
70
100
AcDbEntity
  8
Visible
100
AcDbLine
 10
4.784959
 20
5.688267
 30
0.0
 11
4.784959
 21
7.213277
 31
0.0
210
0.0
220
1.0
230
0.0
  0
LINE
  5
352
330
70
100
AcDbEntity
  8
Visible
100
AcDbLine
 10
4.784959
 20
7.411505
 30
0.0
 11
4.784959
 21
7.627352
 31
0.0
210
0.0
220
1.0
230
0.0
  0
LINE
  5
353
330
70
100
AcDbEntity
  8
Visible
100
AcDbLine
 10
5.33614
 20
3.932228
 30
0.0
 11
5.33614
 21
4.706114
 31
0.0
210
0.0
220
1.0
230
0.0
  0
LINE
  5
354
330
70
100
AcDbEntity
  8
Visible
100
AcDbLine
 10
5.33614
 20
5.690366
 30
0.0
 11
5.33614
 21
7.087982
 31
0.0
210
0.0
220
1.0
230
0.0
  0
LINE
  5
355
330
70
100
AcDbEntity
  8
Visible
100
AcDbLine
 10
5.33614
 20
7.536801
 30
0.0
 11
5.33614
 21
7.627352
 31
0.0
210
0.0
220
1.0
230
0.0
  0
ARC
  5
356
330
70
100
AcDbEntity
  8
Visible
100
AcDbCircle
 10
-5.060549
 20
4.33995
 30
0.0
 40
0.4921259842519688
210
0.0000000000002969
220
0.0
230
-1.0
100
AcDbArc
 50
235.944202
 51
304.055798
  0
ARC
  5
357
330
70
100
AcDbEntity
  8
Visible
100
AcDbCircle
 10
7.313505
 20
-0.001614
 30
5.323909
 40
0.1181102362204725
210
1.0
220
0.0
230
0.0000000000002969
100
AcDbArc
 50
0.0
 51
180.0
  0
ARC
  5
358
330
70
100
AcDbEntity
  8
Visible
100
AcDbCircle
 10
-7.313505
 20
-0.001614
 30
-4.800287
 40
0.0885826771653543
210
-1.0
220
0.0
230
-0.0000000000002969
100
AcDbArc
 50
62.25462
 51
116.129222
  0
SPLINE
  5
359
330
70
100
AcDbEntity
  8
Visible
100
AcDbSpline
 70
     0
 71
     3
 72
     8
 73
     4
 74
     0
 42
0.000000001
 43
0.0000000001
 40
-14.68852862775798
 40
-14.68852862775798
 40
-14.68852862775798
 40
-14.68852862775798
 40
-14.68297615810141
 40
-14.68297615810141
 40
-14.68297615810141
 40
-14.68297615810141
 10
5.139279035178333
 20
7.195908686712778
 30
0.0093911359417689
 10
5.139240900427466
 20
7.195977409485527
 30
0.0101254617256927
 10
5.13920272400901
 20
7.196053013058617
 30
0.0108591726984742
 10
5.139164493108182
 20
7.196135490002522
 30
0.0115921716678713
1001
ACAD_VIEW_EDGE_ID
1071
       10
1071
       -1
1071
        8
1071
        0
  0
SPLINE
  5
35A
330
70
100
AcDbEntity
  8
Visible
100
AcDbSpline
210
-0.997594705931945
220
-0.026526335285081
230
0.064040270399956
 70
    12
 71
     2
 72
     6
 73
     3
 74
     0
 42
0.000000001
 43
0.0000000001
 40
0.8278983970170338
 40
0.8278983970170338
 40
0.8278983970170338
 40
0.8281716680677304
 40
0.8281716680677304
 40
0.8281716680677304
 10
5.139174016161632
 20
7.385846225386971
 30
0.0560931832715141
 41
0.9811323012319657
 10
5.13923189072193
 20
7.385305663406189
 30
0.0567708229245909
 41
0.9824321959838622
 10
5.139289442613517
 20
7.384752502118165
 30
0.0574382173672348
 41
0.9838201315478812
1001
ACAD_VIEW_EDGE_ID
1071
       13
1071
       -1
1071
        8
1071
        0
  0
ARC
  5
35B
330
70
100
AcDbEntity
  8
Visible
100
AcDbCircle
 10
-5.138424
 20
7.313505
 30
0.001614
 40
0.2198972016140301
210
0.0000000000002969
220
0.0
230
-1.0
100
AcDbArc
 50
212.487506
 51
227.385391
  0
ARC
  5
35C
330
70
100
AcDbEntity
  8
Visible
100
AcDbCircle
 10
-5.138424
 20
7.313505
 30
0.001614
 40
0.2198972016140301
210
0.0000000000002969
220
0.0
230
-1.0
100
AcDbArc
 50
132.953501
 51
147.512494
  0
LINE
  5
35D
330
70
100
AcDbEntity
  8
Visible
100
AcDbLine
 10
5.139289
 20
7.195395
 30
-0.001614
 11
5.139174
 21
7.195395
 31
-0.001614
210
0.0
220
1.0
230
0.0
  0
LINE
  5
35E
330
70
100
AcDbEntity
  8
Visible
100
AcDbLine
 10
5.139289
 20
7.406044
 30
-0.001614
 11
5.139174
 21
7.406044
 31
-0.001614
210
0.0
220
1.0
230
0.0
  0
ARC
  5
35F
330
70
100
AcDbEntity
  8
Visible
100
AcDbCircle
 10
7.298597
 20
0.0
 30
5.139174
 40
0.2755905511811028
210
1.0
220
0.0
230
0.0000000000002969
100
AcDbArc
 50
106.60155
 51
130.703681
  0
ELLIPSE
  5
360
330
70
100
AcDbEntity
  8
Visible
100
AcDbEllipse
 10
5.060434
 20
7.298597
 30
0.0
 11
0.2755905511407432
 21
-0.2755905511407432
 31
0.000000000024222
210
0.7071067811865478
220
0.7071067811865478
230
0.00000000000021
 40
0.7071067812881902
 41
-1.57079632675095
 42
-1.281044625272134
1001
ACAD_VIEW_EDGE_ID
1071
        7
1071
       -1
1071
       10
1071
        0
  0
ELLIPSE
  5
361
330
70
100
AcDbEntity
  8
Visible
100
AcDbEllipse
 10
5.060434
 20
7.298597
 30
0.0
 11
-0.2755905511407428
 21
-0.2755905511407428
 31
0.0000000000242218
210
-0.7071067811865475
220
0.7071067811865475
230
-0.0000000000002101
 40
0.7071067812881912
 41
1.281044625272135
 42
1.570796326750951
1001
ACAD_VIEW_EDGE_ID
1071
        8
1071
       -1
1071
       10
1071
        0
  0
ARC
  5
362
330
70
100
AcDbEntity
  8
Visible
100
AcDbCircle
 10
-7.298597
 20
0.0
 30
-4.981694
 40
0.2755905528678197
210
-1.0
220
0.0
230
-0.0000000000002969
100
AcDbArc
 50
73.373408
 51
73.39845
  0
LINE
  5
363
330
70
100
AcDbEntity
  8
Visible
100
AcDbLine
 10
5.139174
 20
7.219857
 30
0.264103
 11
5.139174
 21
7.504115
 31
0.264103
210
0.0
220
1.0
230
0.0
  0
SPLINE
  5
364
330
70
100
AcDbEntity
  8
Visible
100
AcDbSpline
 70
     0
 71
     3
 72
    14
 73
    10
 74
     0
 42
0.000000001
 43
0.0000000001
 40
3.4162453220997
 40
3.4162453220997
 40
3.4162453220997
 40
3.4162453220997
 40
3.695487680410473
 40
3.695487680410473
 40
3.974730038721246
 40
3.974730038721246
 40
4.264861900760423
 40
4.264861900760423
 40
4.347705846620716
 40
4.347705846620716
 40
4.347705846620716
 40
4.347705846620716
 10
4.784843307499613
 20
7.633242554331745
 30
0.000000000003638
 10
4.784843307499613
 20
7.633242554331745
 30
0.0366459787837812
 10
4.792575794319418
 20
7.626790095785192
 30
0.0744966598631436
 10
4.821415037848055
 20
7.60370807586271
 30
0.1420129954894946
 10
4.842445394542664
 20
7.587207956065824
 30
0.1717554310089326
 10
4.889579893322661
 20
7.553445405514147
 30
0.2188899297889293
 10
4.919331217637591
 20
7.533366806286576
 30
0.2394548080992536
 10
4.961952160509099
 20
7.512298766048472
 30
0.2575992428610334
 10
4.971703385761429
 20
7.507942324393773
 30
0.2611239804391516
 10
4.981693701200128
 20
7.504114729703999
 30
0.2641025170305511
1001
ACAD_VIEW_EDGE_ID
1071
       15
1071
       -1
1071
       10
1071
        0
  0
LINE
  5
365
330
70
100
AcDbEntity
  8
Visible
100
AcDbLine
 10
4.981694
 20
7.504115
 30
0.264103
 11
4.981694
 21
7.219857
 31
0.264103
210
0.0
220
1.0
230
0.0
  0
SPLINE
  5
366
330
70
100
AcDbEntity
  8
Visible
100
AcDbSpline
 70
     0
 71
     3
 72
    14
 73
    10
 74
     0
 42
0.000000001
 43
0.0000000001
 40
0.2072879161788841
 40
0.2072879161788841
 40
0.2072879161788841
 40
0.2072879161788841
 40
0.2901318620391773
 40
0.2901318620391773
 40
0.5802637240783547
 40
0.5802637240783547
 40
0.8595060823891273
 40
0.8595060823891273
 40
1.1387484406999
 40
1.1387484406999
 40
1.1387484406999
 40
1.1387484406999
 10
5.139174016161632
 20
7.504114729703999
 30
0.2641025170305511
 10
5.149164331598512
 20
7.507942324393773
 30
0.2611239804391516
 10
5.158915556850843
 20
7.512298766048472
 30
0.2575992428610334
 10
5.20153649972417
 20
7.533366806286576
 30
0.2394548080992536
 10
5.231287824037281
 20
7.553445405514147
 30
0.2188899297889293
 10
5.278422322817277
 20
7.587207956065824
 30
0.1717554310089326
 10
5.299452679513706
 20
7.60370807586271
 30
0.1420129954894946
 10
5.328291923042343
 20
7.626790095785192
 30
0.0744966598631436
 10
5.336024409862147
 20
7.633242554331745
 30
0.0366459787837812
 10
5.336024409862147
 20
7.633242554331745
 30
0.000000000003638
1001
ACAD_VIEW_EDGE_ID
1071
       21
1071
       -1
1071
       10
1071
        0
  0
SPLINE
  5
367
330
70
100
AcDbEntity
  8
Visible
100
AcDbSpline
 70
     0
 71
     3
 72
    22
 73
    18
 74
     0
 42
0.000000001
 43
0.0000000001
 40
0.3437529438379148
 40
0.3437529438379148
 40
0.3437529438379148
 40
0.3437529438379148
 40
0.3513109660372399
 40
0.3513109660372399
 40
0.3588689882365649
 40
0.3588689882365649
 40
0.3739850326352148
 40
0.3739850326352148
 40
0.4042171214325149
 40
0.4042171214325149
 40
0.464681299027115
 40
0.464681299027115
 40
0.5856096542163152
 40
0.5856096542163152
 40
0.6474638112548118
 40
0.6474638112548118
 40
0.6483697357685667
 40
0.6483697357685667
 40
0.6483697357685667
 40
0.6483697357685667
 10
5.552559001424015
 20
7.973952264892616
 30
0.7874024163156719
 10
5.552559001424015
 20
7.973952264892616
 30
0.7883942827465944
 10
5.552556069835191
 20
7.974127648384416
 30
0.7893641001810466
 10
5.552544329226293
 20
7.974390678506354
 30
0.7913273913163721
 10
5.552535494745825
 20
7.974531869559361
 30
0.7923133189706278
 10
5.552499786746921
 20
7.974939274340415
 30
0.7952908809511428
 10
5.552463666357652
 20
7.975225881327492
 30
0.7972984432090016
 10
5.552316379114927
 20
7.976073355943326
 30
0.8033765041091101
 10
5.55216576388193
 20
7.976645507910247
 30
0.8075116878153494
 10
5.551546515604059
 20
7.978335535268656
 30
0.8200443364694365
 10
5.550905640480777
 20
7.979436959621112
 30
0.8286111363340751
 10
5.548304717980499
 20
7.982331461280915
 30
0.8542116366224945
 10
5.545619424705364
 20
7.983760330350643
 30
0.8712711554344423
 10
5.540774012530164
 20
7.983610794571839
 30
0.8947634028227184
 10
5.538555765453565
 20
7.983109868238053
 30
0.9042350380404968
 10
5.536513651848508
 20
7.981464968139376
 30
0.9120426996414607
 10
5.536483902071267
 20
7.981440724655342
 30
0.9121562791315227
 10
5.536453901630011
 20
7.98141597555389
 30
0.9122706461839698
1001
ACAD_VIEW_EDGE_ID
1071
       23
1071
       -1
1071
       10
1071
        0
  0
SPLINE
  5
368
330
70
100
AcDbEntity
  8
Visible
100
AcDbSpline
 70
     0
 71
     3
 72
    16
 73
    12
 74
     0
 42
0.000000001
 43
0.0000000001
 40
0.3166829533326489
 40
0.3166829533326489
 40
0.3166829533326489
 40
0.3166829533326489
 40
0.4922883918078198
 40
0.4922883918078198
 40
0.9845767836156394
 40
0.9845767836156394
 40
1.47181069110683
 40
1.47181069110683
 40
1.715427644852425
 40
1.715427644852425
 40
1.959044598598021
 40
1.959044598598021
 40
1.959044598598021
 40
1.959044598598021
 10
5.536453901630011
 20
7.98141597555389
 30
0.9122706461839698
 10
5.530506021996188
 20
7.976509225194173
 30
0.934945027984213
 10
5.522937629451917
 20
7.97041692902269
 30
0.9571614559499721
 10
5.488578349943054
 20
7.944226588892741
 30
1.038657600909573
 10
5.451240321666773
 20
7.918782051799031
 30
1.092566004581385
 10
5.366037108509772
 20
7.874005282339242
 30
1.177769217740205
 10
5.312029100063227
 20
7.851224755885476
 30
1.21540013133017
 10
5.221447428468309
 20
7.827275159184312
 30
1.253595033531382
 10
5.189673577933717
 20
7.820939077998527
 30
1.26339298901621
 10
5.125153003044033
 20
7.812503033903955
 30
1.276361885691585
 10
5.092404587518103
 20
7.810407908662454
 30
1.279527559057896
 10
5.060433858679971
 20
7.810407908662454
 30
1.279527559057896
1001
ACAD_VIEW_EDGE_ID
1071
       24
1071
       -1
1071
       10
1071
        0
  0
SPLINE
  5
369
330
70
100
AcDbEntity
  8
Visible
100
AcDbSpline
 70
     0
 71
     3
 72
    16
 73
    12
 74
     0
 42
0.000000001
 43
0.0000000001
 40
1.959044598598021
 40
1.959044598598021
 40
1.959044598598021
 40
1.959044598598021
 40
2.202661552343616
 40
2.202661552343616
 40
2.446278506089211
 40
2.446278506089211
 40
2.933512413580402
 40
2.933512413580402
 40
3.425800805388221
 40
3.425800805388221
 40
3.601406243863392
 40
3.601406243863392
 40
3.601406243863392
 40
3.601406243863392
 10
5.060433858679971
 20
7.810407908662454
 30
1.279527559057896
 10
5.028463129841838
 20
7.810407908662454
 30
1.279527559057896
 10
4.995714714317728
 20
7.812503033903955
 30
1.276361885691585
 10
4.931194139426224
 20
7.820939077998527
 30
1.26339298901621
 10
4.899420288893452
 20
7.827275159184312
 30
1.253595033531382
 10
4.808838617298533
 20
7.851224755885476
 30
1.21540013133017
 10
4.754830608851989
 20
7.874005282339242
 30
1.177769217740205
 10
4.669627395694988
 20
7.918782051799031
 30
1.092566004581385
 10
4.632289367418707
 20
7.944226588892741
 30
1.038657600909573
 10
4.597930087909844
 20
7.97041692902269
 30
0.9571614559499721
 10
4.590361695365572
 20
7.976509225194173
 30
0.934945027984213
 10
4.58441381573175
 20
7.98141597555389
 30
0.9122706461839698
1001
ACAD_VIEW_EDGE_ID
1071
       25
1071
       -1
1071
       10
1071
        0
  0
SPLINE
  5
36A
330
70
100
AcDbEntity
  8
Visible
100
AcDbSpline
 70
     0
 71
     3
 72
    22
 73
    18
 74
     0
 42
0.000000001
 43
0.0000000001
 40
0.0391361519072631
 40
0.0391361519072631
 40
0.0391361519072631
 40
0.0391361519072631
 40
0.0400420764210185
 40
0.0400420764210185
 40
0.1018962334595151
 40
0.1018962334595151
 40
0.222824588648715
 40
0.222824588648715
 40
0.2832887662433149
 40
0.2832887662433149
 40
0.3135208550406149
 40
0.3135208550406149
 40
0.3286368994392649
 40
0.3286368994392649
 40
0.3361949216385899
 40
0.3361949216385899
 40
0.3437529438379149
 40
0.3437529438379149
 40
0.3437529438379149
 40
0.3437529438379149
 10
4.58441381573175
 20
7.98141597555389
 30
0.9122706461839698
 10
4.584383815290493
 20
7.981440724655342
 30
0.9121562791315227
 10
4.584354065513252
 20
7.981464968139376
 30
0.9120426996414607
 10
4.582311951906376
 20
7.983109868238052
 30
0.9042350380404968
 10
4.580093704831597
 20
7.983610794571839
 30
0.8947634028227184
 10
4.575248292656397
 20
7.983760330350643
 30
0.8712711554344423
 10
4.572562999379442
 20
7.982331461280915
 30
0.8542116366224945
 10
4.569962076880983
 20
7.979436959621112
 30
0.8286111363340751
 10
4.569321201757702
 20
7.978335535268656
 30
0.8200443364694365
 10
4.56870195347983
 20
7.976645507910247
 30
0.8075116878153494
 10
4.568551338246834
 20
7.976073355943326
 30
0.8033765041091101
 10
4.568404051004108
 20
7.975225881327492
 30
0.7972984432090016
 10
4.568367930613021
 20
7.974939274340415
 30
0.7952908809511428
 10
4.568332222614117
 20
7.974531869559361
 30
0.7923133189706278
 10
4.568323388133649
 20
7.974390678506354
 30
0.7913273913163721
 10
4.56831164752657
 20
7.974127648384416
 30
0.7893641001810466
 10
4.568308715937746
 20
7.973952264892616
 30
0.7883942827465944
 10
4.568308715937746
 20
7.973952264892616
 30
0.7874024163156719
1001
ACAD_VIEW_EDGE_ID
1071
       26
1071
       -1
1071
       10
1071
        0
  0
LINE
  5
36B
330
70
100
AcDbEntity
  8
Visible
100
AcDbLine
 10
4.568309
 20
7.973952
 30
0.787402
 11
4.568309
 21
7.968804
 31
0.787402
210
0.0
220
1.0
230
0.0
  0
SPLINE
  5
36C
330
70
100
AcDbEntity
  8
Visible
100
AcDbSpline
 70
     0
 71
     3
 72
    24
 73
    20
 74
     0
 42
0.000000001
 43
0.0000000001
 40
6.470569909110528
 40
6.470569909110528
 40
6.470569909110528
 40
6.470569909110528
 40
6.480392878344787
 40
6.480392878344787
 40
6.490215847579046
 40
6.490215847579046
 40
6.509861786047564
 40
6.509861786047564
 40
6.5491536629846
 40
6.5491536629846
 40
6.627737416858674
 40
6.627737416858674
 40
6.78490492460682
 40
6.78490492460682
 40
7.099239940103112
 40
7.099239940103112
 40
7.413574955599404
 40
7.413574955599404
 40
7.552066411691979
 40
7.552066411691979
 40
7.552066411691979
 40
7.552066411691979
 10
4.568308715937746
 20
7.968804149673994
 30
0.7874024163156719
 10
4.568308715937746
 20
7.968804149673994
 30
0.7886915198905627
 10
4.568313311057863
 20
7.968446315977161
 30
0.7897517268884258
 10
4.568326894786878
 20
7.967644267791847
 30
0.7917486308488151
 10
4.568336126802023
 20
7.967176321740381
 30
0.7926757123823336
 10
4.568370608194527
 20
7.96572999462097
 30
0.7954196021619282
 10
4.568402380518818
 20
7.964701045396036
 30
0.7971624579749915
 10
4.568525520422554
 20
7.961564643284123
 30
0.8024242299779871
 10
4.568644389644759
 20
7.959400045862532
 30
0.8059151053439563
 10
4.569118333163714
 20
7.9528320598112
 30
0.8164885074038465
 10
4.569599893960912
 20
7.948252827922783
 30
0.8237793060325202
 10
4.571559661515493
 20
7.934474039342958
 30
0.8457602647577004
 10
4.573638713933178
 20
7.924721419259597
 30
0.8613339664534578
 10
4.582228052871869
 20
7.895920593552933
 30
0.9078162303412682
 10
4.591612699663528
 20
7.875816987328851
 30
0.9408936414602067
 10
4.617299957242721
 20
7.839518208785592
 30
1.004163256920946
 10
4.634003678131193
 20
7.822398029106418
 30
1.035833155392538
 10
4.664265931211048
 20
7.801971211857964
 30
1.079814322718448
 10
4.67435338505129
 20
7.796301827693583
 30
1.09304394870378
 10
4.685333744531817
 20
7.791431895142101
 30
1.105972754679896
1001
ACAD_VIEW_EDGE_ID
1071
       28
1071
       -1
1071
       10
1071
        0
  0
SPLINE
  5
36D
330
70
100
AcDbEntity
  8
Visible
100
AcDbSpline
 70
     0
 71
     3
 72
    14
 73
    10
 74
     0
 42
0.000000001
 43
0.0000000001
 40
4.717275504021567
 40
4.717275504021567
 40
4.717275504021567
 40
4.717275504021567
 40
4.821576014752759
 40
4.821576014752759
 40
5.302682727539751
 40
5.302682727539751
 40
5.543236083933246
 40
5.543236083933246
 40
5.783789440326742
 40
5.783789440326742
 40
5.783789440326742
 40
5.783789440326742
 10
4.685333744531817
 20
7.791431895142101
 30
1.105972754679896
 10
4.694076541336471
 20
7.787554350802063
 30
1.116266946211908
 10
4.703145792271243
 20
7.783695375478138
 30
1.126084401159459
 10
4.755360946703149
 20
7.762499845065675
 30
1.178299555589546
 10
4.80986174219106
 20
7.744419896935964
 30
1.216002285700596
 10
4.90055699522054
 20
7.72537758262385
 30
1.253986619605711
 10
4.93226271705862
 20
7.720336333122363
 30
1.26366811515254
 10
4.996416146426781
 20
7.713636882747302
 30
1.276440850342623
 10
5.02886517673869
 20
7.71198271181206
 30
1.279527559057896
 10
5.060433858679971
 20
7.71198271181206
 30
1.279527559057896
1001
ACAD_VIEW_EDGE_ID
1071
       29
1071
       -1
1071
       10
1071
        0
  0
SPLINE
  5
36E
330
70
100
AcDbEntity
  8
Visible
100
AcDbSpline
 70
     0
 71
     3
 72
    14
 73
    10
 74
     0
 42
0.000000001
 43
0.0000000001
 40
5.783789440326742
 40
5.783789440326742
 40
5.783789440326742
 40
5.783789440326742
 40
6.024342796720238
 40
6.024342796720238
 40
6.264896153113734
 40
6.264896153113734
 40
6.746002865900726
 40
6.746002865900726
 40
6.850303376631917
 40
6.850303376631917
 40
6.850303376631917
 40
6.850303376631917
 10
5.060433858679971
 20
7.71198271181206
 30
1.279527559057896
 10
5.092002540621251
 20
7.71198271181206
 30
1.279527559057896
 10
5.124451570934979
 20
7.713636882747302
 30
1.276440850342623
 10
5.188605000303141
 20
7.720336333122363
 30
1.26366811515254
 10
5.220310722139402
 20
7.72537758262385
 30
1.253986619605711
 10
5.311005975168882
 20
7.744419896935964
 30
1.216002285700596
 10
5.365506770658612
 20
7.762499845065675
 30
1.178299555589546
 10
5.417721925088699
 20
7.783695375478138
 30
1.126084401159459
 10
5.42679117602529
 20
7.787554350802063
 30
1.116266946211908
 10
5.435533972829944
 20
7.791431895142102
 30
1.105972754679896
1001
ACAD_VIEW_EDGE_ID
1071
       30
1071
       -1
1071
       10
1071
        0
  0
SPLINE
  5
36F
330
70
100
AcDbEntity
  8
Visible
100
AcDbSpline
 70
     0
 71
     3
 72
    24
 73
    20
 74
     0
 42
0.000000001
 43
0.0000000001
 40
5.389073406529078
 40
5.389073406529078
 40
5.389073406529078
 40
5.389073406529078
 40
5.527564862621652
 40
5.527564862621652
 40
5.841899878117944
 40
5.841899878117944
 40
6.156234893614236
 40
6.156234893614236
 40
6.313402401362382
 40
6.313402401362382
 40
6.391986155236455
 40
6.391986155236455
 40
6.431278032173492
 40
6.431278032173492
 40
6.45092397064201
 40
6.45092397064201
 40
6.460746939876269
 40
6.460746939876269
 40
6.470569909110528
 40
6.470569909110528
 40
6.470569909110528
 40
6.470569909110528
 10
5.435533972829944
 20
7.791431895142102
 30
1.105972754679896
 10
5.446514332308652
 20
7.796301827693583
 30
1.09304394870378
 10
5.456601786150713
 20
7.801971211857964
 30
1.079814322718448
 10
5.486864039228748
 20
7.822398029106418
 30
1.035833155392538
 10
5.503567760117221
 20
7.839518208785592
 30
1.004163256920946
 10
5.529255017698233
 20
7.875816987328851
 30
0.9408936414602067
 10
5.538639664488073
 20
7.895920593552933
 30
0.9078162303412682
 10
5.547229003428583
 20
7.924721419259597
 30
0.8613339664534578
 10
5.549308055846267
 20
7.934474039342958
 30
0.8457602647577004
 10
5.551267823400849
 20
7.948252827922783
 30
0.8237793060325202
 10
5.551749384198046
 20
7.9528320598112
 30
0.8164885074038465
 10
5.552223327717001
 20
7.959400045862532
 30
0.8059151053439563
 10
5.552342196937388
 20
7.961564643284122
 30
0.8024242299779871
 10
5.552465336842942
 20
7.964701045396034
 30
0.7971624579749915
 10
5.552497109167234
 20
7.96572999462097
 30
0.7954196021619282
 10
5.552531590557919
 20
7.967176321740381
 30
0.7926757123823336
 10
5.552540822573064
 20
7.967644267791841
 30
0.7917486308488151
 10
5.552554406302078
 20
7.968446315977157
 30
0.7897517268884258
 10
5.552559001424015
 20
7.968804149673994
 30
0.7886915198905627
 10
5.552559001424015
 20
7.968804149673994
 30
0.7874024163156719
1001
ACAD_VIEW_EDGE_ID
1071
       31
1071
       -1
1071
       10
1071
        0
  0
LINE
  5
370
330
70
100
AcDbEntity
  8
Visible
100
AcDbLine
 10
5.552559
 20
7.973952
 30
0.787402
 11
5.552559
 21
7.968804
 31
0.787402
210
0.0
220
1.0
230
0.0
  0
LINE
  5
371
330
70
100
AcDbEntity
  8
Visible
100
AcDbLine
 10
5.336024
 20
7.753981
 30
0.0
 11
5.336024
 21
7.633243
 31
0.0
210
0.0
220
1.0
230
0.0
  0
LINE
  5
372
330
70
100
AcDbEntity
  8
Visible
100
AcDbLine
 10
4.784843
 20
7.753981
 30
0.0
 11
4.784843
 21
7.633243
 31
0.0
210
0.0
220
1.0
230
0.0
  0
ARC
  5
373
330
70
100
AcDbEntity
  8
Visible
100
AcDbCircle
 10
11.776414
 20
-5.299726
 30
5.824452
 40
0.9448818897637799
210
0.707106781186548
220
-0.4082482904638649
230
0.577350269189624
100
AcDbArc
 50
15.265377
 51
164.734623
  0
SPLINE
  5
374
330
70
100
AcDbEntity
  8
Visible
100
AcDbSpline
 70
     0
 71
     3
 72
    16
 73
    12
 74
     0
 42
0.000000001
 43
0.0000000001
 40
1.754182480230681
 40
1.754182480230681
 40
1.754182480230681
 40
1.754182480230681
 40
1.894445121261714
 40
1.894445121261714
 40
2.165796880793814
 40
2.165796880793814
 40
2.437148640325913
 40
2.437148640325913
 40
2.708500399858013
 40
2.708500399858013
 40
2.836430674774685
 40
2.836430674774685
 40
2.836430674774685
 40
2.836430674774685
 10
14.20268799102194
 20
5.569194847568724
 30
0.8123049268306203
 10
14.18450177842185
 20
5.566705235049994
 30
0.8063930586959031
 10
14.1663164814401
 20
5.565469454496451
 30
0.7991024712773652
 10
14.11490494580282
 20
5.567033268845989
 30
0.7744514719197469
 10
14.08344612240051
 20
5.575035530036984
 30
0.7541959610480263
 10
14.03308531682267
 20
5.604111354694396
 30
0.7130765354831965
 10
14.01192665380056
 20
5.626487813454332
 30
0.6903700485891023
 10
13.98419868425588
 20
5.679570315836826
 30
0.6448858958774509
 10
13.97754711600026
 20
5.710006536114633
 30
0.6218442999015679
 10
13.97754711600208
 20
5.751422454422936
 30
0.5897444608763181
 10
13.97903208361929
 20
5.765089932468072
 30
0.5790372467745329
 10
13.98207208329238
 20
5.77853719073937
 30
0.5681281985416718
1001
ACAD_VIEW_EDGE_ID
1071
        1
1071
       -1
1071
        3
1071
        0
  0
CIRCLE
  5
375
330
70
100
AcDbEntity
  8
Visible
100
AcDbCircle
 10
11.776414
 20
-5.299726
 30
8.475898
 40
0.4921259842519687
210
0.7071067811865479
220
-0.4082482904638635
230
0.5773502691896251
  0
ARC
  5
376
330
70
100
AcDbEntity
  8
Visible
100
AcDbCircle
 10
11.776414
 20
-5.299726
 30
5.911066
 40
0.9842519685039372
210
0.7071067811865479
220
-0.4082482904638637
230
0.5773502691896252
100
AcDbArc
 50
360.0
 51
180.0
  0
ARC
  5
377
330
70
100
AcDbEntity
  8
Visible
100
AcDbCircle
 10
11.776414
 20
-5.299726
 30
6.107917
 40
0.9842519685039365
210
0.707106781186548
220
-0.4082482904638634
230
0.577350269189625
100
AcDbArc
 50
300.0
 51
337.507324
  0
ARC
  5
378
330
70
100
AcDbEntity
  8
Visible
100
AcDbCircle
 10
11.776414
 20
-5.299726
 30
6.107917
 40
0.9842519685039372
210
0.7071067811865479
220
-0.4082482904638637
230
0.5773502691896253
100
AcDbArc
 50
13.556937
 51
240.0
  0
ARC
  5
379
330
70
100
AcDbEntity
  8
Visible
100
AcDbCircle
 10
11.776414
 20
-5.299726
 30
6.107917
 40
0.4921259842519691
210
0.7071067811865478
220
-0.4082482904638636
230
0.5773502691896253
100
AcDbArc
 50
360.0
 51
180.0
  0
LINE
  5
37A
330
70
100
AcDbEntity
  8
Visible
100
AcDbLine
 10
13.209951
 20
7.107979
 30
-0.914452
 11
13.212301
 21
7.106622
 31
-0.912534
210
0.0000000000000001
220
0.816496580927726
230
0.5773502691896261
  0
LINE
  5
37B
330
70
100
AcDbEntity
  8
Visible
100
AcDbLine
 10
12.225699
 20
5.403205
 30
-0.914452
 11
12.364893
 21
5.322841
 31
-0.800801
210
0.0000000000000001
220
0.816496580927726
230
0.5773502691896261
  0
LINE
  5
37C
330
70
100
AcDbEntity
  8
Visible
100
AcDbLine
 10
13.103082
 20
6.601421
 30
-0.800801
 11
13.982005
 21
6.093975
 31
-0.083163
210
0.0000000000000001
220
0.816496580927726
230
0.5773502691896261
  0
LINE
  5
37D
330
70
100
AcDbEntity
  8
Visible
100
AcDbLine
 10
14.533186
 20
5.775751
 30
0.366874
 11
14.777498
 21
5.634697
 31
0.566354
210
0.0000000000000001
220
0.816496580927726
230
0.5773502691896261
  0
LINE
  5
37E
330
70
100
AcDbEntity
  8
Visible
100
AcDbLine
 10
12.610956
 20
5.749034
 30
-0.800801
 11
14.285372
 21
4.78231
 31
0.566354
210
0.0000000000000001
220
0.816496580927726
230
0.5773502691896261
  0
LINE
  5
37F
330
70
100
AcDbEntity
  8
Visible
100
AcDbLine
 10
12.291529
 20
7.375733
 30
-0.800995
 11
12.291529
 21
7.343445
 31
-0.823826
210
0.0000000000000001
220
0.816496580927726
230
0.5773502691896261
  0
LINE
  5
380
330
70
100
AcDbEntity
  8
Visible
100
AcDbLine
 10
12.180173
 20
7.440024
 30
-0.891917
 11
12.291529
 21
7.375733
 31
-0.800995
210
0.0000000000000001
220
0.816496580927726
230
0.5773502691896261
  0
LINE
  5
381
330
70
100
AcDbEntity
  8
Visible
100
AcDbLine
 10
12.180173
 20
7.440024
 30
-0.891917
 11
12.180173
 21
7.346981
 31
-0.957708
210
0.0000000000000001
220
0.816496580927726
230
0.5773502691896261
  0
LINE
  5
382
330
70
100
AcDbEntity
  8
Visible
100
AcDbLine
 10
12.163748
 20
7.269671
 30
-0.719494
 11
12.163748
 21
7.301959
 31
-0.696663
210
0.0000000000000001
220
0.816496580927726
230
0.5773502691896261
  0
LINE
  5
383
330
70
100
AcDbEntity
  8
Visible
100
AcDbLine
 10
12.163748
 20
7.301959
 30
-0.696663
 11
12.052393
 21
7.36625
 31
-0.787584
210
0.0000000000000001
220
0.816496580927726
230
0.5773502691896261
  0
ARC
  5
384
330
70
100
AcDbEntity
  8
Visible
100
AcDbCircle
 10
-12.397081
 20
-4.695484
 30
-5.060358
 40
0.0787401574803147
210
-0.7071067811865479
220
0.4082482904638633
230
-0.5773502691896252
100
AcDbArc
 50
225.0
 51
270.170456
  0
ARC
  5
385
330
70
100
AcDbEntity
  8
Visible
100
AcDbCircle
 10
-11.776414
 20
-5.299726
 30
-5.060358
 40
0.984251968503921
210
-0.707106781186548
220
0.408248290463863
230
-0.5773502691896253
100
AcDbArc
 50
129.732832
 51
140.267168
  0
ARC
  5
386
330
70
100
AcDbEntity
  8
Visible
100
AcDbCircle
 10
-11.776414
 20
-5.299726
 30
-5.217838
 40
0.9842519685039372
210
-0.707106781186548
220
0.4082482904638633
230
-0.5773502691896251
100
AcDbArc
 50
140.267168
 51
202.160929
  0
ARC
  5
387
330
70
100
AcDbEntity
  8
Visible
100
AcDbCircle
 10
-11.776414
 20
-5.299726
 30
-5.217838
 40
0.9842519685039372
210
-0.707106781186548
220
0.4082482904638633
230
-0.5773502691896251
100
AcDbArc
 50
337.839071
 51
129.732832
  0
ARC
  5
388
330
70
100
AcDbEntity
  8
Visible
100
AcDbCircle
 10
-11.776414
 20
-5.299726
 30
-4.981618
 40
0.9842519685039372
210
-0.707106781186548
220
0.4082482904638628
230
-0.5773502691896254
100
AcDbArc
 50
0.0
 51
180.0
  0
LINE
  5
389
330
70
100
AcDbEntity
  8
Visible
100
AcDbLine
 10
11.735513
 20
5.686214
 30
-1.314688
 11
11.56848
 21
5.78265
 31
-1.45107
210
0.0000000000000001
220
0.816496580927726
230
0.5773502691896261
  0
LINE
  5
38A
330
70
100
AcDbEntity
  8
Visible
100
AcDbLine
 10
12.719765
 20
7.390988
 30
-1.314688
 11
12.552732
 21
7.487425
 31
-1.45107
210
0.0000000000000001
220
0.816496580927726
230
0.5773502691896261
  0
ARC
  5
38B
330
70
100
AcDbEntity
  8
Visible
100
AcDbCircle
 10
-11.776414
 20
-5.299726
 30
-5.304452
 40
0.2559055118110238
210
-0.707106781186548
220
0.4082482904638628
230
-0.5773502691896254
100
AcDbArc
 50
49.573094
 51
130.426906
  0
ARC
  5
38C
330
70
100
AcDbEntity
  8
Visible
100
AcDbCircle
 10
11.776414
 20
-5.299726
 30
5.304452
 40
0.9448818897637799
210
0.707106781186548
220
-0.4082482904638628
230
0.5773502691896254
100
AcDbArc
 50
337.098726
 51
202.901274
  0
ARC
  5
38D
330
70
100
AcDbEntity
  8
Visible
100
AcDbCircle
 10
11.776414
 20
-5.299726
 30
5.217838
 40
0.9448818897637801
210
0.707106781186548
220
-0.4082482904638628
230
0.5773502691896254
100
AcDbArc
 50
360.0
 51
180.0
  0
LINE
  5
38E
330
70
100
AcDbEntity
  8
Visible
100
AcDbLine
 10
12.70008
 20
7.356893
 30
-1.314688
 11
12.761325
 21
7.321533
 31
-1.264681
210
0.0000000000000001
220
0.816496580927726
230
0.5773502691896261
  0
LINE
  5
38F
330
70
100
AcDbEntity
  8
Visible
100
AcDbLine
 10
11.755198
 20
5.720309
 30
-1.314688
 11
11.816443
 21
5.684949
 31
-1.264681
210
0.0000000000000001
220
0.816496580927726
230
0.5773502691896261
  0
SPLINE
  5
390
330
70
100
AcDbEntity
  8
Visible
100
AcDbSpline
 70
     1
 71
     3
 72
    46
 73
    42
 74
     0
 42
0.000000001
 43
0.0000000001
 40
0.0
 40
0.0
 40
0.0
 40
0.0
 40
0.1176160583361983
 40
0.1176160583361983
 40
0.2352321166723966
 40
0.2352321166723966
 40
0.4704642333447932
 40
0.4704642333447932
 40
0.6974993473189302
 40
0.6974993473189302
 40
0.9245344612930672
 40
0.9245344612930672
 40
1.151569575267204
 40
1.151569575267204
 40
1.378604689241342
 40
1.378604689241342
 40
1.613836805913738
 40
1.613836805913738
 40
1.731452864249937
 40
1.731452864249937
 40
1.849068922586135
 40
1.849068922586135
 40
1.966684980922334
 40
1.966684980922334
 40
2.084301039258532
 40
2.084301039258532
 40
2.31953315593093
 40
2.31953315593093
 40
2.546568269905066
 40
2.546568269905066
 40
2.773603383879203
 40
2.773603383879203
 40
3.000638497853339
 40
3.000638497853339
 40
3.227673611827476
 40
3.227673611827476
 40
3.462905728499873
 40
3.462905728499873
 40
3.580521786836072
 40
3.580521786836072
 40
3.698137845172271
 40
3.698137845172271
 40
3.698137845172271
 40
3.698137845172271
 10
14.21203056822576
 20
6.937951944984888
 30
1.782361798055717
 10
14.21203056822576
 20
6.950554715260295
 30
1.791273302378613
 10
14.21478397745993
 20
6.962708749651937
 30
1.800472475231799
 10
14.22477204115073
 20
6.985958951760949
 30
1.818607527124186
 10
14.23197482753965
 20
6.997082795036476
 30
1.827525447131847
 10
14.25797882995191
 20
7.029263572509989
 30
1.852243561435898
 10
14.28117114715421
 20
7.049354568023773
 30
1.865814845690692
 10
14.32744500258939
 20
7.085343629739327
 30
1.881427624457501
 10
14.35396338011667
 20
7.1038131666146
 30
1.884970957898985
 10
14.40595659655826
 20
7.137847338558458
 30
1.877482136156686
 10
14.4313997668816
 20
7.153430957366254
 30
1.866317023394003
 10
14.47353574290735
 20
7.177758174467271
 30
1.831913143034398
 10
14.4916492258182
 20
7.18732200112845
 30
1.807514397356499
 10
14.51741346149736
 20
7.198181115099032
 30
1.751514525298262
 10
14.52518373394485
 20
7.199508139516183
 30
1.719974626388648
 10
14.5332142479321
 20
7.194871720105766
 30
1.660022515658056
 10
14.53373288240816
 20
7.188470248925113
 30
1.627091320428007
 10
14.53213020712899
 20
7.170377584241578
 30
1.582449605952206
 10
14.5312711098424
 20
7.162916271577159
 30
1.568352085481819
 10
14.52988741242205
 20
7.144633802650787
 30
1.543191597946133
 10
14.52939345427165
 20
7.13378426294912
 30
1.532147591009561
 10
14.52939345427165
 20
7.108578722399215
 30
1.514324582363769
 10
14.52988741242205
 20
7.09454981957333
 30
1.507776873882903
 10
14.5312711098424
 20
7.064734128125564
 30
1.49892682605423
 10
14.53213020712899
 20
7.048955754139569
 30
1.496591406503284
 10
14.53373288240816
 20
7.000836253870147
 30
1.49441405014295
 10
14.5332142479321
 20
6.967654601530739
 30
1.499355750311224
 10
14.52518373394485
 20
6.90958573633452
 30
1.51496852908167
 10
14.51741346149736
 20
6.88029197594551
 30
1.526732959337095
 10
14.4916492258182
 20
6.831114494898429
 30
1.555637654191741
 10
14.47353574290735
 20
6.811299079090531
 30
1.572787431665346
 10
14.4313997668816
 20
6.786971861989513
 30
1.607191312024951
 10
14.40595659655826
 20
6.781639832328437
 30
1.625605392991928
 10
14.35396338011667
 20
6.785924027461078
 30
1.660189391937819
 10
14.32744500258939
 20
6.795421226557664
 30
1.676421527150523
 10
14.28117114715421
 20
6.822137449448746
 30
1.70514808034386
 10
14.25797882995191
 20
6.841629577455023
 30
1.71956629115084
 10
14.23197482753965
 20
6.875660964934468
 30
1.741667247682926
 10
14.22477204115073
 20
6.887776808309354
 30
1.749182267696596
 10
14.21478397745993
 20
6.912624766574481
 30
1.765057751168569
 10
14.21203056822576
 20
6.92534917471039
 30
1.773450293732821
 10
14.21203056822576
 20
6.937951944984888
 30
1.782361798055717
1001
ACAD_VIEW_EDGE_ID
1071
        2
1071
       -1
1071
        7
1071
        0
  0
ARC
  5
391
330
70
100
AcDbEntity
  8
Visible
100
AcDbCircle
 10
-13.273139
 20
-3.80659
 30
-8.223888
 40
0.2244094488188978
210
-0.707106781186548
220
0.408248290463863
230
-0.5773502691896253
100
AcDbArc
 50
203.166965
 51
348.331798
  0
ELLIPSE
  5
392
330
70
100
AcDbEntity
  8
Visible
100
AcDbEllipse
 10
14.356246
 20
7.039045
 30
1.638809
 11
-0.0946520953108321
 21
-0.0546474127070711
 31
0.0772831121989397
210
0.7071067811865479
220
-0.4082482904638633
230
0.5773502691896254
 40
0.9999999314233539
 41
-0.4751551516194443
 42
3.84440483988106
1001
ACAD_VIEW_EDGE_ID
1071
        4
1071
       -1
1071
        7
1071
        0
  0
ELLIPSE
  5
393
330
70
100
AcDbEntity
  8
Visible
100
AcDbEllipse
 10
14.314473
 20
7.063145
 30
1.604726
 11
-0.0946520953101706
 21
-0.0546474127066891
 31
0.0772831121983996
210
0.707106781186548
220
-0.4082482904638633
230
0.5773502691896254
 40
0.9999999314154381
 41
1.102898147614173
 42
3.340537082226617
1001
ACAD_VIEW_EDGE_ID
1071
        5
1071
       -1
1071
        7
1071
        0
  0
LINE
  5
394
330
70
100
AcDbEntity
  8
Visible
100
AcDbLine
 10
14.126525
 20
7.088947
 30
1.853159
 11
14.126525
 21
6.796876
 31
1.646633
210
0.0000000000000001
220
0.816496580927726
230
0.5773502691896261
  0
ARC
  5
395
330
70
100
AcDbEntity
  8
Visible
100
AcDbCircle
 10
13.342736
 20
-3.736993
 30
8.007353
 40
0.393700787401577
210
0.707106781186548
220
-0.408248290463863
230
0.5773502691896253
100
AcDbArc
 50
182.869585
 51
205.637146
  0
SPLINE
  5
396
330
70
100
AcDbEntity
  8
Visible
100
AcDbSpline
 70
     0
 71
     3
 72
     8
 73
     4
 74
     0
 42
0.000000001
 43
0.0000000001
 40
2.209857864444705
 40
2.209857864444705
 40
2.209857864444705
 40
2.209857864444705
 40
2.411152941634972
 40
2.411152941634972
 40
2.411152941634972
 40
2.411152941634972
 10
14.06272385975187
 20
6.833163819704168
 30
1.614051048291003
 10
14.04404444845311
 20
6.843948382846065
 30
1.598799372832218
 10
14.02781200313546
 20
6.853275490776468
 30
1.578771021786451
 10
14.01516942729829
 20
6.861166694243365
 30
1.555712164679789
1001
ACAD_VIEW_EDGE_ID
1071
       13
1071
       -1
1071
        7
1071
        0
  0
SPLINE
  5
397
330
70
100
AcDbEntity
  8
Visible
100
AcDbSpline
 70
     0
 71
     3
 72
     8
 73
     4
 74
     0
 42
0.000000001
 43
0.0000000001
 40
2.008562787254438
 40
2.008562787254438
 40
2.008562787254438
 40
2.008562787254438
 40
2.209857864444705
 40
2.209857864444705
 40
2.209857864444705
 40
2.209857864444705
 10
14.12652482591072
 20
6.796875624878339
 30
1.646633466914863
 10
14.10314135947663
 20
6.809784066615065
 30
1.640277183683792
 10
14.08140327105245
 20
6.822379256562271
 30
1.629302723751607
 10
14.06272385975187
 20
6.833163819704168
 30
1.614051048291003
1001
ACAD_VIEW_EDGE_ID
1071
       14
1071
       -1
1071
        7
1071
        0
  0
LINE
  5
398
330
70
100
AcDbEntity
  8
Visible
100
AcDbLine
 10
14.015169
 20
6.861167
 30
1.555712
 11
14.015169
 21
6.943646
 31
1.614034
210
0.0000000000000001
220
0.816496580927726
230
0.5773502691896261
  0
SPLINE
  5
399
330
70
100
AcDbEntity
  8
Visible
100
AcDbSpline
 70
     0
 71
     3
 72
    14
 73
    10
 74
     0
 42
0.000000001
 43
0.0000000001
 40
-1.161707484134181
 40
-1.161707484134181
 40
-1.161707484134181
 40
-1.161707484134181
 40
-0.8798978209865015
 40
-0.8798978209865015
 40
-0.5980881578388218
 40
-0.5980881578388218
 40
-0.2990440789194109
 40
-0.2990440789194109
 40
-0.255257823339777
 40
-0.255257823339777
 40
-0.255257823339777
 40
-0.255257823339777
 10
14.45246775489447
 20
7.239529295686224
 30
1.901394831998914
 10
14.42631689875013
 20
7.224431091852238
 30
1.922746916628966
 10
14.39387107965119
 20
7.206447008721625
 30
1.936135574755098
 10
14.32566454276018
 20
7.170458719271664
 30
1.944034189260491
 10
14.28990635207554
 20
7.152485231359605
 30
1.938705079650389
 10
14.22330927155706
 20
7.122203614653699
 30
1.917292743133657
 10
14.18784760592296
 20
7.107656257464441
 30
1.898937106683661
 10
14.14984597072742
 20
7.098699208552716
 30
1.873871455232801
 10
14.14503798439653
 20
7.097704974695261
 30
1.870602124537981
 10
14.14027922116854
 20
7.09688763606482
 30
1.867282295079348
1001
ACAD_VIEW_EDGE_ID
1071
       20
1071
       -1
1071
        7
1071
        0
  0
SPLINE
  5
39A
330
70
100
AcDbEntity
  8
Visible
100
AcDbSpline
 70
     0
 71
     3
 72
    12
 73
     8
 74
     0
 42
0.000000001
 43
0.0000000001
 40
2.830659018165815
 40
2.830659018165815
 40
2.830659018165815
 40
2.830659018165815
 40
2.921503126107184
 40
2.921503126107184
 40
3.203312789254864
 40
3.203312789254864
 40
3.485122452402544
 40
3.485122452402544
 40
3.485122452402544
 40
3.485122452402544
 10
14.5313577523413
 20
7.300262260804629
 30
1.667123001956497
 10
14.53257835978473
 20
7.29926872894066
 30
1.679322798163411
 10
14.53318635850444
 20
7.298183432912082
 30
1.6914446735409
 10
14.53318635850353
 20
7.292943008559632
 30
1.740067786193321
 10
14.52716056019579
 20
7.286792499178773
 30
1.779513379953641
 10
14.49993351985647
 20
7.267682187125501
 30
1.849535954963357
 10
14.47861861103791
 20
7.254627499520211
 30
1.880042747368861
 10
14.45246775489447
 20
7.239529295686224
 30
1.901394831998914
1001
ACAD_VIEW_EDGE_ID
1071
       21
1071
       -1
1071
        7
1071
        0
  0
ARC
  5
39B
330
70
100
AcDbEntity
  8
Visible
100
AcDbCircle
 10
-14.257596
 20
-2.822134
 30
3.313697
 40
0.2755905511811028
210
0.0000000000000001
220
0.8164965809277259
230
0.577350269189626
100
AcDbArc
 50
0.0
 51
180.0
  0
LINE
  5
39C
330
70
100
AcDbEntity
  8
Visible
100
AcDbLine
 10
13.982005
 20
4.334982
 30
-0.391098
 11
13.982005
 21
4.957459
 31
0.049059
210
0.0000000000000001
220
0.816496580927726
230
0.5773502691896261
  0
LINE
  5
39D
330
70
100
AcDbEntity
  8
Visible
100
AcDbLine
 10
13.982005
 20
5.697351
 30
0.572242
 11
13.982005
 21
7.005509
 31
1.497249
210
0.0000000000000001
220
0.816496580927726
230
0.5773502691896261
  0
LINE
  5
39E
330
70
100
AcDbEntity
  8
Visible
100
AcDbLine
 10
14.533186
 20
4.334982
 30
-0.391098
 11
14.533186
 21
4.807701
 31
-0.056836
210
0.0000000000000001
220
0.816496580927726
230
0.5773502691896261
  0
LINE
  5
39F
330
70
100
AcDbEntity
  8
Visible
100
AcDbLine
 10
14.533186
 20
5.736751
 30
0.600101
 11
14.533186
 21
7.00401
 31
1.496189
210
0.0000000000000001
220
0.816496580927726
230
0.5773502691896261
  0
LINE
  5
3A0
330
70
100
AcDbEntity
  8
Visible
100
AcDbLine
 10
14.533186
 20
7.185739
 30
1.624691
 11
14.533186
 21
7.296906
 31
1.703298
210
0.0000000000000001
220
0.816496580927726
230
0.5773502691896261
  0
SPLINE
  5
3A1
330
70
100
AcDbEntity
  8
Visible
100
AcDbSpline
 70
     0
 71
     3
 72
     8
 73
     4
 74
     0
 42
0.000000001
 43
0.0000000001
 40
0.0
 40
0.0
 40
0.0
 40
0.0
 40
0.0094550109210996
 40
0.0094550109210996
 40
0.0094550109210996
 40
0.0094550109210996
 10
14.9735989336197
 20
7.832440908291573
 30
1.209482644730087
 10
14.97272154486125
 20
7.831934347655078
 30
1.210199029650539
 10
14.97185463493695
 20
7.831415653121439
 30
1.210932505175151
 10
14.97099932386043
 20
7.830885462801234
 30
1.211682265213312
1001
ACAD_VIEW_EDGE_ID
1071
        0
1071
       -1
1071
       10
1071
        0
  0
SPLINE
  5
3A2
330
70
100
AcDbEntity
  8
Visible
100
AcDbSpline
 70
     0
 71
     3
 72
    14
 73
    10
 74
     0
 42
0.000000001
 43
0.0000000001
 40
1.319539549956716
 40
1.319539549956716
 40
1.319539549956716
 40
1.319539549956716
 40
1.379002637297842
 40
1.379002637297842
 40
1.48481572190463
 40
1.48481572190463
 40
1.590294672585504
 40
1.590294672585504
 40
1.695773623266378
 40
1.695773623266378
 40
1.695773623266378
 40
1.695773623266378
 10
15.11529821292986
 20
7.843284965624661
 30
1.20251689381439
 10
15.10868215951284
 20
7.845321519489516
 30
1.198218745490521
 10
15.10143281842663
 20
7.847082348716867
 30
1.194482227458138
 10
15.08021898630266
 20
7.850835148105943
 30
1.18635385681955
 10
15.06542516163806
 20
7.851921551814484
 30
1.183713072025057
 10
15.03770645146158
 20
7.85131595416351
 30
1.183286027171561
 10
15.02294337938854
 20
7.849590945482304
 30
1.185453209129263
 10
14.99578361925812
 20
7.842986195007142
 30
1.194560731544697
 10
14.98338697578508
 20
7.838092037070055
 30
1.201490741768793
 10
14.9735989336197
 20
7.832440908291573
 30
1.209482644730087
1001
ACAD_VIEW_EDGE_ID
1071
        0
1071
       -1
1071
       10
1071
        0
  0
SPLINE
  5
3A3
330
70
100
AcDbEntity
  8
Visible
100
AcDbSpline
 70
     3
 71
     3
 72
    38
 73
    34
 74
     0
 42
0.000000001
 43
0.0000000001
 40
0.0
 40
0.0
 40
0.0
 40
0.0
 40
0.1054824830402876
 40
0.1054824830402876
 40
0.2109649660805752
 40
0.2109649660805752
 40
0.3169607557325951
 40
0.3169607557325951
 40
0.422956545384615
 40
0.422956545384615
 40
0.5308600294403023
 40
0.5308600294403023
 40
0.6387635134959896
 40
0.6387635134959896
 40
0.7444606852206449
 40
0.7444606852206449
 40
0.8501578569453002
 40
0.8501578569453002
 40
0.9558550286699556
 40
0.9558550286699556
 40
1.061552200394611
 40
1.061552200394611
 40
1.169455684450298
 40
1.169455684450298
 40
1.277359168505985
 40
1.277359168505985
 40
1.383354958158005
 40
1.383354958158005
 40
1.489350747810025
 40
1.489350747810025
 40
1.594833230850313
 40
1.594833230850313
 40
1.7003157138906
 40
1.7003157138906
 40
1.7003157138906
 40
1.7003157138906
 10
14.9735989336197
 20
7.912805490323989
 30
1.266308985652358
 10
14.98338730357425
 20
7.918456808351947
 30
1.258316815052239
 10
14.99578438345923
 20
7.923350061348173
 30
1.251386041094519
 10
15.0229440535815
 20
7.929980685478767
 30
1.242297135046101
 10
15.0377065756931
 20
7.931735858142928
 30
1.240151799331215
 10
15.06544446114201
 20
7.932485807968987
 30
1.240680288859948
 10
15.0802542041685
 20
7.931518976326515
 30
1.243416945890203
 10
15.10741885858186
 20
7.92711527272695
 30
1.254123386406718
 10
15.11977317838971
 20
7.923698492230869
 30
1.262102923090424
 10
15.13939480352035
 20
7.915829404966643
 30
1.280570122869903
 10
15.14790125859797
 20
7.910830504783916
 30
1.292342865503087
 10
15.15912392161879
 20
7.899785469675407
 30
1.317985483585289
 10
15.16184603767322
 20
7.893721376923167
 30
1.331845033819263
 10
15.16172084677344
 20
7.881998368101449
 30
1.357307260503148
 10
15.15896773732418
 20
7.875549171784768
 30
1.370644702552453
 10
15.14776298916438
 20
7.8626937487561
 30
1.394624102831585
 10
15.13930478391847
 20
7.85626505799064
 30
1.405250941612393
 10
15.11968819943574
 20
7.844939417658679
 30
1.421267815772807
 10
15.10729981556249
 20
7.839332324584574
 30
1.427662145732028
 10
15.08029863527297
 20
7.830129544538976
 30
1.434877755402339
 10
15.06568521421302
 20
7.826552169790375
 30
1.435720026134731
 10
15.03812711088283
 20
7.822292221236239
 30
1.432861114541083
 10
15.02330972992074
 20
7.821373109538399
 30
1.428877306747381
 10
14.99599576593862
 20
7.82312782770532
 30
1.416373180882146
 10
14.98349724546385
 20
7.825821907857971
 30
1.407859945999007
 10
14.96387562033322
 20
7.833690995121287
 30
1.389392746219527
 10
14.95538767677515
 20
7.839340028984224
 30
1.378256326546761
 10
14.94410342524059
 20
7.852912287462459
 30
1.354583591375558
 10
14.94131075362218
 20
7.860817178517208
 30
1.342035036626839
 10
14.9413122274638
 20
7.876082555245375
 30
1.318857455080433
 10
14.94407723615148
 20
7.884446907205528
 30
1.306691621826757
 10
14.95532648949045
 20
7.899991685375425
 30
1.284419773191984
 10
14.96381056366515
 20
7.907154172296031
 30
1.274301156252477
 10
14.9735989336197
 20
7.912805490323989
 30
1.266308985652358
1001
ACAD_VIEW_EDGE_ID
1071
        1
1071
       -1
1071
       10
1071
        0
  0
SPLINE
  5
3A4
330
70
100
AcDbEntity
  8
Visible
100
AcDbSpline
 70
     0
 71
     3
 72
     8
 73
     4
 74
     0
 42
0.000000001
 43
0.0000000001
 40
0.0
 40
0.0
 40
0.0
 40
0.0
 40
0.0578192642623361
 40
0.0578192642623361
 40
0.0578192642623361
 40
0.0578192642623361
 10
13.39128243707198
 20
7.120132371913314
 30
2.261868993042298
 10
13.38591703105628
 20
7.117034653304472
 30
2.266249828709987
 10
13.3809522003832
 20
7.113321486674976
 30
2.271144987951629
 10
13.37663657201408
 20
7.109139316969958
 30
2.276367541404397
1001
ACAD_VIEW_EDGE_ID
1071
        2
1071
       -1
1071
       10
1071
        0
  0
SPLINE
  5
3A5
330
70
100
AcDbEntity
  8
Visible
100
AcDbSpline
 70
     0
 71
     3
 72
    16
 73
    12
 74
     0
 42
0.000000001
 43
0.0000000001
 40
1.231568248822441
 40
1.231568248822441
 40
1.231568248822441
 40
1.231568248822441
 40
1.270083583032977
 40
1.270083583032977
 40
1.377014158890401
 40
1.377014158890401
 40
1.483944734747825
 40
1.483944734747825
 40
1.589555783542527
 40
1.589555783542527
 40
1.695166832337228
 40
1.695166832337228
 40
1.695166832337228
 40
1.695166832337228
 10
13.55725073715455
 20
7.095957185805673
 30
2.259011607629872
 10
13.55411232372005
 20
7.09879075108347
 30
2.255899352549022
 10
13.55072983294319
 20
7.101495451227492
 30
2.253038345705135
 10
13.53732453860464
 20
7.111046927882853
 30
2.243374194127682
 10
13.52486614145453
 20
7.117658158545054
 30
2.237641949097451
 10
13.49761382487593
 20
7.127792368572045
 30
2.231050469617912
 10
13.48281863098798
 20
7.131303532693891
 30
2.230178350457208
 10
13.45521285276952
 20
7.134517037711702
 30
2.232543011516099
 10
13.44053962781998
 20
7.134473808995608
 30
2.235890254389232
 10
13.41347471584065
 20
7.130119990360981
 30
2.246556505482658
 10
13.40108273743515
 20
7.125790577964835
 30
2.253867081304633
 10
13.39128243707198
 20
7.120132371913314
 30
2.261868993042298
1001
ACAD_VIEW_EDGE_ID
1071
        2
1071
       -1
1071
       10
1071
        0
  0
SPLINE
  5
3A6
330
70
100
AcDbEntity
  8
Visible
100
AcDbSpline
 70
     1
 71
     3
 72
    38
 73
    34
 74
     0
 42
0.000000001
 43
0.0000000001
 40
0.0
 40
0.0
 40
0.0
 40
0.0
 40
0.1056959094392847
 40
0.1056959094392847
 40
0.2113918188785695
 40
0.2113918188785695
 40
0.3191236716724363
 40
0.3191236716724363
 40
0.4268555244663032
 40
0.4268555244663032
 40
0.532776265738451
 40
0.532776265738451
 40
0.6386970070105987
 40
0.6386970070105987
 40
0.7441896492765947
 40
0.7441896492765947
 40
0.8496822915425907
 40
0.8496822915425907
 40
0.9551749338085866
 40
0.9551749338085866
 40
1.060667576074582
 40
1.060667576074582
 40
1.16658831734673
 40
1.16658831734673
 40
1.272509058618878
 40
1.272509058618878
 40
1.380240911412744
 40
1.380240911412744
 40
1.487972764206611
 40
1.487972764206611
 40
1.593668673645896
 40
1.593668673645896
 40
1.699364583085181
 40
1.699364583085181
 40
1.699364583085181
 40
1.699364583085181
 10
13.39128243707198
 20
7.205728779033051
 30
2.322394792961858
 10
13.4010906121777
 20
7.21139153157037
 30
2.314386451524114
 10
13.41348067467986
 20
7.215570905614185
 30
2.306980252082212
 10
13.44049325573467
 20
7.219380063741482
 30
2.295947747465106
 10
13.45511639410067
 20
7.219035339911897
 30
2.292331778591687
 10
13.48267917068022
 20
7.215038143394849
 30
2.289362967985653
 10
13.4974906811605
 20
7.21105423237077
 30
2.289882170955024
 10
13.52479356155634
 20
7.200020984617367
 30
2.295825918961782
 10
13.53728679206795
 20
7.19298521553901
 30
2.30126708309217
 10
13.55690688067096
 20
7.178365539707556
 30
2.314959014065607
 10
13.5653941044822
 20
7.169835721242634
 30
2.324060760260181
 10
13.57667568887352
 20
7.152203982694118
 30
2.344858518772525
 10
13.57946673343047
 20
7.143084406573507
 30
2.356541355606168
 10
13.5794681365898
 20
7.126437795187484
 30
2.378737070172064
 10
13.57670343177704
 20
7.117803965858001
 30
2.390715151359472
 10
13.56545396212293
 20
7.102051008580929
 30
2.412844072981897
 10
13.55696930781976
 20
7.094913994525086
 30
2.422982231559217
 10
13.53739068243628
 20
7.083610269890414
 30
2.438968112244765
 10
13.52499235363227
 20
7.078690488027859
 30
2.445880837973163
 10
13.49782919066563
 20
7.07226590152004
 30
2.455115699551242
 10
13.48306438464276
 20
7.070779063050395
 30
2.457450404026531
 10
13.45533073402219
 20
7.071414453898796
 30
2.457897974692969
 10
13.44052654796467
 20
7.073598239539933
 30
2.456023826820455
 10
13.41336556024833
 20
7.082062000305086
 30
2.448191546829548
 10
13.40100932261446
 20
7.088358042597064
 30
2.442248837192892
 10
13.38138923401145
 20
7.102977718429428
 30
2.428556906219455
 10
13.37288443893174
 20
7.112316211777397
 30
2.419859198196718
 10
13.36166134044668
 20
7.132633125946085
 30
2.400786363237784
 10
13.35893730089645
 20
7.14359574156515
 30
2.390397781582578
 10
13.35905354212098
 20
7.163573426462789
 30
2.370766768788598
 10
13.3618069419437
 20
7.173950499292914
 30
2.360194853641587
 10
13.37301416271582
 20
7.19220755403785
 30
2.340021020741914
 10
13.38147426196536
 20
7.200066026493914
 30
2.33040313440324
 10
13.39128243707198
 20
7.205728779033051
 30
2.322394792961858
1001
ACAD_VIEW_EDGE_ID
1071
        3
1071
       -1
1071
       10
1071
        0
  0
ARC
  5
3A7
330
70
100
AcDbEntity
  8
Visible
100
AcDbCircle
 10
-13.301518
 20
-3.779035
 30
-8.164717
 40
0.0984251968503938
210
-0.707106781186548
220
0.408248290463863
230
-0.5773502691896253
100
AcDbArc
 50
234.025427
 51
0.451736
  0
ARC
  5
3A8
330
70
100
AcDbEntity
  8
Visible
100
AcDbCircle
 10
13.263385
 20
-3.816344
 30
8.164717
 40
0.2755905510886657
210
0.707106781186548
220
-0.408248290463863
230
0.5773502691896253
100
AcDbArc
 50
151.60155
 51
151.685335
  0
ELLIPSE
  5
3A9
330
70
100
AcDbEntity
  8
Visible
100
AcDbEllipse
 10
14.257514
 20
7.083658
 30
1.552409
 11
0.1948719474816755
 21
-0.3375281140784972
 31
0.0000000000248694
210
0.5000000000000001
220
0.2886751345948129
230
0.816496580927726
 40
0.7071067813986351
 41
-1.570796326716895
 42
-1.281044625194141
1001
ACAD_VIEW_EDGE_ID
1071
        7
1071
       -1
1071
       10
1071
        0
  0
ELLIPSE
  5
3AA
330
70
100
AcDbEntity
  8
Visible
100
AcDbEllipse
 10
14.257514
 20
7.083658
 30
1.552409
 11
0.1948719475591032
 21
0.1125093713807548
 31
0.3182245577783751
210
-0.5
220
0.8660254037844385
230
0.0000000000000003
 40
0.7071067812624161
 41
4.422637278889617
 42
4.712388980361635
1001
ACAD_VIEW_EDGE_ID
1071
        8
1071
       -1
1071
       10
1071
        0
  0
ARC
  5
3AB
330
70
100
AcDbEntity
  8
Visible
100
AcDbCircle
 10
-13.263385
 20
-3.816344
 30
-8.007237
 40
0.2755905528678198
210
-0.707106781186548
220
0.408248290463863
230
-0.5773502691896253
100
AcDbArc
 50
28.373408
 51
28.39845
  0
LINE
  5
3AC
330
70
100
AcDbEntity
  8
Visible
100
AcDbLine
 10
14.126443
 20
6.879402
 30
1.704889
 11
14.126443
 21
7.0889
 31
1.853026
210
0.0000000000000001
220
0.816496580927726
230
0.5773502691896261
  0
LINE
  5
3AD
330
70
100
AcDbEntity
  8
Visible
100
AcDbLine
 10
14.015088
 20
7.024609
 30
1.671184
 11
14.015088
 21
6.943693
 31
1.613967
210
0.0000000000000001
220
0.816496580927726
230
0.5773502691896261
  0
SPLINE
  5
3AE
330
70
100
AcDbEntity
  8
Visible
100
AcDbSpline
 70
     0
 71
     3
 72
    10
 73
     6
 74
     0
 42
0.000000001
 43
0.0000000001
 40
1.1387484406999
 40
1.1387484406999
 40
1.1387484406999
 40
1.1387484406999
 40
1.417990799010673
 40
1.417990799010673
 40
1.697233157321445
 40
1.697233157321445
 40
1.697233157321446
 40
1.697233157321446
 10
14.45238613606778
 20
7.244386077390117
 30
1.904729133037108
 10
14.47829875616587
 20
7.259346735579129
 30
1.883571567324906
 10
14.49959553556362
 20
7.272687575606141
 30
1.85352878438789
 10
14.52694436966265
 20
7.293178185725992
 30
1.784571454410979
 10
14.53310473967683
 20
7.300433799950042
 30
1.745731420547599
 10
14.53310473967683
 20
7.305788468018363
 30
1.709478761466016
1001
ACAD_VIEW_EDGE_ID
1071
       20
1071
       -1
1071
       10
1071
        0
  0
SPLINE
  5
3AF
330
70
100
AcDbEntity
  8
Visible
100
AcDbSpline
 70
     0
 71
     3
 72
    12
 73
     8
 74
     0
 42
0.000000001
 43
0.0000000001
 40
0.3630841041089615
 40
0.3630841041089615
 40
0.3630841041089615
 40
0.3630841041089615
 40
0.5802637240783547
 40
0.5802637240783547
 40
0.8595060823891273
 40
0.8595060823891273
 40
1.1387484406999
 40
1.1387484406999
 40
1.1387484406999
 40
1.1387484406999
 10
14.18010653199979
 20
7.11985252404429
 30
1.901914477584796
 10
14.20575905855565
 20
7.126432462965567
 30
1.915725178267166
 10
14.23208835724579
 20
7.13616115012428
 30
1.927062248871152
 10
14.29020587973826
 20
7.160196077778891
 30
1.94405750919941
 10
14.32610766541363
 20
7.177225060464479
 30
1.948553936754251
 10
14.39424134883864
 20
7.211861307540857
 30
1.939550117635008
 10
14.42647351596877
 20
7.229425419200197
 30
1.925886698751128
 10
14.45238613606778
 20
7.244386077390117
 30
1.904729133037108
1001
ACAD_VIEW_EDGE_ID
1071
       21
1071
       -1
1071
       10
1071
        0
  0
SPLINE
  5
3B0
330
70
100
AcDbEntity
  8
Visible
100
AcDbSpline
 70
     0
 71
     3
 72
    22
 73
    18
 74
     0
 42
0.000000001
 43
0.0000000001
 40
0.3437529438379148
 40
0.3437529438379148
 40
0.3437529438379148
 40
0.3437529438379148
 40
0.3513109660372399
 40
0.3513109660372399
 40
0.3588689882365649
 40
0.3588689882365649
 40
0.3739850326352148
 40
0.3739850326352148
 40
0.4042171214325149
 40
0.4042171214325149
 40
0.464681299027115
 40
0.464681299027115
 40
0.5856096542163152
 40
0.5856096542163152
 40
0.6474638112548118
 40
0.6474638112548118
 40
0.6483697357685667
 40
0.6483697357685667
 40
0.6483697357685667
 40
0.6483697357685667
 10
14.04872162602549
 20
7.1127188239534
 30
2.681061277891785
 10
14.04802027054591
 20
7.11231389617933
 30
2.681633932241311
 10
14.04733243311528
 20
7.112062366707505
 30
2.682293421750728
 10
14.04593587477591
 20
7.111480412736455
 30
2.683572010484567
 10
14.04523247172545
 20
7.111196798130549
 30
2.684217652184088
 10
14.04310176808865
 20
7.110328435882365
 30
2.686151347632403
 10
14.04165666623083
 20
7.109757611734494
 30
2.687455032744765
 10
14.03725468034388
 20
7.108028343654041
 30
2.691368456211421
 10
14.03422416285064
 20
7.106868810511514
 30
2.693999279983472
 10
14.02492436734444
 20
7.103385086734306
 30
2.701853222650242
 10
14.01841355792219
 20
7.101048650725715
 30
2.707065165077437
 10
13.99847214062918
 20
7.094022463121291
 30
2.722015118819399
 10
13.98451045010841
 20
7.089320876829333
 30
2.731139039742629
 10
13.96447269886828
 20
7.081586242778939
 30
2.741818460550348
 10
13.95620670382702
 20
7.0782160548315
 30
2.745716996192641
 10
13.9492418609854
 20
7.074519224411233
 30
2.748096053364861
 10
13.94914051188805
 20
7.074465206353124
 30
2.748130455491264
 10
13.94903842865476
 20
7.074410556270777
 30
2.748164875676593
1001
ACAD_VIEW_EDGE_ID
1071
       23
1071
       -1
1071
       10
1071
        0
  0
SPLINE
  5
3B1
330
70
100
AcDbEntity
  8
Visible
100
AcDbSpline
 70
     0
 71
     3
 72
    16
 73
    12
 74
     0
 42
0.000000001
 43
0.0000000001
 40
0.3166829533326489
 40
0.3166829533326489
 40
0.3166829533326489
 40
0.3166829533326489
 40
0.4922883918078198
 40
0.4922883918078198
 40
0.9845767836156394
 40
0.9845767836156394
 40
1.47181069110683
 40
1.47181069110683
 40
1.715427644852425
 40
1.715427644852425
 40
1.959044598598021
 40
1.959044598598021
 40
1.959044598598021
 40
1.959044598598021
 10
13.94903842865476
 20
7.074410556270777
 30
2.748164875676593
 10
13.92879943350106
 20
7.06357564546397
 30
2.754989012564692
 10
13.90773838494185
 20
7.052621271051066
 30
2.759928670922818
 10
13.82581622866308
 20
7.011993403142696
 30
2.772022152956196
 10
13.76129525787399
 20
6.984453198175287
 30
2.766898653309908
 10
13.64079971826793
 20
6.947893119005129
 30
2.741046773409834
 10
13.5760012150751
 20
6.935978818022704
 30
2.718439110205508
 10
13.48494242648592
 20
6.937810863249069
 30
2.674366288691089
 10
13.45554672054475
 20
6.941609096209504
 30
2.658020361590388
 10
13.40075338973036
 20
6.955766979552208
 30
2.623386433968335
 10
13.37535829393362
 20
6.966133420869482
 30
2.605097208695951
 10
13.35275157477297
 20
6.979185416263135
 30
2.586638899796525
1001
ACAD_VIEW_EDGE_ID
1071
       24
1071
       -1
1071
       10
1071
        0
  0
SPLINE
  5
3B2
330
70
100
AcDbEntity
  8
Visible
100
AcDbSpline
 70
     0
 71
     3
 72
    16
 73
    12
 74
     0
 42
0.000000001
 43
0.0000000001
 40
1.959044598598021
 40
1.959044598598021
 40
1.959044598598021
 40
1.959044598598021
 40
2.202661552343616
 40
2.202661552343616
 40
2.446278506089211
 40
2.446278506089211
 40
2.933512413580402
 40
2.933512413580402
 40
3.425800805388221
 40
3.425800805388221
 40
3.601406243863392
 40
3.601406243863392
 40
3.601406243863392
 40
3.601406243863392
 10
13.35275157477297
 20
6.979185416263135
 30
2.586638899796525
 10
13.33014485561232
 20
6.992237411655878
 30
2.568180590893462
 10
13.30922669802674
 20
7.008609939644884
 30
2.548655203128873
 10
13.27277415677888
 20
7.047132885100836
 30
2.508787188189671
 10
13.25723485236647
 20
7.069277892463105
 30
2.488443832971825
 10
13.22019181248395
 20
7.141405472389124
 30
2.427921949527444
 10
13.20861145765518
 20
7.197417127610606
 30
2.388166536302378
 10
13.20861145765609
 20
7.303545339008451
 30
2.315634220096399
 10
13.2203284824647
 20
7.361571916401771
 30
2.277643478391837
 10
13.25365927966884
 20
7.43025401855175
 30
2.225875317812096
 10
13.26401700484637
 20
7.447387959599836
 30
2.212196432506971
 10
13.27584442795449
 20
7.463079293792361
 30
2.198504275804225
1001
ACAD_VIEW_EDGE_ID
1071
       25
1071
       -1
1071
       10
1071
        0
  0
SPLINE
  5
3B3
330
70
100
AcDbEntity
  8
Visible
100
AcDbSpline
 70
     0
 71
     3
 72
    12
 73
     8
 74
     0
 42
0.000000001
 43
0.0000000001
 40
0.0391361519072631
 40
0.0391361519072631
 40
0.0391361519072631
 40
0.0391361519072631
 40
0.0400420764210185
 40
0.0400420764210185
 40
0.1018962334595151
 40
0.1018962334595151
 40
0.2147005361258668
 40
0.2147005361258668
 40
0.2147005361258668
 40
0.2147005361258668
 10
13.27584442795449
 20
7.463079293792361
 30
2.198504275804225
 10
13.27590408415761
 20
7.463158439131802
 30
2.198435214093478
 10
13.27596336071581
 20
7.463236747781593
 30
2.198366459884709
 10
13.28004021879967
 20
7.468600956978661
 30
2.193629373030489
 10
13.28516913874244
 20
7.473782336079239
 30
2.187169426297259
 10
13.29776840107859
 20
7.484953612557546
 30
2.171618347341791
 10
13.30715939267718
 20
7.491437254495394
 30
2.160306315430716
 10
13.31718492992165
 20
7.49722708752688
 30
2.149116714850606
1001
ACAD_VIEW_EDGE_ID
1071
       26
1071
       -1
1071
       10
1071
        0
  0
SPLINE
  5
3B4
330
70
100
AcDbEntity
  8
Visible
100
AcDbSpline
 70
     0
 71
     3
 72
    12
 73
     8
 74
     0
 42
0.000000001
 43
0.0000000001
 40
4.821576014752759
 40
4.821576014752759
 40
4.821576014752759
 40
4.821576014752759
 40
5.302682727539751
 40
5.302682727539751
 40
5.543236083933246
 40
5.543236083933246
 40
5.783789440326742
 40
5.783789440326742
 40
5.783789440326742
 40
5.783789440326742
 10
13.20861145765609
 20
7.155200592704204
 30
2.28490754919585
 10
13.20861145765609
 20
7.105940300281872
 30
2.324401223477252
 10
13.22048948359604
 20
7.053536152749074
 30
2.367196490880814
 10
13.25776173195043
 20
6.985454946837307
 30
2.430495599744972
 10
13.27333521171129
 20
6.964442523110847
 30
2.451479954084788
 10
13.30966684898629
 20
6.927567469612768
 30
2.492025366424059
 10
13.33042914569903
 20
6.911709439991682
 30
2.511586898883251
 10
13.35275157477297
 20
6.898821579557989
 30
2.529813085900968
1001
ACAD_VIEW_EDGE_ID
1071
       29
1071
       -1
1071
       10
1071
        0
  0
SPLINE
  5
3B5
330
70
100
AcDbEntity
  8
Visible
100
AcDbSpline
 70
     0
 71
     3
 72
    14
 73
    10
 74
     0
 42
0.000000001
 43
0.0000000001
 40
5.783789440326742
 40
5.783789440326742
 40
5.783789440326742
 40
5.783789440326742
 40
6.024342796720238
 40
6.024342796720238
 40
6.264896153113734
 40
6.264896153113734
 40
6.746002865900726
 40
6.746002865900726
 40
6.850303376631917
 40
6.850303376631917
 40
6.850303376631917
 40
6.850303376631917
 10
13.35275157477297
 20
6.898821579557989
 30
2.529813085900968
 10
13.37507400384691
 20
6.885933719122476
 30
2.548039272915048
 10
13.40020156588814
 20
6.875297226438306
 30
2.56594665322882
 10
13.4545965784984
 20
6.859791224203036
 30
2.59947924032167
 10
13.48386176056481
 20
6.854916034453708
 30
2.615105500057325
 10
13.57485196908708
 20
6.848944876360292
 30
2.656532248694929
 10
13.64004970728745
 20
6.856849310717734
 30
2.676669079182829
 10
13.71389308684427
 20
6.874155388830331
 30
2.68890632437251
 10
13.72724800464964
 20
6.877611681996313
 30
2.690702329027772
 10
13.74070918819523
 20
6.88141103793805
 30
2.692045332130874
1001
ACAD_VIEW_EDGE_ID
1071
       30
1071
       -1
1071
       10
1071
        0
  0
SPLINE
  5
3B6
330
70
100
AcDbEntity
  8
Visible
100
AcDbSpline
 70
     0
 71
     3
 72
    24
 73
    20
 74
     0
 42
0.000000001
 43
0.0000000001
 40
5.389073406529078
 40
5.389073406529078
 40
5.389073406529078
 40
5.389073406529078
 40
5.527564862621652
 40
5.527564862621652
 40
5.841899878117944
 40
5.841899878117944
 40
6.156234893614236
 40
6.156234893614236
 40
6.313402401362382
 40
6.313402401362382
 40
6.391986155236455
 40
6.391986155236455
 40
6.431278032173492
 40
6.431278032173492
 40
6.45092397064201
 40
6.45092397064201
 40
6.460746939876269
 40
6.460746939876269
 40
6.470569909110528
 40
6.470569909110528
 40
6.470569909110528
 40
6.470569909110528
 10
13.74070918819523
 20
6.88141103793805
 30
2.692045332130874
 10
13.7576155212211
 20
6.886182771167113
 30
2.6937320528923
 10
13.77410318648451
 20
6.892094590359192
 30
2.695191139431699
 10
13.82660121251063
 20
6.914373740090923
 30
2.699063949035917
 10
13.860806526791
 20
6.934462224675371
 30
2.700307562725356
 10
13.92370853495247
 20
6.979442986605135
 30
2.699566487850461
 10
13.9537337440426
 20
7.005530042884856
 30
2.697494286450819
 10
13.99267524785335
 20
7.044515540433167
 30
2.692244960508105
 10
14.0051576299931
 20
7.057987688884168
 30
2.690084498946816
 10
14.02208627989164
 20
7.077411639716956
 30
2.68648044612928
 10
14.02758216794807
 20
7.083930426601
 30
2.685192951597855
 10
14.03539382092019
 20
7.09341625144043
 30
2.683154055004706
 10
14.03794629579641
 20
7.0965602535789
 30
2.682456957252725
 10
14.04175400352249
 20
7.101218952948329
 30
2.681300969232324
 10
14.04300885511309
 20
7.102757633380861
 30
2.68090713883248
 10
14.04497346020814
 20
7.105044665871901
 30
2.680177898520923
 10
14.04563553386759
 20
7.105801452719788
 30
2.679918146632189
 10
14.04705716334609
 20
7.10726600941507
 30
2.679236138899796
 10
14.04781009214655
 20
7.107989131148315
 30
2.678833276480872
 10
14.04872162602549
 20
7.10851540547901
 30
2.6780890121845
1001
ACAD_VIEW_EDGE_ID
1071
       31
1071
       -1
1071
       10
1071
        0
  0
SPLINE
  5
3B7
330
70
100
AcDbEntity
  8
Visible
100
AcDbSpline
 70
     0
 71
     3
 72
    12
 73
     8
 74
     0
 42
0.000000001
 43
0.0000000001
 40
0.4728053515499483
 40
0.4728053515499483
 40
0.4728053515499483
 40
0.4728053515499483
 40
0.5856096542163152
 40
0.5856096542163152
 40
0.6474638112548118
 40
0.6474638112548118
 40
0.6483697357685667
 40
0.6483697357685667
 40
0.6483697357685667
 40
0.6483697357685667
 10
14.50594993577231
 20
8.183560883657264
 30
1.178494152047278
 10
14.51842896804844
 20
8.19076406989734
 30
1.1713088485576
 10
14.53140853584607
 20
8.197196076448562
 30
1.164355395208986
 10
14.55055567812467
 20
8.204353595219799
 30
1.153985643339183
 10
14.55882167316411
 20
8.206905773890866
 30
1.149508687785782
 10
14.56578651600664
 20
8.207916493695847
 30
1.145230263588018
 10
14.56588786510399
 20
8.207930922310879
 30
1.145167867498457
 10
14.56598994833728
 20
8.207945157279027
 30
1.145104869512579
1001
ACAD_VIEW_EDGE_ID
1071
       35
1071
       -1
1071
       10
1071
        0
  0
SPLINE
  5
3B8
330
70
100
AcDbEntity
  8
Visible
100
AcDbSpline
 70
     0
 71
     3
 72
    16
 73
    12
 74
     0
 42
0.000000001
 43
0.0000000001
 40
4.234772150528689
 40
4.234772150528689
 40
4.234772150528689
 40
4.234772150528689
 40
4.41037758900386
 40
4.41037758900386
 40
4.902665980811679
 40
4.902665980811679
 40
5.38989988830287
 40
5.38989988830287
 40
5.633516842048464
 40
5.633516842048464
 40
5.87713379579406
 40
5.87713379579406
 40
5.87713379579406
 40
5.87713379579406
 10
14.56598994833728
 20
8.207945157279027
 30
1.145104869512579
 10
14.58622894348916
 20
8.210767378300261
 30
1.132614905343871
 10
14.60728999204928
 20
8.211773074727716
 30
1.120640469314821
 10
14.68921214832806
 20
8.209632296296149
 30
1.078304987433511
 10
14.75373311911806
 20
8.19562174618386
 30
1.05404766639549
 10
14.8742286587232
 20
8.159061667014611
 30
1.028195786495416
 10
14.93902716191603
 20
8.133775524076554
 30
1.024498763537849
 10
15.03008595050521
 20
8.092833951207467
 30
1.040916972848208
 10
15.05948165644729
 20
8.07868894099738
 30
1.049946623592404
 10
15.11427498726259
 20
8.050755055335685
 30
1.074839446557234
 10
15.1396700830566
 20
8.036967288826417
 30
1.090709429583512
 10
15.16227680221725
 20
8.023915293433674
 30
1.109167738484757
1001
ACAD_VIEW_EDGE_ID
1071
       36
1071
       -1
1071
       10
1071
        0
  0
SPLINE
  5
3B9
330
70
100
AcDbEntity
  8
Visible
100
AcDbSpline
 70
     0
 71
     3
 72
    16
 73
    12
 74
     0
 42
0.000000001
 43
0.0000000001
 40
5.87713379579406
 40
5.87713379579406
 40
5.87713379579406
 40
5.87713379579406
 40
6.120750749539656
 40
6.120750749539656
 40
6.364367703285251
 40
6.364367703285251
 40
6.851601610776441
 40
6.851601610776441
 40
7.343890002584261
 40
7.343890002584261
 40
7.519495441059433
 40
7.519495441059433
 40
7.519495441059433
 40
7.519495441059433
 10
15.16227680221725
 20
8.023915293433674
 30
1.109167738484757
 10
15.1848835213779
 20
8.010863298040021
 30
1.127626047386002
 10
15.20580167896621
 20
7.997912095243009
 30
1.149570677398514
 10
15.24225422021316
 20
7.973165152106048
 30
1.19917979699494
 10
15.25779352462466
 20
7.961366921992521
 30
1.226839428567473
 10
15.29483656450718
 20
7.928348869710134
 30
1.315015924217732
 10
15.30641691933595
 20
7.909537658408225
 30
1.381076023602872
 10
15.30641691933595
 20
7.876529605350697
 30
1.505312099609
 10
15.29469989452644
 20
7.860053783037074
 30
1.572683661997871
 10
15.26136909732229
 20
7.834140327227032
 30
1.654693822427361
 10
15.25101137214385
 20
7.826955064164394
 30
1.675407485401592
 10
15.23918394903756
 20
7.819276419758352
 30
1.694765469384947
1001
ACAD_VIEW_EDGE_ID
1071
       37
1071
       -1
1071
       10
1071
        0
  0
SPLINE
  5
3BA
330
70
100
AcDbEntity
  8
Visible
100
AcDbSpline
 70
     0
 71
     3
 72
    22
 73
    18
 74
     0
 42
0.000000001
 43
0.0000000001
 40
0.0391361519072636
 40
0.0391361519072636
 40
0.0391361519072636
 40
0.0391361519072636
 40
0.0400420764210185
 40
0.0400420764210185
 40
0.1018962334595151
 40
0.1018962334595151
 40
0.222824588648715
 40
0.222824588648715
 40
0.2832887662433149
 40
0.2832887662433149
 40
0.3135208550406149
 40
0.3135208550406149
 40
0.3286368994392649
 40
0.3286368994392649
 40
0.3361949216385899
 40
0.3361949216385899
 40
0.3437529438379149
 40
0.3437529438379149
 40
0.3437529438379149
 40
0.3437529438379149
 10
15.23918394903756
 20
7.819276419758352
 30
1.694765469384947
 10
15.23912429283444
 20
7.819237689532201
 30
1.694863108896242
 10
15.23906501627623
 20
7.819198970325487
 30
1.69495985706817
 10
15.23498815819146
 20
7.816520871743705
 30
1.701596310949753
 10
15.22985923825052
 20
7.8121575019195
 30
1.708634677594091
 10
15.21667393462319
 20
7.800710796299426
 30
1.725081767492156
 10
15.20650982227214
 20
7.791483343808977
 30
1.735656482123886
 10
15.19024666485273
 20
7.777606810457655
 30
1.750267439851086
 10
15.18464218972092
 20
7.772948483666368
 30
1.754947585839545
 10
15.17621814352895
 20
7.766199342669096
 30
1.761565099319341
 10
15.17340062814144
 20
7.763982512453367
 30
1.763709174399991
 10
15.16920693787067
 20
7.760749064590527
 30
1.766814091126434
 10
15.16781291795649
 20
7.759680721018412
 30
1.76782853923396
 10
15.16573271305713
 20
7.758117914090689
 30
1.76933303620899
 10
15.16504180384816
 20
7.757596522137646
 30
1.769825845702143
 10
15.16366184923679
 20
7.756575455608981
 30
1.770814270299524
 10
15.16297815769865
 20
7.756035132460965
 30
1.77127462950375
 10
15.16227680221907
 20
7.755630204686895
 30
1.771847283855095
1001
ACAD_VIEW_EDGE_ID
1071
       38
1071
       -1
1071
       10
1071
        0
  0
SPLINE
  5
3BB
330
70
100
AcDbEntity
  8
Visible
100
AcDbSpline
 70
     0
 71
     3
 72
    24
 73
    20
 74
     0
 42
0.000000001
 43
0.0000000001
 40
6.470569909110528
 40
6.470569909110528
 40
6.470569909110528
 40
6.470569909110528
 40
6.480392878344787
 40
6.480392878344787
 40
6.490215847579046
 40
6.490215847579046
 40
6.509861786047564
 40
6.509861786047564
 40
6.5491536629846
 40
6.5491536629846
 40
6.627737416858674
 40
6.627737416858674
 40
6.78490492460682
 40
6.78490492460682
 40
7.099239940103112
 40
7.099239940103112
 40
7.413574955599404
 40
7.413574955599404
 40
7.552066411691978
 40
7.552066411691978
 40
7.552066411691978
 40
7.552066411691978
 10
15.16227680221907
 20
7.751426786212505
 30
1.768875018147809
 10
15.16318833609892
 20
7.7519530605432
 30
1.768130753851437
 10
15.16393476641422
 20
7.752095594198181
 30
1.767309394679614
 10
15.16533718559929
 20
7.75226150276012
 30
1.765685576336181
 10
15.16598620321763
 20
7.75226167481378
 30
1.764874826676532
 10
15.16790204426268
 20
7.752215018946117
 30
1.762435695982276
 10
15.16911196300059
 20
7.752099374325553
 30
1.760817049836987
 10
15.17274552460292
 20
7.751736893806082
 30
1.755897266892134
 10
15.1751298930141
 20
7.751443179467969
 30
1.752563448981163
 10
15.18227128863525
 20
7.750590501260376
 30
1.742393232521862
 10
15.18708614687982
 20
7.750024626528102
 30
1.735262037951542
 10
15.20124326692455
 20
7.748548053341437
 30
1.713484665895521
 10
15.21078542493904
 20
7.747791779076578
 30
1.697662165723158
 10
15.23757976912855
 20
7.746758891065837
 30
1.649238396530563
 10
15.25433308345071
 20
7.747679427870934
 30
1.613116093501957
 10
15.28090782355882
 20
7.754358090641289
 30
1.540799709342536
 10
15.29149050921767
 20
7.76012796987743
 30
1.502986846837302
 10
15.3011912465128
 20
7.773759292892464
 30
1.448328959642822
 10
15.30341309774228
 20
7.778649418084569
 30
1.431593616856844
 10
15.30479085747372
 20
7.784434010730365
 30
1.414977996873858
1001
ACAD_VIEW_EDGE_ID
1071
       40
1071
       -1
1071
       10
1071
        0
  0
SPLINE
  5
3BC
330
70
100
AcDbEntity
  8
Visible
100
AcDbSpline
 70
     0
 71
     3
 72
     8
 73
     4
 74
     0
 42
0.000000001
 43
0.0000000001
 40
0.8614158771370725
 40
0.8614158771370725
 40
0.8614158771370725
 40
0.8614158771370725
 40
0.9657163878682634
 40
0.9657163878682634
 40
0.9657163878682641
 40
0.9657163878682641
 10
15.30479085747372
 20
7.784434010730365
 30
1.414977996873858
 10
15.30588785920661
 20
7.789039826978296
 30
1.401748285265057
 10
15.30641691933595
 20
7.793599452210401
 30
1.388616060095955
 10
15.30641691933595
 20
7.798111973438608
 30
1.375693555155521
1001
ACAD_VIEW_EDGE_ID
1071
       41
1071
       -1
1071
       10
1071
        0
  0
LINE
  5
3BD
330
70
100
AcDbEntity
  8
Visible
100
AcDbLine
 10
15.162277
 20
7.75563
 30
1.771847
 11
14.048722
 21
7.112719
 31
2.681061
210
0.0000000000000001
220
0.816496580927726
230
0.5773502691896261
  0
LINE
  5
3BE
330
70
100
AcDbEntity
  8
Visible
100
AcDbLine
 10
14.048722
 20
7.108515
 30
2.678089
 11
15.162277
 21
7.751427
 31
1.768875
210
0.0000000000000001
220
0.816496580927726
230
0.5773502691896261
  0
LINE
  5
3BF
330
70
100
AcDbEntity
  8
Visible
100
AcDbLine
 10
14.126525
 20
6.841061
 30
1.557966
 11
14.064123
 21
6.877088
 31
1.507015
210
0.0000000000000001
220
0.816496580927726
230
0.5773502691896261
  0
LINE
  5
3C0
330
70
100
AcDbEntity
  8
Visible
100
AcDbLine
 10
14.533105
 20
7.323687
 30
1.722135
 11
14.533105
 21
7.305788
 31
1.709479
210
0.0000000000000001
220
0.816496580927726
230
0.5773502691896261
  0
LINE
  5
3C1
330
70
100
AcDbEntity
  8
Visible
100
AcDbLine
 10
13.208611
 20
7.250207
 30
2.352088
 11
13.208611
 21
7.155201
 31
2.284908
210
0.0000000000000001
220
0.816496580927726
230
0.5773502691896261
  0
LINE
  5
3C2
330
70
100
AcDbEntity
  8
Visible
100
AcDbLine
 10
15.306417
 20
7.893119
 30
1.442874
 11
15.306417
 21
7.798112
 31
1.375694
210
0.0000000000000001
220
0.816496580927726
230
0.5773502691896261
  0
LINE
  5
3C3
330
70
100
AcDbEntity
  8
Visible
100
AcDbLine
 10
14.50595
 20
8.183561
 30
1.178494
 11
13.317184
 21
7.497227
 31
2.149116
210
0.0000000000000001
220
0.816496580927726
230
0.5773502691896261
  0
LINE
  5
3C4
330
70
100
AcDbEntity
  8
Visible
100
AcDbLine
 10
15.284935
 20
7.757756
 30
1.523291
 11
13.844549
 21
6.926149
 31
2.699361
210
0.0000000000000001
220
0.816496580927726
230
0.5773502691896261
  0
ENDSEC
  0
SECTION
  2
OBJECTS
  0
DICTIONARY
  5
C
330
0
100
AcDbDictionary
281
     1
  3
ACAD_COLOR
350
63
  3
ACAD_DETAILVIEWSTYLE
350
6A
  3
ACAD_GROUP
350
D
  3
ACAD_IMAGE_DICT
350
1B1
  3
ACAD_IMAGE_VARS
350
1B3
  3
ACAD_LAYOUT
350
62
  3
ACAD_MATERIAL
350
10
  3
ACAD_MLEADERSTYLE
350
66
  3
ACAD_MLINESTYLE
350
5F
  3
ACAD_PLOTSETTINGS
350
61
  3
ACAD_PLOTSTYLENAME
350
E
  3
ACAD_SCALELIST
350
42
  3
ACAD_SECTIONVIEWSTYLE
350
68
  3
ACAD_TABLESTYLE
350
64
  3
ACAD_VISUALSTYLE
350
29
  3
ACDB_RECOMPOSE_DATA
350
3F9
  3
AcDbVariableDictionary
350
3F0
  0
DICTIONARY
  5
B4
330
70
100
AcDbDictionary
280
     1
281
     1
  3
ACAD_SORTENTS
360
1A7
  0
DICTIONARY
  5
1AB
330
1AA
100
AcDbDictionary
280
     1
281
     1
  3
ACAD_SORTENTS
360
2E5
  0
IMAGEDEF_REACTOR
  5
1B2
330
1AF
100
AcDbRasterImageDefReactor
 90
        2
330
1AF
  0
DICTIONARY
  5
63
102
{ACAD_REACTORS
330
C
102
}
330
C
100
AcDbDictionary
281
     1
  0
DICTIONARY
  5
6A
102
{ACAD_REACTORS
330
C
102
}
330
C
100
AcDbDictionary
281
     1
  3
Imperial24
350
6B
  0
DICTIONARY
  5
D
102
{ACAD_REACTORS
330
C
102
}
330
C
100
AcDbDictionary
281
     1
  0
DICTIONARY
  5
1B1
102
{ACAD_REACTORS
330
C
102
}
330
C
100
AcDbDictionary
281
     1
  3
morse_logo-16 (1)_01-2018(B)_1_1
350
1B0
  0
RASTERVARIABLES
  5
1B3
102
{ACAD_REACTORS
330
C
102
}
330
C
100
AcDbRasterVariables
 90
        0
 70
     0
 71
     1
 72
     5
  0
DICTIONARY
  5
62
102
{ACAD_REACTORS
330
C
102
}
330
C
100
AcDbDictionary
281
     1
  3
Model
350
73
  3
Sheet1
350
6F
  3
Sheet2
350
77
  0
DICTIONARY
  5
10
102
{ACAD_REACTORS
330
C
102
}
330
C
100
AcDbDictionary
281
     1
  3
ByBlock
350
19
  3
ByLayer
350
11
  3
Global
350
21
  0
DICTIONARY
  5
66
102
{ACAD_REACTORS
330
C
102
}
330
C
100
AcDbDictionary
281
     1
  3
Standard
350
67
  0
DICTIONARY
  5
5F
102
{ACAD_REACTORS
330
C
102
}
330
C
100
AcDbDictionary
281
     1
  3
Standard
350
60
  0
DICTIONARY
  5
61
102
{ACAD_REACTORS
330
C
102
}
330
C
100
AcDbDictionary
281
     1
  0
ACDBDICTIONARYWDFLT
  5
E
102
{ACAD_REACTORS
330
C
102
}
330
C
100
AcDbDictionary
281
     1
  3
Normal
350
F
100
AcDbDictionaryWithDefault
340
F
  0
DICTIONARY
  5
42
102
{ACAD_REACTORS
330
C
102
}
330
C
100
AcDbDictionary
281
     1
  3
*A1
350
A4
  3
*A10
350
AD
  3
*A11
350
AE
  3
*A12
350
AF
  3
*A13
350
B0
  3
*A14
350
B1
  3
*A15
350
B2
  3
*A16
350
B3
  3
*A2
350
A5
  3
*A3
350
A6
  3
*A4
350
A7
  3
*A5
350
A8
  3
*A6
350
A9
  3
*A7
350
AA
  3
*A8
350
AB
  3
*A9
350
AC
  3
A0
350
43
  3
A1
350
44
  3
A2
350
45
  3
A3
350
46
  3
A4
350
47
  3
A5
350
48
  3
A6
350
49
  3
A7
350
4A
  3
A8
350
4B
  3
A9
350
4C
  3
B0
350
4D
  3
B1
350
4E
  3
B2
350
4F
  3
B3
350
50
  3
B4
350
51
  3
B5
350
52
  3
B6
350
53
  0
DICTIONARY
  5
68
102
{ACAD_REACTORS
330
C
102
}
330
C
100
AcDbDictionary
281
     1
  3
Imperial24
350
69
  0
DICTIONARY
  5
64
102
{ACAD_REACTORS
330
C
102
}
330
C
100
AcDbDictionary
281
     1
  3
Standard
350
65
  0
DICTIONARY
  5
29
102
{ACAD_REACTORS
330
C
102
}
330
C
100
AcDbDictionary
281
     1
  3
2dWireframe
350
2F
  3
Basic
350
2E
  3
Brighten
350
35
  3
ColorChange
350
39
  3
Conceptual
350
32
  3
Dim
350
34
  3
EdgeColorOff
350
41
  3
Facepattern
350
38
  3
Flat
350
2A
  3
FlatWithEdges
350
2B
  3
Gouraud
350
2C
  3
GouraudWithEdges
350
2D
  3
Hidden
350
31
  3
JitterOff
350
3F
  3
Linepattern
350
37
  3
OverhangOff
350
40
  3
Realistic
350
33
  3
Shaded
350
3E
  3
Shaded with edges
350
3D
  3
Shades of Gray
350
3A
  3
Sketchy
350
3B
  3
Thicken
350
36
  3
Wireframe
350
30
  3
X-Ray
350
3C
  0
XRECORD
  5
3F9
102
{ACAD_REACTORS
330
C
102
}
330
C
100
AcDbXrecord
280
     1
 90
        1
330
65
330
1B7
330
1C1
330
1C2
330
1C3
330
1C6
  0
DICTIONARY
  5
3F0
102
{ACAD_REACTORS
330
C
102
}
330
C
100
AcDbDictionary
281
     1
  3
ANNOALLVISIBLE
350
3F5
  3
CANNOSCALE
350
3F6
  3
CMLEADERSTYLE
350
3F2
  3
CTABLESTYLE
350
3F1
  3
CVIEWDETAILSTYLE
350
3F3
  3
CVIEWSECTIONSTYLE
350
3F4
  0
SORTENTSTABLE
  5
1A7
102
{ACAD_REACTORS
330
B4
102
}
330
B4
100
AcDbSortentsTable
330
70
  0
SORTENTSTABLE
  5
2E5
102
{ACAD_REACTORS
330
1AB
102
}
330
1AB
100
AcDbSortentsTable
330
1AA
  0
ACDBDETAILVIEWSTYLE
  5
6B
102
{ACAD_XDICTIONARY
360
3FC
102
}
102
{ACAD_REACTORS
330
6A
102
}
330
6A
100
AcDbModelDocViewStyle
 70
     0
  3
Imperial24
290
     0
100
AcDbDetailViewStyle
 70
     0
 71
     0
 90
        3
 71
     1
340
55
 62
   256
 40
0.24
340
0
 62
   256
 40
0.24
300

 40
0.36
280
     3
 71
     2
340
5D
 90
       25
 62
   256
 71
     3
340
55
 62
   256
 40
0.24
 90
        1
 40
0.75
 90
        1
300
%<\AcVar ViewType \f "%tc1">% %<\AcVar ViewDetailId>%\PSCALE %<\AcVar ViewScale \f "%sn">%
 71
     4
340
5D
 90
       25
 62
   256
340
5D
 90
       25
 62
   256
280
     0
  0
IMAGEDEF
  5
1B0
102
{ACAD_REACTORS
330
1B1
330
1B2
330
3C5
102
}
330
1B1
100
AcDbRasterImageDef
 90
        0
  1
morse_logo-16 (1)_01-2018(B)_1_1.jpg
 10
948.0
 20
333.0
 11
0.264583
 21
0.264583
280
     1
281
     5
  0
LAYOUT
  5
73
102
{ACAD_REACTORS
330
62
102
}
330
62
100
AcDbPlotSettings
  1

  2
AutoCAD PDF (High Quality Print).pc3
  4
ANSI_full_bleed_B_(17.00_x_11.00_Inches)
  6

 40
0.0
 41
0.0
 42
0.0
 43
0.0
 44
431.799988
 45
279.399994
 46
0.0
 47
0.0
 48
0.0
 49
0.0
140
0.0
141
0.0
142
1.0
143
1.393433
 70
 11952
 72
     0
 73
     0
 74
     0
  7

 75
     0
147
0.717652
 76
     0
 77
     2
 78
   300
148
114.789816
149
47.132653
100
AcDbLayout
  1
Model
 70
     1
 71
     0
 10
0.0
 20
0.0
 11
12.0
 21
9.0
 12
0.0
 22
0.0
 32
0.0
 14
0.0
 24
0.0
 34
0.0
 15
0.0
 25
0.0
 35
0.0
146
0.0
 13
0.0
 23
0.0
 33
0.0
 16
1.0
 26
0.0
 36
0.0
 17
0.0
 27
1.0
 37
0.0
 76
     0
330
70
1001
ACAD_PSEXT
1000
AutoCAD PDF (High Quality Print).pc3
1000
DWG To PDF
1000
File
1000

1070
     0
  0
LAYOUT
  5
6F
102
{ACAD_REACTORS
330
62
102
}
330
62
100
AcDbPlotSettings
  1

  2
None
  4

  6

 40
0.0
 41
0.0
 42
0.0
 43
0.0
 44
0.0
 45
0.0
 46
0.0
 47
0.0
 48
0.0
 49
0.0
140
0.0
141
0.0
142
1.0
143
1.0
 70
   688
 72
     0
 73
     0
 74
     5
  7

 75
    16
147
1.0
 76
     0
 77
     2
 78
   300
148
0.0
149
0.0
100
AcDbLayout
  1
Sheet1
 70
     1
 71
     1
 10
0.0
 20
0.0
 11
12.0
 21
9.0
 12
0.0
 22
0.0
 32
0.0
 14
0.0
 24
0.0
 34
0.0
 15
0.0
 25
0.0
 35
0.0
146
0.0
 13
0.0
 23
0.0
 33
0.0
 16
1.0
 26
0.0
 36
0.0
 17
0.0
 27
1.0
 37
0.0
 76
     0
330
6C
  0
LAYOUT
  5
77
102
{ACAD_REACTORS
330
62
102
}
330
62
100
AcDbPlotSettings
  1

  2
None
  4

  6

 40
0.0
 41
0.0
 42
0.0
 43
0.0
 44
0.0
 45
0.0
 46
0.0
 47
0.0
 48
0.0
 49
0.0
140
0.0
141
0.0
142
1.0
143
1.0
 70
   688
 72
     0
 73
     0
 74
     5
  7

 75
    16
147
1.0
 76
     0
 77
     2
 78
   300
148
0.0
149
0.0
100
AcDbLayout
  1
Sheet2
 70
     1
 71
     2
 10
0.0
 20
0.0
 11
12.0
 21
9.0
 12
0.0
 22
0.0
 32
0.0
 14
0.0
 24
0.0
 34
0.0
 15
0.0
 25
0.0
 35
0.0
146
0.0
 13
0.0
 23
0.0
 33
0.0
 16
1.0
 26
0.0
 36
0.0
 17
0.0
 27
1.0
 37
0.0
 76
     0
330
74
  0
MATERIAL
  5
19
102
{ACAD_XDICTIONARY
360
1A
102
}
102
{ACAD_REACTORS
330
10
102
}
330
10
100
AcDbMaterial
  1
ByBlock
 72
     0
 43
0.020833
 43
0.0
 43
0.0
 43
0.0
 43
0.0
 43
0.020833
 43
0.0
 43
0.0
 43
0.0
 43
0.0
 43
1.0
 43
0.0
 43
0.0
 43
0.0
 43
0.0
 43
1.0
 77
     0
 47
0.020833
 47
0.0
 47
0.0
 47
0.0
 47
0.0
 47
0.020833
 47
0.0
 47
0.0
 47
0.0
 47
0.0
 47
1.0
 47
0.0
 47
0.0
 47
0.0
 47
0.0
 47
1.0
171
     0
 49
0.020833
 49
0.0
 49
0.0
 49
0.0
 49
0.0
 49
0.020833
 49
0.0
 49
0.0
 49
0.0
 49
0.0
 49
1.0
 49
0.0
 49
0.0
 49
0.0
 49
0.0
 49
1.0
175
     0
142
0.020833
142
0.0
142
0.0
142
0.0
142
0.0
142
0.020833
142
0.0
142
0.0
142
0.0
142
0.0
142
1.0
142
0.0
142
0.0
142
0.0
142
0.0
142
1.0
179
     0
144
0.020833
144
0.0
144
0.0
144
0.0
144
0.0
144
0.020833
144
0.0
144
0.0
144
0.0
144
0.0
144
1.0
144
0.0
144
0.0
144
0.0
144
0.0
144
1.0
147
0.020833
147
0.0
147
0.0
147
0.0
147
0.0
147
0.020833
147
0.0
147
0.0
147
0.0
147
0.0
147
1.0
147
0.0
147
0.0
147
0.0
147
0.0
147
1.0
  0
MATERIAL
  5
11
102
{ACAD_XDICTIONARY
360
12
102
}
102
{ACAD_REACTORS
330
10
102
}
330
10
100
AcDbMaterial
  1
ByLayer
 72
     0
 43
0.020833
 43
0.0
 43
0.0
 43
0.0
 43
0.0
 43
0.020833
 43
0.0
 43
0.0
 43
0.0
 43
0.0
 43
1.0
 43
0.0
 43
0.0
 43
0.0
 43
0.0
 43
1.0
 77
     0
 47
0.020833
 47
0.0
 47
0.0
 47
0.0
 47
0.0
 47
0.020833
 47
0.0
 47
0.0
 47
0.0
 47
0.0
 47
1.0
 47
0.0
 47
0.0
 47
0.0
 47
0.0
 47
1.0
171
     0
 49
0.020833
 49
0.0
 49
0.0
 49
0.0
 49
0.0
 49
0.020833
 49
0.0
 49
0.0
 49
0.0
 49
0.0
 49
1.0
 49
0.0
 49
0.0
 49
0.0
 49
0.0
 49
1.0
175
     0
142
0.020833
142
0.0
142
0.0
142
0.0
142
0.0
142
0.020833
142
0.0
142
0.0
142
0.0
142
0.0
142
1.0
142
0.0
142
0.0
142
0.0
142
0.0
142
1.0
179
     0
144
0.020833
144
0.0
144
0.0
144
0.0
144
0.0
144
0.020833
144
0.0
144
0.0
144
0.0
144
0.0
144
1.0
144
0.0
144
0.0
144
0.0
144
0.0
144
1.0
147
0.020833
147
0.0
147
0.0
147
0.0
147
0.0
147
0.020833
147
0.0
147
0.0
147
0.0
147
0.0
147
1.0
147
0.0
147
0.0
147
0.0
147
0.0
147
1.0
  0
MATERIAL
  5
21
102
{ACAD_XDICTIONARY
360
22
102
}
102
{ACAD_REACTORS
330
10
102
}
330
10
100
AcDbMaterial
  1
Global
 72
     0
 43
0.020833
 43
0.0
 43
0.0
 43
0.0
 43
0.0
 43
0.020833
 43
0.0
 43
0.0
 43
0.0
 43
0.0
 43
1.0
 43
0.0
 43
0.0
 43
0.0
 43
0.0
 43
1.0
 77
     0
 47
0.020833
 47
0.0
 47
0.0
 47
0.0
 47
0.0
 47
0.020833
 47
0.0
 47
0.0
 47
0.0
 47
0.0
 47
1.0
 47
0.0
 47
0.0
 47
0.0
 47
0.0
 47
1.0
171
     0
 49
0.020833
 49
0.0
 49
0.0
 49
0.0
 49
0.0
 49
0.020833
 49
0.0
 49
0.0
 49
0.0
 49
0.0
 49
1.0
 49
0.0
 49
0.0
 49
0.0
 49
0.0
 49
1.0
175
     0
142
0.020833
142
0.0
142
0.0
142
0.0
142
0.0
142
0.020833
142
0.0
142
0.0
142
0.0
142
0.0
142
1.0
142
0.0
142
0.0
142
0.0
142
0.0
142
1.0
179
     0
144
0.020833
144
0.0
144
0.0
144
0.0
144
0.0
144
0.020833
144
0.0
144
0.0
144
0.0
144
0.0
144
1.0
144
0.0
144
0.0
144
0.0
144
0.0
144
1.0
147
0.020833
147
0.0
147
0.0
147
0.0
147
0.0
147
0.020833
147
0.0
147
0.0
147
0.0
147
0.0
147
1.0
147
0.0
147
0.0
147
0.0
147
0.0
147
1.0
  0
MLEADERSTYLE
  5
67
102
{ACAD_REACTORS
330
66
102
}
330
66
100
AcDbMLeaderStyle
179
     2
170
     2
171
     1
172
     0
 90
        2
 40
0.0
 41
0.0
173
     1
 91
-1056964608
340
5B
 92
       -2
290
     1
 42
0.09
291
     1
 43
0.36
  3
Standard
 44
0.18
300

342
55
174
     1
178
     6
175
     1
176
     0
 93
-1056964608
 45
0.18
292
     0
297
     0
 46
0.18
 94
-1056964608
 47
1.0
 49
1.0
140
1.0
293
     1
141
0.0
294
     1
177
     0
142
1.0
295
     0
296
     0
143
0.125
271
     0
272
     9
273
     9
298
     1
  0
MLINESTYLE
  5
60
102
{ACAD_REACTORS
330
5F
102
}
330
5F
100
AcDbMlineStyle
  2
STANDARD
 70
     0
  3

 62
   256
 51
90.0
 52
90.0
 71
     0
  0
ACDBPLACEHOLDER
  5
F
102
{ACAD_REACTORS
330
E
102
}
330
E
  0
SCALE
  5
A4
102
{ACAD_REACTORS
330
42
102
}
330
42
100
AcDbScale
 70
     0
300
1:2
140
1.0
141
2.0
290
     0
  0
SCALE
  5
AD
102
{ACAD_REACTORS
330
42
102
}
330
42
100
AcDbScale
 70
     0
300
1:50
140
1.0
141
50.0
290
     0
  0
SCALE
  5
AE
102
{ACAD_REACTORS
330
42
102
}
330
42
100
AcDbScale
 70
     0
300
1:100
140
1.0
141
100.0
290
     0
  0
SCALE
  5
AF
102
{ACAD_REACTORS
330
42
102
}
330
42
100
AcDbScale
 70
     0
300
2:1
140
2.0
141
1.0
290
     0
  0
SCALE
  5
B0
102
{ACAD_REACTORS
330
42
102
}
330
42
100
AcDbScale
 70
     0
300
4:1
140
4.0
141
1.0
290
     0
  0
SCALE
  5
B1
102
{ACAD_REACTORS
330
42
102
}
330
42
100
AcDbScale
 70
     0
300
8:1
140
8.0
141
1.0
290
     0
  0
SCALE
  5
B2
102
{ACAD_REACTORS
330
42
102
}
330
42
100
AcDbScale
 70
     0
300
10:1
140
10.0
141
1.0
290
     0
  0
SCALE
  5
B3
102
{ACAD_REACTORS
330
42
102
}
330
42
100
AcDbScale
 70
     0
300
100:1
140
100.0
141
1.0
290
     0
  0
SCALE
  5
A5
102
{ACAD_REACTORS
330
42
102
}
330
42
100
AcDbScale
 70
     0
300
1:4
140
1.0
141
4.0
290
     0
  0
SCALE
  5
A6
102
{ACAD_REACTORS
330
42
102
}
330
42
100
AcDbScale
 70
     0
300
1:5
140
1.0
141
5.0
290
     0
  0
SCALE
  5
A7
102
{ACAD_REACTORS
330
42
102
}
330
42
100
AcDbScale
 70
     0
300
1:8
140
1.0
141
8.0
290
     0
  0
SCALE
  5
A8
102
{ACAD_REACTORS
330
42
102
}
330
42
100
AcDbScale
 70
     0
300
1:10
140
1.0
141
10.0
290
     0
  0
SCALE
  5
A9
102
{ACAD_REACTORS
330
42
102
}
330
42
100
AcDbScale
 70
     0
300
1:16
140
1.0
141
16.0
290
     0
  0
SCALE
  5
AA
102
{ACAD_REACTORS
330
42
102
}
330
42
100
AcDbScale
 70
     0
300
1:20
140
1.0
141
20.0
290
     0
  0
SCALE
  5
AB
102
{ACAD_REACTORS
330
42
102
}
330
42
100
AcDbScale
 70
     0
300
1:30
140
1.0
141
30.0
290
     0
  0
SCALE
  5
AC
102
{ACAD_REACTORS
330
42
102
}
330
42
100
AcDbScale
 70
     0
300
1:40
140
1.0
141
40.0
290
     0
  0
SCALE
  5
43
102
{ACAD_REACTORS
330
42
102
}
330
42
100
AcDbScale
 70
     0
300
1:1
140
1.0
141
1.0
290
     1
  0
SCALE
  5
44
102
{ACAD_REACTORS
330
42
102
}
330
42
100
AcDbScale
 70
     0
300
1/128" = 1'-0"
140
0.007813
141
12.0
290
     0
  0
SCALE
  5
45
102
{ACAD_REACTORS
330
42
102
}
330
42
100
AcDbScale
 70
     0
300
1/64" = 1'-0"
140
0.015625
141
12.0
290
     0
  0
SCALE
  5
46
102
{ACAD_REACTORS
330
42
102
}
330
42
100
AcDbScale
 70
     0
300
1/32" = 1'-0"
140
0.03125
141
12.0
290
     0
  0
SCALE
  5
47
102
{ACAD_REACTORS
330
42
102
}
330
42
100
AcDbScale
 70
     0
300
1/16" = 1'-0"
140
0.0625
141
12.0
290
     0
  0
SCALE
  5
48
102
{ACAD_REACTORS
330
42
102
}
330
42
100
AcDbScale
 70
     0
300
3/32" = 1'-0"
140
0.09375
141
12.0
290
     0
  0
SCALE
  5
49
102
{ACAD_REACTORS
330
42
102
}
330
42
100
AcDbScale
 70
     0
300
1/8" = 1'-0"
140
0.125
141
12.0
290
     0
  0
SCALE
  5
4A
102
{ACAD_REACTORS
330
42
102
}
330
42
100
AcDbScale
 70
     0
300
3/16" = 1'-0"
140
0.1875
141
12.0
290
     0
  0
SCALE
  5
4B
102
{ACAD_REACTORS
330
42
102
}
330
42
100
AcDbScale
 70
     0
300
1/4" = 1'-0"
140
0.25
141
12.0
290
     0
  0
SCALE
  5
4C
102
{ACAD_REACTORS
330
42
102
}
330
42
100
AcDbScale
 70
     0
300
3/8" = 1'-0"
140
0.375
141
12.0
290
     0
  0
SCALE
  5
4D
102
{ACAD_REACTORS
330
42
102
}
330
42
100
AcDbScale
 70
     0
300
1/2" = 1'-0"
140
0.5
141
12.0
290
     0
  0
SCALE
  5
4E
102
{ACAD_REACTORS
330
42
102
}
330
42
100
AcDbScale
 70
     0
300
3/4" = 1'-0"
140
0.75
141
12.0
290
     0
  0
SCALE
  5
4F
102
{ACAD_REACTORS
330
42
102
}
330
42
100
AcDbScale
 70
     0
300
1" = 1'-0"
140
1.0
141
12.0
290
     0
  0
SCALE
  5
50
102
{ACAD_REACTORS
330
42
102
}
330
42
100
AcDbScale
 70
     0
300
1-1/2" = 1'-0"
140
1.5
141
12.0
290
     0
  0
SCALE
  5
51
102
{ACAD_REACTORS
330
42
102
}
330
42
100
AcDbScale
 70
     0
300
3" = 1'-0"
140
3.0
141
12.0
290
     0
  0
SCALE
  5
52
102
{ACAD_REACTORS
330
42
102
}
330
42
100
AcDbScale
 70
     0
300
6" = 1'-0"
140
6.0
141
12.0
290
     0
  0
SCALE
  5
53
102
{ACAD_REACTORS
330
42
102
}
330
42
100
AcDbScale
 70
     0
300
1'-0" = 1'-0"
140
12.0
141
12.0
290
     0
  0
ACDBSECTIONVIEWSTYLE
  5
69
102
{ACAD_XDICTIONARY
360
3FA
102
}
102
{ACAD_REACTORS
330
68
102
}
330
68
100
AcDbModelDocViewStyle
 70
     0
  3
Imperial24
290
     0
100
AcDbSectionViewStyle
 70
     0
 71
     0
 90
       78
 71
     1
340
55
 62
   256
 40
0.24
340
0
340
0
 62
   256
 40
0.24
300
I, O, Q, S, X, Z
 40
0.48
 90
        3
 40
0.18
 90
        1
 71
     2
340
5D
 90
       25
 62
   256
340
5D
 90
       50
 62
   256
 40
0.24
 40
0.0
 40
0.24
 71
     3
340
55
 62
   256
 40
0.24
 90
        1
 40
0.75
 90
        1
300
%<\AcVar ViewType \f "%tc1">% %<\AcVar ViewSectionStartId>%-%<\AcVar ViewSectionEndId>%\PSCALE %<\AcVar ViewScale \f "%sn">%
 71
     4
 62
   256
 62
   257
300
ANSI31
 40
1.0
 90
        0
290
     0
290
     0
 90
        6
 40
0.0
 40
1.570796
 40
0.261799
 40
1.308997
 40
-0.261799
 40
1.832596
  0
TABLESTYLE
  5
65
102
{ACAD_XDICTIONARY
360
3F7
102
}
102
{ACAD_REACTORS
330
64
102
}
330
64
100
AcDbTableStyle
280
     0
  3
Standard
 70
     0
 71
     0
 40
0.06
 41
0.06
280
     0
281
     0
  7
Standard
140
0.18
170
     2
 62
     0
 63
     7
283
     0
 90
      512
 91
        0
  1

274
    -2
284
     1
 64
     0
275
    -2
285
     1
 65
     0
276
    -2
286
     1
 66
     0
277
    -2
287
     1
 67
     0
278
    -2
288
     1
 68
     0
279
    -2
289
     1
 69
     0
  7
Standard
140
0.25
170
     5
 62
     0
 63
     7
283
     0
 90
      512
 91
        0
  1

274
    -2
284
     1
 64
     0
275
    -2
285
     1
 65
     0
276
    -2
286
     1
 66
     0
277
    -2
287
     1
 67
     0
278
    -2
288
     1
 68
     0
279
    -2
289
     1
 69
     0
  7
Standard
140
0.18
170
     5
 62
     0
 63
     7
283
     0
 90
      512
 91
        0
  1

274
    -2
284
     1
 64
     0
275
    -2
285
     1
 65
     0
276
    -2
286
     1
 66
     0
277
    -2
287
     1
 67
     0
278
    -2
288
     1
 68
     0
279
    -2
289
     1
 69
     0
  0
VISUALSTYLE
  5
2F
102
{ACAD_REACTORS
330
29
102
}
330
29
100
AcDbVisualStyle
  2
2dWireframe
 70
     4
177
     3
291
     0
 70
    58
 90
        0
176
     1
 90
        2
176
     1
 90
        0
176
     1
 90
        0
176
     1
 40
0.6
176
     1
 40
30.0
176
     1
 62
     7
420
 16777215
176
     1
 90
        1
176
     1
 90
        4
176
     1
 62
     7
176
     1
 62
   257
176
     1
 90
        1
176
     1
 90
        1
176
     1
 40
1.0
176
     1
 90
        0
176
     1
 62
   257
176
     1
 40
1.0
176
     1
 90
        1
176
     1
 90
        6
176
     1
 90
        2
176
     1
 62
     7
176
     1
 90
        5
176
     1
 90
        0
176
     1
 90
        0
176
     1
290
     0
176
     1
 90
        1
176
     1
 40
0.0
176
     1
 90
        0
176
     1
290
     1
176
     1
290
     1
176
     1
290
     0
176
     1
290
     0
176
     1
290
     0
176
     1
290
     0
176
     1
290
     0
176
     1
290
     0
176
     1
290
     0
176
     1
 90
       50
176
     1
 40
0.0
176
     1
 40
1.0
176
     1
 90
        0
176
     1
 62
    18
420
        0
176
     1
 90
       50
176
     1
 90
        3
176
     1
 62
     5
420
      255
176
     1
290
     0
176
     1
 90
       50
176
     1
 90
       50
176
     1
 90
       50
176
     1
290
     0
176
     1
 90
       50
176
     1
 62
   256
176
     0
 40
1.0
176
     0
 90
        2
176
     1
  1
strokes_ogs.tif
176
     1
290
     0
176
     1
 40
1.0
176
     1
 40
1.0
176
     1
1001
ACAD
1000
AcDbSavedByObjectVersion
1070
     0
  0
VISUALSTYLE
  5
2E
102
{ACAD_REACTORS
330
29
102
}
330
29
100
AcDbVisualStyle
  2
Basic
 70
     7
177
     3
291
     1
 70
    58
 90
        1
176
     1
 90
        0
176
     1
 90
        1
176
     1
 90
        0
176
     1
 40
0.6
176
     1
 40
30.0
176
     1
 62
     7
420
 16777215
176
     1
 90
        0
176
     1
 90
        4
176
     1
 62
     7
176
     1
 62
   257
176
     1
 90
        1
176
     1
 90
        1
176
     1
 40
1.0
176
     1
 90
        8
176
     1
 62
     7
176
     1
 40
1.0
176
     1
 90
        1
176
     1
 90
        6
176
     1
 90
        2
176
     1
 62
     7
176
     1
 90
        5
176
     1
 90
        0
176
     1
 90
        0
176
     1
290
     0
176
     1
 90
        1
176
     1
 40
0.0
176
     1
 90
        0
176
     1
290
     0
176
     1
290
     1
176
     1
290
     1
176
     1
290
     0
176
     1
290
     0
176
     1
290
     0
176
     1
290
     0
176
     1
290
     0
176
     1
290
     0
176
     1
 90
       50
176
     1
 40
0.0
176
     1
 40
1.0
176
     1
 90
        0
176
     1
 62
    18
420
        0
176
     1
 90
       50
176
     1
 90
        3
176
     1
 62
     5
420
      255
176
     1
290
     0
176
     1
 90
       50
176
     1
 90
       50
176
     1
 90
       50
176
     1
290
     0
176
     1
 90
       50
176
     1
 62
   256
176
     0
 40
1.0
176
     0
 90
        2
176
     1
  1
strokes_ogs.tif
176
     1
290
     0
176
     1
 40
1.0
176
     1
 40
1.0
176
     1
1001
ACAD
1000
AcDbSavedByObjectVersion
1070
     0
  0
VISUALSTYLE
  5
35
102
{ACAD_REACTORS
330
29
102
}
330
29
100
AcDbVisualStyle
  2
Brighten
 70
    12
177
     3
291
     1
 70
    58
 90
        2
176
     1
 90
        2
176
     1
 90
        0
176
     1
 90
        0
176
     1
 40
0.6
176
     1
 40
30.0
176
     1
 62
     7
420
 16777215
176
     1
 90
        1
176
     1
 90
        4
176
     1
 62
     7
176
     1
 62
   257
176
     1
 90
        1
176
     1
 90
        1
176
     1
 40
1.0
176
     1
 90
        8
176
     1
 62
     7
176
     1
 40
1.0
176
     1
 90
        1
176
     1
 90
        6
176
     1
 90
        2
176
     1
 62
     7
176
     1
 90
        5
176
     1
 90
        0
176
     1
 90
        0
176
     1
290
     0
176
     1
 90
        1
176
     1
 40
50.0
176
     1
 90
        0
176
     1
290
     0
176
     1
290
     1
176
     1
290
     1
176
     1
290
     0
176
     1
290
     0
176
     1
290
     0
176
     1
290
     0
176
     1
290
     0
176
     1
290
     0
176
     1
 90
       50
176
     1
 40
0.0
176
     1
 40
1.0
176
     1
 90
        0
176
     1
 62
    18
420
        0
176
     1
 90
       50
176
     1
 90
        3
176
     1
 62
     5
420
      255
176
     1
290
     0
176
     1
 90
       50
176
     1
 90
       50
176
     1
 90
       50
176
     1
290
     0
176
     1
 90
       50
176
     1
 62
   256
176
     0
 40
1.0
176
     0
 90
        2
176
     1
  1
strokes_ogs.tif
176
     1
290
     0
176
     1
 40
1.0
176
     1
 40
1.0
176
     1
1001
ACAD
1000
AcDbSavedByObjectVersion
1070
     0
  0
VISUALSTYLE
  5
39
102
{ACAD_REACTORS
330
29
102
}
330
29
100
AcDbVisualStyle
  2
ColorChange
 70
    16
177
     3
291
     1
 70
    58
 90
        2
176
     1
 90
        2
176
     1
 90
        3
176
     1
 90
        0
176
     1
 40
0.6
176
     1
 40
30.0
176
     1
 62
     8
420
  8421504
176
     1
 90
        1
176
     1
 90
        4
176
     1
 62
     7
176
     1
 62
   257
176
     1
 90
        1
176
     1
 90
        1
176
     1
 40
1.0
176
     1
 90
        8
176
     1
 62
     8
420
  8421504
176
     1
 40
1.0
176
     1
 90
        1
176
     1
 90
        6
176
     1
 90
        2
176
     1
 62
     7
176
     1
 90
        5
176
     1
 90
        0
176
     1
 90
        0
176
     1
290
     0
176
     1
 90
        1
176
     1
 40
0.0
176
     1
 90
        0
176
     1
290
     0
176
     1
290
     1
176
     1
290
     1
176
     1
290
     0
176
     1
290
     0
176
     1
290
     0
176
     1
290
     0
176
     1
290
     0
176
     1
290
     0
176
     1
 90
       50
176
     1
 40
0.0
176
     1
 40
1.0
176
     1
 90
        0
176
     1
 62
    18
420
        0
176
     1
 90
       50
176
     1
 90
        3
176
     1
 62
     5
420
      255
176
     1
290
     0
176
     1
 90
       50
176
     1
 90
       50
176
     1
 90
       50
176
     1
290
     0
176
     1
 90
       50
176
     1
 62
   256
176
     0
 40
1.0
176
     0
 90
        2
176
     1
  1
strokes_ogs.tif
176
     1
290
     0
176
     1
 40
1.0
176
     1
 40
1.0
176
     1
1001
ACAD
1000
AcDbSavedByObjectVersion
1070
     0
  0
VISUALSTYLE
  5
32
102
{ACAD_REACTORS
330
29
102
}
330
29
100
AcDbVisualStyle
  2
Conceptual
 70
     9
177
     3
291
     0
 70
    58
 90
        3
176
     1
 90
        2
176
     1
 90
        0
176
     1
 90
        0
176
     1
 40
0.6
176
     1
 40
30.0
176
     1
 62
     7
420
 16777215
176
     1
 90
        2
176
     1
 90
        2
176
     1
 62
     7
176
     1
 62
   257
176
     1
 90
        1
176
     1
 90
        1
176
     1
 40
179.0
176
     1
 90
        8
176
     1
 62
     7
176
     1
 40
1.0
176
     1
 90
        1
176
     1
 90
        6
176
     1
 90
        2
176
     1
 62
     7
176
     1
 90
        3
176
     1
 90
        0
176
     1
 90
        0
176
     1
290
     0
176
     1
 90
        1
176
     1
 40
0.0
176
     1
 90
        0
176
     1
290
     0
176
     1
290
     1
176
     1
290
     1
176
     1
290
     0
176
     1
290
     0
176
     1
290
     0
176
     1
290
     0
176
     1
290
     0
176
     1
290
     0
176
     1
 90
       50
176
     1
 40
0.0
176
     1
 40
1.0
176
     1
 90
        0
176
     1
 62
    18
420
        0
176
     1
 90
       50
176
     1
 90
        3
176
     1
 62
     5
420
      255
176
     1
290
     0
176
     1
 90
       50
176
     1
 90
       50
176
     1
 90
       50
176
     1
290
     0
176
     1
 90
       50
176
     1
 62
   256
176
     0
 40
1.0
176
     0
 90
        2
176
     1
  1
strokes_ogs.tif
176
     1
290
     0
176
     1
 40
1.0
176
     1
 40
1.0
176
     1
1001
ACAD
1000
AcDbSavedByObjectVersion
1070
     0
  0
VISUALSTYLE
  5
34
102
{ACAD_REACTORS
330
29
102
}
330
29
100
AcDbVisualStyle
  2
Dim
 70
    11
177
     3
291
     1
 70
    58
 90
        2
176
     1
 90
        2
176
     1
 90
        0
176
     1
 90
        0
176
     1
 40
0.6
176
     1
 40
30.0
176
     1
 62
     7
420
 16777215
176
     1
 90
        1
176
     1
 90
        4
176
     1
 62
     7
176
     1
 62
   257
176
     1
 90
        1
176
     1
 90
        1
176
     1
 40
1.0
176
     1
 90
        8
176
     1
 62
     7
176
     1
 40
1.0
176
     1
 90
        1
176
     1
 90
        6
176
     1
 90
        2
176
     1
 62
     7
176
     1
 90
        5
176
     1
 90
        0
176
     1
 90
        0
176
     1
290
     0
176
     1
 90
        1
176
     1
 40
-50.0
176
     1
 90
        0
176
     1
290
     0
176
     1
290
     1
176
     1
290
     1
176
     1
290
     0
176
     1
290
     0
176
     1
290
     0
176
     1
290
     0
176
     1
290
     0
176
     1
290
     0
176
     1
 90
       50
176
     1
 40
0.0
176
     1
 40
1.0
176
     1
 90
        0
176
     1
 62
    18
420
        0
176
     1
 90
       50
176
     1
 90
        3
176
     1
 62
     5
420
      255
176
     1
290
     0
176
     1
 90
       50
176
     1
 90
       50
176
     1
 90
       50
176
     1
290
     0
176
     1
 90
       50
176
     1
 62
   256
176
     0
 40
1.0
176
     0
 90
        2
176
     1
  1
strokes_ogs.tif
176
     1
290
     0
176
     1
 40
1.0
176
     1
 40
1.0
176
     1
1001
ACAD
1000
AcDbSavedByObjectVersion
1070
     0
  0
VISUALSTYLE
  5
41
102
{ACAD_REACTORS
330
29
102
}
330
29
100
AcDbVisualStyle
  2
EdgeColorOff
 70
    22
177
     3
291
     1
 70
    58
 90
        2
176
     0
 90
        2
176
     0
 90
        0
176
     0
 90
        0
176
     0
 40
0.6
176
     0
 40
30.0
176
     0
 62
     7
420
 16777215
176
     0
 90
        1
176
     0
 90
        4
176
     0
 62
     7
176
     0
 62
   257
176
     0
 90
        1
176
     0
 90
        1
176
     0
 40
1.0
176
     0
 90
        8
176
     2
 62
     7
176
     0
 40
1.0
176
     0
 90
        1
176
     0
 90
        6
176
     0
 90
        2
176
     0
 62
     7
176
     0
 90
        5
176
     0
 90
        0
176
     0
 90
        0
176
     0
290
     0
176
     0
 90
        1
176
     0
 40
0.0
176
     0
 90
        0
176
     0
290
     0
176
     0
290
     1
176
     0
290
     1
176
     0
290
     0
176
     0
290
     0
176
     0
290
     0
176
     0
290
     0
176
     0
290
     0
176
     0
290
     0
176
     0
 90
       50
176
     0
 40
0.0
176
     0
 40
1.0
176
     0
 90
        0
176
     0
 62
    18
420
        0
176
     0
 90
       50
176
     0
 90
        3
176
     0
 62
     5
420
      255
176
     0
290
     0
176
     0
 90
       50
176
     0
 90
       50
176
     0
 90
       50
176
     0
290
     0
176
     0
 90
       50
176
     0
 62
   256
176
     0
 40
1.0
176
     0
 90
        2
176
     0
  1
strokes_ogs.tif
176
     0
290
     0
176
     0
 40
1.0
176
     0
 40
1.0
176
     0
1001
ACAD
1000
AcDbSavedByObjectVersion
1070
     0
  0
VISUALSTYLE
  5
38
102
{ACAD_REACTORS
330
29
102
}
330
29
100
AcDbVisualStyle
  2
Facepattern
 70
    15
177
     3
291
     1
 70
    58
 90
        2
176
     1
 90
        2
176
     1
 90
        0
176
     1
 90
        0
176
     1
 40
0.6
176
     1
 40
30.0
176
     1
 62
     7
420
 16777215
176
     1
 90
        1
176
     1
 90
        4
176
     1
 62
     7
176
     1
 62
   257
176
     1
 90
        1
176
     1
 90
        1
176
     1
 40
1.0
176
     1
 90
        8
176
     1
 62
     7
176
     1
 40
1.0
176
     1
 90
        1
176
     1
 90
        6
176
     1
 90
        2
176
     1
 62
     7
176
     1
 90
        5
176
     1
 90
        0
176
     1
 90
        0
176
     1
290
     0
176
     1
 90
        1
176
     1
 40
0.0
176
     1
 90
        0
176
     1
290
     0
176
     1
290
     1
176
     1
290
     1
176
     1
290
     0
176
     1
290
     0
176
     1
290
     0
176
     1
290
     0
176
     1
290
     0
176
     1
290
     0
176
     1
 90
       50
176
     1
 40
0.0
176
     1
 40
1.0
176
     1
 90
        0
176
     1
 62
    18
420
        0
176
     1
 90
       50
176
     1
 90
        3
176
     1
 62
     5
420
      255
176
     1
290
     0
176
     1
 90
       50
176
     1
 90
       50
176
     1
 90
       50
176
     1
290
     0
176
     1
 90
       50
176
     1
 62
   256
176
     0
 40
1.0
176
     0
 90
        2
176
     1
  1
strokes_ogs.tif
176
     1
290
     0
176
     1
 40
1.0
176
     1
 40
1.0
176
     1
1001
ACAD
1000
AcDbSavedByObjectVersion
1070
     0
  0
VISUALSTYLE
  5
2A
102
{ACAD_REACTORS
330
29
102
}
330
29
100
AcDbVisualStyle
  2
Flat
 70
     0
177
     3
291
     1
 70
    58
 90
        2
176
     1
 90
        1
176
     1
 90
        1
176
     1
 90
        2
176
     1
 40
0.6
176
     1
 40
30.0
176
     1
 62
     7
420
 16777215
176
     1
 90
        0
176
     1
 90
        0
176
     1
 62
     7
176
     1
 62
   257
176
     1
 90
        1
176
     1
 90
        1
176
     1
 40
1.0
176
     1
 90
        8
176
     1
 62
     7
176
     1
 40
1.0
176
     1
 90
        1
176
     1
 90
        6
176
     1
 90
        2
176
     1
 62
     7
176
     1
 90
        5
176
     1
 90
        0
176
     1
 90
        0
176
     1
290
     0
176
     1
 90
       13
176
     1
 40
0.0
176
     1
 90
        0
176
     1
290
     0
176
     1
290
     1
176
     1
290
     1
176
     1
290
     0
176
     1
290
     0
176
     1
290
     0
176
     1
290
     0
176
     1
290
     0
176
     1
290
     0
176
     1
 90
       50
176
     1
 40
0.0
176
     1
 40
1.0
176
     1
 90
        0
176
     1
 62
    18
420
        0
176
     1
 90
       50
176
     1
 90
        3
176
     1
 62
     5
420
      255
176
     1
290
     0
176
     1
 90
       50
176
     1
 90
       50
176
     1
 90
       50
176
     1
290
     0
176
     1
 90
       50
176
     1
 62
   256
176
     0
 40
1.0
176
     0
 90
        2
176
     1
  1
strokes_ogs.tif
176
     1
290
     0
176
     1
 40
1.0
176
     1
 40
1.0
176
     1
1001
ACAD
1000
AcDbSavedByObjectVersion
1070
     0
  0
VISUALSTYLE
  5
2B
102
{ACAD_REACTORS
330
29
102
}
330
29
100
AcDbVisualStyle
  2
FlatWithEdges
 70
     1
177
     3
291
     1
 70
    58
 90
        2
176
     1
 90
        1
176
     1
 90
        1
176
     1
 90
        2
176
     1
 40
0.6
176
     1
 40
30.0
176
     1
 62
     7
420
 16777215
176
     1
 90
        1
176
     1
 90
        0
176
     1
 62
     7
176
     1
 62
   257
176
     1
 90
        1
176
     1
 90
        1
176
     1
 40
1.0
176
     1
 90
        0
176
     1
 62
   257
176
     1
 40
1.0
176
     1
 90
        1
176
     1
 90
        6
176
     1
 90
        2
176
     1
 62
     7
176
     1
 90
        5
176
     1
 90
        0
176
     1
 90
        0
176
     1
290
     0
176
     1
 90
       13
176
     1
 40
0.0
176
     1
 90
        0
176
     1
290
     0
176
     1
290
     1
176
     1
290
     1
176
     1
290
     0
176
     1
290
     0
176
     1
290
     0
176
     1
290
     0
176
     1
290
     0
176
     1
290
     0
176
     1
 90
       50
176
     1
 40
0.0
176
     1
 40
1.0
176
     1
 90
        0
176
     1
 62
    18
420
        0
176
     1
 90
       50
176
     1
 90
        3
176
     1
 62
     5
420
      255
176
     1
290
     0
176
     1
 90
       50
176
     1
 90
       50
176
     1
 90
       50
176
     1
290
     0
176
     1
 90
       50
176
     1
 62
   256
176
     0
 40
1.0
176
     0
 90
        2
176
     1
  1
strokes_ogs.tif
176
     1
290
     0
176
     1
 40
1.0
176
     1
 40
1.0
176
     1
1001
ACAD
1000
AcDbSavedByObjectVersion
1070
     0
  0
VISUALSTYLE
  5
2C
102
{ACAD_REACTORS
330
29
102
}
330
29
100
AcDbVisualStyle
  2
Gouraud
 70
     2
177
     3
291
     1
 70
    58
 90
        2
176
     1
 90
        2
176
     1
 90
        1
176
     1
 90
        2
176
     1
 40
0.6
176
     1
 40
30.0
176
     1
 62
     7
420
 16777215
176
     1
 90
        0
176
     1
 90
        0
176
     1
 62
     7
176
     1
 62
   257
176
     1
 90
        1
176
     1
 90
        1
176
     1
 40
1.0
176
     1
 90
        0
176
     1
 62
     7
176
     1
 40
1.0
176
     1
 90
        1
176
     1
 90
        6
176
     1
 90
        2
176
     1
 62
     7
176
     1
 90
        5
176
     1
 90
        0
176
     1
 90
        0
176
     1
290
     0
176
     1
 90
       13
176
     1
 40
0.0
176
     1
 90
        0
176
     1
290
     0
176
     1
290
     1
176
     1
290
     1
176
     1
290
     0
176
     1
290
     0
176
     1
290
     0
176
     1
290
     0
176
     1
290
     0
176
     1
290
     0
176
     1
 90
       50
176
     1
 40
0.0
176
     1
 40
1.0
176
     1
 90
        0
176
     1
 62
    18
420
        0
176
     1
 90
       50
176
     1
 90
        3
176
     1
 62
     5
420
      255
176
     1
290
     0
176
     1
 90
       50
176
     1
 90
       50
176
     1
 90
       50
176
     1
290
     0
176
     1
 90
       50
176
     1
 62
   256
176
     0
 40
1.0
176
     0
 90
        2
176
     1
  1
strokes_ogs.tif
176
     1
290
     0
176
     1
 40
1.0
176
     1
 40
1.0
176
     1
1001
ACAD
1000
AcDbSavedByObjectVersion
1070
     0
  0
VISUALSTYLE
  5
2D
102
{ACAD_REACTORS
330
29
102
}
330
29
100
AcDbVisualStyle
  2
GouraudWithEdges
 70
     3
177
     3
291
     1
 70
    58
 90
        2
176
     1
 90
        2
176
     1
 90
        1
176
     1
 90
        2
176
     1
 40
0.6
176
     1
 40
30.0
176
     1
 62
     7
420
 16777215
176
     1
 90
        1
176
     1
 90
        0
176
     1
 62
     7
176
     1
 62
   257
176
     1
 90
        1
176
     1
 90
        1
176
     1
 40
1.0
176
     1
 90
        0
176
     1
 62
   257
176
     1
 40
1.0
176
     1
 90
        1
176
     1
 90
        6
176
     1
 90
        2
176
     1
 62
     7
176
     1
 90
        5
176
     1
 90
        0
176
     1
 90
        0
176
     1
290
     0
176
     1
 90
       13
176
     1
 40
0.0
176
     1
 90
        0
176
     1
290
     0
176
     1
290
     1
176
     1
290
     1
176
     1
290
     0
176
     1
290
     0
176
     1
290
     0
176
     1
290
     0
176
     1
290
     0
176
     1
290
     0
176
     1
 90
       50
176
     1
 40
0.0
176
     1
 40
1.0
176
     1
 90
        0
176
     1
 62
    18
420
        0
176
     1
 90
       50
176
     1
 90
        3
176
     1
 62
     5
420
      255
176
     1
290
     0
176
     1
 90
       50
176
     1
 90
       50
176
     1
 90
       50
176
     1
290
     0
176
     1
 90
       50
176
     1
 62
   256
176
     0
 40
1.0
176
     0
 90
        2
176
     1
  1
strokes_ogs.tif
176
     1
290
     0
176
     1
 40
1.0
176
     1
 40
1.0
176
     1
1001
ACAD
1000
AcDbSavedByObjectVersion
1070
     0
  0
VISUALSTYLE
  5
31
102
{ACAD_REACTORS
330
29
102
}
330
29
100
AcDbVisualStyle
  2
Hidden
 70
     6
177
     3
291
     0
 70
    58
 90
        1
176
     1
 90
        2
176
     1
 90
        2
176
     1
 90
        0
176
     1
 40
0.6
176
     1
 40
30.0
176
     1
 62
     7
420
 16777215
176
     1
 90
        2
176
     1
 90
        2
176
     1
 62
     7
176
     1
 62
   257
176
     1
 90
        2
176
     1
 90
        1
176
     1
 40
40.0
176
     1
 90
        0
176
     1
 62
   257
176
     1
 40
1.0
176
     1
 90
        1
176
     1
 90
        6
176
     1
 90
        2
176
     1
 62
     7
176
     1
 90
        3
176
     1
 90
        0
176
     1
 90
        0
176
     1
290
     0
176
     1
 90
        1
176
     1
 40
0.0
176
     1
 90
        0
176
     1
290
     0
176
     1
290
     1
176
     1
290
     1
176
     1
290
     0
176
     1
290
     0
176
     1
290
     0
176
     1
290
     0
176
     1
290
     0
176
     1
290
     0
176
     1
 90
       50
176
     1
 40
0.0
176
     1
 40
1.0
176
     1
 90
        0
176
     1
 62
    18
420
        0
176
     1
 90
       50
176
     1
 90
        3
176
     1
 62
     5
420
      255
176
     1
290
     0
176
     1
 90
       50
176
     1
 90
       50
176
     1
 90
       50
176
     1
290
     0
176
     1
 90
       50
176
     1
 62
   256
176
     0
 40
1.0
176
     0
 90
        2
176
     1
  1
strokes_ogs.tif
176
     1
290
     0
176
     1
 40
1.0
176
     1
 40
1.0
176
     1
1001
ACAD
1000
AcDbSavedByObjectVersion
1070
     0
  0
VISUALSTYLE
  5
3F
102
{ACAD_REACTORS
330
29
102
}
330
29
100
AcDbVisualStyle
  2
JitterOff
 70
    20
177
     3
291
     1
 70
    58
 90
        2
176
     0
 90
        2
176
     0
 90
        0
176
     0
 90
        0
176
     0
 40
0.6
176
     0
 40
30.0
176
     0
 62
     7
420
 16777215
176
     0
 90
        1
176
     0
 90
        4
176
     0
 62
     7
176
     0
 62
   257
176
     0
 90
        1
176
     0
 90
        1
176
     0
 40
1.0
176
     0
 90
       10
176
     2
 62
     7
176
     0
 40
1.0
176
     0
 90
        1
176
     0
 90
        6
176
     0
 90
        2
176
     0
 62
     7
176
     0
 90
        5
176
     0
 90
        0
176
     0
 90
        0
176
     0
290
     0
176
     0
 90
        1
176
     0
 40
0.0
176
     0
 90
        0
176
     0
290
     0
176
     0
290
     1
176
     0
290
     1
176
     0
290
     0
176
     0
290
     0
176
     0
290
     0
176
     0
290
     0
176
     0
290
     0
176
     0
290
     0
176
     0
 90
       50
176
     0
 40
0.0
176
     0
 40
1.0
176
     0
 90
        0
176
     0
 62
    18
420
        0
176
     0
 90
       50
176
     0
 90
        3
176
     0
 62
     5
420
      255
176
     0
290
     0
176
     0
 90
       50
176
     0
 90
       50
176
     0
 90
       50
176
     0
290
     0
176
     0
 90
       50
176
     0
 62
   256
176
     0
 40
1.0
176
     0
 90
        2
176
     0
  1
strokes_ogs.tif
176
     0
290
     0
176
     0
 40
1.0
176
     0
 40
1.0
176
     0
1001
ACAD
1000
AcDbSavedByObjectVersion
1070
     0
  0
VISUALSTYLE
  5
37
102
{ACAD_REACTORS
330
29
102
}
330
29
100
AcDbVisualStyle
  2
Linepattern
 70
    14
177
     3
291
     1
 70
    58
 90
        2
176
     1
 90
        2
176
     1
 90
        0
176
     1
 90
        0
176
     1
 40
0.6
176
     1
 40
30.0
176
     1
 62
     7
420
 16777215
176
     1
 90
        1
176
     1
 90
        4
176
     1
 62
     7
176
     1
 62
   257
176
     1
 90
        7
176
     1
 90
        7
176
     1
 40
1.0
176
     1
 90
        8
176
     1
 62
     7
176
     1
 40
1.0
176
     1
 90
        1
176
     1
 90
        6
176
     1
 90
        2
176
     1
 62
     7
176
     1
 90
        5
176
     1
 90
        0
176
     1
 90
        0
176
     1
290
     0
176
     1
 90
        1
176
     1
 40
0.0
176
     1
 90
        0
176
     1
290
     0
176
     1
290
     1
176
     1
290
     1
176
     1
290
     0
176
     1
290
     0
176
     1
290
     0
176
     1
290
     0
176
     1
290
     0
176
     1
290
     0
176
     1
 90
       50
176
     1
 40
0.0
176
     1
 40
1.0
176
     1
 90
        0
176
     1
 62
    18
420
        0
176
     1
 90
       50
176
     1
 90
        3
176
     1
 62
     5
420
      255
176
     1
290
     0
176
     1
 90
       50
176
     1
 90
       50
176
     1
 90
       50
176
     1
290
     0
176
     1
 90
       50
176
     1
 62
   256
176
     0
 40
1.0
176
     0
 90
        2
176
     1
  1
strokes_ogs.tif
176
     1
290
     0
176
     1
 40
1.0
176
     1
 40
1.0
176
     1
1001
ACAD
1000
AcDbSavedByObjectVersion
1070
     0
  0
VISUALSTYLE
  5
40
102
{ACAD_REACTORS
330
29
102
}
330
29
100
AcDbVisualStyle
  2
OverhangOff
 70
    21
177
     3
291
     1
 70
    58
 90
        2
176
     0
 90
        2
176
     0
 90
        0
176
     0
 90
        0
176
     0
 40
0.6
176
     0
 40
30.0
176
     0
 62
     7
420
 16777215
176
     0
 90
        1
176
     0
 90
        4
176
     0
 62
     7
176
     0
 62
   257
176
     0
 90
        1
176
     0
 90
        1
176
     0
 40
1.0
176
     0
 90
        9
176
     2
 62
     7
176
     0
 40
1.0
176
     0
 90
        1
176
     0
 90
        6
176
     0
 90
        2
176
     0
 62
     7
176
     0
 90
        5
176
     0
 90
        0
176
     0
 90
        0
176
     0
290
     0
176
     0
 90
        1
176
     0
 40
0.0
176
     0
 90
        0
176
     0
290
     0
176
     0
290
     1
176
     0
290
     1
176
     0
290
     0
176
     0
290
     0
176
     0
290
     0
176
     0
290
     0
176
     0
290
     0
176
     0
290
     0
176
     0
 90
       50
176
     0
 40
0.0
176
     0
 40
1.0
176
     0
 90
        0
176
     0
 62
    18
420
        0
176
     0
 90
       50
176
     0
 90
        3
176
     0
 62
     5
420
      255
176
     0
290
     0
176
     0
 90
       50
176
     0
 90
       50
176
     0
 90
       50
176
     0
290
     0
176
     0
 90
       50
176
     0
 62
   256
176
     0
 40
1.0
176
     0
 90
        2
176
     0
  1
strokes_ogs.tif
176
     0
290
     0
176
     0
 40
1.0
176
     0
 40
1.0
176
     0
1001
ACAD
1000
AcDbSavedByObjectVersion
1070
     0
  0
VISUALSTYLE
  5
33
102
{ACAD_REACTORS
330
29
102
}
330
29
100
AcDbVisualStyle
  2
Realistic
 70
     8
177
     3
291
     0
 70
    58
 90
        2
176
     1
 90
        3
176
     1
 90
        0
176
     1
 90
        2
176
     1
 40
0.6
176
     1
 40
30.0
176
     1
 62
     7
420
 16777215
176
     1
 90
        0
176
     1
 90
        0
176
     1
 62
     7
176
     1
 62
   257
176
     1
 90
        1
176
     1
 90
        1
176
     1
 40
1.0
176
     1
 90
        8
176
     1
 62
   257
176
     1
 40
1.0
176
     1
 90
        1
176
     1
 90
        6
176
     1
 90
        2
176
     1
 62
     7
176
     1
 90
        3
176
     1
 90
        0
176
     1
 90
        0
176
     1
290
     0
176
     1
 90
       13
176
     1
 40
0.0
176
     1
 90
        0
176
     1
290
     0
176
     1
290
     1
176
     1
290
     1
176
     1
290
     0
176
     1
290
     0
176
     1
290
     0
176
     1
290
     0
176
     1
290
     0
176
     1
290
     0
176
     1
 90
       50
176
     1
 40
0.0
176
     1
 40
1.0
176
     1
 90
        0
176
     1
 62
    18
420
        0
176
     1
 90
       50
176
     1
 90
        3
176
     1
 62
     5
420
      255
176
     1
290
     0
176
     1
 90
       50
176
     1
 90
       50
176
     1
 90
       50
176
     1
290
     0
176
     1
 90
       50
176
     1
 62
   256
176
     0
 40
1.0
176
     0
 90
        2
176
     1
  1
strokes_ogs.tif
176
     1
290
     0
176
     1
 40
1.0
176
     1
 40
1.0
176
     1
1001
ACAD
1000
AcDbSavedByObjectVersion
1070
     0
  0
VISUALSTYLE
  5
3E
102
{ACAD_REACTORS
330
29
102
}
330
29
100
AcDbVisualStyle
  2
Shaded
 70
    27
177
     3
291
     0
 70
    58
 90
        2
176
     1
 90
        2
176
     1
 90
        1
176
     1
 90
        2
176
     1
 40
0.6
176
     1
 40
30.0
176
     1
 62
     7
420
 16777215
176
     1
 90
        0
176
     1
 90
        4
176
     1
 62
     7
176
     1
 62
   257
176
     1
 90
        1
176
     1
 90
        1
176
     1
 40
1.0
176
     1
 90
        8
176
     1
 62
   257
176
     1
 40
1.0
176
     1
 90
        1
176
     1
 90
        6
176
     1
 90
        2
176
     1
 62
     8
420
  7895160
176
     1
 90
        3
176
     1
 90
        0
176
     1
 90
        0
176
     1
290
     0
176
     1
 90
        5
176
     1
 40
0.0
176
     1
 90
        0
176
     1
290
     0
176
     1
290
     1
176
     1
290
     1
176
     1
290
     0
176
     1
290
     0
176
     1
290
     0
176
     1
290
     0
176
     1
290
     0
176
     1
290
     0
176
     1
 90
       50
176
     1
 40
0.0
176
     1
 40
1.0
176
     1
 90
        0
176
     1
 62
    18
420
        0
176
     1
 90
       50
176
     1
 90
        3
176
     1
 62
     5
420
      255
176
     1
290
     0
176
     1
 90
       50
176
     1
 90
       50
176
     1
 90
       50
176
     1
290
     0
176
     1
 90
       50
176
     1
 62
   256
176
     0
 40
1.0
176
     0
 90
        2
176
     1
  1
strokes_ogs.tif
176
     1
290
     0
176
     1
 40
1.0
176
     1
 40
1.0
176
     1
1001
ACAD
1000
AcDbSavedByObjectVersion
1070
     0
  0
VISUALSTYLE
  5
3D
102
{ACAD_REACTORS
330
29
102
}
330
29
100
AcDbVisualStyle
  2
Shaded with edges
 70
    26
177
     3
291
     0
 70
    58
 90
        2
176
     1
 90
        2
176
     1
 90
        1
176
     1
 90
        2
176
     1
 40
0.6
176
     1
 40
30.0
176
     1
 62
     7
420
 16777215
176
     1
 90
        1
176
     1
 90
        2
176
     1
 62
     7
176
     1
 62
   257
176
     1
 90
        2
176
     1
 90
        1
176
     1
 40
1.0
176
     1
 90
        8
176
     1
 62
   257
176
     1
 40
1.0
176
     1
 90
        1
176
     1
 90
        6
176
     1
 90
        2
176
     1
 62
     7
176
     1
 90
        3
176
     1
 90
        0
176
     1
 90
        0
176
     1
290
     0
176
     1
 90
        5
176
     1
 40
0.0
176
     1
 90
        0
176
     1
290
     0
176
     1
290
     1
176
     1
290
     1
176
     1
290
     0
176
     1
290
     0
176
     1
290
     0
176
     1
290
     0
176
     1
290
     0
176
     1
290
     0
176
     1
 90
       50
176
     1
 40
0.0
176
     1
 40
1.0
176
     1
 90
        0
176
     1
 62
    18
420
        0
176
     1
 90
       50
176
     1
 90
        3
176
     1
 62
     5
420
      255
176
     1
290
     0
176
     1
 90
       50
176
     1
 90
       50
176
     1
 90
       50
176
     1
290
     0
176
     1
 90
       50
176
     1
 62
   256
176
     0
 40
1.0
176
     0
 90
        2
176
     1
  1
strokes_ogs.tif
176
     1
290
     0
176
     1
 40
1.0
176
     1
 40
1.0
176
     1
1001
ACAD
1000
AcDbSavedByObjectVersion
1070
     0
  0
VISUALSTYLE
  5
3A
102
{ACAD_REACTORS
330
29
102
}
330
29
100
AcDbVisualStyle
  2
Shades of Gray
 70
    23
177
     3
291
     0
 70
    58
 90
        2
176
     1
 90
        2
176
     1
 90
        3
176
     1
 90
        0
176
     1
 40
0.6
176
     1
 40
30.0
176
     1
 62
     7
420
 16777215
176
     1
 90
        2
176
     1
 90
        2
176
     1
 62
     7
176
     1
 62
     7
176
     1
 90
        1
176
     1
 90
        1
176
     1
 40
40.0
176
     1
 90
        8
176
     1
 62
     7
176
     1
 40
1.0
176
     1
 90
        1
176
     1
 90
        6
176
     1
 90
        2
176
     1
 62
     7
176
     1
 90
        3
176
     1
 90
        0
176
     1
 90
        0
176
     1
290
     0
176
     1
 90
        1
176
     1
 40
0.0
176
     1
 90
        0
176
     1
290
     0
176
     1
290
     1
176
     1
290
     1
176
     1
290
     0
176
     1
290
     0
176
     1
290
     0
176
     1
290
     0
176
     1
290
     0
176
     1
290
     0
176
     1
 90
       50
176
     1
 40
0.0
176
     1
 40
1.0
176
     1
 90
        0
176
     1
 62
    18
420
        0
176
     1
 90
       50
176
     1
 90
        3
176
     1
 62
     5
420
      255
176
     1
290
     0
176
     1
 90
       50
176
     1
 90
       50
176
     1
 90
       50
176
     1
290
     0
176
     1
 90
       50
176
     1
 62
   256
176
     0
 40
1.0
176
     0
 90
        2
176
     1
  1
strokes_ogs.tif
176
     1
290
     0
176
     1
 40
1.0
176
     1
 40
1.0
176
     1
1001
ACAD
1000
AcDbSavedByObjectVersion
1070
     0
  0
VISUALSTYLE
  5
3B
102
{ACAD_REACTORS
330
29
102
}
330
29
100
AcDbVisualStyle
  2
Sketchy
 70
    24
177
     3
291
     0
 70
    58
 90
        1
176
     1
 90
        2
176
     1
 90
        2
176
     1
 90
        0
176
     1
 40
0.6
176
     1
 40
30.0
176
     1
 62
     7
420
 16777215
176
     1
 90
        2
176
     1
 90
        2
176
     1
 62
     7
176
     1
 62
     7
176
     1
 90
        1
176
     1
 90
        1
176
     1
 40
40.0
176
     1
 90
       11
176
     1
 62
     7
176
     1
 40
1.0
176
     1
 90
        1
176
     1
 90
        6
176
     1
 90
        2
176
     1
 62
     7
176
     1
 90
        6
176
     1
 90
        0
176
     1
 90
        0
176
     1
290
     0
176
     1
 90
        1
176
     1
 40
0.0
176
     1
 90
        0
176
     1
290
     0
176
     1
290
     1
176
     1
290
     1
176
     1
290
     0
176
     1
290
     0
176
     1
290
     0
176
     1
290
     0
176
     1
290
     0
176
     1
290
     0
176
     1
 90
       50
176
     1
 40
0.0
176
     1
 40
1.0
176
     1
 90
        0
176
     1
 62
    18
420
        0
176
     1
 90
       50
176
     1
 90
        3
176
     1
 62
     5
420
      255
176
     1
290
     0
176
     1
 90
       50
176
     1
 90
       50
176
     1
 90
       50
176
     1
290
     0
176
     1
 90
       50
176
     1
 62
   256
176
     0
 40
1.0
176
     0
 90
        2
176
     1
  1
strokes_ogs.tif
176
     1
290
     0
176
     1
 40
1.0
176
     1
 40
1.0
176
     1
1001
ACAD
1000
AcDbSavedByObjectVersion
1070
     0
  0
VISUALSTYLE
  5
36
102
{ACAD_REACTORS
330
29
102
}
330
29
100
AcDbVisualStyle
  2
Thicken
 70
    13
177
     3
291
     1
 70
    58
 90
        2
176
     1
 90
        2
176
     1
 90
        0
176
     1
 90
        0
176
     1
 40
0.6
176
     1
 40
30.0
176
     1
 62
     7
420
 16777215
176
     1
 90
        1
176
     1
 90
        4
176
     1
 62
     7
176
     1
 62
   257
176
     1
 90
        1
176
     1
 90
        1
176
     1
 40
1.0
176
     1
 90
       12
176
     1
 62
     7
176
     1
 40
1.0
176
     1
 90
        1
176
     1
 90
        6
176
     1
 90
        2
176
     1
 62
     7
176
     1
 90
        5
176
     1
 90
        0
176
     1
 90
        0
176
     1
290
     0
176
     1
 90
        1
176
     1
 40
0.0
176
     1
 90
        0
176
     1
290
     0
176
     1
290
     1
176
     1
290
     1
176
     1
290
     0
176
     1
290
     0
176
     1
290
     0
176
     1
290
     0
176
     1
290
     0
176
     1
290
     0
176
     1
 90
       50
176
     1
 40
0.0
176
     1
 40
1.0
176
     1
 90
        0
176
     1
 62
    18
420
        0
176
     1
 90
       50
176
     1
 90
        3
176
     1
 62
     5
420
      255
176
     1
290
     0
176
     1
 90
       50
176
     1
 90
       50
176
     1
 90
       50
176
     1
290
     0
176
     1
 90
       50
176
     1
 62
   256
176
     0
 40
1.0
176
     0
 90
        2
176
     1
  1
strokes_ogs.tif
176
     1
290
     0
176
     1
 40
1.0
176
     1
 40
1.0
176
     1
1001
ACAD
1000
AcDbSavedByObjectVersion
1070
     0
  0
VISUALSTYLE
  5
30
102
{ACAD_REACTORS
330
29
102
}
330
29
100
AcDbVisualStyle
  2
Wireframe
 70
     5
177
     3
291
     0
 70
    58
 90
        0
176
     1
 90
        2
176
     1
 90
        0
176
     1
 90
        0
176
     1
 40
0.6
176
     1
 40
30.0
176
     1
 62
     7
420
 16777215
176
     1
 90
        1
176
     1
 90
        4
176
     1
 62
     7
176
     1
 62
   257
176
     1
 90
        1
176
     1
 90
        1
176
     1
 40
1.0
176
     1
 90
        0
176
     1
 62
   257
176
     1
 40
1.0
176
     1
 90
        1
176
     1
 90
        6
176
     1
 90
        2
176
     1
 62
     7
176
     1
 90
        3
176
     1
 90
        0
176
     1
 90
        0
176
     1
290
     0
176
     1
 90
        1
176
     1
 40
0.0
176
     1
 90
        0
176
     1
290
     0
176
     1
290
     1
176
     1
290
     1
176
     1
290
     0
176
     1
290
     0
176
     1
290
     0
176
     1
290
     0
176
     1
290
     0
176
     1
290
     0
176
     1
 90
       50
176
     1
 40
0.0
176
     1
 40
1.0
176
     1
 90
        0
176
     1
 62
    18
420
        0
176
     1
 90
       50
176
     1
 90
        3
176
     1
 62
     5
420
      255
176
     1
290
     0
176
     1
 90
       50
176
     1
 90
       50
176
     1
 90
       50
176
     1
290
     0
176
     1
 90
       50
176
     1
 62
   256
176
     0
 40
1.0
176
     0
 90
        2
176
     1
  1
strokes_ogs.tif
176
     1
290
     0
176
     1
 40
1.0
176
     1
 40
1.0
176
     1
1001
ACAD
1000
AcDbSavedByObjectVersion
1070
     0
  0
VISUALSTYLE
  5
3C
102
{ACAD_REACTORS
330
29
102
}
330
29
100
AcDbVisualStyle
  2
X-Ray
 70
    25
177
     3
291
     0
 70
    58
 90
        2
176
     1
 90
        2
176
     1
 90
        1
176
     1
 90
        1
176
     1
 40
0.5
176
     1
 40
30.0
176
     1
 62
     7
420
 16777215
176
     1
 90
        1
176
     1
 90
        0
176
     1
 62
     7
176
     1
 62
   257
176
     1
 90
        1
176
     1
 90
        1
176
     1
 40
1.0
176
     1
 90
        8
176
     1
 62
     7
176
     1
 40
1.0
176
     1
 90
        1
176
     1
 90
        6
176
     1
 90
        2
176
     1
 62
     7
176
     1
 90
        3
176
     1
 90
        0
176
     1
 90
        0
176
     1
290
     0
176
     1
 90
       13
176
     1
 40
0.0
176
     1
 90
        0
176
     1
290
     0
176
     1
290
     1
176
     1
290
     1
176
     1
290
     0
176
     1
290
     0
176
     1
290
     0
176
     1
290
     0
176
     1
290
     0
176
     1
290
     0
176
     1
 90
       50
176
     1
 40
0.0
176
     1
 40
1.0
176
     1
 90
        0
176
     1
 62
    18
420
        0
176
     1
 90
       50
176
     1
 90
        3
176
     1
 62
     5
420
      255
176
     1
290
     0
176
     1
 90
       50
176
     1
 90
       50
176
     1
 90
       50
176
     1
290
     0
176
     1
 90
       50
176
     1
 62
   256
176
     0
 40
1.0
176
     0
 90
        2
176
     1
  1
strokes_ogs.tif
176
     1
290
     0
176
     1
 40
1.0
176
     1
 40
1.0
176
     1
1001
ACAD
1000
AcDbSavedByObjectVersion
1070
     0
  0
DICTIONARYVAR
  5
3F5
102
{ACAD_REACTORS
330
3F0
102
}
330
3F0
100
DictionaryVariables
280
     0
  1
0
  0
DICTIONARYVAR
  5
3F6
102
{ACAD_REACTORS
330
3F0
102
}
330
3F0
100
DictionaryVariables
280
     0
  1
1:1
  0
DICTIONARYVAR
  5
3F2
102
{ACAD_REACTORS
330
3F0
102
}
330
3F0
100
DictionaryVariables
280
     0
  1
STANDARD
  0
DICTIONARYVAR
  5
3F1
102
{ACAD_REACTORS
330
3F0
102
}
330
3F0
100
DictionaryVariables
280
     0
  1
STANDARD
  0
DICTIONARYVAR
  5
3F3
102
{ACAD_REACTORS
330
3F0
102
}
330
3F0
100
DictionaryVariables
280
     0
  1
Imperial24
  0
DICTIONARYVAR
  5
3F4
102
{ACAD_REACTORS
330
3F0
102
}
330
3F0
100
DictionaryVariables
280
     0
  1
Imperial24
  0
DICTIONARY
  5
3FC
330
6B
100
AcDbDictionary
280
     1
281
     1
  3
ACAD_XREC_ROUNDTRIP
360
3FD
  0
DICTIONARY
  5
1A
330
19
100
AcDbDictionary
280
     1
281
     1
  3
BUMPTILE
360
1C
  3
DIFFUSETILE
360
1B
  3
OPACITYTILE
360
1F
  3
REFLECTIONTILE
360
1E
  3
REFRACTIONTILE
360
20
  3
SPECULARTILE
360
1D
  0
DICTIONARY
  5
12
330
11
100
AcDbDictionary
280
     1
281
     1
  3
BUMPTILE
360
14
  3
DIFFUSETILE
360
13
  3
OPACITYTILE
360
17
  3
REFLECTIONTILE
360
16
  3
REFRACTIONTILE
360
18
  3
SPECULARTILE
360
15
  0
DICTIONARY
  5
22
330
21
100
AcDbDictionary
280
     1
281
     1
  3
BUMPTILE
360
24
  3
DIFFUSETILE
360
23
  3
OPACITYTILE
360
27
  3
REFLECTIONTILE
360
26
  3
REFRACTIONTILE
360
28
  3
SPECULARTILE
360
25
  0
DICTIONARY
  5
3FA
330
69
100
AcDbDictionary
280
     1
281
     1
  3
ACAD_XREC_ROUNDTRIP
360
3FB
  0
DICTIONARY
  5
3F7
330
65
100
AcDbDictionary
280
     1
281
     1
  3
ACAD_ROUNDTRIP_2008_TABLESTYLE_CELLSTYLEMAP
360
3F8
  0
XRECORD
  5
3FD
102
{ACAD_REACTORS
330
3FC
102
}
330
3FC
100
AcDbXrecord
280
     1
102
DISPLAYNAME
  1
Imperial24
102
FLAGS
 90
        0
  0
XRECORD
  5
1C
102
{ACAD_REACTORS
330
1A
102
}
330
1A
100
AcDbXrecord
280
     1
270
     1
271
     1
  0
XRECORD
  5
1B
102
{ACAD_REACTORS
330
1A
102
}
330
1A
100
AcDbXrecord
280
     1
270
     1
271
     1
  0
XRECORD
  5
1F
102
{ACAD_REACTORS
330
1A
102
}
330
1A
100
AcDbXrecord
280
     1
270
     1
271
     1
  0
XRECORD
  5
1E
102
{ACAD_REACTORS
330
1A
102
}
330
1A
100
AcDbXrecord
280
     1
270
     1
271
     1
  0
XRECORD
  5
20
102
{ACAD_REACTORS
330
1A
102
}
330
1A
100
AcDbXrecord
280
     1
270
     1
271
     1
  0
XRECORD
  5
1D
102
{ACAD_REACTORS
330
1A
102
}
330
1A
100
AcDbXrecord
280
     1
270
     1
271
     1
  0
XRECORD
  5
14
102
{ACAD_REACTORS
330
12
102
}
330
12
100
AcDbXrecord
280
     1
270
     1
271
     1
  0
XRECORD
  5
13
102
{ACAD_REACTORS
330
12
102
}
330
12
100
AcDbXrecord
280
     1
270
     1
271
     1
  0
XRECORD
  5
17
102
{ACAD_REACTORS
330
12
102
}
330
12
100
AcDbXrecord
280
     1
270
     1
271
     1
  0
XRECORD
  5
16
102
{ACAD_REACTORS
330
12
102
}
330
12
100
AcDbXrecord
280
     1
270
     1
271
     1
  0
XRECORD
  5
18
102
{ACAD_REACTORS
330
12
102
}
330
12
100
AcDbXrecord
280
     1
270
     1
271
     1
  0
XRECORD
  5
15
102
{ACAD_REACTORS
330
12
102
}
330
12
100
AcDbXrecord
280
     1
270
     1
271
     1
  0
XRECORD
  5
24
102
{ACAD_REACTORS
330
22
102
}
330
22
100
AcDbXrecord
280
     1
270
     1
271
     1
  0
XRECORD
  5
23
102
{ACAD_REACTORS
330
22
102
}
330
22
100
AcDbXrecord
280
     1
270
     1
271
     1
  0
XRECORD
  5
27
102
{ACAD_REACTORS
330
22
102
}
330
22
100
AcDbXrecord
280
     1
270
     1
271
     1
  0
XRECORD
  5
26
102
{ACAD_REACTORS
330
22
102
}
330
22
100
AcDbXrecord
280
     1
270
     1
271
     1
  0
XRECORD
  5
28
102
{ACAD_REACTORS
330
22
102
}
330
22
100
AcDbXrecord
280
     1
270
     1
271
     1
  0
XRECORD
  5
25
102
{ACAD_REACTORS
330
22
102
}
330
22
100
AcDbXrecord
280
     1
270
     1
271
     1
  0
XRECORD
  5
3FB
102
{ACAD_REACTORS
330
3FA
102
}
330
3FA
100
AcDbXrecord
280
     1
102
DISPLAYNAME
  1
Imperial24
102
FLAGS
 90
        0
  0
CELLSTYLEMAP
  5
3F8
102
{ACAD_REACTORS
330
3F7
102
}
330
3F7
100
AcDbCellStyleMap
 90
        3
300
CELLSTYLE
  1
TABLEFORMAT_BEGIN
 90
        5
170
     1
 91
        0
 92
    32768
 62
   257
 93
        1
300
CONTENTFORMAT
  1
CONTENTFORMAT_BEGIN
 90
        0
 91
        0
 92
      512
 93
        0
300

 40
0.0
140
1.0
 94
        5
 62
     0
340
55
144
0.25
309
CONTENTFORMAT_END
171
     0
 94
        0
309
TABLEFORMAT_END
  1
CELLSTYLE_BEGIN
 90
        1
 91
        1
300
_TITLE
309
CELLSTYLE_END
300
CELLSTYLE
  1
TABLEFORMAT_BEGIN
 90
        5
170
     1
 91
        0
 92
        0
 62
   257
 93
        1
300
CONTENTFORMAT
  1
CONTENTFORMAT_BEGIN
 90
        0
 91
        0
 92
      512
 93
        0
300

 40
0.0
140
1.0
 94
        5
 62
     0
340
55
144
0.18
309
CONTENTFORMAT_END
171
     0
 94
        0
309
TABLEFORMAT_END
  1
CELLSTYLE_BEGIN
 90
        2
 91
        1
300
_HEADER
309
CELLSTYLE_END
300
CELLSTYLE
  1
TABLEFORMAT_BEGIN
 90
        5
170
     1
 91
        0
 92
        0
 62
   257
 93
        1
300
CONTENTFORMAT
  1
CONTENTFORMAT_BEGIN
 90
        0
 91
        0
 92
      512
 93
        0
300

 40
0.0
140
1.0
 94
        2
 62
     0
340
55
144
0.18
309
CONTENTFORMAT_END
171
     0
 94
        0
309
TABLEFORMAT_END
  1
CELLSTYLE_BEGIN
 90
        3
 91
        2
300
_DATA
309
CELLSTYLE_END
  0
ENDSEC
  0
EOF
