  0
SECTION
  2
HEADER
  9
$ACADVER
  1
AC1027
  9
$ACADMAINTVER
 70
   125
  9
$DWGCODEPAGE
  3
ANSI_1252
  9
$LASTSAVEDBY
  1
Administrator
  9
$REQUIREDVERSIONS
160
                 0
  9
$INSBASE
 10
0.0
 20
0.0
 30
0.0
  9
$EXTMIN
 10
0.0
 20
0.0
 30
-2.066892
  9
$EXTMAX
 10
17.0
 20
11.0
 30
2.066966
  9
$LIMMIN
 10
0.0
 20
0.0
  9
$LIMMAX
 10
17.0
 20
11.0
  9
$ORTHOMODE
 70
     0
  9
$REGENMODE
 70
     1
  9
$FILLMODE
 70
     1
  9
$QTEXTMODE
 70
     0
  9
$MIRRTEXT
 70
     0
  9
$LTSCALE
 40
0.75
  9
$ATTMODE
 70
     1
  9
$TEXTSIZE
 40
0.12
  9
$TRACEWID
 40
0.05
  9
$TEXTSTYLE
  7
Standard
  9
$CLAYER
  8
Titleblock
  9
$CELTYPE
  6
ByLayer
  9
$CECOLOR
 62
   256
  9
$CELTSCALE
 40
1.0
  9
$DISPSILH
 70
     0
  9
$DIMSCALE
 40
1.0
  9
$DIMASZ
 40
0.12
  9
$DIMEXO
 40
0.07
  9
$DIMDLI
 40
0.36
  9
$DIMRND
 40
0.0
  9
$DIMDLE
 40
0.0
  9
$DIMEXE
 40
0.07
  9
$DIMTP
 40
0.01
  9
$DIMTM
 40
0.01
  9
$DIMTXT
 40
0.12
  9
$DIMCEN
 40
0.0
  9
$DIMTSZ
 40
0.0
  9
$DIMTOL
 70
     0
  9
$DIMLIM
 70
     0
  9
$DIMTIH
 70
     1
  9
$DIMTOH
 70
     1
  9
$DIMSE1
 70
     0
  9
$DIMSE2
 70
     0
  9
$DIMTAD
 70
     0
  9
$DIMZIN
 70
    12
  9
$DIMBLK
  1

  9
$DIMASO
 70
     1
  9
$DIMSHO
 70
     1
  9
$DIMPOST
  1
in
  9
$DIMAPOST
  1
mm
  9
$DIMALT
 70
     0
  9
$DIMALTD
 70
     2
  9
$DIMALTF
 40
25.4
  9
$DIMLFAC
 40
1.0
  9
$DIMTOFL
 70
     0
  9
$DIMTVP
 40
0.0
  9
$DIMTIX
 70
     0
  9
$DIMSOXD
 70
     0
  9
$DIMSAH
 70
     0
  9
$DIMBLK1
  1

  9
$DIMBLK2
  1

  9
$DIMSTYLE
  2
Standard
  9
$DIMCLRD
 70
   256
  9
$DIMCLRE
 70
   256
  9
$DIMCLRT
 70
   256
  9
$DIMTFAC
 40
1.0
  9
$DIMGAP
 40
0.05
  9
$DIMJUST
 70
     0
  9
$DIMSD1
 70
     0
  9
$DIMSD2
 70
     0
  9
$DIMTOLJ
 70
     1
  9
$DIMTZIN
 70
    12
  9
$DIMALTZ
 70
    12
  9
$DIMALTTZ
 70
    12
  9
$DIMUPT
 70
     0
  9
$DIMDEC
 70
     2
  9
$DIMTDEC
 70
     2
  9
$DIMALTU
 70
     2
  9
$DIMALTTD
 70
     2
  9
$DIMTXSTY
  7
Standard
  9
$DIMAUNIT
 70
     0
  9
$DIMADEC
 70
     2
  9
$DIMALTRND
 40
0.0
  9
$DIMAZIN
 70
     3
  9
$DIMDSEP
 70
    46
  9
$DIMATFIT
 70
     3
  9
$DIMFRAC
 70
     0
  9
$DIMLDRBLK
  1

  9
$DIMLUNIT
 70
     2
  9
$DIMLWD
 70
    -2
  9
$DIMLWE
 70
    -2
  9
$DIMTMOVE
 70
     0
  9
$DIMFXL
 40
1.0
  9
$DIMFXLON
 70
     0
  9
$DIMJOGANG
 40
0.785398
  9
$DIMTFILL
 70
     0
  9
$DIMTFILLCLR
 70
     0
  9
$DIMARCSYM
 70
     1
  9
$DIMLTYPE
  6

  9
$DIMLTEX1
  6

  9
$DIMLTEX2
  6

  9
$DIMTXTDIRECTION
 70
     0
  9
$LUNITS
 70
     2
  9
$LUPREC
 70
     4
  9
$SKETCHINC
 40
0.1
  9
$FILLETRAD
 40
0.0
  9
$AUNITS
 70
     0
  9
$AUPREC
 70
     0
  9
$MENU
  1
.
  9
$ELEVATION
 40
0.0
  9
$PELEVATION
 40
0.0
  9
$THICKNESS
 40
0.0
  9
$LIMCHECK
 70
     0
  9
$CHAMFERA
 40
0.0
  9
$CHAMFERB
 40
0.0
  9
$CHAMFERC
 40
0.0
  9
$CHAMFERD
 40
0.0
  9
$SKPOLY
 70
     0
  9
$TDCREATE
 40
2459467.662673612
  9
$TDUCREATE
 40
2459467.954340278
  9
$TDUPDATE
 40
2459467.662673612
  9
$TDUUPDATE
 40
2459467.954340278
  9
$TDINDWG
 40
0.0000000000
  9
$TDUSRTIMER
 40
0.0000000000
  9
$USRTIMER
 70
     1
  9
$ANGBASE
 50
0.0
  9
$ANGDIR
 70
     0
  9
$PDMODE
 70
     0
  9
$PDSIZE
 40
0.0
  9
$PLINEWID
 40
0.0
  9
$SPLFRAME
 70
     0
  9
$SPLINETYPE
 70
     6
  9
$SPLINESEGS
 70
     8
  9
$HANDSEED
  5
45C
  9
$SURFTAB1
 70
     6
  9
$SURFTAB2
 70
     6
  9
$SURFTYPE
 70
     6
  9
$SURFU
 70
     6
  9
$SURFV
 70
     6
  9
$UCSBASE
  2

  9
$UCSNAME
  2

  9
$UCSORG
 10
0.0
 20
0.0
 30
0.0
  9
$UCSXDIR
 10
1.0
 20
0.0
 30
0.0
  9
$UCSYDIR
 10
0.0
 20
1.0
 30
0.0
  9
$UCSORTHOREF
  2

  9
$UCSORTHOVIEW
 70
     0
  9
$UCSORGTOP
 10
0.0
 20
0.0
 30
0.0
  9
$UCSORGBOTTOM
 10
0.0
 20
0.0
 30
0.0
  9
$UCSORGLEFT
 10
0.0
 20
0.0
 30
0.0
  9
$UCSORGRIGHT
 10
0.0
 20
0.0
 30
0.0
  9
$UCSORGFRONT
 10
0.0
 20
0.0
 30
0.0
  9
$UCSORGBACK
 10
0.0
 20
0.0
 30
0.0
  9
$PUCSBASE
  2

  9
$PUCSNAME
  2

  9
$PUCSORG
 10
0.0
 20
0.0
 30
0.0
  9
$PUCSXDIR
 10
1.0
 20
0.0
 30
0.0
  9
$PUCSYDIR
 10
0.0
 20
1.0
 30
0.0
  9
$PUCSORTHOREF
  2

  9
$PUCSORTHOVIEW
 70
     0
  9
$PUCSORGTOP
 10
0.0
 20
0.0
 30
0.0
  9
$PUCSORGBOTTOM
 10
0.0
 20
0.0
 30
0.0
  9
$PUCSORGLEFT
 10
0.0
 20
0.0
 30
0.0
  9
$PUCSORGRIGHT
 10
0.0
 20
0.0
 30
0.0
  9
$PUCSORGFRONT
 10
0.0
 20
0.0
 30
0.0
  9
$PUCSORGBACK
 10
0.0
 20
0.0
 30
0.0
  9
$USERI1
 70
     0
  9
$USERI2
 70
     0
  9
$USERI3
 70
     0
  9
$USERI4
 70
     0
  9
$USERI5
 70
     0
  9
$USERR1
 40
0.0
  9
$USERR2
 40
0.0
  9
$USERR3
 40
0.0
  9
$USERR4
 40
0.0
  9
$USERR5
 40
0.0
  9
$WORLDVIEW
 70
     1
  9
$SHADEDGE
 70
     3
  9
$SHADEDIF
 70
    70
  9
$TILEMODE
 70
     1
  9
$MAXACTVP
 70
    64
  9
$PINSBASE
 10
0.0
 20
0.0
 30
0.0
  9
$PLIMCHECK
 70
     0
  9
$PEXTMIN
 10
1.000000E+20
 20
1.000000E+20
 30
1.000000E+20
  9
$PEXTMAX
 10
-1.000000E+20
 20
-1.000000E+20
 30
-1.000000E+20
  9
$PLIMMIN
 10
0.0
 20
0.0
  9
$PLIMMAX
 10
12.0
 20
9.0
  9
$UNITMODE
 70
     0
  9
$VISRETAIN
 70
     1
  9
$PLINEGEN
 70
     0
  9
$PSLTSCALE
 70
     1
  9
$TREEDEPTH
 70
  3020
  9
$CMLSTYLE
  2
Standard
  9
$CMLJUST
 70
     0
  9
$CMLSCALE
 40
1.0
  9
$PROXYGRAPHICS
 70
     1
  9
$MEASUREMENT
 70
     0
  9
$CELWEIGHT
370
    -1
  9
$ENDCAPS
280
     0
  9
$JOINSTYLE
280
     0
  9
$LWDISPLAY
290
     0
  9
$INSUNITS
 70
     1
  9
$HYPERLINKBASE
  1

  9
$STYLESHEET
  1

  9
$XEDIT
290
     1
  9
$CEPSNTYPE
380
     0
  9
$PSTYLEMODE
290
     1
  9
$FINGERPRINTGUID
  2
{8EE4975B-797D-304E-B9A5-D66224DF1D0B}
  9
$VERSIONGUID
  2
{9B4DB971-C1C2-9F49-AF75-B6AA58AEC45B}
  9
$EXTNAMES
290
     1
  9
$PSVPSCALE
 40
0.0
  9
$OLESTARTUP
290
     0
  9
$SORTENTS
280
   127
  9
$INDEXCTL
280
     0
  9
$HIDETEXT
280
     1
  9
$XCLIPFRAME
280
     0
  9
$HALOGAP
280
     0
  9
$OBSCOLOR
 70
   257
  9
$OBSLTYPE
280
     0
  9
$INTERSECTIONDISPLAY
280
     0
  9
$INTERSECTIONCOLOR
 70
   257
  9
$DIMASSOC
280
     2
  9
$PROJECTNAME
  1

  9
$CAMERADISPLAY
290
     0
  9
$LENSLENGTH
 40
50.0
  9
$CAMERAHEIGHT
 40
0.0
  9
$STEPSPERSEC
 40
2.0
  9
$STEPSIZE
 40
6.0
  9
$3DDWFPREC
 40
2.0
  9
$PSOLWIDTH
 40
0.25
  9
$PSOLHEIGHT
 40
4.0
  9
$LOFTANG1
 40
1.570796
  9
$LOFTANG2
 40
1.570796
  9
$LOFTMAG1
 40
0.0
  9
$LOFTMAG2
 40
0.0
  9
$LOFTPARAM
 70
     7
  9
$LOFTNORMALS
280
     1
  9
$LATITUDE
 40
37.795
  9
$LONGITUDE
 40
-122.394
  9
$NORTHDIRECTION
 40
0.0
  9
$TIMEZONE
 70
 -8000
  9
$LIGHTGLYPHDISPLAY
280
     1
  9
$TILEMODELIGHTSYNCH
280
     1
  9
$CMATERIAL
347
11
  9
$SOLIDHIST
280
     0
  9
$SHOWHIST
280
     1
  9
$DWFFRAME
280
     2
  9
$DGNFRAME
280
     0
  9
$REALWORLDSCALE
290
     1
  9
$INTERFERECOLOR
 62
     1
  9
$INTERFEREOBJVS
345
33
  9
$INTERFEREVPVS
346
30
  9
$CSHADOW
280
     0
  9
$SHADOWPLANELOCATION
 40
0.0
  0
ENDSEC
  0
SECTION
  2
CLASSES
  0
CLASS
  1
ACDBDICTIONARYWDFLT
  2
AcDbDictionaryWithDefault
  3
ObjectDBX Classes
 90
        0
 91
        1
280
     0
281
     0
  0
CLASS
  1
MATERIAL
  2
AcDbMaterial
  3
ObjectDBX Classes
 90
     1153
 91
        3
280
     0
281
     0
  0
CLASS
  1
VISUALSTYLE
  2
AcDbVisualStyle
  3
ObjectDBX Classes
 90
     4095
 91
       24
280
     0
281
     0
  0
CLASS
  1
SCALE
  2
AcDbScale
  3
ObjectDBX Classes
 90
     1153
 91
       33
280
     0
281
     0
  0
CLASS
  1
TABLESTYLE
  2
AcDbTableStyle
  3
ObjectDBX Classes
 90
     4095
 91
        1
280
     0
281
     0
  0
CLASS
  1
MLEADERSTYLE
  2
AcDbMLeaderStyle
  3
ACDB_MLEADERSTYLE_CLASS
 90
     4095
 91
        1
280
     0
281
     0
  0
CLASS
  1
ACDBSECTIONVIEWSTYLE
  2
AcDbSectionViewStyle
  3
ObjectDBX Classes
 90
     1025
 91
        1
280
     0
281
     0
  0
CLASS
  1
ACDBDETAILVIEWSTYLE
  2
AcDbDetailViewStyle
  3
ObjectDBX Classes
 90
     1025
 91
        1
280
     0
281
     0
  0
CLASS
  1
ACMESCOPE
  2
AcMeScope
  3
AcMeServices
 90
     1024
 91
        1
280
     0
281
     0
  0
CLASS
  1
ACMECOMMANDHISTORY
  2
AcMeCommandHistory
  3
AcMeServices
 90
     1024
 91
        1
280
     0
281
     0
  0
CLASS
  1
ACIMSYSVARMAN
  2
AcImSysVarManager
  3
AcMeServices
 90
     1024
 91
        1
280
     0
281
     0
  0
CLASS
  1
ACIMINTSYSVAR
  2
AcImIntSysVar
  3
AcMeServices
 90
     1024
 91
        1
280
     0
281
     0
  0
CLASS
  1
ACMESTATEMGR
  2
AcMeStateMgr
  3
AcMeServices
 90
     1024
 91
        1
280
     0
281
     0
  0
CLASS
  1
ACGREFMASTER
  2
AcGrefMaster
  3
AcAttribServices
 90
     1024
 91
        1
280
     0
281
     0
  0
CLASS
  1
SORTENTSTABLE
  2
AcDbSortentsTable
  3
ObjectDBX Classes
 90
        0
 91
        6
280
     0
281
     0
  0
CLASS
  1
IMAGE
  2
AcDbRasterImage
  3
ISM
 90
     2175
 91
        1
280
     0
281
     1
  0
CLASS
  1
IMAGEDEF
  2
AcDbRasterImageDef
  3
ISM
 90
        0
 91
        1
280
     0
281
     0
  0
CLASS
  1
IMAGEDEF_REACTOR
  2
AcDbRasterImageDefReactor
  3
ISM
 90
        1
 91
        2
280
     0
281
     0
  0
CLASS
  1
RASTERVARIABLES
  2
AcDbRasterVariables
  3
ISM
 90
        0
 91
        1
280
     0
281
     0
  0
CLASS
  1
DICTIONARYVAR
  2
AcDbDictionaryVar
  3
ObjectDBX Classes
 90
        0
 91
        6
280
     0
281
     0
  0
CLASS
  1
CELLSTYLEMAP
  2
AcDbCellStyleMap
  3
ObjectDBX Classes
 90
     1152
 91
        1
280
     0
281
     0
  0
ENDSEC
  0
SECTION
  2
TABLES
  0
TABLE
  2
VPORT
  5
8
330
0
100
AcDbSymbolTable
 70
     1
1001
ACAD
1000
DbSaveVer
1071
      246
  0
VPORT
  5
57
330
8
100
AcDbSymbolTableRecord
100
AcDbViewportTableRecord
  2
*Active
 70
     0
 10
0.0
 20
0.0
 11
1.0
 21
1.0
 12
8.5
 22
5.5
 13
0.0
 23
0.0
 14
0.5
 24
0.5
 15
0.0
 25
0.0
 16
0.0
 26
0.0
 36
1.0
 17
0.0
 27
0.0
 37
0.0
 40
11.0
 41
1.7981
 42
50.0
 43
0.0
 44
0.0
 50
0.0
 51
0.0
 71
     0
 72
 20000
 73
     1
 74
     0
 75
     0
 76
     0
 77
     0
 78
     0
281
     0
 65
     1
110
0.0
120
0.0
130
0.0
111
1.0
121
0.0
131
0.0
112
0.0
122
1.0
132
0.0
 79
     0
146
0.0
348
2F
 60
     3
 61
     5
292
     1
282
     1
141
0.0
142
0.0
 63
   250
421
  3355443
  0
ENDTAB
  0
TABLE
  2
LTYPE
  5
5
330
0
100
AcDbSymbolTable
 70
    10
  0
LTYPE
  5
5B
330
5
100
AcDbSymbolTableRecord
100
AcDbLinetypeTableRecord
  2
ByBlock
 70
     0
  3

 72
    65
 73
     0
 40
0.0
  0
LTYPE
  5
5C
330
5
100
AcDbSymbolTableRecord
100
AcDbLinetypeTableRecord
  2
ByLayer
 70
     0
  3

 72
    65
 73
     0
 40
0.0
  0
LTYPE
  5
5D
330
5
100
AcDbSymbolTableRecord
100
AcDbLinetypeTableRecord
  2
Continuous
 70
     0
  3
Solid line
 72
    65
 73
     0
 40
0.0
  0
LTYPE
  5
81
330
5
100
AcDbSymbolTableRecord
100
AcDbLinetypeTableRecord
  2
HIDDEN
 70
     0
  3
Hidden __ __ __ __ __ __ __ __ __ __ __ __ __ _
 72
    65
 73
     2
 40
0.375
 49
0.25
 74
     0
 49
-0.125
 74
     0
  0
LTYPE
  5
82
330
5
100
AcDbSymbolTableRecord
100
AcDbLinetypeTableRecord
  2
PHANTOM2
 70
     0
  3
Phantom (.5x) ___ _ _ ___ _ _ ___ _ _ ___ _ _
 72
    65
 73
     6
 40
1.25
 49
0.625
 74
     0
 49
-0.125
 74
     0
 49
0.125
 74
     0
 49
-0.125
 74
     0
 49
0.125
 74
     0
 49
-0.125
 74
     0
  0
LTYPE
  5
83
330
5
100
AcDbSymbolTableRecord
100
AcDbLinetypeTableRecord
  2
CENTER
 70
     0
  3
Center ____ _ ____ _ ____ _ ____ _ ____ _ ____
 72
    65
 73
     4
 40
2.0
 49
1.25
 74
     0
 49
-0.25
 74
     0
 49
0.25
 74
     0
 49
-0.25
 74
     0
  0
LTYPE
  5
9B
330
5
100
AcDbSymbolTableRecord
100
AcDbLinetypeTableRecord
  2
CENTER2
 70
     0
  3
Center (.5x) ___ _ ___ _ ___ _ ___ _ ___ _ ___
 72
    65
 73
     4
 40
1.125
 49
0.75
 74
     0
 49
-0.125
 74
     0
 49
0.125
 74
     0
 49
-0.125
 74
     0
  0
LTYPE
  5
9C
330
5
100
AcDbSymbolTableRecord
100
AcDbLinetypeTableRecord
  2
HIDDEN2
 70
     0
  3
Hidden (.5x) _ _ _ _ _ _ _ _ _ _ _ _ _ _ _ _ _
 72
    65
 73
     2
 40
0.1875
 49
0.125
 74
     0
 49
-0.0625
 74
     0
  0
LTYPE
  5
9D
330
5
100
AcDbSymbolTableRecord
100
AcDbLinetypeTableRecord
  2
Amconstr
 70
     0
  3
_______________________
 72
    65
 73
     2
 40
9999.0
 49
9999.0
 74
     0
 49
0.0
 74
     0
  0
LTYPE
  5
9E
330
5
100
AcDbSymbolTableRecord
100
AcDbLinetypeTableRecord
  2
Amzigzag2
 70
     0
  3
/\/-/\/-/\/-/\/-/\/-/\/
 72
    65
 73
     2
 40
0.4401
 49
0.0001
 74
     4
 75
   136
340
98
 46
0.0016
 50
0.0
 44
0.0
 45
0.0
 49
-0.44
 74
     0
  0
LTYPE
  5
9F
330
5
100
AcDbSymbolTableRecord
100
AcDbLinetypeTableRecord
  2
ACANSTGB
 70
     0
  3
__ . . __ . .
 72
    65
 73
     6
 40
0.354331
 49
0.15748
 74
     0
 49
-0.03937
 74
     0
 49
0.03937
 74
     0
 49
-0.03937
 74
     0
 49
0.03937
 74
     0
 49
-0.03937
 74
     0
  0
LTYPE
  5
A0
330
5
100
AcDbSymbolTableRecord
100
AcDbLinetypeTableRecord
  2
ACANSTGL
 70
     0
  3
_ _ _ _ _
 72
    65
 73
     2
 40
0.11811
 49
0.07874
 74
     0
 49
-0.03937
 74
     0
  0
ENDTAB
  0
TABLE
  2
LAYER
  5
2
330
0
100
AcDbSymbolTable
 70
    11
  0
LAYER
  5
54
330
2
100
AcDbSymbolTableRecord
100
AcDbLayerTableRecord
  2
0
 70
     0
 62
     7
  6
Continuous
370
    -3
390
F
347
21
348
0
1001
AcAecLayerStandard
1000

1000

  0
LAYER
  5
79
330
2
100
AcDbSymbolTableRecord
100
AcDbLayerTableRecord
  2
Defpoints
 70
     0
 62
     7
  6
Continuous
290
     0
370
    -3
390
F
347
21
348
0
1001
AcAecLayerStandard
1000

1000

  0
LAYER
  5
BA
330
2
100
AcDbSymbolTableRecord
100
AcDbLayerTableRecord
  2
Visible
 70
     0
 62
     7
  6
Continuous
370
    25
390
F
347
21
348
0
  0
LAYER
  5
153
330
2
100
AcDbSymbolTableRecord
100
AcDbLayerTableRecord
  2
Titleblock
 70
     0
 62
     7
  6
Continuous
370
    -3
390
F
347
21
348
0
1001
AcAecLayerStandard
1000

1000

1001
AcCmTransparency
1071
        0
  0
LAYER
  5
178
330
2
100
AcDbSymbolTableRecord
100
AcDbLayerTableRecord
  2
Border
 70
     0
 62
     7
  6
Continuous
370
    -3
390
F
347
21
348
0
1001
AcAecLayerStandard
1000

1000

1001
AcCmTransparency
1071
        0
  0
LAYER
  5
199
330
2
100
AcDbSymbolTableRecord
100
AcDbLayerTableRecord
  2
Center Lines
 70
     0
 62
     7
  6
CENTER2
370
    13
390
F
347
21
348
0
  0
LAYER
  5
19F
330
2
100
AcDbSymbolTableRecord
100
AcDbLayerTableRecord
  2
Dimensions
 70
     0
 62
     7
  6
Continuous
370
    13
390
F
347
21
348
0
  0
LAYER
  5
1C1
330
2
100
AcDbSymbolTableRecord
100
AcDbLayerTableRecord
  2
Annotations
 70
     0
 62
     7
  6
Continuous
370
    13
390
F
347
21
348
0
  0
ENDTAB
  0
TABLE
  2
STYLE
  5
3
330
0
100
AcDbSymbolTable
 70
     4
  0
STYLE
  5
55
330
3
100
AcDbSymbolTableRecord
100
AcDbTextStyleTableRecord
  2
Standard
 70
     0
 40
0.0
 41
1.0
 50
0.0
 71
     0
 42
0.12
  3
arial.ttf
  4

1001
ACAD
1000
Arial
1071
       34
  0
STYLE
  5
5A
330
3
100
AcDbSymbolTableRecord
100
AcDbTextStyleTableRecord
  2
Annotative
 70
     0
 40
0.0
 41
1.0
 50
0.0
 71
     0
 42
0.2
  3
txt
  4

1001
AcadAnnotative
1000
AnnotativeData
1002
{
1070
     1
1070
     1
1002
}
  0
STYLE
  5
98
330
3
100
AcDbSymbolTableRecord
100
AcDbTextStyleTableRecord
  2

 70
     1
 40
0.0
 41
1.0
 50
0.0
 71
     0
 42
0.12
  3
genltshp.shx
  4

  0
STYLE
  5
99
330
3
100
AcDbSymbolTableRecord
100
AcDbTextStyleTableRecord
  2
ACANSGDT
 70
     0
 40
0.0
 41
1.0
 50
0.0
 71
     0
 42
0.12
  3
amgdt.shx
  4

  0
ENDTAB
  0
TABLE
  2
VIEW
  5
6
330
0
100
AcDbSymbolTable
 70
     0
  0
ENDTAB
  0
TABLE
  2
UCS
  5
7
330
0
100
AcDbSymbolTable
 70
     0
  0
ENDTAB
  0
TABLE
  2
APPID
  5
9
330
0
100
AcDbSymbolTable
 70
    25
  0
APPID
  5
56
330
9
100
AcDbSymbolTableRecord
100
AcDbRegAppTableRecord
  2
ACAD
 70
     0
  0
APPID
  5
5E
330
9
100
AcDbSymbolTableRecord
100
AcDbRegAppTableRecord
  2
AcadAnnotative
 70
     0
  0
APPID
  5
78
330
9
100
AcDbSymbolTableRecord
100
AcDbRegAppTableRecord
  2
ACAD_PSEXT
 70
     0
  0
APPID
  5
7A
330
9
100
AcDbSymbolTableRecord
100
AcDbRegAppTableRecord
  2
MCAD_NO_VIS
 70
     0
  0
APPID
  5
7B
330
9
100
AcDbSymbolTableRecord
100
AcDbRegAppTableRecord
  2
ACAD_TEMP_GRAPHIC
 70
     0
  0
APPID
  5
84
330
9
100
AcDbSymbolTableRecord
100
AcDbRegAppTableRecord
  2
ACAD_DSTYLE_DIMJAG
 70
     0
  0
APPID
  5
85
330
9
100
AcDbSymbolTableRecord
100
AcDbRegAppTableRecord
  2
ACAD_DSTYLE_DIMTALN
 70
     0
  0
APPID
  5
86
330
9
100
AcDbSymbolTableRecord
100
AcDbRegAppTableRecord
  2
ACAD_NAV_VCDISPLAY
 70
     0
  0
APPID
  5
87
330
9
100
AcDbSymbolTableRecord
100
AcDbRegAppTableRecord
  2
AcAecLayerStandard
 70
     0
  0
APPID
  5
88
330
9
100
AcDbSymbolTableRecord
100
AcDbRegAppTableRecord
  2
AcCmTransparency
 70
     0
  0
APPID
  5
89
330
9
100
AcDbSymbolTableRecord
100
AcDbRegAppTableRecord
  2
ACAD_DSTYLE_DIMBREAK
 70
     0
  0
APPID
  5
8A
330
9
100
AcDbSymbolTableRecord
100
AcDbRegAppTableRecord
  2
FUSIONTITLEBLOCK
 70
     0
  0
APPID
  5
8B
330
9
100
AcDbSymbolTableRecord
100
AcDbRegAppTableRecord
  2
FUSIONCURRENTTITLEBLOCK
 70
     0
  0
APPID
  5
8C
330
9
100
AcDbSymbolTableRecord
100
AcDbRegAppTableRecord
  2
AcSynergy
 70
     0
  0
APPID
  5
8D
330
9
100
AcDbSymbolTableRecord
100
AcDbRegAppTableRecord
  2
ACAD_VIEW_EDGE_ID
 70
     0
  0
APPID
  5
8E
330
9
100
AcDbSymbolTableRecord
100
AcDbRegAppTableRecord
  2
GENIUS_GENSCREG_15
 70
     0
  0
APPID
  5
8F
330
9
100
AcDbSymbolTableRecord
100
AcDbRegAppTableRecord
  2
GENIUS_GENOBJ-N-SDF_13
 70
     0
  0
APPID
  5
90
330
9
100
AcDbSymbolTableRecord
100
AcDbRegAppTableRecord
  2
GENIUS_GENODEF_13
 70
     0
  0
APPID
  5
91
330
9
100
AcDbSymbolTableRecord
100
AcDbRegAppTableRecord
  2
ACAD_DIMASSOC_CALC_DIMLFAC
 70
     0
  0
APPID
  5
92
330
9
100
AcDbSymbolTableRecord
100
AcDbRegAppTableRecord
  2
ACAD_DIMASSOC_DIMLFAC
 70
     0
  0
APPID
  5
93
330
9
100
AcDbSymbolTableRecord
100
AcDbRegAppTableRecord
  2
ACAD_DIMASSOC_OVERRIDDEN_DIMLFAC
 70
     0
  0
APPID
  5
94
330
9
100
AcDbSymbolTableRecord
100
AcDbRegAppTableRecord
  2
FD_ATT_APPNAME
 70
     0
  0
APPID
  5
95
330
9
100
AcDbSymbolTableRecord
100
AcDbRegAppTableRecord
  2
ACAD_TC
 70
     0
  0
APPID
  5
96
330
9
100
AcDbSymbolTableRecord
100
AcDbRegAppTableRecord
  2
ACAD_DSTYLE_DIMJAG_POSITION
 70
     0
  0
APPID
  5
97
330
9
100
AcDbSymbolTableRecord
100
AcDbRegAppTableRecord
  2
ACATTRIBSERVICES
 70
     0
  0
ENDTAB
  0
TABLE
  2
DIMSTYLE
  5
A
330
0
100
AcDbSymbolTable
 70
     2
100
AcDbDimStyleTable
 71
     1
340
58
  0
DIMSTYLE
105
58
102
{ACAD_REACTORS
330
19E
330
1B2
330
1C2
330
1D0
330
1DE
330
1EC
330
1FA
102
}
330
A
100
AcDbSymbolTableRecord
100
AcDbDimStyleTableRecord
  2
Standard
 70
     0
  3
in
  4
mm
 41
0.12
 42
0.07
 43
0.36
 44
0.07
 47
0.01
 48
0.01
 78
    12
 79
     3
 90
        1
140
0.12
141
0.0
147
0.05
176
   256
177
   256
178
   256
179
     2
271
     2
272
     2
284
    12
285
    12
286
    12
340
55
  0
DIMSTYLE
105
59
330
A
100
AcDbSymbolTableRecord
100
AcDbDimStyleTableRecord
  2
Annotative
 70
     0
  3
in
  4
mm
 40
0.0
 41
0.12
 42
0.07
 43
0.36
 44
0.07
 78
    12
 79
     3
140
0.12
147
0.05
179
     2
271
     2
272
     2
284
    12
285
    12
286
    12
340
55
1001
AcadAnnotative
1000
AnnotativeData
1002
{
1070
     1
1070
     1
1002
}
  0
ENDTAB
  0
TABLE
  2
BLOCK_RECORD
  5
1
330
0
100
AcDbSymbolTable
 70
    22
  0
BLOCK_RECORD
  5
70
102
{ACAD_XDICTIONARY
360
B3
102
}
330
1
100
AcDbSymbolTableRecord
100
AcDbBlockTableRecord
  2
*Model_Space
340
73
 70
     0
280
     1
281
     0
  0
BLOCK_RECORD
  5
6C
330
1
100
AcDbSymbolTableRecord
100
AcDbBlockTableRecord
  2
*Paper_Space
340
6F
 70
     0
280
     1
281
     0
  0
BLOCK_RECORD
  5
74
330
1
100
AcDbSymbolTableRecord
100
AcDbBlockTableRecord
  2
*Paper_Space0
340
77
 70
     0
280
     1
281
     0
  0
BLOCK_RECORD
  5
154
102
{ACAD_XDICTIONARY
360
155
102
}
330
1
100
AcDbSymbolTableRecord
100
AcDbBlockTableRecord
  2
Shower
340
0
102
{BLKREFS
331
152
102
}
 70
     1
280
     1
281
     0
1001
FUSIONTITLEBLOCK
1000
TitleBlock
  0
BLOCK_RECORD
  5
179
330
1
100
AcDbSymbolTableRecord
100
AcDbBlockTableRecord
  2
ANSI_B_SHEET
340
0
310
2800000020000000200000000100080000000000000400000000000000000000000000000000000000000000000080000080000000808000800000008000800080800000C0C0C000C0DCC000F0CAA6000020400000206000002080000020A0000020C0000020E00000400000004020000040400000406000004080000040A0
310
000040C0000040E00000600000006020000060400000606000006080000060A0000060C0000060E00000800000008020000080400000806000008080000080A0000080C0000080E00000A0000000A0200000A0400000A0600000A0800000A0A00000A0C00000A0E00000C0000000C0200000C0400000C0600000C0800000C0
310
A00000C0C00000C0E00000E0000000E0200000E0400000E0600000E0800000E0A00000E0C00000E0E00040000000400020004000400040006000400080004000A0004000C0004000E00040200000402020004020400040206000402080004020A0004020C0004020E000404000004040200040404000404060004040800040
310
40A0004040C0004040E00040600000406020004060400040606000406080004060A0004060C0004060E00040800000408020004080400040806000408080004080A0004080C0004080E00040A0000040A0200040A0400040A0600040A0800040A0A00040A0C00040A0E00040C0000040C0200040C0400040C0600040C08000
310
40C0A00040C0C00040C0E00040E0000040E0200040E0400040E0600040E0800040E0A00040E0C00040E0E00080000000800020008000400080006000800080008000A0008000C0008000E00080200000802020008020400080206000802080008020A0008020C0008020E00080400000804020008040400080406000804080
310
008040A0008040C0008040E00080600000806020008060400080606000806080008060A0008060C0008060E00080800000808020008080400080806000808080008080A0008080C0008080E00080A0000080A0200080A0400080A0600080A0800080A0A00080A0C00080A0E00080C0000080C0200080C0400080C0600080C0
310
800080C0A00080C0C00080C0E00080E0000080E0200080E0400080E0600080E0800080E0A00080E0C00080E0E000C0000000C0002000C0004000C0006000C0008000C000A000C000C000C000E000C0200000C0202000C0204000C0206000C0208000C020A000C020C000C020E000C0400000C0402000C0404000C0406000C0
310
408000C040A000C040C000C040E000C0600000C0602000C0604000C0606000C0608000C060A000C060C000C060E000C0800000C0802000C0804000C0806000C0808000C080A000C080C000C080E000C0A00000C0A02000C0A04000C0A06000C0A08000C0A0A000C0A0C000C0A0E000C0C00000C0C02000C0C04000C0C06000
310
C0C08000C0C0A000F0FBFF00A4A0A000808080000000FF0000FF000000FFFF00FF000000FF00FF00FFFF0000FFFFFF0049494949494949494949494949494949494949494949494949494949494949494949494949494949494949494949494949494949494949494949494949494949494949494949494949494949494949
310
494949494949494949494949494949494949494949494949494949494949494949494949494949494949494949494949494949494949494949494949494949494949494949494949494949494949494949494949494949494949494949494949494949494949494949494949494949494949FFFF4949494949494949494949
310
494949494949494949494949494949FFFF4949FFFFFFFFFFFFFFFFFFFFFFFFFFFFFFFFFFFFFFFFFFFFFFFFFFFFFFFFFFFF494949FF4949494949494949494949494949494949494949494949494949FF49494949FF4949494949494949494949494949494949494949494949494949FF49494949FF49494949494949494949
310
49494949494949494949494949494949FF49494949FF4949494949494949494949494949494949494949494949494949FF49494949FF4949494949494949494949494949494949494949494949494949FF49494949FF4949494949494949494949494949494949494949494949494949FF49494949FF494949494949494949
310
4949494949494949494949494949494949FF49494949FF4949494949494949494949494949494949494949494949494949FF49494949FF4949494949494949494949494949494949494949494949494949FF49494949FF4949494949494949494949494949494949494949494949494949FF49494949FF4949494949494949
310
494949494949494949494949494949494949FF49494949FF4949494949494949494949494949494949494949494949494949FF49494949FF4949494949494949494949494949494949494949494949494949FF49494949FF4949494949494949494949494949494949494949494949494949FF49494949FF49494949494949
310
49494949494949494949494949494949494949FF49494949FF4949494949494949494949494949494949494949494949494949FF494949FFFFFFFFFFFFFFFFFFFFFFFFFFFFFFFFFFFFFFFFFFFFFFFFFFFFFFFFFFFF4949FFFF4949494949494949494949494949494949494949494949494949FFFF49494949494949494949
310
49494949494949494949494949494949494949494949494949494949494949494949494949494949494949494949494949494949494949494949494949494949494949494949494949494949494949494949494949494949494949494949494949494949494949494949494949494949494949494949494949494949494949
310
4949494949494949494949494949494949494949494949494949494949494949494949494949494949494949494949494949494949494949
102
{BLKREFS
331
177
102
}
 70
     1
280
     1
281
     0
  0
BLOCK_RECORD
  5
19A
330
1
100
AcDbSymbolTableRecord
100
AcDbBlockTableRecord
  2
*U6
340
0
102
{BLKREFS
331
198
102
}
 70
     0
280
     1
281
     0
  0
BLOCK_RECORD
  5
1A0
330
1
100
AcDbSymbolTableRecord
100
AcDbBlockTableRecord
  2
*D7
340
0
 70
     0
280
     1
281
     0
  0
BLOCK_RECORD
  5
1AE
330
1
100
AcDbSymbolTableRecord
100
AcDbBlockTableRecord
  2
*U8
340
0
102
{BLKREFS
331
1AD
102
}
 70
     0
280
     1
281
     0
  0
BLOCK_RECORD
  5
1B3
330
1
100
AcDbSymbolTableRecord
100
AcDbBlockTableRecord
  2
*D9
340
0
 70
     0
280
     1
281
     0
  0
BLOCK_RECORD
  5
1C3
330
1
100
AcDbSymbolTableRecord
100
AcDbBlockTableRecord
  2
*D10
340
0
 70
     0
280
     1
281
     0
  0
BLOCK_RECORD
  5
1D1
330
1
100
AcDbSymbolTableRecord
100
AcDbBlockTableRecord
  2
*D11
340
0
 70
     0
280
     1
281
     0
  0
BLOCK_RECORD
  5
1DF
330
1
100
AcDbSymbolTableRecord
100
AcDbBlockTableRecord
  2
*D12
340
0
 70
     0
280
     1
281
     0
  0
BLOCK_RECORD
  5
1ED
330
1
100
AcDbSymbolTableRecord
100
AcDbBlockTableRecord
  2
*D13
340
0
 70
     0
280
     1
281
     0
  0
BLOCK_RECORD
  5
1FB
330
1
100
AcDbSymbolTableRecord
100
AcDbBlockTableRecord
  2
*D14
340
0
 70
     0
280
     1
281
     0
  0
BLOCK_RECORD
  5
209
330
1
100
AcDbSymbolTableRecord
100
AcDbBlockTableRecord
  2
*D15
340
0
 70
     0
280
     1
281
     0
  0
BLOCK_RECORD
  5
216
330
1
100
AcDbSymbolTableRecord
100
AcDbBlockTableRecord
  2
*D16
340
0
 70
     0
280
     1
281
     0
  0
BLOCK_RECORD
  5
223
330
1
100
AcDbSymbolTableRecord
100
AcDbBlockTableRecord
  2
*D17
340
0
 70
     0
280
     1
281
     0
  0
BLOCK_RECORD
  5
230
330
1
100
AcDbSymbolTableRecord
100
AcDbBlockTableRecord
  2
*D18
340
0
 70
     0
280
     1
281
     0
  0
BLOCK_RECORD
  5
23D
330
1
100
AcDbSymbolTableRecord
100
AcDbBlockTableRecord
  2
*D19
340
0
 70
     0
280
     1
281
     0
  0
BLOCK_RECORD
  5
24A
330
1
100
AcDbSymbolTableRecord
100
AcDbBlockTableRecord
  2
*D20
340
0
 70
     0
280
     1
281
     0
  0
BLOCK_RECORD
  5
257
330
1
100
AcDbSymbolTableRecord
100
AcDbBlockTableRecord
  2
*D21
340
0
 70
     0
280
     1
281
     0
  0
ENDTAB
  0
ENDSEC
  0
SECTION
  2
BLOCKS
  0
BLOCK
  5
71
330
70
100
AcDbEntity
  8
0
100
AcDbBlockBegin
  2
*Model_Space
 70
     0
 10
0.0
 20
0.0
 30
0.0
  3
*Model_Space
  1

  0
ENDBLK
  5
72
330
70
100
AcDbEntity
  8
0
100
AcDbBlockEnd
  0
BLOCK
  5
6D
330
6C
100
AcDbEntity
 67
     1
  8
0
100
AcDbBlockBegin
  2
*Paper_Space
 70
     0
 10
0.0
 20
0.0
 30
0.0
  3
*Paper_Space
  1

  0
ENDBLK
  5
6E
330
6C
100
AcDbEntity
 67
     1
  8
0
100
AcDbBlockEnd
  0
BLOCK
  5
75
330
74
100
AcDbEntity
 67
     1
  8
0
100
AcDbBlockBegin
  2
*Paper_Space0
 70
     0
 10
0.0
 20
0.0
 30
0.0
  3
*Paper_Space0
  1

  0
ENDBLK
  5
76
330
74
100
AcDbEntity
 67
     1
  8
0
100
AcDbBlockEnd
  0
BLOCK
  5
157
330
154
100
AcDbEntity
  8
0
100
AcDbBlockBegin
  2
Shower
 70
     2
 10
0.0
 20
0.0
 30
0.0
  3
Shower
  1

  0
LWPOLYLINE
  5
158
330
154
100
AcDbEntity
  8
Titleblock
100
AcDbPolyline
 90
        4
 70
     1
 43
0.0
 10
0.0
 20
0.0
 10
-4.9375
 20
0.0
 10
-4.9375
 20
2.5
 10
0.0
 20
2.5
  0
IMAGE
  5
159
330
154
100
AcDbEntity
  8
Titleblock
  6
Continuous
160
               140
310
8C0000000100000084000000060000000500000000000000008013C000B87FA8928AB03F000000000000000000000000008013C035B4911D6523F03F000000000000000001000000008001C035B4911D6523F03F000000000000000001000000008001C000B87FA8928AB03F000000000000000000000000008013C000B87F
310
A8928AB03F0000000000000000
370
     0
100
AcDbRasterImage
 90
        0
 10
-4.875
 20
0.064614
 30
0.0
 11
0.0028349156118143
 21
0.0
 31
0.0
 12
0.0
 22
0.0028349156118143
 32
0.0
 13
948.0
 23
333.0
340
15A
 70
    15
280
     0
281
    50
282
    50
283
     0
290
     0
360
15C
 71
     1
 91
        2
 14
-0.5
 24
-0.5
 14
947.5
 24
332.5
  0
LWPOLYLINE
  5
15E
330
154
100
AcDbEntity
  8
Titleblock
  6
Continuous
370
    25
100
AcDbPolyline
 90
        4
 70
     1
 43
0.0
 10
0.0
 20
1.0625
 10
-4.9375
 20
1.061638
 10
-4.9375
 20
0.0
 10
0.0
 20
0.0
  0
LWPOLYLINE
  5
15F
330
154
100
AcDbEntity
  8
Titleblock
  6
Continuous
370
    25
100
AcDbPolyline
 90
        4
 70
     1
 43
0.0
 10
-1.75
 20
2.5
 10
0.0
 20
2.5
 10
0.0
 20
2.5
 10
-1.75
 20
2.5
  0
ATTDEF
  5
160
330
154
100
AcDbEntity
  8
Titleblock
  6
Continuous
370
    25
100
AcDbText
 10
-3.6875
 20
2.3125
 30
0.0
 40
0.12
  1

100
AcDbAttributeDefinition
280
     0
  3

  2
PROJECT
 70
     0
280
     1
  0
MTEXT
  5
161
330
154
100
AcDbEntity
  8
Titleblock
  6
Continuous
370
    25
100
AcDbMText
 10
-4.875
 20
1.653875
 30
0.0
 40
0.12
 41
0.6875
 46
0.0
 71
     1
 72
     5
  1
Description:
 73
     1
 44
1.0
1001
ACAD
1000
ACAD_MTEXT_COLUMN_INFO_BEGIN
1070
    75
1070
     2
1070
    79
1070
     0
1070
    76
1070
     1
1070
    78
1070
     0
1070
    48
1040
0.6875
1070
    49
1040
0.6
1070
    50
1070
     1
1040
0.0
1000
ACAD_MTEXT_COLUMN_INFO_END
  0
ATTDEF
  5
162
330
154
100
AcDbEntity
  8
Titleblock
  6
Continuous
370
    25
100
AcDbText
 10
-1.6875
 20
0.6875
 30
0.0
 40
0.12
  1

100
AcDbAttributeDefinition
280
     0
  3

  2
DRAWN_DATE
 70
     0
280
     1
  0
ATTDEF
  5
163
330
154
100
AcDbEntity
  8
Titleblock
  6
Continuous
370
    25
100
AcDbText
 10
-4.3125
 20
1.8125
 30
0.0
 40
0.3048
  1

100
AcDbAttributeDefinition
280
     0
  3

  2
TITLE_1
 70
     0
280
     1
  0
ATTDEF
  5
164
330
154
100
AcDbEntity
  8
Titleblock
  6
Continuous
370
    25
100
AcDbText
 10
-1.6875
 20
0.91994
 30
0.0
 40
0.12
  1

100
AcDbAttributeDefinition
280
     0
  3

  2
SCALE
 70
     0
280
     1
  0
LWPOLYLINE
  5
165
330
154
100
AcDbEntity
  8
Titleblock
  6
Continuous
370
    25
100
AcDbPolyline
 90
        4
 70
     1
 43
0.0
 10
0.0
 20
1.0625
 10
0.0
 20
1.0625
 10
0.0
 20
0.0
 10
0.0
 20
0.0
  0
LWPOLYLINE
  5
166
330
154
100
AcDbEntity
  8
Titleblock
  6
Continuous
370
    25
100
AcDbPolyline
 90
        4
 70
     1
 43
0.0
 10
0.0
 20
1.0625
 10
0.0
 20
1.0625
 10
0.0
 20
0.0
 10
0.0
 20
0.0
  0
LINE
  5
167
330
154
100
AcDbEntity
  8
Titleblock
  6
Continuous
370
    25
100
AcDbLine
 10
-2.125
 20
1.062165
 30
0.0
 11
-2.125
 21
0.0
 31
0.0
  0
LWPOLYLINE
  5
168
330
154
100
AcDbEntity
  8
Titleblock
  6
Continuous
370
    25
100
AcDbPolyline
 90
        4
 70
     1
 43
0.0
 10
-4.9375
 20
2.5
 10
0.0
 20
2.5
 10
0.0
 20
2.5
 10
-4.9375
 20
2.5
  0
LINE
  5
169
330
154
100
AcDbEntity
  8
Titleblock
  6
Continuous
370
    25
100
AcDbLine
 10
-4.9375
 20
2.25
 30
0.0
 11
0.0
 21
2.25
 31
0.0
  0
LINE
  5
16A
330
154
100
AcDbEntity
  8
Titleblock
  6
Continuous
370
    25
100
AcDbLine
 10
-4.9375
 20
1.6875
 30
0.0
 11
0.0
 21
1.6875
 31
0.0
  0
MTEXT
  5
16B
330
154
100
AcDbEntity
  8
Titleblock
100
AcDbMText
 10
-4.875
 20
2.467284
 30
0.0
 40
0.12
 41
0.375
 46
0.0
 71
     1
 72
     5
  1
Project:
 73
     1
 44
1.0
1001
ACAD
1000
ACAD_MTEXT_COLUMN_INFO_BEGIN
1070
    75
1070
     2
1070
    79
1070
     0
1070
    76
1070
     1
1070
    78
1070
     0
1070
    48
1040
0.375
1070
    49
1040
0.6
1070
    50
1070
     1
1040
0.0
1000
ACAD_MTEXT_COLUMN_INFO_END
  0
MTEXT
  5
16C
330
154
100
AcDbEntity
  8
Titleblock
100
AcDbMText
 10
-2.0625
 20
1.045477
 30
0.0
 40
0.075
 41
0.375
 46
0.0
 71
     1
 72
     5
  1
Scale:
 73
     1
 44
1.0
1001
ACAD
1000
ACAD_MTEXT_COLUMN_INFO_BEGIN
1070
    75
1070
     2
1070
    79
1070
     0
1070
    76
1070
     1
1070
    78
1070
     0
1070
    48
1040
0.375
1070
    49
1040
0.6
1070
    50
1070
     1
1040
0.0
1000
ACAD_MTEXT_COLUMN_INFO_END
  0
MTEXT
  5
16D
330
154
100
AcDbEntity
  8
Titleblock
100
AcDbMText
 10
-2.0625
 20
0.857735
 30
0.0
 40
0.075
 41
0.375
 46
0.0
 71
     1
 72
     5
  1
Date Drawn:
 73
     1
 44
1.0
1001
ACAD
1000
ACAD_MTEXT_COLUMN_INFO_BEGIN
1070
    75
1070
     2
1070
    79
1070
     0
1070
    76
1070
     1
1070
    78
1070
     0
1070
    48
1040
0.375
1070
    49
1040
0.6
1070
    50
1070
     1
1040
0.0
1000
ACAD_MTEXT_COLUMN_INFO_END
  0
LINE
  5
16E
330
154
100
AcDbEntity
  8
Titleblock
100
AcDbLine
 10
-2.125
 20
0.875
 30
0.0
 11
0.0
 21
0.875
 31
0.0
  0
LINE
  5
16F
330
154
100
AcDbEntity
  8
Titleblock
100
AcDbLine
 10
-2.125
 20
0.625
 30
0.0
 11
0.0
 21
0.625
 31
0.0
  0
MTEXT
  5
170
330
154
100
AcDbEntity
  8
Titleblock
100
AcDbMText
 10
-4.875
 20
2.220603
 30
0.0
 40
0.12
 41
0.625
 46
0.0
 71
     1
 72
     5
  1
Title:
 73
     1
 44
1.0
1001
ACAD
1000
ACAD_MTEXT_COLUMN_INFO_BEGIN
1070
    75
1070
     2
1070
    79
1070
     0
1070
    76
1070
     1
1070
    78
1070
     0
1070
    48
1040
0.625
1070
    49
1040
0.6
1070
    50
1070
     1
1040
0.0
1000
ACAD_MTEXT_COLUMN_INFO_END
  0
ENDBLK
  5
171
330
154
100
AcDbEntity
  8
0
100
AcDbBlockEnd
  0
BLOCK
  5
17A
330
179
100
AcDbEntity
  8
0
100
AcDbBlockBegin
  2
ANSI_B_SHEET
 70
     0
 10
0.0
 20
0.0
 30
0.0
  3
ANSI_B_SHEET
  1

  0
LINE
  5
17B
330
179
100
AcDbEntity
  8
Border
100
AcDbLine
 10
0.0
 20
0.0
 30
0.0
 11
0.5
 21
0.0
 31
0.0
  0
LINE
  5
17C
330
179
100
AcDbEntity
  8
Border
100
AcDbLine
 10
16.5
 20
0.0
 30
0.0
 11
17.0
 21
0.0
 31
0.0
  0
LINE
  5
17D
330
179
100
AcDbEntity
  8
Border
100
AcDbLine
 10
0.62
 20
0.38
 30
0.0
 11
16.38
 21
0.38
 31
0.0
  0
LINE
  5
17E
330
179
100
AcDbEntity
  8
Border
100
AcDbLine
 10
17.0
 20
0.0
 30
0.0
 11
17.0
 21
0.5
 31
0.0
  0
LINE
  5
17F
330
179
100
AcDbEntity
  8
Border
100
AcDbLine
 10
17.0
 20
10.5
 30
0.0
 11
17.0
 21
11.0
 31
0.0
  0
LINE
  5
180
330
179
100
AcDbEntity
  8
Border
100
AcDbLine
 10
16.38
 20
0.38
 30
0.0
 11
16.38
 21
10.62
 31
0.0
  0
LINE
  5
181
330
179
100
AcDbEntity
  8
Border
100
AcDbLine
 10
17.0
 20
11.0
 30
0.0
 11
16.5
 21
11.0
 31
0.0
  0
LINE
  5
182
330
179
100
AcDbEntity
  8
Border
100
AcDbLine
 10
0.5
 20
11.0
 30
0.0
 11
0.0
 21
11.0
 31
0.0
  0
LINE
  5
183
330
179
100
AcDbEntity
  8
Border
100
AcDbLine
 10
16.38
 20
10.62
 30
0.0
 11
0.62
 21
10.62
 31
0.0
  0
LINE
  5
184
330
179
100
AcDbEntity
  8
Border
100
AcDbLine
 10
0.0
 20
11.0
 30
0.0
 11
0.0
 21
10.5
 31
0.0
  0
LINE
  5
185
330
179
100
AcDbEntity
  8
Border
100
AcDbLine
 10
0.0
 20
0.5
 30
0.0
 11
0.0
 21
0.0
 31
0.0
  0
LINE
  5
186
330
179
100
AcDbEntity
  8
Border
100
AcDbLine
 10
0.62
 20
10.62
 30
0.0
 11
0.62
 21
0.38
 31
0.0
  0
LINE
  5
187
330
179
100
AcDbEntity
  8
Border
100
AcDbLine
 10
8.413397
 20
0.23
 30
0.0
 11
8.586603
 21
0.23
 31
0.0
  0
LINE
  5
188
330
179
100
AcDbEntity
  8
Border
100
AcDbLine
 10
8.5
 20
0.38
 30
0.0
 11
8.5
 21
0.13
 31
0.0
  0
LINE
  5
189
330
179
100
AcDbEntity
  8
Border
100
AcDbLine
 10
8.5
 20
0.38
 30
0.0
 11
8.413397
 21
0.23
 31
0.0
  0
LINE
  5
18A
330
179
100
AcDbEntity
  8
Border
100
AcDbLine
 10
8.5
 20
0.38
 30
0.0
 11
8.586603
 21
0.23
 31
0.0
  0
LINE
  5
18B
330
179
100
AcDbEntity
  8
Border
100
AcDbLine
 10
0.47
 20
5.586603
 30
0.0
 11
0.47
 21
5.413397
 31
0.0
  0
LINE
  5
18C
330
179
100
AcDbEntity
  8
Border
100
AcDbLine
 10
0.62
 20
5.5
 30
0.0
 11
0.37
 21
5.5
 31
0.0
  0
LINE
  5
18D
330
179
100
AcDbEntity
  8
Border
100
AcDbLine
 10
0.62
 20
5.5
 30
0.0
 11
0.47
 21
5.586603
 31
0.0
  0
LINE
  5
18E
330
179
100
AcDbEntity
  8
Border
100
AcDbLine
 10
0.62
 20
5.5
 30
0.0
 11
0.47
 21
5.413397
 31
0.0
  0
LINE
  5
18F
330
179
100
AcDbEntity
  8
Border
100
AcDbLine
 10
16.53
 20
5.586603
 30
0.0
 11
16.53
 21
5.413397
 31
0.0
  0
LINE
  5
190
330
179
100
AcDbEntity
  8
Border
100
AcDbLine
 10
16.38
 20
5.5
 30
0.0
 11
16.63
 21
5.5
 31
0.0
  0
LINE
  5
191
330
179
100
AcDbEntity
  8
Border
100
AcDbLine
 10
16.38
 20
5.5
 30
0.0
 11
16.53
 21
5.586603
 31
0.0
  0
LINE
  5
192
330
179
100
AcDbEntity
  8
Border
100
AcDbLine
 10
16.38
 20
5.5
 30
0.0
 11
16.53
 21
5.413397
 31
0.0
  0
LINE
  5
193
330
179
100
AcDbEntity
  8
Border
100
AcDbLine
 10
8.413397
 20
10.77
 30
0.0
 11
8.586603
 21
10.77
 31
0.0
  0
LINE
  5
194
330
179
100
AcDbEntity
  8
Border
100
AcDbLine
 10
8.5
 20
10.62
 30
0.0
 11
8.5
 21
10.87
 31
0.0
  0
LINE
  5
195
330
179
100
AcDbEntity
  8
Border
100
AcDbLine
 10
8.5
 20
10.62
 30
0.0
 11
8.413397
 21
10.77
 31
0.0
  0
LINE
  5
196
330
179
100
AcDbEntity
  8
Border
100
AcDbLine
 10
8.5
 20
10.62
 30
0.0
 11
8.586603
 21
10.77
 31
0.0
  0
ENDBLK
  5
197
330
179
100
AcDbEntity
  8
0
100
AcDbBlockEnd
  0
BLOCK
  5
19B
330
19A
100
AcDbEntity
  8
0
100
AcDbBlockBegin
  2
*U6
 70
     1
 10
0.0
 20
0.0
 30
0.0
  3
*U6
  1

  0
LINE
  5
19C
330
19A
100
AcDbEntity
  8
Center Lines
 62
     0
440
 16777216
 48
0.75
100
AcDbLine
 10
0.0
 20
0.218425
 30
0.0
 11
0.0
 21
-0.218425
 31
0.0
  0
ENDBLK
  5
19D
330
19A
100
AcDbEntity
  8
0
100
AcDbBlockEnd
  0
BLOCK
  5
1A1
330
1A0
100
AcDbEntity
  8
0
100
AcDbBlockBegin
  2
*D7
 70
     1
 10
0.0
 20
0.0
 30
0.0
  3
*D7
  1

  0
LINE
  5
1A2
330
1A0
100
AcDbEntity
  8
Dimensions
440
 16777216
370
    -2
100
AcDbLine
 10
5.521221
 20
7.71472
 30
0.0
 11
5.521221
 21
8.393542
 31
0.0
  0
LINE
  5
1A3
330
1A0
100
AcDbEntity
  8
Dimensions
440
 16777216
370
    -2
100
AcDbLine
 10
1.899137
 20
5.120098
 30
0.0
 11
1.899137
 21
8.393542
 31
0.0
  0
LINE
  5
1A4
330
1A0
100
AcDbEntity
  8
Dimensions
440
 16777216
370
    -2
100
AcDbLine
 10
5.401221
 20
8.323542
 30
0.0
 11
3.979265
 21
8.323542
 31
0.0
  0
LINE
  5
1A5
330
1A0
100
AcDbEntity
  8
Dimensions
440
 16777216
370
    -2
100
AcDbLine
 10
2.019137
 20
8.323542
 30
0.0
 11
3.441093
 21
8.323542
 31
0.0
  0
SOLID
  5
1A6
330
1A0
100
AcDbEntity
  8
Dimensions
440
 16777216
100
AcDbTrace
 10
5.401221
 20
8.343542
 30
0.0
 11
5.401221
 21
8.303542
 31
0.0
 12
5.521221
 22
8.323542
 32
0.0
 13
5.521221
 23
8.323542
 33
0.0
  0
SOLID
  5
1A7
330
1A0
100
AcDbEntity
  8
Dimensions
440
 16777216
100
AcDbTrace
 10
2.019137
 20
8.343542
 30
0.0
 11
2.019137
 21
8.303542
 31
0.0
 12
1.899137
 22
8.323542
 32
0.0
 13
1.899137
 23
8.323542
 33
0.0
  0
MTEXT
  5
1A8
330
1A0
100
AcDbEntity
  8
Dimensions
440
 16777216
100
AcDbMText
 10
3.710179
 20
8.323542
 30
0.0
 40
0.12
 41
0.0
 46
0.0
 71
     5
 72
     1
  1
\A1;3.62in
 73
     1
 44
1.0
  0
POINT
  5
1A9
330
1A0
100
AcDbEntity
  8
Defpoints
 62
     0
440
 16777216
100
AcDbPoint
 10
5.521221
 20
7.64472
 30
0.0
  0
POINT
  5
1AA
330
1A0
100
AcDbEntity
  8
Defpoints
 62
     0
440
 16777216
100
AcDbPoint
 10
1.899137
 20
5.050098
 30
0.0
  0
POINT
  5
1AB
330
1A0
100
AcDbEntity
  8
Defpoints
 62
     0
440
 16777216
100
AcDbPoint
 10
1.899137
 20
8.323542
 30
0.0
  0
ENDBLK
  5
1AC
330
1A0
100
AcDbEntity
  8
0
100
AcDbBlockEnd
  0
BLOCK
  5
1AF
330
1AE
100
AcDbEntity
  8
0
100
AcDbBlockBegin
  2
*U8
 70
     1
 10
0.0
 20
0.0
 30
0.0
  3
*U8
  1

  0
LINE
  5
1B0
330
1AE
100
AcDbEntity
  8
Center Lines
 62
     0
440
 16777216
 48
0.75
100
AcDbLine
 10
-0.513701
 20
0.000046
 30
0.0
 11
0.513701
 21
-0.000046
 31
0.0
  0
ENDBLK
  5
1B1
330
1AE
100
AcDbEntity
  8
0
100
AcDbBlockEnd
  0
BLOCK
  5
1B4
330
1B3
100
AcDbEntity
  8
0
100
AcDbBlockBegin
  2
*D9
 70
     1
 10
0.0
 20
0.0
 30
0.0
  3
*D9
  1

  0
LINE
  5
1B5
330
1B3
100
AcDbEntity
  8
Dimensions
440
 16777216
370
    -2
100
AcDbLine
 10
9.849531
 20
7.524675
 30
0.0
 11
10.569531
 21
7.524675
 31
0.0
  0
LINE
  5
1B6
330
1B3
100
AcDbEntity
  8
Dimensions
440
 16777216
370
    -2
100
AcDbLine
 10
9.085026
 20
4.656317
 30
0.0
 11
10.569531
 21
4.656317
 31
0.0
  0
LINE
  5
1B7
330
1B3
100
AcDbEntity
  8
Dimensions
440
 16777216
370
    -2
100
AcDbLine
 10
10.499531
 20
7.404675
 30
0.0
 11
10.499531
 21
6.201765
 31
0.0
  0
LINE
  5
1B8
330
1B3
100
AcDbEntity
  8
Dimensions
440
 16777216
370
    -2
100
AcDbLine
 10
10.499531
 20
4.776317
 30
0.0
 11
10.499531
 21
5.979227
 31
0.0
  0
SOLID
  5
1B9
330
1B3
100
AcDbEntity
  8
Dimensions
440
 16777216
100
AcDbTrace
 10
10.479531
 20
7.404675
 30
0.0
 11
10.519531
 21
7.404675
 31
0.0
 12
10.499531
 22
7.524675
 32
0.0
 13
10.499531
 23
7.524675
 33
0.0
  0
SOLID
  5
1BA
330
1B3
100
AcDbEntity
  8
Dimensions
440
 16777216
100
AcDbTrace
 10
10.479531
 20
4.776317
 30
0.0
 11
10.519531
 21
4.776317
 31
0.0
 12
10.499531
 22
4.656317
 32
0.0
 13
10.499531
 23
4.656317
 33
0.0
  0
MTEXT
  5
1BB
330
1B3
100
AcDbEntity
  8
Dimensions
440
 16777216
100
AcDbMText
 10
10.499531
 20
6.090496
 30
0.0
 40
0.12
 41
0.0
 46
0.0
 71
     5
 72
     1
  1
\A1;**2.87in
 73
     1
 44
1.0
  0
POINT
  5
1BC
330
1B3
100
AcDbEntity
  8
Defpoints
 62
     0
440
 16777216
100
AcDbPoint
 10
9.779531
 20
7.524675
 30
0.0
  0
POINT
  5
1BD
330
1B3
100
AcDbEntity
  8
Defpoints
 62
     0
440
 16777216
100
AcDbPoint
 10
9.015026
 20
4.656317
 30
0.0
  0
POINT
  5
1BE
330
1B3
100
AcDbEntity
  8
Defpoints
 62
     0
440
 16777216
100
AcDbPoint
 10
10.499531
 20
4.656317
 30
0.0
  0
ENDBLK
  5
1BF
330
1B3
100
AcDbEntity
  8
0
100
AcDbBlockEnd
  0
BLOCK
  5
1C4
330
1C3
100
AcDbEntity
  8
0
100
AcDbBlockBegin
  2
*D10
 70
     1
 10
0.0
 20
0.0
 30
0.0
  3
*D10
  1

  0
LINE
  5
1C5
330
1C3
100
AcDbEntity
  8
Dimensions
440
 16777216
370
    -2
100
AcDbLine
 10
8.776827
 20
3.405236
 30
0.0
 11
8.776801
 21
3.112637
 31
0.0
  0
LINE
  5
1C6
330
1C3
100
AcDbEntity
  8
Dimensions
440
 16777216
370
    -2
100
AcDbLine
 10
8.225646
 20
3.405285
 30
0.0
 11
8.22562
 21
3.112686
 31
0.0
  0
LINE
  5
1C7
330
1C3
100
AcDbEntity
  8
Dimensions
440
 16777216
370
    -2
100
AcDbLine
 10
8.896807
 20
3.182626
 30
0.0
 11
9.016807
 21
3.182616
 31
0.0
  0
LINE
  5
1C8
330
1C3
100
AcDbEntity
  8
Dimensions
440
 16777216
370
    -2
100
AcDbLine
 10
8.105626
 20
3.182697
 30
0.0
 11
7.985626
 21
3.182707
 31
0.0
  0
SOLID
  5
1C9
330
1C3
100
AcDbEntity
  8
Dimensions
440
 16777216
100
AcDbTrace
 10
8.896809
 20
3.202626
 30
0.0
 11
8.896805
 21
3.162626
 31
0.0
 12
8.776807
 22
3.182637
 32
0.0
 13
8.776807
 23
3.182637
 33
0.0
  0
SOLID
  5
1CA
330
1C3
100
AcDbEntity
  8
Dimensions
440
 16777216
100
AcDbTrace
 10
8.105628
 20
3.202697
 30
0.0
 11
8.105624
 21
3.162697
 31
0.0
 12
8.225626
 22
3.182686
 32
0.0
 13
8.225626
 23
3.182686
 33
0.0
  0
MTEXT
  5
1CB
330
1C3
100
AcDbEntity
  8
Dimensions
440
 16777216
100
AcDbMText
 10
8.501216
 20
3.182662
 30
0.0
 40
0.12
 41
0.0
 46
0.0
 71
     5
 72
     1
  1
\A1;.55in
 73
     1
 44
1.0
  0
POINT
  5
1CC
330
1C3
100
AcDbEntity
  8
Defpoints
 62
     0
440
 16777216
100
AcDbPoint
 10
8.776833
 20
3.475236
 30
0.0
  0
POINT
  5
1CD
330
1C3
100
AcDbEntity
  8
Defpoints
 62
     0
440
 16777216
100
AcDbPoint
 10
8.225652
 20
3.475285
 30
0.0
  0
POINT
  5
1CE
330
1C3
100
AcDbEntity
  8
Defpoints
 62
     0
440
 16777216
100
AcDbPoint
 10
8.225626
 20
3.182686
 30
0.0
  0
ENDBLK
  5
1CF
330
1C3
100
AcDbEntity
  8
0
100
AcDbBlockEnd
  0
BLOCK
  5
1D2
330
1D1
100
AcDbEntity
  8
0
100
AcDbBlockBegin
  2
*D11
 70
     1
 10
0.0
 20
0.0
 30
0.0
  3
*D11
  1

  0
LINE
  5
1D3
330
1D1
100
AcDbEntity
  8
Dimensions
440
 16777216
370
    -2
100
AcDbLine
 10
8.894985
 20
4.192627
 30
0.0
 11
8.894833
 21
2.485444
 31
0.0
  0
LINE
  5
1D4
330
1D1
100
AcDbEntity
  8
Dimensions
440
 16777216
370
    -2
100
AcDbLine
 10
8.107584
 20
4.192697
 30
0.0
 11
8.107431
 21
2.485514
 31
0.0
  0
LINE
  5
1D5
330
1D1
100
AcDbEntity
  8
Dimensions
440
 16777216
370
    -2
100
AcDbLine
 10
8.774839
 20
2.555454
 30
0.0
 11
8.719515
 21
2.555459
 31
0.0
  0
LINE
  5
1D6
330
1D1
100
AcDbEntity
  8
Dimensions
440
 16777216
370
    -2
100
AcDbLine
 10
8.227438
 20
2.555503
 30
0.0
 11
8.282762
 21
2.555498
 31
0.0
  0
SOLID
  5
1D7
330
1D1
100
AcDbEntity
  8
Dimensions
440
 16777216
100
AcDbTrace
 10
8.774841
 20
2.575454
 30
0.0
 11
8.774837
 21
2.535454
 31
0.0
 12
8.894839
 22
2.555444
 32
0.0
 13
8.894839
 23
2.555444
 33
0.0
  0
SOLID
  5
1D8
330
1D1
100
AcDbEntity
  8
Dimensions
440
 16777216
100
AcDbTrace
 10
8.227439
 20
2.575503
 30
0.0
 11
8.227436
 21
2.535503
 31
0.0
 12
8.107438
 22
2.555514
 32
0.0
 13
8.107438
 23
2.555514
 33
0.0
  0
MTEXT
  5
1D9
330
1D1
100
AcDbEntity
  8
Dimensions
440
 16777216
100
AcDbMText
 10
8.501138
 20
2.555479
 30
0.0
 40
0.12
 41
0.0
 46
0.0
 71
     5
 72
     1
  1
\A1;.79in
 73
     1
 44
1.0
  0
POINT
  5
1DA
330
1D1
100
AcDbEntity
  8
Defpoints
 62
     0
440
 16777216
100
AcDbPoint
 10
8.894991
 20
4.262627
 30
0.0
  0
POINT
  5
1DB
330
1D1
100
AcDbEntity
  8
Defpoints
 62
     0
440
 16777216
100
AcDbPoint
 10
8.10759
 20
4.262697
 30
0.0
  0
POINT
  5
1DC
330
1D1
100
AcDbEntity
  8
Defpoints
 62
     0
440
 16777216
100
AcDbPoint
 10
8.107438
 20
2.555514
 30
0.0
  0
ENDBLK
  5
1DD
330
1D1
100
AcDbEntity
  8
0
100
AcDbBlockEnd
  0
BLOCK
  5
1E0
330
1DF
100
AcDbEntity
  8
0
100
AcDbBlockBegin
  2
*D12
 70
     1
 10
0.0
 20
0.0
 30
0.0
  3
*D12
  1

  0
LINE
  5
1E1
330
1DF
100
AcDbEntity
  8
Dimensions
440
 16777216
370
    -2
100
AcDbLine
 10
7.220478
 20
7.594764
 30
0.0
 11
7.220503
 21
8.314764
 31
0.0
  0
LINE
  5
1E2
330
1DF
100
AcDbEntity
  8
Dimensions
440
 16777216
370
    -2
100
AcDbLine
 10
9.779533
 20
7.594675
 30
0.0
 11
9.779558
 21
8.314675
 31
0.0
  0
LINE
  5
1E3
330
1DF
100
AcDbEntity
  8
Dimensions
440
 16777216
370
    -2
100
AcDbLine
 10
7.340501
 20
8.24476
 30
0.0
 11
8.229878
 21
8.244729
 31
0.0
  0
LINE
  5
1E4
330
1DF
100
AcDbEntity
  8
Dimensions
440
 16777216
370
    -2
100
AcDbLine
 10
9.659556
 20
8.24468
 30
0.0
 11
8.770178
 21
8.24471
 31
0.0
  0
SOLID
  5
1E5
330
1DF
100
AcDbEntity
  8
Dimensions
440
 16777216
100
AcDbTrace
 10
7.340502
 20
8.26476
 30
0.0
 11
7.3405
 21
8.22476
 31
0.0
 12
7.220501
 22
8.244764
 32
0.0
 13
7.220501
 23
8.244764
 33
0.0
  0
SOLID
  5
1E6
330
1DF
100
AcDbEntity
  8
Dimensions
440
 16777216
100
AcDbTrace
 10
9.659557
 20
8.26468
 30
0.0
 11
9.659555
 21
8.22468
 31
0.0
 12
9.779556
 22
8.244675
 32
0.0
 13
9.779556
 23
8.244675
 33
0.0
  0
MTEXT
  5
1E7
330
1DF
100
AcDbEntity
  8
Dimensions
440
 16777216
100
AcDbMText
 10
8.500028
 20
8.24472
 30
0.0
 40
0.12
 41
0.0
 46
0.0
 71
     5
 72
     1
  1
\A1;2.56in
 73
     1
 44
1.0
  0
POINT
  5
1E8
330
1DF
100
AcDbEntity
  8
Defpoints
 62
     0
440
 16777216
100
AcDbPoint
 10
7.220476
 20
7.524764
 30
0.0
  0
POINT
  5
1E9
330
1DF
100
AcDbEntity
  8
Defpoints
 62
     0
440
 16777216
100
AcDbPoint
 10
9.779531
 20
7.524675
 30
0.0
  0
POINT
  5
1EA
330
1DF
100
AcDbEntity
  8
Defpoints
 62
     0
440
 16777216
100
AcDbPoint
 10
9.779556
 20
8.244675
 30
0.0
  0
ENDBLK
  5
1EB
330
1DF
100
AcDbEntity
  8
0
100
AcDbBlockEnd
  0
BLOCK
  5
1EE
330
1ED
100
AcDbEntity
  8
0
100
AcDbBlockBegin
  2
*D13
 70
     1
 10
0.0
 20
0.0
 30
0.0
  3
*D13
  1

  0
LINE
  5
1EF
330
1ED
100
AcDbEntity
  8
Dimensions
440
 16777216
370
    -2
100
AcDbLine
 10
12.319076
 20
4.447453
 30
0.0
 11
12.323408
 21
3.367462
 31
0.0
  0
LINE
  5
1F0
330
1ED
100
AcDbEntity
  8
Dimensions
440
 16777216
370
    -2
100
AcDbLine
 10
14.089069
 20
4.454553
 30
0.0
 11
14.093401
 21
3.374562
 31
0.0
  0
LINE
  5
1F1
330
1ED
100
AcDbEntity
  8
Dimensions
440
 16777216
370
    -2
100
AcDbLine
 10
12.443126
 20
3.437943
 30
0.0
 11
12.944645
 21
3.439955
 31
0.0
  0
LINE
  5
1F2
330
1ED
100
AcDbEntity
  8
Dimensions
440
 16777216
370
    -2
100
AcDbLine
 10
13.973121
 20
3.44408
 30
0.0
 11
13.471602
 21
3.442068
 31
0.0
  0
SOLID
  5
1F3
330
1ED
100
AcDbEntity
  8
Dimensions
440
 16777216
100
AcDbTrace
 10
12.443046
 20
3.457943
 30
0.0
 11
12.443207
 21
3.417943
 31
0.0
 12
12.323127
 22
3.437462
 32
0.0
 13
12.323127
 23
3.437462
 33
0.0
  0
SOLID
  5
1F4
330
1ED
100
AcDbEntity
  8
Dimensions
440
 16777216
100
AcDbTrace
 10
13.973041
 20
3.46408
 30
0.0
 11
13.973201
 21
3.42408
 31
0.0
 12
14.09312
 22
3.444561
 32
0.0
 13
14.09312
 23
3.444561
 33
0.0
  0
MTEXT
  5
1F5
330
1ED
100
AcDbEntity
  8
Dimensions
440
 16777216
100
AcDbMText
 10
13.208124
 20
3.441011
 30
0.0
 40
0.12
 41
0.0
 46
0.0
 71
     5
 72
     1
  1
\A1;1.77in
 73
     1
 44
1.0
  0
POINT
  5
1F6
330
1ED
100
AcDbEntity
  8
Defpoints
 62
     0
440
 16777216
100
AcDbPoint
 10
12.318795
 20
4.517453
 30
0.0
  0
POINT
  5
1F7
330
1ED
100
AcDbEntity
  8
Defpoints
 62
     0
440
 16777216
100
AcDbPoint
 10
14.088788
 20
4.524553
 30
0.0
  0
POINT
  5
1F8
330
1ED
100
AcDbEntity
  8
Defpoints
 62
     0
440
 16777216
100
AcDbPoint
 10
14.09312
 20
3.444561
 30
0.0
  0
ENDBLK
  5
1F9
330
1ED
100
AcDbEntity
  8
0
100
AcDbBlockEnd
  0
BLOCK
  5
1FC
330
1FB
100
AcDbEntity
  8
0
100
AcDbBlockBegin
  2
*D14
 70
     1
 10
0.0
 20
0.0
 30
0.0
  3
*D14
  1

  0
LINE
  5
1FD
330
1FB
100
AcDbEntity
  8
Dimensions
440
 16777216
370
    -2
100
AcDbLine
 10
1.829137
 20
5.050098
 30
0.0
 11
1.469137
 21
5.050098
 31
0.0
  0
LINE
  5
1FE
330
1FB
100
AcDbEntity
  8
Dimensions
440
 16777216
370
    -2
100
AcDbLine
 10
1.829137
 20
4.262697
 30
0.0
 11
1.469137
 21
4.262697
 31
0.0
  0
LINE
  5
1FF
330
1FB
100
AcDbEntity
  8
Dimensions
440
 16777216
370
    -2
100
AcDbLine
 10
1.539137
 20
4.930098
 30
0.0
 11
1.539137
 21
4.767666
 31
0.0
  0
LINE
  5
200
330
1FB
100
AcDbEntity
  8
Dimensions
440
 16777216
370
    -2
100
AcDbLine
 10
1.539137
 20
4.382697
 30
0.0
 11
1.539137
 21
4.545129
 31
0.0
  0
SOLID
  5
201
330
1FB
100
AcDbEntity
  8
Dimensions
440
 16777216
100
AcDbTrace
 10
1.519137
 20
4.930098
 30
0.0
 11
1.559137
 21
4.930098
 31
0.0
 12
1.539137
 22
5.050098
 32
0.0
 13
1.539137
 23
5.050098
 33
0.0
  0
SOLID
  5
202
330
1FB
100
AcDbEntity
  8
Dimensions
440
 16777216
100
AcDbTrace
 10
1.519137
 20
4.382697
 30
0.0
 11
1.559137
 21
4.382697
 31
0.0
 12
1.539137
 22
4.262697
 32
0.0
 13
1.539137
 23
4.262697
 33
0.0
  0
MTEXT
  5
203
330
1FB
100
AcDbEntity
  8
Dimensions
440
 16777216
100
AcDbMText
 10
1.539137
 20
4.656397
 30
0.0
 40
0.12
 41
0.0
 46
0.0
 71
     5
 72
     1
  1
\A1;.79in
 73
     1
 44
1.0
  0
POINT
  5
204
330
1FB
100
AcDbEntity
  8
Defpoints
 62
     0
440
 16777216
100
AcDbPoint
 10
1.899137
 20
5.050098
 30
0.0
  0
POINT
  5
205
330
1FB
100
AcDbEntity
  8
Defpoints
 62
     0
440
 16777216
100
AcDbPoint
 10
1.899137
 20
4.262697
 30
0.0
  0
POINT
  5
206
330
1FB
100
AcDbEntity
  8
Defpoints
 62
     0
440
 16777216
100
AcDbPoint
 10
1.539137
 20
4.262697
 30
0.0
  0
ENDBLK
  5
207
330
1FB
100
AcDbEntity
  8
0
100
AcDbBlockEnd
  0
BLOCK
  5
20A
330
209
100
AcDbEntity
  8
0
100
AcDbBlockBegin
  2
*D15
 70
     1
 10
0.0
 20
0.0
 30
0.0
  3
*D15
  1

  0
LINE
  5
416
330
209
100
AcDbEntity
  8
Dimensions
440
 16777216
370
    -2
100
AcDbLine
 10
5.521221
 20
7.71472
 30
0.0
 11
5.521221
 21
8.393542
 31
0.0
  0
LINE
  5
417
330
209
100
AcDbEntity
  8
Dimensions
440
 16777216
370
    -2
100
AcDbLine
 10
1.899137
 20
5.120098
 30
0.0
 11
1.899137
 21
8.393542
 31
0.0
  0
LINE
  5
418
330
209
100
AcDbEntity
  8
Dimensions
440
 16777216
370
    -2
100
AcDbLine
 10
5.401221
 20
8.323542
 30
0.0
 11
3.979265
 21
8.323542
 31
0.0
  0
LINE
  5
419
330
209
100
AcDbEntity
  8
Dimensions
440
 16777216
370
    -2
100
AcDbLine
 10
2.019137
 20
8.323542
 30
0.0
 11
3.441093
 21
8.323542
 31
0.0
  0
SOLID
  5
41A
330
209
100
AcDbEntity
  8
Dimensions
440
 16777216
100
AcDbTrace
 10
5.401221
 20
8.343542
 30
0.0
 11
5.401221
 21
8.303542
 31
0.0
 12
5.521221
 22
8.323542
 32
0.0
 13
5.521221
 23
8.323542
 33
0.0
  0
SOLID
  5
41B
330
209
100
AcDbEntity
  8
Dimensions
440
 16777216
100
AcDbTrace
 10
2.019137
 20
8.343542
 30
0.0
 11
2.019137
 21
8.303542
 31
0.0
 12
1.899137
 22
8.323542
 32
0.0
 13
1.899137
 23
8.323542
 33
0.0
  0
MTEXT
  5
41C
330
209
100
AcDbEntity
  8
Dimensions
440
 16777216
100
AcDbMText
 10
3.710179
 20
8.323542
 30
0.0
 40
0.12
 41
0.0
 46
0.0
 71
     5
 72
     1
  1
\A1;3.62in
 73
     1
 44
1.0
  0
POINT
  5
41D
330
209
100
AcDbEntity
  8
Defpoints
 62
     0
440
 16777216
100
AcDbPoint
 10
5.521221
 20
7.64472
 30
0.0
  0
POINT
  5
41E
330
209
100
AcDbEntity
  8
Defpoints
 62
     0
440
 16777216
100
AcDbPoint
 10
1.899137
 20
5.050098
 30
0.0
  0
POINT
  5
41F
330
209
100
AcDbEntity
  8
Defpoints
 62
     0
440
 16777216
100
AcDbPoint
 10
1.899137
 20
8.323542
 30
0.0
  0
ENDBLK
  5
20B
330
209
100
AcDbEntity
  8
0
100
AcDbBlockEnd
  0
BLOCK
  5
217
330
216
100
AcDbEntity
  8
0
100
AcDbBlockBegin
  2
*D16
 70
     1
 10
0.0
 20
0.0
 30
0.0
  3
*D16
  1

  0
LINE
  5
420
330
216
100
AcDbEntity
  8
Dimensions
440
 16777216
370
    -2
100
AcDbLine
 10
9.849531
 20
7.524675
 30
0.0
 11
10.569531
 21
7.524675
 31
0.0
  0
LINE
  5
421
330
216
100
AcDbEntity
  8
Dimensions
440
 16777216
370
    -2
100
AcDbLine
 10
9.085026
 20
4.656317
 30
0.0
 11
10.569531
 21
4.656317
 31
0.0
  0
LINE
  5
422
330
216
100
AcDbEntity
  8
Dimensions
440
 16777216
370
    -2
100
AcDbLine
 10
10.499531
 20
7.404675
 30
0.0
 11
10.499531
 21
6.201765
 31
0.0
  0
LINE
  5
423
330
216
100
AcDbEntity
  8
Dimensions
440
 16777216
370
    -2
100
AcDbLine
 10
10.499531
 20
4.776317
 30
0.0
 11
10.499531
 21
5.979227
 31
0.0
  0
SOLID
  5
424
330
216
100
AcDbEntity
  8
Dimensions
440
 16777216
100
AcDbTrace
 10
10.479531
 20
7.404675
 30
0.0
 11
10.519531
 21
7.404675
 31
0.0
 12
10.499531
 22
7.524675
 32
0.0
 13
10.499531
 23
7.524675
 33
0.0
  0
SOLID
  5
425
330
216
100
AcDbEntity
  8
Dimensions
440
 16777216
100
AcDbTrace
 10
10.479531
 20
4.776317
 30
0.0
 11
10.519531
 21
4.776317
 31
0.0
 12
10.499531
 22
4.656317
 32
0.0
 13
10.499531
 23
4.656317
 33
0.0
  0
MTEXT
  5
426
330
216
100
AcDbEntity
  8
Dimensions
440
 16777216
100
AcDbMText
 10
10.499531
 20
6.090496
 30
0.0
 40
0.12
 41
0.0
 46
0.0
 71
     5
 72
     1
  1
\A1;**2.87in
 73
     1
 44
1.0
  0
POINT
  5
427
330
216
100
AcDbEntity
  8
Defpoints
 62
     0
440
 16777216
100
AcDbPoint
 10
9.779531
 20
7.524675
 30
0.0
  0
POINT
  5
428
330
216
100
AcDbEntity
  8
Defpoints
 62
     0
440
 16777216
100
AcDbPoint
 10
9.015026
 20
4.656317
 30
0.0
  0
POINT
  5
429
330
216
100
AcDbEntity
  8
Defpoints
 62
     0
440
 16777216
100
AcDbPoint
 10
10.499531
 20
4.656317
 30
0.0
  0
ENDBLK
  5
218
330
216
100
AcDbEntity
  8
0
100
AcDbBlockEnd
  0
BLOCK
  5
224
330
223
100
AcDbEntity
  8
0
100
AcDbBlockBegin
  2
*D17
 70
     1
 10
0.0
 20
0.0
 30
0.0
  3
*D17
  1

  0
LINE
  5
42A
330
223
100
AcDbEntity
  8
Dimensions
440
 16777216
370
    -2
100
AcDbLine
 10
8.776827
 20
3.405236
 30
0.0
 11
8.776801
 21
3.112637
 31
0.0
  0
LINE
  5
42B
330
223
100
AcDbEntity
  8
Dimensions
440
 16777216
370
    -2
100
AcDbLine
 10
8.225646
 20
3.405285
 30
0.0
 11
8.22562
 21
3.112686
 31
0.0
  0
LINE
  5
42C
330
223
100
AcDbEntity
  8
Dimensions
440
 16777216
370
    -2
100
AcDbLine
 10
8.896807
 20
3.182626
 30
0.0
 11
9.016807
 21
3.182616
 31
0.0
  0
LINE
  5
42D
330
223
100
AcDbEntity
  8
Dimensions
440
 16777216
370
    -2
100
AcDbLine
 10
8.105626
 20
3.182697
 30
0.0
 11
7.985626
 21
3.182707
 31
0.0
  0
SOLID
  5
42E
330
223
100
AcDbEntity
  8
Dimensions
440
 16777216
100
AcDbTrace
 10
8.896809
 20
3.202626
 30
0.0
 11
8.896805
 21
3.162626
 31
0.0
 12
8.776807
 22
3.182637
 32
0.0
 13
8.776807
 23
3.182637
 33
0.0
  0
SOLID
  5
42F
330
223
100
AcDbEntity
  8
Dimensions
440
 16777216
100
AcDbTrace
 10
8.105628
 20
3.202697
 30
0.0
 11
8.105624
 21
3.162697
 31
0.0
 12
8.225626
 22
3.182686
 32
0.0
 13
8.225626
 23
3.182686
 33
0.0
  0
MTEXT
  5
430
330
223
100
AcDbEntity
  8
Dimensions
440
 16777216
100
AcDbMText
 10
8.501216
 20
3.182662
 30
0.0
 40
0.12
 41
0.0
 46
0.0
 71
     5
 72
     1
  1
\A1;.55in
 73
     1
 44
1.0
  0
POINT
  5
431
330
223
100
AcDbEntity
  8
Defpoints
 62
     0
440
 16777216
100
AcDbPoint
 10
8.776833
 20
3.475236
 30
0.0
  0
POINT
  5
432
330
223
100
AcDbEntity
  8
Defpoints
 62
     0
440
 16777216
100
AcDbPoint
 10
8.225652
 20
3.475285
 30
0.0
  0
POINT
  5
433
330
223
100
AcDbEntity
  8
Defpoints
 62
     0
440
 16777216
100
AcDbPoint
 10
8.225626
 20
3.182686
 30
0.0
  0
ENDBLK
  5
225
330
223
100
AcDbEntity
  8
0
100
AcDbBlockEnd
  0
BLOCK
  5
231
330
230
100
AcDbEntity
  8
0
100
AcDbBlockBegin
  2
*D18
 70
     1
 10
0.0
 20
0.0
 30
0.0
  3
*D18
  1

  0
LINE
  5
434
330
230
100
AcDbEntity
  8
Dimensions
440
 16777216
370
    -2
100
AcDbLine
 10
8.894985
 20
4.192627
 30
0.0
 11
8.894833
 21
2.485444
 31
0.0
  0
LINE
  5
435
330
230
100
AcDbEntity
  8
Dimensions
440
 16777216
370
    -2
100
AcDbLine
 10
8.107584
 20
4.192697
 30
0.0
 11
8.107431
 21
2.485514
 31
0.0
  0
LINE
  5
436
330
230
100
AcDbEntity
  8
Dimensions
440
 16777216
370
    -2
100
AcDbLine
 10
8.774839
 20
2.555454
 30
0.0
 11
8.719515
 21
2.555459
 31
0.0
  0
LINE
  5
437
330
230
100
AcDbEntity
  8
Dimensions
440
 16777216
370
    -2
100
AcDbLine
 10
8.227438
 20
2.555503
 30
0.0
 11
8.282762
 21
2.555498
 31
0.0
  0
SOLID
  5
438
330
230
100
AcDbEntity
  8
Dimensions
440
 16777216
100
AcDbTrace
 10
8.774841
 20
2.575454
 30
0.0
 11
8.774837
 21
2.535454
 31
0.0
 12
8.894839
 22
2.555444
 32
0.0
 13
8.894839
 23
2.555444
 33
0.0
  0
SOLID
  5
439
330
230
100
AcDbEntity
  8
Dimensions
440
 16777216
100
AcDbTrace
 10
8.227439
 20
2.575503
 30
0.0
 11
8.227436
 21
2.535503
 31
0.0
 12
8.107438
 22
2.555514
 32
0.0
 13
8.107438
 23
2.555514
 33
0.0
  0
MTEXT
  5
43A
330
230
100
AcDbEntity
  8
Dimensions
440
 16777216
100
AcDbMText
 10
8.501138
 20
2.555479
 30
0.0
 40
0.12
 41
0.0
 46
0.0
 71
     5
 72
     1
  1
\A1;.79in
 73
     1
 44
1.0
  0
POINT
  5
43B
330
230
100
AcDbEntity
  8
Defpoints
 62
     0
440
 16777216
100
AcDbPoint
 10
8.894991
 20
4.262627
 30
0.0
  0
POINT
  5
43C
330
230
100
AcDbEntity
  8
Defpoints
 62
     0
440
 16777216
100
AcDbPoint
 10
8.10759
 20
4.262697
 30
0.0
  0
POINT
  5
43D
330
230
100
AcDbEntity
  8
Defpoints
 62
     0
440
 16777216
100
AcDbPoint
 10
8.107438
 20
2.555514
 30
0.0
  0
ENDBLK
  5
232
330
230
100
AcDbEntity
  8
0
100
AcDbBlockEnd
  0
BLOCK
  5
23E
330
23D
100
AcDbEntity
  8
0
100
AcDbBlockBegin
  2
*D19
 70
     1
 10
0.0
 20
0.0
 30
0.0
  3
*D19
  1

  0
LINE
  5
43E
330
23D
100
AcDbEntity
  8
Dimensions
440
 16777216
370
    -2
100
AcDbLine
 10
7.220478
 20
7.594764
 30
0.0
 11
7.220503
 21
8.314764
 31
0.0
  0
LINE
  5
43F
330
23D
100
AcDbEntity
  8
Dimensions
440
 16777216
370
    -2
100
AcDbLine
 10
9.779533
 20
7.594675
 30
0.0
 11
9.779558
 21
8.314675
 31
0.0
  0
LINE
  5
440
330
23D
100
AcDbEntity
  8
Dimensions
440
 16777216
370
    -2
100
AcDbLine
 10
7.340501
 20
8.24476
 30
0.0
 11
8.229878
 21
8.244729
 31
0.0
  0
LINE
  5
441
330
23D
100
AcDbEntity
  8
Dimensions
440
 16777216
370
    -2
100
AcDbLine
 10
9.659556
 20
8.24468
 30
0.0
 11
8.770178
 21
8.24471
 31
0.0
  0
SOLID
  5
442
330
23D
100
AcDbEntity
  8
Dimensions
440
 16777216
100
AcDbTrace
 10
7.340502
 20
8.26476
 30
0.0
 11
7.3405
 21
8.22476
 31
0.0
 12
7.220501
 22
8.244764
 32
0.0
 13
7.220501
 23
8.244764
 33
0.0
  0
SOLID
  5
443
330
23D
100
AcDbEntity
  8
Dimensions
440
 16777216
100
AcDbTrace
 10
9.659557
 20
8.26468
 30
0.0
 11
9.659555
 21
8.22468
 31
0.0
 12
9.779556
 22
8.244675
 32
0.0
 13
9.779556
 23
8.244675
 33
0.0
  0
MTEXT
  5
444
330
23D
100
AcDbEntity
  8
Dimensions
440
 16777216
100
AcDbMText
 10
8.500028
 20
8.24472
 30
0.0
 40
0.12
 41
0.0
 46
0.0
 71
     5
 72
     1
  1
\A1;2.56in
 73
     1
 44
1.0
  0
POINT
  5
445
330
23D
100
AcDbEntity
  8
Defpoints
 62
     0
440
 16777216
100
AcDbPoint
 10
7.220476
 20
7.524764
 30
0.0
  0
POINT
  5
446
330
23D
100
AcDbEntity
  8
Defpoints
 62
     0
440
 16777216
100
AcDbPoint
 10
9.779531
 20
7.524675
 30
0.0
  0
POINT
  5
447
330
23D
100
AcDbEntity
  8
Defpoints
 62
     0
440
 16777216
100
AcDbPoint
 10
9.779556
 20
8.244675
 30
0.0
  0
ENDBLK
  5
23F
330
23D
100
AcDbEntity
  8
0
100
AcDbBlockEnd
  0
BLOCK
  5
24B
330
24A
100
AcDbEntity
  8
0
100
AcDbBlockBegin
  2
*D20
 70
     1
 10
0.0
 20
0.0
 30
0.0
  3
*D20
  1

  0
LINE
  5
448
330
24A
100
AcDbEntity
  8
Dimensions
440
 16777216
370
    -2
100
AcDbLine
 10
12.319076
 20
4.447453
 30
0.0
 11
12.323408
 21
3.367462
 31
0.0
  0
LINE
  5
449
330
24A
100
AcDbEntity
  8
Dimensions
440
 16777216
370
    -2
100
AcDbLine
 10
14.089069
 20
4.454553
 30
0.0
 11
14.093401
 21
3.374562
 31
0.0
  0
LINE
  5
44A
330
24A
100
AcDbEntity
  8
Dimensions
440
 16777216
370
    -2
100
AcDbLine
 10
12.443126
 20
3.437943
 30
0.0
 11
12.944645
 21
3.439955
 31
0.0
  0
LINE
  5
44B
330
24A
100
AcDbEntity
  8
Dimensions
440
 16777216
370
    -2
100
AcDbLine
 10
13.973121
 20
3.44408
 30
0.0
 11
13.471602
 21
3.442068
 31
0.0
  0
SOLID
  5
44C
330
24A
100
AcDbEntity
  8
Dimensions
440
 16777216
100
AcDbTrace
 10
12.443046
 20
3.457943
 30
0.0
 11
12.443207
 21
3.417943
 31
0.0
 12
12.323127
 22
3.437462
 32
0.0
 13
12.323127
 23
3.437462
 33
0.0
  0
SOLID
  5
44D
330
24A
100
AcDbEntity
  8
Dimensions
440
 16777216
100
AcDbTrace
 10
13.973041
 20
3.46408
 30
0.0
 11
13.973201
 21
3.42408
 31
0.0
 12
14.09312
 22
3.444561
 32
0.0
 13
14.09312
 23
3.444561
 33
0.0
  0
MTEXT
  5
44E
330
24A
100
AcDbEntity
  8
Dimensions
440
 16777216
100
AcDbMText
 10
13.208124
 20
3.441011
 30
0.0
 40
0.12
 41
0.0
 46
0.0
 71
     5
 72
     1
  1
\A1;1.77in
 73
     1
 44
1.0
  0
POINT
  5
44F
330
24A
100
AcDbEntity
  8
Defpoints
 62
     0
440
 16777216
100
AcDbPoint
 10
12.318795
 20
4.517453
 30
0.0
  0
POINT
  5
450
330
24A
100
AcDbEntity
  8
Defpoints
 62
     0
440
 16777216
100
AcDbPoint
 10
14.088788
 20
4.524553
 30
0.0
  0
POINT
  5
451
330
24A
100
AcDbEntity
  8
Defpoints
 62
     0
440
 16777216
100
AcDbPoint
 10
14.09312
 20
3.444561
 30
0.0
  0
ENDBLK
  5
24C
330
24A
100
AcDbEntity
  8
0
100
AcDbBlockEnd
  0
BLOCK
  5
258
330
257
100
AcDbEntity
  8
0
100
AcDbBlockBegin
  2
*D21
 70
     1
 10
0.0
 20
0.0
 30
0.0
  3
*D21
  1

  0
LINE
  5
452
330
257
100
AcDbEntity
  8
Dimensions
440
 16777216
370
    -2
100
AcDbLine
 10
1.829137
 20
5.050098
 30
0.0
 11
1.469137
 21
5.050098
 31
0.0
  0
LINE
  5
453
330
257
100
AcDbEntity
  8
Dimensions
440
 16777216
370
    -2
100
AcDbLine
 10
1.829137
 20
4.262697
 30
0.0
 11
1.469137
 21
4.262697
 31
0.0
  0
LINE
  5
454
330
257
100
AcDbEntity
  8
Dimensions
440
 16777216
370
    -2
100
AcDbLine
 10
1.539137
 20
4.930098
 30
0.0
 11
1.539137
 21
4.767666
 31
0.0
  0
LINE
  5
455
330
257
100
AcDbEntity
  8
Dimensions
440
 16777216
370
    -2
100
AcDbLine
 10
1.539137
 20
4.382697
 30
0.0
 11
1.539137
 21
4.545129
 31
0.0
  0
SOLID
  5
456
330
257
100
AcDbEntity
  8
Dimensions
440
 16777216
100
AcDbTrace
 10
1.519137
 20
4.930098
 30
0.0
 11
1.559137
 21
4.930098
 31
0.0
 12
1.539137
 22
5.050098
 32
0.0
 13
1.539137
 23
5.050098
 33
0.0
  0
SOLID
  5
457
330
257
100
AcDbEntity
  8
Dimensions
440
 16777216
100
AcDbTrace
 10
1.519137
 20
4.382697
 30
0.0
 11
1.559137
 21
4.382697
 31
0.0
 12
1.539137
 22
4.262697
 32
0.0
 13
1.539137
 23
4.262697
 33
0.0
  0
MTEXT
  5
458
330
257
100
AcDbEntity
  8
Dimensions
440
 16777216
100
AcDbMText
 10
1.539137
 20
4.656397
 30
0.0
 40
0.12
 41
0.0
 46
0.0
 71
     5
 72
     1
  1
\A1;.79in
 73
     1
 44
1.0
  0
POINT
  5
459
330
257
100
AcDbEntity
  8
Defpoints
 62
     0
440
 16777216
100
AcDbPoint
 10
1.899137
 20
5.050098
 30
0.0
  0
POINT
  5
45A
330
257
100
AcDbEntity
  8
Defpoints
 62
     0
440
 16777216
100
AcDbPoint
 10
1.899137
 20
4.262697
 30
0.0
  0
POINT
  5
45B
330
257
100
AcDbEntity
  8
Defpoints
 62
     0
440
 16777216
100
AcDbPoint
 10
1.539137
 20
4.262697
 30
0.0
  0
ENDBLK
  5
259
330
257
100
AcDbEntity
  8
0
100
AcDbBlockEnd
  0
ENDSEC
  0
SECTION
  2
ENTITIES
  0
INSERT
  5
152
330
70
100
AcDbEntity
  8
Titleblock
100
AcDbBlockReference
 66
     1
  2
Shower
 10
16.38
 20
0.38
 30
0.0
  0
ATTRIB
  5
172
330
152
100
AcDbEntity
  8
Titleblock
  6
Continuous
370
    25
100
AcDbText
 10
12.6925
 20
2.6925
 30
0.0
 40
0.12
  1
Railing Products and Mock Ups
100
AcDbAttribute
280
     0
  2
PROJECT
 70
     0
280
     1
1001
FD_ATT_APPNAME
1005
160
  0
ATTRIB
  5
173
330
152
100
AcDbEntity
  8
Titleblock
  6
Continuous
370
    25
100
AcDbText
 10
14.6925
 20
1.0675
 30
0.0
 40
0.12
  1
9/9/2021
100
AcDbAttribute
280
     0
  2
DRAWN_DATE
 70
     0
280
     1
1001
FD_ATT_APPNAME
1005
162
  0
ATTRIB
  5
174
330
152
100
AcDbEntity
  8
Titleblock
  6
Continuous
370
    25
100
AcDbText
 10
12.0675
 20
2.1925
 30
0.0
 40
0.3048
  1
R13-4133-000-12
100
AcDbAttribute
280
     0
  2
TITLE_1
 70
     0
280
     1
1001
FD_ATT_APPNAME
1005
163
  0
ATTRIB
  5
175
330
152
100
AcDbEntity
  8
Titleblock
  6
Continuous
370
    25
100
AcDbText
 10
14.6925
 20
1.29994
 30
0.0
 40
0.12
  1
1:1
100
AcDbAttribute
280
     0
  2
SCALE
 70
     0
280
     1
1001
FD_ATT_APPNAME
1005
164
  0
SEQEND
  5
176
330
152
100
AcDbEntity
  8
Titleblock
  0
INSERT
  5
177
330
70
100
AcDbEntity
  8
Border
100
AcDbBlockReference
  2
ANSI_B_SHEET
 10
0.0
 20
0.0
 30
0.0
  0
INSERT
  5
198
330
70
100
AcDbEntity
  8
Center Lines
 48
0.75
100
AcDbBlockReference
  2
*U6
 10
5.521221
 20
7.426295
 30
0.0
  0
DIMENSION
  5
19E
330
70
100
AcDbEntity
  8
Dimensions
100
AcDbDimension
280
     0
  2
*D15
 10
1.899137
 20
8.323542
 30
0.0
 11
3.710179
 21
8.323542
 31
0.0
 70
    32
 71
     5
 42
3.622084
 73
     0
 74
     0
 75
     0
  3
Standard
100
AcDbAlignedDimension
 13
5.521221
 23
7.64472
 33
0.0
 14
1.899137
 24
5.050098
 34
0.0
100
AcDbRotatedDimension
1001
ACAD_DIMASSOC_CALC_DIMLFAC
1040
-1.0
1001
ACAD_DIMASSOC_DIMLFAC
1040
-1.0
1001
ACAD_DIMASSOC_OVERRIDDEN_DIMLFAC
1040
0.0
1001
ACAD_TC
1000
DSTYLE_TC
1002
{
1070
   177
1004
18000000020000008C8C8CC2000000000000000000000000
1070
   176
1004
18000000020000008C8C8CC2000000000000000000000000
1002
}
1001
ACAD_DSTYLE_DIMJAG_POSITION
1070
   387
1070
     0
1070
   389
1010
0.0
1020
0.0
1030
0.0
1001
ACAD
1000
DSTYLE
1002
{
1070
   177
1070
   256
1070
   176
1070
   256
1070
   144
1040
1.0
1002
}
  0
INSERT
  5
1AD
330
70
100
AcDbEntity
  8
Center Lines
 48
0.75
100
AcDbBlockReference
  2
*U8
 10
8.501326
 20
4.656363
 30
0.0
  0
DIMENSION
  5
1B2
330
70
100
AcDbEntity
  8
Dimensions
100
AcDbDimension
280
     0
  2
*D16
 10
10.499531
 20
4.656317
 30
0.0
 11
10.499531
 21
6.090496
 31
0.0
 70
    32
  1
**<>
 71
     5
 42
2.868358
 73
     0
 74
     0
 75
     0
  3
Standard
100
AcDbAlignedDimension
 13
9.779531
 23
7.524675
 33
0.0
 14
9.015026
 24
4.656317
 34
0.0
 50
90.0
100
AcDbRotatedDimension
1001
ACAD_DIMASSOC_CALC_DIMLFAC
1040
-1.0
1001
ACAD_DIMASSOC_DIMLFAC
1040
-1.0
1001
ACAD_DIMASSOC_OVERRIDDEN_DIMLFAC
1040
0.0
1001
ACAD_TC
1000
DSTYLE_TC
1002
{
1070
   177
1004
18000000020000008C8C8CC2000000000000000000000000
1070
   176
1004
18000000020000008C8C8CC2000000000000000000000000
1002
}
1001
ACAD_DSTYLE_DIMJAG_POSITION
1070
   387
1070
     0
1070
   389
1010
0.0
1020
0.0
1030
0.0
1001
ACAD
1000
DSTYLE
1002
{
1070
   177
1070
   256
1070
   176
1070
   256
1070
   144
1040
1.0
1002
}
  0
MTEXT
  5
1C0
330
70
100
AcDbEntity
  8
Annotations
100
AcDbMText
 10
9.102787
 20
3.932567
 30
0.0
 40
0.12
 41
2.530558
 46
0.0
 71
     1
 72
     5
  1
**riser is adjustable 1.57" - 3.15"
 73
     1
 44
1.0
1001
ACAD
1000
ACAD_MTEXT_COLUMN_INFO_BEGIN
1070
    75
1070
     2
1070
    79
1070
     0
1070
    76
1070
     1
1070
    78
1070
     0
1070
    48
1040
2.530558
1070
    49
1040
0.6
1070
    50
1070
     1
1040
0.0
1000
ACAD_MTEXT_COLUMN_INFO_END
  0
DIMENSION
  5
1C2
330
70
100
AcDbEntity
  8
Dimensions
100
AcDbDimension
280
     0
  2
*D17
 10
8.225626
 20
3.182686
 30
0.0
 11
8.501216
 21
3.182662
 31
0.0
 70
    33
 71
     5
 42
0.551181
 73
     0
 74
     0
 75
     0
  3
Standard
100
AcDbAlignedDimension
 13
8.776833
 23
3.475236
 33
0.0
 14
8.225652
 24
3.475285
 34
0.0
1001
ACAD_DIMASSOC_CALC_DIMLFAC
1040
-1.0
1001
ACAD_DIMASSOC_DIMLFAC
1040
-1.0
1001
ACAD_DIMASSOC_OVERRIDDEN_DIMLFAC
1040
0.0
1001
ACAD_TC
1000
DSTYLE_TC
1002
{
1070
   176
1004
18000000020000008C8C8CC2000000000000000000000000
1070
   177
1004
18000000020000008C8C8CC2000000000000000000000000
1002
}
1001
ACAD_DSTYLE_DIMJAG_POSITION
1070
   387
1070
     0
1070
   389
1010
0.0
1020
0.0
1030
0.0
1001
ACAD
1000
DSTYLE
1002
{
1070
   144
1040
1.0
1070
   176
1070
   256
1070
   177
1070
   256
1002
}
  0
DIMENSION
  5
1D0
330
70
100
AcDbEntity
  8
Dimensions
100
AcDbDimension
280
     0
  2
*D18
 10
8.107438
 20
2.555514
 30
0.0
 11
8.501138
 21
2.555479
 31
0.0
 70
    33
 71
     5
 42
0.787402
 73
     0
 74
     0
 75
     0
  3
Standard
100
AcDbAlignedDimension
 13
8.894991
 23
4.262627
 33
0.0
 14
8.10759
 24
4.262697
 34
0.0
1001
ACAD_DIMASSOC_CALC_DIMLFAC
1040
-1.0
1001
ACAD_DIMASSOC_DIMLFAC
1040
-1.0
1001
ACAD_DIMASSOC_OVERRIDDEN_DIMLFAC
1040
0.0
1001
ACAD_TC
1000
DSTYLE_TC
1002
{
1070
   177
1004
18000000020000008C8C8CC2000000000000000000000000
1070
   176
1004
18000000020000008C8C8CC2000000000000000000000000
1002
}
1001
ACAD_DSTYLE_DIMJAG_POSITION
1070
   387
1070
     0
1070
   389
1010
0.0
1020
0.0
1030
0.0
1001
ACAD
1000
DSTYLE
1002
{
1070
   177
1070
   256
1070
   176
1070
   256
1070
   144
1040
1.0
1002
}
  0
DIMENSION
  5
1DE
330
70
100
AcDbEntity
  8
Dimensions
100
AcDbDimension
280
     0
  2
*D19
 10
9.779556
 20
8.244675
 30
0.0
 11
8.500028
 21
8.24472
 31
0.0
 70
    33
 71
     5
 42
2.559055
 73
     0
 74
     0
 75
     0
  3
Standard
100
AcDbAlignedDimension
 13
7.220476
 23
7.524764
 33
0.0
 14
9.779531
 24
7.524675
 34
0.0
1001
ACAD_DIMASSOC_CALC_DIMLFAC
1040
-1.0
1001
ACAD_DIMASSOC_DIMLFAC
1040
-1.0
1001
ACAD_DIMASSOC_OVERRIDDEN_DIMLFAC
1040
0.0
1001
ACAD_TC
1000
DSTYLE_TC
1002
{
1070
   176
1004
18000000020000008C8C8CC2000000000000000000000000
1070
   177
1004
18000000020000008C8C8CC2000000000000000000000000
1002
}
1001
ACAD_DSTYLE_DIMJAG_POSITION
1070
   387
1070
     0
1070
   389
1010
0.0
1020
0.0
1030
0.0
1001
ACAD
1000
DSTYLE
1002
{
1070
   144
1040
1.0
1070
   176
1070
   256
1070
   177
1070
   256
1002
}
  0
DIMENSION
  5
1EC
330
70
100
AcDbEntity
  8
Dimensions
100
AcDbDimension
280
     0
  2
*D20
 10
14.09312
 20
3.444561
 30
0.0
 11
13.208124
 21
3.441011
 31
0.0
 70
    33
 71
     5
 42
1.770007
 73
     0
 74
     0
 75
     0
  3
Standard
100
AcDbAlignedDimension
 13
12.318795
 23
4.517453
 33
0.0
 14
14.088788
 24
4.524553
 34
0.0
1001
ACAD_DIMASSOC_CALC_DIMLFAC
1040
-1.0
1001
ACAD_DIMASSOC_DIMLFAC
1040
-1.0
1001
ACAD_DIMASSOC_OVERRIDDEN_DIMLFAC
1040
0.0
1001
ACAD_TC
1000
DSTYLE_TC
1002
{
1070
   176
1004
18000000020000008C8C8CC2000000000000000000000000
1070
   177
1004
18000000020000008C8C8CC2000000000000000000000000
1002
}
1001
ACAD_DSTYLE_DIMJAG_POSITION
1070
   387
1070
     0
1070
   389
1010
0.0
1020
0.0
1030
0.0
1001
ACAD
1000
DSTYLE
1002
{
1070
   144
1040
1.0
1070
   176
1070
   256
1070
   177
1070
   256
1002
}
  0
DIMENSION
  5
1FA
330
70
100
AcDbEntity
  8
Dimensions
100
AcDbDimension
280
     0
  2
*D21
 10
1.539137
 20
4.262697
 30
0.0
 11
1.539137
 21
4.656397
 31
0.0
 70
    33
 71
     5
 42
0.787402
 73
     0
 74
     0
 75
     0
  3
Standard
100
AcDbAlignedDimension
 13
1.899137
 23
5.050098
 33
0.0
 14
1.899137
 24
4.262697
 34
0.0
1001
ACAD_DIMASSOC_CALC_DIMLFAC
1040
-1.0
1001
ACAD_DIMASSOC_DIMLFAC
1040
-1.0
1001
ACAD_DIMASSOC_OVERRIDDEN_DIMLFAC
1040
0.0
1001
ACAD_TC
1000
DSTYLE_TC
1002
{
1070
   176
1004
18000000020000008C8C8CC2000000000000000000000000
1070
   177
1004
18000000020000008C8C8CC2000000000000000000000000
1002
}
1001
ACAD_DSTYLE_DIMJAG_POSITION
1070
   387
1070
     0
1070
   389
1010
0.0
1020
0.0
1030
0.0
1001
ACAD
1000
DSTYLE
1002
{
1070
   144
1040
1.0
1070
   176
1070
   256
1070
   177
1070
   256
1002
}
  0
LINE
  5
337
330
70
100
AcDbEntity
  8
Visible
100
AcDbLine
 10
8.895377
 20
4.262626
 30
-2.066892
 11
8.895447
 21
5.050028
 31
-2.066892
210
0.0
220
1.0
230
0.0
  0
LINE
  5
338
330
70
100
AcDbEntity
  8
Visible
100
AcDbLine
 10
8.895429
 20
5.050028
 30
-1.870042
 11
8.895447
 21
5.050028
 31
-2.066892
210
0.0
220
1.0
230
0.0
  0
LINE
  5
339
330
70
100
AcDbEntity
  8
Visible
100
AcDbLine
 10
8.895359
 20
4.262626
 30
-1.870042
 11
8.895429
 21
5.050028
 31
-1.870042
210
0.0
220
1.0
230
0.0
  0
LINE
  5
33A
330
70
100
AcDbEntity
  8
Visible
100
AcDbLine
 10
8.895359
 20
4.262626
 30
-1.870042
 11
8.895377
 21
4.262626
 31
-2.066892
210
0.0
220
1.0
230
0.0
  0
LINE
  5
33B
330
70
100
AcDbEntity
  8
Visible
100
AcDbLine
 10
8.107957
 20
4.262697
 30
-1.870115
 11
8.225722
 21
4.262686
 31
-1.870104
210
0.0
220
1.0
230
0.0
  0
LINE
  5
33C
330
70
100
AcDbEntity
  8
Visible
100
AcDbLine
 10
8.776955
 20
4.262637
 30
-1.870053
 11
8.895359
 21
4.262626
 31
-1.870042
210
0.0
220
1.0
230
0.0
  0
LINE
  5
33D
330
70
100
AcDbEntity
  8
Visible
100
AcDbLine
 10
8.894991
 20
4.262627
 30
2.066966
 11
8.10759
 21
4.262697
 31
2.066892
210
0.0
220
1.0
230
0.0
  0
LINE
  5
33E
330
70
100
AcDbEntity
  8
Visible
100
AcDbLine
 10
8.107957
 20
4.262697
 30
-1.870115
 11
8.10759
 21
4.262697
 31
2.066892
210
0.0
220
1.0
230
0.0
  0
LINE
  5
33F
330
70
100
AcDbEntity
  8
Visible
100
AcDbLine
 10
8.895359
 20
4.262626
 30
-1.870042
 11
8.776955
 21
4.262637
 31
-1.870053
210
0.0
220
1.0
230
0.0
  0
LINE
  5
340
330
70
100
AcDbEntity
  8
Visible
100
AcDbLine
 10
8.225722
 20
4.262686
 30
-1.870104
 11
8.107957
 21
4.262697
 31
-1.870115
210
0.0
220
1.0
230
0.0
  0
LINE
  5
341
330
70
100
AcDbEntity
  8
Visible
100
AcDbLine
 10
8.895359
 20
4.262626
 30
-1.870042
 11
8.894991
 21
4.262627
 31
2.066966
210
0.0
220
1.0
230
0.0
  0
LINE
  5
342
330
70
100
AcDbEntity
  8
Visible
100
AcDbLine
 10
8.10759
 20
4.262697
 30
2.066892
 11
8.10766
 21
5.050099
 31
2.066892
210
0.0
220
1.0
230
0.0
  0
LINE
  5
343
330
70
100
AcDbEntity
  8
Visible
100
AcDbLine
 10
8.10766
 20
5.050099
 30
2.066892
 11
8.895061
 21
5.050029
 31
2.066966
210
0.0
220
1.0
230
0.0
  0
LINE
  5
344
330
70
100
AcDbEntity
  8
Visible
100
AcDbLine
 10
8.895429
 20
5.050028
 30
-1.870042
 11
8.895061
 21
5.050029
 31
2.066966
210
0.0
220
1.0
230
0.0
  0
LINE
  5
345
330
70
100
AcDbEntity
  8
Visible
100
AcDbLine
 10
8.895061
 20
5.050029
 30
2.066966
 11
8.894991
 21
4.262627
 31
2.066966
210
0.0
220
1.0
230
0.0
  0
LINE
  5
346
330
70
100
AcDbEntity
  8
Visible
100
AcDbLine
 10
8.895429
 20
5.050028
 30
-1.870042
 11
8.895359
 21
4.262626
 31
-1.870042
210
0.0
220
1.0
230
0.0
  0
ARC
  5
347
330
70
100
AcDbEntity
  8
Visible
100
AcDbCircle
 10
8.501722
 20
6.939827
 30
1.829916
 40
0.3149606299212595
210
-0.0000933427368679
220
0.0000001423892501
230
0.9999999956435567
100
AcDbArc
 50
28.949919
 51
151.03987
  0
LINE
  5
348
330
70
100
AcDbEntity
  8
Visible
100
AcDbLine
 10
8.777174
 20
7.092282
 30
1.633884
 11
8.777155
 21
7.092282
 31
1.830734
210
0.0
220
1.0
230
0.0
  0
ARC
  5
349
330
70
100
AcDbEntity
  8
Visible
100
AcDbCircle
 10
-8.501722
 20
6.939827
 30
-1.633065
 40
0.3149606299212357
210
0.0000933427362675
220
-0.0000001423896052
230
-0.9999999956435567
100
AcDbArc
 50
146.458467
 51
151.050081
  0
ARC
  5
34A
330
70
100
AcDbEntity
  8
Visible
100
AcDbCircle
 10
8.501722
 20
6.939827
 30
1.475585
 40
0.3149606299214431
210
-0.0000933427748225
220
0.0000001423680378
230
0.999999995643553
100
AcDbArc
 50
28.949919
 51
29.549066
  0
LINE
  5
34B
330
70
100
AcDbEntity
  8
Visible
100
AcDbLine
 10
8.777207
 20
7.092282
 30
1.279553
 11
8.777188
 21
7.092282
 31
1.476403
210
0.0
220
1.0
230
0.0
  0
ARC
  5
34C
330
70
100
AcDbEntity
  8
Visible
100
AcDbCircle
 10
-8.501722
 20
6.939827
 30
-1.278735
 40
0.3149606299228864
210
0.0000933427699209
220
-0.0000001423706986
230
-0.9999999956435534
100
AcDbArc
 50
150.444157
 51
151.050081
  0
LINE
  5
34D
330
70
100
AcDbEntity
  8
Visible
100
AcDbLine
 10
8.776884
 20
3.475236
 30
1.279553
 11
8.776955
 21
4.262638
 31
1.279553
210
0.0
220
1.0
230
0.0
  0
LINE
  5
34E
330
70
100
AcDbEntity
  8
Visible
100
AcDbLine
 10
8.777025
 20
5.050039
 30
1.279553
 11
8.777207
 21
7.092282
 31
1.279553
210
0.0
220
1.0
230
0.0
  0
LINE
  5
34F
330
70
100
AcDbEntity
  8
Visible
100
AcDbLine
 10
8.777188
 20
7.092282
 30
1.476403
 11
8.777162
 21
6.796439
 31
1.476403
210
0.0
220
1.0
230
0.0
  0
LINE
  5
350
330
70
100
AcDbEntity
  8
Visible
100
AcDbLine
 10
8.777162
 20
6.796439
 30
1.476403
 11
8.777147
 21
6.796439
 31
1.633884
210
0.0
220
1.0
230
0.0
  0
LINE
  5
351
330
70
100
AcDbEntity
  8
Visible
100
AcDbLine
 10
8.777147
 20
6.796439
 30
1.633884
 11
8.777174
 21
7.092282
 31
1.633884
210
0.0
220
1.0
230
0.0
  0
LINE
  5
352
330
70
100
AcDbEntity
  8
Visible
100
AcDbLine
 10
8.776833
 20
3.475236
 30
1.830735
 11
8.776903
 21
4.262638
 31
1.830734
210
0.0
220
1.0
230
0.0
  0
LINE
  5
353
330
70
100
AcDbEntity
  8
Visible
100
AcDbLine
 10
8.776973
 20
5.050039
 30
1.830734
 11
8.777155
 21
7.092282
 31
1.830734
210
0.0
220
1.0
230
0.0
  0
LINE
  5
354
330
70
100
AcDbEntity
  8
Visible
100
AcDbLine
 10
8.776884
 20
3.475236
 30
1.279553
 11
8.776833
 21
3.475236
 31
1.830735
210
0.0
220
1.0
230
0.0
  0
LINE
  5
355
330
70
100
AcDbEntity
  8
Visible
100
AcDbLine
 10
8.225652
 20
3.475285
 30
1.830683
 11
8.225722
 21
4.262687
 31
1.830683
210
0.0
220
1.0
230
0.0
  0
LINE
  5
356
330
70
100
AcDbEntity
  8
Visible
100
AcDbLine
 10
8.225792
 20
5.050088
 30
1.830683
 11
8.225974
 21
7.092332
 31
1.830683
210
0.0
220
1.0
230
0.0
  0
LINE
  5
357
330
70
100
AcDbEntity
  8
Visible
100
AcDbLine
 10
8.776833
 20
3.475236
 30
1.830735
 11
8.225652
 21
3.475285
 31
1.830683
210
0.0
220
1.0
230
0.0
  0
LINE
  5
358
330
70
100
AcDbEntity
  8
Visible
100
AcDbLine
 10
8.50205
 20
7.254788
 30
1.633859
 11
8.502032
 21
7.254788
 31
1.830708
210
0.0
220
1.0
230
0.0
  0
SPLINE
  5
359
330
70
100
AcDbEntity
  8
Visible
100
AcDbSpline
210
-0.0000331698047005
220
0.7678276497906495
230
0.6406564595137803
 70
     8
 71
     3
 72
     8
 73
     4
 74
     0
 42
0.000000001
 43
0.0000000001
 40
3.415043691292296
 40
3.415043691292296
 40
3.415043691292296
 40
3.415043691292296
 40
3.4162453220997
 40
3.4162453220997
 40
3.4162453220997
 40
3.4162453220997
 10
8.500493410654598
 20
7.268813857790469
 30
1.279528530703828
 10
8.500335672166329
 20
7.268814102119105
 30
1.279528229692004
 10
8.500177955544131
 20
7.268814227073061
 30
1.279528071785534
 10
8.500020261213649
 20
7.268814232543645
 30
1.279528057064453
1001
ACAD_VIEW_EDGE_ID
1071
       12
1071
       -1
1071
        5
1071
        0
  0
LINE
  5
35A
330
70
100
AcDbEntity
  8
Visible
100
AcDbLine
 10
8.235879
 20
7.108998
 30
1.633834
 11
8.23588
 21
7.139696
 31
1.633834
210
0.0
220
1.0
230
0.0
  0
SPLINE
  5
35B
330
70
100
AcDbEntity
  8
Visible
100
AcDbSpline
 70
     0
 71
     3
 72
    14
 73
    10
 74
     0
 42
0.000000001
 43
0.0000000001
 40
0.2072879161788844
 40
0.2072879161788844
 40
0.2072879161788844
 40
0.2072879161788844
 40
0.2901318620391773
 40
0.2901318620391773
 40
0.5802637240783546
 40
0.5802637240783546
 40
0.8595060823891273
 40
0.8595060823891273
 40
1.1387484406999
 40
1.1387484406999
 40
1.1387484406999
 40
1.1387484406999
 10
8.235880191714386
 20
7.139695620443449
 30
1.633834130097966
 10
8.238857928550714
 20
7.143523113224832
 30
1.6438247229853
 10
8.242381907035451
 20
7.147879433988487
 30
1.653576276597959
 10
8.260523094224481
 20
7.168946850832954
 30
1.696198910003658
 10
8.281085891911061
 20
7.18902474086723
 30
1.725952150976809
 10
8.328217162053988
 20
7.222785662964186
 30
1.77309104451524
 10
8.357958206801413
 20
7.239284753948947
 30
1.794124175065007
 10
8.425472650898882
 20
7.262364435750509
 30
1.822969717415617
 10
8.463322833860729
 20
7.268815582313854
 30
1.830705736389063
 10
8.499968812460792
 20
7.268814311025909
 30
1.830709157025921
1001
ACAD_VIEW_EDGE_ID
1071
       16
1071
       -1
1071
        5
1071
        0
  0
SPLINE
  5
35C
330
70
100
AcDbEntity
  8
Visible
100
AcDbSpline
 70
     0
 71
     3
 72
    14
 73
    10
 74
     0
 42
0.000000001
 43
0.0000000001
 40
1.1387484406999
 40
1.1387484406999
 40
1.1387484406999
 40
1.1387484406999
 40
1.417990799010673
 40
1.417990799010673
 40
1.697233157321445
 40
1.697233157321445
 40
1.987365019360623
 40
1.987365019360623
 40
2.070208965220916
 40
2.070208965220916
 40
2.070208965220916
 40
2.070208965220916
 10
8.499968812460792
 20
7.268814311025909
 30
1.830709157025921
 10
8.536614791059037
 20
7.268813039737963
 30
1.830712577662779
 10
8.574465969879383
 20
7.262359267013921
 30
1.822983624859261
 10
8.641984196365228
 20
7.239274900785501
 30
1.794150686828288
 10
8.671728022360184
 20
7.222773746207353
 30
1.773123108761865
 10
8.718865749311589
 20
7.189009553818697
 30
1.725993014548294
 10
8.739432708041931
 20
7.168930236949458
 30
1.696243612739635
 10
8.75758039019638
 20
7.147861561205543
 30
1.653624366635995
 10
8.76110588683332
 20
7.143504995888106
 30
1.643873471040933
 10
8.764085223150686
 20
7.139677296449523
 30
1.633883434204108
1001
ACAD_VIEW_EDGE_ID
1071
       17
1071
       -1
1071
        5
1071
        0
  0
LINE
  5
35D
330
70
100
AcDbEntity
  8
Visible
100
AcDbLine
 10
8.764085
 20
7.139677
 30
1.633883
 11
8.764084
 21
7.113857
 31
1.633883
210
0.0
220
1.0
230
0.0
  0
ARC
  5
35E
330
70
100
AcDbEntity
  8
Visible
100
AcDbCircle
 10
8.500128
 20
6.934168
 30
1.633066
 40
0.3346456692913368
210
-0.000093342736864
220
0.0000001423892493
230
0.9999999956435567
100
AcDbArc
 50
90.001158
 51
142.108868
  0
ARC
  5
35F
330
70
100
AcDbEntity
  8
Visible
100
AcDbCircle
 10
-7.712341
 20
1.555046
 30
7.328164
 40
0.4921259842519688
210
0.000034691075787
220
0.9999999993982548
230
-0.0000001391510907
100
AcDbArc
 50
0.0
 51
89.994652
  0
ARC
  5
360
330
70
100
AcDbEntity
  8
Visible
100
AcDbCircle
 10
-7.712341
 20
1.555046
 30
7.525014
 40
0.4921259842519679
210
0.000034691075787
220
0.999999999398255
230
-0.0000001391510907
100
AcDbArc
 50
0.0
 51
89.994652
  0
LINE
  5
361
330
70
100
AcDbEntity
  8
Visible
100
AcDbLine
 10
7.712549
 20
7.327897
 30
2.047171
 11
9.287352
 21
7.327842
 31
2.047318
210
0.0
220
1.0
230
0.0
  0
LINE
  5
362
330
70
100
AcDbEntity
  8
Visible
100
AcDbLine
 10
7.712556
 20
7.524747
 30
2.047171
 11
9.287359
 21
7.524693
 31
2.047318
210
0.0
220
1.0
230
0.0
  0
ARC
  5
363
330
70
100
AcDbEntity
  8
Visible
100
AcDbCircle
 10
-9.287144
 20
1.555193
 30
7.328164
 40
0.4921259842519686
210
0.0000346910757855
220
0.9999999993982548
230
-0.0000001391510876
100
AcDbArc
 50
89.994652
 51
180.0
  0
ARC
  5
364
330
70
100
AcDbEntity
  8
Visible
100
AcDbCircle
 10
-9.287144
 20
1.555193
 30
7.525014
 40
0.4921259842519671
210
0.0000346910757855
220
0.999999999398255
230
-0.0000001391510876
100
AcDbArc
 50
89.994652
 51
180.0
  0
ARC
  5
365
330
70
100
AcDbEntity
  8
Visible
100
AcDbCircle
 10
-8.499983
 20
6.934169
 30
-1.555119
 40
0.2755905511811024
210
0.0000000000000001
220
0.0
230
-1.0
100
AcDbArc
 50
353.890858
 51
0.001988
  0
LINE
  5
366
330
70
100
AcDbEntity
  8
Visible
100
AcDbLine
 10
8.775587
 20
7.32786
 30
1.555119
 11
8.775579
 21
7.09513
 31
1.555119
210
0.0
220
1.0
230
0.0
  0
LINE
  5
367
330
70
100
AcDbEntity
  8
Visible
100
AcDbLine
 10
8.224406
 20
7.327879
 30
1.555119
 11
8.224392
 21
6.934178
 31
1.555119
210
0.0
220
1.0
230
0.0
  0
LINE
  5
368
330
70
100
AcDbEntity
  8
Visible
100
AcDbLine
 10
7.220476
 20
7.524764
 30
1.555045
 11
7.220469
 21
7.327914
 31
1.555045
210
0.0
220
1.0
230
0.0
  0
LINE
  5
369
330
70
100
AcDbEntity
  8
Visible
100
AcDbLine
 10
9.779531
 20
7.524675
 30
1.555192
 11
9.779524
 21
7.327825
 31
1.555192
210
0.0
220
1.0
230
0.0
  0
LINE
  5
36A
330
70
100
AcDbEntity
  8
Visible
100
AcDbLine
 10
2.096061
 20
4.262626
 30
-0.395359
 11
1.89921
 21
4.262626
 31
-0.395377
210
0.0
220
1.0
230
0.0
  0
LINE
  5
36B
330
70
100
AcDbEntity
  8
Visible
100
AcDbLine
 10
2.095987
 20
5.050098
 30
0.391973
 11
1.899137
 21
5.050098
 31
0.391954
210
0.0
220
1.0
230
0.0
  0
LINE
  5
36C
330
70
100
AcDbEntity
  8
Visible
100
AcDbLine
 10
1.899137
 20
5.050098
 30
0.391954
 11
1.899137
 21
4.262697
 31
0.392024
210
0.0
220
1.0
230
0.0
  0
LINE
  5
36D
330
70
100
AcDbEntity
  8
Visible
100
AcDbLine
 10
2.095987
 20
4.262697
 30
0.392043
 11
1.899137
 21
4.262697
 31
0.392024
210
0.0
220
1.0
230
0.0
  0
LINE
  5
36E
330
70
100
AcDbEntity
  8
Visible
100
AcDbLine
 10
2.095987
 20
5.050098
 30
0.391973
 11
2.095987
 21
4.262697
 31
0.392043
210
0.0
220
1.0
230
0.0
  0
LINE
  5
36F
330
70
100
AcDbEntity
  8
Visible
100
AcDbLine
 10
1.899137
 20
4.262697
 30
0.392024
 11
1.89921
 21
4.262626
 31
-0.395377
210
0.0
220
1.0
230
0.0
  0
LINE
  5
370
330
70
100
AcDbEntity
  8
Visible
100
AcDbLine
 10
2.095987
 20
4.262697
 30
0.392043
 11
2.096061
 21
4.262626
 31
-0.395359
210
0.0
220
1.0
230
0.0
  0
LINE
  5
371
330
70
100
AcDbEntity
  8
Visible
100
AcDbLine
 10
6.033069
 20
4.262627
 30
-0.394991
 11
6.032995
 21
4.262697
 31
0.39241
210
0.0
220
1.0
230
0.0
  0
LINE
  5
372
330
70
100
AcDbEntity
  8
Visible
100
AcDbLine
 10
2.095987
 20
4.262697
 30
0.392043
 11
6.032995
 21
4.262697
 31
0.39241
210
0.0
220
1.0
230
0.0
  0
LINE
  5
373
330
70
100
AcDbEntity
  8
Visible
100
AcDbLine
 10
2.096061
 20
4.262626
 30
-0.395359
 11
2.095987
 21
4.262697
 31
0.392043
210
0.0
220
1.0
230
0.0
  0
LINE
  5
374
330
70
100
AcDbEntity
  8
Visible
100
AcDbLine
 10
2.096061
 20
4.262626
 30
-0.395359
 11
5.245605
 21
4.262627
 31
-0.395065
210
0.0
220
1.0
230
0.0
  0
LINE
  5
375
330
70
100
AcDbEntity
  8
Visible
100
AcDbLine
 10
5.796837
 20
4.262627
 30
-0.395013
 11
6.033069
 21
4.262627
 31
-0.394991
210
0.0
220
1.0
230
0.0
  0
LINE
  5
376
330
70
100
AcDbEntity
  8
Visible
100
AcDbLine
 10
6.032995
 20
4.262697
 30
0.39241
 11
6.032995
 21
5.050099
 31
0.39234
210
0.0
220
1.0
230
0.0
  0
LINE
  5
377
330
70
100
AcDbEntity
  8
Visible
100
AcDbLine
 10
2.095987
 20
5.050098
 30
0.391973
 11
6.032995
 21
5.050099
 31
0.39234
210
0.0
220
1.0
230
0.0
  0
LINE
  5
378
330
70
100
AcDbEntity
  8
Visible
100
AcDbLine
 10
2.095987
 20
4.262697
 30
0.392043
 11
2.095987
 21
5.050098
 31
0.391973
210
0.0
220
1.0
230
0.0
  0
LINE
  5
379
330
70
100
AcDbEntity
  8
Visible
100
AcDbLine
 10
6.032995
 20
5.050099
 30
0.39234
 11
6.033069
 21
5.050029
 31
-0.395061
210
0.0
220
1.0
230
0.0
  0
LINE
  5
37A
330
70
100
AcDbEntity
  8
Visible
100
AcDbLine
 10
6.033069
 20
5.050029
 30
-0.395061
 11
6.033069
 21
4.262627
 31
-0.394991
210
0.0
220
1.0
230
0.0
  0
ARC
  5
37B
330
70
100
AcDbEntity
  8
Visible
100
AcDbCircle
 10
6.939827
 20
-0.002092
 30
5.796812
 40
0.3149606299212595
210
0.9999999956435566
220
0.0000001423892501
230
0.0000933427371646
100
AcDbArc
 50
298.949919
 51
61.03987
  0
ARC
  5
37C
330
70
100
AcDbEntity
  8
Visible
100
AcDbCircle
 10
-6.939827
 20
-0.002092
 30
-5.599962
 40
0.3149606299211079
210
-0.9999999956435566
220
-0.0000001423898157
230
-0.0000933427381186
100
AcDbArc
 50
118.96013
 51
122.481178
  0
LINE
  5
37D
330
70
100
AcDbEntity
  8
Visible
100
AcDbLine
 10
5.796785
 20
7.092332
 30
0.274026
 11
5.599935
 21
7.092332
 31
0.274007
210
0.0
220
1.0
230
0.0
  0
ARC
  5
37E
330
70
100
AcDbEntity
  8
Visible
100
AcDbCircle
 10
6.939827
 20
-0.002092
 30
5.442481
 40
0.3149606299213016
210
0.9999999956435566
220
0.0000001423891176
230
0.0000933427369467
100
AcDbArc
 50
54.037869
 51
61.03987
  0
ARC
  5
37F
330
70
100
AcDbEntity
  8
Visible
100
AcDbCircle
 10
-6.939827
 20
-0.002092
 30
-5.245631
 40
0.3149606299212606
210
-0.9999999956435566
220
-0.0000001423892455
230
-0.0000933427371602
100
AcDbArc
 50
118.96013
 51
180.0
  0
LINE
  5
380
330
70
100
AcDbEntity
  8
Visible
100
AcDbLine
 10
5.442455
 20
7.092332
 30
0.273993
 11
5.245604
 21
7.092332
 31
0.273974
210
0.0
220
1.0
230
0.0
  0
LINE
  5
381
330
70
100
AcDbEntity
  8
Visible
100
AcDbLine
 10
5.245605
 20
3.475285
 30
0.274297
 11
5.245656
 21
3.475236
 31
-0.276884
210
0.0
220
1.0
230
0.0
  0
LINE
  5
382
330
70
100
AcDbEntity
  8
Visible
100
AcDbLine
 10
5.245605
 20
3.475285
 30
0.274297
 11
5.245605
 21
4.262687
 31
0.274227
210
0.0
220
1.0
230
0.0
  0
LINE
  5
383
330
70
100
AcDbEntity
  8
Visible
100
AcDbLine
 10
5.245605
 20
5.050099
 30
0.274156
 11
5.245604
 21
7.092332
 31
0.273974
210
0.0
220
1.0
230
0.0
  0
LINE
  5
384
330
70
100
AcDbEntity
  8
Visible
100
AcDbLine
 10
5.796837
 20
3.475236
 30
-0.276833
 11
5.796837
 21
4.262638
 31
-0.276903
210
0.0
220
1.0
230
0.0
  0
LINE
  5
385
330
70
100
AcDbEntity
  8
Visible
100
AcDbLine
 10
5.796837
 20
5.050099
 30
-0.276973
 11
5.796837
 21
7.092283
 31
-0.277155
210
0.0
220
1.0
230
0.0
  0
LINE
  5
386
330
70
100
AcDbEntity
  8
Visible
100
AcDbLine
 10
5.245656
 20
3.475236
 30
-0.276884
 11
5.796837
 21
3.475236
 31
-0.276833
210
0.0
220
1.0
230
0.0
  0
LINE
  5
387
330
70
100
AcDbEntity
  8
Visible
100
AcDbLine
 10
5.599935
 20
7.092332
 30
0.274007
 11
5.599935
 21
6.796489
 31
0.274034
210
0.0
220
1.0
230
0.0
  0
LINE
  5
388
330
70
100
AcDbEntity
  8
Visible
100
AcDbLine
 10
5.442455
 20
6.796489
 30
0.274019
 11
5.442455
 21
7.092332
 31
0.273993
210
0.0
220
1.0
230
0.0
  0
LINE
  5
389
330
70
100
AcDbEntity
  8
Visible
100
AcDbLine
 10
5.599935
 20
6.796489
 30
0.274034
 11
5.442455
 21
6.796489
 31
0.274019
210
0.0
220
1.0
230
0.0
  0
LINE
  5
38A
330
70
100
AcDbEntity
  8
Visible
100
AcDbLine
 10
5.796786
 20
3.475285
 30
0.274348
 11
5.245605
 21
3.475285
 31
0.274297
210
0.0
220
1.0
230
0.0
  0
LINE
  5
38B
330
70
100
AcDbEntity
  8
Visible
100
AcDbLine
 10
5.796786
 20
3.475285
 30
0.274348
 11
5.796786
 21
4.262687
 31
0.274278
210
0.0
220
1.0
230
0.0
  0
LINE
  5
38C
330
70
100
AcDbEntity
  8
Visible
100
AcDbLine
 10
5.796786
 20
5.050099
 30
0.274208
 11
5.796785
 21
7.092332
 31
0.274026
210
0.0
220
1.0
230
0.0
  0
LINE
  5
38D
330
70
100
AcDbEntity
  8
Visible
100
AcDbLine
 10
5.796837
 20
3.475236
 30
-0.276833
 11
5.796786
 21
3.475285
 31
0.274348
210
0.0
220
1.0
230
0.0
  0
LINE
  5
38E
330
70
100
AcDbEntity
  8
Visible
100
AcDbLine
 10
5.779586
 20
7.254788
 30
-0.001553
 11
5.796811
 21
7.254788
 31
-0.001551
210
0.0
220
1.0
230
0.0
  0
LINE
  5
38F
330
70
100
AcDbEntity
  8
Visible
100
AcDbLine
 10
5.24563
 20
7.254788
 30
-0.001603
 11
5.262839
 21
7.254788
 31
-0.001601
210
0.0
220
1.0
230
0.0
  0
CIRCLE
  5
390
330
70
100
AcDbEntity
  8
Visible
100
AcDbCircle
 10
-5.519519
 20
0.884788
 30
7.327869
 40
0.11
210
-0.0000001391510897
220
0.9999999993982552
230
-0.0000346910757847
  0
ARC
  5
391
330
70
100
AcDbEntity
  8
Visible
100
AcDbCircle
 10
-6.934168
 20
-0.000498
 30
-5.442482
 40
0.2641025170275348
210
-0.9999999956435566
220
-0.0000001423892461
230
-0.0000933427371649
100
AcDbArc
 50
58.579645
 51
90.001988
  0
ARC
  5
392
330
70
100
AcDbEntity
  8
Visible
100
AcDbCircle
 10
-5.521222
 20
0.000258
 30
7.327869
 40
0.2755905511811026
210
-0.0000001391510906
220
0.999999999398255
230
-0.0000346910757847
100
AcDbArc
 50
0.0
 51
180.0
  0
SPLINE
  5
393
330
70
100
AcDbEntity
  8
Visible
100
AcDbSpline
210
-0.6439000506656387
220
-0.7651096154396173
230
-0.000033386061056
 70
     8
 71
     3
 72
     8
 73
     4
 74
     0
 42
0.000000001
 43
0.0000000001
 40
3.4162453220997
 40
3.4162453220997
 40
3.4162453220997
 40
3.4162453220997
 40
3.416274809411896
 40
3.416274809411896
 40
3.416274809411896
 40
3.416274809411896
 10
5.24563080603184
 20
7.268814285719702
 30
-0.0000202612118301
 10
5.24563080567168
 20
7.268814285853947
 30
-0.000016391484678
 10
5.245630805397013
 20
7.268814285916243
 30
-0.000012521746612
 10
5.245630805207838
 20
7.268814285906589
 30
-0.0000086519939941
1001
ACAD_VIEW_EDGE_ID
1071
       13
1071
       -1
1071
        5
1071
        0
  0
SPLINE
  5
394
330
70
100
AcDbEntity
  8
Visible
100
AcDbSpline
 70
     0
 71
     3
 72
    14
 73
    10
 74
     0
 42
0.000000001
 43
0.0000000001
 40
3.416310661513085
 40
3.416310661513085
 40
3.416310661513085
 40
3.416310661513085
 40
3.695487680410473
 40
3.695487680410473
 40
3.974730038721245
 40
3.974730038721245
 40
4.264861900760423
 40
4.264861900760423
 40
4.347705846620716
 40
4.347705846620716
 40
4.347705846620716
 40
4.347705846620716
 10
5.245630804900429
 20
7.2688142855523
 30
0.0000054631655075
 10
5.245631002730078
 20
7.268812537745882
 30
0.0366434308307362
 10
5.253359713278769
 20
7.262361712460849
 30
0.0744852433144843
 10
5.282189284449486
 20
7.239284739057582
 30
0.1419971718587476
 10
5.303216867108858
 20
7.222785654061816
 30
0.1717421426674264
 10
5.350346970717509
 20
7.189024745387753
 30
0.2188822121370322
 10
5.380096378114103
 20
7.168946863826013
 30
0.2394505639640556
 10
5.422715630080347
 20
7.147879459119073
 30
0.2575997078638466
 10
5.432466526888674
 20
7.143523141132359
 30
0.2611255067604361
 10
5.442456564791427
 20
7.139695651196002
 30
0.2641051086447987
1001
ACAD_VIEW_EDGE_ID
1071
       13
1071
       -1
1071
        5
1071
        0
  0
LINE
  5
395
330
70
100
AcDbEntity
  8
Visible
100
AcDbLine
 10
5.442457
 20
7.139696
 30
0.264105
 11
5.442457
 21
6.934178
 31
0.264112
210
0.0
220
1.0
230
0.0
  0
LINE
  5
396
330
70
100
AcDbEntity
  8
Visible
100
AcDbLine
 10
5.599937
 20
7.108969
 30
0.264121
 11
5.599937
 21
7.139696
 31
0.26412
210
0.0
220
1.0
230
0.0
  0
SPLINE
  5
397
330
70
100
AcDbEntity
  8
Visible
100
AcDbSpline
 70
     0
 71
     3
 72
    14
 73
    10
 74
     0
 42
0.000000001
 43
0.0000000001
 40
0.2072879161788844
 40
0.2072879161788844
 40
0.2072879161788844
 40
0.2072879161788844
 40
0.2901318620391773
 40
0.2901318620391773
 40
0.5802637240783546
 40
0.5802637240783546
 40
0.8595060823891273
 40
0.8595060823891273
 40
1.1387484406999
 40
1.1387484406999
 40
1.1387484406999
 40
1.1387484406999
 10
5.599936879065353
 20
7.139695673619506
 30
0.2641198082874325
 10
5.609927471952687
 20
7.143523166400889
 30
0.2611420714511041
 10
5.619679025565346
 20
7.147879487164544
 30
0.2576180929663678
 10
5.662301658971045
 20
7.168946904009011
 30
0.2394769057773374
 10
5.692054899944196
 20
7.189024794043287
 30
0.2189141080907575
 10
5.739193793482627
 20
7.222785716140244
 30
0.1717828379478306
 10
5.760226924032394
 20
7.239284807125004
 30
0.1420417932004057
 10
5.789072466383004
 20
7.262364488926566
 30
0.0745273491029366
 10
5.79680848535645
 20
7.268815635489912
 30
0.0366771661410894
 10
5.796811905993308
 20
7.268814364201967
 30
0.0000311875410262
1001
ACAD_VIEW_EDGE_ID
1071
       16
1071
       -1
1071
        5
1071
        0
  0
SPLINE
  5
398
330
70
100
AcDbEntity
  8
Visible
100
AcDbSpline
 70
     0
 71
     3
 72
     8
 73
     4
 74
     0
 42
0.000000001
 43
0.0000000001
 40
1.1387484406999
 40
1.1387484406999
 40
1.1387484406999
 40
1.1387484406999
 40
1.384255412969001
 40
1.384255412969001
 40
1.384255412969001
 40
1.384255412969001
 10
5.796811905993308
 20
7.268814364201967
 30
0.0000311875410262
 10
5.79681491338124
 20
7.268813246498849
 30
-0.0321875750632899
 10
5.790840994659447
 20
7.263824510879225
 30
-0.0653379264913383
 10
5.779600225367175
 20
7.254775181300402
 30
-0.095819892738291
1001
ACAD_VIEW_EDGE_ID
1071
       17
1071
       -1
1071
        5
1071
        0
  0
ARC
  5
399
330
70
100
AcDbEntity
  8
Visible
100
AcDbCircle
 10
-5.521149
 20
0.787659
 30
7.327869
 40
0.4921259842519686
210
-0.000000139151089
220
0.9999999993982552
230
-0.0000346910757846
100
AcDbArc
 50
359.994652
 51
179.994652
  0
ARC
  5
39A
330
70
100
AcDbEntity
  8
Visible
100
AcDbCircle
 10
-5.521149
 20
0.787659
 30
7.524719
 40
0.4921259842519683
210
-0.0000001391510877
220
0.999999999398255
230
-0.000034691075785
100
AcDbArc
 50
0.0
 51
179.994652
  0
LINE
  5
39B
330
70
100
AcDbEntity
  8
Visible
100
AcDbLine
 10
6.013274
 20
7.327897
 30
0.787451
 11
6.013421
 21
7.327842
 31
-0.787352
210
0.0
220
1.0
230
0.0
  0
LINE
  5
39C
330
70
100
AcDbEntity
  8
Visible
100
AcDbLine
 10
6.013274
 20
7.524747
 30
0.787444
 11
6.013421
 21
7.524693
 31
-0.787359
210
0.0
220
1.0
230
0.0
  0
ARC
  5
39D
330
70
100
AcDbEntity
  8
Visible
100
AcDbCircle
 10
-5.521296
 20
-0.787144
 30
7.327869
 40
0.4921259842519682
210
-0.0000001391510876
220
0.9999999993982552
230
-0.0000346910757849
100
AcDbArc
 50
179.994652
 51
235.95453
  0
ARC
  5
39E
330
70
100
AcDbEntity
  8
Visible
100
AcDbCircle
 10
-5.521296
 20
-0.787144
 30
7.327869
 40
0.4921259842519692
210
-0.0000001391510914
220
0.9999999993982552
230
-0.0000346910757867
100
AcDbArc
 50
304.066127
 51
359.994652
  0
LINE
  5
39F
330
70
100
AcDbEntity
  8
Visible
100
AcDbLine
 10
5.029169
 20
7.327842
 30
-0.787444
 11
5.029022
 21
7.327897
 31
0.787359
210
0.0
220
1.0
230
0.0
  0
LINE
  5
3A0
330
70
100
AcDbEntity
  8
Visible
100
AcDbLine
 10
5.796812
 20
7.327869
 30
0.000003
 11
5.796812
 21
7.268814
 31
0.000005
210
0.0
220
1.0
230
0.0
  0
LINE
  5
3A1
330
70
100
AcDbEntity
  8
Visible
100
AcDbLine
 10
5.245631
 20
7.327869
 30
0.000003
 11
5.245631
 21
7.268814
 31
0.000005
210
0.0
220
1.0
230
0.0
  0
LINE
  5
3A2
330
70
100
AcDbEntity
  8
Visible
100
AcDbLine
 10
5.029022
 20
7.524747
 30
0.787398
 11
5.029022
 21
7.327897
 31
0.787405
210
0.0
220
1.0
230
0.0
  0
LINE
  5
3A3
330
70
100
AcDbEntity
  8
Visible
100
AcDbLine
 10
6.013421
 20
7.524693
 30
-0.787405
 11
6.013421
 21
7.327842
 31
-0.787398
210
0.0
220
1.0
230
0.0
  0
LINE
  5
3A4
330
70
100
AcDbEntity
  8
Visible
100
AcDbLine
 10
13.598758
 20
7.94091
 30
-0.449972
 11
13.598777
 21
8.13776
 31
-0.449972
  0
LINE
  5
3A5
330
70
100
AcDbEntity
  8
Visible
100
AcDbLine
 10
13.598777
 20
8.13776
 30
-0.449972
 11
12.811375
 21
8.137834
 31
-0.449902
  0
LINE
  5
3A6
330
70
100
AcDbEntity
  8
Visible
100
AcDbLine
 10
12.811357
 20
7.940983
 30
-0.449902
 11
12.811375
 21
8.137834
 31
-0.449902
  0
LINE
  5
3A7
330
70
100
AcDbEntity
  8
Visible
100
AcDbLine
 10
13.598758
 20
7.94091
 30
-0.449972
 11
12.811357
 21
7.940983
 31
-0.449902
  0
LINE
  5
3A8
330
70
100
AcDbEntity
  8
Visible
100
AcDbLine
 10
12.811375
 20
8.137834
 30
-0.449902
 11
12.811305
 21
8.137833
 31
-1.237303
  0
LINE
  5
3A9
330
70
100
AcDbEntity
  8
Visible
100
AcDbLine
 10
12.811287
 20
7.940983
 30
-1.237303
 11
12.811305
 21
8.137833
 31
-1.237303
  0
LINE
  5
3AA
330
70
100
AcDbEntity
  8
Visible
100
AcDbLine
 10
12.811357
 20
7.940983
 30
-0.449902
 11
12.811287
 21
7.940983
 31
-1.237303
  0
LINE
  5
3AB
330
70
100
AcDbEntity
  8
Visible
100
AcDbLine
 10
12.811287
 20
7.940983
 30
-1.237303
 11
12.811013
 21
5.007912
 31
-1.237303
  0
LINE
  5
3AC
330
70
100
AcDbEntity
  8
Visible
100
AcDbLine
 10
12.810921
 20
4.02366
 30
-1.237303
 11
12.810919
 21
4.003975
 31
-1.237303
  0
LINE
  5
3AD
330
70
100
AcDbEntity
  8
Visible
100
AcDbLine
 10
12.810919
 20
4.003975
 30
-1.237303
 11
12.810989
 21
4.003975
 31
-0.449901
  0
LINE
  5
3AE
330
70
100
AcDbEntity
  8
Visible
100
AcDbLine
 10
12.811357
 20
7.940983
 30
-0.449902
 11
12.811083
 21
5.007912
 31
-0.449901
  0
LINE
  5
3AF
330
70
100
AcDbEntity
  8
Visible
100
AcDbLine
 10
12.810991
 20
4.02366
 30
-0.449901
 11
12.810989
 21
4.003975
 31
-0.449901
  0
LINE
  5
3B0
330
70
100
AcDbEntity
  8
Visible
100
AcDbLine
 10
12.811287
 20
7.940983
 30
-1.237303
 11
12.811357
 21
7.940983
 31
-0.449902
  0
LINE
  5
3B1
330
70
100
AcDbEntity
  8
Visible
100
AcDbLine
 10
12.810989
 20
4.003975
 30
-0.449901
 11
13.598391
 21
4.003902
 31
-0.449971
  0
LINE
  5
3B2
330
70
100
AcDbEntity
  8
Visible
100
AcDbLine
 10
13.598758
 20
7.94091
 30
-0.449972
 11
13.598485
 21
5.007838
 31
-0.449972
  0
LINE
  5
3B3
330
70
100
AcDbEntity
  8
Visible
100
AcDbLine
 10
13.598393
 20
4.023586
 30
-0.449971
 11
13.598391
 21
4.003902
 31
-0.449971
  0
LINE
  5
3B4
330
70
100
AcDbEntity
  8
Visible
100
AcDbLine
 10
12.811357
 20
7.940983
 30
-0.449902
 11
13.598758
 21
7.94091
 31
-0.449972
  0
ARC
  5
3B5
330
70
100
AcDbEntity
  8
Visible
100
AcDbCircle
 10
12.318732
 20
4.517453
 30
1.828328
 40
0.1099999999999998
210
0.000034691075786
220
0.0000001391510916
230
0.999999999398255
100
AcDbArc
 50
270.231599
 51
90.228042
  0
CIRCLE
  5
3B6
330
70
100
AcDbEntity
  8
Visible
100
AcDbCircle
 10
-12.318732
 20
4.517453
 30
-2.025178
 40
0.11
210
-0.0000346910757847
220
-0.0000001391510897
230
-0.9999999993982548
  0
ARC
  5
3B7
330
70
100
AcDbEntity
  8
Visible
100
AcDbCircle
 10
14.088718
 20
4.524552
 30
1.828328
 40
0.1099999999999998
210
0.000034691075786
220
0.0000001391510916
230
0.999999999398255
100
AcDbArc
 50
270.231599
 51
90.228042
  0
CIRCLE
  5
3B8
330
70
100
AcDbEntity
  8
Visible
100
AcDbCircle
 10
-14.088718
 20
4.524552
 30
-2.025178
 40
0.11
210
-0.0000346910757847
220
-0.0000001391510897
230
-0.9999999993982548
  0
ARC
  5
3B9
330
70
100
AcDbEntity
  8
Visible
100
AcDbCircle
 10
12.415861
 20
4.515822
 30
1.828328
 40
0.4921259842519684
210
0.0000346910757852
220
0.0000001391510883
230
0.9999999993982548
100
AcDbArc
 50
90.229821
 51
269.994652
  0
LINE
  5
3BA
330
70
100
AcDbEntity
  8
Visible
100
AcDbLine
 10
12.415885
 20
4.023697
 30
2.024747
 11
12.415879
 21
4.023697
 31
1.827897
  0
ARC
  5
3BB
330
70
100
AcDbEntity
  8
Visible
100
AcDbCircle
 10
12.415861
 20
4.515822
 30
2.025178
 40
0.4921259842519682
210
0.0000346910757846
220
0.000000139151089
230
0.9999999993982548
100
AcDbArc
 50
89.994652
 51
269.994652
  0
LINE
  5
3BC
330
70
100
AcDbEntity
  8
Visible
100
AcDbLine
 10
12.415885
 20
4.023697
 30
2.024747
 11
13.990688
 21
4.02355
 31
2.024693
  0
ARC
  5
3BD
330
70
100
AcDbEntity
  8
Visible
100
AcDbCircle
 10
13.990664
 20
4.515675
 30
2.025178
 40
0.4921259842519682
210
0.0000346910757846
220
0.0000001391510905
230
0.9999999993982548
100
AcDbArc
 50
269.994652
 51
89.994652
  0
LINE
  5
3BE
330
70
100
AcDbEntity
  8
Visible
100
AcDbLine
 10
13.99078
 20
5.007802
 30
2.024692
 11
12.415977
 21
5.007949
 31
2.024747
  0
LINE
  5
3BF
330
70
100
AcDbEntity
  8
Visible
100
AcDbLine
 10
12.413957
 20
5.007945
 30
2.024747
 11
12.41395
 21
5.007945
 31
1.827897
  0
LINE
  5
3C0
330
70
100
AcDbEntity
  8
Visible
100
AcDbLine
 10
13.992708
 20
4.023554
 30
2.024692
 11
13.992702
 21
4.023554
 31
1.827842
  0
ENDSEC
  0
SECTION
  2
OBJECTS
  0
DICTIONARY
  5
C
330
0
100
AcDbDictionary
281
     1
  3
ACAD_COLOR
350
63
  3
ACAD_DETAILVIEWSTYLE
350
6A
  3
ACAD_GROUP
350
D
  3
ACAD_IMAGE_DICT
350
15B
  3
ACAD_IMAGE_VARS
350
15D
  3
ACAD_LAYOUT
350
62
  3
ACAD_MATERIAL
350
10
  3
ACAD_MLEADERSTYLE
350
66
  3
ACAD_MLINESTYLE
350
5F
  3
ACAD_PLOTSETTINGS
350
61
  3
ACAD_PLOTSTYLENAME
350
E
  3
ACAD_SCALELIST
350
42
  3
ACAD_SECTIONVIEWSTYLE
350
68
  3
ACAD_TABLESTYLE
350
64
  3
ACAD_VISUALSTYLE
350
29
  3
ACDB_RECOMPOSE_DATA
350
411
  3
AcDbVariableDictionary
350
408
  0
DICTIONARY
  5
B3
330
70
100
AcDbDictionary
280
     1
281
     1
  3
ACAD_SORTENTS
360
151
  0
DICTIONARY
  5
155
330
154
100
AcDbDictionary
280
     1
281
     1
  3
ACAD_SORTENTS
360
336
  0
IMAGEDEF_REACTOR
  5
15C
330
159
100
AcDbRasterImageDefReactor
 90
        2
330
159
  0
DICTIONARY
  5
63
102
{ACAD_REACTORS
330
C
102
}
330
C
100
AcDbDictionary
281
     1
  0
DICTIONARY
  5
6A
102
{ACAD_REACTORS
330
C
102
}
330
C
100
AcDbDictionary
281
     1
  3
Imperial24
350
6B
  0
DICTIONARY
  5
D
102
{ACAD_REACTORS
330
C
102
}
330
C
100
AcDbDictionary
281
     1
  0
DICTIONARY
  5
15B
102
{ACAD_REACTORS
330
C
102
}
330
C
100
AcDbDictionary
281
     1
  3
morse_logo-16 (1)_01-2018(B)_1_1
350
15A
  0
RASTERVARIABLES
  5
15D
102
{ACAD_REACTORS
330
C
102
}
330
C
100
AcDbRasterVariables
 90
        0
 70
     0
 71
     1
 72
     5
  0
DICTIONARY
  5
62
102
{ACAD_REACTORS
330
C
102
}
330
C
100
AcDbDictionary
281
     1
  3
Model
350
73
  3
Sheet1
350
6F
  3
Sheet2
350
77
  0
DICTIONARY
  5
10
102
{ACAD_REACTORS
330
C
102
}
330
C
100
AcDbDictionary
281
     1
  3
ByBlock
350
19
  3
ByLayer
350
11
  3
Global
350
21
  0
DICTIONARY
  5
66
102
{ACAD_REACTORS
330
C
102
}
330
C
100
AcDbDictionary
281
     1
  3
Standard
350
67
  0
DICTIONARY
  5
5F
102
{ACAD_REACTORS
330
C
102
}
330
C
100
AcDbDictionary
281
     1
  3
Standard
350
60
  0
DICTIONARY
  5
61
102
{ACAD_REACTORS
330
C
102
}
330
C
100
AcDbDictionary
281
     1
  0
ACDBDICTIONARYWDFLT
  5
E
102
{ACAD_REACTORS
330
C
102
}
330
C
100
AcDbDictionary
281
     1
  3
Normal
350
F
100
AcDbDictionaryWithDefault
340
F
  0
DICTIONARY
  5
42
102
{ACAD_REACTORS
330
C
102
}
330
C
100
AcDbDictionary
281
     1
  3
*A1
350
A3
  3
*A10
350
AC
  3
*A11
350
AD
  3
*A12
350
AE
  3
*A13
350
AF
  3
*A14
350
B0
  3
*A15
350
B1
  3
*A16
350
B2
  3
*A2
350
A4
  3
*A3
350
A5
  3
*A4
350
A6
  3
*A5
350
A7
  3
*A6
350
A8
  3
*A7
350
A9
  3
*A8
350
AA
  3
*A9
350
AB
  3
A0
350
43
  3
A1
350
44
  3
A2
350
45
  3
A3
350
46
  3
A4
350
47
  3
A5
350
48
  3
A6
350
49
  3
A7
350
4A
  3
A8
350
4B
  3
A9
350
4C
  3
B0
350
4D
  3
B1
350
4E
  3
B2
350
4F
  3
B3
350
50
  3
B4
350
51
  3
B5
350
52
  3
B6
350
53
  0
DICTIONARY
  5
68
102
{ACAD_REACTORS
330
C
102
}
330
C
100
AcDbDictionary
281
     1
  3
Imperial24
350
69
  0
DICTIONARY
  5
64
102
{ACAD_REACTORS
330
C
102
}
330
C
100
AcDbDictionary
281
     1
  3
Standard
350
65
  0
DICTIONARY
  5
29
102
{ACAD_REACTORS
330
C
102
}
330
C
100
AcDbDictionary
281
     1
  3
2dWireframe
350
2F
  3
Basic
350
2E
  3
Brighten
350
35
  3
ColorChange
350
39
  3
Conceptual
350
32
  3
Dim
350
34
  3
EdgeColorOff
350
41
  3
Facepattern
350
38
  3
Flat
350
2A
  3
FlatWithEdges
350
2B
  3
Gouraud
350
2C
  3
GouraudWithEdges
350
2D
  3
Hidden
350
31
  3
JitterOff
350
3F
  3
Linepattern
350
37
  3
OverhangOff
350
40
  3
Realistic
350
33
  3
Shaded
350
3E
  3
Shaded with edges
350
3D
  3
Shades of Gray
350
3A
  3
Sketchy
350
3B
  3
Thicken
350
36
  3
Wireframe
350
30
  3
X-Ray
350
3C
  0
XRECORD
  5
411
102
{ACAD_REACTORS
330
C
102
}
330
C
100
AcDbXrecord
280
     1
 90
        1
330
65
330
161
330
16B
330
16C
330
16D
330
170
330
1C0
  0
DICTIONARY
  5
408
102
{ACAD_REACTORS
330
C
102
}
330
C
100
AcDbDictionary
281
     1
  3
ANNOALLVISIBLE
350
40D
  3
CANNOSCALE
350
40E
  3
CMLEADERSTYLE
350
40A
  3
CTABLESTYLE
350
409
  3
CVIEWDETAILSTYLE
350
40B
  3
CVIEWSECTIONSTYLE
350
40C
  0
SORTENTSTABLE
  5
151
102
{ACAD_REACTORS
330
B3
102
}
330
B3
100
AcDbSortentsTable
330
70
  0
SORTENTSTABLE
  5
336
102
{ACAD_REACTORS
330
155
102
}
330
155
100
AcDbSortentsTable
330
154
  0
ACDBDETAILVIEWSTYLE
  5
6B
102
{ACAD_XDICTIONARY
360
414
102
}
102
{ACAD_REACTORS
330
6A
102
}
330
6A
100
AcDbModelDocViewStyle
 70
     0
  3
Imperial24
290
     0
100
AcDbDetailViewStyle
 70
     0
 71
     0
 90
        3
 71
     1
340
55
 62
   256
 40
0.24
340
0
 62
   256
 40
0.24
300

 40
0.36
280
     3
 71
     2
340
5D
 90
       25
 62
   256
 71
     3
340
55
 62
   256
 40
0.24
 90
        1
 40
0.75
 90
        1
300
%<\AcVar ViewType \f "%tc1">% %<\AcVar ViewDetailId>%\PSCALE %<\AcVar ViewScale \f "%sn">%
 71
     4
340
5D
 90
       25
 62
   256
340
5D
 90
       25
 62
   256
280
     0
  0
IMAGEDEF
  5
15A
102
{ACAD_REACTORS
330
15B
330
15C
330
3C1
102
}
330
15B
100
AcDbRasterImageDef
 90
        0
  1
morse_logo-16 (1)_01-2018(B)_1_1.jpg
 10
948.0
 20
333.0
 11
0.264583
 21
0.264583
280
     1
281
     5
  0
LAYOUT
  5
73
102
{ACAD_REACTORS
330
62
102
}
330
62
100
AcDbPlotSettings
  1

  2
AutoCAD PDF (High Quality Print).pc3
  4
ANSI_full_bleed_B_(17.00_x_11.00_Inches)
  6

 40
0.0
 41
0.0
 42
0.0
 43
0.0
 44
431.799988
 45
279.399994
 46
0.0
 47
0.0
 48
0.0
 49
0.0
140
0.0
141
0.0
142
1.0
143
1.940153
 70
 11952
 72
     0
 73
     0
 74
     0
  7

 75
     0
147
0.515423
 76
     0
 77
     2
 78
   300
148
217.26104
149
112.59172
100
AcDbLayout
  1
Model
 70
     1
 71
     0
 10
0.0
 20
0.0
 11
12.0
 21
9.0
 12
0.0
 22
0.0
 32
0.0
 14
0.0
 24
0.0
 34
0.0
 15
0.0
 25
0.0
 35
0.0
146
0.0
 13
0.0
 23
0.0
 33
0.0
 16
1.0
 26
0.0
 36
0.0
 17
0.0
 27
1.0
 37
0.0
 76
     0
330
70
1001
ACAD_PSEXT
1000
AutoCAD PDF (High Quality Print).pc3
1000
DWG To PDF
1000
File
1000

1070
     0
  0
LAYOUT
  5
6F
102
{ACAD_REACTORS
330
62
102
}
330
62
100
AcDbPlotSettings
  1

  2
None
  4

  6

 40
0.0
 41
0.0
 42
0.0
 43
0.0
 44
0.0
 45
0.0
 46
0.0
 47
0.0
 48
0.0
 49
0.0
140
0.0
141
0.0
142
1.0
143
1.0
 70
   688
 72
     0
 73
     0
 74
     5
  7

 75
    16
147
1.0
 76
     0
 77
     2
 78
   300
148
0.0
149
0.0
100
AcDbLayout
  1
Sheet1
 70
     1
 71
     1
 10
0.0
 20
0.0
 11
12.0
 21
9.0
 12
0.0
 22
0.0
 32
0.0
 14
0.0
 24
0.0
 34
0.0
 15
0.0
 25
0.0
 35
0.0
146
0.0
 13
0.0
 23
0.0
 33
0.0
 16
1.0
 26
0.0
 36
0.0
 17
0.0
 27
1.0
 37
0.0
 76
     0
330
6C
  0
LAYOUT
  5
77
102
{ACAD_REACTORS
330
62
102
}
330
62
100
AcDbPlotSettings
  1

  2
None
  4

  6

 40
0.0
 41
0.0
 42
0.0
 43
0.0
 44
0.0
 45
0.0
 46
0.0
 47
0.0
 48
0.0
 49
0.0
140
0.0
141
0.0
142
1.0
143
1.0
 70
   688
 72
     0
 73
     0
 74
     5
  7

 75
    16
147
1.0
 76
     0
 77
     2
 78
   300
148
0.0
149
0.0
100
AcDbLayout
  1
Sheet2
 70
     1
 71
     2
 10
0.0
 20
0.0
 11
12.0
 21
9.0
 12
0.0
 22
0.0
 32
0.0
 14
0.0
 24
0.0
 34
0.0
 15
0.0
 25
0.0
 35
0.0
146
0.0
 13
0.0
 23
0.0
 33
0.0
 16
1.0
 26
0.0
 36
0.0
 17
0.0
 27
1.0
 37
0.0
 76
     0
330
74
  0
MATERIAL
  5
19
102
{ACAD_XDICTIONARY
360
1A
102
}
102
{ACAD_REACTORS
330
10
102
}
330
10
100
AcDbMaterial
  1
ByBlock
 72
     0
 43
0.020833
 43
0.0
 43
0.0
 43
0.0
 43
0.0
 43
0.020833
 43
0.0
 43
0.0
 43
0.0
 43
0.0
 43
1.0
 43
0.0
 43
0.0
 43
0.0
 43
0.0
 43
1.0
 77
     0
 47
0.020833
 47
0.0
 47
0.0
 47
0.0
 47
0.0
 47
0.020833
 47
0.0
 47
0.0
 47
0.0
 47
0.0
 47
1.0
 47
0.0
 47
0.0
 47
0.0
 47
0.0
 47
1.0
171
     0
 49
0.020833
 49
0.0
 49
0.0
 49
0.0
 49
0.0
 49
0.020833
 49
0.0
 49
0.0
 49
0.0
 49
0.0
 49
1.0
 49
0.0
 49
0.0
 49
0.0
 49
0.0
 49
1.0
175
     0
142
0.020833
142
0.0
142
0.0
142
0.0
142
0.0
142
0.020833
142
0.0
142
0.0
142
0.0
142
0.0
142
1.0
142
0.0
142
0.0
142
0.0
142
0.0
142
1.0
179
     0
144
0.020833
144
0.0
144
0.0
144
0.0
144
0.0
144
0.020833
144
0.0
144
0.0
144
0.0
144
0.0
144
1.0
144
0.0
144
0.0
144
0.0
144
0.0
144
1.0
147
0.020833
147
0.0
147
0.0
147
0.0
147
0.0
147
0.020833
147
0.0
147
0.0
147
0.0
147
0.0
147
1.0
147
0.0
147
0.0
147
0.0
147
0.0
147
1.0
  0
MATERIAL
  5
11
102
{ACAD_XDICTIONARY
360
12
102
}
102
{ACAD_REACTORS
330
10
102
}
330
10
100
AcDbMaterial
  1
ByLayer
 72
     0
 43
0.020833
 43
0.0
 43
0.0
 43
0.0
 43
0.0
 43
0.020833
 43
0.0
 43
0.0
 43
0.0
 43
0.0
 43
1.0
 43
0.0
 43
0.0
 43
0.0
 43
0.0
 43
1.0
 77
     0
 47
0.020833
 47
0.0
 47
0.0
 47
0.0
 47
0.0
 47
0.020833
 47
0.0
 47
0.0
 47
0.0
 47
0.0
 47
1.0
 47
0.0
 47
0.0
 47
0.0
 47
0.0
 47
1.0
171
     0
 49
0.020833
 49
0.0
 49
0.0
 49
0.0
 49
0.0
 49
0.020833
 49
0.0
 49
0.0
 49
0.0
 49
0.0
 49
1.0
 49
0.0
 49
0.0
 49
0.0
 49
0.0
 49
1.0
175
     0
142
0.020833
142
0.0
142
0.0
142
0.0
142
0.0
142
0.020833
142
0.0
142
0.0
142
0.0
142
0.0
142
1.0
142
0.0
142
0.0
142
0.0
142
0.0
142
1.0
179
     0
144
0.020833
144
0.0
144
0.0
144
0.0
144
0.0
144
0.020833
144
0.0
144
0.0
144
0.0
144
0.0
144
1.0
144
0.0
144
0.0
144
0.0
144
0.0
144
1.0
147
0.020833
147
0.0
147
0.0
147
0.0
147
0.0
147
0.020833
147
0.0
147
0.0
147
0.0
147
0.0
147
1.0
147
0.0
147
0.0
147
0.0
147
0.0
147
1.0
  0
MATERIAL
  5
21
102
{ACAD_XDICTIONARY
360
22
102
}
102
{ACAD_REACTORS
330
10
102
}
330
10
100
AcDbMaterial
  1
Global
 72
     0
 43
0.020833
 43
0.0
 43
0.0
 43
0.0
 43
0.0
 43
0.020833
 43
0.0
 43
0.0
 43
0.0
 43
0.0
 43
1.0
 43
0.0
 43
0.0
 43
0.0
 43
0.0
 43
1.0
 77
     0
 47
0.020833
 47
0.0
 47
0.0
 47
0.0
 47
0.0
 47
0.020833
 47
0.0
 47
0.0
 47
0.0
 47
0.0
 47
1.0
 47
0.0
 47
0.0
 47
0.0
 47
0.0
 47
1.0
171
     0
 49
0.020833
 49
0.0
 49
0.0
 49
0.0
 49
0.0
 49
0.020833
 49
0.0
 49
0.0
 49
0.0
 49
0.0
 49
1.0
 49
0.0
 49
0.0
 49
0.0
 49
0.0
 49
1.0
175
     0
142
0.020833
142
0.0
142
0.0
142
0.0
142
0.0
142
0.020833
142
0.0
142
0.0
142
0.0
142
0.0
142
1.0
142
0.0
142
0.0
142
0.0
142
0.0
142
1.0
179
     0
144
0.020833
144
0.0
144
0.0
144
0.0
144
0.0
144
0.020833
144
0.0
144
0.0
144
0.0
144
0.0
144
1.0
144
0.0
144
0.0
144
0.0
144
0.0
144
1.0
147
0.020833
147
0.0
147
0.0
147
0.0
147
0.0
147
0.020833
147
0.0
147
0.0
147
0.0
147
0.0
147
1.0
147
0.0
147
0.0
147
0.0
147
0.0
147
1.0
  0
MLEADERSTYLE
  5
67
102
{ACAD_REACTORS
330
66
102
}
330
66
100
AcDbMLeaderStyle
179
     2
170
     2
171
     1
172
     0
 90
        2
 40
0.0
 41
0.0
173
     1
 91
-1056964608
340
5B
 92
       -2
290
     1
 42
0.09
291
     1
 43
0.36
  3
Standard
 44
0.18
300

342
55
174
     1
178
     6
175
     1
176
     0
 93
-1056964608
 45
0.18
292
     0
297
     0
 46
0.18
 94
-1056964608
 47
1.0
 49
1.0
140
1.0
293
     1
141
0.0
294
     1
177
     0
142
1.0
295
     0
296
     0
143
0.125
271
     0
272
     9
273
     9
298
     1
  0
MLINESTYLE
  5
60
102
{ACAD_REACTORS
330
5F
102
}
330
5F
100
AcDbMlineStyle
  2
STANDARD
 70
     0
  3

 62
   256
 51
90.0
 52
90.0
 71
     0
  0
ACDBPLACEHOLDER
  5
F
102
{ACAD_REACTORS
330
E
102
}
330
E
  0
SCALE
  5
A3
102
{ACAD_REACTORS
330
42
102
}
330
42
100
AcDbScale
 70
     0
300
1:2
140
1.0
141
2.0
290
     0
  0
SCALE
  5
AC
102
{ACAD_REACTORS
330
42
102
}
330
42
100
AcDbScale
 70
     0
300
1:50
140
1.0
141
50.0
290
     0
  0
SCALE
  5
AD
102
{ACAD_REACTORS
330
42
102
}
330
42
100
AcDbScale
 70
     0
300
1:100
140
1.0
141
100.0
290
     0
  0
SCALE
  5
AE
102
{ACAD_REACTORS
330
42
102
}
330
42
100
AcDbScale
 70
     0
300
2:1
140
2.0
141
1.0
290
     0
  0
SCALE
  5
AF
102
{ACAD_REACTORS
330
42
102
}
330
42
100
AcDbScale
 70
     0
300
4:1
140
4.0
141
1.0
290
     0
  0
SCALE
  5
B0
102
{ACAD_REACTORS
330
42
102
}
330
42
100
AcDbScale
 70
     0
300
8:1
140
8.0
141
1.0
290
     0
  0
SCALE
  5
B1
102
{ACAD_REACTORS
330
42
102
}
330
42
100
AcDbScale
 70
     0
300
10:1
140
10.0
141
1.0
290
     0
  0
SCALE
  5
B2
102
{ACAD_REACTORS
330
42
102
}
330
42
100
AcDbScale
 70
     0
300
100:1
140
100.0
141
1.0
290
     0
  0
SCALE
  5
A4
102
{ACAD_REACTORS
330
42
102
}
330
42
100
AcDbScale
 70
     0
300
1:4
140
1.0
141
4.0
290
     0
  0
SCALE
  5
A5
102
{ACAD_REACTORS
330
42
102
}
330
42
100
AcDbScale
 70
     0
300
1:5
140
1.0
141
5.0
290
     0
  0
SCALE
  5
A6
102
{ACAD_REACTORS
330
42
102
}
330
42
100
AcDbScale
 70
     0
300
1:8
140
1.0
141
8.0
290
     0
  0
SCALE
  5
A7
102
{ACAD_REACTORS
330
42
102
}
330
42
100
AcDbScale
 70
     0
300
1:10
140
1.0
141
10.0
290
     0
  0
SCALE
  5
A8
102
{ACAD_REACTORS
330
42
102
}
330
42
100
AcDbScale
 70
     0
300
1:16
140
1.0
141
16.0
290
     0
  0
SCALE
  5
A9
102
{ACAD_REACTORS
330
42
102
}
330
42
100
AcDbScale
 70
     0
300
1:20
140
1.0
141
20.0
290
     0
  0
SCALE
  5
AA
102
{ACAD_REACTORS
330
42
102
}
330
42
100
AcDbScale
 70
     0
300
1:30
140
1.0
141
30.0
290
     0
  0
SCALE
  5
AB
102
{ACAD_REACTORS
330
42
102
}
330
42
100
AcDbScale
 70
     0
300
1:40
140
1.0
141
40.0
290
     0
  0
SCALE
  5
43
102
{ACAD_REACTORS
330
42
102
}
330
42
100
AcDbScale
 70
     0
300
1:1
140
1.0
141
1.0
290
     1
  0
SCALE
  5
44
102
{ACAD_REACTORS
330
42
102
}
330
42
100
AcDbScale
 70
     0
300
1/128" = 1'-0"
140
0.007813
141
12.0
290
     0
  0
SCALE
  5
45
102
{ACAD_REACTORS
330
42
102
}
330
42
100
AcDbScale
 70
     0
300
1/64" = 1'-0"
140
0.015625
141
12.0
290
     0
  0
SCALE
  5
46
102
{ACAD_REACTORS
330
42
102
}
330
42
100
AcDbScale
 70
     0
300
1/32" = 1'-0"
140
0.03125
141
12.0
290
     0
  0
SCALE
  5
47
102
{ACAD_REACTORS
330
42
102
}
330
42
100
AcDbScale
 70
     0
300
1/16" = 1'-0"
140
0.0625
141
12.0
290
     0
  0
SCALE
  5
48
102
{ACAD_REACTORS
330
42
102
}
330
42
100
AcDbScale
 70
     0
300
3/32" = 1'-0"
140
0.09375
141
12.0
290
     0
  0
SCALE
  5
49
102
{ACAD_REACTORS
330
42
102
}
330
42
100
AcDbScale
 70
     0
300
1/8" = 1'-0"
140
0.125
141
12.0
290
     0
  0
SCALE
  5
4A
102
{ACAD_REACTORS
330
42
102
}
330
42
100
AcDbScale
 70
     0
300
3/16" = 1'-0"
140
0.1875
141
12.0
290
     0
  0
SCALE
  5
4B
102
{ACAD_REACTORS
330
42
102
}
330
42
100
AcDbScale
 70
     0
300
1/4" = 1'-0"
140
0.25
141
12.0
290
     0
  0
SCALE
  5
4C
102
{ACAD_REACTORS
330
42
102
}
330
42
100
AcDbScale
 70
     0
300
3/8" = 1'-0"
140
0.375
141
12.0
290
     0
  0
SCALE
  5
4D
102
{ACAD_REACTORS
330
42
102
}
330
42
100
AcDbScale
 70
     0
300
1/2" = 1'-0"
140
0.5
141
12.0
290
     0
  0
SCALE
  5
4E
102
{ACAD_REACTORS
330
42
102
}
330
42
100
AcDbScale
 70
     0
300
3/4" = 1'-0"
140
0.75
141
12.0
290
     0
  0
SCALE
  5
4F
102
{ACAD_REACTORS
330
42
102
}
330
42
100
AcDbScale
 70
     0
300
1" = 1'-0"
140
1.0
141
12.0
290
     0
  0
SCALE
  5
50
102
{ACAD_REACTORS
330
42
102
}
330
42
100
AcDbScale
 70
     0
300
1-1/2" = 1'-0"
140
1.5
141
12.0
290
     0
  0
SCALE
  5
51
102
{ACAD_REACTORS
330
42
102
}
330
42
100
AcDbScale
 70
     0
300
3" = 1'-0"
140
3.0
141
12.0
290
     0
  0
SCALE
  5
52
102
{ACAD_REACTORS
330
42
102
}
330
42
100
AcDbScale
 70
     0
300
6" = 1'-0"
140
6.0
141
12.0
290
     0
  0
SCALE
  5
53
102
{ACAD_REACTORS
330
42
102
}
330
42
100
AcDbScale
 70
     0
300
1'-0" = 1'-0"
140
12.0
141
12.0
290
     0
  0
ACDBSECTIONVIEWSTYLE
  5
69
102
{ACAD_XDICTIONARY
360
412
102
}
102
{ACAD_REACTORS
330
68
102
}
330
68
100
AcDbModelDocViewStyle
 70
     0
  3
Imperial24
290
     0
100
AcDbSectionViewStyle
 70
     0
 71
     0
 90
       78
 71
     1
340
55
 62
   256
 40
0.24
340
0
340
0
 62
   256
 40
0.24
300
I, O, Q, S, X, Z
 40
0.48
 90
        3
 40
0.18
 90
        1
 71
     2
340
5D
 90
       25
 62
   256
340
5D
 90
       50
 62
   256
 40
0.24
 40
0.0
 40
0.24
 71
     3
340
55
 62
   256
 40
0.24
 90
        1
 40
0.75
 90
        1
300
%<\AcVar ViewType \f "%tc1">% %<\AcVar ViewSectionStartId>%-%<\AcVar ViewSectionEndId>%\PSCALE %<\AcVar ViewScale \f "%sn">%
 71
     4
 62
   256
 62
   257
300
ANSI31
 40
1.0
 90
        0
290
     0
290
     0
 90
        6
 40
0.0
 40
1.570796
 40
0.261799
 40
1.308997
 40
-0.261799
 40
1.832596
  0
TABLESTYLE
  5
65
102
{ACAD_XDICTIONARY
360
40F
102
}
102
{ACAD_REACTORS
330
64
102
}
330
64
100
AcDbTableStyle
280
     0
  3
Standard
 70
     0
 71
     0
 40
0.06
 41
0.06
280
     0
281
     0
  7
Standard
140
0.18
170
     2
 62
     0
 63
     7
283
     0
 90
      512
 91
        0
  1

274
    -2
284
     1
 64
     0
275
    -2
285
     1
 65
     0
276
    -2
286
     1
 66
     0
277
    -2
287
     1
 67
     0
278
    -2
288
     1
 68
     0
279
    -2
289
     1
 69
     0
  7
Standard
140
0.25
170
     5
 62
     0
 63
     7
283
     0
 90
      512
 91
        0
  1

274
    -2
284
     1
 64
     0
275
    -2
285
     1
 65
     0
276
    -2
286
     1
 66
     0
277
    -2
287
     1
 67
     0
278
    -2
288
     1
 68
     0
279
    -2
289
     1
 69
     0
  7
Standard
140
0.18
170
     5
 62
     0
 63
     7
283
     0
 90
      512
 91
        0
  1

274
    -2
284
     1
 64
     0
275
    -2
285
     1
 65
     0
276
    -2
286
     1
 66
     0
277
    -2
287
     1
 67
     0
278
    -2
288
     1
 68
     0
279
    -2
289
     1
 69
     0
  0
VISUALSTYLE
  5
2F
102
{ACAD_REACTORS
330
29
102
}
330
29
100
AcDbVisualStyle
  2
2dWireframe
 70
     4
177
     3
291
     0
 70
    58
 90
        0
176
     1
 90
        2
176
     1
 90
        0
176
     1
 90
        0
176
     1
 40
0.6
176
     1
 40
30.0
176
     1
 62
     7
420
 16777215
176
     1
 90
        1
176
     1
 90
        4
176
     1
 62
     7
176
     1
 62
   257
176
     1
 90
        1
176
     1
 90
        1
176
     1
 40
1.0
176
     1
 90
        0
176
     1
 62
   257
176
     1
 40
1.0
176
     1
 90
        1
176
     1
 90
        6
176
     1
 90
        2
176
     1
 62
     7
176
     1
 90
        5
176
     1
 90
        0
176
     1
 90
        0
176
     1
290
     0
176
     1
 90
        1
176
     1
 40
0.0
176
     1
 90
        0
176
     1
290
     1
176
     1
290
     1
176
     1
290
     0
176
     1
290
     0
176
     1
290
     0
176
     1
290
     0
176
     1
290
     0
176
     1
290
     0
176
     1
290
     0
176
     1
 90
       50
176
     1
 40
0.0
176
     1
 40
1.0
176
     1
 90
        0
176
     1
 62
    18
420
        0
176
     1
 90
       50
176
     1
 90
        3
176
     1
 62
     5
420
      255
176
     1
290
     0
176
     1
 90
       50
176
     1
 90
       50
176
     1
 90
       50
176
     1
290
     0
176
     1
 90
       50
176
     1
 62
   256
176
     0
 40
1.0
176
     0
 90
        2
176
     1
  1
strokes_ogs.tif
176
     1
290
     0
176
     1
 40
1.0
176
     1
 40
1.0
176
     1
1001
ACAD
1000
AcDbSavedByObjectVersion
1070
     0
  0
VISUALSTYLE
  5
2E
102
{ACAD_REACTORS
330
29
102
}
330
29
100
AcDbVisualStyle
  2
Basic
 70
     7
177
     3
291
     1
 70
    58
 90
        1
176
     1
 90
        0
176
     1
 90
        1
176
     1
 90
        0
176
     1
 40
0.6
176
     1
 40
30.0
176
     1
 62
     7
420
 16777215
176
     1
 90
        0
176
     1
 90
        4
176
     1
 62
     7
176
     1
 62
   257
176
     1
 90
        1
176
     1
 90
        1
176
     1
 40
1.0
176
     1
 90
        8
176
     1
 62
     7
176
     1
 40
1.0
176
     1
 90
        1
176
     1
 90
        6
176
     1
 90
        2
176
     1
 62
     7
176
     1
 90
        5
176
     1
 90
        0
176
     1
 90
        0
176
     1
290
     0
176
     1
 90
        1
176
     1
 40
0.0
176
     1
 90
        0
176
     1
290
     0
176
     1
290
     1
176
     1
290
     1
176
     1
290
     0
176
     1
290
     0
176
     1
290
     0
176
     1
290
     0
176
     1
290
     0
176
     1
290
     0
176
     1
 90
       50
176
     1
 40
0.0
176
     1
 40
1.0
176
     1
 90
        0
176
     1
 62
    18
420
        0
176
     1
 90
       50
176
     1
 90
        3
176
     1
 62
     5
420
      255
176
     1
290
     0
176
     1
 90
       50
176
     1
 90
       50
176
     1
 90
       50
176
     1
290
     0
176
     1
 90
       50
176
     1
 62
   256
176
     0
 40
1.0
176
     0
 90
        2
176
     1
  1
strokes_ogs.tif
176
     1
290
     0
176
     1
 40
1.0
176
     1
 40
1.0
176
     1
1001
ACAD
1000
AcDbSavedByObjectVersion
1070
     0
  0
VISUALSTYLE
  5
35
102
{ACAD_REACTORS
330
29
102
}
330
29
100
AcDbVisualStyle
  2
Brighten
 70
    12
177
     3
291
     1
 70
    58
 90
        2
176
     1
 90
        2
176
     1
 90
        0
176
     1
 90
        0
176
     1
 40
0.6
176
     1
 40
30.0
176
     1
 62
     7
420
 16777215
176
     1
 90
        1
176
     1
 90
        4
176
     1
 62
     7
176
     1
 62
   257
176
     1
 90
        1
176
     1
 90
        1
176
     1
 40
1.0
176
     1
 90
        8
176
     1
 62
     7
176
     1
 40
1.0
176
     1
 90
        1
176
     1
 90
        6
176
     1
 90
        2
176
     1
 62
     7
176
     1
 90
        5
176
     1
 90
        0
176
     1
 90
        0
176
     1
290
     0
176
     1
 90
        1
176
     1
 40
50.0
176
     1
 90
        0
176
     1
290
     0
176
     1
290
     1
176
     1
290
     1
176
     1
290
     0
176
     1
290
     0
176
     1
290
     0
176
     1
290
     0
176
     1
290
     0
176
     1
290
     0
176
     1
 90
       50
176
     1
 40
0.0
176
     1
 40
1.0
176
     1
 90
        0
176
     1
 62
    18
420
        0
176
     1
 90
       50
176
     1
 90
        3
176
     1
 62
     5
420
      255
176
     1
290
     0
176
     1
 90
       50
176
     1
 90
       50
176
     1
 90
       50
176
     1
290
     0
176
     1
 90
       50
176
     1
 62
   256
176
     0
 40
1.0
176
     0
 90
        2
176
     1
  1
strokes_ogs.tif
176
     1
290
     0
176
     1
 40
1.0
176
     1
 40
1.0
176
     1
1001
ACAD
1000
AcDbSavedByObjectVersion
1070
     0
  0
VISUALSTYLE
  5
39
102
{ACAD_REACTORS
330
29
102
}
330
29
100
AcDbVisualStyle
  2
ColorChange
 70
    16
177
     3
291
     1
 70
    58
 90
        2
176
     1
 90
        2
176
     1
 90
        3
176
     1
 90
        0
176
     1
 40
0.6
176
     1
 40
30.0
176
     1
 62
     8
420
  8421504
176
     1
 90
        1
176
     1
 90
        4
176
     1
 62
     7
176
     1
 62
   257
176
     1
 90
        1
176
     1
 90
        1
176
     1
 40
1.0
176
     1
 90
        8
176
     1
 62
     8
420
  8421504
176
     1
 40
1.0
176
     1
 90
        1
176
     1
 90
        6
176
     1
 90
        2
176
     1
 62
     7
176
     1
 90
        5
176
     1
 90
        0
176
     1
 90
        0
176
     1
290
     0
176
     1
 90
        1
176
     1
 40
0.0
176
     1
 90
        0
176
     1
290
     0
176
     1
290
     1
176
     1
290
     1
176
     1
290
     0
176
     1
290
     0
176
     1
290
     0
176
     1
290
     0
176
     1
290
     0
176
     1
290
     0
176
     1
 90
       50
176
     1
 40
0.0
176
     1
 40
1.0
176
     1
 90
        0
176
     1
 62
    18
420
        0
176
     1
 90
       50
176
     1
 90
        3
176
     1
 62
     5
420
      255
176
     1
290
     0
176
     1
 90
       50
176
     1
 90
       50
176
     1
 90
       50
176
     1
290
     0
176
     1
 90
       50
176
     1
 62
   256
176
     0
 40
1.0
176
     0
 90
        2
176
     1
  1
strokes_ogs.tif
176
     1
290
     0
176
     1
 40
1.0
176
     1
 40
1.0
176
     1
1001
ACAD
1000
AcDbSavedByObjectVersion
1070
     0
  0
VISUALSTYLE
  5
32
102
{ACAD_REACTORS
330
29
102
}
330
29
100
AcDbVisualStyle
  2
Conceptual
 70
     9
177
     3
291
     0
 70
    58
 90
        3
176
     1
 90
        2
176
     1
 90
        0
176
     1
 90
        0
176
     1
 40
0.6
176
     1
 40
30.0
176
     1
 62
     7
420
 16777215
176
     1
 90
        2
176
     1
 90
        2
176
     1
 62
     7
176
     1
 62
   257
176
     1
 90
        1
176
     1
 90
        1
176
     1
 40
179.0
176
     1
 90
        8
176
     1
 62
     7
176
     1
 40
1.0
176
     1
 90
        1
176
     1
 90
        6
176
     1
 90
        2
176
     1
 62
     7
176
     1
 90
        3
176
     1
 90
        0
176
     1
 90
        0
176
     1
290
     0
176
     1
 90
        1
176
     1
 40
0.0
176
     1
 90
        0
176
     1
290
     0
176
     1
290
     1
176
     1
290
     1
176
     1
290
     0
176
     1
290
     0
176
     1
290
     0
176
     1
290
     0
176
     1
290
     0
176
     1
290
     0
176
     1
 90
       50
176
     1
 40
0.0
176
     1
 40
1.0
176
     1
 90
        0
176
     1
 62
    18
420
        0
176
     1
 90
       50
176
     1
 90
        3
176
     1
 62
     5
420
      255
176
     1
290
     0
176
     1
 90
       50
176
     1
 90
       50
176
     1
 90
       50
176
     1
290
     0
176
     1
 90
       50
176
     1
 62
   256
176
     0
 40
1.0
176
     0
 90
        2
176
     1
  1
strokes_ogs.tif
176
     1
290
     0
176
     1
 40
1.0
176
     1
 40
1.0
176
     1
1001
ACAD
1000
AcDbSavedByObjectVersion
1070
     0
  0
VISUALSTYLE
  5
34
102
{ACAD_REACTORS
330
29
102
}
330
29
100
AcDbVisualStyle
  2
Dim
 70
    11
177
     3
291
     1
 70
    58
 90
        2
176
     1
 90
        2
176
     1
 90
        0
176
     1
 90
        0
176
     1
 40
0.6
176
     1
 40
30.0
176
     1
 62
     7
420
 16777215
176
     1
 90
        1
176
     1
 90
        4
176
     1
 62
     7
176
     1
 62
   257
176
     1
 90
        1
176
     1
 90
        1
176
     1
 40
1.0
176
     1
 90
        8
176
     1
 62
     7
176
     1
 40
1.0
176
     1
 90
        1
176
     1
 90
        6
176
     1
 90
        2
176
     1
 62
     7
176
     1
 90
        5
176
     1
 90
        0
176
     1
 90
        0
176
     1
290
     0
176
     1
 90
        1
176
     1
 40
-50.0
176
     1
 90
        0
176
     1
290
     0
176
     1
290
     1
176
     1
290
     1
176
     1
290
     0
176
     1
290
     0
176
     1
290
     0
176
     1
290
     0
176
     1
290
     0
176
     1
290
     0
176
     1
 90
       50
176
     1
 40
0.0
176
     1
 40
1.0
176
     1
 90
        0
176
     1
 62
    18
420
        0
176
     1
 90
       50
176
     1
 90
        3
176
     1
 62
     5
420
      255
176
     1
290
     0
176
     1
 90
       50
176
     1
 90
       50
176
     1
 90
       50
176
     1
290
     0
176
     1
 90
       50
176
     1
 62
   256
176
     0
 40
1.0
176
     0
 90
        2
176
     1
  1
strokes_ogs.tif
176
     1
290
     0
176
     1
 40
1.0
176
     1
 40
1.0
176
     1
1001
ACAD
1000
AcDbSavedByObjectVersion
1070
     0
  0
VISUALSTYLE
  5
41
102
{ACAD_REACTORS
330
29
102
}
330
29
100
AcDbVisualStyle
  2
EdgeColorOff
 70
    22
177
     3
291
     1
 70
    58
 90
        2
176
     0
 90
        2
176
     0
 90
        0
176
     0
 90
        0
176
     0
 40
0.6
176
     0
 40
30.0
176
     0
 62
     7
420
 16777215
176
     0
 90
        1
176
     0
 90
        4
176
     0
 62
     7
176
     0
 62
   257
176
     0
 90
        1
176
     0
 90
        1
176
     0
 40
1.0
176
     0
 90
        8
176
     2
 62
     7
176
     0
 40
1.0
176
     0
 90
        1
176
     0
 90
        6
176
     0
 90
        2
176
     0
 62
     7
176
     0
 90
        5
176
     0
 90
        0
176
     0
 90
        0
176
     0
290
     0
176
     0
 90
        1
176
     0
 40
0.0
176
     0
 90
        0
176
     0
290
     0
176
     0
290
     1
176
     0
290
     1
176
     0
290
     0
176
     0
290
     0
176
     0
290
     0
176
     0
290
     0
176
     0
290
     0
176
     0
290
     0
176
     0
 90
       50
176
     0
 40
0.0
176
     0
 40
1.0
176
     0
 90
        0
176
     0
 62
    18
420
        0
176
     0
 90
       50
176
     0
 90
        3
176
     0
 62
     5
420
      255
176
     0
290
     0
176
     0
 90
       50
176
     0
 90
       50
176
     0
 90
       50
176
     0
290
     0
176
     0
 90
       50
176
     0
 62
   256
176
     0
 40
1.0
176
     0
 90
        2
176
     0
  1
strokes_ogs.tif
176
     0
290
     0
176
     0
 40
1.0
176
     0
 40
1.0
176
     0
1001
ACAD
1000
AcDbSavedByObjectVersion
1070
     0
  0
VISUALSTYLE
  5
38
102
{ACAD_REACTORS
330
29
102
}
330
29
100
AcDbVisualStyle
  2
Facepattern
 70
    15
177
     3
291
     1
 70
    58
 90
        2
176
     1
 90
        2
176
     1
 90
        0
176
     1
 90
        0
176
     1
 40
0.6
176
     1
 40
30.0
176
     1
 62
     7
420
 16777215
176
     1
 90
        1
176
     1
 90
        4
176
     1
 62
     7
176
     1
 62
   257
176
     1
 90
        1
176
     1
 90
        1
176
     1
 40
1.0
176
     1
 90
        8
176
     1
 62
     7
176
     1
 40
1.0
176
     1
 90
        1
176
     1
 90
        6
176
     1
 90
        2
176
     1
 62
     7
176
     1
 90
        5
176
     1
 90
        0
176
     1
 90
        0
176
     1
290
     0
176
     1
 90
        1
176
     1
 40
0.0
176
     1
 90
        0
176
     1
290
     0
176
     1
290
     1
176
     1
290
     1
176
     1
290
     0
176
     1
290
     0
176
     1
290
     0
176
     1
290
     0
176
     1
290
     0
176
     1
290
     0
176
     1
 90
       50
176
     1
 40
0.0
176
     1
 40
1.0
176
     1
 90
        0
176
     1
 62
    18
420
        0
176
     1
 90
       50
176
     1
 90
        3
176
     1
 62
     5
420
      255
176
     1
290
     0
176
     1
 90
       50
176
     1
 90
       50
176
     1
 90
       50
176
     1
290
     0
176
     1
 90
       50
176
     1
 62
   256
176
     0
 40
1.0
176
     0
 90
        2
176
     1
  1
strokes_ogs.tif
176
     1
290
     0
176
     1
 40
1.0
176
     1
 40
1.0
176
     1
1001
ACAD
1000
AcDbSavedByObjectVersion
1070
     0
  0
VISUALSTYLE
  5
2A
102
{ACAD_REACTORS
330
29
102
}
330
29
100
AcDbVisualStyle
  2
Flat
 70
     0
177
     3
291
     1
 70
    58
 90
        2
176
     1
 90
        1
176
     1
 90
        1
176
     1
 90
        2
176
     1
 40
0.6
176
     1
 40
30.0
176
     1
 62
     7
420
 16777215
176
     1
 90
        0
176
     1
 90
        0
176
     1
 62
     7
176
     1
 62
   257
176
     1
 90
        1
176
     1
 90
        1
176
     1
 40
1.0
176
     1
 90
        8
176
     1
 62
     7
176
     1
 40
1.0
176
     1
 90
        1
176
     1
 90
        6
176
     1
 90
        2
176
     1
 62
     7
176
     1
 90
        5
176
     1
 90
        0
176
     1
 90
        0
176
     1
290
     0
176
     1
 90
       13
176
     1
 40
0.0
176
     1
 90
        0
176
     1
290
     0
176
     1
290
     1
176
     1
290
     1
176
     1
290
     0
176
     1
290
     0
176
     1
290
     0
176
     1
290
     0
176
     1
290
     0
176
     1
290
     0
176
     1
 90
       50
176
     1
 40
0.0
176
     1
 40
1.0
176
     1
 90
        0
176
     1
 62
    18
420
        0
176
     1
 90
       50
176
     1
 90
        3
176
     1
 62
     5
420
      255
176
     1
290
     0
176
     1
 90
       50
176
     1
 90
       50
176
     1
 90
       50
176
     1
290
     0
176
     1
 90
       50
176
     1
 62
   256
176
     0
 40
1.0
176
     0
 90
        2
176
     1
  1
strokes_ogs.tif
176
     1
290
     0
176
     1
 40
1.0
176
     1
 40
1.0
176
     1
1001
ACAD
1000
AcDbSavedByObjectVersion
1070
     0
  0
VISUALSTYLE
  5
2B
102
{ACAD_REACTORS
330
29
102
}
330
29
100
AcDbVisualStyle
  2
FlatWithEdges
 70
     1
177
     3
291
     1
 70
    58
 90
        2
176
     1
 90
        1
176
     1
 90
        1
176
     1
 90
        2
176
     1
 40
0.6
176
     1
 40
30.0
176
     1
 62
     7
420
 16777215
176
     1
 90
        1
176
     1
 90
        0
176
     1
 62
     7
176
     1
 62
   257
176
     1
 90
        1
176
     1
 90
        1
176
     1
 40
1.0
176
     1
 90
        0
176
     1
 62
   257
176
     1
 40
1.0
176
     1
 90
        1
176
     1
 90
        6
176
     1
 90
        2
176
     1
 62
     7
176
     1
 90
        5
176
     1
 90
        0
176
     1
 90
        0
176
     1
290
     0
176
     1
 90
       13
176
     1
 40
0.0
176
     1
 90
        0
176
     1
290
     0
176
     1
290
     1
176
     1
290
     1
176
     1
290
     0
176
     1
290
     0
176
     1
290
     0
176
     1
290
     0
176
     1
290
     0
176
     1
290
     0
176
     1
 90
       50
176
     1
 40
0.0
176
     1
 40
1.0
176
     1
 90
        0
176
     1
 62
    18
420
        0
176
     1
 90
       50
176
     1
 90
        3
176
     1
 62
     5
420
      255
176
     1
290
     0
176
     1
 90
       50
176
     1
 90
       50
176
     1
 90
       50
176
     1
290
     0
176
     1
 90
       50
176
     1
 62
   256
176
     0
 40
1.0
176
     0
 90
        2
176
     1
  1
strokes_ogs.tif
176
     1
290
     0
176
     1
 40
1.0
176
     1
 40
1.0
176
     1
1001
ACAD
1000
AcDbSavedByObjectVersion
1070
     0
  0
VISUALSTYLE
  5
2C
102
{ACAD_REACTORS
330
29
102
}
330
29
100
AcDbVisualStyle
  2
Gouraud
 70
     2
177
     3
291
     1
 70
    58
 90
        2
176
     1
 90
        2
176
     1
 90
        1
176
     1
 90
        2
176
     1
 40
0.6
176
     1
 40
30.0
176
     1
 62
     7
420
 16777215
176
     1
 90
        0
176
     1
 90
        0
176
     1
 62
     7
176
     1
 62
   257
176
     1
 90
        1
176
     1
 90
        1
176
     1
 40
1.0
176
     1
 90
        0
176
     1
 62
     7
176
     1
 40
1.0
176
     1
 90
        1
176
     1
 90
        6
176
     1
 90
        2
176
     1
 62
     7
176
     1
 90
        5
176
     1
 90
        0
176
     1
 90
        0
176
     1
290
     0
176
     1
 90
       13
176
     1
 40
0.0
176
     1
 90
        0
176
     1
290
     0
176
     1
290
     1
176
     1
290
     1
176
     1
290
     0
176
     1
290
     0
176
     1
290
     0
176
     1
290
     0
176
     1
290
     0
176
     1
290
     0
176
     1
 90
       50
176
     1
 40
0.0
176
     1
 40
1.0
176
     1
 90
        0
176
     1
 62
    18
420
        0
176
     1
 90
       50
176
     1
 90
        3
176
     1
 62
     5
420
      255
176
     1
290
     0
176
     1
 90
       50
176
     1
 90
       50
176
     1
 90
       50
176
     1
290
     0
176
     1
 90
       50
176
     1
 62
   256
176
     0
 40
1.0
176
     0
 90
        2
176
     1
  1
strokes_ogs.tif
176
     1
290
     0
176
     1
 40
1.0
176
     1
 40
1.0
176
     1
1001
ACAD
1000
AcDbSavedByObjectVersion
1070
     0
  0
VISUALSTYLE
  5
2D
102
{ACAD_REACTORS
330
29
102
}
330
29
100
AcDbVisualStyle
  2
GouraudWithEdges
 70
     3
177
     3
291
     1
 70
    58
 90
        2
176
     1
 90
        2
176
     1
 90
        1
176
     1
 90
        2
176
     1
 40
0.6
176
     1
 40
30.0
176
     1
 62
     7
420
 16777215
176
     1
 90
        1
176
     1
 90
        0
176
     1
 62
     7
176
     1
 62
   257
176
     1
 90
        1
176
     1
 90
        1
176
     1
 40
1.0
176
     1
 90
        0
176
     1
 62
   257
176
     1
 40
1.0
176
     1
 90
        1
176
     1
 90
        6
176
     1
 90
        2
176
     1
 62
     7
176
     1
 90
        5
176
     1
 90
        0
176
     1
 90
        0
176
     1
290
     0
176
     1
 90
       13
176
     1
 40
0.0
176
     1
 90
        0
176
     1
290
     0
176
     1
290
     1
176
     1
290
     1
176
     1
290
     0
176
     1
290
     0
176
     1
290
     0
176
     1
290
     0
176
     1
290
     0
176
     1
290
     0
176
     1
 90
       50
176
     1
 40
0.0
176
     1
 40
1.0
176
     1
 90
        0
176
     1
 62
    18
420
        0
176
     1
 90
       50
176
     1
 90
        3
176
     1
 62
     5
420
      255
176
     1
290
     0
176
     1
 90
       50
176
     1
 90
       50
176
     1
 90
       50
176
     1
290
     0
176
     1
 90
       50
176
     1
 62
   256
176
     0
 40
1.0
176
     0
 90
        2
176
     1
  1
strokes_ogs.tif
176
     1
290
     0
176
     1
 40
1.0
176
     1
 40
1.0
176
     1
1001
ACAD
1000
AcDbSavedByObjectVersion
1070
     0
  0
VISUALSTYLE
  5
31
102
{ACAD_REACTORS
330
29
102
}
330
29
100
AcDbVisualStyle
  2
Hidden
 70
     6
177
     3
291
     0
 70
    58
 90
        1
176
     1
 90
        2
176
     1
 90
        2
176
     1
 90
        0
176
     1
 40
0.6
176
     1
 40
30.0
176
     1
 62
     7
420
 16777215
176
     1
 90
        2
176
     1
 90
        2
176
     1
 62
     7
176
     1
 62
   257
176
     1
 90
        2
176
     1
 90
        1
176
     1
 40
40.0
176
     1
 90
        0
176
     1
 62
   257
176
     1
 40
1.0
176
     1
 90
        1
176
     1
 90
        6
176
     1
 90
        2
176
     1
 62
     7
176
     1
 90
        3
176
     1
 90
        0
176
     1
 90
        0
176
     1
290
     0
176
     1
 90
        1
176
     1
 40
0.0
176
     1
 90
        0
176
     1
290
     0
176
     1
290
     1
176
     1
290
     1
176
     1
290
     0
176
     1
290
     0
176
     1
290
     0
176
     1
290
     0
176
     1
290
     0
176
     1
290
     0
176
     1
 90
       50
176
     1
 40
0.0
176
     1
 40
1.0
176
     1
 90
        0
176
     1
 62
    18
420
        0
176
     1
 90
       50
176
     1
 90
        3
176
     1
 62
     5
420
      255
176
     1
290
     0
176
     1
 90
       50
176
     1
 90
       50
176
     1
 90
       50
176
     1
290
     0
176
     1
 90
       50
176
     1
 62
   256
176
     0
 40
1.0
176
     0
 90
        2
176
     1
  1
strokes_ogs.tif
176
     1
290
     0
176
     1
 40
1.0
176
     1
 40
1.0
176
     1
1001
ACAD
1000
AcDbSavedByObjectVersion
1070
     0
  0
VISUALSTYLE
  5
3F
102
{ACAD_REACTORS
330
29
102
}
330
29
100
AcDbVisualStyle
  2
JitterOff
 70
    20
177
     3
291
     1
 70
    58
 90
        2
176
     0
 90
        2
176
     0
 90
        0
176
     0
 90
        0
176
     0
 40
0.6
176
     0
 40
30.0
176
     0
 62
     7
420
 16777215
176
     0
 90
        1
176
     0
 90
        4
176
     0
 62
     7
176
     0
 62
   257
176
     0
 90
        1
176
     0
 90
        1
176
     0
 40
1.0
176
     0
 90
       10
176
     2
 62
     7
176
     0
 40
1.0
176
     0
 90
        1
176
     0
 90
        6
176
     0
 90
        2
176
     0
 62
     7
176
     0
 90
        5
176
     0
 90
        0
176
     0
 90
        0
176
     0
290
     0
176
     0
 90
        1
176
     0
 40
0.0
176
     0
 90
        0
176
     0
290
     0
176
     0
290
     1
176
     0
290
     1
176
     0
290
     0
176
     0
290
     0
176
     0
290
     0
176
     0
290
     0
176
     0
290
     0
176
     0
290
     0
176
     0
 90
       50
176
     0
 40
0.0
176
     0
 40
1.0
176
     0
 90
        0
176
     0
 62
    18
420
        0
176
     0
 90
       50
176
     0
 90
        3
176
     0
 62
     5
420
      255
176
     0
290
     0
176
     0
 90
       50
176
     0
 90
       50
176
     0
 90
       50
176
     0
290
     0
176
     0
 90
       50
176
     0
 62
   256
176
     0
 40
1.0
176
     0
 90
        2
176
     0
  1
strokes_ogs.tif
176
     0
290
     0
176
     0
 40
1.0
176
     0
 40
1.0
176
     0
1001
ACAD
1000
AcDbSavedByObjectVersion
1070
     0
  0
VISUALSTYLE
  5
37
102
{ACAD_REACTORS
330
29
102
}
330
29
100
AcDbVisualStyle
  2
Linepattern
 70
    14
177
     3
291
     1
 70
    58
 90
        2
176
     1
 90
        2
176
     1
 90
        0
176
     1
 90
        0
176
     1
 40
0.6
176
     1
 40
30.0
176
     1
 62
     7
420
 16777215
176
     1
 90
        1
176
     1
 90
        4
176
     1
 62
     7
176
     1
 62
   257
176
     1
 90
        7
176
     1
 90
        7
176
     1
 40
1.0
176
     1
 90
        8
176
     1
 62
     7
176
     1
 40
1.0
176
     1
 90
        1
176
     1
 90
        6
176
     1
 90
        2
176
     1
 62
     7
176
     1
 90
        5
176
     1
 90
        0
176
     1
 90
        0
176
     1
290
     0
176
     1
 90
        1
176
     1
 40
0.0
176
     1
 90
        0
176
     1
290
     0
176
     1
290
     1
176
     1
290
     1
176
     1
290
     0
176
     1
290
     0
176
     1
290
     0
176
     1
290
     0
176
     1
290
     0
176
     1
290
     0
176
     1
 90
       50
176
     1
 40
0.0
176
     1
 40
1.0
176
     1
 90
        0
176
     1
 62
    18
420
        0
176
     1
 90
       50
176
     1
 90
        3
176
     1
 62
     5
420
      255
176
     1
290
     0
176
     1
 90
       50
176
     1
 90
       50
176
     1
 90
       50
176
     1
290
     0
176
     1
 90
       50
176
     1
 62
   256
176
     0
 40
1.0
176
     0
 90
        2
176
     1
  1
strokes_ogs.tif
176
     1
290
     0
176
     1
 40
1.0
176
     1
 40
1.0
176
     1
1001
ACAD
1000
AcDbSavedByObjectVersion
1070
     0
  0
VISUALSTYLE
  5
40
102
{ACAD_REACTORS
330
29
102
}
330
29
100
AcDbVisualStyle
  2
OverhangOff
 70
    21
177
     3
291
     1
 70
    58
 90
        2
176
     0
 90
        2
176
     0
 90
        0
176
     0
 90
        0
176
     0
 40
0.6
176
     0
 40
30.0
176
     0
 62
     7
420
 16777215
176
     0
 90
        1
176
     0
 90
        4
176
     0
 62
     7
176
     0
 62
   257
176
     0
 90
        1
176
     0
 90
        1
176
     0
 40
1.0
176
     0
 90
        9
176
     2
 62
     7
176
     0
 40
1.0
176
     0
 90
        1
176
     0
 90
        6
176
     0
 90
        2
176
     0
 62
     7
176
     0
 90
        5
176
     0
 90
        0
176
     0
 90
        0
176
     0
290
     0
176
     0
 90
        1
176
     0
 40
0.0
176
     0
 90
        0
176
     0
290
     0
176
     0
290
     1
176
     0
290
     1
176
     0
290
     0
176
     0
290
     0
176
     0
290
     0
176
     0
290
     0
176
     0
290
     0
176
     0
290
     0
176
     0
 90
       50
176
     0
 40
0.0
176
     0
 40
1.0
176
     0
 90
        0
176
     0
 62
    18
420
        0
176
     0
 90
       50
176
     0
 90
        3
176
     0
 62
     5
420
      255
176
     0
290
     0
176
     0
 90
       50
176
     0
 90
       50
176
     0
 90
       50
176
     0
290
     0
176
     0
 90
       50
176
     0
 62
   256
176
     0
 40
1.0
176
     0
 90
        2
176
     0
  1
strokes_ogs.tif
176
     0
290
     0
176
     0
 40
1.0
176
     0
 40
1.0
176
     0
1001
ACAD
1000
AcDbSavedByObjectVersion
1070
     0
  0
VISUALSTYLE
  5
33
102
{ACAD_REACTORS
330
29
102
}
330
29
100
AcDbVisualStyle
  2
Realistic
 70
     8
177
     3
291
     0
 70
    58
 90
        2
176
     1
 90
        3
176
     1
 90
        0
176
     1
 90
        2
176
     1
 40
0.6
176
     1
 40
30.0
176
     1
 62
     7
420
 16777215
176
     1
 90
        0
176
     1
 90
        0
176
     1
 62
     7
176
     1
 62
   257
176
     1
 90
        1
176
     1
 90
        1
176
     1
 40
1.0
176
     1
 90
        8
176
     1
 62
   257
176
     1
 40
1.0
176
     1
 90
        1
176
     1
 90
        6
176
     1
 90
        2
176
     1
 62
     7
176
     1
 90
        3
176
     1
 90
        0
176
     1
 90
        0
176
     1
290
     0
176
     1
 90
       13
176
     1
 40
0.0
176
     1
 90
        0
176
     1
290
     0
176
     1
290
     1
176
     1
290
     1
176
     1
290
     0
176
     1
290
     0
176
     1
290
     0
176
     1
290
     0
176
     1
290
     0
176
     1
290
     0
176
     1
 90
       50
176
     1
 40
0.0
176
     1
 40
1.0
176
     1
 90
        0
176
     1
 62
    18
420
        0
176
     1
 90
       50
176
     1
 90
        3
176
     1
 62
     5
420
      255
176
     1
290
     0
176
     1
 90
       50
176
     1
 90
       50
176
     1
 90
       50
176
     1
290
     0
176
     1
 90
       50
176
     1
 62
   256
176
     0
 40
1.0
176
     0
 90
        2
176
     1
  1
strokes_ogs.tif
176
     1
290
     0
176
     1
 40
1.0
176
     1
 40
1.0
176
     1
1001
ACAD
1000
AcDbSavedByObjectVersion
1070
     0
  0
VISUALSTYLE
  5
3E
102
{ACAD_REACTORS
330
29
102
}
330
29
100
AcDbVisualStyle
  2
Shaded
 70
    27
177
     3
291
     0
 70
    58
 90
        2
176
     1
 90
        2
176
     1
 90
        1
176
     1
 90
        2
176
     1
 40
0.6
176
     1
 40
30.0
176
     1
 62
     7
420
 16777215
176
     1
 90
        0
176
     1
 90
        4
176
     1
 62
     7
176
     1
 62
   257
176
     1
 90
        1
176
     1
 90
        1
176
     1
 40
1.0
176
     1
 90
        8
176
     1
 62
   257
176
     1
 40
1.0
176
     1
 90
        1
176
     1
 90
        6
176
     1
 90
        2
176
     1
 62
     8
420
  7895160
176
     1
 90
        3
176
     1
 90
        0
176
     1
 90
        0
176
     1
290
     0
176
     1
 90
        5
176
     1
 40
0.0
176
     1
 90
        0
176
     1
290
     0
176
     1
290
     1
176
     1
290
     1
176
     1
290
     0
176
     1
290
     0
176
     1
290
     0
176
     1
290
     0
176
     1
290
     0
176
     1
290
     0
176
     1
 90
       50
176
     1
 40
0.0
176
     1
 40
1.0
176
     1
 90
        0
176
     1
 62
    18
420
        0
176
     1
 90
       50
176
     1
 90
        3
176
     1
 62
     5
420
      255
176
     1
290
     0
176
     1
 90
       50
176
     1
 90
       50
176
     1
 90
       50
176
     1
290
     0
176
     1
 90
       50
176
     1
 62
   256
176
     0
 40
1.0
176
     0
 90
        2
176
     1
  1
strokes_ogs.tif
176
     1
290
     0
176
     1
 40
1.0
176
     1
 40
1.0
176
     1
1001
ACAD
1000
AcDbSavedByObjectVersion
1070
     0
  0
VISUALSTYLE
  5
3D
102
{ACAD_REACTORS
330
29
102
}
330
29
100
AcDbVisualStyle
  2
Shaded with edges
 70
    26
177
     3
291
     0
 70
    58
 90
        2
176
     1
 90
        2
176
     1
 90
        1
176
     1
 90
        2
176
     1
 40
0.6
176
     1
 40
30.0
176
     1
 62
     7
420
 16777215
176
     1
 90
        1
176
     1
 90
        2
176
     1
 62
     7
176
     1
 62
   257
176
     1
 90
        2
176
     1
 90
        1
176
     1
 40
1.0
176
     1
 90
        8
176
     1
 62
   257
176
     1
 40
1.0
176
     1
 90
        1
176
     1
 90
        6
176
     1
 90
        2
176
     1
 62
     7
176
     1
 90
        3
176
     1
 90
        0
176
     1
 90
        0
176
     1
290
     0
176
     1
 90
        5
176
     1
 40
0.0
176
     1
 90
        0
176
     1
290
     0
176
     1
290
     1
176
     1
290
     1
176
     1
290
     0
176
     1
290
     0
176
     1
290
     0
176
     1
290
     0
176
     1
290
     0
176
     1
290
     0
176
     1
 90
       50
176
     1
 40
0.0
176
     1
 40
1.0
176
     1
 90
        0
176
     1
 62
    18
420
        0
176
     1
 90
       50
176
     1
 90
        3
176
     1
 62
     5
420
      255
176
     1
290
     0
176
     1
 90
       50
176
     1
 90
       50
176
     1
 90
       50
176
     1
290
     0
176
     1
 90
       50
176
     1
 62
   256
176
     0
 40
1.0
176
     0
 90
        2
176
     1
  1
strokes_ogs.tif
176
     1
290
     0
176
     1
 40
1.0
176
     1
 40
1.0
176
     1
1001
ACAD
1000
AcDbSavedByObjectVersion
1070
     0
  0
VISUALSTYLE
  5
3A
102
{ACAD_REACTORS
330
29
102
}
330
29
100
AcDbVisualStyle
  2
Shades of Gray
 70
    23
177
     3
291
     0
 70
    58
 90
        2
176
     1
 90
        2
176
     1
 90
        3
176
     1
 90
        0
176
     1
 40
0.6
176
     1
 40
30.0
176
     1
 62
     7
420
 16777215
176
     1
 90
        2
176
     1
 90
        2
176
     1
 62
     7
176
     1
 62
     7
176
     1
 90
        1
176
     1
 90
        1
176
     1
 40
40.0
176
     1
 90
        8
176
     1
 62
     7
176
     1
 40
1.0
176
     1
 90
        1
176
     1
 90
        6
176
     1
 90
        2
176
     1
 62
     7
176
     1
 90
        3
176
     1
 90
        0
176
     1
 90
        0
176
     1
290
     0
176
     1
 90
        1
176
     1
 40
0.0
176
     1
 90
        0
176
     1
290
     0
176
     1
290
     1
176
     1
290
     1
176
     1
290
     0
176
     1
290
     0
176
     1
290
     0
176
     1
290
     0
176
     1
290
     0
176
     1
290
     0
176
     1
 90
       50
176
     1
 40
0.0
176
     1
 40
1.0
176
     1
 90
        0
176
     1
 62
    18
420
        0
176
     1
 90
       50
176
     1
 90
        3
176
     1
 62
     5
420
      255
176
     1
290
     0
176
     1
 90
       50
176
     1
 90
       50
176
     1
 90
       50
176
     1
290
     0
176
     1
 90
       50
176
     1
 62
   256
176
     0
 40
1.0
176
     0
 90
        2
176
     1
  1
strokes_ogs.tif
176
     1
290
     0
176
     1
 40
1.0
176
     1
 40
1.0
176
     1
1001
ACAD
1000
AcDbSavedByObjectVersion
1070
     0
  0
VISUALSTYLE
  5
3B
102
{ACAD_REACTORS
330
29
102
}
330
29
100
AcDbVisualStyle
  2
Sketchy
 70
    24
177
     3
291
     0
 70
    58
 90
        1
176
     1
 90
        2
176
     1
 90
        2
176
     1
 90
        0
176
     1
 40
0.6
176
     1
 40
30.0
176
     1
 62
     7
420
 16777215
176
     1
 90
        2
176
     1
 90
        2
176
     1
 62
     7
176
     1
 62
     7
176
     1
 90
        1
176
     1
 90
        1
176
     1
 40
40.0
176
     1
 90
       11
176
     1
 62
     7
176
     1
 40
1.0
176
     1
 90
        1
176
     1
 90
        6
176
     1
 90
        2
176
     1
 62
     7
176
     1
 90
        6
176
     1
 90
        0
176
     1
 90
        0
176
     1
290
     0
176
     1
 90
        1
176
     1
 40
0.0
176
     1
 90
        0
176
     1
290
     0
176
     1
290
     1
176
     1
290
     1
176
     1
290
     0
176
     1
290
     0
176
     1
290
     0
176
     1
290
     0
176
     1
290
     0
176
     1
290
     0
176
     1
 90
       50
176
     1
 40
0.0
176
     1
 40
1.0
176
     1
 90
        0
176
     1
 62
    18
420
        0
176
     1
 90
       50
176
     1
 90
        3
176
     1
 62
     5
420
      255
176
     1
290
     0
176
     1
 90
       50
176
     1
 90
       50
176
     1
 90
       50
176
     1
290
     0
176
     1
 90
       50
176
     1
 62
   256
176
     0
 40
1.0
176
     0
 90
        2
176
     1
  1
strokes_ogs.tif
176
     1
290
     0
176
     1
 40
1.0
176
     1
 40
1.0
176
     1
1001
ACAD
1000
AcDbSavedByObjectVersion
1070
     0
  0
VISUALSTYLE
  5
36
102
{ACAD_REACTORS
330
29
102
}
330
29
100
AcDbVisualStyle
  2
Thicken
 70
    13
177
     3
291
     1
 70
    58
 90
        2
176
     1
 90
        2
176
     1
 90
        0
176
     1
 90
        0
176
     1
 40
0.6
176
     1
 40
30.0
176
     1
 62
     7
420
 16777215
176
     1
 90
        1
176
     1
 90
        4
176
     1
 62
     7
176
     1
 62
   257
176
     1
 90
        1
176
     1
 90
        1
176
     1
 40
1.0
176
     1
 90
       12
176
     1
 62
     7
176
     1
 40
1.0
176
     1
 90
        1
176
     1
 90
        6
176
     1
 90
        2
176
     1
 62
     7
176
     1
 90
        5
176
     1
 90
        0
176
     1
 90
        0
176
     1
290
     0
176
     1
 90
        1
176
     1
 40
0.0
176
     1
 90
        0
176
     1
290
     0
176
     1
290
     1
176
     1
290
     1
176
     1
290
     0
176
     1
290
     0
176
     1
290
     0
176
     1
290
     0
176
     1
290
     0
176
     1
290
     0
176
     1
 90
       50
176
     1
 40
0.0
176
     1
 40
1.0
176
     1
 90
        0
176
     1
 62
    18
420
        0
176
     1
 90
       50
176
     1
 90
        3
176
     1
 62
     5
420
      255
176
     1
290
     0
176
     1
 90
       50
176
     1
 90
       50
176
     1
 90
       50
176
     1
290
     0
176
     1
 90
       50
176
     1
 62
   256
176
     0
 40
1.0
176
     0
 90
        2
176
     1
  1
strokes_ogs.tif
176
     1
290
     0
176
     1
 40
1.0
176
     1
 40
1.0
176
     1
1001
ACAD
1000
AcDbSavedByObjectVersion
1070
     0
  0
VISUALSTYLE
  5
30
102
{ACAD_REACTORS
330
29
102
}
330
29
100
AcDbVisualStyle
  2
Wireframe
 70
     5
177
     3
291
     0
 70
    58
 90
        0
176
     1
 90
        2
176
     1
 90
        0
176
     1
 90
        0
176
     1
 40
0.6
176
     1
 40
30.0
176
     1
 62
     7
420
 16777215
176
     1
 90
        1
176
     1
 90
        4
176
     1
 62
     7
176
     1
 62
   257
176
     1
 90
        1
176
     1
 90
        1
176
     1
 40
1.0
176
     1
 90
        0
176
     1
 62
   257
176
     1
 40
1.0
176
     1
 90
        1
176
     1
 90
        6
176
     1
 90
        2
176
     1
 62
     7
176
     1
 90
        3
176
     1
 90
        0
176
     1
 90
        0
176
     1
290
     0
176
     1
 90
        1
176
     1
 40
0.0
176
     1
 90
        0
176
     1
290
     0
176
     1
290
     1
176
     1
290
     1
176
     1
290
     0
176
     1
290
     0
176
     1
290
     0
176
     1
290
     0
176
     1
290
     0
176
     1
290
     0
176
     1
 90
       50
176
     1
 40
0.0
176
     1
 40
1.0
176
     1
 90
        0
176
     1
 62
    18
420
        0
176
     1
 90
       50
176
     1
 90
        3
176
     1
 62
     5
420
      255
176
     1
290
     0
176
     1
 90
       50
176
     1
 90
       50
176
     1
 90
       50
176
     1
290
     0
176
     1
 90
       50
176
     1
 62
   256
176
     0
 40
1.0
176
     0
 90
        2
176
     1
  1
strokes_ogs.tif
176
     1
290
     0
176
     1
 40
1.0
176
     1
 40
1.0
176
     1
1001
ACAD
1000
AcDbSavedByObjectVersion
1070
     0
  0
VISUALSTYLE
  5
3C
102
{ACAD_REACTORS
330
29
102
}
330
29
100
AcDbVisualStyle
  2
X-Ray
 70
    25
177
     3
291
     0
 70
    58
 90
        2
176
     1
 90
        2
176
     1
 90
        1
176
     1
 90
        1
176
     1
 40
0.5
176
     1
 40
30.0
176
     1
 62
     7
420
 16777215
176
     1
 90
        1
176
     1
 90
        0
176
     1
 62
     7
176
     1
 62
   257
176
     1
 90
        1
176
     1
 90
        1
176
     1
 40
1.0
176
     1
 90
        8
176
     1
 62
     7
176
     1
 40
1.0
176
     1
 90
        1
176
     1
 90
        6
176
     1
 90
        2
176
     1
 62
     7
176
     1
 90
        3
176
     1
 90
        0
176
     1
 90
        0
176
     1
290
     0
176
     1
 90
       13
176
     1
 40
0.0
176
     1
 90
        0
176
     1
290
     0
176
     1
290
     1
176
     1
290
     1
176
     1
290
     0
176
     1
290
     0
176
     1
290
     0
176
     1
290
     0
176
     1
290
     0
176
     1
290
     0
176
     1
 90
       50
176
     1
 40
0.0
176
     1
 40
1.0
176
     1
 90
        0
176
     1
 62
    18
420
        0
176
     1
 90
       50
176
     1
 90
        3
176
     1
 62
     5
420
      255
176
     1
290
     0
176
     1
 90
       50
176
     1
 90
       50
176
     1
 90
       50
176
     1
290
     0
176
     1
 90
       50
176
     1
 62
   256
176
     0
 40
1.0
176
     0
 90
        2
176
     1
  1
strokes_ogs.tif
176
     1
290
     0
176
     1
 40
1.0
176
     1
 40
1.0
176
     1
1001
ACAD
1000
AcDbSavedByObjectVersion
1070
     0
  0
DICTIONARYVAR
  5
40D
102
{ACAD_REACTORS
330
408
102
}
330
408
100
DictionaryVariables
280
     0
  1
0
  0
DICTIONARYVAR
  5
40E
102
{ACAD_REACTORS
330
408
102
}
330
408
100
DictionaryVariables
280
     0
  1
1:1
  0
DICTIONARYVAR
  5
40A
102
{ACAD_REACTORS
330
408
102
}
330
408
100
DictionaryVariables
280
     0
  1
STANDARD
  0
DICTIONARYVAR
  5
409
102
{ACAD_REACTORS
330
408
102
}
330
408
100
DictionaryVariables
280
     0
  1
STANDARD
  0
DICTIONARYVAR
  5
40B
102
{ACAD_REACTORS
330
408
102
}
330
408
100
DictionaryVariables
280
     0
  1
Imperial24
  0
DICTIONARYVAR
  5
40C
102
{ACAD_REACTORS
330
408
102
}
330
408
100
DictionaryVariables
280
     0
  1
Imperial24
  0
DICTIONARY
  5
414
330
6B
100
AcDbDictionary
280
     1
281
     1
  3
ACAD_XREC_ROUNDTRIP
360
415
  0
DICTIONARY
  5
1A
330
19
100
AcDbDictionary
280
     1
281
     1
  3
BUMPTILE
360
1C
  3
DIFFUSETILE
360
1B
  3
OPACITYTILE
360
1F
  3
REFLECTIONTILE
360
1E
  3
REFRACTIONTILE
360
20
  3
SPECULARTILE
360
1D
  0
DICTIONARY
  5
12
330
11
100
AcDbDictionary
280
     1
281
     1
  3
BUMPTILE
360
14
  3
DIFFUSETILE
360
13
  3
OPACITYTILE
360
17
  3
REFLECTIONTILE
360
16
  3
REFRACTIONTILE
360
18
  3
SPECULARTILE
360
15
  0
DICTIONARY
  5
22
330
21
100
AcDbDictionary
280
     1
281
     1
  3
BUMPTILE
360
24
  3
DIFFUSETILE
360
23
  3
OPACITYTILE
360
27
  3
REFLECTIONTILE
360
26
  3
REFRACTIONTILE
360
28
  3
SPECULARTILE
360
25
  0
DICTIONARY
  5
412
330
69
100
AcDbDictionary
280
     1
281
     1
  3
ACAD_XREC_ROUNDTRIP
360
413
  0
DICTIONARY
  5
40F
330
65
100
AcDbDictionary
280
     1
281
     1
  3
ACAD_ROUNDTRIP_2008_TABLESTYLE_CELLSTYLEMAP
360
410
  0
XRECORD
  5
415
102
{ACAD_REACTORS
330
414
102
}
330
414
100
AcDbXrecord
280
     1
102
DISPLAYNAME
  1
Imperial24
102
FLAGS
 90
        0
  0
XRECORD
  5
1C
102
{ACAD_REACTORS
330
1A
102
}
330
1A
100
AcDbXrecord
280
     1
270
     1
271
     1
  0
XRECORD
  5
1B
102
{ACAD_REACTORS
330
1A
102
}
330
1A
100
AcDbXrecord
280
     1
270
     1
271
     1
  0
XRECORD
  5
1F
102
{ACAD_REACTORS
330
1A
102
}
330
1A
100
AcDbXrecord
280
     1
270
     1
271
     1
  0
XRECORD
  5
1E
102
{ACAD_REACTORS
330
1A
102
}
330
1A
100
AcDbXrecord
280
     1
270
     1
271
     1
  0
XRECORD
  5
20
102
{ACAD_REACTORS
330
1A
102
}
330
1A
100
AcDbXrecord
280
     1
270
     1
271
     1
  0
XRECORD
  5
1D
102
{ACAD_REACTORS
330
1A
102
}
330
1A
100
AcDbXrecord
280
     1
270
     1
271
     1
  0
XRECORD
  5
14
102
{ACAD_REACTORS
330
12
102
}
330
12
100
AcDbXrecord
280
     1
270
     1
271
     1
  0
XRECORD
  5
13
102
{ACAD_REACTORS
330
12
102
}
330
12
100
AcDbXrecord
280
     1
270
     1
271
     1
  0
XRECORD
  5
17
102
{ACAD_REACTORS
330
12
102
}
330
12
100
AcDbXrecord
280
     1
270
     1
271
     1
  0
XRECORD
  5
16
102
{ACAD_REACTORS
330
12
102
}
330
12
100
AcDbXrecord
280
     1
270
     1
271
     1
  0
XRECORD
  5
18
102
{ACAD_REACTORS
330
12
102
}
330
12
100
AcDbXrecord
280
     1
270
     1
271
     1
  0
XRECORD
  5
15
102
{ACAD_REACTORS
330
12
102
}
330
12
100
AcDbXrecord
280
     1
270
     1
271
     1
  0
XRECORD
  5
24
102
{ACAD_REACTORS
330
22
102
}
330
22
100
AcDbXrecord
280
     1
270
     1
271
     1
  0
XRECORD
  5
23
102
{ACAD_REACTORS
330
22
102
}
330
22
100
AcDbXrecord
280
     1
270
     1
271
     1
  0
XRECORD
  5
27
102
{ACAD_REACTORS
330
22
102
}
330
22
100
AcDbXrecord
280
     1
270
     1
271
     1
  0
XRECORD
  5
26
102
{ACAD_REACTORS
330
22
102
}
330
22
100
AcDbXrecord
280
     1
270
     1
271
     1
  0
XRECORD
  5
28
102
{ACAD_REACTORS
330
22
102
}
330
22
100
AcDbXrecord
280
     1
270
     1
271
     1
  0
XRECORD
  5
25
102
{ACAD_REACTORS
330
22
102
}
330
22
100
AcDbXrecord
280
     1
270
     1
271
     1
  0
XRECORD
  5
413
102
{ACAD_REACTORS
330
412
102
}
330
412
100
AcDbXrecord
280
     1
102
DISPLAYNAME
  1
Imperial24
102
FLAGS
 90
        0
  0
CELLSTYLEMAP
  5
410
102
{ACAD_REACTORS
330
40F
102
}
330
40F
100
AcDbCellStyleMap
 90
        3
300
CELLSTYLE
  1
TABLEFORMAT_BEGIN
 90
        5
170
     1
 91
        0
 92
    32768
 62
   257
 93
        1
300
CONTENTFORMAT
  1
CONTENTFORMAT_BEGIN
 90
        0
 91
        0
 92
      512
 93
        0
300

 40
0.0
140
1.0
 94
        5
 62
     0
340
55
144
0.25
309
CONTENTFORMAT_END
171
     0
 94
        0
309
TABLEFORMAT_END
  1
CELLSTYLE_BEGIN
 90
        1
 91
        1
300
_TITLE
309
CELLSTYLE_END
300
CELLSTYLE
  1
TABLEFORMAT_BEGIN
 90
        5
170
     1
 91
        0
 92
        0
 62
   257
 93
        1
300
CONTENTFORMAT
  1
CONTENTFORMAT_BEGIN
 90
        0
 91
        0
 92
      512
 93
        0
300

 40
0.0
140
1.0
 94
        5
 62
     0
340
55
144
0.18
309
CONTENTFORMAT_END
171
     0
 94
        0
309
TABLEFORMAT_END
  1
CELLSTYLE_BEGIN
 90
        2
 91
        1
300
_HEADER
309
CELLSTYLE_END
300
CELLSTYLE
  1
TABLEFORMAT_BEGIN
 90
        5
170
     1
 91
        0
 92
        0
 62
   257
 93
        1
300
CONTENTFORMAT
  1
CONTENTFORMAT_BEGIN
 90
        0
 91
        0
 92
      512
 93
        0
300

 40
0.0
140
1.0
 94
        2
 62
     0
340
55
144
0.18
309
CONTENTFORMAT_END
171
     0
 94
        0
309
TABLEFORMAT_END
  1
CELLSTYLE_BEGIN
 90
        3
 91
        2
300
_DATA
309
CELLSTYLE_END
  0
ENDSEC
  0
EOF
